  0
SECTION
  2
HEADER
  9
$ACADVER
  1
AC1015
  9
$ACADMAINTVER
 70
     6
  9
$DWGCODEPAGE
  3
ANSI_1252
  9
$INSBASE
 10
0.0
 20
0.0
 30
0.0
  9
$EXTMIN
 10
-0.0005762886007545
 20
-0.0004726904264984
 30
-0.0000000000112498
  9
$EXTMAX
 10
20.24118458427814
 20
31.00047312351788
 30
0.0000000000002956
  9
$LIMMIN
 10
0.0
 20
0.0
  9
$LIMMAX
 10
20.24
 20
31.0
  9
$ORTHOMODE
 70
     1
  9
$REGENMODE
 70
     1
  9
$FILLMODE
 70
     1
  9
$QTEXTMODE
 70
     0
  9
$MIRRTEXT
 70
     0
  9
$LTSCALE
 40
0.75
  9
$ATTMODE
 70
     1
  9
$TEXTSIZE
 40
0.25
  9
$TRACEWID
 40
0.05
  9
$TEXTSTYLE
  7
TXT
  9
$CLAYER
  8
OBJECT
  9
$CELTYPE
  6
ByLayer
  9
$CECOLOR
 62
   256
  9
$CELTSCALE
 40
1.0
  9
$DISPSILH
 70
     0
  9
$DIMSCALE
 40
2.0
  9
$DIMASZ
 40
0.18
  9
$DIMEXO
 40
0.063
  9
$DIMDLI
 40
0.281
  9
$DIMRND
 40
0.0
  9
$DIMDLE
 40
0.0
  9
$DIMEXE
 40
0.093
  9
$DIMTP
 40
0.0
  9
$DIMTM
 40
0.0
  9
$DIMTXT
 40
0.125
  9
$DIMCEN
 40
0.09
  9
$DIMTSZ
 40
0.0
  9
$DIMTOL
 70
     0
  9
$DIMLIM
 70
     0
  9
$DIMTIH
 70
     1
  9
$DIMTOH
 70
     1
  9
$DIMSE1
 70
     0
  9
$DIMSE2
 70
     0
  9
$DIMTAD
 70
     0
  9
$DIMZIN
 70
     0
  9
$DIMBLK
  1

  9
$DIMASO
 70
     1
  9
$DIMSHO
 70
     1
  9
$DIMPOST
  1

  9
$DIMAPOST
  1

  9
$DIMALT
 70
     0
  9
$DIMALTD
 70
     2
  9
$DIMALTF
 40
25.4
  9
$DIMLFAC
 40
1.0
  9
$DIMTOFL
 70
     0
  9
$DIMTVP
 40
0.0
  9
$DIMTIX
 70
     0
  9
$DIMSOXD
 70
     0
  9
$DIMSAH
 70
     0
  9
$DIMBLK1
  1

  9
$DIMBLK2
  1

  9
$DIMSTYLE
  2
23NSTD
  9
$DIMCLRD
 70
     0
  9
$DIMCLRE
 70
     0
  9
$DIMCLRT
 70
     0
  9
$DIMTFAC
 40
1.0
  9
$DIMGAP
 40
0.09
  9
$DIMJUST
 70
     0
  9
$DIMSD1
 70
     0
  9
$DIMSD2
 70
     0
  9
$DIMTOLJ
 70
     1
  9
$DIMTZIN
 70
     0
  9
$DIMALTZ
 70
     0
  9
$DIMALTTZ
 70
     0
  9
$DIMUPT
 70
     0
  9
$DIMDEC
 70
     3
  9
$DIMTDEC
 70
     3
  9
$DIMALTU
 70
     2
  9
$DIMALTTD
 70
     2
  9
$DIMTXSTY
  7
TXT
  9
$DIMAUNIT
 70
     1
  9
$DIMADEC
 70
     0
  9
$DIMALTRND
 40
0.0
  9
$DIMAZIN
 70
     0
  9
$DIMDSEP
 70
    46
  9
$DIMATFIT
 70
     1
  9
$DIMFRAC
 70
     0
  9
$DIMLDRBLK
  1

  9
$DIMLUNIT
 70
     2
  9
$DIMLWD
 70
    -2
  9
$DIMLWE
 70
    -2
  9
$DIMTMOVE
 70
     0
  9
$LUNITS
 70
     2
  9
$LUPREC
 70
     3
  9
$SKETCHINC
 40
0.1
  9
$FILLETRAD
 40
0.0
  9
$AUNITS
 70
     1
  9
$AUPREC
 70
     1
  9
$MENU
  1
acad
  9
$ELEVATION
 40
0.0
  9
$PELEVATION
 40
0.0
  9
$THICKNESS
 40
0.0
  9
$LIMCHECK
 70
     0
  9
$CHAMFERA
 40
0.0
  9
$CHAMFERB
 40
0.0
  9
$CHAMFERC
 40
0.0
  9
$CHAMFERD
 40
0.0
  9
$SKPOLY
 70
     0
  9
$TDCREATE
 40
2448371.324109259
  9
$TDUCREATE
 40
2448371.490775925
  9
$TDUPDATE
 40
2454362.492401794
  9
$TDUUPDATE
 40
2454362.659068460
  9
$TDINDWG
 40
0.2894369213
  9
$TDUSRTIMER
 40
0.2894369213
  9
$USRTIMER
 70
     1
  9
$ANGBASE
 50
0.0
  9
$ANGDIR
 70
     0
  9
$PDMODE
 70
     0
  9
$PDSIZE
 40
0.0
  9
$PLINEWID
 40
0.0
  9
$SPLFRAME
 70
     0
  9
$SPLINETYPE
 70
     6
  9
$SPLINESEGS
 70
     8
  9
$HANDSEED
  5
AA6
  9
$SURFTAB1
 70
     6
  9
$SURFTAB2
 70
     6
  9
$SURFTYPE
 70
     6
  9
$SURFU
 70
     6
  9
$SURFV
 70
     6
  9
$UCSBASE
  2

  9
$UCSNAME
  2

  9
$UCSORG
 10
0.0
 20
0.0
 30
0.0
  9
$UCSXDIR
 10
1.0
 20
0.0
 30
0.0
  9
$UCSYDIR
 10
0.0
 20
1.0
 30
0.0
  9
$UCSORTHOREF
  2

  9
$UCSORTHOVIEW
 70
     0
  9
$UCSORGTOP
 10
0.0
 20
0.0
 30
0.0
  9
$UCSORGBOTTOM
 10
0.0
 20
0.0
 30
0.0
  9
$UCSORGLEFT
 10
0.0
 20
0.0
 30
0.0
  9
$UCSORGRIGHT
 10
0.0
 20
0.0
 30
0.0
  9
$UCSORGFRONT
 10
0.0
 20
0.0
 30
0.0
  9
$UCSORGBACK
 10
0.0
 20
0.0
 30
0.0
  9
$PUCSBASE
  2

  9
$PUCSNAME
  2

  9
$PUCSORG
 10
0.0
 20
0.0
 30
0.0
  9
$PUCSXDIR
 10
1.0
 20
0.0
 30
0.0
  9
$PUCSYDIR
 10
0.0
 20
1.0
 30
0.0
  9
$PUCSORTHOREF
  2

  9
$PUCSORTHOVIEW
 70
     0
  9
$PUCSORGTOP
 10
0.0
 20
0.0
 30
0.0
  9
$PUCSORGBOTTOM
 10
0.0
 20
0.0
 30
0.0
  9
$PUCSORGLEFT
 10
0.0
 20
0.0
 30
0.0
  9
$PUCSORGRIGHT
 10
0.0
 20
0.0
 30
0.0
  9
$PUCSORGFRONT
 10
0.0
 20
0.0
 30
0.0
  9
$PUCSORGBACK
 10
0.0
 20
0.0
 30
0.0
  9
$USERI1
 70
     0
  9
$USERI2
 70
     0
  9
$USERI3
 70
     0
  9
$USERI4
 70
     0
  9
$USERI5
 70
     0
  9
$USERR1
 40
0.0
  9
$USERR2
 40
0.0
  9
$USERR3
 40
0.0
  9
$USERR4
 40
0.0
  9
$USERR5
 40
0.0
  9
$WORLDVIEW
 70
     1
  9
$SHADEDGE
 70
     3
  9
$SHADEDIF
 70
    70
  9
$TILEMODE
 70
     1
  9
$MAXACTVP
 70
    16
  9
$PINSBASE
 10
0.0
 20
0.0
 30
0.0
  9
$PLIMCHECK
 70
     0
  9
$PEXTMIN
 10
1.000000000000000E+20
 20
1.000000000000000E+20
 30
1.000000000000000E+20
  9
$PEXTMAX
 10
-1.000000000000000E+20
 20
-1.000000000000000E+20
 30
-1.000000000000000E+20
  9
$PLIMMIN
 10
0.0
 20
0.0
  9
$PLIMMAX
 10
12.0
 20
9.0
  9
$UNITMODE
 70
     0
  9
$VISRETAIN
 70
     0
  9
$PLINEGEN
 70
     0
  9
$PSLTSCALE
 70
     0
  9
$TREEDEPTH
 70
  3020
  9
$CMLSTYLE
  2
Standard
  9
$CMLJUST
 70
     0
  9
$CMLSCALE
 40
1.0
  9
$PROXYGRAPHICS
 70
     1
  9
$MEASUREMENT
 70
     0
  9
$CELWEIGHT
370
    -1
  9
$ENDCAPS
280
     0
  9
$JOINSTYLE
280
     0
  9
$LWDISPLAY
290
     0
  9
$INSUNITS
 70
     0
  9
$HYPERLINKBASE
  1

  9
$STYLESHEET
  1
monochrome.ctb
  9
$XEDIT
290
     1
  9
$CEPSNTYPE
380
     0
  9
$PSTYLEMODE
290
     1
  9
$FINGERPRINTGUID
  2
{0F7FB0A9-B5ED-4823-A420-A9872212CB33}
  9
$VERSIONGUID
  2
{C60DBBBF-DA6D-4CBF-B144-379F9E5B64D3}
  9
$EXTNAMES
290
     1
  9
$PSVPSCALE
 40
0.0
  9
$OLESTARTUP
290
     0
  0
ENDSEC
  0
SECTION
  2
CLASSES
  0
CLASS
  1
ACDBDICTIONARYWDFLT
  2
AcDbDictionaryWithDefault
  3
AutoCAD 2000
 90
        0
280
     0
281
     0
  0
CLASS
  1
ACDBPLACEHOLDER
  2
AcDbPlaceHolder
  3
AutoCAD 2000
 90
        0
280
     0
281
     0
  0
CLASS
  1
LAYOUT
  2
AcDbLayout
  3
AutoCAD 2000
 90
        0
280
     0
281
     0
  0
ENDSEC
  0
SECTION
  2
TABLES
  0
TABLE
  2
VPORT
  5
8
330
0
100
AcDbSymbolTable
 70
     2
  0
VPORT
  5
AA5
330
8
100
AcDbSymbolTableRecord
100
AcDbViewportTableRecord
  2
*Active
 70
     0
 10
0.0
 20
0.0
 11
1.0
 21
1.0
 12
10.11953192702709
 22
15.50000014435939
 13
0.0
 23
0.0
 14
1.0
 24
1.0
 15
0.5
 25
0.5
 16
0.0
 26
0.0
 36
1.0
 17
0.0
 27
0.0
 37
0.0
 40
31.31382213812765
 41
1.824707846410684
 42
50.0
 43
0.0
 44
0.0
 50
0.0
 51
0.0
 71
     0
 72
   100
 73
     1
 74
     0
 75
     0
 76
     0
 77
     0
 78
     0
281
     0
 65
     1
110
0.0
120
0.0
130
0.0
111
1.0
121
0.0
131
0.0
112
0.0
122
1.0
132
0.0
 79
     0
146
0.0
  0
ENDTAB
  0
TABLE
  2
LTYPE
  5
5
330
0
100
AcDbSymbolTable
 70
     4
  0
LTYPE
  5
13
330
5
100
AcDbSymbolTableRecord
100
AcDbLinetypeTableRecord
  2
ByBlock
 70
     0
  3

 72
    65
 73
     0
 40
0.0
  0
LTYPE
  5
14
330
5
100
AcDbSymbolTableRecord
100
AcDbLinetypeTableRecord
  2
ByLayer
 70
     0
  3

 72
    65
 73
     0
 40
0.0
  0
LTYPE
  5
15
330
5
100
AcDbSymbolTableRecord
100
AcDbLinetypeTableRecord
  2
CONTINUOUS
 70
     0
  3
Solid line
 72
    65
 73
     0
 40
0.0
  0
LTYPE
  5
25
330
5
100
AcDbSymbolTableRecord
100
AcDbLinetypeTableRecord
  2
HIDDEN
 70
     0
  3
_ _ _ _ _ _ _ _ _ _ _ _ _ _ _ _ _ _ _ _ _ _ _
 72
    65
 73
     2
 40
0.375
 49
0.25
 74
     0
 49
-0.125
 74
     0
  0
LTYPE
  5
26
330
5
100
AcDbSymbolTableRecord
100
AcDbLinetypeTableRecord
  2
PHANTOM
 70
     0
  3
_____ _ _ _____ _ _ _____ _ _ _____ _ _ ____
 72
    65
 73
     6
 40
2.5
 49
1.25
 74
     0
 49
-0.25
 74
     0
 49
0.25
 74
     0
 49
-0.25
 74
     0
 49
0.25
 74
     0
 49
-0.25
 74
     0
  0
LTYPE
  5
27
330
5
100
AcDbSymbolTableRecord
100
AcDbLinetypeTableRecord
  2
CENTER
 70
     0
  3
____ _ ____ _ ____ _ ____ _ ____ _ ____ _ ____
 72
    65
 73
     4
 40
2.0
 49
1.25
 74
     0
 49
-0.25
 74
     0
 49
0.25
 74
     0
 49
-0.25
 74
     0
  0
ENDTAB
  0
TABLE
  2
LAYER
  5
2
330
0
100
AcDbSymbolTable
 70
     9
  0
LAYER
  5
10
330
2
100
AcDbSymbolTableRecord
100
AcDbLayerTableRecord
  2
0
 70
     0
 62
     7
  6
CONTINUOUS
370
    -3
390
F
  0
LAYER
  5
22
330
2
100
AcDbSymbolTableRecord
100
AcDbLayerTableRecord
  2
OBJECT
 70
     0
 62
     7
  6
CONTINUOUS
370
    -3
390
F
  0
LAYER
  5
28
330
2
100
AcDbSymbolTableRecord
100
AcDbLayerTableRecord
  2
DIM
 70
     0
 62
     7
  6
CONTINUOUS
370
    -3
390
F
  0
LAYER
  5
29
330
2
100
AcDbSymbolTableRecord
100
AcDbLayerTableRecord
  2
HIDDEN
 70
     0
 62
     7
  6
HIDDEN
370
    -3
390
F
  0
LAYER
  5
2A
330
2
100
AcDbSymbolTableRecord
100
AcDbLayerTableRecord
  2
BEND
 70
     0
 62
     7
  6
PHANTOM
370
    -3
390
F
  0
LAYER
  5
2B
330
2
100
AcDbSymbolTableRecord
100
AcDbLayerTableRecord
  2
TEXT
 70
     0
 62
     7
  6
CONTINUOUS
370
    -3
390
F
  0
LAYER
  5
2C
330
2
100
AcDbSymbolTableRecord
100
AcDbLayerTableRecord
  2
TITLE
 70
     0
 62
     7
  6
CONTINUOUS
370
    -3
390
F
  0
LAYER
  5
2D
330
2
100
AcDbSymbolTableRecord
100
AcDbLayerTableRecord
  2
CENTER
 70
     0
 62
     7
  6
CENTER
370
    -3
390
F
  0
LAYER
  5
2E
330
2
100
AcDbSymbolTableRecord
100
AcDbLayerTableRecord
  2
DEFPOINTS
 70
     0
 62
     7
  6
CONTINUOUS
290
     0
370
    -3
390
F
  0
ENDTAB
  0
TABLE
  2
STYLE
  5
3
330
0
100
AcDbSymbolTable
 70
     2
  0
STYLE
  5
11
330
3
100
AcDbSymbolTableRecord
100
AcDbTextStyleTableRecord
  2
Standard
 70
     0
 40
0.0
 41
1.0
 50
0.0
 71
     0
 42
0.2
  3
txt
  4

  0
STYLE
  5
23
330
3
100
AcDbSymbolTableRecord
100
AcDbTextStyleTableRecord
  2
TXT
 70
     0
 40
0.0
 41
0.75
 50
0.0
 71
     0
 42
0.25
  3
TXT.shx
  4

  0
ENDTAB
  0
TABLE
  2
VIEW
  5
6
330
0
100
AcDbSymbolTable
 70
     0
  0
ENDTAB
  0
TABLE
  2
UCS
  5
7
330
0
100
AcDbSymbolTable
 70
     0
  0
ENDTAB
  0
TABLE
  2
APPID
  5
9
330
0
100
AcDbSymbolTable
 70
     1
  0
APPID
  5
12
330
9
100
AcDbSymbolTableRecord
100
AcDbRegAppTableRecord
  2
ACAD
 70
     0
  0
ENDTAB
  0
TABLE
  2
DIMSTYLE
  5
A
330
0
100
AcDbSymbolTable
 70
     2
100
AcDbDimStyleTable
 71
     2
340
2F
340
30
  0
DIMSTYLE
105
2F
102
{ACAD_REACTORS
330
2E2
330
30C
330
31A
330
328
330
336
330
344
330
352
330
398
330
3A6
330
3B4
330
3C3
330
536
330
544
330
552
330
560
330
56E
330
5C7
330
5FE
330
60C
330
629
330
640
330
650
330
660
330
680
330
74D
330
75B
330
A78
330
A90
102
}
330
A
100
AcDbSymbolTableRecord
100
AcDbDimStyleTableRecord
  2
23NSTD
 70
     0
 40
2.0
 42
0.063
 43
0.281
 44
0.093
140
0.125
271
     3
272
     3
275
     1
289
     1
340
23
  0
DIMSTYLE
105
30
102
{ACAD_REACTORS
330
2F0
330
2FE
330
360
330
36E
330
37C
330
38A
330
57C
330
58A
330
5A2
102
}
330
A
100
AcDbSymbolTableRecord
100
AcDbDimStyleTableRecord
  2
23NSTDI
 70
     0
 40
2.0
 42
0.063
 43
0.281
 44
0.093
140
0.125
174
     1
271
     3
272
     3
275
     1
340
23
  0
ENDTAB
  0
TABLE
  2
BLOCK_RECORD
  5
1
330
0
100
AcDbSymbolTable
 70
    43
  0
BLOCK_RECORD
  5
1E
330
1
100
AcDbSymbolTableRecord
100
AcDbBlockTableRecord
  2
*Model_Space
340
21
  0
BLOCK_RECORD
  5
1A
330
1
100
AcDbSymbolTableRecord
100
AcDbBlockTableRecord
  2
*Paper_Space
340
1D
  0
BLOCK_RECORD
  5
32
330
1
100
AcDbSymbolTableRecord
100
AcDbBlockTableRecord
  2
*X0
340
0
102
{BLKREFS
331
598
102
}
  0
BLOCK_RECORD
  5
61
330
1
100
AcDbSymbolTableRecord
100
AcDbBlockTableRecord
  2
*X1
340
0
102
{BLKREFS
331
599
102
}
  0
BLOCK_RECORD
  5
81
330
1
100
AcDbSymbolTableRecord
100
AcDbBlockTableRecord
  2
*X2
340
0
102
{BLKREFS
331
59A
102
}
  0
BLOCK_RECORD
  5
AE
330
1
100
AcDbSymbolTableRecord
100
AcDbBlockTableRecord
  2
*X3
340
0
102
{BLKREFS
331
59E
102
}
  0
BLOCK_RECORD
  5
CF
330
1
100
AcDbSymbolTableRecord
100
AcDbBlockTableRecord
  2
*X4
340
0
102
{BLKREFS
331
59F
102
}
  0
BLOCK_RECORD
  5
2E3
330
1
100
AcDbSymbolTableRecord
100
AcDbBlockTableRecord
  2
*D5
340
0
  0
BLOCK_RECORD
  5
2F1
330
1
100
AcDbSymbolTableRecord
100
AcDbBlockTableRecord
  2
*D6
340
0
  0
BLOCK_RECORD
  5
2FF
330
1
100
AcDbSymbolTableRecord
100
AcDbBlockTableRecord
  2
*D7
340
0
  0
BLOCK_RECORD
  5
30D
330
1
100
AcDbSymbolTableRecord
100
AcDbBlockTableRecord
  2
*D8
340
0
  0
BLOCK_RECORD
  5
31B
330
1
100
AcDbSymbolTableRecord
100
AcDbBlockTableRecord
  2
*D9
340
0
  0
BLOCK_RECORD
  5
329
330
1
100
AcDbSymbolTableRecord
100
AcDbBlockTableRecord
  2
*D10
340
0
  0
BLOCK_RECORD
  5
337
330
1
100
AcDbSymbolTableRecord
100
AcDbBlockTableRecord
  2
*D11
340
0
  0
BLOCK_RECORD
  5
345
330
1
100
AcDbSymbolTableRecord
100
AcDbBlockTableRecord
  2
*D12
340
0
  0
BLOCK_RECORD
  5
353
330
1
100
AcDbSymbolTableRecord
100
AcDbBlockTableRecord
  2
*D13
340
0
  0
BLOCK_RECORD
  5
361
330
1
100
AcDbSymbolTableRecord
100
AcDbBlockTableRecord
  2
*D14
340
0
  0
BLOCK_RECORD
  5
36F
330
1
100
AcDbSymbolTableRecord
100
AcDbBlockTableRecord
  2
*D15
340
0
  0
BLOCK_RECORD
  5
37D
330
1
100
AcDbSymbolTableRecord
100
AcDbBlockTableRecord
  2
*D16
340
0
  0
BLOCK_RECORD
  5
38B
330
1
100
AcDbSymbolTableRecord
100
AcDbBlockTableRecord
  2
*D17
340
0
  0
BLOCK_RECORD
  5
399
330
1
100
AcDbSymbolTableRecord
100
AcDbBlockTableRecord
  2
*D18
340
0
  0
BLOCK_RECORD
  5
3A7
330
1
100
AcDbSymbolTableRecord
100
AcDbBlockTableRecord
  2
*D19
340
0
  0
BLOCK_RECORD
  5
3B5
330
1
100
AcDbSymbolTableRecord
100
AcDbBlockTableRecord
  2
*D20
340
0
  0
BLOCK_RECORD
  5
3C4
330
1
100
AcDbSymbolTableRecord
100
AcDbBlockTableRecord
  2
*D21
340
0
  0
BLOCK_RECORD
  5
537
330
1
100
AcDbSymbolTableRecord
100
AcDbBlockTableRecord
  2
*D22
340
0
  0
BLOCK_RECORD
  5
545
330
1
100
AcDbSymbolTableRecord
100
AcDbBlockTableRecord
  2
*D23
340
0
  0
BLOCK_RECORD
  5
553
330
1
100
AcDbSymbolTableRecord
100
AcDbBlockTableRecord
  2
*D24
340
0
  0
BLOCK_RECORD
  5
561
330
1
100
AcDbSymbolTableRecord
100
AcDbBlockTableRecord
  2
*D25
340
0
  0
BLOCK_RECORD
  5
56F
330
1
100
AcDbSymbolTableRecord
100
AcDbBlockTableRecord
  2
*D26
340
0
  0
BLOCK_RECORD
  5
57D
330
1
100
AcDbSymbolTableRecord
100
AcDbBlockTableRecord
  2
*D27
340
0
  0
BLOCK_RECORD
  5
58B
330
1
100
AcDbSymbolTableRecord
100
AcDbBlockTableRecord
  2
*D28
340
0
  0
BLOCK_RECORD
  5
5A3
330
1
100
AcDbSymbolTableRecord
100
AcDbBlockTableRecord
  2
*D29
340
0
  0
BLOCK_RECORD
  5
5C8
330
1
100
AcDbSymbolTableRecord
100
AcDbBlockTableRecord
  2
*D30
340
0
  0
BLOCK_RECORD
  5
5FF
330
1
100
AcDbSymbolTableRecord
100
AcDbBlockTableRecord
  2
*D31
340
0
  0
BLOCK_RECORD
  5
60D
330
1
100
AcDbSymbolTableRecord
100
AcDbBlockTableRecord
  2
*D32
340
0
  0
BLOCK_RECORD
  5
62A
330
1
100
AcDbSymbolTableRecord
100
AcDbBlockTableRecord
  2
*D33
340
0
  0
BLOCK_RECORD
  5
641
330
1
100
AcDbSymbolTableRecord
100
AcDbBlockTableRecord
  2
*D34
340
0
  0
BLOCK_RECORD
  5
651
330
1
100
AcDbSymbolTableRecord
100
AcDbBlockTableRecord
  2
*D35
340
0
  0
BLOCK_RECORD
  5
661
330
1
100
AcDbSymbolTableRecord
100
AcDbBlockTableRecord
  2
*D36
340
0
  0
BLOCK_RECORD
  5
681
330
1
100
AcDbSymbolTableRecord
100
AcDbBlockTableRecord
  2
*D37
340
0
  0
BLOCK_RECORD
  5
74E
330
1
100
AcDbSymbolTableRecord
100
AcDbBlockTableRecord
  2
*D38
340
0
  0
BLOCK_RECORD
  5
75C
330
1
100
AcDbSymbolTableRecord
100
AcDbBlockTableRecord
  2
*D39
340
0
  0
BLOCK_RECORD
  5
A79
330
1
100
AcDbSymbolTableRecord
100
AcDbBlockTableRecord
  2
*D41
340
0
  0
BLOCK_RECORD
  5
A91
330
1
100
AcDbSymbolTableRecord
100
AcDbBlockTableRecord
  2
*D42
340
0
  0
ENDTAB
  0
ENDSEC
  0
SECTION
  2
BLOCKS
  0
BLOCK
  5
1F
330
1E
100
AcDbEntity
  8
0
100
AcDbBlockBegin
  2
*Model_Space
 70
     0
 10
0.0
 20
0.0
 30
0.0
  3
*Model_Space
  1

  0
ENDBLK
  5
20
330
1E
100
AcDbEntity
  8
0
100
AcDbBlockEnd
  0
BLOCK
  5
1B
330
1A
100
AcDbEntity
 67
     1
  8
0
100
AcDbBlockBegin
  2
*Paper_Space
 70
     0
 10
0.0
 20
0.0
 30
0.0
  3
*Paper_Space
  1

  0
ENDBLK
  5
1C
330
1A
100
AcDbEntity
 67
     1
  8
0
100
AcDbBlockEnd
  0
BLOCK
  5
33
330
32
100
AcDbEntity
  8
0
100
AcDbBlockBegin
  2
*X0
 70
     1
 10
0.0
 20
0.0
 30
0.0
  3
*X0
  1

  0
LINE
  5
34
330
32
100
AcDbEntity
  8
0
 62
     0
100
AcDbLine
 10
6.130835
 20
19.654252
 30
0.0
 11
6.255835
 21
19.77925199999999
 31
0.0
  0
LINE
  5
35
330
32
100
AcDbEntity
  8
0
 62
     0
100
AcDbLine
 10
5.998251999999999
 20
19.654252
 30
0.0
 11
6.123251999999999
 21
19.77925199999999
 31
0.0
  0
LINE
  5
36
330
32
100
AcDbEntity
  8
0
 62
     0
100
AcDbLine
 10
5.865669999999999
 20
19.654252
 30
0.0
 11
5.990669999999999
 21
19.77925199999999
 31
0.0
  0
LINE
  5
37
330
32
100
AcDbEntity
  8
0
 62
     0
100
AcDbLine
 10
5.733087
 20
19.654252
 30
0.0
 11
5.858087
 21
19.77925199999999
 31
0.0
  0
LINE
  5
38
330
32
100
AcDbEntity
  8
0
 62
     0
100
AcDbLine
 10
5.600505
 20
19.654252
 30
0.0
 11
5.725505
 21
19.77925199999999
 31
0.0
  0
LINE
  5
39
330
32
100
AcDbEntity
  8
0
 62
     0
100
AcDbLine
 10
5.467921999999999
 20
19.654252
 30
0.0
 11
5.592921999999999
 21
19.77925199999999
 31
0.0
  0
LINE
  5
3A
330
32
100
AcDbEntity
  8
0
 62
     0
100
AcDbLine
 10
5.33534
 20
19.654252
 30
0.0
 11
5.46034
 21
19.77925199999999
 31
0.0
  0
LINE
  5
3B
330
32
100
AcDbEntity
  8
0
 62
     0
100
AcDbLine
 10
5.202757
 20
19.654252
 30
0.0
 11
5.327757
 21
19.77925199999999
 31
0.0
  0
LINE
  5
3C
330
32
100
AcDbEntity
  8
0
 62
     0
100
AcDbLine
 10
5.070174999999999
 20
19.654252
 30
0.0
 11
5.195174999999999
 21
19.77925199999999
 31
0.0
  0
LINE
  5
3D
330
32
100
AcDbEntity
  8
0
 62
     0
100
AcDbLine
 10
4.937591999999999
 20
19.654252
 30
0.0
 11
5.062591999999999
 21
19.77925199999999
 31
0.0
  0
LINE
  5
3E
330
32
100
AcDbEntity
  8
0
 62
     0
100
AcDbLine
 10
4.80501
 20
19.654252
 30
0.0
 11
4.93001
 21
19.77925199999999
 31
0.0
  0
LINE
  5
3F
330
32
100
AcDbEntity
  8
0
 62
     0
100
AcDbLine
 10
4.672426999999999
 20
19.654252
 30
0.0
 11
4.797426999999999
 21
19.77925199999999
 31
0.0
  0
LINE
  5
40
330
32
100
AcDbEntity
  8
0
 62
     0
100
AcDbLine
 10
4.539844999999999
 20
19.654252
 30
0.0
 11
4.664844999999999
 21
19.77925199999999
 31
0.0
  0
LINE
  5
41
330
32
100
AcDbEntity
  8
0
 62
     0
100
AcDbLine
 10
4.407262
 20
19.654252
 30
0.0
 11
4.532262
 21
19.77925199999999
 31
0.0
  0
LINE
  5
42
330
32
100
AcDbEntity
  8
0
 62
     0
100
AcDbLine
 10
4.27468
 20
19.654252
 30
0.0
 11
4.39968
 21
19.77925199999999
 31
0.0
  0
LINE
  5
43
330
32
100
AcDbEntity
  8
0
 62
     0
100
AcDbLine
 10
4.142096999999999
 20
19.654252
 30
0.0
 11
4.267096999999999
 21
19.77925199999999
 31
0.0
  0
LINE
  5
44
330
32
100
AcDbEntity
  8
0
 62
     0
100
AcDbLine
 10
3.384513999999999
 20
19.029252
 30
0.0
 11
3.406001999999999
 21
19.05074
 31
0.0
  0
LINE
  5
45
330
32
100
AcDbEntity
  8
0
 62
     0
100
AcDbLine
 10
4.009514
 20
19.654252
 30
0.0
 11
4.134514
 21
19.77925199999999
 31
0.0
  0
LINE
  5
46
330
32
100
AcDbEntity
  8
0
 62
     0
100
AcDbLine
 10
3.256188
 20
19.03350799999999
 30
0.0
 11
3.406001999999999
 21
19.183322
 31
0.0
  0
LINE
  5
47
330
32
100
AcDbEntity
  8
0
 62
     0
100
AcDbLine
 10
3.876932
 20
19.654252
 30
0.0
 11
4.001932
 21
19.77925199999999
 31
0.0
  0
LINE
  5
48
330
32
100
AcDbEntity
  8
0
 62
     0
100
AcDbLine
 10
3.262240999999999
 20
19.17214299999999
 30
0.0
 11
3.406001999999999
 21
19.31590499999999
 31
0.0
  0
LINE
  5
49
330
32
100
AcDbEntity
  8
0
 62
     0
100
AcDbLine
 10
3.744348999999999
 20
19.654252
 30
0.0
 11
3.869348999999999
 21
19.77925199999999
 31
0.0
  0
LINE
  5
4A
330
32
100
AcDbEntity
  8
0
 62
     0
100
AcDbLine
 10
3.268294
 20
19.310779
 30
0.0
 11
3.406001999999999
 21
19.448487
 31
0.0
  0
LINE
  5
4B
330
32
100
AcDbEntity
  8
0
 62
     0
100
AcDbLine
 10
3.611766999999999
 20
19.654252
 30
0.0
 11
3.736766999999999
 21
19.77925199999999
 31
0.0
  0
LINE
  5
4C
330
32
100
AcDbEntity
  8
0
 62
     0
100
AcDbLine
 10
3.274347
 20
19.449414
 30
0.0
 11
3.406001999999999
 21
19.58107
 31
0.0
  0
LINE
  5
4D
330
32
100
AcDbEntity
  8
0
 62
     0
100
AcDbLine
 10
3.479183999999999
 20
19.654252
 30
0.0
 11
3.604183999999999
 21
19.77925199999999
 31
0.0
  0
LINE
  5
4E
330
32
100
AcDbEntity
  8
0
 62
     0
100
AcDbLine
 10
3.2804
 20
19.58804999999999
 30
0.0
 11
3.471601999999999
 21
19.77925199999999
 31
0.0
  0
LINE
  5
4F
330
32
100
AcDbEntity
  8
0
 62
     0
100
AcDbLine
 10
3.286452999999999
 20
19.726685
 30
0.0
 11
3.339019
 21
19.77925199999999
 31
0.0
  0
LINE
  5
50
330
32
100
AcDbEntity
  8
0
 62
     0
100
AcDbLine
 10
6.263416999999999
 20
19.654252
 30
0.0
 11
6.388416999999999
 21
19.77925199999999
 31
0.0
  0
LINE
  5
51
330
32
100
AcDbEntity
  8
0
 62
     0
100
AcDbLine
 10
6.395999999999999
 20
19.654252
 30
0.0
 11
6.520999999999999
 21
19.77925199999999
 31
0.0
  0
LINE
  5
52
330
32
100
AcDbEntity
  8
0
 62
     0
100
AcDbLine
 10
6.528582
 20
19.654252
 30
0.0
 11
6.653582
 21
19.77925199999999
 31
0.0
  0
LINE
  5
53
330
32
100
AcDbEntity
  8
0
 62
     0
100
AcDbLine
 10
6.661164999999999
 20
19.654252
 30
0.0
 11
6.786164999999999
 21
19.77925199999999
 31
0.0
  0
LINE
  5
54
330
32
100
AcDbEntity
  8
0
 62
     0
100
AcDbLine
 10
6.793746999999999
 20
19.654252
 30
0.0
 11
6.918746999999999
 21
19.77925199999999
 31
0.0
  0
LINE
  5
55
330
32
100
AcDbEntity
  8
0
 62
     0
100
AcDbLine
 10
6.92633
 20
19.654252
 30
0.0
 11
7.05133
 21
19.77925199999999
 31
0.0
  0
LINE
  5
56
330
32
100
AcDbEntity
  8
0
 62
     0
100
AcDbLine
 10
7.058911999999999
 20
19.654252
 30
0.0
 11
7.183911999999999
 21
19.77925199999999
 31
0.0
  0
LINE
  5
57
330
32
100
AcDbEntity
  8
0
 62
     0
100
AcDbLine
 10
7.191494999999999
 20
19.654252
 30
0.0
 11
7.316494999999999
 21
19.77925199999999
 31
0.0
  0
LINE
  5
58
330
32
100
AcDbEntity
  8
0
 62
     0
100
AcDbLine
 10
7.324078
 20
19.654252
 30
0.0
 11
7.449078
 21
19.77925199999999
 31
0.0
  0
LINE
  5
59
330
32
100
AcDbEntity
  8
0
 62
     0
100
AcDbLine
 10
7.45666
 20
19.654252
 30
0.0
 11
7.58166
 21
19.77925199999999
 31
0.0
  0
LINE
  5
5A
330
32
100
AcDbEntity
  8
0
 62
     0
100
AcDbLine
 10
7.589242999999999
 20
19.654252
 30
0.0
 11
7.714242999999999
 21
19.77925199999999
 31
0.0
  0
LINE
  5
5B
330
32
100
AcDbEntity
  8
0
 62
     0
100
AcDbLine
 10
7.721824999999999
 20
19.654252
 30
0.0
 11
7.846824999999999
 21
19.77925199999999
 31
0.0
  0
LINE
  5
5C
330
32
100
AcDbEntity
  8
0
 62
     0
100
AcDbLine
 10
7.854408
 20
19.654252
 30
0.0
 11
7.979408
 21
19.77925199999999
 31
0.0
  0
LINE
  5
5D
330
32
100
AcDbEntity
  8
0
 62
     0
100
AcDbLine
 10
7.986989999999999
 20
19.654252
 30
0.0
 11
8.111989999999998
 21
19.77925199999999
 31
0.0
  0
LINE
  5
5E
330
32
100
AcDbEntity
  8
0
 62
     0
100
AcDbLine
 10
8.119572999999999
 20
19.654252
 30
0.0
 11
8.244572999999999
 21
19.77925199999999
 31
0.0
  0
LINE
  5
5F
330
32
100
AcDbEntity
  8
0
 62
     0
100
AcDbLine
 10
8.252155
 20
19.654252
 30
0.0
 11
8.377155
 21
19.77925199999999
 31
0.0
  0
ENDBLK
  5
60
330
32
100
AcDbEntity
  8
0
100
AcDbBlockEnd
  0
BLOCK
  5
62
330
61
100
AcDbEntity
  8
0
100
AcDbBlockBegin
  2
*X1
 70
     1
 10
0.0
 20
0.0
 30
0.0
  3
*X1
  1

  0
LINE
  5
63
330
61
100
AcDbEntity
  8
0
 62
     0
100
AcDbLine
 10
12.225467
 20
23.494982
 30
0.0
 11
12.350467
 21
23.61998199999999
 31
0.0
  0
LINE
  5
64
330
61
100
AcDbEntity
  8
0
 62
     0
100
AcDbLine
 10
12.225467
 20
23.627564
 30
0.0
 11
12.350467
 21
23.752564
 31
0.0
  0
LINE
  5
65
330
61
100
AcDbEntity
  8
0
 62
     0
100
AcDbLine
 10
12.225467
 20
23.760147
 30
0.0
 11
12.350467
 21
23.88514699999999
 31
0.0
  0
LINE
  5
66
330
61
100
AcDbEntity
  8
0
 62
     0
100
AcDbLine
 10
12.225467
 20
23.89272899999999
 30
0.0
 11
12.350467
 21
24.017729
 31
0.0
  0
LINE
  5
67
330
61
100
AcDbEntity
  8
0
 62
     0
100
AcDbLine
 10
12.225467
 20
24.025312
 30
0.0
 11
12.350467
 21
24.150312
 31
0.0
  0
LINE
  5
68
330
61
100
AcDbEntity
  8
0
 62
     0
100
AcDbLine
 10
12.225467
 20
24.15789399999999
 30
0.0
 11
12.350467
 21
24.282894
 31
0.0
  0
LINE
  5
69
330
61
100
AcDbEntity
  8
0
 62
     0
100
AcDbLine
 10
12.225467
 20
24.29047699999999
 30
0.0
 11
12.350467
 21
24.415477
 31
0.0
  0
LINE
  5
6A
330
61
100
AcDbEntity
  8
0
 62
     0
100
AcDbLine
 10
12.225467
 20
24.423059
 30
0.0
 11
12.350467
 21
24.548059
 31
0.0
  0
LINE
  5
6B
330
61
100
AcDbEntity
  8
0
 62
     0
100
AcDbLine
 10
12.225467
 20
24.555642
 30
0.0
 11
12.350467
 21
24.680642
 31
0.0
  0
LINE
  5
6C
330
61
100
AcDbEntity
  8
0
 62
     0
100
AcDbLine
 10
12.225467
 20
24.688224
 30
0.0
 11
12.350467
 21
24.81322399999999
 31
0.0
  0
LINE
  5
6D
330
61
100
AcDbEntity
  8
0
 62
     0
100
AcDbLine
 10
12.225467
 20
24.820807
 30
0.0
 11
12.350467
 21
24.945807
 31
0.0
  0
LINE
  5
6E
330
61
100
AcDbEntity
  8
0
 62
     0
100
AcDbLine
 10
12.225467
 20
24.953389
 30
0.0
 11
12.350467
 21
25.078389
 31
0.0
  0
LINE
  5
6F
330
61
100
AcDbEntity
  8
0
 62
     0
100
AcDbLine
 10
12.225467
 20
25.085972
 30
0.0
 11
12.350467
 21
25.210972
 31
0.0
  0
LINE
  5
70
330
61
100
AcDbEntity
  8
0
 62
     0
100
AcDbLine
 10
12.225467
 20
25.218555
 30
0.0
 11
12.350467
 21
25.343555
 31
0.0
  0
LINE
  5
71
330
61
100
AcDbEntity
  8
0
 62
     0
100
AcDbLine
 10
12.225467
 20
25.351137
 30
0.0
 11
12.249657
 21
25.375326
 31
0.0
  0
LINE
  5
72
330
61
100
AcDbEntity
  8
0
 62
     0
100
AcDbLine
 10
12.225467
 20
23.362399
 30
0.0
 11
12.350467
 21
23.48739899999999
 31
0.0
  0
LINE
  5
73
330
61
100
AcDbEntity
  8
0
 62
     0
100
AcDbLine
 10
12.225467
 20
23.229817
 30
0.0
 11
12.350467
 21
23.354817
 31
0.0
  0
LINE
  5
74
330
61
100
AcDbEntity
  8
0
 62
     0
100
AcDbLine
 10
12.225467
 20
23.097234
 30
0.0
 11
12.350467
 21
23.22223399999999
 31
0.0
  0
LINE
  5
75
330
61
100
AcDbEntity
  8
0
 62
     0
100
AcDbLine
 10
12.225467
 20
22.96465199999999
 30
0.0
 11
12.350467
 21
23.08965199999999
 31
0.0
  0
LINE
  5
76
330
61
100
AcDbEntity
  8
0
 62
     0
100
AcDbLine
 10
12.225467
 20
22.832069
 30
0.0
 11
12.350467
 21
22.957069
 31
0.0
  0
LINE
  5
77
330
61
100
AcDbEntity
  8
0
 62
     0
100
AcDbLine
 10
12.225467
 20
22.699487
 30
0.0
 11
12.350467
 21
22.824487
 31
0.0
  0
LINE
  5
78
330
61
100
AcDbEntity
  8
0
 62
     0
100
AcDbLine
 10
12.225467
 20
22.566904
 30
0.0
 11
12.350467
 21
22.691904
 31
0.0
  0
LINE
  5
79
330
61
100
AcDbEntity
  8
0
 62
     0
100
AcDbLine
 10
12.225467
 20
22.434322
 30
0.0
 11
12.350467
 21
22.559322
 31
0.0
  0
LINE
  5
7A
330
61
100
AcDbEntity
  8
0
 62
     0
100
AcDbLine
 10
12.225467
 20
22.301739
 30
0.0
 11
12.350467
 21
22.426739
 31
0.0
  0
LINE
  5
7B
330
61
100
AcDbEntity
  8
0
 62
     0
100
AcDbLine
 10
12.225467
 20
22.169157
 30
0.0
 11
12.350467
 21
22.294157
 31
0.0
  0
LINE
  5
7C
330
61
100
AcDbEntity
  8
0
 62
     0
100
AcDbLine
 10
12.225467
 20
22.03657399999999
 30
0.0
 11
12.350467
 21
22.16157399999999
 31
0.0
  0
LINE
  5
7D
330
61
100
AcDbEntity
  8
0
 62
     0
100
AcDbLine
 10
12.225467
 20
21.903992
 30
0.0
 11
12.33546699999999
 21
22.013992
 31
0.0
  0
LINE
  5
7E
330
61
100
AcDbEntity
  8
0
 62
     0
100
AcDbLine
 10
12.35177799999999
 20
22.030302
 30
0.0
 11
12.397467
 21
22.075992
 31
0.0
  0
LINE
  5
7F
330
61
100
AcDbEntity
  8
0
 62
     0
100
AcDbLine
 10
12.257699
 20
21.80364099999999
 30
0.0
 11
12.382467
 21
21.92840899999999
 31
0.0
  0
ENDBLK
  5
80
330
61
100
AcDbEntity
  8
0
100
AcDbBlockEnd
  0
BLOCK
  5
82
330
81
100
AcDbEntity
  8
0
100
AcDbBlockBegin
  2
*X2
 70
     1
 10
0.0
 20
0.0
 30
0.0
  3
*X2
  1

  0
LINE
  5
83
330
81
100
AcDbEntity
  8
0
 62
     0
100
AcDbLine
 10
6.013348999999999
 20
18.249252
 30
0.0
 11
5.888348999999999
 21
18.374252
 31
0.0
  0
LINE
  5
84
330
81
100
AcDbEntity
  8
0
 62
     0
100
AcDbLine
 10
5.880766999999999
 20
18.249252
 30
0.0
 11
5.755766999999999
 21
18.374252
 31
0.0
  0
LINE
  5
85
330
81
100
AcDbEntity
  8
0
 62
     0
100
AcDbLine
 10
5.748183999999999
 20
18.249252
 30
0.0
 11
5.623183999999999
 21
18.374252
 31
0.0
  0
LINE
  5
86
330
81
100
AcDbEntity
  8
0
 62
     0
100
AcDbLine
 10
5.615601999999999
 20
18.249252
 30
0.0
 11
5.490601999999999
 21
18.374252
 31
0.0
  0
LINE
  5
87
330
81
100
AcDbEntity
  8
0
 62
     0
100
AcDbLine
 10
5.483019
 20
18.249252
 30
0.0
 11
5.358019
 21
18.374252
 31
0.0
  0
LINE
  5
88
330
81
100
AcDbEntity
  8
0
 62
     0
100
AcDbLine
 10
5.350437
 20
18.249252
 30
0.0
 11
5.225437
 21
18.374252
 31
0.0
  0
LINE
  5
89
330
81
100
AcDbEntity
  8
0
 62
     0
100
AcDbLine
 10
5.217853999999999
 20
18.249252
 30
0.0
 11
5.092853999999999
 21
18.374252
 31
0.0
  0
LINE
  5
8A
330
81
100
AcDbEntity
  8
0
 62
     0
100
AcDbLine
 10
5.085271999999999
 20
18.249252
 30
0.0
 11
4.960271999999999
 21
18.374252
 31
0.0
  0
LINE
  5
8B
330
81
100
AcDbEntity
  8
0
 62
     0
100
AcDbLine
 10
4.952689
 20
18.249252
 30
0.0
 11
4.827689
 21
18.374252
 31
0.0
  0
LINE
  5
8C
330
81
100
AcDbEntity
  8
0
 62
     0
100
AcDbLine
 10
4.820107
 20
18.249252
 30
0.0
 11
4.695107
 21
18.374252
 31
0.0
  0
LINE
  5
8D
330
81
100
AcDbEntity
  8
0
 62
     0
100
AcDbLine
 10
4.687523999999999
 20
18.249252
 30
0.0
 11
4.562523999999999
 21
18.374252
 31
0.0
  0
LINE
  5
8E
330
81
100
AcDbEntity
  8
0
 62
     0
100
AcDbLine
 10
4.554941999999999
 20
18.249252
 30
0.0
 11
4.429941999999999
 21
18.374252
 31
0.0
  0
LINE
  5
8F
330
81
100
AcDbEntity
  8
0
 62
     0
100
AcDbLine
 10
4.422358999999999
 20
18.249252
 30
0.0
 11
4.297358999999999
 21
18.374252
 31
0.0
  0
LINE
  5
90
330
81
100
AcDbEntity
  8
0
 62
     0
100
AcDbLine
 10
4.289776999999999
 20
18.249252
 30
0.0
 11
4.164776999999999
 21
18.374252
 31
0.0
  0
LINE
  5
91
330
81
100
AcDbEntity
  8
0
 62
     0
100
AcDbLine
 10
4.157194
 20
18.249252
 30
0.0
 11
4.032194
 21
18.374252
 31
0.0
  0
LINE
  5
92
330
81
100
AcDbEntity
  8
0
 62
     0
100
AcDbLine
 10
4.024612
 20
18.249252
 30
0.0
 11
3.899612
 21
18.374252
 31
0.0
  0
LINE
  5
93
330
81
100
AcDbEntity
  8
0
 62
     0
100
AcDbLine
 10
3.406001999999999
 20
18.86786199999999
 30
0.0
 11
3.274611999999999
 21
18.999252
 31
0.0
  0
LINE
  5
94
330
81
100
AcDbEntity
  8
0
 62
     0
100
AcDbLine
 10
3.892028999999999
 20
18.249252
 30
0.0
 11
3.767028999999999
 21
18.374252
 31
0.0
  0
LINE
  5
95
330
81
100
AcDbEntity
  8
0
 62
     0
100
AcDbLine
 10
3.406001999999999
 20
18.735279
 30
0.0
 11
3.261204999999999
 21
18.880076
 31
0.0
  0
LINE
  5
96
330
81
100
AcDbEntity
  8
0
 62
     0
100
AcDbLine
 10
3.759447
 20
18.249252
 30
0.0
 11
3.634447
 21
18.374252
 31
0.0
  0
LINE
  5
97
330
81
100
AcDbEntity
  8
0
 62
     0
100
AcDbLine
 10
3.406001999999999
 20
18.60269699999999
 30
0.0
 11
3.267257999999999
 21
18.74144
 31
0.0
  0
LINE
  5
98
330
81
100
AcDbEntity
  8
0
 62
     0
100
AcDbLine
 10
3.626863999999999
 20
18.249252
 30
0.0
 11
3.501863999999999
 21
18.374252
 31
0.0
  0
LINE
  5
99
330
81
100
AcDbEntity
  8
0
 62
     0
100
AcDbLine
 10
3.406001999999999
 20
18.470114
 30
0.0
 11
3.273311
 21
18.602805
 31
0.0
  0
LINE
  5
9A
330
81
100
AcDbEntity
  8
0
 62
     0
100
AcDbLine
 10
3.494282
 20
18.249252
 30
0.0
 11
3.279363999999999
 21
18.464169
 31
0.0
  0
LINE
  5
9B
330
81
100
AcDbEntity
  8
0
 62
     0
100
AcDbLine
 10
3.361698999999999
 20
18.249252
 30
0.0
 11
3.285416999999999
 21
18.325534
 31
0.0
  0
LINE
  5
9C
330
81
100
AcDbEntity
  8
0
 62
     0
100
AcDbLine
 10
6.145932
 20
18.249252
 30
0.0
 11
6.020932
 21
18.374252
 31
0.0
  0
LINE
  5
9D
330
81
100
AcDbEntity
  8
0
 62
     0
100
AcDbLine
 10
6.278514
 20
18.249252
 30
0.0
 11
6.153514
 21
18.374252
 31
0.0
  0
LINE
  5
9E
330
81
100
AcDbEntity
  8
0
 62
     0
100
AcDbLine
 10
6.411096999999999
 20
18.249252
 30
0.0
 11
6.286096999999999
 21
18.374252
 31
0.0
  0
LINE
  5
9F
330
81
100
AcDbEntity
  8
0
 62
     0
100
AcDbLine
 10
6.54368
 20
18.249252
 30
0.0
 11
6.41868
 21
18.374252
 31
0.0
  0
LINE
  5
A0
330
81
100
AcDbEntity
  8
0
 62
     0
100
AcDbLine
 10
6.676261999999999
 20
18.249252
 30
0.0
 11
6.551262
 21
18.374252
 31
0.0
  0
LINE
  5
A1
330
81
100
AcDbEntity
  8
0
 62
     0
100
AcDbLine
 10
6.808844999999999
 20
18.249252
 30
0.0
 11
6.683844999999999
 21
18.374252
 31
0.0
  0
LINE
  5
A2
330
81
100
AcDbEntity
  8
0
 62
     0
100
AcDbLine
 10
6.941427
 20
18.249252
 30
0.0
 11
6.816427
 21
18.374252
 31
0.0
  0
LINE
  5
A3
330
81
100
AcDbEntity
  8
0
 62
     0
100
AcDbLine
 10
7.07401
 20
18.249252
 30
0.0
 11
6.94901
 21
18.374252
 31
0.0
  0
LINE
  5
A4
330
81
100
AcDbEntity
  8
0
 62
     0
100
AcDbLine
 10
7.206591999999999
 20
18.249252
 30
0.0
 11
7.081591999999999
 21
18.374252
 31
0.0
  0
LINE
  5
A5
330
81
100
AcDbEntity
  8
0
 62
     0
100
AcDbLine
 10
7.339175
 20
18.249252
 30
0.0
 11
7.214175
 21
18.374252
 31
0.0
  0
LINE
  5
A6
330
81
100
AcDbEntity
  8
0
 62
     0
100
AcDbLine
 10
7.471757000000001
 20
18.249252
 30
0.0
 11
7.346757000000001
 21
18.374252
 31
0.0
  0
LINE
  5
A7
330
81
100
AcDbEntity
  8
0
 62
     0
100
AcDbLine
 10
7.604339999999999
 20
18.249252
 30
0.0
 11
7.479339999999999
 21
18.374252
 31
0.0
  0
LINE
  5
A8
330
81
100
AcDbEntity
  8
0
 62
     0
100
AcDbLine
 10
7.736921999999999
 20
18.249252
 30
0.0
 11
7.611921999999999
 21
18.374252
 31
0.0
  0
LINE
  5
A9
330
81
100
AcDbEntity
  8
0
 62
     0
100
AcDbLine
 10
7.869505
 20
18.249252
 30
0.0
 11
7.744505
 21
18.374252
 31
0.0
  0
LINE
  5
AA
330
81
100
AcDbEntity
  8
0
 62
     0
100
AcDbLine
 10
8.002086999999999
 20
18.249252
 30
0.0
 11
7.877086999999999
 21
18.374252
 31
0.0
  0
LINE
  5
AB
330
81
100
AcDbEntity
  8
0
 62
     0
100
AcDbLine
 10
8.134669999999999
 20
18.249252
 30
0.0
 11
8.009669999999999
 21
18.374252
 31
0.0
  0
LINE
  5
AC
330
81
100
AcDbEntity
  8
0
 62
     0
100
AcDbLine
 10
8.255207999999999
 20
18.26129599999999
 30
0.0
 11
8.142252
 21
18.374252
 31
0.0
  0
ENDBLK
  5
AD
330
81
100
AcDbEntity
  8
0
100
AcDbBlockEnd
  0
BLOCK
  5
AF
330
AE
100
AcDbEntity
  8
0
100
AcDbBlockBegin
  2
*X3
 70
     1
 10
0.0
 20
0.0
 30
0.0
  3
*X3
  1

  0
LINE
  5
B0
330
AE
100
AcDbEntity
  8
0
 62
     0
100
AcDbLine
 10
13.630467
 20
23.574157
 30
0.0
 11
13.755467
 21
23.69915699999999
 31
0.0
  0
LINE
  5
B1
330
AE
100
AcDbEntity
  8
0
 62
     0
100
AcDbLine
 10
13.630467
 20
23.706739
 30
0.0
 11
13.755467
 21
23.831739
 31
0.0
  0
LINE
  5
B2
330
AE
100
AcDbEntity
  8
0
 62
     0
100
AcDbLine
 10
13.630467
 20
23.83932199999999
 30
0.0
 11
13.755467
 21
23.964322
 31
0.0
  0
LINE
  5
B3
330
AE
100
AcDbEntity
  8
0
 62
     0
100
AcDbLine
 10
13.630467
 20
23.971904
 30
0.0
 11
13.755467
 21
24.096904
 31
0.0
  0
LINE
  5
B4
330
AE
100
AcDbEntity
  8
0
 62
     0
100
AcDbLine
 10
13.630467
 20
24.10448699999999
 30
0.0
 11
13.755467
 21
24.229487
 31
0.0
  0
LINE
  5
B5
330
AE
100
AcDbEntity
  8
0
 62
     0
100
AcDbLine
 10
13.630467
 20
24.237069
 30
0.0
 11
13.755467
 21
24.362069
 31
0.0
  0
LINE
  5
B6
330
AE
100
AcDbEntity
  8
0
 62
     0
100
AcDbLine
 10
13.630467
 20
24.36965199999999
 30
0.0
 11
13.755467
 21
24.494652
 31
0.0
  0
LINE
  5
B7
330
AE
100
AcDbEntity
  8
0
 62
     0
100
AcDbLine
 10
13.630467
 20
24.502234
 30
0.0
 11
13.755467
 21
24.627234
 31
0.0
  0
LINE
  5
B8
330
AE
100
AcDbEntity
  8
0
 62
     0
100
AcDbLine
 10
13.630467
 20
24.634817
 30
0.0
 11
13.755467
 21
24.759817
 31
0.0
  0
LINE
  5
B9
330
AE
100
AcDbEntity
  8
0
 62
     0
100
AcDbLine
 10
13.630467
 20
24.767399
 30
0.0
 11
13.755467
 21
24.89239899999999
 31
0.0
  0
LINE
  5
BA
330
AE
100
AcDbEntity
  8
0
 62
     0
100
AcDbLine
 10
13.630467
 20
24.899982
 30
0.0
 11
13.755467
 21
25.024982
 31
0.0
  0
LINE
  5
BB
330
AE
100
AcDbEntity
  8
0
 62
     0
100
AcDbLine
 10
13.630467
 20
25.032564
 30
0.0
 11
13.755467
 21
25.157564
 31
0.0
  0
LINE
  5
BC
330
AE
100
AcDbEntity
  8
0
 62
     0
100
AcDbLine
 10
13.630467
 20
25.165147
 30
0.0
 11
13.755467
 21
25.290147
 31
0.0
  0
LINE
  5
BD
330
AE
100
AcDbEntity
  8
0
 62
     0
100
AcDbLine
 10
13.630467
 20
25.297729
 30
0.0
 11
13.755467
 21
25.422729
 31
0.0
  0
LINE
  5
BE
330
AE
100
AcDbEntity
  8
0
 62
     0
100
AcDbLine
 10
13.630467
 20
23.44157399999999
 30
0.0
 11
13.755467
 21
23.566574
 31
0.0
  0
LINE
  5
BF
330
AE
100
AcDbEntity
  8
0
 62
     0
100
AcDbLine
 10
13.630467
 20
23.308992
 30
0.0
 11
13.755467
 21
23.43399199999999
 31
0.0
  0
LINE
  5
C0
330
AE
100
AcDbEntity
  8
0
 62
     0
100
AcDbLine
 10
13.630467
 20
23.176409
 30
0.0
 11
13.755467
 21
23.30140899999999
 31
0.0
  0
LINE
  5
C1
330
AE
100
AcDbEntity
  8
0
 62
     0
100
AcDbLine
 10
13.630467
 20
23.04382599999999
 30
0.0
 11
13.755467
 21
23.168826
 31
0.0
  0
LINE
  5
C2
330
AE
100
AcDbEntity
  8
0
 62
     0
100
AcDbLine
 10
13.630467
 20
22.911244
 30
0.0
 11
13.755467
 21
23.03624399999999
 31
0.0
  0
LINE
  5
C3
330
AE
100
AcDbEntity
  8
0
 62
     0
100
AcDbLine
 10
13.630467
 20
22.778661
 30
0.0
 11
13.755467
 21
22.90366099999999
 31
0.0
  0
LINE
  5
C4
330
AE
100
AcDbEntity
  8
0
 62
     0
100
AcDbLine
 10
13.630467
 20
22.646079
 30
0.0
 11
13.755467
 21
22.771079
 31
0.0
  0
LINE
  5
C5
330
AE
100
AcDbEntity
  8
0
 62
     0
100
AcDbLine
 10
13.630467
 20
22.513496
 30
0.0
 11
13.755467
 21
22.63849599999999
 31
0.0
  0
LINE
  5
C6
330
AE
100
AcDbEntity
  8
0
 62
     0
100
AcDbLine
 10
13.630467
 20
22.380914
 30
0.0
 11
13.755467
 21
22.505914
 31
0.0
  0
LINE
  5
C7
330
AE
100
AcDbEntity
  8
0
 62
     0
100
AcDbLine
 10
13.630467
 20
22.248331
 30
0.0
 11
13.755467
 21
22.373331
 31
0.0
  0
LINE
  5
C8
330
AE
100
AcDbEntity
  8
0
 62
     0
100
AcDbLine
 10
13.583467
 20
22.068749
 30
0.0
 11
13.618021
 21
22.103302
 31
0.0
  0
LINE
  5
C9
330
AE
100
AcDbEntity
  8
0
 62
     0
100
AcDbLine
 10
13.630467
 20
22.115749
 30
0.0
 11
13.755467
 21
22.24074899999999
 31
0.0
  0
LINE
  5
CA
330
AE
100
AcDbEntity
  8
0
 62
     0
100
AcDbLine
 10
13.598467
 20
21.95116599999999
 30
0.0
 11
13.607604
 21
21.960302
 31
0.0
  0
LINE
  5
CB
330
AE
100
AcDbEntity
  8
0
 62
     0
100
AcDbLine
 10
13.645467
 20
21.998166
 30
0.0
 11
13.755467
 21
22.108166
 31
0.0
  0
LINE
  5
CC
330
AE
100
AcDbEntity
  8
0
 62
     0
100
AcDbLine
 10
13.648151
 20
21.868267
 30
0.0
 11
13.755467
 21
21.975584
 31
0.0
  0
LINE
  5
CD
330
AE
100
AcDbEntity
  8
0
 62
     0
100
AcDbLine
 10
13.715782
 20
21.80331499999999
 30
0.0
 11
13.755467
 21
21.843001
 31
0.0
  0
ENDBLK
  5
CE
330
AE
100
AcDbEntity
  8
0
100
AcDbBlockEnd
  0
BLOCK
  5
D0
330
CF
100
AcDbEntity
  8
0
100
AcDbBlockBegin
  2
*X4
 70
     1
 10
0.0
 20
0.0
 30
0.0
  3
*X4
  1

  0
LINE
  5
D1
330
CF
100
AcDbEntity
  8
0
 62
     0
100
AcDbLine
 10
12.908901
 20
21.960302
 30
0.0
 11
12.838901
 21
22.030302
 31
0.0
  0
LINE
  5
D2
330
CF
100
AcDbEntity
  8
0
 62
     0
100
AcDbLine
 10
12.77631799999999
 20
21.960302
 30
0.0
 11
12.706318
 21
22.030302
 31
0.0
  0
LINE
  5
D3
330
CF
100
AcDbEntity
  8
0
 62
     0
100
AcDbLine
 10
12.643736
 20
21.960302
 30
0.0
 11
12.573736
 21
22.030302
 31
0.0
  0
LINE
  5
D4
330
CF
100
AcDbEntity
  8
0
 62
     0
100
AcDbLine
 10
12.511153
 20
21.960302
 30
0.0
 11
12.441153
 21
22.030302
 31
0.0
  0
LINE
  5
D5
330
CF
100
AcDbEntity
  8
0
 62
     0
100
AcDbLine
 10
12.378571
 20
21.960302
 30
0.0
 11
12.33546699999999
 21
22.003406
 31
0.0
  0
LINE
  5
D6
330
CF
100
AcDbEntity
  8
0
 62
     0
100
AcDbLine
 10
13.041483
 20
21.960302
 30
0.0
 11
12.971483
 21
22.030302
 31
0.0
  0
LINE
  5
D7
330
CF
100
AcDbEntity
  8
0
 62
     0
100
AcDbLine
 10
13.17406599999999
 20
21.960302
 30
0.0
 11
13.104066
 21
22.030302
 31
0.0
  0
LINE
  5
D8
330
CF
100
AcDbEntity
  8
0
 62
     0
100
AcDbLine
 10
13.306648
 20
21.960302
 30
0.0
 11
13.236648
 21
22.030302
 31
0.0
  0
LINE
  5
D9
330
CF
100
AcDbEntity
  8
0
 62
     0
100
AcDbLine
 10
13.439231
 20
21.960302
 30
0.0
 11
13.36923099999999
 21
22.030302
 31
0.0
  0
LINE
  5
DA
330
CF
100
AcDbEntity
  8
0
 62
     0
100
AcDbLine
 10
13.571813
 20
21.960302
 30
0.0
 11
13.501813
 21
22.030302
 31
0.0
  0
LINE
  5
DB
330
CF
100
AcDbEntity
  8
0
 62
     0
100
AcDbLine
 10
13.645467
 20
22.019231
 30
0.0
 11
13.63439599999999
 21
22.030302
 31
0.0
  0
ENDBLK
  5
DC
330
CF
100
AcDbEntity
  8
0
100
AcDbBlockEnd
  0
BLOCK
  5
2EE
330
2E3
100
AcDbEntity
  8
0
100
AcDbBlockBegin
  2
*D5
 70
     1
 10
0.0
 20
0.0
 30
0.0
  3
*D5
  1

  0
LINE
  5
961
330
2E3
100
AcDbEntity
  8
DIM
 62
     0
370
    -2
100
AcDbLine
 10
4.48133
 20
26.62642
 30
0.0
 11
4.48133
 21
28.368736
 31
0.0
  0
LINE
  5
962
330
2E3
100
AcDbEntity
  8
DIM
 62
     0
370
    -2
100
AcDbLine
 10
9.091330000000001
 20
26.62642
 30
0.0
 11
9.091330000000001
 21
28.368736
 31
0.0
  0
LINE
  5
963
330
2E3
100
AcDbEntity
  8
DIM
 62
     0
370
    -2
100
AcDbLine
 10
4.841330000000001
 20
28.18273599999999
 30
0.0
 11
6.278205000000001
 21
28.18273599999999
 31
0.0
  0
LINE
  5
964
330
2E3
100
AcDbEntity
  8
DIM
 62
     0
370
    -2
100
AcDbLine
 10
8.731330000000001
 20
28.18273599999999
 30
0.0
 11
7.294455000000001
 21
28.18273599999999
 31
0.0
  0
SOLID
  5
965
330
2E3
100
AcDbEntity
  8
DIM
 62
     0
100
AcDbTrace
 10
4.841330000000001
 20
28.24273599999999
 30
0.0
 11
4.841330000000001
 21
28.122736
 31
0.0
 12
4.48133
 22
28.18273599999999
 32
0.0
 13
4.48133
 23
28.18273599999999
 33
0.0
  0
SOLID
  5
966
330
2E3
100
AcDbEntity
  8
DIM
 62
     0
100
AcDbTrace
 10
8.731330000000001
 20
28.24273599999999
 30
0.0
 11
8.731330000000001
 21
28.122736
 31
0.0
 12
9.091330000000001
 22
28.18273599999999
 32
0.0
 13
9.091330000000001
 23
28.18273599999999
 33
0.0
  0
MTEXT
  5
967
330
2E3
100
AcDbEntity
  8
DIM
 62
     0
100
AcDbMText
 10
6.786330000000001
 20
28.18273599999999
 30
0.0
 40
0.25
 41
0.0
 71
     5
 72
     1
  1
\A1;4.610
  7
TXT
 73
     1
 44
1.0
  0
POINT
  5
968
330
2E3
100
AcDbEntity
  8
DEFPOINTS
 62
     0
100
AcDbPoint
 10
4.48133
 20
26.50042
 30
0.0
  0
POINT
  5
969
330
2E3
100
AcDbEntity
  8
DEFPOINTS
 62
     0
100
AcDbPoint
 10
9.091330000000001
 20
26.50042
 30
0.0
  0
POINT
  5
96A
330
2E3
100
AcDbEntity
  8
DEFPOINTS
 62
     0
100
AcDbPoint
 10
9.091330000000001
 20
28.18273599999999
 30
0.0
  0
ENDBLK
  5
2EF
330
2E3
100
AcDbEntity
  8
0
100
AcDbBlockEnd
  0
BLOCK
  5
2FC
330
2F1
100
AcDbEntity
  8
0
100
AcDbBlockBegin
  2
*D6
 70
     1
 10
0.0
 20
0.0
 30
0.0
  3
*D6
  1

  0
LINE
  5
907
330
2F1
100
AcDbEntity
  8
DIM
 62
     0
370
    -2
100
AcDbLine
 10
4.48133
 20
26.62642
 30
0.0
 11
4.48133
 21
28.368736
 31
0.0
  0
LINE
  5
908
330
2F1
100
AcDbEntity
  8
DIM
 62
     0
370
    -2
100
AcDbLine
 10
3.256329999999999
 20
27.77642
 30
0.0
 11
3.256329999999999
 21
28.368736
 31
0.0
  0
LINE
  5
909
330
2F1
100
AcDbEntity
  8
DIM
 62
     0
370
    -2
100
AcDbLine
 10
4.841330000000001
 20
28.18273599999999
 30
0.0
 11
5.20133
 21
28.18273599999999
 31
0.0
  0
LINE
  5
90A
330
2F1
100
AcDbEntity
  8
DIM
 62
     0
370
    -2
100
AcDbLine
 10
2.896329999999999
 20
28.18273599999999
 30
0.0
 11
2.536329999999999
 21
28.18273599999999
 31
0.0
  0
SOLID
  5
90B
330
2F1
100
AcDbEntity
  8
DIM
 62
     0
100
AcDbTrace
 10
4.841330000000001
 20
28.24273599999999
 30
0.0
 11
4.841330000000001
 21
28.122736
 31
0.0
 12
4.48133
 22
28.18273599999999
 32
0.0
 13
4.48133
 23
28.18273599999999
 33
0.0
  0
SOLID
  5
90C
330
2F1
100
AcDbEntity
  8
DIM
 62
     0
100
AcDbTrace
 10
2.896329999999999
 20
28.24273599999999
 30
0.0
 11
2.896329999999999
 21
28.122736
 31
0.0
 12
3.256329999999999
 22
28.18273599999999
 32
0.0
 13
3.256329999999999
 23
28.18273599999999
 33
0.0
  0
MTEXT
  5
90D
330
2F1
100
AcDbEntity
  8
DIM
 62
     0
100
AcDbMText
 10
3.868829999999999
 20
28.18273599999999
 30
0.0
 40
0.25
 41
0.0
 71
     5
 72
     1
  1
\A1;1.225
  7
TXT
 73
     1
 44
1.0
  0
POINT
  5
90E
330
2F1
100
AcDbEntity
  8
DEFPOINTS
 62
     0
100
AcDbPoint
 10
4.48133
 20
26.50042
 30
0.0
  0
POINT
  5
90F
330
2F1
100
AcDbEntity
  8
DEFPOINTS
 62
     0
100
AcDbPoint
 10
3.256329999999999
 20
27.65042
 30
0.0
  0
POINT
  5
910
330
2F1
100
AcDbEntity
  8
DEFPOINTS
 62
     0
100
AcDbPoint
 10
3.256329999999999
 20
28.18273599999999
 30
0.0
  0
ENDBLK
  5
2FD
330
2F1
100
AcDbEntity
  8
0
100
AcDbBlockEnd
  0
BLOCK
  5
30A
330
2FF
100
AcDbEntity
  8
0
100
AcDbBlockBegin
  2
*D7
 70
     1
 10
0.0
 20
0.0
 30
0.0
  3
*D7
  1

  0
LINE
  5
911
330
2FF
100
AcDbEntity
  8
DIM
 62
     0
370
    -2
100
AcDbLine
 10
11.43888699999999
 20
19.53591199999999
 30
0.0
 11
10.805381
 21
19.53591199999999
 31
0.0
  0
LINE
  5
912
330
2FF
100
AcDbEntity
  8
DIM
 62
     0
370
    -2
100
AcDbLine
 10
11.43888699999999
 20
18.225912
 30
0.0
 11
10.805381
 21
18.225912
 31
0.0
  0
LINE
  5
913
330
2FF
100
AcDbEntity
  8
DIM
 62
     0
370
    -2
100
AcDbLine
 10
10.991381
 20
19.89591199999999
 30
0.0
 11
10.991381
 21
20.255912
 31
0.0
  0
LINE
  5
914
330
2FF
100
AcDbEntity
  8
DIM
 62
     0
370
    -2
100
AcDbLine
 10
10.991381
 20
17.865912
 30
0.0
 11
10.991381
 21
17.505912
 31
0.0
  0
SOLID
  5
915
330
2FF
100
AcDbEntity
  8
DIM
 62
     0
100
AcDbTrace
 10
10.931381
 20
19.89591199999999
 30
0.0
 11
11.051381
 21
19.89591199999999
 31
0.0
 12
10.991381
 22
19.53591199999999
 32
0.0
 13
10.991381
 23
19.53591199999999
 33
0.0
  0
SOLID
  5
916
330
2FF
100
AcDbEntity
  8
DIM
 62
     0
100
AcDbTrace
 10
10.931381
 20
17.865912
 30
0.0
 11
11.051381
 21
17.865912
 31
0.0
 12
10.991381
 22
18.225912
 32
0.0
 13
10.991381
 23
18.225912
 33
0.0
  0
MTEXT
  5
917
330
2FF
100
AcDbEntity
  8
DIM
 62
     0
100
AcDbMText
 10
10.991381
 20
18.880912
 30
0.0
 40
0.25
 41
0.0
 71
     5
 72
     1
  1
\A1;1.310
  7
TXT
 73
     1
 44
1.0
  0
POINT
  5
918
330
2FF
100
AcDbEntity
  8
DEFPOINTS
 62
     0
100
AcDbPoint
 10
11.56488699999999
 20
19.53591199999999
 30
0.0
  0
POINT
  5
919
330
2FF
100
AcDbEntity
  8
DEFPOINTS
 62
     0
100
AcDbPoint
 10
11.56488699999999
 20
18.225912
 30
0.0
  0
POINT
  5
91A
330
2FF
100
AcDbEntity
  8
DEFPOINTS
 62
     0
100
AcDbPoint
 10
10.991381
 20
18.225912
 30
0.0
  0
ENDBLK
  5
30B
330
2FF
100
AcDbEntity
  8
0
100
AcDbBlockEnd
  0
BLOCK
  5
318
330
30D
100
AcDbEntity
  8
0
100
AcDbBlockBegin
  2
*D8
 70
     1
 10
0.0
 20
0.0
 30
0.0
  3
*D8
  1

  0
LINE
  5
96B
330
30D
100
AcDbEntity
  8
DIM
 62
     0
370
    -2
100
AcDbLine
 10
11.56488699999999
 20
19.661912
 30
0.0
 11
11.56488699999999
 21
20.503107
 31
0.0
  0
LINE
  5
96C
330
30D
100
AcDbEntity
  8
DIM
 62
     0
370
    -2
100
AcDbLine
 10
18.29488699999999
 20
19.661912
 30
0.0
 11
18.29488699999999
 21
20.503107
 31
0.0
  0
LINE
  5
96D
330
30D
100
AcDbEntity
  8
DIM
 62
     0
370
    -2
100
AcDbLine
 10
11.92488699999999
 20
20.317107
 30
0.0
 11
14.39051199999999
 21
20.317107
 31
0.0
  0
LINE
  5
96E
330
30D
100
AcDbEntity
  8
DIM
 62
     0
370
    -2
100
AcDbLine
 10
17.934887
 20
20.317107
 30
0.0
 11
15.46926199999999
 21
20.317107
 31
0.0
  0
SOLID
  5
96F
330
30D
100
AcDbEntity
  8
DIM
 62
     0
100
AcDbTrace
 10
11.92488699999999
 20
20.37710699999999
 30
0.0
 11
11.92488699999999
 21
20.257107
 31
0.0
 12
11.56488699999999
 22
20.317107
 32
0.0
 13
11.56488699999999
 23
20.317107
 33
0.0
  0
SOLID
  5
970
330
30D
100
AcDbEntity
  8
DIM
 62
     0
100
AcDbTrace
 10
17.934887
 20
20.37710699999999
 30
0.0
 11
17.934887
 21
20.257107
 31
0.0
 12
18.29488699999999
 22
20.317107
 32
0.0
 13
18.29488699999999
 23
20.317107
 33
0.0
  0
MTEXT
  5
971
330
30D
100
AcDbEntity
  8
DIM
 62
     0
100
AcDbMText
 10
14.92988699999999
 20
20.317107
 30
0.0
 40
0.25
 41
0.0
 71
     5
 72
     1
  1
\A1;6.730
  7
TXT
 73
     1
 44
1.0
  0
POINT
  5
972
330
30D
100
AcDbEntity
  8
DEFPOINTS
 62
     0
100
AcDbPoint
 10
11.56488699999999
 20
19.53591199999999
 30
0.0
  0
POINT
  5
973
330
30D
100
AcDbEntity
  8
DEFPOINTS
 62
     0
100
AcDbPoint
 10
18.29488699999999
 20
19.53591199999999
 30
0.0
  0
POINT
  5
974
330
30D
100
AcDbEntity
  8
DEFPOINTS
 62
     0
100
AcDbPoint
 10
18.29488699999999
 20
20.317107
 30
0.0
  0
ENDBLK
  5
319
330
30D
100
AcDbEntity
  8
0
100
AcDbBlockEnd
  0
BLOCK
  5
326
330
31B
100
AcDbEntity
  8
0
100
AcDbBlockBegin
  2
*D9
 70
     1
 10
0.0
 20
0.0
 30
0.0
  3
*D9
  1

  0
LINE
  5
975
330
31B
100
AcDbEntity
  8
DIM
 62
     0
370
    -2
100
AcDbLine
 10
18.24488699999999
 20
18.154912
 30
0.0
 11
18.24488699999999
 21
17.56137299999999
 31
0.0
  0
LINE
  5
976
330
31B
100
AcDbEntity
  8
DIM
 62
     0
370
    -2
100
AcDbLine
 10
11.614887
 20
18.154912
 30
0.0
 11
11.614887
 21
17.56137299999999
 31
0.0
  0
LINE
  5
977
330
31B
100
AcDbEntity
  8
DIM
 62
     0
370
    -2
100
AcDbLine
 10
17.884887
 20
17.74737299999999
 30
0.0
 11
16.78176199999999
 21
17.74737299999999
 31
0.0
  0
LINE
  5
978
330
31B
100
AcDbEntity
  8
DIM
 62
     0
370
    -2
100
AcDbLine
 10
11.97488699999999
 20
17.74737299999999
 30
0.0
 11
13.07801199999999
 21
17.74737299999999
 31
0.0
  0
SOLID
  5
979
330
31B
100
AcDbEntity
  8
DIM
 62
     0
100
AcDbTrace
 10
17.884887
 20
17.807373
 30
0.0
 11
17.884887
 21
17.687373
 31
0.0
 12
18.24488699999999
 22
17.74737299999999
 32
0.0
 13
18.24488699999999
 23
17.74737299999999
 33
0.0
  0
SOLID
  5
97A
330
31B
100
AcDbEntity
  8
DIM
 62
     0
100
AcDbTrace
 10
11.97488699999999
 20
17.807373
 30
0.0
 11
11.97488699999999
 21
17.687373
 31
0.0
 12
11.614887
 22
17.74737299999999
 32
0.0
 13
11.614887
 23
17.74737299999999
 33
0.0
  0
MTEXT
  5
97B
330
31B
100
AcDbEntity
  8
DIM
 62
     0
100
AcDbMText
 10
14.92988699999999
 20
17.74737299999999
 30
0.0
 40
0.25
 41
0.0
 71
     5
 72
     1
  1
\A1;6.630 EXPOSED PANEL
  7
TXT
 73
     1
 44
1.0
  0
POINT
  5
97C
330
31B
100
AcDbEntity
  8
DEFPOINTS
 62
     0
100
AcDbPoint
 10
18.24488699999999
 20
18.280912
 30
0.0
  0
POINT
  5
97D
330
31B
100
AcDbEntity
  8
DEFPOINTS
 62
     0
100
AcDbPoint
 10
11.614887
 20
18.280912
 30
0.0
  0
POINT
  5
97E
330
31B
100
AcDbEntity
  8
DEFPOINTS
 62
     0
100
AcDbPoint
 10
11.614887
 20
17.74737299999999
 30
0.0
  0
ENDBLK
  5
327
330
31B
100
AcDbEntity
  8
0
100
AcDbBlockEnd
  0
BLOCK
  5
334
330
329
100
AcDbEntity
  8
0
100
AcDbBlockBegin
  2
*D10
 70
     1
 10
0.0
 20
0.0
 30
0.0
  3
*D10
  1

  0
LINE
  5
97F
330
329
100
AcDbEntity
  8
DIM
 62
     0
370
    -2
100
AcDbLine
 10
10.44232999999999
 20
27.65042
 30
0.0
 11
11.20590299999999
 21
27.65042
 31
0.0
  0
LINE
  5
980
330
329
100
AcDbEntity
  8
DIM
 62
     0
370
    -2
100
AcDbLine
 10
10.44232999999999
 20
22.35041999999999
 30
0.0
 11
11.20590299999999
 21
22.35041999999999
 31
0.0
  0
LINE
  5
981
330
329
100
AcDbEntity
  8
DIM
 62
     0
370
    -2
100
AcDbLine
 10
11.01990299999999
 20
27.29042
 30
0.0
 11
11.01990299999999
 21
25.30542
 31
0.0
  0
LINE
  5
982
330
329
100
AcDbEntity
  8
DIM
 62
     0
370
    -2
100
AcDbLine
 10
11.01990299999999
 20
22.71042
 30
0.0
 11
11.01990299999999
 21
24.69542
 31
0.0
  0
SOLID
  5
983
330
329
100
AcDbEntity
  8
DIM
 62
     0
100
AcDbTrace
 10
10.95990299999999
 20
27.29042
 30
0.0
 11
11.07990299999999
 21
27.29042
 31
0.0
 12
11.01990299999999
 22
27.65042
 32
0.0
 13
11.01990299999999
 23
27.65042
 33
0.0
  0
SOLID
  5
984
330
329
100
AcDbEntity
  8
DIM
 62
     0
100
AcDbTrace
 10
10.95990299999999
 20
22.71042
 30
0.0
 11
11.07990299999999
 21
22.71042
 31
0.0
 12
11.01990299999999
 22
22.35041999999999
 32
0.0
 13
11.01990299999999
 23
22.35041999999999
 33
0.0
  0
MTEXT
  5
985
330
329
100
AcDbEntity
  8
DIM
 62
     0
100
AcDbMText
 10
11.01990299999999
 20
25.00042
 30
0.0
 40
0.25
 41
0.0
 71
     5
 72
     1
  1
\A1;5.300
  7
TXT
 73
     1
 44
1.0
  0
POINT
  5
986
330
329
100
AcDbEntity
  8
DEFPOINTS
 62
     0
100
AcDbPoint
 10
10.31633
 20
27.65042
 30
0.0
  0
POINT
  5
987
330
329
100
AcDbEntity
  8
DEFPOINTS
 62
     0
100
AcDbPoint
 10
10.31633
 20
22.35041999999999
 30
0.0
  0
POINT
  5
988
330
329
100
AcDbEntity
  8
DEFPOINTS
 62
     0
100
AcDbPoint
 10
11.01990299999999
 20
22.35041999999999
 30
0.0
  0
ENDBLK
  5
335
330
329
100
AcDbEntity
  8
0
100
AcDbBlockEnd
  0
BLOCK
  5
342
330
337
100
AcDbEntity
  8
0
100
AcDbBlockBegin
  2
*D11
 70
     1
 10
0.0
 20
0.0
 30
0.0
  3
*D11
  1

  0
LINE
  5
989
330
337
100
AcDbEntity
  8
DIM
 62
     0
370
    -2
100
AcDbLine
 10
3.58633
 20
24.60442
 30
0.0
 11
3.586329999999999
 21
21.097079
 31
0.0
  0
LINE
  5
98A
330
337
100
AcDbEntity
  8
DIM
 62
     0
370
    -2
100
AcDbLine
 10
9.98633
 20
24.60442
 30
0.0
 11
9.98633
 21
21.097079
 31
0.0
  0
LINE
  5
98B
330
337
100
AcDbEntity
  8
DIM
 62
     0
370
    -2
100
AcDbLine
 10
3.94633
 20
21.283079
 30
0.0
 11
5.567409999999999
 21
21.283079
 31
0.0
  0
LINE
  5
98C
330
337
100
AcDbEntity
  8
DIM
 62
     0
370
    -2
100
AcDbLine
 10
9.626330000000001
 20
21.283079
 30
0.0
 11
6.614909999999999
 21
21.283079
 31
0.0
  0
SOLID
  5
98D
330
337
100
AcDbEntity
  8
DIM
 62
     0
100
AcDbTrace
 10
3.94633
 20
21.343079
 30
0.0
 11
3.94633
 21
21.223079
 31
0.0
 12
3.58633
 22
21.283079
 32
0.0
 13
3.58633
 23
21.283079
 33
0.0
  0
SOLID
  5
98E
330
337
100
AcDbEntity
  8
DIM
 62
     0
100
AcDbTrace
 10
9.626330000000001
 20
21.343079
 30
0.0
 11
9.626330000000001
 21
21.223079
 31
0.0
 12
9.98633
 22
21.283079
 32
0.0
 13
9.98633
 23
21.283079
 33
0.0
  0
MTEXT
  5
98F
330
337
100
AcDbEntity
  8
DIM
 62
     0
100
AcDbMText
 10
6.091159999999999
 20
21.283079
 30
0.0
 40
0.25
 41
0.0
 71
     5
 72
     1
  1
\A1;6.400
  7
TXT
 73
     1
 44
1.0
  0
POINT
  5
990
330
337
100
AcDbEntity
  8
DEFPOINTS
 62
     0
100
AcDbPoint
 10
3.58633
 20
24.73042
 30
0.0
  0
POINT
  5
991
330
337
100
AcDbEntity
  8
DEFPOINTS
 62
     0
100
AcDbPoint
 10
9.98633
 20
24.73042
 30
0.0
  0
POINT
  5
992
330
337
100
AcDbEntity
  8
DEFPOINTS
 62
     0
100
AcDbPoint
 10
9.98633
 20
21.283079
 30
0.0
  0
ENDBLK
  5
343
330
337
100
AcDbEntity
  8
0
100
AcDbBlockEnd
  0
BLOCK
  5
350
330
345
100
AcDbEntity
  8
0
100
AcDbBlockBegin
  2
*D12
 70
     1
 10
0.0
 20
0.0
 30
0.0
  3
*D12
  1

  0
LINE
  5
993
330
345
100
AcDbEntity
  8
DIM
 62
     0
370
    -2
100
AcDbLine
 10
3.58633
 20
24.60442
 30
0.0
 11
3.586329999999999
 21
21.097079
 31
0.0
  0
LINE
  5
994
330
345
100
AcDbEntity
  8
DIM
 62
     0
370
    -2
100
AcDbLine
 10
3.256329999999999
 20
22.22442
 30
0.0
 11
3.256329999999999
 21
21.097079
 31
0.0
  0
LINE
  5
995
330
345
100
AcDbEntity
  8
DIM
 62
     0
370
    -2
100
AcDbLine
 10
3.94633
 20
21.283079
 30
0.0
 11
4.306329999999999
 21
21.283079
 31
0.0
  0
LINE
  5
996
330
345
100
AcDbEntity
  8
DIM
 62
     0
370
    -2
100
AcDbLine
 10
2.896329999999999
 20
21.283079
 30
0.0
 11
2.536329999999999
 21
21.283079
 31
0.0
  0
SOLID
  5
997
330
345
100
AcDbEntity
  8
DIM
 62
     0
100
AcDbTrace
 10
3.94633
 20
21.343079
 30
0.0
 11
3.94633
 21
21.223079
 31
0.0
 12
3.58633
 22
21.283079
 32
0.0
 13
3.58633
 23
21.283079
 33
0.0
  0
SOLID
  5
998
330
345
100
AcDbEntity
  8
DIM
 62
     0
100
AcDbTrace
 10
2.896329999999999
 20
21.343079
 30
0.0
 11
2.896329999999999
 21
21.223079
 31
0.0
 12
3.256329999999999
 22
21.283079
 32
0.0
 13
3.256329999999999
 23
21.283079
 33
0.0
  0
MTEXT
  5
999
330
345
100
AcDbEntity
  8
DIM
 62
     0
100
AcDbMText
 10
2.012579999999999
 20
21.283079
 30
0.0
 40
0.25
 41
0.0
 71
     5
 72
     1
  1
\A1;0.330
  7
TXT
 73
     1
 44
1.0
  0
POINT
  5
99A
330
345
100
AcDbEntity
  8
DEFPOINTS
 62
     0
100
AcDbPoint
 10
3.58633
 20
24.73042
 30
0.0
  0
POINT
  5
99B
330
345
100
AcDbEntity
  8
DEFPOINTS
 62
     0
100
AcDbPoint
 10
3.256329999999999
 20
22.35041999999999
 30
0.0
  0
POINT
  5
99C
330
345
100
AcDbEntity
  8
DEFPOINTS
 62
     0
100
AcDbPoint
 10
3.256329999999999
 20
21.283079
 30
0.0
  0
ENDBLK
  5
351
330
345
100
AcDbEntity
  8
0
100
AcDbBlockEnd
  0
BLOCK
  5
35E
330
353
100
AcDbEntity
  8
0
100
AcDbBlockBegin
  2
*D13
 70
     1
 10
0.0
 20
0.0
 30
0.0
  3
*D13
  1

  0
LINE
  5
99D
330
353
100
AcDbEntity
  8
DIM
 62
     0
370
    -2
100
AcDbLine
 10
3.256329999999999
 20
19.00691199999999
 30
0.0
 11
3.256329999999999
 21
20.503107
 31
0.0
  0
LINE
  5
99E
330
353
100
AcDbEntity
  8
DIM
 62
     0
370
    -2
100
AcDbLine
 10
10.31633
 20
19.00691199999999
 30
0.0
 11
10.31633
 21
20.503107
 31
0.0
  0
LINE
  5
99F
330
353
100
AcDbEntity
  8
DIM
 62
     0
370
    -2
100
AcDbLine
 10
3.616329999999999
 20
20.317107
 30
0.0
 11
6.26258
 21
20.317107
 31
0.0
  0
LINE
  5
9A0
330
353
100
AcDbEntity
  8
DIM
 62
     0
370
    -2
100
AcDbLine
 10
9.956330000000001
 20
20.317107
 30
0.0
 11
7.31008
 21
20.317107
 31
0.0
  0
SOLID
  5
9A1
330
353
100
AcDbEntity
  8
DIM
 62
     0
100
AcDbTrace
 10
3.616329999999999
 20
20.37710699999999
 30
0.0
 11
3.616329999999999
 21
20.257107
 31
0.0
 12
3.256329999999999
 22
20.317107
 32
0.0
 13
3.256329999999999
 23
20.317107
 33
0.0
  0
SOLID
  5
9A2
330
353
100
AcDbEntity
  8
DIM
 62
     0
100
AcDbTrace
 10
9.956330000000001
 20
20.37710699999999
 30
0.0
 11
9.956330000000001
 21
20.257107
 31
0.0
 12
10.31633
 22
20.317107
 32
0.0
 13
10.31633
 23
20.317107
 33
0.0
  0
MTEXT
  5
9A3
330
353
100
AcDbEntity
  8
DIM
 62
     0
100
AcDbMText
 10
6.78633
 20
20.317107
 30
0.0
 40
0.25
 41
0.0
 71
     5
 72
     1
  1
\A1;7.060
  7
TXT
 73
     1
 44
1.0
  0
POINT
  5
9A4
330
353
100
AcDbEntity
  8
DEFPOINTS
 62
     0
100
AcDbPoint
 10
3.256329999999999
 20
18.88091199999999
 30
0.0
  0
POINT
  5
9A5
330
353
100
AcDbEntity
  8
DEFPOINTS
 62
     0
100
AcDbPoint
 10
10.31633
 20
18.88091199999999
 30
0.0
  0
POINT
  5
9A6
330
353
100
AcDbEntity
  8
DEFPOINTS
 62
     0
100
AcDbPoint
 10
10.31633
 20
20.317107
 30
0.0
  0
ENDBLK
  5
35F
330
353
100
AcDbEntity
  8
0
100
AcDbBlockEnd
  0
BLOCK
  5
36C
330
361
100
AcDbEntity
  8
0
100
AcDbBlockBegin
  2
*D14
 70
     1
 10
0.0
 20
0.0
 30
0.0
  3
*D14
  1

  0
LINE
  5
91B
330
361
100
AcDbEntity
  8
DIM
 62
     0
370
    -2
100
AcDbLine
 10
4.732001999999999
 20
19.370912
 30
0.0
 11
5.966396999999999
 21
19.370912
 31
0.0
  0
LINE
  5
91C
330
361
100
AcDbEntity
  8
DIM
 62
     0
370
    -2
100
AcDbLine
 10
4.732001999999999
 20
18.390912
 30
0.0
 11
5.966396999999999
 21
18.390912
 31
0.0
  0
LINE
  5
91D
330
361
100
AcDbEntity
  8
DIM
 62
     0
370
    -2
100
AcDbLine
 10
5.780396999999999
 20
19.730912
 30
0.0
 11
5.780396999999999
 21
20.09091199999999
 31
0.0
  0
LINE
  5
91E
330
361
100
AcDbEntity
  8
DIM
 62
     0
370
    -2
100
AcDbLine
 10
5.780396999999999
 20
18.030912
 30
0.0
 11
5.780396999999998
 21
17.670912
 31
0.0
  0
SOLID
  5
91F
330
361
100
AcDbEntity
  8
DIM
 62
     0
100
AcDbTrace
 10
5.720397
 20
19.730912
 30
0.0
 11
5.840396999999999
 21
19.730912
 31
0.0
 12
5.780396999999999
 22
19.370912
 32
0.0
 13
5.780396999999999
 23
19.370912
 33
0.0
  0
SOLID
  5
920
330
361
100
AcDbEntity
  8
DIM
 62
     0
100
AcDbTrace
 10
5.720397
 20
18.030912
 30
0.0
 11
5.840396999999999
 21
18.030912
 31
0.0
 12
5.780396999999999
 22
18.390912
 32
0.0
 13
5.780396999999999
 23
18.390912
 33
0.0
  0
MTEXT
  5
921
330
361
100
AcDbEntity
  8
DIM
 62
     0
100
AcDbMText
 10
5.780396999999996
 20
18.880912
 30
0.0
 40
0.25
 41
0.0
 71
     5
 72
     1
  1
\A1;0.980
  7
TXT
 73
     1
 44
1.0
  0
POINT
  5
922
330
361
100
AcDbEntity
  8
DEFPOINTS
 62
     0
100
AcDbPoint
 10
4.606001999999999
 20
19.370912
 30
0.0
  0
POINT
  5
923
330
361
100
AcDbEntity
  8
DEFPOINTS
 62
     0
100
AcDbPoint
 10
4.606001999999999
 20
18.390912
 30
0.0
  0
POINT
  5
924
330
361
100
AcDbEntity
  8
DEFPOINTS
 62
     0
100
AcDbPoint
 10
5.780396999999999
 20
18.390912
 30
0.0
  0
ENDBLK
  5
36D
330
361
100
AcDbEntity
  8
0
100
AcDbBlockEnd
  0
BLOCK
  5
37A
330
36F
100
AcDbEntity
  8
0
100
AcDbBlockBegin
  2
*D15
 70
     1
 10
0.0
 20
0.0
 30
0.0
  3
*D15
  1

  0
LINE
  5
925
330
36F
100
AcDbEntity
  8
DIM
 62
     0
370
    -2
100
AcDbLine
 10
7.516316999999999
 20
18.24091199999999
 30
0.0
 11
7.429736999999999
 21
18.24091199999999
 31
0.0
  0
LINE
  5
926
330
36F
100
AcDbEntity
  8
DIM
 62
     0
370
    -2
100
AcDbLine
 10
7.516316999999999
 20
19.52091199999999
 30
0.0
 11
7.429736999999999
 21
19.52091199999999
 31
0.0
  0
LINE
  5
927
330
36F
100
AcDbEntity
  8
DIM
 62
     0
370
    -2
100
AcDbLine
 10
7.615736999999998
 20
17.880912
 30
0.0
 11
7.615736999999998
 21
17.52091199999999
 31
0.0
  0
LINE
  5
928
330
36F
100
AcDbEntity
  8
DIM
 62
     0
370
    -2
100
AcDbLine
 10
7.615736999999999
 20
19.88091199999999
 30
0.0
 11
7.615736999999999
 21
20.24091199999999
 31
0.0
  0
SOLID
  5
929
330
36F
100
AcDbEntity
  8
DIM
 62
     0
100
AcDbTrace
 10
7.555736999999998
 20
17.880912
 30
0.0
 11
7.675736999999998
 21
17.880912
 31
0.0
 12
7.615736999999999
 22
18.24091199999999
 32
0.0
 13
7.615736999999999
 23
18.24091199999999
 33
0.0
  0
SOLID
  5
92A
330
36F
100
AcDbEntity
  8
DIM
 62
     0
100
AcDbTrace
 10
7.555736999999999
 20
19.88091199999999
 30
0.0
 11
7.675736999999998
 21
19.88091199999999
 31
0.0
 12
7.615736999999999
 22
19.52091199999999
 32
0.0
 13
7.615736999999999
 23
19.52091199999999
 33
0.0
  0
MTEXT
  5
92B
330
36F
100
AcDbEntity
  8
DIM
 62
     0
100
AcDbMText
 10
7.615736999999995
 20
18.88091199999999
 30
0.0
 40
0.25
 41
0.0
 71
     5
 72
     1
  1
\A1;1.280
  7
TXT
 73
     1
 44
1.0
  0
POINT
  5
92C
330
36F
100
AcDbEntity
  8
DEFPOINTS
 62
     0
100
AcDbPoint
 10
7.642317
 20
18.24091199999999
 30
0.0
  0
POINT
  5
92D
330
36F
100
AcDbEntity
  8
DEFPOINTS
 62
     0
100
AcDbPoint
 10
7.642317
 20
19.52091199999999
 30
0.0
  0
POINT
  5
92E
330
36F
100
AcDbEntity
  8
DEFPOINTS
 62
     0
100
AcDbPoint
 10
7.615736999999999
 20
19.52091199999999
 30
0.0
  0
ENDBLK
  5
37B
330
36F
100
AcDbEntity
  8
0
100
AcDbBlockEnd
  0
BLOCK
  5
388
330
37D
100
AcDbEntity
  8
0
100
AcDbBlockBegin
  2
*D16
 70
     1
 10
0.0
 20
0.0
 30
0.0
  3
*D16
  1

  0
LINE
  5
92F
330
37D
100
AcDbEntity
  8
DIM
 62
     0
370
    -2
100
AcDbLine
 10
3.16373
 20
19.645912
 30
0.0
 11
2.488297
 21
19.645912
 31
0.0
  0
LINE
  5
930
330
37D
100
AcDbEntity
  8
DIM
 62
     0
370
    -2
100
AcDbLine
 10
3.130329999999999
 20
18.88091199999999
 30
0.0
 11
2.488297
 21
18.88091199999999
 31
0.0
  0
LINE
  5
931
330
37D
100
AcDbEntity
  8
DIM
 62
     0
370
    -2
100
AcDbLine
 10
2.674297
 20
20.005912
 30
0.0
 11
2.674297
 21
20.36591199999999
 31
0.0
  0
LINE
  5
932
330
37D
100
AcDbEntity
  8
DIM
 62
     0
370
    -2
100
AcDbLine
 10
2.674297
 20
18.520912
 30
0.0
 11
2.674297
 21
18.16091199999999
 31
0.0
  0
SOLID
  5
933
330
37D
100
AcDbEntity
  8
DIM
 62
     0
100
AcDbTrace
 10
2.614297
 20
20.005912
 30
0.0
 11
2.734297
 21
20.005912
 31
0.0
 12
2.674297
 22
19.645912
 32
0.0
 13
2.674297
 23
19.645912
 33
0.0
  0
SOLID
  5
934
330
37D
100
AcDbEntity
  8
DIM
 62
     0
100
AcDbTrace
 10
2.614297
 20
18.520912
 30
0.0
 11
2.734297
 21
18.520912
 31
0.0
 12
2.674297
 22
18.88091199999999
 32
0.0
 13
2.674297
 23
18.88091199999999
 33
0.0
  0
MTEXT
  5
935
330
37D
100
AcDbEntity
  8
DIM
 62
     0
100
AcDbMText
 10
2.674296999999997
 20
19.26341199999999
 30
0.0
 40
0.25
 41
0.0
 71
     5
 72
     1
  1
\A1;0.765
  7
TXT
 73
     1
 44
1.0
  0
POINT
  5
936
330
37D
100
AcDbEntity
  8
DEFPOINTS
 62
     0
100
AcDbPoint
 10
3.28973
 20
19.645912
 30
0.0
  0
POINT
  5
937
330
37D
100
AcDbEntity
  8
DEFPOINTS
 62
     0
100
AcDbPoint
 10
3.256329999999999
 20
18.88091199999999
 30
0.0
  0
POINT
  5
938
330
37D
100
AcDbEntity
  8
DEFPOINTS
 62
     0
100
AcDbPoint
 10
2.674297
 20
18.88091199999999
 30
0.0
  0
ENDBLK
  5
389
330
37D
100
AcDbEntity
  8
0
100
AcDbBlockEnd
  0
BLOCK
  5
396
330
38B
100
AcDbEntity
  8
0
100
AcDbBlockBegin
  2
*D17
 70
     1
 10
0.0
 20
0.0
 30
0.0
  3
*D17
  1

  0
LINE
  5
939
330
38B
100
AcDbEntity
  8
DIM
 62
     0
370
    -2
100
AcDbLine
 10
3.16373
 20
19.645912
 30
0.0
 11
1.622035
 21
19.645912
 31
0.0
  0
LINE
  5
93A
330
38B
100
AcDbEntity
  8
DIM
 62
     0
370
    -2
100
AcDbLine
 10
3.16373
 20
18.11591199999999
 30
0.0
 11
1.622034999999999
 21
18.11591199999999
 31
0.0
  0
LINE
  5
93B
330
38B
100
AcDbEntity
  8
DIM
 62
     0
370
    -2
100
AcDbLine
 10
1.808035
 20
20.005912
 30
0.0
 11
1.808035
 21
20.36591199999999
 31
0.0
  0
LINE
  5
93C
330
38B
100
AcDbEntity
  8
DIM
 62
     0
370
    -2
100
AcDbLine
 10
1.808034999999999
 20
17.755912
 30
0.0
 11
1.808034999999999
 21
17.395912
 31
0.0
  0
SOLID
  5
93D
330
38B
100
AcDbEntity
  8
DIM
 62
     0
100
AcDbTrace
 10
1.748035
 20
20.005912
 30
0.0
 11
1.868035
 21
20.005912
 31
0.0
 12
1.808035
 22
19.645912
 32
0.0
 13
1.808035
 23
19.645912
 33
0.0
  0
SOLID
  5
93E
330
38B
100
AcDbEntity
  8
DIM
 62
     0
100
AcDbTrace
 10
1.748034999999999
 20
17.755912
 30
0.0
 11
1.868034999999999
 21
17.755912
 31
0.0
 12
1.808034999999999
 22
18.11591199999999
 32
0.0
 13
1.808034999999999
 23
18.11591199999999
 33
0.0
  0
MTEXT
  5
93F
330
38B
100
AcDbEntity
  8
DIM
 62
     0
100
AcDbMText
 10
1.808034999999996
 20
18.88091199999999
 30
0.0
 40
0.25
 41
0.0
 71
     5
 72
     1
  1
\A1;1.530
  7
TXT
 73
     1
 44
1.0
  0
POINT
  5
940
330
38B
100
AcDbEntity
  8
DEFPOINTS
 62
     0
100
AcDbPoint
 10
3.28973
 20
19.645912
 30
0.0
  0
POINT
  5
941
330
38B
100
AcDbEntity
  8
DEFPOINTS
 62
     0
100
AcDbPoint
 10
3.28973
 20
18.11591199999999
 30
0.0
  0
POINT
  5
942
330
38B
100
AcDbEntity
  8
DEFPOINTS
 62
     0
100
AcDbPoint
 10
1.808034999999999
 20
18.11591199999999
 30
0.0
  0
ENDBLK
  5
397
330
38B
100
AcDbEntity
  8
0
100
AcDbBlockEnd
  0
BLOCK
  5
3A4
330
399
100
AcDbEntity
  8
0
100
AcDbBlockBegin
  2
*D18
 70
     1
 10
0.0
 20
0.0
 30
0.0
  3
*D18
  1

  0
LINE
  5
9A7
330
399
100
AcDbEntity
  8
DIM
 62
     0
370
    -2
100
AcDbLine
 10
7.083118999999999
 20
18.24091199999999
 30
0.0
 11
6.860014999999999
 21
18.24091199999999
 31
0.0
  0
LINE
  5
9A8
330
399
100
AcDbEntity
  8
DIM
 62
     0
370
    -2
100
AcDbLine
 10
7.083118999999999
 20
18.11591199999999
 30
0.0
 11
6.860014999999999
 21
18.11591199999999
 31
0.0
  0
LINE
  5
9A9
330
399
100
AcDbEntity
  8
DIM
 62
     0
370
    -2
100
AcDbLine
 10
7.046014999999999
 20
18.60091199999999
 30
0.0
 11
7.046014999999999
 21
18.96091199999999
 31
0.0
  0
LINE
  5
9AA
330
399
100
AcDbEntity
  8
DIM
 62
     0
370
    -2
100
AcDbLine
 10
7.046014999999998
 20
17.755912
 30
0.0
 11
7.046014999999998
 21
17.395912
 31
0.0
  0
LINE
  5
9AB
330
399
100
AcDbEntity
  8
DIM
 62
     0
370
    -2
100
AcDbLine
 10
7.046014999999998
 20
17.395912
 30
0.0
 11
6.686014999999998
 21
17.395912
 31
0.0
  0
SOLID
  5
9AC
330
399
100
AcDbEntity
  8
DIM
 62
     0
100
AcDbTrace
 10
6.986015
 20
18.60091199999999
 30
0.0
 11
7.106014999999999
 21
18.60091199999999
 31
0.0
 12
7.046014999999999
 22
18.24091199999999
 32
0.0
 13
7.046014999999999
 23
18.24091199999999
 33
0.0
  0
SOLID
  5
9AD
330
399
100
AcDbEntity
  8
DIM
 62
     0
100
AcDbTrace
 10
6.986014999999999
 20
17.755912
 30
0.0
 11
7.106014999999998
 21
17.755912
 31
0.0
 12
7.046014999999999
 22
18.11591199999999
 32
0.0
 13
7.046014999999999
 23
18.11591199999999
 33
0.0
  0
MTEXT
  5
9AE
330
399
100
AcDbEntity
  8
DIM
 62
     0
100
AcDbMText
 10
6.177889999999996
 20
17.395912
 30
0.0
 40
0.25
 41
0.0
 71
     5
 72
     1
  1
\A1;0.125
  7
TXT
 73
     1
 44
1.0
  0
POINT
  5
9AF
330
399
100
AcDbEntity
  8
DEFPOINTS
 62
     0
100
AcDbPoint
 10
7.209119
 20
18.24091199999999
 30
0.0
  0
POINT
  5
9B0
330
399
100
AcDbEntity
  8
DEFPOINTS
 62
     0
100
AcDbPoint
 10
7.209119
 20
18.11591199999999
 30
0.0
  0
POINT
  5
9B1
330
399
100
AcDbEntity
  8
DEFPOINTS
 62
     0
100
AcDbPoint
 10
7.046014999999999
 20
18.11591199999999
 30
0.0
  0
ENDBLK
  5
3A5
330
399
100
AcDbEntity
  8
0
100
AcDbBlockEnd
  0
BLOCK
  5
3B2
330
3A7
100
AcDbEntity
  8
0
100
AcDbBlockBegin
  2
*D19
 70
     1
 10
0.0
 20
0.0
 30
0.0
  3
*D19
  1

  0
LINE
  5
9B2
330
3A7
100
AcDbEntity
  8
DIM
 62
     0
370
    -2
100
AcDbLine
 10
4.732001999999999
 20
18.390912
 30
0.0
 11
5.342306999999999
 21
18.390912
 31
0.0
  0
LINE
  5
9B3
330
3A7
100
AcDbEntity
  8
DIM
 62
     0
370
    -2
100
AcDbLine
 10
5.030306999999999
 20
18.11591199999999
 30
0.0
 11
4.970307
 21
18.11591199999999
 31
0.0
  0
LINE
  5
9B4
330
3A7
100
AcDbEntity
  8
DIM
 62
     0
370
    -2
100
AcDbLine
 10
5.156306999999999
 20
18.75091199999999
 30
0.0
 11
5.156306999999999
 21
19.11091199999999
 31
0.0
  0
LINE
  5
9B5
330
3A7
100
AcDbEntity
  8
DIM
 62
     0
370
    -2
100
AcDbLine
 10
5.156306999999999
 20
17.755912
 30
0.0
 11
5.156306999999999
 21
17.395912
 31
0.0
  0
LINE
  5
9B6
330
3A7
100
AcDbEntity
  8
DIM
 62
     0
370
    -2
100
AcDbLine
 10
5.156306999999999
 20
17.395912
 30
0.0
 11
4.796306999999998
 21
17.395912
 31
0.0
  0
SOLID
  5
9B7
330
3A7
100
AcDbEntity
  8
DIM
 62
     0
100
AcDbTrace
 10
5.096307
 20
18.75091199999999
 30
0.0
 11
5.216306999999999
 21
18.75091199999999
 31
0.0
 12
5.156306999999999
 22
18.390912
 32
0.0
 13
5.156306999999999
 23
18.390912
 33
0.0
  0
SOLID
  5
9B8
330
3A7
100
AcDbEntity
  8
DIM
 62
     0
100
AcDbTrace
 10
5.096306999999999
 20
17.755912
 30
0.0
 11
5.216306999999998
 21
17.755912
 31
0.0
 12
5.156306999999999
 22
18.11591199999999
 32
0.0
 13
5.156306999999999
 23
18.11591199999999
 33
0.0
  0
MTEXT
  5
9B9
330
3A7
100
AcDbEntity
  8
DIM
 62
     0
100
AcDbMText
 10
4.256931999999996
 20
17.395912
 30
0.0
 40
0.25
 41
0.0
 71
     5
 72
     1
  1
\A1;0.275
  7
TXT
 73
     1
 44
1.0
  0
POINT
  5
9BA
330
3A7
100
AcDbEntity
  8
DEFPOINTS
 62
     0
100
AcDbPoint
 10
4.606001999999999
 20
18.390912
 30
0.0
  0
POINT
  5
9BB
330
3A7
100
AcDbEntity
  8
DEFPOINTS
 62
     0
100
AcDbPoint
 10
5.156306999999999
 20
18.11591199999999
 30
0.0
  0
POINT
  5
9BC
330
3A7
100
AcDbEntity
  8
DEFPOINTS
 62
     0
100
AcDbPoint
 10
5.156306999999999
 20
18.11591199999999
 30
0.0
  0
ENDBLK
  5
3B3
330
3A7
100
AcDbEntity
  8
0
100
AcDbBlockEnd
  0
BLOCK
  5
3C0
330
3B5
100
AcDbEntity
  8
0
100
AcDbBlockBegin
  2
*D20
 70
     1
 10
0.0
 20
0.0
 30
0.0
  3
*D20
  1

  0
LINE
  5
9BD
330
3B5
100
AcDbEntity
  8
DIM
 62
     0
370
    -2
100
AcDbLine
 10
3.46033
 20
24.73042
 30
0.0
 11
1.629284
 21
24.73042
 31
0.0
  0
LINE
  5
9BE
330
3B5
100
AcDbEntity
  8
DIM
 62
     0
370
    -2
100
AcDbLine
 10
3.130329999999999
 20
22.35041999999999
 30
0.0
 11
1.629284
 21
22.35041999999999
 31
0.0
  0
LINE
  5
9BF
330
3B5
100
AcDbEntity
  8
DIM
 62
     0
370
    -2
100
AcDbLine
 10
1.815284
 20
24.37042
 30
0.0
 11
1.815284
 21
23.84542
 31
0.0
  0
LINE
  5
9C0
330
3B5
100
AcDbEntity
  8
DIM
 62
     0
370
    -2
100
AcDbLine
 10
1.815284
 20
22.71042
 30
0.0
 11
1.815284
 21
23.23542
 31
0.0
  0
SOLID
  5
9C1
330
3B5
100
AcDbEntity
  8
DIM
 62
     0
100
AcDbTrace
 10
1.755284
 20
24.37042
 30
0.0
 11
1.875284
 21
24.37042
 31
0.0
 12
1.815284
 22
24.73042
 32
0.0
 13
1.815284
 23
24.73042
 33
0.0
  0
SOLID
  5
9C2
330
3B5
100
AcDbEntity
  8
DIM
 62
     0
100
AcDbTrace
 10
1.755284
 20
22.71042
 30
0.0
 11
1.875284
 21
22.71042
 31
0.0
 12
1.815284
 22
22.35041999999999
 32
0.0
 13
1.815284
 23
22.35041999999999
 33
0.0
  0
MTEXT
  5
9C3
330
3B5
100
AcDbEntity
  8
DIM
 62
     0
100
AcDbMText
 10
1.815283999999996
 20
23.54042
 30
0.0
 40
0.25
 41
0.0
 71
     5
 72
     1
  1
\A1;2.380
  7
TXT
 73
     1
 44
1.0
  0
POINT
  5
9C4
330
3B5
100
AcDbEntity
  8
DEFPOINTS
 62
     0
100
AcDbPoint
 10
3.58633
 20
24.73042
 30
0.0
  0
POINT
  5
9C5
330
3B5
100
AcDbEntity
  8
DEFPOINTS
 62
     0
100
AcDbPoint
 10
3.256329999999999
 20
22.35041999999999
 30
0.0
  0
POINT
  5
9C6
330
3B5
100
AcDbEntity
  8
DEFPOINTS
 62
     0
100
AcDbPoint
 10
1.815284
 20
22.35041999999999
 30
0.0
  0
ENDBLK
  5
3C1
330
3B5
100
AcDbEntity
  8
0
100
AcDbBlockEnd
  0
BLOCK
  5
3CF
330
3C4
100
AcDbEntity
  8
0
100
AcDbBlockBegin
  2
*D21
 70
     1
 10
0.0
 20
0.0
 30
0.0
  3
*D21
  1

  0
LINE
  5
9C7
330
3C4
100
AcDbEntity
  8
DIM
 62
     0
370
    -2
100
AcDbLine
 10
2.914223
 20
25.23792
 30
0.0
 11
0.7924520000000007
 21
25.23792
 31
0.0
  0
LINE
  5
9C8
330
3C4
100
AcDbEntity
  8
DIM
 62
     0
370
    -2
100
AcDbLine
 10
3.130329999999999
 20
22.35041999999999
 30
0.0
 11
0.7924520000000001
 21
22.35041999999999
 31
0.0
  0
LINE
  5
9C9
330
3C4
100
AcDbEntity
  8
DIM
 62
     0
370
    -2
100
AcDbLine
 10
0.9784520000000005
 20
24.87792
 30
0.0
 11
0.9784520000000004
 21
24.09917
 31
0.0
  0
LINE
  5
9CA
330
3C4
100
AcDbEntity
  8
DIM
 62
     0
370
    -2
100
AcDbLine
 10
0.978452
 20
22.71042
 30
0.0
 11
0.9784520000000002
 21
23.48917
 31
0.0
  0
SOLID
  5
9CB
330
3C4
100
AcDbEntity
  8
DIM
 62
     0
100
AcDbTrace
 10
0.9184520000000004
 20
24.87792
 30
0.0
 11
1.038452
 21
24.87792
 31
0.0
 12
0.9784520000000005
 22
25.23792
 32
0.0
 13
0.9784520000000005
 23
25.23792
 33
0.0
  0
SOLID
  5
9CC
330
3C4
100
AcDbEntity
  8
DIM
 62
     0
100
AcDbTrace
 10
0.9184519999999999
 20
22.71042
 30
0.0
 11
1.038452
 21
22.71042
 31
0.0
 12
0.978452
 22
22.35041999999999
 32
0.0
 13
0.978452
 23
22.35041999999999
 33
0.0
  0
MTEXT
  5
9CD
330
3C4
100
AcDbEntity
  8
DIM
 62
     0
100
AcDbMText
 10
0.9784519999999965
 20
23.79417
 30
0.0
 40
0.25
 41
0.0
 71
     5
 72
     1
  1
\A1;2.888
  7
TXT
 73
     1
 44
1.0
  0
POINT
  5
9CE
330
3C4
100
AcDbEntity
  8
DEFPOINTS
 62
     0
100
AcDbPoint
 10
3.040223
 20
25.23792
 30
0.0
  0
POINT
  5
9CF
330
3C4
100
AcDbEntity
  8
DEFPOINTS
 62
     0
100
AcDbPoint
 10
3.256329999999999
 20
22.35041999999999
 30
0.0
  0
POINT
  5
9D0
330
3C4
100
AcDbEntity
  8
DEFPOINTS
 62
     0
100
AcDbPoint
 10
0.978452
 20
22.35041999999999
 30
0.0
  0
ENDBLK
  5
3D0
330
3C4
100
AcDbEntity
  8
0
100
AcDbBlockEnd
  0
BLOCK
  5
542
330
537
100
AcDbEntity
  8
0
100
AcDbBlockBegin
  2
*D22
 70
     1
 10
0.0
 20
0.0
 30
0.0
  3
*D22
  1

  0
LINE
  5
9D1
330
537
100
AcDbEntity
  8
DIM
 62
     0
370
    -2
100
AcDbLine
 10
8.091084999999999
 20
27.39241999999999
 30
0.0
 11
8.151085
 21
27.39241999999999
 31
0.0
  0
LINE
  5
9D2
330
537
100
AcDbEntity
  8
DIM
 62
     0
370
    -2
100
AcDbLine
 10
7.839084999999999
 20
22.60842
 30
0.0
 11
7.779085
 21
22.60842
 31
0.0
  0
LINE
  5
9D3
330
537
100
AcDbEntity
  8
DIM
 62
     0
370
    -2
100
AcDbLine
 10
7.965085000000001
 20
27.03242
 30
0.0
 11
7.965085
 21
25.30542
 31
0.0
  0
LINE
  5
9D4
330
537
100
AcDbEntity
  8
DIM
 62
     0
370
    -2
100
AcDbLine
 10
7.965085
 20
22.96842
 30
0.0
 11
7.965085
 21
24.69542
 31
0.0
  0
SOLID
  5
9D5
330
537
100
AcDbEntity
  8
DIM
 62
     0
100
AcDbTrace
 10
7.905085000000001
 20
27.03242
 30
0.0
 11
8.025085
 21
27.03241999999999
 31
0.0
 12
7.965085000000001
 22
27.39242
 32
0.0
 13
7.965085000000001
 23
27.39242
 33
0.0
  0
SOLID
  5
9D6
330
537
100
AcDbEntity
  8
DIM
 62
     0
100
AcDbTrace
 10
7.905085
 20
22.96842
 30
0.0
 11
8.025085
 21
22.96841999999999
 31
0.0
 12
7.965085
 22
22.60842
 32
0.0
 13
7.965085
 23
22.60842
 33
0.0
  0
MTEXT
  5
9D7
330
537
100
AcDbEntity
  8
DIM
 62
     0
100
AcDbMText
 10
7.965084999999996
 20
25.00042
 30
0.0
 40
0.25
 41
0.0
 71
     5
 72
     1
  1
\A1;4.784
  7
TXT
 73
     1
 44
1.0
  0
POINT
  5
9D8
330
537
100
AcDbEntity
  8
DEFPOINTS
 62
     0
100
AcDbPoint
 10
7.965085
 20
27.39242
 30
0.0
  0
POINT
  5
9D9
330
537
100
AcDbEntity
  8
DEFPOINTS
 62
     0
100
AcDbPoint
 10
7.965085
 20
22.60842
 30
0.0
  0
POINT
  5
9DA
330
537
100
AcDbEntity
  8
DEFPOINTS
 62
     0
100
AcDbPoint
 10
7.965085
 20
22.60842
 30
0.0
  0
ENDBLK
  5
543
330
537
100
AcDbEntity
  8
0
100
AcDbBlockEnd
  0
BLOCK
  5
550
330
545
100
AcDbEntity
  8
0
100
AcDbBlockBegin
  2
*D23
 70
     1
 10
0.0
 20
0.0
 30
0.0
  3
*D23
  1

  0
LINE
  5
9DB
330
545
100
AcDbEntity
  8
DIM
 62
     0
370
    -2
100
AcDbLine
 10
8.019855000000001
 20
22.60842
 30
0.0
 11
7.779085
 21
22.60842
 31
0.0
  0
LINE
  5
9DC
330
545
100
AcDbEntity
  8
DIM
 62
     0
370
    -2
100
AcDbLine
 10
10.100244
 20
22.35041999999999
 30
0.0
 11
7.779085
 21
22.35042
 31
0.0
  0
LINE
  5
9DD
330
545
100
AcDbEntity
  8
DIM
 62
     0
370
    -2
100
AcDbLine
 10
7.965085
 20
22.96842
 30
0.0
 11
7.965085
 21
23.32842
 31
0.0
  0
LINE
  5
9DE
330
545
100
AcDbEntity
  8
DIM
 62
     0
370
    -2
100
AcDbLine
 10
7.965084999999999
 20
21.99042
 30
0.0
 11
7.965084999999999
 21
21.63042
 31
0.0
  0
LINE
  5
9DF
330
545
100
AcDbEntity
  8
DIM
 62
     0
370
    -2
100
AcDbLine
 10
7.965084999999999
 20
21.63042
 30
0.0
 11
7.605084999999998
 21
21.63042
 31
0.0
  0
SOLID
  5
9E0
330
545
100
AcDbEntity
  8
DIM
 62
     0
100
AcDbTrace
 10
7.905085
 20
22.96842
 30
0.0
 11
8.025085
 21
22.96842
 31
0.0
 12
7.965085
 22
22.60842
 32
0.0
 13
7.965085
 23
22.60842
 33
0.0
  0
SOLID
  5
9E1
330
545
100
AcDbEntity
  8
DIM
 62
     0
100
AcDbTrace
 10
7.905084999999999
 20
21.99042
 30
0.0
 11
8.025085
 21
21.99041999999999
 31
0.0
 12
7.965085
 22
22.35042
 32
0.0
 13
7.965085
 23
22.35042
 33
0.0
  0
MTEXT
  5
9E2
330
545
100
AcDbEntity
  8
DIM
 62
     0
100
AcDbMText
 10
7.065709999999995
 20
21.63042
 30
0.0
 40
0.25
 41
0.0
 71
     5
 72
     1
  1
\A1;0.258
  7
TXT
 73
     1
 44
1.0
  0
POINT
  5
9E3
330
545
100
AcDbEntity
  8
DEFPOINTS
 62
     0
100
AcDbPoint
 10
8.145855
 20
22.60842
 30
0.0
  0
POINT
  5
9E4
330
545
100
AcDbEntity
  8
DEFPOINTS
 62
     0
100
AcDbPoint
 10
10.22624399999999
 20
22.35041999999999
 30
0.0
  0
POINT
  5
9E5
330
545
100
AcDbEntity
  8
DEFPOINTS
 62
     0
100
AcDbPoint
 10
7.965085
 20
22.35042
 30
0.0
  0
ENDBLK
  5
551
330
545
100
AcDbEntity
  8
0
100
AcDbBlockEnd
  0
BLOCK
  5
55E
330
553
100
AcDbEntity
  8
0
100
AcDbBlockBegin
  2
*D24
 70
     1
 10
0.0
 20
0.0
 30
0.0
  3
*D24
  1

  0
LINE
  5
9E6
330
553
100
AcDbEntity
  8
DIM
 62
     0
370
    -2
100
AcDbLine
 10
4.607330000000001
 20
23.50042
 30
0.0
 11
5.457999999999999
 21
23.50042
 31
0.0
  0
LINE
  5
9E7
330
553
100
AcDbEntity
  8
DIM
 62
     0
370
    -2
100
AcDbLine
 10
4.607330000000001
 20
26.50042
 30
0.0
 11
5.458
 21
26.50042
 31
0.0
  0
LINE
  5
9E8
330
553
100
AcDbEntity
  8
DIM
 62
     0
370
    -2
100
AcDbLine
 10
5.271999999999999
 20
23.86042
 30
0.0
 11
5.271999999999999
 21
24.69542
 31
0.0
  0
LINE
  5
9E9
330
553
100
AcDbEntity
  8
DIM
 62
     0
370
    -2
100
AcDbLine
 10
5.272
 20
26.14042
 30
0.0
 11
5.271999999999999
 21
25.30542
 31
0.0
  0
SOLID
  5
9EA
330
553
100
AcDbEntity
  8
DIM
 62
     0
100
AcDbTrace
 10
5.211999999999999
 20
23.86042
 30
0.0
 11
5.331999999999998
 21
23.86042
 31
0.0
 12
5.271999999999999
 22
23.50042
 32
0.0
 13
5.271999999999999
 23
23.50042
 33
0.0
  0
SOLID
  5
9EB
330
553
100
AcDbEntity
  8
DIM
 62
     0
100
AcDbTrace
 10
5.212
 20
26.14042
 30
0.0
 11
5.331999999999999
 21
26.14042
 31
0.0
 12
5.272
 22
26.50042
 32
0.0
 13
5.272
 23
26.50042
 33
0.0
  0
MTEXT
  5
9EC
330
553
100
AcDbEntity
  8
DIM
 62
     0
100
AcDbMText
 10
5.271999999999995
 20
25.00042
 30
0.0
 40
0.25
 41
0.0
 71
     5
 72
     1
  1
\A1;3.000
  7
TXT
 73
     1
 44
1.0
  0
POINT
  5
9ED
330
553
100
AcDbEntity
  8
DEFPOINTS
 62
     0
100
AcDbPoint
 10
4.48133
 20
23.50042
 30
0.0
  0
POINT
  5
9EE
330
553
100
AcDbEntity
  8
DEFPOINTS
 62
     0
100
AcDbPoint
 10
4.48133
 20
26.50042
 30
0.0
  0
POINT
  5
9EF
330
553
100
AcDbEntity
  8
DEFPOINTS
 62
     0
100
AcDbPoint
 10
5.272
 20
26.50042
 30
0.0
  0
ENDBLK
  5
55F
330
553
100
AcDbEntity
  8
0
100
AcDbBlockEnd
  0
BLOCK
  5
56C
330
561
100
AcDbEntity
  8
0
100
AcDbBlockBegin
  2
*D25
 70
     1
 10
0.0
 20
0.0
 30
0.0
  3
*D25
  1

  0
LINE
  5
A86
330
561
100
AcDbEntity
  8
DIM
 62
     0
370
    -2
100
AcDbLine
 10
3.71633
 20
24.60442
 30
0.0
 11
3.71633
 21
24.19501978796057
 31
0.0
  0
LINE
  5
A87
330
561
100
AcDbEntity
  8
DIM
 62
     0
370
    -2
100
AcDbLine
 10
9.856329999999999
 20
24.60442
 30
0.0
 11
9.856329999999999
 21
24.19501978796057
 31
0.0
  0
LINE
  5
A88
330
561
100
AcDbEntity
  8
DIM
 62
     0
370
    -2
100
AcDbLine
 10
4.07633
 20
24.38101978796057
 30
0.0
 11
6.278205
 21
24.38101978796057
 31
0.0
  0
LINE
  5
A89
330
561
100
AcDbEntity
  8
DIM
 62
     0
370
    -2
100
AcDbLine
 10
9.49633
 20
24.38101978796057
 30
0.0
 11
7.294455
 21
24.38101978796057
 31
0.0
  0
SOLID
  5
A8A
330
561
100
AcDbEntity
  8
DIM
 62
     0
100
AcDbTrace
 10
4.07633
 20
24.44101978796057
 30
0.0
 11
4.07633
 21
24.32101978796057
 31
0.0
 12
3.71633
 22
24.38101978796057
 32
0.0
 13
3.71633
 23
24.38101978796057
 33
0.0
  0
SOLID
  5
A8B
330
561
100
AcDbEntity
  8
DIM
 62
     0
100
AcDbTrace
 10
9.49633
 20
24.44101978796057
 30
0.0
 11
9.49633
 21
24.32101978796057
 31
0.0
 12
9.856329999999999
 22
24.38101978796057
 32
0.0
 13
9.856329999999999
 23
24.38101978796057
 33
0.0
  0
MTEXT
  5
A8C
330
561
100
AcDbEntity
  8
DIM
 62
     0
100
AcDbMText
 10
6.78633
 20
24.38101978796057
 30
0.0
 40
0.25
 41
0.0
 71
     5
 72
     1
  1
\A1;6.140
  7
TXT
 73
     1
 44
1.0
  0
POINT
  5
A8D
330
561
100
AcDbEntity
  8
DEFPOINTS
 62
     0
100
AcDbPoint
 10
3.71633
 20
24.73042
 30
0.0
  0
POINT
  5
A8E
330
561
100
AcDbEntity
  8
DEFPOINTS
 62
     0
100
AcDbPoint
 10
9.856329999999999
 20
24.73042
 30
0.0
  0
POINT
  5
A8F
330
561
100
AcDbEntity
  8
DEFPOINTS
 62
     0
100
AcDbPoint
 10
9.856329999999999
 20
24.38101978796057
 30
0.0
  0
ENDBLK
  5
56D
330
561
100
AcDbEntity
  8
0
100
AcDbBlockEnd
  0
BLOCK
  5
57A
330
56F
100
AcDbEntity
  8
0
100
AcDbBlockBegin
  2
*D26
 70
     1
 10
0.0
 20
0.0
 30
0.0
  3
*D26
  1

  0
LINE
  5
9FA
330
56F
100
AcDbEntity
  8
DIM
 62
     0
370
    -2
100
AcDbLine
 10
3.28033
 20
26.79942
 30
0.0
 11
2.484068999999999
 21
26.79942
 31
0.0
  0
LINE
  5
9FB
330
56F
100
AcDbEntity
  8
DIM
 62
     0
370
    -2
100
AcDbLine
 10
3.28033
 20
26.72942
 30
0.0
 11
2.484068999999999
 21
26.72942
 31
0.0
  0
LINE
  5
9FC
330
56F
100
AcDbEntity
  8
DIM
 62
     0
370
    -2
100
AcDbLine
 10
2.670069
 20
27.15942
 30
0.0
 11
2.670069
 21
27.51942
 31
0.0
  0
LINE
  5
9FD
330
56F
100
AcDbEntity
  8
DIM
 62
     0
370
    -2
100
AcDbLine
 10
2.670068999999999
 20
26.36942
 30
0.0
 11
2.670068999999999
 21
26.00942
 31
0.0
  0
LINE
  5
9FE
330
56F
100
AcDbEntity
  8
DIM
 62
     0
370
    -2
100
AcDbLine
 10
2.670068999999999
 20
26.00942
 30
0.0
 11
2.310068999999999
 21
26.00942
 31
0.0
  0
SOLID
  5
9FF
330
56F
100
AcDbEntity
  8
DIM
 62
     0
100
AcDbTrace
 10
2.610069
 20
27.15942
 30
0.0
 11
2.730069
 21
27.15942
 31
0.0
 12
2.670068999999999
 22
26.79942
 32
0.0
 13
2.670068999999999
 23
26.79942
 33
0.0
  0
SOLID
  5
A00
330
56F
100
AcDbEntity
  8
DIM
 62
     0
100
AcDbTrace
 10
2.610068999999999
 20
26.36942
 30
0.0
 11
2.730068999999999
 21
26.36942
 31
0.0
 12
2.670068999999999
 22
26.72942
 32
0.0
 13
2.670068999999999
 23
26.72942
 33
0.0
  0
MTEXT
  5
A01
330
56F
100
AcDbEntity
  8
DIM
 62
     0
100
AcDbMText
 10
1.801943999999995
 20
26.00942
 30
0.0
 40
0.25
 41
0.0
 71
     5
 72
     1
  1
\A1;0.070
  7
TXT
 73
     1
 44
1.0
  0
POINT
  5
A02
330
56F
100
AcDbEntity
  8
DEFPOINTS
 62
     0
100
AcDbPoint
 10
3.40633
 20
26.79942
 30
0.0
  0
POINT
  5
A03
330
56F
100
AcDbEntity
  8
DEFPOINTS
 62
     0
100
AcDbPoint
 10
3.40633
 20
26.72942
 30
0.0
  0
POINT
  5
A04
330
56F
100
AcDbEntity
  8
DEFPOINTS
 62
     0
100
AcDbPoint
 10
2.670068999999999
 20
26.72942
 30
0.0
  0
ENDBLK
  5
57B
330
56F
100
AcDbEntity
  8
0
100
AcDbBlockEnd
  0
BLOCK
  5
588
330
57D
100
AcDbEntity
  8
0
100
AcDbBlockBegin
  2
*D27
 70
     1
 10
0.0
 20
0.0
 30
0.0
  3
*D27
  1

  0
LINE
  5
943
330
57D
100
AcDbEntity
  8
DIM
 62
     0
370
    -2
100
AcDbLine
 10
3.28033
 20
26.94242
 30
0.0
 11
1.629284
 21
26.94242
 31
0.0
  0
LINE
  5
944
330
57D
100
AcDbEntity
  8
DIM
 62
     0
370
    -2
100
AcDbLine
 10
3.28033
 20
27.39242
 30
0.0
 11
1.629284
 21
27.39242
 31
0.0
  0
LINE
  5
945
330
57D
100
AcDbEntity
  8
DIM
 62
     0
370
    -2
100
AcDbLine
 10
1.815284
 20
26.58242
 30
0.0
 11
1.815283999999999
 21
26.22242
 31
0.0
  0
LINE
  5
946
330
57D
100
AcDbEntity
  8
DIM
 62
     0
370
    -2
100
AcDbLine
 10
1.815284
 20
27.75242
 30
0.0
 11
1.815284
 21
28.11242
 31
0.0
  0
SOLID
  5
947
330
57D
100
AcDbEntity
  8
DIM
 62
     0
100
AcDbTrace
 10
1.755284
 20
26.58242
 30
0.0
 11
1.875284
 21
26.58242
 31
0.0
 12
1.815284
 22
26.94242
 32
0.0
 13
1.815284
 23
26.94242
 33
0.0
  0
SOLID
  5
948
330
57D
100
AcDbEntity
  8
DIM
 62
     0
100
AcDbTrace
 10
1.755284
 20
27.75242
 30
0.0
 11
1.875284
 21
27.75242
 31
0.0
 12
1.815284
 22
27.39242
 32
0.0
 13
1.815284
 23
27.39242
 33
0.0
  0
MTEXT
  5
949
330
57D
100
AcDbEntity
  8
DIM
 62
     0
100
AcDbMText
 10
1.815283999999995
 20
27.16741999999999
 30
0.0
 40
0.25
 41
0.0
 71
     5
 72
     1
  1
\A1;0.450
  7
TXT
 73
     1
 44
1.0
  0
POINT
  5
94A
330
57D
100
AcDbEntity
  8
DEFPOINTS
 62
     0
100
AcDbPoint
 10
3.40633
 20
26.94242
 30
0.0
  0
POINT
  5
94B
330
57D
100
AcDbEntity
  8
DEFPOINTS
 62
     0
100
AcDbPoint
 10
3.40633
 20
27.39242
 30
0.0
  0
POINT
  5
94C
330
57D
100
AcDbEntity
  8
DEFPOINTS
 62
     0
100
AcDbPoint
 10
1.815284
 20
27.39242
 30
0.0
  0
ENDBLK
  5
589
330
57D
100
AcDbEntity
  8
0
100
AcDbBlockEnd
  0
BLOCK
  5
596
330
58B
100
AcDbEntity
  8
0
100
AcDbBlockBegin
  2
*D28
 70
     1
 10
0.0
 20
0.0
 30
0.0
  3
*D28
  1

  0
LINE
  5
94D
330
58B
100
AcDbEntity
  8
DIM
 62
     0
370
    -2
100
AcDbLine
 10
3.28033
 20
26.79942
 30
0.0
 11
0.708648
 21
26.79942
 31
0.0
  0
LINE
  5
94E
330
58B
100
AcDbEntity
  8
DIM
 62
     0
370
    -2
100
AcDbLine
 10
3.28033
 20
27.39242
 30
0.0
 11
0.7086480000000001
 21
27.39242
 31
0.0
  0
LINE
  5
94F
330
58B
100
AcDbEntity
  8
DIM
 62
     0
370
    -2
100
AcDbLine
 10
0.8946479999999997
 20
26.43942
 30
0.0
 11
0.8946479999999997
 21
26.07942
 31
0.0
  0
LINE
  5
950
330
58B
100
AcDbEntity
  8
DIM
 62
     0
370
    -2
100
AcDbLine
 10
0.8946480000000001
 20
27.75242
 30
0.0
 11
0.8946480000000001
 21
28.11242
 31
0.0
  0
SOLID
  5
951
330
58B
100
AcDbEntity
  8
DIM
 62
     0
100
AcDbTrace
 10
0.8346479999999997
 20
26.43942
 30
0.0
 11
0.9546479999999998
 21
26.43942
 31
0.0
 12
0.8946479999999999
 22
26.79942
 32
0.0
 13
0.8946479999999999
 23
26.79942
 33
0.0
  0
SOLID
  5
952
330
58B
100
AcDbEntity
  8
DIM
 62
     0
100
AcDbTrace
 10
0.8346479999999999
 20
27.75242
 30
0.0
 11
0.9546480000000002
 21
27.75242
 31
0.0
 12
0.8946479999999999
 22
27.39242
 32
0.0
 13
0.8946479999999999
 23
27.39242
 33
0.0
  0
MTEXT
  5
953
330
58B
100
AcDbEntity
  8
DIM
 62
     0
100
AcDbMText
 10
0.8946479999999954
 20
27.09592
 30
0.0
 40
0.25
 41
0.0
 71
     5
 72
     1
  1
\A1;0.593
  7
TXT
 73
     1
 44
1.0
  0
POINT
  5
954
330
58B
100
AcDbEntity
  8
DEFPOINTS
 62
     0
100
AcDbPoint
 10
3.40633
 20
26.79942
 30
0.0
  0
POINT
  5
955
330
58B
100
AcDbEntity
  8
DEFPOINTS
 62
     0
100
AcDbPoint
 10
3.40633
 20
27.39242
 30
0.0
  0
POINT
  5
956
330
58B
100
AcDbEntity
  8
DEFPOINTS
 62
     0
100
AcDbPoint
 10
0.8946479999999999
 20
27.39242
 30
0.0
  0
ENDBLK
  5
597
330
58B
100
AcDbEntity
  8
0
100
AcDbBlockEnd
  0
BLOCK
  5
5AE
330
5A3
100
AcDbEntity
  8
0
100
AcDbBlockBegin
  2
*D29
 70
     1
 10
0.0
 20
0.0
 30
0.0
  3
*D29
  1

  0
LINE
  5
957
330
5A3
100
AcDbEntity
  8
DIM
 62
     0
370
    -2
100
AcDbLine
 10
4.35533
 20
23.50042
 30
0.0
 11
2.493132
 21
23.50042
 31
0.0
  0
LINE
  5
958
330
5A3
100
AcDbEntity
  8
DIM
 62
     0
370
    -2
100
AcDbLine
 10
3.130329999999999
 20
22.35041999999999
 30
0.0
 11
2.493132
 21
22.35041999999999
 31
0.0
  0
LINE
  5
959
330
5A3
100
AcDbEntity
  8
DIM
 62
     0
370
    -2
100
AcDbLine
 10
2.679132
 20
23.86042
 30
0.0
 11
2.679132
 21
24.22042
 31
0.0
  0
LINE
  5
95A
330
5A3
100
AcDbEntity
  8
DIM
 62
     0
370
    -2
100
AcDbLine
 10
2.679132
 20
21.99041999999999
 30
0.0
 11
2.679132
 21
21.63042
 31
0.0
  0
SOLID
  5
95B
330
5A3
100
AcDbEntity
  8
DIM
 62
     0
100
AcDbTrace
 10
2.619132
 20
23.86042
 30
0.0
 11
2.739132
 21
23.86042
 31
0.0
 12
2.679132
 22
23.50042
 32
0.0
 13
2.679132
 23
23.50042
 33
0.0
  0
SOLID
  5
95C
330
5A3
100
AcDbEntity
  8
DIM
 62
     0
100
AcDbTrace
 10
2.619132
 20
21.99041999999999
 30
0.0
 11
2.739132
 21
21.99041999999999
 31
0.0
 12
2.679132
 22
22.35041999999999
 32
0.0
 13
2.679132
 23
22.35041999999999
 33
0.0
  0
MTEXT
  5
95D
330
5A3
100
AcDbEntity
  8
DIM
 62
     0
100
AcDbMText
 10
2.679131999999996
 20
22.92542
 30
0.0
 40
0.25
 41
0.0
 71
     5
 72
     1
  1
\A1;1.150
  7
TXT
 73
     1
 44
1.0
  0
POINT
  5
95E
330
5A3
100
AcDbEntity
  8
DEFPOINTS
 62
     0
100
AcDbPoint
 10
4.48133
 20
23.50042
 30
0.0
  0
POINT
  5
95F
330
5A3
100
AcDbEntity
  8
DEFPOINTS
 62
     0
100
AcDbPoint
 10
3.256329999999999
 20
22.35041999999999
 30
0.0
  0
POINT
  5
960
330
5A3
100
AcDbEntity
  8
DEFPOINTS
 62
     0
100
AcDbPoint
 10
2.679132
 20
22.35041999999999
 30
0.0
  0
ENDBLK
  5
5AF
330
5A3
100
AcDbEntity
  8
0
100
AcDbBlockEnd
  0
BLOCK
  5
5D3
330
5C8
100
AcDbEntity
  8
0
100
AcDbBlockBegin
  2
*D30
 70
     1
 10
0.0
 20
0.0
 30
0.0
  3
*D30
  1

  0
LINE
  5
A05
330
5C8
100
AcDbEntity
  8
DIM
 62
     0
370
    -2
100
AcDbLine
 10
3.40633
 20
26.37634370542577
 30
0.0
 11
3.40633
 21
26.13044070542577
 31
0.0
  0
LINE
  5
A06
330
5C8
100
AcDbEntity
  8
DIM
 62
     0
370
    -2
100
AcDbLine
 10
10.16633
 20
26.37634370542577
 30
0.0
 11
10.16633
 21
26.13044070542577
 31
0.0
  0
LINE
  5
A07
330
5C8
100
AcDbEntity
  8
DIM
 62
     0
370
    -2
100
AcDbLine
 10
3.766329999999999
 20
26.31644070542577
 30
0.0
 11
6.246955
 21
26.31644070542577
 31
0.0
  0
LINE
  5
A08
330
5C8
100
AcDbEntity
  8
DIM
 62
     0
370
    -2
100
AcDbLine
 10
9.80633
 20
26.31644070542577
 30
0.0
 11
7.325705
 21
26.31644070542577
 31
0.0
  0
SOLID
  5
A09
330
5C8
100
AcDbEntity
  8
DIM
 62
     0
100
AcDbTrace
 10
3.766329999999999
 20
26.37644070542577
 30
0.0
 11
3.766329999999999
 21
26.25644070542577
 31
0.0
 12
3.40633
 22
26.31644070542577
 32
0.0
 13
3.40633
 23
26.31644070542577
 33
0.0
  0
SOLID
  5
A0A
330
5C8
100
AcDbEntity
  8
DIM
 62
     0
100
AcDbTrace
 10
9.80633
 20
26.37644070542577
 30
0.0
 11
9.80633
 21
26.25644070542577
 31
0.0
 12
10.16633
 22
26.31644070542577
 32
0.0
 13
10.16633
 23
26.31644070542577
 33
0.0
  0
MTEXT
  5
A0B
330
5C8
100
AcDbEntity
  8
DIM
 62
     0
100
AcDbMText
 10
6.78633
 20
26.31644070542577
 30
0.0
 40
0.25
 41
0.0
 71
     5
 72
     1
  1
\A1;6.760
  7
TXT
 73
     1
 44
1.0
  0
POINT
  5
A0C
330
5C8
100
AcDbEntity
  8
DEFPOINTS
 62
     0
100
AcDbPoint
 10
3.40633
 20
26.50234370542577
 30
0.0
  0
POINT
  5
A0D
330
5C8
100
AcDbEntity
  8
DEFPOINTS
 62
     0
100
AcDbPoint
 10
10.16633
 20
26.50234370542577
 30
0.0
  0
POINT
  5
A0E
330
5C8
100
AcDbEntity
  8
DEFPOINTS
 62
     0
100
AcDbPoint
 10
10.16633
 20
26.31644070542577
 30
0.0
  0
ENDBLK
  5
5D4
330
5C8
100
AcDbEntity
  8
0
100
AcDbBlockEnd
  0
BLOCK
  5
60A
330
5FF
100
AcDbEntity
  8
0
100
AcDbBlockBegin
  2
*D31
 70
     1
 10
0.0
 20
0.0
 30
0.0
  3
*D31
  1

  0
LINE
  5
A0F
330
5FF
100
AcDbEntity
  8
DIM
 62
     0
370
    -2
100
AcDbLine
 10
14.90827799999999
 20
9.514325000000001
 30
0.0
 11
14.90827799999999
 21
8.956324999999999
 31
0.0
  0
LINE
  5
A10
330
5FF
100
AcDbEntity
  8
DIM
 62
     0
370
    -2
100
AcDbLine
 10
18.908278
 20
9.514325000000001
 30
0.0
 11
18.908278
 21
8.956324999999999
 31
0.0
  0
LINE
  5
A11
330
5FF
100
AcDbEntity
  8
DIM
 62
     0
370
    -2
100
AcDbLine
 10
15.26827799999999
 20
9.142324999999999
 30
0.0
 11
16.66577799999999
 21
9.142324999999999
 31
0.0
  0
LINE
  5
A12
330
5FF
100
AcDbEntity
  8
DIM
 62
     0
370
    -2
100
AcDbLine
 10
18.54827799999999
 20
9.142324999999999
 30
0.0
 11
17.15077799999999
 21
9.142324999999999
 31
0.0
  0
SOLID
  5
A13
330
5FF
100
AcDbEntity
  8
DIM
 62
     0
100
AcDbTrace
 10
15.26827799999999
 20
9.202325
 30
0.0
 11
15.26827799999999
 21
9.082324999999999
 31
0.0
 12
14.90827799999999
 22
9.142324999999999
 32
0.0
 13
14.90827799999999
 23
9.142324999999999
 33
0.0
  0
SOLID
  5
A14
330
5FF
100
AcDbEntity
  8
DIM
 62
     0
100
AcDbTrace
 10
18.54827799999999
 20
9.202325
 30
0.0
 11
18.54827799999999
 21
9.082324999999999
 31
0.0
 12
18.908278
 22
9.142324999999999
 32
0.0
 13
18.908278
 23
9.142324999999999
 33
0.0
  0
MTEXT
  5
A15
330
5FF
100
AcDbEntity
  8
DIM
 62
     0
100
AcDbMText
 10
16.908278
 20
9.142324999999999
 30
0.0
 40
0.25
 41
0.0
 71
     5
 72
     1
  1
\A1;A
  7
TXT
 73
     1
 44
1.0
  0
POINT
  5
A16
330
5FF
100
AcDbEntity
  8
DEFPOINTS
 62
     0
100
AcDbPoint
 10
14.90827799999999
 20
9.640325
 30
0.0
  0
POINT
  5
A17
330
5FF
100
AcDbEntity
  8
DEFPOINTS
 62
     0
100
AcDbPoint
 10
18.908278
 20
9.640325
 30
0.0
  0
POINT
  5
A18
330
5FF
100
AcDbEntity
  8
DEFPOINTS
 62
     0
100
AcDbPoint
 10
18.908278
 20
9.142324999999999
 30
0.0
  0
ENDBLK
  5
60B
330
5FF
100
AcDbEntity
  8
0
100
AcDbBlockEnd
  0
BLOCK
  5
618
330
60D
100
AcDbEntity
  8
0
100
AcDbBlockBegin
  2
*D32
 70
     1
 10
0.0
 20
0.0
 30
0.0
  3
*D32
  1

  0
LINE
  5
A19
330
60D
100
AcDbEntity
  8
DIM
 62
     0
370
    -2
100
AcDbLine
 10
14.85577799999999
 20
11.99632499999999
 30
0.0
 11
14.85577799999999
 21
12.554325
 31
0.0
  0
LINE
  5
A1A
330
60D
100
AcDbEntity
  8
DIM
 62
     0
370
    -2
100
AcDbLine
 10
18.960778
 20
11.99632499999999
 30
0.0
 11
18.960778
 21
12.554325
 31
0.0
  0
LINE
  5
A1B
330
60D
100
AcDbEntity
  8
DIM
 62
     0
370
    -2
100
AcDbLine
 10
15.215778
 20
12.368325
 30
0.0
 11
16.66577799999999
 21
12.368325
 31
0.0
  0
LINE
  5
A1C
330
60D
100
AcDbEntity
  8
DIM
 62
     0
370
    -2
100
AcDbLine
 10
18.600778
 20
12.368325
 30
0.0
 11
17.15077799999999
 21
12.368325
 31
0.0
  0
SOLID
  5
A1D
330
60D
100
AcDbEntity
  8
DIM
 62
     0
100
AcDbTrace
 10
15.215778
 20
12.428325
 30
0.0
 11
15.215778
 21
12.30832499999999
 31
0.0
 12
14.85577799999999
 22
12.368325
 32
0.0
 13
14.85577799999999
 23
12.368325
 33
0.0
  0
SOLID
  5
A1E
330
60D
100
AcDbEntity
  8
DIM
 62
     0
100
AcDbTrace
 10
18.600778
 20
12.428325
 30
0.0
 11
18.600778
 21
12.30832499999999
 31
0.0
 12
18.960778
 22
12.368325
 32
0.0
 13
18.960778
 23
12.368325
 33
0.0
  0
MTEXT
  5
A1F
330
60D
100
AcDbEntity
  8
DIM
 62
     0
100
AcDbMText
 10
16.908278
 20
12.368325
 30
0.0
 40
0.25
 41
0.0
 71
     5
 72
     1
  1
\A1;E
  7
TXT
 73
     1
 44
1.0
  0
POINT
  5
A20
330
60D
100
AcDbEntity
  8
DEFPOINTS
 62
     0
100
AcDbPoint
 10
14.85577799999999
 20
11.87032499999999
 30
0.0
  0
POINT
  5
A21
330
60D
100
AcDbEntity
  8
DEFPOINTS
 62
     0
100
AcDbPoint
 10
18.960778
 20
11.87032499999999
 30
0.0
  0
POINT
  5
A22
330
60D
100
AcDbEntity
  8
DEFPOINTS
 62
     0
100
AcDbPoint
 10
18.960778
 20
12.368325
 30
0.0
  0
ENDBLK
  5
619
330
60D
100
AcDbEntity
  8
0
100
AcDbBlockEnd
  0
BLOCK
  5
635
330
62A
100
AcDbEntity
  8
0
100
AcDbBlockBegin
  2
*D33
 70
     1
 10
0.0
 20
0.0
 30
0.0
  3
*D33
  1

  0
LINE
  5
A23
330
62A
100
AcDbEntity
  8
DIM
 62
     0
370
    -2
100
AcDbLine
 10
14.96846605693135
 20
10.0329105616306
 30
0.0
 11
14.97055768884954
 21
9.948386932208185
 31
0.0
  0
LINE
  5
A24
330
62A
100
AcDbEntity
  8
DIM
 62
     0
370
    -2
100
AcDbLine
 10
14.89835405693135
 20
10.0311755616306
 30
0.0
 11
14.90044568884954
 21
9.946651932208183
 31
0.0
  0
LINE
  5
A25
330
62A
100
AcDbEntity
  8
DIM
 62
     0
370
    -2
100
AcDbLine
 10
15.32584614300628
 20
10.14323588484306
 30
0.0
 11
15.68573596691884
 21
10.15214176178979
 31
0.0
  0
LINE
  5
A26
330
62A
100
AcDbEntity
  8
DIM
 62
     0
370
    -2
100
AcDbLine
 10
14.53595449518118
 20
10.12368913094961
 30
0.0
 11
14.17606467126862
 21
10.11478325400288
 31
0.0
  0
SOLID
  5
A27
330
62A
100
AcDbEntity
  8
DIM
 62
     0
100
AcDbTrace
 10
15.32436183018183
 20
10.20321752216182
 30
0.0
 11
15.32733045583074
 21
10.0832542475243
 31
0.0
 12
14.96595631909373
 22
10.13433000789633
 32
0.0
 13
14.96595631909373
 23
10.13433000789633
 33
0.0
  0
SOLID
  5
A28
330
62A
100
AcDbEntity
  8
DIM
 62
     0
100
AcDbTrace
 10
14.53447018235672
 20
10.18367076826837
 30
0.0
 11
14.53743880800563
 21
10.06370749363085
 31
0.0
 12
14.89584431909373
 22
10.13259500789633
 32
0.0
 13
14.89584431909373
 23
10.13259500789633
 33
0.0
  0
MTEXT
  5
A29
330
62A
100
AcDbEntity
  8
DIM
 62
     0
100
AcDbMText
 10
13.93356467126862
 20
10.11478325400288
 30
0.0
 40
0.25
 41
0.0
 71
     5
 72
     1
  1
\A1;D
  7
TXT
 73
     1
 44
1.0
  0
POINT
  5
A2A
330
62A
100
AcDbEntity
  8
DEFPOINTS
 62
     0
100
AcDbPoint
 10
14.965349
 20
10.158872
 30
0.0
  0
POINT
  5
A2B
330
62A
100
AcDbEntity
  8
DEFPOINTS
 62
     0
100
AcDbPoint
 10
14.895237
 20
10.157137
 30
0.0
  0
POINT
  5
A2C
330
62A
100
AcDbEntity
  8
DEFPOINTS
 62
     0
100
AcDbPoint
 10
14.89584431909373
 20
10.13259500789633
 30
0.0
  0
ENDBLK
  5
636
330
62A
100
AcDbEntity
  8
0
100
AcDbBlockEnd
  0
BLOCK
  5
64C
330
641
100
AcDbEntity
  8
0
100
AcDbBlockBegin
  2
*D34
 70
     1
 10
0.0
 20
0.0
 30
0.0
  3
*D34
  1

  0
LINE
  5
A2D
330
641
100
AcDbEntity
  8
DIM
 62
     0
370
    -2
100
AcDbLine
 10
10.15811199999999
 20
11.99632499999999
 30
0.0
 11
10.15811199999999
 21
12.554325
 31
0.0
  0
LINE
  5
A2E
330
641
100
AcDbEntity
  8
DIM
 62
     0
370
    -2
100
AcDbLine
 10
12.388112
 20
11.99632499999999
 30
0.0
 11
12.388112
 21
12.554325
 31
0.0
  0
LINE
  5
A2F
330
641
100
AcDbEntity
  8
DIM
 62
     0
370
    -2
100
AcDbLine
 10
10.51811199999999
 20
12.368325
 30
0.0
 11
11.03061199999999
 21
12.368325
 31
0.0
  0
LINE
  5
A30
330
641
100
AcDbEntity
  8
DIM
 62
     0
370
    -2
100
AcDbLine
 10
12.028112
 20
12.368325
 30
0.0
 11
11.51561199999999
 21
12.368325
 31
0.0
  0
SOLID
  5
A31
330
641
100
AcDbEntity
  8
DIM
 62
     0
100
AcDbTrace
 10
10.51811199999999
 20
12.428325
 30
0.0
 11
10.51811199999999
 21
12.30832499999999
 31
0.0
 12
10.15811199999999
 22
12.368325
 32
0.0
 13
10.15811199999999
 23
12.368325
 33
0.0
  0
SOLID
  5
A32
330
641
100
AcDbEntity
  8
DIM
 62
     0
100
AcDbTrace
 10
12.028112
 20
12.428325
 30
0.0
 11
12.028112
 21
12.30832499999999
 31
0.0
 12
12.388112
 22
12.368325
 32
0.0
 13
12.388112
 23
12.368325
 33
0.0
  0
MTEXT
  5
A33
330
641
100
AcDbEntity
  8
DIM
 62
     0
100
AcDbMText
 10
11.273112
 20
12.368325
 30
0.0
 40
0.25
 41
0.0
 71
     5
 72
     1
  1
\A1;F
  7
TXT
 73
     1
 44
1.0
  0
POINT
  5
A34
330
641
100
AcDbEntity
  8
DEFPOINTS
 62
     0
100
AcDbPoint
 10
10.15811199999999
 20
11.87032499999999
 30
0.0
  0
POINT
  5
A35
330
641
100
AcDbEntity
  8
DEFPOINTS
 62
     0
100
AcDbPoint
 10
12.388112
 20
11.87032499999999
 30
0.0
  0
POINT
  5
A36
330
641
100
AcDbEntity
  8
DEFPOINTS
 62
     0
100
AcDbPoint
 10
12.388112
 20
12.368325
 30
0.0
  0
ENDBLK
  5
64D
330
641
100
AcDbEntity
  8
0
100
AcDbBlockEnd
  0
BLOCK
  5
65C
330
651
100
AcDbEntity
  8
0
100
AcDbBlockBegin
  2
*D35
 70
     1
 10
0.0
 20
0.0
 30
0.0
  3
*D35
  1

  0
LINE
  5
A37
330
651
100
AcDbEntity
  8
DIM
 62
     0
370
    -2
100
AcDbLine
 10
10.21061199999999
 20
9.514325000000001
 30
0.0
 11
10.21061199999999
 21
8.946385000000001
 31
0.0
  0
LINE
  5
A38
330
651
100
AcDbEntity
  8
DIM
 62
     0
370
    -2
100
AcDbLine
 10
12.335612
 20
9.514325000000001
 30
0.0
 11
12.335612
 21
8.946385000000001
 31
0.0
  0
LINE
  5
A39
330
651
100
AcDbEntity
  8
DIM
 62
     0
370
    -2
100
AcDbLine
 10
10.57061199999999
 20
9.132385000000001
 30
0.0
 11
11.03061199999999
 21
9.132385000000001
 31
0.0
  0
LINE
  5
A3A
330
651
100
AcDbEntity
  8
DIM
 62
     0
370
    -2
100
AcDbLine
 10
11.97561199999999
 20
9.132385000000001
 30
0.0
 11
11.51561199999999
 21
9.132385000000001
 31
0.0
  0
SOLID
  5
A3B
330
651
100
AcDbEntity
  8
DIM
 62
     0
100
AcDbTrace
 10
10.57061199999999
 20
9.192385000000001
 30
0.0
 11
10.57061199999999
 21
9.072385
 31
0.0
 12
10.21061199999999
 22
9.132385000000001
 32
0.0
 13
10.21061199999999
 23
9.132385000000001
 33
0.0
  0
SOLID
  5
A3C
330
651
100
AcDbEntity
  8
DIM
 62
     0
100
AcDbTrace
 10
11.97561199999999
 20
9.192385000000001
 30
0.0
 11
11.97561199999999
 21
9.072385
 31
0.0
 12
12.335612
 22
9.132385000000001
 32
0.0
 13
12.335612
 23
9.132385000000001
 33
0.0
  0
MTEXT
  5
A3D
330
651
100
AcDbEntity
  8
DIM
 62
     0
100
AcDbMText
 10
11.273112
 20
9.132385000000001
 30
0.0
 40
0.25
 41
0.0
 71
     5
 72
     1
  1
\A1;B
  7
TXT
 73
     1
 44
1.0
  0
POINT
  5
A3E
330
651
100
AcDbEntity
  8
DEFPOINTS
 62
     0
100
AcDbPoint
 10
10.21061199999999
 20
9.640325
 30
0.0
  0
POINT
  5
A3F
330
651
100
AcDbEntity
  8
DEFPOINTS
 62
     0
100
AcDbPoint
 10
12.335612
 20
9.640325
 30
0.0
  0
POINT
  5
A40
330
651
100
AcDbEntity
  8
DEFPOINTS
 62
     0
100
AcDbPoint
 10
12.335612
 20
9.132385000000001
 30
0.0
  0
ENDBLK
  5
65D
330
651
100
AcDbEntity
  8
0
100
AcDbBlockEnd
  0
BLOCK
  5
66C
330
661
100
AcDbEntity
  8
0
100
AcDbBlockBegin
  2
*D36
 70
     1
 10
0.0
 20
0.0
 30
0.0
  3
*D36
  1

  0
LINE
  5
A41
330
661
100
AcDbEntity
  8
DIM
 62
     0
370
    -2
100
AcDbLine
 10
19.034278
 20
9.640325
 30
0.0
 11
19.727979
 21
9.640325
 31
0.0
  0
LINE
  5
A42
330
661
100
AcDbEntity
  8
DIM
 62
     0
370
    -2
100
AcDbLine
 10
19.086778
 20
11.87032499999999
 30
0.0
 11
19.727979
 21
11.87032499999999
 31
0.0
  0
LINE
  5
A43
330
661
100
AcDbEntity
  8
DIM
 62
     0
370
    -2
100
AcDbLine
 10
19.541979
 20
10.000325
 30
0.0
 11
19.541979
 21
10.450325
 31
0.0
  0
LINE
  5
A44
330
661
100
AcDbEntity
  8
DIM
 62
     0
370
    -2
100
AcDbLine
 10
19.541979
 20
11.510325
 30
0.0
 11
19.541979
 21
11.06032499999999
 31
0.0
  0
SOLID
  5
A45
330
661
100
AcDbEntity
  8
DIM
 62
     0
100
AcDbTrace
 10
19.481979
 20
10.000325
 30
0.0
 11
19.601979
 21
10.000325
 31
0.0
 12
19.541979
 22
9.640325
 32
0.0
 13
19.541979
 23
9.640325
 33
0.0
  0
SOLID
  5
A46
330
661
100
AcDbEntity
  8
DIM
 62
     0
100
AcDbTrace
 10
19.481979
 20
11.510325
 30
0.0
 11
19.601979
 21
11.510325
 31
0.0
 12
19.541979
 22
11.87032499999999
 32
0.0
 13
19.541979
 23
11.87032499999999
 33
0.0
  0
MTEXT
  5
A47
330
661
100
AcDbEntity
  8
DIM
 62
     0
100
AcDbMText
 10
19.54197899999999
 20
10.755325
 30
0.0
 40
0.25
 41
0.0
 71
     5
 72
     1
  1
\A1;C
  7
TXT
 73
     1
 44
1.0
  0
POINT
  5
A48
330
661
100
AcDbEntity
  8
DEFPOINTS
 62
     0
100
AcDbPoint
 10
18.908278
 20
9.640325
 30
0.0
  0
POINT
  5
A49
330
661
100
AcDbEntity
  8
DEFPOINTS
 62
     0
100
AcDbPoint
 10
18.960778
 20
11.87032499999999
 30
0.0
  0
POINT
  5
A4A
330
661
100
AcDbEntity
  8
DEFPOINTS
 62
     0
100
AcDbPoint
 10
19.541979
 20
11.87032499999999
 30
0.0
  0
ENDBLK
  5
66D
330
661
100
AcDbEntity
  8
0
100
AcDbBlockEnd
  0
BLOCK
  5
68F
330
681
100
AcDbEntity
  8
0
100
AcDbBlockBegin
  2
*D37
 70
     1
 10
0.0
 20
0.0
 30
0.0
  3
*D37
  1

  0
LINE
  5
A4B
330
681
100
AcDbEntity
  8
DIM
 62
     0
370
    -2
100
AcDbLine
 10
12.33518175451318
 20
9.605775403829799
 30
0.0
 11
12.30087527004515
 21
8.138018456292787
 31
0.0
  0
LINE
  5
A4C
330
681
100
AcDbEntity
  8
DIM
 62
     0
370
    -2
100
AcDbLine
 10
12.388112
 20
11.21226999999999
 30
0.0
 11
12.388112
 21
8.136999085583619
 31
0.0
  0
ARC
  5
A4D
330
681
100
AcDbEntity
  8
DIM
 62
     0
370
    -2
100
AcDbCircle
 10
12.38811199999999
 20
11.870325
 30
0.0
 40
3.547325914416378
100
AcDbArc
 50
257.0267373561433
 51
262.8438917115165
  0
ARC
  5
A4E
330
681
100
AcDbEntity
  8
DIM
 62
     0
370
    -2
100
AcDbCircle
 10
12.38811199999999
 20
11.870325
 30
0.0
 40
3.547325914416378
100
AcDbArc
 50
275.8171543553732
 51
281.6343087107463
  0
SOLID
  5
A4F
330
681
100
AcDbEntity
  8
DIM
 62
     0
100
AcDbTrace
 10
11.95065425238502
 20
8.410466458952177
 30
0.0
 11
11.94176639018046
 21
8.290796053648975
 31
0.0
 12
12.30522153719235
 22
8.32396766968689
 32
0.0
 13
12.30522153719235
 23
8.32396766968689
 33
0.0
  0
SOLID
  5
A50
330
681
100
AcDbEntity
  8
DIM
 62
     0
100
AcDbTrace
 10
12.75069278487039
 20
8.281343660453522
 30
0.0
 11
12.74460369113581
 21
8.401189073121223
 31
0.0
 12
12.388112
 22
8.322999085583621
 32
0.0
 13
12.388112
 23
8.322999085583621
 33
0.0
  0
MTEXT
  5
A51
330
681
100
AcDbEntity
  8
DIM
 62
     0
100
AcDbMText
 10
13.979271
 20
8.699878
 30
0.0
 40
0.25
 41
0.0
 71
     5
 72
     1
  1
\A1;1%%d30' REF.
  7
TXT
 73
     1
 44
1.0
  0
POINT
  5
A52
330
681
100
AcDbEntity
  8
DEFPOINTS
 62
     0
100
AcDbPoint
 10
12.33284889700119
 20
8.323429578291468
 30
0.0
  0
POINT
  5
A53
330
681
100
AcDbEntity
  8
DEFPOINTS
 62
     0
100
AcDbPoint
 10
12.33812599999999
 20
9.731740999999997
 30
0.0
  0
POINT
  5
A54
330
681
100
AcDbEntity
  8
DEFPOINTS
 62
     0
100
AcDbPoint
 10
12.38811199999999
 20
11.87032499999999
 30
0.0
  0
POINT
  5
A55
330
681
100
AcDbEntity
  8
DEFPOINTS
 62
     0
100
AcDbPoint
 10
12.388112
 20
11.33826999999999
 30
0.0
  0
POINT
  5
A56
330
681
100
AcDbEntity
  8
DEFPOINTS
 62
     0
100
AcDbPoint
 10
12.38811199999999
 20
11.87032499999999
 30
0.0
  0
ENDBLK
  5
690
330
681
100
AcDbEntity
  8
0
100
AcDbBlockEnd
  0
BLOCK
  5
759
330
74E
100
AcDbEntity
  8
0
100
AcDbBlockBegin
  2
*D38
 70
     1
 10
0.0
 20
0.0
 30
0.0
  3
*D38
  1

  0
LINE
  5
A57
330
74E
100
AcDbEntity
  8
DIM
 62
     0
370
    -2
100
AcDbLine
 10
18.92915
 20
7.968789999999999
 30
0.0
 11
19.727979
 21
7.968789999999999
 31
0.0
  0
LINE
  5
A58
330
74E
100
AcDbEntity
  8
DIM
 62
     0
370
    -2
100
AcDbLine
 10
18.92915
 20
6.06279
 30
0.0
 11
19.727979
 21
6.06279
 31
0.0
  0
LINE
  5
A59
330
74E
100
AcDbEntity
  8
DIM
 62
     0
370
    -2
100
AcDbLine
 10
19.541979
 20
7.608789999999999
 30
0.0
 11
19.541979
 21
7.320789999999999
 31
0.0
  0
LINE
  5
A5A
330
74E
100
AcDbEntity
  8
DIM
 62
     0
370
    -2
100
AcDbLine
 10
19.541979
 20
6.42279
 30
0.0
 11
19.541979
 21
6.71079
 31
0.0
  0
SOLID
  5
A5B
330
74E
100
AcDbEntity
  8
DIM
 62
     0
100
AcDbTrace
 10
19.481979
 20
7.608789999999999
 30
0.0
 11
19.601979
 21
7.608789999999999
 31
0.0
 12
19.541979
 22
7.968789999999999
 32
0.0
 13
19.541979
 23
7.968789999999999
 33
0.0
  0
SOLID
  5
A5C
330
74E
100
AcDbEntity
  8
DIM
 62
     0
100
AcDbTrace
 10
19.481979
 20
6.42279
 30
0.0
 11
19.601979
 21
6.42279
 31
0.0
 12
19.541979
 22
6.06279
 32
0.0
 13
19.541979
 23
6.06279
 33
0.0
  0
MTEXT
  5
A5D
330
74E
100
AcDbEntity
  8
DIM
 62
     0
100
AcDbMText
 10
19.541979
 20
7.015790000000003
 30
0.0
 40
0.25
 41
0.0
 71
     5
 72
     1
  1
\A1;H
  7
TXT
 73
     1
 44
1.0
  0
POINT
  5
A5E
330
74E
100
AcDbEntity
  8
DEFPOINTS
 62
     0
100
AcDbPoint
 10
18.80314999999999
 20
7.968789999999999
 30
0.0
  0
POINT
  5
A5F
330
74E
100
AcDbEntity
  8
DEFPOINTS
 62
     0
100
AcDbPoint
 10
18.80314999999999
 20
6.06279
 30
0.0
  0
POINT
  5
A60
330
74E
100
AcDbEntity
  8
DEFPOINTS
 62
     0
100
AcDbPoint
 10
19.541979
 20
6.06279
 30
0.0
  0
ENDBLK
  5
75A
330
74E
100
AcDbEntity
  8
0
100
AcDbBlockEnd
  0
BLOCK
  5
767
330
75C
100
AcDbEntity
  8
0
100
AcDbBlockBegin
  2
*D39
 70
     1
 10
0.0
 20
0.0
 30
0.0
  3
*D39
  1

  0
LINE
  5
A61
330
75C
100
AcDbEntity
  8
DIM
 62
     0
370
    -2
100
AcDbLine
 10
15.01314999999999
 20
8.094789999999999
 30
0.0
 11
15.01314999999999
 21
8.736307
 31
0.0
  0
LINE
  5
A62
330
75C
100
AcDbEntity
  8
DIM
 62
     0
370
    -2
100
AcDbLine
 10
18.80314999999999
 20
8.094789999999999
 30
0.0
 11
18.80314999999999
 21
8.736307
 31
0.0
  0
LINE
  5
A63
330
75C
100
AcDbEntity
  8
DIM
 62
     0
370
    -2
100
AcDbLine
 10
15.37314999999999
 20
8.550307
 30
0.0
 11
16.66565
 21
8.550307
 31
0.0
  0
LINE
  5
A64
330
75C
100
AcDbEntity
  8
DIM
 62
     0
370
    -2
100
AcDbLine
 10
18.44314999999999
 20
8.550307
 30
0.0
 11
17.15065
 21
8.550307
 31
0.0
  0
SOLID
  5
A65
330
75C
100
AcDbEntity
  8
DIM
 62
     0
100
AcDbTrace
 10
15.37314999999999
 20
8.610307
 30
0.0
 11
15.37314999999999
 21
8.490306999999999
 31
0.0
 12
15.01314999999999
 22
8.550307
 32
0.0
 13
15.01314999999999
 23
8.550307
 33
0.0
  0
SOLID
  5
A66
330
75C
100
AcDbEntity
  8
DIM
 62
     0
100
AcDbTrace
 10
18.44314999999999
 20
8.610307
 30
0.0
 11
18.44314999999999
 21
8.490306999999999
 31
0.0
 12
18.80314999999999
 22
8.550307
 32
0.0
 13
18.80314999999999
 23
8.550307
 33
0.0
  0
MTEXT
  5
A67
330
75C
100
AcDbEntity
  8
DIM
 62
     0
100
AcDbMText
 10
16.90814999999999
 20
8.550307
 30
0.0
 40
0.25
 41
0.0
 71
     5
 72
     1
  1
\A1;G
  7
TXT
 73
     1
 44
1.0
  0
POINT
  5
A68
330
75C
100
AcDbEntity
  8
DEFPOINTS
 62
     0
100
AcDbPoint
 10
15.01314999999999
 20
7.968789999999999
 30
0.0
  0
POINT
  5
A69
330
75C
100
AcDbEntity
  8
DEFPOINTS
 62
     0
100
AcDbPoint
 10
18.80314999999999
 20
7.968789999999999
 30
0.0
  0
POINT
  5
A6A
330
75C
100
AcDbEntity
  8
DEFPOINTS
 62
     0
100
AcDbPoint
 10
18.80314999999999
 20
8.550307
 30
0.0
  0
ENDBLK
  5
768
330
75C
100
AcDbEntity
  8
0
100
AcDbBlockEnd
  0
BLOCK
  5
A84
330
A79
100
AcDbEntity
  8
0
100
AcDbBlockBegin
  2
*D41
 70
     1
 10
0.0
 20
0.0
 30
0.0
  3
*D41
  1

  0
LINE
  5
A7A
330
A79
100
AcDbEntity
  8
OBJECT
 62
     0
370
    -2
100
AcDbLine
 10
3.59833
 20
25.62142
 30
0.0
 11
3.59833
 21
25.96274612862946
 31
0.0
  0
LINE
  5
A7B
330
A79
100
AcDbEntity
  8
OBJECT
 62
     0
370
    -2
100
AcDbLine
 10
9.97433
 20
25.62142
 30
0.0
 11
9.97433
 21
25.96274612862946
 31
0.0
  0
LINE
  5
A7C
330
A79
100
AcDbEntity
  8
OBJECT
 62
     0
370
    -2
100
AcDbLine
 10
3.95833
 20
25.77674612862946
 30
0.0
 11
6.23133
 21
25.77674612862946
 31
0.0
  0
LINE
  5
A7D
330
A79
100
AcDbEntity
  8
OBJECT
 62
     0
370
    -2
100
AcDbLine
 10
9.61433
 20
25.77674612862946
 30
0.0
 11
7.34133
 21
25.77674612862946
 31
0.0
  0
SOLID
  5
A7E
330
A79
100
AcDbEntity
  8
OBJECT
 62
     0
100
AcDbTrace
 10
3.95833
 20
25.83674612862946
 30
0.0
 11
3.95833
 21
25.71674612862946
 31
0.0
 12
3.59833
 22
25.77674612862946
 32
0.0
 13
3.59833
 23
25.77674612862946
 33
0.0
  0
SOLID
  5
A7F
330
A79
100
AcDbEntity
  8
OBJECT
 62
     0
100
AcDbTrace
 10
9.61433
 20
25.83674612862946
 30
0.0
 11
9.61433
 21
25.71674612862946
 31
0.0
 12
9.97433
 22
25.77674612862946
 32
0.0
 13
9.97433
 23
25.77674612862946
 33
0.0
  0
MTEXT
  5
A80
330
A79
100
AcDbEntity
  8
OBJECT
 62
     0
100
AcDbMText
 10
6.78633
 20
25.77674612862946
 30
0.0
 40
0.25
 41
0.0
 71
     5
 72
     1
  1
\A1;6.376
  7
TXT
 73
     1
 44
1.0
  0
POINT
  5
A81
330
A79
100
AcDbEntity
  8
DEFPOINTS
 62
     0
100
AcDbPoint
 10
3.59833
 20
25.49542
 30
0.0
  0
POINT
  5
A82
330
A79
100
AcDbEntity
  8
DEFPOINTS
 62
     0
100
AcDbPoint
 10
9.97433
 20
25.49542
 30
0.0
  0
POINT
  5
A83
330
A79
100
AcDbEntity
  8
DEFPOINTS
 62
     0
100
AcDbPoint
 10
9.97433
 20
25.77674612862946
 30
0.0
  0
ENDBLK
  5
A85
330
A79
100
AcDbEntity
  8
0
100
AcDbBlockEnd
  0
BLOCK
  5
A9C
330
A91
100
AcDbEntity
  8
0
100
AcDbBlockBegin
  2
*D42
 70
     1
 10
0.0
 20
0.0
 30
0.0
  3
*D42
  1

  0
LINE
  5
A92
330
A91
100
AcDbEntity
  8
OBJECT
 62
     0
370
    -2
100
AcDbLine
 10
3.46833
 20
23.47042
 30
0.0
 11
3.46833
 21
24.11340873453356
 31
0.0
  0
LINE
  5
A93
330
A91
100
AcDbEntity
  8
OBJECT
 62
     0
370
    -2
100
AcDbLine
 10
10.10433
 20
23.47042
 30
0.0
 11
10.10433
 21
24.11340873453356
 31
0.0
  0
LINE
  5
A94
330
A91
100
AcDbEntity
  8
OBJECT
 62
     0
370
    -2
100
AcDbLine
 10
3.82833
 20
23.92740873453356
 30
0.0
 11
6.231330000000001
 21
23.92740873453356
 31
0.0
  0
LINE
  5
A95
330
A91
100
AcDbEntity
  8
OBJECT
 62
     0
370
    -2
100
AcDbLine
 10
9.744330000000001
 20
23.92740873453356
 30
0.0
 11
7.341330000000001
 21
23.92740873453356
 31
0.0
  0
SOLID
  5
A96
330
A91
100
AcDbEntity
  8
OBJECT
 62
     0
100
AcDbTrace
 10
3.82833
 20
23.98740873453356
 30
0.0
 11
3.82833
 21
23.86740873453356
 31
0.0
 12
3.46833
 22
23.92740873453356
 32
0.0
 13
3.46833
 23
23.92740873453356
 33
0.0
  0
SOLID
  5
A97
330
A91
100
AcDbEntity
  8
OBJECT
 62
     0
100
AcDbTrace
 10
9.744330000000001
 20
23.98740873453356
 30
0.0
 11
9.744330000000001
 21
23.86740873453356
 31
0.0
 12
10.10433
 22
23.92740873453356
 32
0.0
 13
10.10433
 23
23.92740873453356
 33
0.0
  0
MTEXT
  5
A98
330
A91
100
AcDbEntity
  8
OBJECT
 62
     0
100
AcDbMText
 10
6.786330000000001
 20
23.92740873453356
 30
0.0
 40
0.25
 41
0.0
 71
     5
 72
     1
  1
\A1;6.636
  7
TXT
 73
     1
 44
1.0
  0
POINT
  5
A99
330
A91
100
AcDbEntity
  8
DEFPOINTS
 62
     0
100
AcDbPoint
 10
3.46833
 20
23.34442
 30
0.0
  0
POINT
  5
A9A
330
A91
100
AcDbEntity
  8
DEFPOINTS
 62
     0
100
AcDbPoint
 10
10.10433
 20
23.34442
 30
0.0
  0
POINT
  5
A9B
330
A91
100
AcDbEntity
  8
DEFPOINTS
 62
     0
100
AcDbPoint
 10
10.10433
 20
23.92740873453356
 30
0.0
  0
ENDBLK
  5
A9D
330
A91
100
AcDbEntity
  8
0
100
AcDbBlockEnd
  0
ENDSEC
  0
SECTION
  2
ENTITIES
  0
TEXT
  5
2AB
330
1E
100
AcDbEntity
  8
TEXT
100
AcDbText
 10
0.4156666666666668
 20
30.120158
 30
0.0
 40
0.25
  1
NAME
 72
     1
 11
0.8740000000000001
 21
30.120158
 31
0.0
100
AcDbText
  0
TEXT
  5
2AC
330
1E
100
AcDbEntity
  8
TEXT
100
AcDbText
 10
0.4156666666666668
 20
30.496139
 30
0.0
 40
0.25
  1
PART
 72
     1
 11
0.8740000000000001
 21
30.496139
 31
0.0
100
AcDbText
  0
TEXT
  5
2AD
330
1E
100
AcDbEntity
  8
TEXT
100
AcDbText
 10
10.744
 20
30.120158
 30
0.0
 40
0.25
  1
No.
 72
     1
 11
10.994
 21
30.120158
 31
0.0
100
AcDbText
  0
TEXT
  5
2AE
330
1E
100
AcDbEntity
  8
TEXT
100
AcDbText
 10
10.53566666666666
 20
30.498518
 30
0.0
 40
0.25
  1
PART
 72
     1
 11
10.994
 21
30.498518
 31
0.0
100
AcDbText
  0
LINE
  5
2AF
330
1E
100
AcDbEntity
  8
TITLE
100
AcDbLine
 10
11.744
 20
30.876
 30
0.0
 11
11.744
 21
30.04
 31
0.0
  0
LINE
  5
2B0
330
1E
100
AcDbEntity
  8
TITLE
100
AcDbLine
 10
10.244
 20
30.876
 30
0.0
 11
10.244
 21
30.04
 31
0.0
  0
LINE
  5
2B1
330
1E
100
AcDbEntity
  8
TITLE
100
AcDbLine
 10
10.12
 20
30.876
 30
0.0
 11
10.12
 21
30.04
 31
0.0
  0
LINE
  5
2B2
330
1E
100
AcDbEntity
  8
TITLE
100
AcDbLine
 10
1.624
 20
30.04
 30
0.0
 11
1.624
 21
30.876
 31
0.0
  0
LINE
  5
2B3
330
1E
100
AcDbEntity
  8
TITLE
100
AcDbLine
 10
0.124
 20
30.04
 30
0.0
 11
20.116
 21
30.04
 31
0.0
  0
LINE
  5
2B4
330
1E
100
AcDbEntity
  8
TITLE
100
AcDbLine
 10
20.116
 20
0.124
 30
0.0
 11
0.124
 21
0.124
 31
0.0
  0
LINE
  5
2B5
330
1E
100
AcDbEntity
  8
TITLE
100
AcDbLine
 10
20.116
 20
30.876
 30
0.0
 11
20.116
 21
16.33599999999999
 31
0.0
  0
LINE
  5
2B6
330
1E
100
AcDbEntity
  8
TITLE
100
AcDbLine
 10
0.124
 20
30.876
 30
0.0
 11
20.116
 21
30.876
 31
0.0
  0
LINE
  5
2B7
330
1E
100
AcDbEntity
  8
TITLE
100
AcDbLine
 10
0.124
 20
0.124
 30
0.0
 11
0.124
 21
16.21199999999999
 31
0.0
  0
LINE
  5
2B8
330
1E
100
AcDbEntity
  8
TITLE
100
AcDbLine
 10
0.0
 20
0.0
 30
0.0
 11
0.0
 21
31.0
 31
0.0
  0
LINE
  5
2B9
330
1E
100
AcDbEntity
  8
TITLE
100
AcDbLine
 10
20.24
 20
0.0
 30
0.0
 11
0.0
 21
0.0
 31
0.0
  0
LINE
  5
2BA
330
1E
100
AcDbEntity
  8
TITLE
100
AcDbLine
 10
20.24
 20
31.0
 30
0.0
 11
20.24
 21
0.0
 31
0.0
  0
LINE
  5
2BB
330
1E
100
AcDbEntity
  8
TITLE
100
AcDbLine
 10
0.0
 20
31.0
 30
0.0
 11
20.24
 21
31.0
 31
0.0
  0
LINE
  5
2BC
330
1E
100
AcDbEntity
  8
TITLE
100
AcDbLine
 10
0.124
 20
16.33599999999999
 30
0.0
 11
20.116
 21
16.33599999999999
 31
0.0
  0
LINE
  5
2BD
330
1E
100
AcDbEntity
  8
TITLE
100
AcDbLine
 10
0.124
 20
16.21199999999999
 30
0.0
 11
20.116
 21
16.21199999999999
 31
0.0
  0
LINE
  5
2BE
330
1E
100
AcDbEntity
  8
TITLE
100
AcDbLine
 10
0.124
 20
16.33599999999999
 30
0.0
 11
0.124
 21
30.876
 31
0.0
  0
LINE
  5
2BF
330
1E
100
AcDbEntity
  8
TITLE
100
AcDbLine
 10
20.116
 20
16.21199999999999
 30
0.0
 11
20.116
 21
0.124
 31
0.0
  0
LINE
  5
2C0
330
1E
100
AcDbEntity
  8
OBJECT
100
AcDbLine
 10
11.626887
 20
18.225912
 30
0.0
 11
18.23288699999999
 21
18.225912
 31
0.0
  0
LINE
  5
2C1
330
1E
100
AcDbEntity
  8
OBJECT
100
AcDbLine
 10
11.626887
 20
19.53591199999999
 30
0.0
 11
18.23288699999999
 21
19.53591199999999
 31
0.0
  0
LINE
  5
2C2
330
1E
100
AcDbEntity
  8
OBJECT
100
AcDbLine
 10
18.29488699999999
 20
18.28791199999999
 30
0.0
 11
18.29488699999999
 21
19.473912
 31
0.0
  0
LINE
  5
2C3
330
1E
100
AcDbEntity
  8
OBJECT
100
AcDbLine
 10
11.56488699999999
 20
18.28791199999999
 30
0.0
 11
11.56488699999999
 21
19.473912
 31
0.0
  0
LINE
  5
2C4
330
1E
100
AcDbEntity
  8
BEND
100
AcDbLine
 10
11.614887
 20
18.280912
 30
0.0
 11
11.614887
 21
19.480912
 31
0.0
  0
LINE
  5
2C5
330
1E
100
AcDbEntity
  8
BEND
100
AcDbLine
 10
11.614887
 20
18.280912
 30
0.0
 11
18.24488699999999
 21
18.280912
 31
0.0
  0
LINE
  5
2C6
330
1E
100
AcDbEntity
  8
BEND
100
AcDbLine
 10
11.614887
 20
19.480912
 30
0.0
 11
18.24488699999999
 21
19.480912
 31
0.0
  0
LINE
  5
2C7
330
1E
100
AcDbEntity
  8
BEND
100
AcDbLine
 10
18.24488699999999
 20
18.280912
 30
0.0
 11
18.24488699999999
 21
19.480912
 31
0.0
  0
TEXT
  5
2C8
330
1E
100
AcDbEntity
  8
DIM
100
AcDbText
 10
18.830639
 20
18.40211099999999
 30
0.0
 40
0.25
  1
PANEL
 41
0.75
100
AcDbText
  0
TEXT
  5
2C9
330
1E
100
AcDbEntity
  8
DIM
100
AcDbText
 10
18.623437
 20
18.751764
 30
0.0
 40
0.25
  1
EXPOSED
 41
0.75
100
AcDbText
  0
TEXT
  5
2CA
330
1E
100
AcDbEntity
  8
DIM
100
AcDbText
 10
18.89441099999999
 20
19.108891
 30
0.0
 40
0.25
  1
1.200
 41
0.75
100
AcDbText
  0
TEXT
  5
2CB
330
1E
100
AcDbEntity
  8
TEXT
100
AcDbText
 10
13.879554
 20
18.684266
 30
0.0
 40
0.25
  1
PANEL-
 41
0.75
100
AcDbText
  0
TEXT
  5
2CC
330
1E
100
AcDbEntity
  8
TEXT
100
AcDbText
 10
15.123842
 20
18.684266
 30
0.0
 40
0.25
  1
0.062 THICK
 41
0.75
100
AcDbText
  0
TEXT
  5
2CD
330
1E
100
AcDbEntity
  8
TEXT
100
AcDbText
 10
3.584293999999999
 20
30.302
 30
0.0
 40
0.312
  1
PLASTICASE  (STYLE A)
 41
0.75
 72
     1
 11
5.885294
 21
30.302
 31
0.0
100
AcDbText
  0
TEXT
  5
2CE
330
1E
100
AcDbEntity
  8
TEXT
100
AcDbText
 10
15.13049999999999
 20
30.302
 30
0.0
 40
0.312
  1
PC-11403
 41
0.75
 72
     1
 11
15.92999999999999
 21
30.302
 31
0.0
100
AcDbText
  0
TEXT
  5
2CF
330
1E
100
AcDbEntity
  8
TEXT
100
AcDbText
 10
14.190134
 20
29.03318545300434
 30
0.0
 40
0.25
  1
MATERIAL: IMPACT RESISTANT
 41
0.75
100
AcDbText
  0
TEXT
  5
2D0
330
1E
100
AcDbEntity
  8
TEXT
100
AcDbText
 10
14.190134
 20
28.05810851222283
 30
0.0
 40
0.25
  1
FINISH: DOUBLE-TEXTURED
 41
0.75
100
AcDbText
  0
TEXT
  5
2D1
330
1E
100
AcDbEntity
  8
TEXT
100
AcDbText
 10
14.483321
 20
27.63956451222283
 30
0.0
 40
0.25
  1
PC BONE GRAY
 41
0.75
100
AcDbText
  0
TEXT
  5
2D2
330
1E
100
AcDbEntity
  8
TEXT
100
AcDbText
 10
14.190134
 20
27.02435451222283
 30
0.0
 40
0.25
  1
TWO (2) #4 x 1.000" LG. SCREWS
 41
0.75
100
AcDbText
  0
TEXT
  5
2D3
330
1E
100
AcDbEntity
  8
TEXT
100
AcDbText
 10
14.478841
 20
26.61512151222283
 30
0.0
 40
0.25
  1
& FOUR (4) RUBBER FEET
 41
0.75
100
AcDbText
  0
TEXT
  5
2D4
330
1E
100
AcDbEntity
  8
TEXT
100
AcDbText
 10
14.478841
 20
26.19125451222283
 30
0.0
 40
0.25
  1
SUPPLIED WITH CASE FOR
 41
0.75
100
AcDbText
  0
TEXT
  5
2D5
330
1E
100
AcDbEntity
  8
TEXT
100
AcDbText
 10
14.478841
 20
25.78131551222283
 30
0.0
 40
0.25
  1
ASSEMBLY.
 41
0.75
100
AcDbText
  0
TEXT
  5
2D6
330
1E
100
AcDbEntity
  8
TEXT
100
AcDbText
 10
14.187503
 20
25.06515751222283
 30
0.0
 40
0.25
  1
NOTE: MOUNTING BOSSES USE
 41
0.75
100
AcDbText
  0
TEXT
  5
2D7
330
1E
100
AcDbEntity
  8
TEXT
100
AcDbText
 10
14.470588
 20
24.63432651222283
 30
0.0
 40
0.25
  1
EITHER M2.5 METRIC OR #4
 41
0.75
100
AcDbText
  0
TEXT
  5
2D8
330
1E
100
AcDbEntity
  8
TEXT
100
AcDbText
 10
14.470588
 20
24.22438751222283
 30
0.0
 40
0.25
  1
STD. SHEET METAL SCREWS
 41
0.75
100
AcDbText
  0
TEXT
  5
2D9
330
1E
100
AcDbEntity
  8
DIM
100
AcDbText
 10
71.801781
 20
34.87778
 30
0.0
 40
0.5
  1

100
AcDbText
  0
TEXT
  5
2DA
330
1E
100
AcDbEntity
  8
DIM
100
AcDbText
 10
54.37978100000001
 20
52.77447399999999
 30
0.0
 40
0.5
  1

100
AcDbText
  0
TEXT
  5
2DB
330
1E
100
AcDbEntity
  8
DIM
100
AcDbText
 10
87.448961
 20
47.29275999999999
 30
0.0
 40
0.5
  1

100
AcDbText
  0
TEXT
  5
2DC
330
1E
100
AcDbEntity
  8
DIM
100
AcDbText
 10
89.976239
 20
45.549278
 30
0.0
 40
0.5
  1

100
AcDbText
  0
TEXT
  5
2DD
330
1E
100
AcDbEntity
  8
DIM
100
AcDbText
 10
31.74321599999999
 20
25.924103
 30
0.0
 40
0.5
  1

100
AcDbText
  0
TEXT
  5
2DE
330
1E
100
AcDbEntity
  8
DIM
100
AcDbText
 10
41.80234399999999
 20
29.840124
 30
0.0
 40
0.5
  1

100
AcDbText
  0
TEXT
  5
2DF
330
1E
100
AcDbEntity
  8
DIM
100
AcDbText
 10
71.07339899999999
 20
39.946353
 30
0.0
 40
0.5
  1

100
AcDbText
  0
TEXT
  5
2E0
330
1E
100
AcDbEntity
  8
DIM
100
AcDbText
 10
52.323399
 20
39.946353
 30
0.0
 40
0.5
  1

100
AcDbText
  0
TEXT
  5
2E1
330
1E
100
AcDbEntity
  8
DIM
100
AcDbText
 10
67.90673199999999
 20
31.802667
 30
0.0
 40
0.5
  1

100
AcDbText
  0
DIMENSION
  5
2E2
330
1E
100
AcDbEntity
  8
DIM
100
AcDbDimension
  2
*D5
 10
9.091330000000001
 20
28.18273599999999
 30
0.0
 11
6.786330000000001
 21
28.18273599999999
 31
0.0
 70
    32
 71
     5
 42
4.61
  3
23NSTD
100
AcDbAlignedDimension
 13
4.48133
 23
26.50042
 33
0.0
 14
9.091330000000001
 24
26.50042
 34
0.0
100
AcDbRotatedDimension
  0
DIMENSION
  5
2F0
330
1E
100
AcDbEntity
  8
DIM
100
AcDbDimension
  2
*D6
 10
3.256329999999999
 20
28.18273599999999
 30
0.0
 11
3.868829999999999
 21
28.18273599999999
 31
0.0
 70
    32
 71
     5
 42
1.225
  3
23NSTDI
100
AcDbAlignedDimension
 13
4.48133
 23
26.50042
 33
0.0
 14
3.256329999999999
 24
27.65042
 34
0.0
100
AcDbRotatedDimension
  0
DIMENSION
  5
2FE
330
1E
100
AcDbEntity
  8
DIM
100
AcDbDimension
  2
*D7
 10
10.991381
 20
18.225912
 30
0.0
 11
10.991381
 21
18.880912
 31
0.0
 70
    32
 71
     5
 42
1.309999999999998
  3
23NSTDI
100
AcDbAlignedDimension
 13
11.56488699999999
 23
19.53591199999999
 33
0.0
 14
11.56488699999999
 24
18.225912
 34
0.0
 50
90.0
100
AcDbRotatedDimension
  0
DIMENSION
  5
30C
330
1E
100
AcDbEntity
  8
DIM
100
AcDbDimension
  2
*D8
 10
18.29488699999999
 20
20.317107
 30
0.0
 11
14.92988699999999
 21
20.317107
 31
0.0
 70
    32
 71
     5
 42
6.73
  3
23NSTD
100
AcDbAlignedDimension
 13
11.56488699999999
 23
19.53591199999999
 33
0.0
 14
18.29488699999999
 24
19.53591199999999
 34
0.0
100
AcDbRotatedDimension
  0
DIMENSION
  5
31A
330
1E
100
AcDbEntity
  8
DIM
100
AcDbDimension
  2
*D9
 10
11.614887
 20
17.74737299999999
 30
0.0
 11
14.92988699999999
 21
17.74737299999999
 31
0.0
 70
    32
  1
<> EXPOSED PANEL
 71
     5
 42
6.629999999999999
  3
23NSTD
100
AcDbAlignedDimension
 13
18.24488699999999
 23
18.280912
 33
0.0
 14
11.614887
 24
18.280912
 34
0.0
100
AcDbRotatedDimension
  0
DIMENSION
  5
328
330
1E
100
AcDbEntity
  8
DIM
100
AcDbDimension
  2
*D10
 10
11.01990299999999
 20
22.35041999999999
 30
0.0
 11
11.01990299999999
 21
25.00042
 31
0.0
 70
    32
 71
     5
 42
5.3
  3
23NSTD
100
AcDbAlignedDimension
 13
10.31633
 23
27.65042
 33
0.0
 14
10.31633
 24
22.35041999999999
 34
0.0
 50
90.0
100
AcDbRotatedDimension
  0
DIMENSION
  5
336
330
1E
100
AcDbEntity
  8
DIM
100
AcDbDimension
  2
*D11
 10
9.98633
 20
21.283079
 30
0.0
 11
6.091159999999999
 21
21.283079
 31
0.0
 70
   160
 71
     5
 42
6.4
  3
23NSTD
100
AcDbAlignedDimension
 13
3.58633
 23
24.73042
 33
0.0
 14
9.98633
 24
24.73042
 34
0.0
100
AcDbRotatedDimension
  0
DIMENSION
  5
344
330
1E
100
AcDbEntity
  8
DIM
100
AcDbDimension
  2
*D12
 10
3.256329999999999
 20
21.283079
 30
0.0
 11
2.012579999999999
 21
21.283079
 31
0.0
 70
    32
 71
     5
 42
0.3300000000000005
  3
23NSTD
100
AcDbAlignedDimension
 13
3.58633
 23
24.73042
 33
0.0
 14
3.256329999999999
 24
22.35041999999999
 34
0.0
100
AcDbRotatedDimension
  0
DIMENSION
  5
352
330
1E
100
AcDbEntity
  8
DIM
100
AcDbDimension
  2
*D13
 10
10.31633
 20
20.317107
 30
0.0
 11
6.78633
 21
20.317107
 31
0.0
 70
    32
 71
     5
 42
7.06
  3
23NSTD
100
AcDbAlignedDimension
 13
3.256329999999999
 23
18.88091199999999
 33
0.0
 14
10.31633
 24
18.88091199999999
 34
0.0
100
AcDbRotatedDimension
  0
DIMENSION
  5
360
330
1E
100
AcDbEntity
  8
DIM
100
AcDbDimension
  2
*D14
 10
5.780396999999999
 20
18.390912
 30
0.0
 11
5.780396999999996
 21
18.880912
 31
0.0
 70
    32
 71
     5
 42
0.9800000000000004
  3
23NSTDI
100
AcDbAlignedDimension
 13
4.606001999999999
 23
19.370912
 33
0.0
 14
4.606001999999999
 24
18.390912
 34
0.0
 50
90.0
100
AcDbRotatedDimension
  0
DIMENSION
  5
36E
330
1E
100
AcDbEntity
  8
DIM
100
AcDbDimension
  2
*D15
 10
7.615736999999999
 20
19.52091199999999
 30
0.0
 11
7.615736999999995
 21
18.88091199999999
 31
0.0
 70
    32
 71
     5
 42
1.280000000000001
  3
23NSTDI
100
AcDbAlignedDimension
 13
7.642317
 23
18.24091199999999
 33
0.0
 14
7.642317
 24
19.52091199999999
 34
0.0
 50
90.0
100
AcDbRotatedDimension
  0
DIMENSION
  5
37C
330
1E
100
AcDbEntity
  8
DIM
100
AcDbDimension
  2
*D16
 10
2.674297
 20
18.88091199999999
 30
0.0
 11
2.674296999999997
 21
19.26341199999999
 31
0.0
 70
    32
 71
     5
 42
0.7650000000000006
  3
23NSTDI
100
AcDbAlignedDimension
 13
3.28973
 23
19.645912
 33
0.0
 14
3.256329999999999
 24
18.88091199999999
 34
0.0
 50
90.0
100
AcDbRotatedDimension
  0
DIMENSION
  5
38A
330
1E
100
AcDbEntity
  8
DIM
100
AcDbDimension
  2
*D17
 10
1.808034999999999
 20
18.11591199999999
 30
0.0
 11
1.808034999999996
 21
18.88091199999999
 31
0.0
 70
    32
 71
     5
 42
1.530000000000001
  3
23NSTDI
100
AcDbAlignedDimension
 13
3.28973
 23
19.645912
 33
0.0
 14
3.28973
 24
18.11591199999999
 34
0.0
 50
90.0
100
AcDbRotatedDimension
  0
DIMENSION
  5
398
330
1E
100
AcDbEntity
  8
DIM
100
AcDbDimension
  2
*D18
 10
7.046014999999999
 20
18.11591199999999
 30
0.0
 11
6.177889999999996
 21
17.395912
 31
0.0
 70
    32
 71
     5
 42
0.125
  3
23NSTD
100
AcDbAlignedDimension
 13
7.209119
 23
18.24091199999999
 33
0.0
 14
7.209119
 24
18.11591199999999
 34
0.0
 50
90.0
100
AcDbRotatedDimension
  0
DIMENSION
  5
3A6
330
1E
100
AcDbEntity
  8
DIM
100
AcDbDimension
  2
*D19
 10
5.156306999999999
 20
18.11591199999999
 30
0.0
 11
4.256931999999996
 21
17.395912
 31
0.0
 70
    32
 71
     5
 42
0.2750000000000021
  3
23NSTD
100
AcDbAlignedDimension
 13
4.606001999999999
 23
18.390912
 33
0.0
 14
5.156306999999999
 24
18.11591199999999
 34
0.0
 50
90.0
100
AcDbRotatedDimension
  0
DIMENSION
  5
3B4
330
1E
100
AcDbEntity
  8
DIM
100
AcDbDimension
  2
*D20
 10
1.815284
 20
22.35041999999999
 30
0.0
 11
1.815283999999996
 21
23.54042
 31
0.0
 70
    32
 71
     5
 42
2.380000000000002
  3
23NSTD
100
AcDbAlignedDimension
 13
3.58633
 23
24.73042
 33
0.0
 14
3.256329999999999
 24
22.35041999999999
 34
0.0
 50
90.0
100
AcDbRotatedDimension
  0
LINE
  5
3C2
330
1E
100
AcDbEntity
  8
CENTER
100
AcDbLine
 10
3.040223
 20
25.23792
 30
0.0
 11
4.410737999999999
 21
25.23792
 31
0.0
  0
DIMENSION
  5
3C3
330
1E
100
AcDbEntity
  8
DIM
100
AcDbDimension
  2
*D21
 10
0.978452
 20
22.35041999999999
 30
0.0
 11
0.9784519999999965
 21
23.79417
 31
0.0
 70
    32
 71
     5
 42
2.887500000000002
  3
23NSTD
100
AcDbAlignedDimension
 13
3.040223
 23
25.23792
 33
0.0
 14
3.256329999999999
 24
22.35041999999999
 34
0.0
 50
90.0
100
AcDbRotatedDimension
  0
ARC
  5
3D1
330
1E
100
AcDbEntity
  8
OBJECT
100
AcDbCircle
 10
11.626887
 20
19.473912
 30
0.0
 40
0.062
100
AcDbArc
 50
90.0
 51
180.0
  0
ARC
  5
3D2
330
1E
100
AcDbEntity
  8
OBJECT
100
AcDbCircle
 10
18.23288699999999
 20
19.473912
 30
0.0
 40
0.062
100
AcDbArc
 50
0.0
 51
90.0
  0
ARC
  5
3D3
330
1E
100
AcDbEntity
  8
OBJECT
100
AcDbCircle
 10
18.23288699999999
 20
18.28791199999999
 30
0.0
 40
0.062
100
AcDbArc
 50
270.0
 51
0.0
  0
ARC
  5
3D4
330
1E
100
AcDbEntity
  8
OBJECT
100
AcDbCircle
 10
11.626887
 20
18.28791199999999
 30
0.0
 40
0.062
100
AcDbArc
 50
180.0
 51
270.0
  0
LINE
  5
3D5
330
1E
100
AcDbEntity
  8
OBJECT
100
AcDbLine
 10
3.289403
 20
18.11591199999999
 30
0.0
 11
10.283256
 21
18.11591199999999
 31
0.0
  0
LINE
  5
3D6
330
1E
100
AcDbEntity
  8
OBJECT
100
AcDbLine
 10
10.283256
 20
19.645912
 30
0.0
 11
3.289403
 21
19.645912
 31
0.0
  0
LINE
  5
3D7
330
1E
100
AcDbEntity
  8
OBJECT
100
AcDbLine
 10
8.370041
 20
19.52091199999999
 30
0.0
 11
3.406001999999999
 21
19.52091199999999
 31
0.0
  0
LINE
  5
3D8
330
1E
100
AcDbEntity
  8
OBJECT
100
AcDbLine
 10
3.406001999999999
 20
18.24091199999999
 30
0.0
 11
8.244336
 21
18.24091199999999
 31
0.0
  0
LINE
  5
3D9
330
1E
100
AcDbEntity
  8
OBJECT
100
AcDbLine
 10
3.406001999999999
 20
18.86591199999999
 30
0.0
 11
3.406001999999999
 21
18.24091199999999
 31
0.0
  0
LINE
  5
3DA
330
1E
100
AcDbEntity
  8
OBJECT
100
AcDbLine
 10
3.256002
 20
18.86591199999999
 30
0.0
 11
3.288748
 21
18.11591199999999
 31
0.0
  0
LINE
  5
3DB
330
1E
100
AcDbEntity
  8
OBJECT
100
AcDbLine
 10
3.716001999999999
 20
18.88091199999999
 30
0.0
 11
3.716001999999999
 21
18.24091199999999
 31
0.0
  0
LINE
  5
3DC
330
1E
100
AcDbEntity
  8
OBJECT
100
AcDbLine
 10
3.468001999999999
 20
18.86591199999999
 30
0.0
 11
3.468001999999999
 21
18.24091199999999
 31
0.0
  0
LINE
  5
3DD
330
1E
100
AcDbEntity
  8
OBJECT
100
AcDbLine
 10
3.716001999999999
 20
18.88091199999999
 30
0.0
 11
3.468001999999999
 21
18.88091199999999
 31
0.0
  0
LINE
  5
3DE
330
1E
100
AcDbEntity
  8
OBJECT
100
AcDbLine
 10
3.406001999999999
 20
19.52091199999999
 30
0.0
 11
3.406001999999999
 21
18.89591199999999
 31
0.0
  0
LINE
  5
3DF
330
1E
100
AcDbEntity
  8
OBJECT
100
AcDbLine
 10
3.256002
 20
18.89591199999999
 30
0.0
 11
3.288748
 21
19.645912
 31
0.0
  0
LINE
  5
3E0
330
1E
100
AcDbEntity
  8
OBJECT
100
AcDbLine
 10
3.468001999999999
 20
19.52091199999999
 30
0.0
 11
3.468001999999999
 21
18.89591199999999
 31
0.0
  0
LINE
  5
3E1
330
1E
100
AcDbEntity
  8
OBJECT
100
AcDbLine
 10
3.403001999999999
 20
18.88091199999999
 30
0.0
 11
3.403001999999999
 21
18.89591199999999
 31
0.0
  0
LINE
  5
3E2
330
1E
100
AcDbEntity
  8
OBJECT
100
AcDbLine
 10
3.286001999999999
 20
18.88091199999999
 30
0.0
 11
3.286001999999999
 21
18.89591199999999
 31
0.0
  0
LINE
  5
3E3
330
1E
100
AcDbEntity
  8
OBJECT
100
AcDbLine
 10
3.403001999999999
 20
18.88091199999999
 30
0.0
 11
3.403001999999999
 21
18.86591199999999
 31
0.0
  0
LINE
  5
3E4
330
1E
100
AcDbEntity
  8
OBJECT
100
AcDbLine
 10
3.286001999999999
 20
18.88091199999999
 30
0.0
 11
3.286001999999999
 21
18.86591199999999
 31
0.0
  0
LINE
  5
3E5
330
1E
100
AcDbEntity
  8
OBJECT
100
AcDbLine
 10
3.403001999999999
 20
18.88091199999999
 30
0.0
 11
3.286001999999999
 21
18.88091199999999
 31
0.0
  0
LINE
  5
3E6
330
1E
100
AcDbEntity
  8
OBJECT
100
AcDbLine
 10
3.468001999999999
 20
18.89591199999999
 30
0.0
 11
3.256002
 21
18.89591199999999
 31
0.0
  0
LINE
  5
3E7
330
1E
100
AcDbEntity
  8
OBJECT
100
AcDbLine
 10
3.468001999999999
 20
18.86591199999999
 30
0.0
 11
3.256002
 21
18.86591199999999
 31
0.0
  0
LINE
  5
3E8
330
1E
100
AcDbEntity
  8
OBJECT
100
AcDbLine
 10
3.716001999999999
 20
19.52091199999999
 30
0.0
 11
3.716001999999999
 21
18.88091199999999
 31
0.0
  0
LINE
  5
3E9
330
1E
100
AcDbEntity
  8
OBJECT
100
AcDbLine
 10
4.356001999999999
 20
18.24091199999999
 30
0.0
 11
4.356001999999999
 21
18.390912
 31
0.0
  0
LINE
  5
3EA
330
1E
100
AcDbEntity
  8
OBJECT
100
AcDbLine
 10
4.606001999999999
 20
18.24091199999999
 30
0.0
 11
4.606001999999999
 21
18.390912
 31
0.0
  0
LINE
  5
3EB
330
1E
100
AcDbEntity
  8
OBJECT
100
AcDbLine
 10
4.606001999999999
 20
18.390912
 30
0.0
 11
4.356001999999999
 21
18.390912
 31
0.0
  0
LINE
  5
3EC
330
1E
100
AcDbEntity
  8
OBJECT
100
AcDbLine
 10
4.606001999999999
 20
19.52091199999999
 30
0.0
 11
4.606001999999999
 21
19.370912
 31
0.0
  0
LINE
  5
3ED
330
1E
100
AcDbEntity
  8
OBJECT
100
AcDbLine
 10
4.356001999999999
 20
19.52091199999999
 30
0.0
 11
4.356001999999999
 21
19.370912
 31
0.0
  0
LINE
  5
3EE
330
1E
100
AcDbEntity
  8
OBJECT
100
AcDbLine
 10
4.606001999999999
 20
19.370912
 30
0.0
 11
4.356001999999999
 21
19.370912
 31
0.0
  0
LINE
  5
3EF
330
1E
100
AcDbEntity
  8
HIDDEN
100
AcDbLine
 10
8.966001999999999
 20
18.390912
 30
0.0
 11
9.216001999999999
 21
18.390912
 31
0.0
  0
LINE
  5
3F0
330
1E
100
AcDbEntity
  8
OBJECT
100
AcDbLine
 10
8.248316
 20
18.20591199999999
 30
0.0
 11
10.1971
 21
18.20591199999999
 31
0.0
  0
LINE
  5
3F1
330
1E
100
AcDbEntity
  8
OBJECT
100
AcDbLine
 10
10.1971
 20
19.55591199999999
 30
0.0
 11
8.376405
 21
19.55591199999999
 31
0.0
  0
LINE
  5
3F2
330
1E
100
AcDbEntity
  8
OBJECT
100
AcDbLine
 10
8.242461
 20
18.25591199999999
 30
0.0
 11
10.119002
 21
18.25591199999999
 31
0.0
  0
LINE
  5
3F3
330
1E
100
AcDbEntity
  8
OBJECT
100
AcDbLine
 10
10.119002
 20
19.50591199999999
 30
0.0
 11
8.367405999999999
 21
19.50591199999999
 31
0.0
  0
LINE
  5
3F4
330
1E
100
AcDbEntity
  8
HIDDEN
100
AcDbLine
 10
8.966001999999999
 20
19.370912
 30
0.0
 11
9.216001999999999
 21
19.370912
 31
0.0
  0
LWPOLYLINE
  5
3F5
330
1E
100
AcDbEntity
  8
OBJECT
100
AcDbPolyline
 90
        5
 70
     0
 43
0.0
 10
8.256032000000001
 20
18.11591199999999
 42
0.029871
 10
8.222215
 20
18.38433699999999
 42
-0.095826
 10
8.226513999999999
 20
19.09792999999999
 42
0.086457
 10
8.329689
 20
19.238536
 42
-0.02439
 10
8.394173
 20
19.645912
 42
2.462295
  0
LINE
  5
3FC
330
1E
100
AcDbEntity
  8
HIDDEN
100
AcDbLine
 10
8.966001999999999
 20
18.25591199999999
 30
0.0
 11
8.966001999999999
 21
18.390912
 31
0.0
  0
LINE
  5
3FD
330
1E
100
AcDbEntity
  8
HIDDEN
100
AcDbLine
 10
8.966001999999999
 20
19.50591199999999
 30
0.0
 11
8.966001999999999
 21
19.370912
 31
0.0
  0
LINE
  5
3FE
330
1E
100
AcDbEntity
  8
OBJECT
100
AcDbLine
 10
10.119002
 20
18.86591199999999
 30
0.0
 11
10.119002
 21
18.25591199999999
 31
0.0
  0
LINE
  5
3FF
330
1E
100
AcDbEntity
  8
OBJECT
100
AcDbLine
 10
10.22591599999999
 20
18.86591199999999
 30
0.0
 11
10.1971
 21
18.20591199999999
 31
0.0
  0
LINE
  5
400
330
1E
100
AcDbEntity
  8
HIDDEN
100
AcDbLine
 10
9.856002
 20
18.88091199999999
 30
0.0
 11
9.856002
 21
18.25591199999999
 31
0.0
  0
LINE
  5
401
330
1E
100
AcDbEntity
  8
OBJECT
100
AcDbLine
 10
10.316002
 20
18.86591199999999
 30
0.0
 11
10.283256
 21
18.11591199999999
 31
0.0
  0
LINE
  5
402
330
1E
100
AcDbEntity
  8
HIDDEN
100
AcDbLine
 10
9.216001999999999
 20
18.25591199999999
 30
0.0
 11
9.216001999999999
 21
18.390912
 31
0.0
  0
LINE
  5
403
330
1E
100
AcDbEntity
  8
HIDDEN
100
AcDbLine
 10
9.856002
 20
18.88091199999999
 30
0.0
 11
10.104002
 21
18.88091199999999
 31
0.0
  0
LINE
  5
404
330
1E
100
AcDbEntity
  8
HIDDEN
100
AcDbLine
 10
9.216001999999999
 20
19.50591199999999
 30
0.0
 11
9.216001999999999
 21
19.370912
 31
0.0
  0
LINE
  5
405
330
1E
100
AcDbEntity
  8
HIDDEN
100
AcDbLine
 10
9.856002
 20
19.50591199999999
 30
0.0
 11
9.856002
 21
18.88091199999999
 31
0.0
  0
LINE
  5
406
330
1E
100
AcDbEntity
  8
OBJECT
100
AcDbLine
 10
10.119002
 20
19.50591199999999
 30
0.0
 11
10.119002
 21
18.89591199999999
 31
0.0
  0
LINE
  5
407
330
1E
100
AcDbEntity
  8
OBJECT
100
AcDbLine
 10
10.22591599999999
 20
18.89591199999999
 30
0.0
 11
10.1971
 21
19.55591199999999
 31
0.0
  0
LINE
  5
408
330
1E
100
AcDbEntity
  8
OBJECT
100
AcDbLine
 10
10.316002
 20
18.89591199999999
 30
0.0
 11
10.283256
 21
19.645912
 31
0.0
  0
LINE
  5
409
330
1E
100
AcDbEntity
  8
OBJECT
100
AcDbLine
 10
10.286002
 20
18.88091199999999
 30
0.0
 11
10.286002
 21
18.89591199999999
 31
0.0
  0
LINE
  5
40A
330
1E
100
AcDbEntity
  8
OBJECT
100
AcDbLine
 10
10.169002
 20
18.88091199999999
 30
0.0
 11
10.169002
 21
18.89591199999999
 31
0.0
  0
LINE
  5
40B
330
1E
100
AcDbEntity
  8
OBJECT
100
AcDbLine
 10
10.286002
 20
18.88091199999999
 30
0.0
 11
10.286002
 21
18.86591199999999
 31
0.0
  0
LINE
  5
40C
330
1E
100
AcDbEntity
  8
OBJECT
100
AcDbLine
 10
10.169002
 20
18.88091199999999
 30
0.0
 11
10.169002
 21
18.86591199999999
 31
0.0
  0
LINE
  5
40D
330
1E
100
AcDbEntity
  8
OBJECT
100
AcDbLine
 10
10.119002
 20
18.86591199999999
 30
0.0
 11
10.316002
 21
18.86591199999999
 31
0.0
  0
LINE
  5
40E
330
1E
100
AcDbEntity
  8
OBJECT
100
AcDbLine
 10
10.119002
 20
18.89591199999999
 30
0.0
 11
10.316002
 21
18.89591199999999
 31
0.0
  0
LINE
  5
40F
330
1E
100
AcDbEntity
  8
OBJECT
100
AcDbLine
 10
10.169002
 20
18.88091199999999
 30
0.0
 11
10.286002
 21
18.88091199999999
 31
0.0
  0
LINE
  5
410
330
1E
100
AcDbEntity
  8
OBJECT
100
AcDbLine
 10
12.675095
 20
22.35074699999999
 30
0.0
 11
13.425095
 21
22.38349299999999
 31
0.0
  0
LWPOLYLINE
  5
411
330
1E
100
AcDbEntity
  8
OBJECT
100
AcDbPolyline
 90
        4
 70
     0
 43
0.0
 10
13.425095
 20
26.028338
 42
-0.222416
 10
12.937684
 20
26.061779
 42
0.181977
 10
12.235533
 20
26.16516799999999
 42
0.000317
 10
11.89509499999999
 20
25.93758
 42
-0.15556
  0
LINE
  5
417
330
1E
100
AcDbEntity
  8
OBJECT
100
AcDbLine
 10
12.675095
 20
27.65009199999999
 30
0.0
 11
13.425095
 21
27.61734699999999
 31
0.0
  0
LINE
  5
418
330
1E
100
AcDbEntity
  8
OBJECT
100
AcDbLine
 10
12.675095
 20
24.860747
 30
0.0
 11
12.675095
 21
27.65009199999999
 31
0.0
  0
LINE
  5
419
330
1E
100
AcDbEntity
  8
OBJECT
100
AcDbLine
 10
12.64509499999999
 20
24.860747
 30
0.0
 11
12.64509499999999
 21
27.65009199999999
 31
0.0
  0
LINE
  5
41A
330
1E
100
AcDbEntity
  8
OBJECT
100
AcDbLine
 10
11.89509499999999
 20
22.38349299999999
 30
0.0
 11
11.89509499999999
 21
27.61734699999999
 31
0.0
  0
LINE
  5
41B
330
1E
100
AcDbEntity
  8
OBJECT
100
AcDbLine
 10
12.660095
 20
22.36418899999999
 30
0.0
 11
12.660095
 21
22.538747
 31
0.0
  0
LINE
  5
41C
330
1E
100
AcDbEntity
  8
OBJECT
100
AcDbLine
 10
13.300095
 20
22.681747
 30
0.0
 11
13.300095
 21
26.01213299999999
 31
0.0
  0
LINE
  5
41D
330
1E
100
AcDbEntity
  8
OBJECT
100
AcDbLine
 10
12.02009499999999
 20
22.681747
 30
0.0
 11
12.02009499999999
 21
26.018984
 31
0.0
  0
LINE
  5
41E
330
1E
100
AcDbEntity
  8
OBJECT
100
AcDbLine
 10
12.675095
 20
22.35074699999999
 30
0.0
 11
12.675095
 21
22.538747
 31
0.0
  0
LINE
  5
41F
330
1E
100
AcDbEntity
  8
OBJECT
100
AcDbLine
 10
12.64509499999999
 20
22.35074699999999
 30
0.0
 11
12.64509499999999
 21
22.538747
 31
0.0
  0
LINE
  5
420
330
1E
100
AcDbEntity
  8
OBJECT
100
AcDbLine
 10
12.02009499999999
 20
22.985747
 30
0.0
 11
12.64509499999999
 21
22.985747
 31
0.0
  0
LINE
  5
421
330
1E
100
AcDbEntity
  8
OBJECT
100
AcDbLine
 10
12.02009499999999
 20
23.05874699999999
 30
0.0
 11
12.64509499999999
 21
23.05874699999999
 31
0.0
  0
LINE
  5
422
330
1E
100
AcDbEntity
  8
OBJECT
100
AcDbLine
 10
12.02009499999999
 20
23.128747
 30
0.0
 11
12.64509499999999
 21
23.128747
 31
0.0
  0
LINE
  5
423
330
1E
100
AcDbEntity
  8
OBJECT
100
AcDbLine
 10
12.02009499999999
 20
23.201747
 30
0.0
 11
12.64509499999999
 21
23.201747
 31
0.0
  0
LINE
  5
424
330
1E
100
AcDbEntity
  8
OBJECT
100
AcDbLine
 10
12.02009499999999
 20
23.271747
 30
0.0
 11
12.64509499999999
 21
23.271747
 31
0.0
  0
LINE
  5
425
330
1E
100
AcDbEntity
  8
OBJECT
100
AcDbLine
 10
12.02009499999999
 20
23.344747
 30
0.0
 11
12.64509499999999
 21
23.344747
 31
0.0
  0
LINE
  5
426
330
1E
100
AcDbEntity
  8
OBJECT
100
AcDbLine
 10
12.64509499999999
 20
22.400795
 30
0.0
 11
11.98509499999999
 21
22.429611
 31
0.0
  0
LINE
  5
427
330
1E
100
AcDbEntity
  8
OBJECT
100
AcDbLine
 10
12.052095
 20
22.493247
 30
0.0
 11
12.64509499999999
 21
22.493247
 31
0.0
  0
LINE
  5
428
330
1E
100
AcDbEntity
  8
OBJECT
100
AcDbLine
 10
12.00509499999999
 20
22.538747
 30
0.0
 11
13.315095
 21
22.538747
 31
0.0
  0
LINE
  5
429
330
1E
100
AcDbEntity
  8
OBJECT
100
AcDbLine
 10
12.00509499999999
 20
22.608747
 30
0.0
 11
13.315095
 21
22.608747
 31
0.0
  0
LINE
  5
42A
330
1E
100
AcDbEntity
  8
OBJECT
100
AcDbLine
 10
12.02009499999999
 20
22.681747
 30
0.0
 11
12.64509499999999
 21
22.681747
 31
0.0
  0
LINE
  5
42B
330
1E
100
AcDbEntity
  8
OBJECT
100
AcDbLine
 10
12.64509499999999
 20
22.35074699999999
 30
0.0
 11
11.89509499999999
 21
22.38349299999999
 31
0.0
  0
LINE
  5
42C
330
1E
100
AcDbEntity
  8
OBJECT
100
AcDbLine
 10
12.052095
 20
22.493247
 30
0.0
 11
11.98509499999999
 21
22.430493
 31
0.0
  0
LINE
  5
42D
330
1E
100
AcDbEntity
  8
OBJECT
100
AcDbLine
 10
12.052095
 20
22.538747
 30
0.0
 11
12.052095
 21
22.493247
 31
0.0
  0
LINE
  5
42E
330
1E
100
AcDbEntity
  8
OBJECT
100
AcDbLine
 10
12.00509499999999
 20
22.538747
 30
0.0
 11
12.00509499999999
 21
22.608747
 31
0.0
  0
LINE
  5
42F
330
1E
100
AcDbEntity
  8
OBJECT
100
AcDbLine
 10
12.067095
 20
22.608747
 30
0.0
 11
12.067095
 21
22.681747
 31
0.0
  0
LINE
  5
430
330
1E
100
AcDbEntity
  8
OBJECT
100
AcDbLine
 10
11.98509499999999
 20
22.38021799999999
 30
0.0
 11
11.98509499999999
 21
22.430493
 31
0.0
  0
LINE
  5
431
330
1E
100
AcDbEntity
  8
OBJECT
100
AcDbLine
 10
13.300095
 20
22.681747
 30
0.0
 11
12.675095
 21
22.681747
 31
0.0
  0
LINE
  5
432
330
1E
100
AcDbEntity
  8
OBJECT
100
AcDbLine
 10
13.268095
 20
22.493247
 30
0.0
 11
12.675095
 21
22.493247
 31
0.0
  0
LINE
  5
433
330
1E
100
AcDbEntity
  8
OBJECT
100
AcDbLine
 10
12.675095
 20
22.400795
 30
0.0
 11
13.335095
 21
22.429611
 31
0.0
  0
LINE
  5
434
330
1E
100
AcDbEntity
  8
OBJECT
100
AcDbLine
 10
12.660095
 20
22.36418899999999
 30
0.0
 11
12.675095
 21
22.36418899999999
 31
0.0
  0
LINE
  5
435
330
1E
100
AcDbEntity
  8
OBJECT
100
AcDbLine
 10
12.64509499999999
 20
22.36418899999999
 30
0.0
 11
12.660095
 21
22.36418899999999
 31
0.0
  0
LINE
  5
436
330
1E
100
AcDbEntity
  8
OBJECT
100
AcDbLine
 10
13.253095
 20
22.608747
 30
0.0
 11
13.253095
 21
22.681747
 31
0.0
  0
LINE
  5
437
330
1E
100
AcDbEntity
  8
OBJECT
100
AcDbLine
 10
13.315095
 20
22.538747
 30
0.0
 11
13.315095
 21
22.608747
 31
0.0
  0
LINE
  5
438
330
1E
100
AcDbEntity
  8
OBJECT
100
AcDbLine
 10
13.268095
 20
22.538747
 30
0.0
 11
13.268095
 21
22.493247
 31
0.0
  0
LINE
  5
439
330
1E
100
AcDbEntity
  8
OBJECT
100
AcDbLine
 10
13.335095
 20
22.38021799999999
 30
0.0
 11
13.335095
 21
22.430493
 31
0.0
  0
LINE
  5
43A
330
1E
100
AcDbEntity
  8
OBJECT
100
AcDbLine
 10
13.268095
 20
22.493247
 30
0.0
 11
13.335095
 21
22.430493
 31
0.0
  0
LINE
  5
43B
330
1E
100
AcDbEntity
  8
OBJECT
100
AcDbLine
 10
13.300095
 20
22.985747
 30
0.0
 11
12.675095
 21
22.985747
 31
0.0
  0
LINE
  5
43C
330
1E
100
AcDbEntity
  8
OBJECT
100
AcDbLine
 10
13.300095
 20
23.128747
 30
0.0
 11
12.675095
 21
23.128747
 31
0.0
  0
LINE
  5
43D
330
1E
100
AcDbEntity
  8
OBJECT
100
AcDbLine
 10
13.300095
 20
23.05874699999999
 30
0.0
 11
12.675095
 21
23.05874699999999
 31
0.0
  0
LINE
  5
43E
330
1E
100
AcDbEntity
  8
OBJECT
100
AcDbLine
 10
13.300095
 20
23.201747
 30
0.0
 11
12.675095
 21
23.201747
 31
0.0
  0
LINE
  5
43F
330
1E
100
AcDbEntity
  8
OBJECT
100
AcDbLine
 10
13.300095
 20
23.271747
 30
0.0
 11
12.675095
 21
23.271747
 31
0.0
  0
LINE
  5
440
330
1E
100
AcDbEntity
  8
OBJECT
100
AcDbLine
 10
13.300095
 20
23.344747
 30
0.0
 11
12.675095
 21
23.344747
 31
0.0
  0
LINE
  5
441
330
1E
100
AcDbEntity
  8
OBJECT
100
AcDbLine
 10
12.02009499999999
 20
23.375747
 30
0.0
 11
12.170095
 21
23.375747
 31
0.0
  0
LINE
  5
442
330
1E
100
AcDbEntity
  8
OBJECT
100
AcDbLine
 10
12.02009499999999
 20
23.625747
 30
0.0
 11
12.170095
 21
23.625747
 31
0.0
  0
LINE
  5
443
330
1E
100
AcDbEntity
  8
OBJECT
100
AcDbLine
 10
12.170095
 20
23.375747
 30
0.0
 11
12.170095
 21
23.625747
 31
0.0
  0
LINE
  5
444
330
1E
100
AcDbEntity
  8
OBJECT
100
AcDbLine
 10
13.150095
 20
23.375747
 30
0.0
 11
13.150095
 21
23.625747
 31
0.0
  0
LINE
  5
445
330
1E
100
AcDbEntity
  8
OBJECT
100
AcDbLine
 10
13.300095
 20
23.625747
 30
0.0
 11
13.150095
 21
23.625747
 31
0.0
  0
LINE
  5
446
330
1E
100
AcDbEntity
  8
OBJECT
100
AcDbLine
 10
13.300095
 20
23.375747
 30
0.0
 11
13.150095
 21
23.375747
 31
0.0
  0
LINE
  5
447
330
1E
100
AcDbEntity
  8
OBJECT
100
AcDbLine
 10
12.02009499999999
 20
24.860747
 30
0.0
 11
12.660095
 21
24.860747
 31
0.0
  0
LINE
  5
448
330
1E
100
AcDbEntity
  8
OBJECT
100
AcDbLine
 10
12.02009499999999
 20
24.60074699999999
 30
0.0
 11
12.660095
 21
24.60074699999999
 31
0.0
  0
LINE
  5
449
330
1E
100
AcDbEntity
  8
OBJECT
100
AcDbLine
 10
12.02009499999999
 20
24.980747
 30
0.0
 11
12.64509499999999
 21
24.980747
 31
0.0
  0
LINE
  5
44A
330
1E
100
AcDbEntity
  8
OBJECT
100
AcDbLine
 10
12.02009499999999
 20
25.495747
 30
0.0
 11
12.64509499999999
 21
25.495747
 31
0.0
  0
LINE
  5
44B
330
1E
100
AcDbEntity
  8
OBJECT
100
AcDbLine
 10
12.24209499999999
 20
25.139747
 30
0.0
 11
12.64509499999999
 21
25.139747
 31
0.0
  0
LINE
  5
44C
330
1E
100
AcDbEntity
  8
OBJECT
100
AcDbLine
 10
12.24209499999999
 20
25.336747
 30
0.0
 11
12.64509499999999
 21
25.336747
 31
0.0
  0
LINE
  5
44D
330
1E
100
AcDbEntity
  8
OBJECT
100
AcDbLine
 10
12.24209499999999
 20
25.139747
 30
0.0
 11
12.24209499999999
 21
25.336747
 31
0.0
  0
LINE
  5
44E
330
1E
100
AcDbEntity
  8
OBJECT
100
AcDbLine
 10
13.078095
 20
25.139747
 30
0.0
 11
13.078095
 21
25.336747
 31
0.0
  0
LINE
  5
44F
330
1E
100
AcDbEntity
  8
OBJECT
100
AcDbLine
 10
13.078095
 20
25.139747
 30
0.0
 11
12.675095
 21
25.139747
 31
0.0
  0
LINE
  5
450
330
1E
100
AcDbEntity
  8
OBJECT
100
AcDbLine
 10
13.300095
 20
24.980747
 30
0.0
 11
12.675095
 21
24.980747
 31
0.0
  0
LINE
  5
451
330
1E
100
AcDbEntity
  8
OBJECT
100
AcDbLine
 10
12.660095
 20
24.860747
 30
0.0
 11
13.300095
 21
24.860747
 31
0.0
  0
LINE
  5
452
330
1E
100
AcDbEntity
  8
OBJECT
100
AcDbLine
 10
12.660095
 20
24.60074699999999
 30
0.0
 11
13.300095
 21
24.60074699999999
 31
0.0
  0
LINE
  5
453
330
1E
100
AcDbEntity
  8
OBJECT
100
AcDbLine
 10
13.078095
 20
25.336747
 30
0.0
 11
12.675095
 21
25.336747
 31
0.0
  0
LINE
  5
454
330
1E
100
AcDbEntity
  8
OBJECT
100
AcDbLine
 10
13.300095
 20
25.495747
 30
0.0
 11
12.675095
 21
25.495747
 31
0.0
  0
LINE
  5
455
330
1E
100
AcDbEntity
  8
HIDDEN
100
AcDbLine
 10
12.02009499999999
 20
26.018984
 30
0.0
 11
12.02009499999999
 21
27.31974699999999
 31
0.0
  0
LINE
  5
456
330
1E
100
AcDbEntity
  8
HIDDEN
100
AcDbLine
 10
13.300095
 20
26.01213299999999
 30
0.0
 11
13.300095
 21
27.31974699999999
 31
0.0
  0
LINE
  5
457
330
1E
100
AcDbEntity
  8
HIDDEN
100
AcDbLine
 10
12.02009499999999
 20
26.65674699999999
 30
0.0
 11
12.64509499999999
 21
26.65674699999999
 31
0.0
  0
LINE
  5
458
330
1E
100
AcDbEntity
  8
HIDDEN
100
AcDbLine
 10
12.02009499999999
 20
26.72974699999999
 30
0.0
 11
12.64509499999999
 21
26.72974699999999
 31
0.0
  0
LINE
  5
459
330
1E
100
AcDbEntity
  8
HIDDEN
100
AcDbLine
 10
12.02009499999999
 20
26.79974699999999
 30
0.0
 11
12.64509499999999
 21
26.79974699999999
 31
0.0
  0
LINE
  5
45A
330
1E
100
AcDbEntity
  8
HIDDEN
100
AcDbLine
 10
12.02009499999999
 20
26.87274699999999
 30
0.0
 11
12.64509499999999
 21
26.87274699999999
 31
0.0
  0
LINE
  5
45B
330
1E
100
AcDbEntity
  8
HIDDEN
100
AcDbLine
 10
12.02009499999999
 20
26.94274699999999
 30
0.0
 11
12.64509499999999
 21
26.94274699999999
 31
0.0
  0
LINE
  5
45C
330
1E
100
AcDbEntity
  8
HIDDEN
100
AcDbLine
 10
12.170095
 20
26.62574699999999
 30
0.0
 11
12.170095
 21
26.375747
 31
0.0
  0
LINE
  5
45D
330
1E
100
AcDbEntity
  8
HIDDEN
100
AcDbLine
 10
12.02009499999999
 20
26.375747
 30
0.0
 11
12.170095
 21
26.375747
 31
0.0
  0
LINE
  5
45E
330
1E
100
AcDbEntity
  8
HIDDEN
100
AcDbLine
 10
12.02009499999999
 20
26.62574699999999
 30
0.0
 11
12.170095
 21
26.62574699999999
 31
0.0
  0
LINE
  5
45F
330
1E
100
AcDbEntity
  8
HIDDEN
100
AcDbLine
 10
13.150095
 20
26.62574699999999
 30
0.0
 11
13.150095
 21
26.375747
 31
0.0
  0
LINE
  5
460
330
1E
100
AcDbEntity
  8
HIDDEN
100
AcDbLine
 10
13.300095
 20
26.375747
 30
0.0
 11
13.150095
 21
26.375747
 31
0.0
  0
LINE
  5
461
330
1E
100
AcDbEntity
  8
HIDDEN
100
AcDbLine
 10
13.300095
 20
26.65674699999999
 30
0.0
 11
12.675095
 21
26.65674699999999
 31
0.0
  0
LINE
  5
462
330
1E
100
AcDbEntity
  8
HIDDEN
100
AcDbLine
 10
13.300095
 20
26.72974699999999
 30
0.0
 11
12.675095
 21
26.72974699999999
 31
0.0
  0
LINE
  5
463
330
1E
100
AcDbEntity
  8
HIDDEN
100
AcDbLine
 10
13.300095
 20
26.79974699999999
 30
0.0
 11
12.675095
 21
26.79974699999999
 31
0.0
  0
LINE
  5
464
330
1E
100
AcDbEntity
  8
HIDDEN
100
AcDbLine
 10
13.300095
 20
26.94274699999999
 30
0.0
 11
12.675095
 21
26.94274699999999
 31
0.0
  0
LINE
  5
465
330
1E
100
AcDbEntity
  8
HIDDEN
100
AcDbLine
 10
13.300095
 20
26.87274699999999
 30
0.0
 11
12.675095
 21
26.87274699999999
 31
0.0
  0
LINE
  5
466
330
1E
100
AcDbEntity
  8
HIDDEN
100
AcDbLine
 10
13.300095
 20
26.62574699999999
 30
0.0
 11
13.150095
 21
26.62574699999999
 31
0.0
  0
LINE
  5
467
330
1E
100
AcDbEntity
  8
HIDDEN
100
AcDbLine
 10
12.02009499999999
 20
27.015747
 30
0.0
 11
12.64509499999999
 21
27.015747
 31
0.0
  0
LINE
  5
468
330
1E
100
AcDbEntity
  8
HIDDEN
100
AcDbLine
 10
12.02009499999999
 20
27.31974699999999
 30
0.0
 11
12.64509499999999
 21
27.31974699999999
 31
0.0
  0
LINE
  5
469
330
1E
100
AcDbEntity
  8
HIDDEN
100
AcDbLine
 10
12.00509499999999
 20
27.39274699999999
 30
0.0
 11
12.64509499999999
 21
27.39274699999999
 31
0.0
  0
LINE
  5
46A
330
1E
100
AcDbEntity
  8
HIDDEN
100
AcDbLine
 10
12.00509499999999
 20
27.46274699999999
 30
0.0
 11
12.64509499999999
 21
27.46274699999999
 31
0.0
  0
LINE
  5
46B
330
1E
100
AcDbEntity
  8
HIDDEN
100
AcDbLine
 10
12.052095
 20
27.50824699999999
 30
0.0
 11
12.64509499999999
 21
27.50824699999999
 31
0.0
  0
LINE
  5
46C
330
1E
100
AcDbEntity
  8
HIDDEN
100
AcDbLine
 10
12.64509499999999
 20
27.6007
 30
0.0
 11
11.98509499999999
 21
27.571883
 31
0.0
  0
LINE
  5
46D
330
1E
100
AcDbEntity
  8
OBJECT
100
AcDbLine
 10
12.64509499999999
 20
27.65009199999999
 30
0.0
 11
11.89509499999999
 21
27.61734699999999
 31
0.0
  0
LINE
  5
46E
330
1E
100
AcDbEntity
  8
HIDDEN
100
AcDbLine
 10
11.98509499999999
 20
27.621276
 30
0.0
 11
11.98509499999999
 21
27.571001
 31
0.0
  0
LINE
  5
46F
330
1E
100
AcDbEntity
  8
HIDDEN
100
AcDbLine
 10
12.067095
 20
27.39274699999999
 30
0.0
 11
12.067095
 21
27.31974699999999
 31
0.0
  0
LINE
  5
470
330
1E
100
AcDbEntity
  8
HIDDEN
100
AcDbLine
 10
12.00509499999999
 20
27.46274699999999
 30
0.0
 11
12.00509499999999
 21
27.39274699999999
 31
0.0
  0
LINE
  5
471
330
1E
100
AcDbEntity
  8
HIDDEN
100
AcDbLine
 10
12.052095
 20
27.46274699999999
 30
0.0
 11
12.052095
 21
27.50824699999999
 31
0.0
  0
LINE
  5
472
330
1E
100
AcDbEntity
  8
HIDDEN
100
AcDbLine
 10
12.052095
 20
27.50824699999999
 30
0.0
 11
11.98509499999999
 21
27.571001
 31
0.0
  0
LINE
  5
473
330
1E
100
AcDbEntity
  8
HIDDEN
100
AcDbLine
 10
13.335095
 20
27.621276
 30
0.0
 11
13.335095
 21
27.571001
 31
0.0
  0
LINE
  5
474
330
1E
100
AcDbEntity
  8
HIDDEN
100
AcDbLine
 10
13.300095
 20
27.015747
 30
0.0
 11
12.675095
 21
27.015747
 31
0.0
  0
LINE
  5
475
330
1E
100
AcDbEntity
  8
HIDDEN
100
AcDbLine
 10
12.675095
 20
27.6007
 30
0.0
 11
13.335095
 21
27.571883
 31
0.0
  0
LINE
  5
476
330
1E
100
AcDbEntity
  8
HIDDEN
100
AcDbLine
 10
13.268095
 20
27.50824699999999
 30
0.0
 11
12.675095
 21
27.50824699999999
 31
0.0
  0
LINE
  5
477
330
1E
100
AcDbEntity
  8
HIDDEN
100
AcDbLine
 10
13.315095
 20
27.46274699999999
 30
0.0
 11
12.675095
 21
27.46274699999999
 31
0.0
  0
LINE
  5
478
330
1E
100
AcDbEntity
  8
HIDDEN
100
AcDbLine
 10
13.315095
 20
27.39274699999999
 30
0.0
 11
12.675095
 21
27.39274699999999
 31
0.0
  0
LINE
  5
479
330
1E
100
AcDbEntity
  8
HIDDEN
100
AcDbLine
 10
13.300095
 20
27.31974699999999
 30
0.0
 11
12.675095
 21
27.31974699999999
 31
0.0
  0
LINE
  5
47A
330
1E
100
AcDbEntity
  8
HIDDEN
100
AcDbLine
 10
13.268095
 20
27.50824699999999
 30
0.0
 11
13.335095
 21
27.571001
 31
0.0
  0
LINE
  5
47B
330
1E
100
AcDbEntity
  8
HIDDEN
100
AcDbLine
 10
13.268095
 20
27.46274699999999
 30
0.0
 11
13.268095
 21
27.50824699999999
 31
0.0
  0
LINE
  5
47C
330
1E
100
AcDbEntity
  8
HIDDEN
100
AcDbLine
 10
13.315095
 20
27.46274699999999
 30
0.0
 11
13.315095
 21
27.39274699999999
 31
0.0
  0
LINE
  5
47D
330
1E
100
AcDbEntity
  8
HIDDEN
100
AcDbLine
 10
13.253095
 20
27.39274699999999
 30
0.0
 11
13.253095
 21
27.31974699999999
 31
0.0
  0
LINE
  5
47E
330
1E
100
AcDbEntity
  8
OBJECT
100
AcDbLine
 10
12.660095
 20
27.63730499999999
 30
0.0
 11
12.675095
 21
27.63730499999999
 31
0.0
  0
LINE
  5
47F
330
1E
100
AcDbEntity
  8
OBJECT
100
AcDbLine
 10
12.64509499999999
 20
27.63730499999999
 30
0.0
 11
12.660095
 21
27.63730499999999
 31
0.0
  0
LINE
  5
480
330
1E
100
AcDbEntity
  8
OBJECT
100
AcDbLine
 10
13.425095
 20
22.38349299999999
 30
0.0
 11
13.425095
 21
27.61734699999999
 31
0.0
  0
LINE
  5
481
330
1E
100
AcDbEntity
  8
OBJECT
100
AcDbLine
 10
8.545808
 20
27.570674
 30
0.0
 11
3.383074999999999
 21
27.570674
 31
0.0
  0
LINE
  5
482
330
1E
100
AcDbEntity
  8
OBJECT
100
AcDbLine
 10
10.197428
 20
27.617674
 30
0.0
 11
3.375230999999999
 21
27.617674
 31
0.0
  0
LINE
  5
483
330
1E
100
AcDbEntity
  8
OBJECT
100
AcDbLine
 10
10.197428
 20
22.38316499999999
 30
0.0
 11
3.375230999999999
 21
22.38316499999999
 31
0.0
  0
LINE
  5
484
330
1E
100
AcDbEntity
  8
OBJECT
100
AcDbLine
 10
8.675898
 20
22.43016499999999
 30
0.0
 11
3.383074999999999
 21
22.43016499999999
 31
0.0
  0
LINE
  5
485
330
1E
100
AcDbEntity
  8
OBJECT
100
AcDbLine
 10
8.725561
 20
22.49292
 30
0.0
 11
3.45333
 21
22.49292
 31
0.0
  0
LINE
  5
486
330
1E
100
AcDbEntity
  8
OBJECT
100
AcDbLine
 10
8.817809999999999
 20
22.68142
 30
0.0
 11
3.40633
 21
22.68142
 31
0.0
  0
LINE
  5
487
330
1E
100
AcDbEntity
  8
OBJECT
100
AcDbLine
 10
8.790041
 20
22.60842
 30
0.0
 11
3.40633
 21
22.60842
 31
0.0
  0
LINE
  5
488
330
1E
100
AcDbEntity
  8
OBJECT
100
AcDbLine
 10
8.761569999999998
 20
22.53842
 30
0.0
 11
3.40633
 21
22.53842
 31
0.0
  0
LINE
  5
489
330
1E
100
AcDbEntity
  8
OBJECT
100
AcDbLine
 10
8.586227
 20
27.46242
 30
0.0
 11
3.40633
 21
27.46242
 31
0.0
  0
LINE
  5
48A
330
1E
100
AcDbEntity
  8
OBJECT
100
AcDbLine
 10
8.639617999999998
 20
27.31942
 30
0.0
 11
3.40633
 21
27.31942
 31
0.0
  0
LINE
  5
48B
330
1E
100
AcDbEntity
  8
OBJECT
100
AcDbLine
 10
8.612363
 20
27.39242
 30
0.0
 11
3.40633
 21
27.39242
 31
0.0
  0
LINE
  5
48C
330
1E
100
AcDbEntity
  8
OBJECT
100
AcDbLine
 10
8.569238999999999
 20
27.50792
 30
0.0
 11
3.45333
 21
27.50792
 31
0.0
  0
LINE
  5
48D
330
1E
100
AcDbEntity
  8
OBJECT
100
AcDbLine
 10
3.40633
 20
26.65642
 30
0.0
 11
3.40633
 21
23.34442
 31
0.0
  0
LINE
  5
48E
330
1E
100
AcDbEntity
  8
OBJECT
100
AcDbLine
 10
3.256329999999999
 20
27.65042
 30
0.0
 11
3.256329999999999
 21
22.35041999999999
 31
0.0
  0
LINE
  5
48F
330
1E
100
AcDbEntity
  8
OBJECT
100
AcDbLine
 10
3.40633
 20
22.68142
 30
0.0
 11
3.40633
 21
22.98542
 31
0.0
  0
LINE
  5
490
330
1E
100
AcDbEntity
  8
OBJECT
100
AcDbLine
 10
3.40633
 20
22.97742
 30
0.0
 11
3.40633
 21
22.68142
 31
0.0
  0
LINE
  5
491
330
1E
100
AcDbEntity
  8
OBJECT
100
AcDbLine
 10
3.346415
 20
22.35041999999999
 30
0.0
 11
3.346415
 21
22.39742
 31
0.0
  0
LINE
  5
492
330
1E
100
AcDbEntity
  8
OBJECT
100
AcDbLine
 10
3.45333
 20
22.53842
 30
0.0
 11
3.45333
 21
22.49292
 31
0.0
  0
LINE
  5
493
330
1E
100
AcDbEntity
  8
OBJECT
100
AcDbLine
 10
3.375230999999999
 20
22.38316499999999
 30
0.0
 11
3.346415
 21
22.35041999999999
 31
0.0
  0
LINE
  5
494
330
1E
100
AcDbEntity
  8
OBJECT
100
AcDbLine
 10
3.256329999999999
 20
22.35041999999999
 30
0.0
 11
3.346415
 21
22.35041999999999
 31
0.0
  0
LINE
  5
495
330
1E
100
AcDbEntity
  8
OBJECT
100
AcDbLine
 10
3.45333
 20
22.49292
 30
0.0
 11
3.346415
 21
22.39742
 31
0.0
  0
LINE
  5
496
330
1E
100
AcDbEntity
  8
OBJECT
100
AcDbLine
 10
3.375230999999999
 20
22.38316499999999
 30
0.0
 11
3.383074999999999
 21
22.43016499999999
 31
0.0
  0
LINE
  5
497
330
1E
100
AcDbEntity
  8
OBJECT
100
AcDbLine
 10
3.46833
 20
22.60842
 30
0.0
 11
3.46833
 21
22.68142
 31
0.0
  0
LINE
  5
498
330
1E
100
AcDbEntity
  8
OBJECT
100
AcDbLine
 10
3.40633
 20
22.60842
 30
0.0
 11
3.40633
 21
22.53842
 31
0.0
  0
LINE
  5
499
330
1E
100
AcDbEntity
  8
OBJECT
100
AcDbLine
 10
3.46833
 20
22.98542
 30
0.0
 11
3.46833
 21
23.05842
 31
0.0
  0
LINE
  5
49A
330
1E
100
AcDbEntity
  8
OBJECT
100
AcDbLine
 10
3.46833
 20
22.98542
 30
0.0
 11
3.40633
 21
22.98542
 31
0.0
  0
LINE
  5
49B
330
1E
100
AcDbEntity
  8
OBJECT
100
AcDbLine
 10
3.46833
 20
23.05842
 30
0.0
 11
3.40633
 21
23.05842
 31
0.0
  0
LINE
  5
49C
330
1E
100
AcDbEntity
  8
OBJECT
100
AcDbLine
 10
3.40633
 20
23.05842
 30
0.0
 11
3.40633
 21
23.12842
 31
0.0
  0
LINE
  5
49D
330
1E
100
AcDbEntity
  8
OBJECT
100
AcDbLine
 10
3.46833
 20
23.12842
 30
0.0
 11
3.40633
 21
23.12842
 31
0.0
  0
LINE
  5
49E
330
1E
100
AcDbEntity
  8
OBJECT
100
AcDbLine
 10
3.46833
 20
23.27142
 30
0.0
 11
3.46833
 21
23.34442
 31
0.0
  0
LINE
  5
49F
330
1E
100
AcDbEntity
  8
OBJECT
100
AcDbLine
 10
3.46833
 20
23.20142
 30
0.0
 11
3.40633
 21
23.20142
 31
0.0
  0
LINE
  5
4A0
330
1E
100
AcDbEntity
  8
OBJECT
100
AcDbLine
 10
3.40633
 20
23.20142
 30
0.0
 11
3.40633
 21
23.27142
 31
0.0
  0
LINE
  5
4A1
330
1E
100
AcDbEntity
  8
OBJECT
100
AcDbLine
 10
3.46833
 20
23.27142
 30
0.0
 11
3.40633
 21
23.27142
 31
0.0
  0
LINE
  5
4A2
330
1E
100
AcDbEntity
  8
OBJECT
100
AcDbLine
 10
3.46833
 20
23.34442
 30
0.0
 11
3.40633
 21
23.34442
 31
0.0
  0
LINE
  5
4A3
330
1E
100
AcDbEntity
  8
OBJECT
100
AcDbLine
 10
3.46833
 20
23.12842
 30
0.0
 11
3.46833
 21
23.20142
 31
0.0
  0
LINE
  5
4A4
330
1E
100
AcDbEntity
  8
OBJECT
100
AcDbLine
 10
3.53333
 20
25.43042
 30
0.0
 11
3.40633
 21
25.43042
 31
0.0
  0
LINE
  5
4A5
330
1E
100
AcDbEntity
  8
OBJECT
100
AcDbLine
 10
3.53333
 20
25.04542
 30
0.0
 11
3.40633
 21
25.04542
 31
0.0
  0
LINE
  5
4A6
330
1E
100
AcDbEntity
  8
OBJECT
100
AcDbLine
 10
3.59833
 20
25.49542
 30
0.0
 11
3.40633
 21
25.49542
 31
0.0
  0
LINE
  5
4A7
330
1E
100
AcDbEntity
  8
OBJECT
100
AcDbLine
 10
3.59833
 20
24.98042
 30
0.0
 11
3.40633
 21
24.98042
 31
0.0
  0
CIRCLE
  5
4A8
330
1E
100
AcDbEntity
  8
OBJECT
100
AcDbCircle
 10
3.58633
 20
24.73042
 30
0.0
 40
0.13
  0
LINE
  5
4A9
330
1E
100
AcDbEntity
  8
OBJECT
100
AcDbLine
 10
3.53333
 20
25.43042
 30
0.0
 11
3.53333
 21
25.04542
 31
0.0
  0
LINE
  5
4AA
330
1E
100
AcDbEntity
  8
OBJECT
100
AcDbLine
 10
3.59833
 20
25.49542
 30
0.0
 11
3.59833
 21
24.98042
 31
0.0
  0
LINE
  5
4AB
330
1E
100
AcDbEntity
  8
OBJECT
100
AcDbLine
 10
3.59833
 20
25.13392
 30
0.0
 11
3.53333
 21
25.13392
 31
0.0
  0
CIRCLE
  5
4AC
330
1E
100
AcDbEntity
  8
OBJECT
100
AcDbCircle
 10
3.58633
 20
24.73042
 30
0.0
 40
0.065
  0
LINE
  5
4AD
330
1E
100
AcDbEntity
  8
OBJECT
100
AcDbLine
 10
3.59833
 20
25.34192
 30
0.0
 11
3.53333
 21
25.34192
 31
0.0
  0
CIRCLE
  5
4AE
330
1E
100
AcDbEntity
  8
OBJECT
100
AcDbCircle
 10
4.48133
 20
23.50042
 30
0.0
 40
0.125
  0
CIRCLE
  5
4AF
330
1E
100
AcDbEntity
  8
OBJECT
100
AcDbCircle
 10
4.48133
 20
23.50042
 30
0.0
 40
0.0455
  0
LINE
  5
4B0
330
1E
100
AcDbEntity
  8
OBJECT
100
AcDbLine
 10
3.46833
 20
27.01542
 30
0.0
 11
3.46833
 21
26.94242
 31
0.0
  0
LINE
  5
4B1
330
1E
100
AcDbEntity
  8
OBJECT
100
AcDbLine
 10
3.40633
 20
26.79942
 30
0.0
 11
3.40633
 21
26.72942
 31
0.0
  0
LINE
  5
4B2
330
1E
100
AcDbEntity
  8
OBJECT
100
AcDbLine
 10
3.40633
 20
26.94242
 30
0.0
 11
3.40633
 21
26.87242
 31
0.0
  0
LINE
  5
4B3
330
1E
100
AcDbEntity
  8
OBJECT
100
AcDbLine
 10
3.46833
 20
26.72942
 30
0.0
 11
3.46833
 21
26.65642
 31
0.0
  0
LINE
  5
4B4
330
1E
100
AcDbEntity
  8
OBJECT
100
AcDbLine
 10
3.46833
 20
26.87242
 30
0.0
 11
3.46833
 21
26.79942
 31
0.0
  0
LINE
  5
4B5
330
1E
100
AcDbEntity
  8
OBJECT
100
AcDbLine
 10
3.46833
 20
26.65642
 30
0.0
 11
3.40633
 21
26.65642
 31
0.0
  0
LINE
  5
4B6
330
1E
100
AcDbEntity
  8
OBJECT
100
AcDbLine
 10
3.46833
 20
26.72942
 30
0.0
 11
3.40633
 21
26.72942
 31
0.0
  0
LINE
  5
4B7
330
1E
100
AcDbEntity
  8
OBJECT
100
AcDbLine
 10
3.46833
 20
26.79942
 30
0.0
 11
3.40633
 21
26.79942
 31
0.0
  0
LINE
  5
4B8
330
1E
100
AcDbEntity
  8
OBJECT
100
AcDbLine
 10
3.46833
 20
26.87242
 30
0.0
 11
3.40633
 21
26.87242
 31
0.0
  0
LINE
  5
4B9
330
1E
100
AcDbEntity
  8
OBJECT
100
AcDbLine
 10
3.46833
 20
26.94242
 30
0.0
 11
3.40633
 21
26.94242
 31
0.0
  0
LINE
  5
4BA
330
1E
100
AcDbEntity
  8
OBJECT
100
AcDbLine
 10
3.375230999999999
 20
27.617674
 30
0.0
 11
3.383074999999999
 21
27.570674
 31
0.0
  0
LINE
  5
4BB
330
1E
100
AcDbEntity
  8
OBJECT
100
AcDbLine
 10
3.346415
 20
27.65042
 30
0.0
 11
3.346415
 21
27.60342
 31
0.0
  0
LINE
  5
4BC
330
1E
100
AcDbEntity
  8
OBJECT
100
AcDbLine
 10
3.45333
 20
27.46242
 30
0.0
 11
3.45333
 21
27.50792
 31
0.0
  0
LINE
  5
4BD
330
1E
100
AcDbEntity
  8
OBJECT
100
AcDbLine
 10
3.45333
 20
27.50792
 30
0.0
 11
3.346415
 21
27.60342
 31
0.0
  0
LINE
  5
4BE
330
1E
100
AcDbEntity
  8
OBJECT
100
AcDbLine
 10
3.46833
 20
27.01542
 30
0.0
 11
3.40633
 21
27.01542
 31
0.0
  0
LINE
  5
4BF
330
1E
100
AcDbEntity
  8
OBJECT
100
AcDbLine
 10
3.46833
 20
27.39242
 30
0.0
 11
3.46833
 21
27.31942
 31
0.0
  0
LINE
  5
4C0
330
1E
100
AcDbEntity
  8
OBJECT
100
AcDbLine
 10
3.40633
 20
27.02342
 30
0.0
 11
3.40633
 21
27.31942
 31
0.0
  0
LINE
  5
4C1
330
1E
100
AcDbEntity
  8
OBJECT
100
AcDbLine
 10
3.40633
 20
27.39242
 30
0.0
 11
3.40633
 21
27.46242
 31
0.0
  0
LINE
  5
4C2
330
1E
100
AcDbEntity
  8
OBJECT
100
AcDbLine
 10
3.40633
 20
27.31942
 30
0.0
 11
3.40633
 21
27.01542
 31
0.0
  0
LINE
  5
4C3
330
1E
100
AcDbEntity
  8
OBJECT
100
AcDbLine
 10
3.256329999999999
 20
27.65042
 30
0.0
 11
3.346415
 21
27.65042
 31
0.0
  0
LINE
  5
4C4
330
1E
100
AcDbEntity
  8
OBJECT
100
AcDbLine
 10
3.375230999999999
 20
27.617674
 30
0.0
 11
3.346415
 21
27.65042
 31
0.0
  0
CIRCLE
  5
4C5
330
1E
100
AcDbEntity
  8
OBJECT
100
AcDbCircle
 10
4.48133
 20
26.50042
 30
0.0
 40
0.125
  0
CIRCLE
  5
4C6
330
1E
100
AcDbEntity
  8
OBJECT
100
AcDbCircle
 10
4.48133
 20
26.50042
 30
0.0
 40
0.0455
  0
LINE
  5
4C7
330
1E
100
AcDbEntity
  8
OBJECT
100
AcDbLine
 10
9.845428999999999
 20
22.78382
 30
0.0
 11
9.845428999999999
 21
27.217019
 31
0.0
  0
POLYLINE
  5
4C8
330
1E
100
AcDbEntity
  8
OBJECT
100
AcDb2dPolyline
 66
     1
 10
0.0
 20
0.0
 30
0.0
 70
     4
 75
     6
  0
VERTEX
  5
4C9
330
4C8
100
AcDbEntity
  8
OBJECT
100
AcDbVertex
100
AcDb2dVertex
 10
8.528260000000001
 20
27.617674
 30
0.0
 70
    16
  0
VERTEX
  5
4CA
330
4C8
100
AcDbEntity
  8
OBJECT
100
AcDbVertex
100
AcDb2dVertex
 10
8.528260000000001
 20
27.617674
 30
0.0
 70
     8
  0
VERTEX
  5
4CB
330
4C8
100
AcDbEntity
  8
OBJECT
100
AcDbVertex
100
AcDb2dVertex
 10
8.656902
 20
27.27313
 30
0.0
 70
     8
  0
VERTEX
  5
4CC
330
4C8
100
AcDbEntity
  8
OBJECT
100
AcDbVertex
100
AcDb2dVertex
 10
8.71297
 20
26.972062
 30
0.0
 70
     8
  0
VERTEX
  5
4CD
330
4C8
100
AcDbEntity
  8
OBJECT
100
AcDbVertex
100
AcDb2dVertex
 10
8.712474
 20
26.708423
 30
0.0
 70
     8
  0
VERTEX
  5
4CE
330
4C8
100
AcDbEntity
  8
OBJECT
100
AcDbVertex
100
AcDb2dVertex
 10
8.671426
 20
26.47616799999999
 30
0.0
 70
     8
  0
VERTEX
  5
4CF
330
4C8
100
AcDbEntity
  8
OBJECT
100
AcDbVertex
100
AcDb2dVertex
 10
8.605835
 20
26.269249
 30
0.0
 70
     8
  0
VERTEX
  5
4D0
330
4C8
100
AcDbEntity
  8
OBJECT
100
AcDbVertex
100
AcDb2dVertex
 10
8.531710999999999
 20
26.08162
 30
0.0
 70
     8
  0
VERTEX
  5
4D1
330
4C8
100
AcDbEntity
  8
OBJECT
100
AcDbVertex
100
AcDb2dVertex
 10
8.465064999999999
 20
25.90723399999999
 30
0.0
 70
     8
  0
VERTEX
  5
4D2
330
4C8
100
AcDbEntity
  8
OBJECT
100
AcDbVertex
100
AcDb2dVertex
 10
8.421908
 20
25.740045
 30
0.0
 70
     8
  0
VERTEX
  5
4D3
330
4C8
100
AcDbEntity
  8
OBJECT
100
AcDbVertex
100
AcDb2dVertex
 10
8.414130999999999
 20
25.575106
 30
0.0
 70
     8
  0
VERTEX
  5
4D4
330
4C8
100
AcDbEntity
  8
OBJECT
100
AcDbVertex
100
AcDb2dVertex
 10
8.437151
 20
25.411868
 30
0.0
 70
     8
  0
VERTEX
  5
4D5
330
4C8
100
AcDbEntity
  8
OBJECT
100
AcDbVertex
100
AcDb2dVertex
 10
8.482269999999999
 20
25.250882
 30
0.0
 70
     8
  0
VERTEX
  5
4D6
330
4C8
100
AcDbEntity
  8
OBJECT
100
AcDbVertex
100
AcDb2dVertex
 10
8.540786999999999
 20
25.092699
 30
0.0
 70
     8
  0
VERTEX
  5
4D7
330
4C8
100
AcDbEntity
  8
OBJECT
100
AcDbVertex
100
AcDb2dVertex
 10
8.604001
 20
24.93787
 30
0.0
 70
     8
  0
VERTEX
  5
4D8
330
4C8
100
AcDbEntity
  8
OBJECT
100
AcDbVertex
100
AcDb2dVertex
 10
8.663213
 20
24.786947
 30
0.0
 70
     8
  0
VERTEX
  5
4D9
330
4C8
100
AcDbEntity
  8
OBJECT
100
AcDbVertex
100
AcDb2dVertex
 10
8.709721999999999
 20
24.64048
 30
0.0
 70
     8
  0
VERTEX
  5
4DA
330
4C8
100
AcDbEntity
  8
OBJECT
100
AcDbVertex
100
AcDb2dVertex
 10
8.734828
 20
24.499021
 30
0.0
 70
     8
  0
VERTEX
  5
4DB
330
4C8
100
AcDbEntity
  8
OBJECT
100
AcDbVertex
100
AcDb2dVertex
 10
8.732628999999999
 20
24.36288
 30
0.0
 70
     8
  0
VERTEX
  5
4DC
330
4C8
100
AcDbEntity
  8
OBJECT
100
AcDbVertex
100
AcDb2dVertex
 10
8.708415999999999
 20
24.23141199999999
 30
0.0
 70
     8
  0
VERTEX
  5
4DD
330
4C8
100
AcDbEntity
  8
OBJECT
100
AcDbVertex
100
AcDb2dVertex
 10
8.670277999999999
 20
24.103729
 30
0.0
 70
     8
  0
VERTEX
  5
4DE
330
4C8
100
AcDbEntity
  8
OBJECT
100
AcDbVertex
100
AcDb2dVertex
 10
8.626303
 20
23.978945
 30
0.0
 70
     8
  0
VERTEX
  5
4DF
330
4C8
100
AcDbEntity
  8
OBJECT
100
AcDbVertex
100
AcDb2dVertex
 10
8.584582000000001
 20
23.856174
 30
0.0
 70
     8
  0
VERTEX
  5
4E0
330
4C8
100
AcDbEntity
  8
OBJECT
100
AcDbVertex
100
AcDb2dVertex
 10
8.553202
 20
23.734529
 30
0.0
 70
     8
  0
VERTEX
  5
4E1
330
4C8
100
AcDbEntity
  8
OBJECT
100
AcDbVertex
100
AcDb2dVertex
 10
8.540253999999999
 20
23.613124
 30
0.0
 70
     8
  0
VERTEX
  5
4E2
330
4C8
100
AcDbEntity
  8
OBJECT
100
AcDbVertex
100
AcDb2dVertex
 10
8.553824999999999
 20
23.49107099999999
 30
0.0
 70
     8
  0
VERTEX
  5
4E3
330
4C8
100
AcDbEntity
  8
OBJECT
100
AcDbVertex
100
AcDb2dVertex
 10
8.598199000000001
 20
23.367482
 30
0.0
 70
     8
  0
VERTEX
  5
4E4
330
4C8
100
AcDbEntity
  8
OBJECT
100
AcDbVertex
100
AcDb2dVertex
 10
8.66243
 20
23.24145199999999
 30
0.0
 70
     8
  0
VERTEX
  5
4E5
330
4C8
100
AcDbEntity
  8
OBJECT
100
AcDbVertex
100
AcDb2dVertex
 10
8.731766
 20
23.112072
 30
0.0
 70
     8
  0
VERTEX
  5
4E6
330
4C8
100
AcDbEntity
  8
OBJECT
100
AcDbVertex
100
AcDb2dVertex
 10
8.791455
 20
22.97843599999999
 30
0.0
 70
     8
  0
VERTEX
  5
4E7
330
4C8
100
AcDbEntity
  8
OBJECT
100
AcDbVertex
100
AcDb2dVertex
 10
8.826745999999999
 20
22.839635
 30
0.0
 70
     8
  0
VERTEX
  5
4E8
330
4C8
100
AcDbEntity
  8
OBJECT
100
AcDbVertex
100
AcDb2dVertex
 10
8.822885000000001
 20
22.69476099999999
 30
0.0
 70
     8
  0
VERTEX
  5
4E9
330
4C8
100
AcDbEntity
  8
OBJECT
100
AcDbVertex
100
AcDb2dVertex
 10
8.765121
 20
22.54290699999999
 30
0.0
 70
     8
  0
VERTEX
  5
4EA
330
4C8
100
AcDbEntity
  8
OBJECT
100
AcDbVertex
100
AcDb2dVertex
 10
8.638702
 20
22.38316499999999
 30
0.0
 70
     8
  0
VERTEX
  5
4EB
330
4C8
100
AcDbEntity
  8
OBJECT
100
AcDbVertex
100
AcDb2dVertex
 10
8.982300999999999
 20
26.635546
 30
0.0
 70
    16
  0
VERTEX
  5
4EC
330
4C8
100
AcDbEntity
  8
OBJECT
100
AcDbVertex
100
AcDb2dVertex
 10
8.000591
 20
25.727778
 30
0.0
 70
    16
  0
VERTEX
  5
4ED
330
4C8
100
AcDbEntity
  8
OBJECT
100
AcDbVertex
100
AcDb2dVertex
 10
9.055928999999999
 20
24.43972999999999
 30
0.0
 70
    16
  0
VERTEX
  5
4EE
330
4C8
100
AcDbEntity
  8
OBJECT
100
AcDbVertex
100
AcDb2dVertex
 10
8.184661
 20
23.507428
 30
0.0
 70
    16
  0
VERTEX
  5
4EF
330
4C8
100
AcDbEntity
  8
OBJECT
100
AcDbVertex
100
AcDb2dVertex
 10
9.080472
 20
22.82046799999999
 30
0.0
 70
    16
  0
VERTEX
  5
4F0
330
4C8
100
AcDbEntity
  8
OBJECT
100
AcDbVertex
100
AcDb2dVertex
 10
8.638702
 20
22.38316499999999
 30
0.0
 70
    16
  0
SEQEND
  5
4F1
330
4C8
100
AcDbEntity
  8
OBJECT
  0
LINE
  5
4F2
330
1E
100
AcDbEntity
  8
HIDDEN
100
AcDbLine
 10
10.16633
 20
26.65642
 30
0.0
 11
10.16633
 21
23.34442
 31
0.0
  0
LINE
  5
4F3
330
1E
100
AcDbEntity
  8
OBJECT
100
AcDbLine
 10
10.31633
 20
22.35041999999999
 30
0.0
 11
10.31633
 21
27.65042
 31
0.0
  0
LINE
  5
4F4
330
1E
100
AcDbEntity
  8
OBJECT
100
AcDbLine
 10
9.845428999999999
 20
22.78382
 30
0.0
 11
8.825257999999999
 21
22.78382
 31
0.0
  0
LINE
  5
4F5
330
1E
100
AcDbEntity
  8
HIDDEN
100
AcDbLine
 10
10.16633
 20
22.68142
 30
0.0
 11
8.817809999999999
 21
22.68142
 31
0.0
  0
LINE
  5
4F6
330
1E
100
AcDbEntity
  8
HIDDEN
100
AcDbLine
 10
10.16633
 20
22.60842
 30
0.0
 11
8.790041
 21
22.60842
 31
0.0
  0
LINE
  5
4F7
330
1E
100
AcDbEntity
  8
HIDDEN
100
AcDbLine
 10
10.16633
 20
22.53842
 30
0.0
 11
8.761569999999998
 21
22.53842
 31
0.0
  0
LINE
  5
4F8
330
1E
100
AcDbEntity
  8
HIDDEN
100
AcDbLine
 10
10.189584
 20
22.43016499999999
 30
0.0
 11
8.675898
 21
22.43016499999999
 31
0.0
  0
LINE
  5
4F9
330
1E
100
AcDbEntity
  8
HIDDEN
100
AcDbLine
 10
10.11932999999999
 20
22.49292
 30
0.0
 11
8.725561
 21
22.49292
 31
0.0
  0
LINE
  5
4FA
330
1E
100
AcDbEntity
  8
HIDDEN
100
AcDbLine
 10
10.16633
 20
22.97742
 30
0.0
 11
10.16633
 21
22.68142
 31
0.0
  0
LINE
  5
4FB
330
1E
100
AcDbEntity
  8
HIDDEN
100
AcDbLine
 10
10.22624399999999
 20
22.35041999999999
 30
0.0
 11
10.22624399999999
 21
22.39742
 31
0.0
  0
LINE
  5
4FC
330
1E
100
AcDbEntity
  8
HIDDEN
100
AcDbLine
 10
10.197428
 20
22.38316499999999
 30
0.0
 11
10.22624399999999
 21
22.35041999999999
 31
0.0
  0
LINE
  5
4FD
330
1E
100
AcDbEntity
  8
HIDDEN
100
AcDbLine
 10
10.11932999999999
 20
22.49292
 30
0.0
 11
10.22624399999999
 21
22.39742
 31
0.0
  0
LINE
  5
4FE
330
1E
100
AcDbEntity
  8
HIDDEN
100
AcDbLine
 10
10.10433
 20
22.60842
 30
0.0
 11
10.10433
 21
22.68142
 31
0.0
  0
LINE
  5
4FF
330
1E
100
AcDbEntity
  8
HIDDEN
100
AcDbLine
 10
10.16633
 20
22.60842
 30
0.0
 11
10.16633
 21
22.53842
 31
0.0
  0
LINE
  5
500
330
1E
100
AcDbEntity
  8
HIDDEN
100
AcDbLine
 10
10.11932999999999
 20
22.53842
 30
0.0
 11
10.11932999999999
 21
22.49292
 31
0.0
  0
LINE
  5
501
330
1E
100
AcDbEntity
  8
HIDDEN
100
AcDbLine
 10
10.197428
 20
22.38316499999999
 30
0.0
 11
10.189584
 21
22.43016499999999
 31
0.0
  0
LINE
  5
502
330
1E
100
AcDbEntity
  8
OBJECT
100
AcDbLine
 10
10.31633
 20
22.35041999999999
 30
0.0
 11
10.22624399999999
 21
22.35041999999999
 31
0.0
  0
LINE
  5
503
330
1E
100
AcDbEntity
  8
HIDDEN
100
AcDbLine
 10
10.10433
 20
23.12842
 30
0.0
 11
10.10433
 21
23.20142
 31
0.0
  0
LINE
  5
504
330
1E
100
AcDbEntity
  8
HIDDEN
100
AcDbLine
 10
10.10433
 20
23.27142
 30
0.0
 11
10.16633
 21
23.27142
 31
0.0
  0
LINE
  5
505
330
1E
100
AcDbEntity
  8
HIDDEN
100
AcDbLine
 10
10.16633
 20
23.20142
 30
0.0
 11
10.16633
 21
23.27142
 31
0.0
  0
LINE
  5
506
330
1E
100
AcDbEntity
  8
HIDDEN
100
AcDbLine
 10
10.10433
 20
23.20142
 30
0.0
 11
10.16633
 21
23.20142
 31
0.0
  0
LINE
  5
507
330
1E
100
AcDbEntity
  8
HIDDEN
100
AcDbLine
 10
10.10433
 20
23.27142
 30
0.0
 11
10.10433
 21
23.34442
 31
0.0
  0
LINE
  5
508
330
1E
100
AcDbEntity
  8
HIDDEN
100
AcDbLine
 10
10.10433
 20
23.12842
 30
0.0
 11
10.16633
 21
23.12842
 31
0.0
  0
LINE
  5
509
330
1E
100
AcDbEntity
  8
HIDDEN
100
AcDbLine
 10
10.16633
 20
23.05842
 30
0.0
 11
10.16633
 21
23.12842
 31
0.0
  0
LINE
  5
50A
330
1E
100
AcDbEntity
  8
HIDDEN
100
AcDbLine
 10
10.10433
 20
23.05842
 30
0.0
 11
10.16633
 21
23.05842
 31
0.0
  0
LINE
  5
50B
330
1E
100
AcDbEntity
  8
HIDDEN
100
AcDbLine
 10
10.10433
 20
22.98542
 30
0.0
 11
10.16633
 21
22.98542
 31
0.0
  0
LINE
  5
50C
330
1E
100
AcDbEntity
  8
HIDDEN
100
AcDbLine
 10
10.10433
 20
22.98542
 30
0.0
 11
10.10433
 21
23.05842
 31
0.0
  0
LINE
  5
50D
330
1E
100
AcDbEntity
  8
HIDDEN
100
AcDbLine
 10
10.10433
 20
23.34442
 30
0.0
 11
10.16633
 21
23.34442
 31
0.0
  0
CIRCLE
  5
50E
330
1E
100
AcDbEntity
  8
HIDDEN
100
AcDbCircle
 10
9.091330000000001
 20
23.50042
 30
0.0
 40
0.0455
  0
CIRCLE
  5
50F
330
1E
100
AcDbEntity
  8
HIDDEN
100
AcDbCircle
 10
9.091330000000001
 20
23.50042
 30
0.0
 40
0.125
  0
CIRCLE
  5
510
330
1E
100
AcDbEntity
  8
HIDDEN
100
AcDbCircle
 10
9.98633
 20
24.73042
 30
0.0
 40
0.13
  0
LINE
  5
511
330
1E
100
AcDbEntity
  8
HIDDEN
100
AcDbLine
 10
9.97433
 20
25.49542
 30
0.0
 11
9.97433
 21
24.98042
 31
0.0
  0
LINE
  5
512
330
1E
100
AcDbEntity
  8
HIDDEN
100
AcDbLine
 10
10.03932999999999
 20
25.43042
 30
0.0
 11
10.03932999999999
 21
25.04542
 31
0.0
  0
LINE
  5
513
330
1E
100
AcDbEntity
  8
HIDDEN
100
AcDbLine
 10
9.97433
 20
24.98042
 30
0.0
 11
10.16633
 21
24.98042
 31
0.0
  0
LINE
  5
514
330
1E
100
AcDbEntity
  8
HIDDEN
100
AcDbLine
 10
10.03932999999999
 20
25.04542
 30
0.0
 11
10.16633
 21
25.04542
 31
0.0
  0
LINE
  5
515
330
1E
100
AcDbEntity
  8
HIDDEN
100
AcDbLine
 10
9.97433
 20
25.13392
 30
0.0
 11
10.03932999999999
 21
25.13392
 31
0.0
  0
CIRCLE
  5
516
330
1E
100
AcDbEntity
  8
HIDDEN
100
AcDbCircle
 10
9.98633
 20
24.73042
 30
0.0
 40
0.055
  0
LINE
  5
517
330
1E
100
AcDbEntity
  8
HIDDEN
100
AcDbLine
 10
9.97433
 20
25.49542
 30
0.0
 11
10.16633
 21
25.49542
 31
0.0
  0
LINE
  5
518
330
1E
100
AcDbEntity
  8
HIDDEN
100
AcDbLine
 10
10.03932999999999
 20
25.43042
 30
0.0
 11
10.16633
 21
25.43042
 31
0.0
  0
LINE
  5
519
330
1E
100
AcDbEntity
  8
HIDDEN
100
AcDbLine
 10
9.97433
 20
25.34192
 30
0.0
 11
10.03932999999999
 21
25.34192
 31
0.0
  0
LINE
  5
51A
330
1E
100
AcDbEntity
  8
OBJECT
100
AcDbLine
 10
9.845428999999999
 20
27.217019
 30
0.0
 11
8.667351
 21
27.217019
 31
0.0
  0
LINE
  5
51B
330
1E
100
AcDbEntity
  8
HIDDEN
100
AcDbLine
 10
10.189584
 20
27.570674
 30
0.0
 11
8.545808
 21
27.570674
 31
0.0
  0
LINE
  5
51C
330
1E
100
AcDbEntity
  8
HIDDEN
100
AcDbLine
 10
10.16633
 20
27.31942
 30
0.0
 11
8.639617999999998
 21
27.31942
 31
0.0
  0
LINE
  5
51D
330
1E
100
AcDbEntity
  8
HIDDEN
100
AcDbLine
 10
10.16633
 20
27.39242
 30
0.0
 11
8.612363
 21
27.39242
 31
0.0
  0
LINE
  5
51E
330
1E
100
AcDbEntity
  8
HIDDEN
100
AcDbLine
 10
10.16633
 20
27.46242
 30
0.0
 11
8.586227
 21
27.46242
 31
0.0
  0
LINE
  5
51F
330
1E
100
AcDbEntity
  8
HIDDEN
100
AcDbLine
 10
10.11932999999999
 20
27.50792
 30
0.0
 11
8.569238999999999
 21
27.50792
 31
0.0
  0
CIRCLE
  5
520
330
1E
100
AcDbEntity
  8
HIDDEN
100
AcDbCircle
 10
9.091330000000001
 20
26.50042
 30
0.0
 40
0.125
  0
CIRCLE
  5
521
330
1E
100
AcDbEntity
  8
HIDDEN
100
AcDbCircle
 10
9.091330000000001
 20
26.50042
 30
0.0
 40
0.0455
  0
LINE
  5
522
330
1E
100
AcDbEntity
  8
HIDDEN
100
AcDbLine
 10
10.10433
 20
27.01542
 30
0.0
 11
10.10433
 21
26.94242
 31
0.0
  0
LINE
  5
523
330
1E
100
AcDbEntity
  8
HIDDEN
100
AcDbLine
 10
10.10433
 20
26.94242
 30
0.0
 11
10.16633
 21
26.94242
 31
0.0
  0
LINE
  5
524
330
1E
100
AcDbEntity
  8
HIDDEN
100
AcDbLine
 10
10.16633
 20
26.94242
 30
0.0
 11
10.16633
 21
26.87242
 31
0.0
  0
LINE
  5
525
330
1E
100
AcDbEntity
  8
HIDDEN
100
AcDbLine
 10
10.10433
 20
26.87242
 30
0.0
 11
10.16633
 21
26.87242
 31
0.0
  0
LINE
  5
526
330
1E
100
AcDbEntity
  8
HIDDEN
100
AcDbLine
 10
10.10433
 20
26.72942
 30
0.0
 11
10.10433
 21
26.65642
 31
0.0
  0
LINE
  5
527
330
1E
100
AcDbEntity
  8
HIDDEN
100
AcDbLine
 10
10.10433
 20
26.79942
 30
0.0
 11
10.16633
 21
26.79942
 31
0.0
  0
LINE
  5
528
330
1E
100
AcDbEntity
  8
HIDDEN
100
AcDbLine
 10
10.16633
 20
26.79942
 30
0.0
 11
10.16633
 21
26.72942
 31
0.0
  0
LINE
  5
529
330
1E
100
AcDbEntity
  8
HIDDEN
100
AcDbLine
 10
10.10433
 20
26.72942
 30
0.0
 11
10.16633
 21
26.72942
 31
0.0
  0
LINE
  5
52A
330
1E
100
AcDbEntity
  8
HIDDEN
100
AcDbLine
 10
10.10433
 20
26.65642
 30
0.0
 11
10.16633
 21
26.65642
 31
0.0
  0
LINE
  5
52B
330
1E
100
AcDbEntity
  8
HIDDEN
100
AcDbLine
 10
10.10433
 20
26.87242
 30
0.0
 11
10.10433
 21
26.79942
 31
0.0
  0
LINE
  5
52C
330
1E
100
AcDbEntity
  8
HIDDEN
100
AcDbLine
 10
10.22624399999999
 20
27.65042
 30
0.0
 11
10.22624399999999
 21
27.60342
 31
0.0
  0
LINE
  5
52D
330
1E
100
AcDbEntity
  8
HIDDEN
100
AcDbLine
 10
10.197428
 20
27.617674
 30
0.0
 11
10.189584
 21
27.570674
 31
0.0
  0
LINE
  5
52E
330
1E
100
AcDbEntity
  8
HIDDEN
100
AcDbLine
 10
10.11932999999999
 20
27.50792
 30
0.0
 11
10.22624399999999
 21
27.60342
 31
0.0
  0
LINE
  5
52F
330
1E
100
AcDbEntity
  8
HIDDEN
100
AcDbLine
 10
10.10433
 20
27.39242
 30
0.0
 11
10.10433
 21
27.31942
 31
0.0
  0
LINE
  5
530
330
1E
100
AcDbEntity
  8
HIDDEN
100
AcDbLine
 10
10.16633
 20
27.39242
 30
0.0
 11
10.16633
 21
27.46242
 31
0.0
  0
LINE
  5
531
330
1E
100
AcDbEntity
  8
HIDDEN
100
AcDbLine
 10
10.11932999999999
 20
27.46242
 30
0.0
 11
10.11932999999999
 21
27.50792
 31
0.0
  0
LINE
  5
532
330
1E
100
AcDbEntity
  8
HIDDEN
100
AcDbLine
 10
10.10433
 20
27.01542
 30
0.0
 11
10.16633
 21
27.01542
 31
0.0
  0
LINE
  5
533
330
1E
100
AcDbEntity
  8
HIDDEN
100
AcDbLine
 10
10.16633
 20
27.31942
 30
0.0
 11
10.16633
 21
27.01542
 31
0.0
  0
LINE
  5
534
330
1E
100
AcDbEntity
  8
HIDDEN
100
AcDbLine
 10
10.197428
 20
27.617674
 30
0.0
 11
10.22624399999999
 21
27.65042
 31
0.0
  0
LINE
  5
535
330
1E
100
AcDbEntity
  8
OBJECT
100
AcDbLine
 10
10.31633
 20
27.65042
 30
0.0
 11
10.22624399999999
 21
27.65042
 31
0.0
  0
DIMENSION
  5
536
330
1E
100
AcDbEntity
  8
DIM
100
AcDbDimension
  2
*D22
 10
7.965085
 20
22.60842
 30
0.0
 11
7.965084999999996
 21
25.00042
 31
0.0
 70
    32
 71
     5
 42
4.783999999999998
  3
23NSTD
100
AcDbAlignedDimension
 13
7.965085
 23
27.39242
 33
0.0
 14
7.965085
 24
22.60842
 34
0.0
 50
90.0
100
AcDbRotatedDimension
  0
DIMENSION
  5
544
330
1E
100
AcDbEntity
  8
DIM
100
AcDbDimension
  2
*D23
 10
7.965085
 20
22.35042
 30
0.0
 11
7.065709999999995
 21
21.63042
 31
0.0
 70
    32
 71
     5
 42
0.2580000000000027
  3
23NSTD
100
AcDbAlignedDimension
 13
8.145855
 23
22.60842
 33
0.0
 14
10.22624399999999
 24
22.35041999999999
 34
0.0
 50
90.0
100
AcDbRotatedDimension
  0
DIMENSION
  5
552
330
1E
100
AcDbEntity
  8
DIM
100
AcDbDimension
  2
*D24
 10
5.272
 20
26.50042
 30
0.0
 11
5.271999999999995
 21
25.00042
 31
0.0
 70
    32
 71
     5
 42
3.0
  3
23NSTD
100
AcDbAlignedDimension
 13
4.48133
 23
23.50042
 33
0.0
 14
4.48133
 24
26.50042
 34
0.0
 50
90.0
100
AcDbRotatedDimension
  0
DIMENSION
  5
560
330
1E
100
AcDbEntity
  8
DIM
100
AcDbDimension
  2
*D25
 10
9.856329999999999
 20
24.38101978796057
 30
0.0
 11
6.78633
 21
24.38101978796057
 31
0.0
 70
   160
 71
     5
 42
6.139999999999999
  3
23NSTD
100
AcDbAlignedDimension
 13
3.71633
 23
24.73042
 33
0.0
 14
9.856329999999999
 24
24.73042
 34
0.0
100
AcDbRotatedDimension
  0
DIMENSION
  5
56E
330
1E
100
AcDbEntity
  8
DIM
100
AcDbDimension
  2
*D26
 10
2.670068999999999
 20
26.72942
 30
0.0
 11
1.801943999999995
 21
26.00942
 31
0.0
 70
    32
 71
     5
 42
0.0700000000000003
  3
23NSTD
100
AcDbAlignedDimension
 13
3.40633
 23
26.79942
 33
0.0
 14
3.40633
 24
26.72942
 34
0.0
 50
90.0
100
AcDbRotatedDimension
  0
DIMENSION
  5
57C
330
1E
100
AcDbEntity
  8
DIM
100
AcDbDimension
  2
*D27
 10
1.815284
 20
27.39242
 30
0.0
 11
1.815283999999995
 21
27.16741999999999
 31
0.0
 70
    32
 71
     5
 42
0.4499999999999993
  3
23NSTDI
100
AcDbAlignedDimension
 13
3.40633
 23
26.94242
 33
0.0
 14
3.40633
 24
27.39242
 34
0.0
 50
90.0
100
AcDbRotatedDimension
  0
DIMENSION
  5
58A
330
1E
100
AcDbEntity
  8
DIM
100
AcDbDimension
  2
*D28
 10
0.8946479999999999
 20
27.39242
 30
0.0
 11
0.8946479999999954
 21
27.09592
 31
0.0
 70
    32
 71
     5
 42
0.593
  3
23NSTDI
100
AcDbAlignedDimension
 13
3.40633
 23
26.79942
 33
0.0
 14
3.40633
 24
27.39242
 34
0.0
 50
90.0
100
AcDbRotatedDimension
  0
INSERT
  5
598
330
1E
100
AcDbEntity
  8
OBJECT
100
AcDbBlockReference
  2
*X0
 10
0.0
 20
-0.13334
 30
0.0
1001
ACAD
1000
HATCH
1002
{
1070
    16
1000
ANSI31
1040
0.75
1040
0.0
1002
}
  0
INSERT
  5
599
330
1E
100
AcDbEntity
  8
OBJECT
100
AcDbBlockReference
  2
*X1
 10
-0.330373
 20
0.578445
 30
0.0
1001
ACAD
1000
HATCH
1002
{
1070
    16
1000
ANSI31
1040
0.75
1040
0.0
1002
}
  0
INSERT
  5
59A
330
1E
100
AcDbEntity
  8
OBJECT
100
AcDbBlockReference
  2
*X2
 10
0.0
 20
-0.13334
 30
0.0
1001
ACAD
1000
HATCH
1002
{
1070
    16
1000
ANSI31
1040
0.75
1040
1.570795999999999
1002
}
  0
LINE
  5
59B
330
1E
100
AcDbEntity
  8
OBJECT
100
AcDbLine
 10
12.675095
 20
22.608747
 30
0.0
 11
12.675095
 21
24.60074699999999
 31
0.0
  0
LINE
  5
59C
330
1E
100
AcDbEntity
  8
OBJECT
100
AcDbLine
 10
12.660095
 20
22.608747
 30
0.0
 11
12.660095
 21
27.63730499999999
 31
0.0
  0
LINE
  5
59D
330
1E
100
AcDbEntity
  8
OBJECT
100
AcDbLine
 10
12.64509499999999
 20
22.608747
 30
0.0
 11
12.64509499999999
 21
24.60074699999999
 31
0.0
  0
INSERT
  5
59E
330
1E
100
AcDbEntity
  8
OBJECT
100
AcDbBlockReference
  2
*X3
 10
-0.330373
 20
0.578445
 30
0.0
1001
ACAD
1000
HATCH
1002
{
1070
    16
1000
ANSI31
1040
0.75
1040
0.0
1002
}
  0
INSERT
  5
59F
330
1E
100
AcDbEntity
  8
OBJECT
100
AcDbBlockReference
  2
*X4
 10
-0.330373
 20
0.578445
 30
0.0
1001
ACAD
1000
HATCH
1002
{
1070
    16
1000
ANSI31
1040
0.75
1040
1.570795999999999
1002
}
  0
LINE
  5
5A0
330
1E
100
AcDbEntity
  8
OBJECT
100
AcDbLine
 10
10.119002
 20
19.50591199999999
 30
0.0
 11
10.1971
 21
19.55591199999999
 31
0.0
  0
LINE
  5
5A1
330
1E
100
AcDbEntity
  8
OBJECT
100
AcDbLine
 10
10.119002
 20
18.25591199999999
 30
0.0
 11
10.1971
 21
18.20591199999999
 31
0.0
  0
DIMENSION
  5
5A2
330
1E
100
AcDbEntity
  8
DIM
100
AcDbDimension
  2
*D29
 10
2.679132
 20
22.35041999999999
 30
0.0
 11
2.679131999999996
 21
22.92542
 31
0.0
 70
    32
 71
     5
 42
1.150000000000002
  3
23NSTDI
100
AcDbAlignedDimension
 13
4.48133
 23
23.50042
 33
0.0
 14
3.256329999999999
 24
22.35041999999999
 34
0.0
 50
90.0
100
AcDbRotatedDimension
  0
LWPOLYLINE
  5
5B0
330
1E
100
AcDbEntity
  8
DIM
100
AcDbPolyline
 90
        4
 70
     0
 10
11.595425
 20
18.23448699999999
 40
0.0
 41
0.135
 10
11.415386
 20
17.922741
 40
0.0
 41
0.0
 10
11.005371
 20
17.212776
 40
0.0
 41
0.0
 10
10.645371
 20
17.212776
 40
0.0
 41
0.0
  0
TEXT
  5
5B6
330
1E
100
AcDbEntity
  8
DIM
100
AcDbText
 10
9.340371000000001
 20
17.087776
 30
0.0
 40
0.25
  1
0.062 R.
 41
0.75
 72
     2
 11
10.465371
 21
17.212776
 31
0.0
100
AcDbText
 73
     2
  0
TEXT
  5
5B7
330
1E
100
AcDbEntity
  8
DIM
100
AcDbText
 10
8.777871000000001
 20
16.67111
 30
0.0
 40
0.25
  1
(4) PLACES
 41
0.75
 72
     2
 11
10.465371
 21
16.79611
 31
0.0
100
AcDbText
 73
     2
  0
LWPOLYLINE
  5
5B8
330
1E
100
AcDbEntity
  8
DIM
100
AcDbPolyline
 90
        4
 70
     0
 10
4.552505
 20
26.603177
 40
0.0
 41
0.135
 10
4.675984999999999
 20
26.941338
 40
0.0
 41
0.0
 10
5.619375999999999
 20
29.579882
 40
0.0
 41
0.0
 10
5.979376
 20
29.579882
 40
0.0
 41
0.0
  0
TEXT
  5
5BE
330
1E
100
AcDbEntity
  8
DIM
100
AcDbText
 10
6.159375999999999
 20
29.454882
 30
0.0
 40
0.25
  1
0.250 DIA. BOSS
 41
0.75
 11
6.159375999999999
 21
29.579882
 31
0.0
100
AcDbText
 73
     2
  0
TEXT
  5
5BF
330
1E
100
AcDbEntity
  8
DIM
100
AcDbText
 10
6.159375999999999
 20
29.038215
 30
0.0
 40
0.25
  1
WITH 0.091 DIA. HOLE
 41
0.75
 11
6.159375999999999
 21
29.163215
 31
0.0
100
AcDbText
 73
     2
  0
TEXT
  5
5C0
330
1E
100
AcDbEntity
  8
DIM
100
AcDbText
 10
6.159375999999999
 20
28.621549
 30
0.0
 40
0.25
  1
(8) PLACES
 41
0.75
 11
6.159375999999999
 21
28.74654899999999
 31
0.0
100
AcDbText
 73
     2
  0
LINE
  5
5C1
330
1E
100
AcDbEntity
  8
DIM
100
AcDbLine
 10
18.37088699999999
 20
19.480912
 30
0.0
 11
19.354275
 21
19.480912
 31
0.0
  0
LINE
  5
5C2
330
1E
100
AcDbEntity
  8
DIM
100
AcDbLine
 10
18.37088699999999
 20
18.280912
 30
0.0
 11
19.354275
 21
18.280912
 31
0.0
  0
LINE
  5
5C3
330
1E
100
AcDbEntity
  8
DIM
100
AcDbLine
 10
19.168275
 20
19.84091199999999
 30
0.0
 11
19.168275
 21
20.20091199999999
 31
0.0
  0
LINE
  5
5C4
330
1E
100
AcDbEntity
  8
DIM
100
AcDbLine
 10
19.168275
 20
17.920912
 30
0.0
 11
19.168275
 21
17.560912
 31
0.0
  0
SOLID
  5
5C5
330
1E
100
AcDbEntity
  8
DIM
100
AcDbTrace
 10
19.10827499999999
 20
19.84091199999999
 30
0.0
 11
19.228275
 21
19.84091199999999
 31
0.0
 12
19.168275
 22
19.480912
 32
0.0
 13
19.168275
 23
19.480912
 33
0.0
  0
SOLID
  5
5C6
330
1E
100
AcDbEntity
  8
DIM
100
AcDbTrace
 10
19.10827499999999
 20
17.920912
 30
0.0
 11
19.228275
 21
17.920912
 31
0.0
 12
19.168275
 22
18.280912
 32
0.0
 13
19.168275
 23
18.280912
 33
0.0
  0
DIMENSION
  5
5C7
330
1E
100
AcDbEntity
  8
DIM
100
AcDbDimension
  2
*D30
 10
10.16633
 20
26.31644070542577
 30
0.0
 11
6.78633
 21
26.31644070542577
 31
0.0
 70
    32
 71
     5
 42
6.759999999999999
  3
23NSTD
100
AcDbAlignedDimension
 13
3.40633
 23
26.50234370542577
 33
0.0
 14
10.16633
 24
26.50234370542577
 34
0.0
100
AcDbRotatedDimension
  0
TEXT
  5
5D5
330
1E
100
AcDbEntity
  8
TEXT
100
AcDbText
 10
14.186315
 20
23.00335451222283
 30
0.0
 40
0.25
  1
ALL DIMENSIONS HAVE %%P0.015 TOLERANCE
 41
0.6709774117647057
 72
     5
 11
19.889623
 21
23.00335451222283
 31
0.0
100
AcDbText
  0
TEXT
  5
5D8
330
1E
100
AcDbEntity
  8
DIM
100
AcDbText
 10
29.09874999999999
 20
7.744391999999999
 30
0.0
 40
0.125
  1

100
AcDbText
  0
TEXT
  5
5D9
330
1E
100
AcDbEntity
  8
DIM
100
AcDbText
 10
29.161895
 20
15.893067
 30
0.0
 40
0.125
  1

100
AcDbText
  0
LWPOLYLINE
  5
5DA
330
1E
100
AcDbEntity
  8
OBJECT
100
AcDbPolyline
 90
        4
 70
     1
 43
0.0
 10
18.840177
 20
14.97617799999999
 10
14.97638
 20
14.97617799999999
 10
14.97638
 20
12.987381
 10
18.840177
 20
12.987381
  0
LWPOLYLINE
  5
5E0
330
1E
100
AcDbEntity
  8
OBJECT
100
AcDbPolyline
 90
        8
 70
     1
 43
0.0
 10
18.866778
 20
15.024779
 10
14.949778
 20
15.024779
 42
0.4142140000000001
 10
14.92777799999999
 20
15.002779
 10
14.92777799999999
 20
12.960779
 42
0.4142140000000001
 10
14.949778
 20
12.938779
 10
18.866778
 20
12.938779
 42
0.4142140000000001
 10
18.88877799999999
 20
12.960779
 10
18.88877799999999
 20
15.002779
 42
0.4142140000000001
  0
LWPOLYLINE
  5
5EA
330
1E
100
AcDbEntity
  8
OBJECT
100
AcDbPolyline
 90
        8
 70
     1
 43
0.0
 10
18.866778
 20
15.096779
 10
14.949778
 20
15.096779
 42
0.4142140000000001
 10
14.85577799999999
 20
15.002779
 10
14.85577799999999
 20
12.960779
 42
0.4142140000000001
 10
14.949778
 20
12.86677899999999
 10
18.866778
 20
12.86677899999999
 42
0.4142140000000001
 10
18.960778
 20
12.960779
 10
18.960778
 20
15.002779
 42
0.4142140000000001
  0
LWPOLYLINE
  5
5F4
330
1E
100
AcDbEntity
  8
OBJECT
100
AcDbPolyline
 90
        8
 70
     1
 43
0.0
 10
18.866778
 20
15.056779
 10
14.949778
 20
15.056779
 42
0.4142140000000001
 10
14.895778
 20
15.002779
 10
14.895778
 20
12.960779
 42
0.4142140000000001
 10
14.949778
 20
12.906779
 10
18.866778
 20
12.906779
 42
0.4142140000000001
 10
18.920778
 20
12.960779
 10
18.920778
 20
15.002779
 42
0.4142140000000001
  0
DIMENSION
  5
5FE
330
1E
100
AcDbEntity
  8
DIM
100
AcDbDimension
  2
*D31
 10
18.908278
 20
9.142324999999999
 30
0.0
 11
16.908278
 21
9.142324999999999
 31
0.0
 70
    32
  1
A
 71
     5
 42
4.0
  3
23NSTD
100
AcDbAlignedDimension
 13
14.90827799999999
 23
9.640325
 33
0.0
 14
18.908278
 24
9.640325
 34
0.0
100
AcDbRotatedDimension
  0
DIMENSION
  5
60C
330
1E
100
AcDbEntity
  8
DIM
100
AcDbDimension
  2
*D32
 10
18.960778
 20
12.368325
 30
0.0
 11
16.908278
 21
12.368325
 31
0.0
 70
    32
  1
E
 71
     5
 42
4.105000000000002
  3
23NSTD
100
AcDbAlignedDimension
 13
14.85577799999999
 23
11.87032499999999
 33
0.0
 14
18.960778
 24
11.87032499999999
 34
0.0
100
AcDbRotatedDimension
  0
LINE
  5
61A
330
1E
100
AcDbEntity
  8
HIDDEN
100
AcDbLine
 10
14.895778
 20
11.800325
 30
0.0
 11
18.920778
 21
11.800325
 31
0.0
  0
LINE
  5
61B
330
1E
100
AcDbEntity
  8
OBJECT
100
AcDbLine
 10
14.85577799999999
 20
11.87032499999999
 30
0.0
 11
18.960778
 21
11.87032499999999
 31
0.0
  0
LINE
  5
61C
330
1E
100
AcDbEntity
  8
HIDDEN
100
AcDbLine
 10
18.840177
 20
9.710324999999999
 30
0.0
 11
14.97638
 21
9.710324999999999
 31
0.0
  0
LINE
  5
61D
330
1E
100
AcDbEntity
  8
OBJECT
100
AcDbLine
 10
18.816828
 20
9.640325
 30
0.0
 11
14.999729
 21
9.640325
 31
0.0
  0
TEXT
  5
61E
330
1E
100
AcDbEntity
  8
TEXT
100
AcDbText
 10
5.673726
 20
13.91397
 30
0.0
 40
0.25
  1
TEMPERATURE OF 70%%D C.)
 41
0.75
100
AcDbText
  0
TEXT
  5
61F
330
1E
100
AcDbEntity
  8
TEXT
100
AcDbText
 10
0.461928
 20
8.144175
 30
0.0
 40
0.25
  1
INCREASE SLIGHTLY AT OPEN END DUE TO TAPER.
 41
0.75
100
AcDbText
  0
TEXT
  5
620
330
1E
100
AcDbEntity
  8
TEXT
100
AcDbText
 10
0.461928
 20
8.560841999999999
 30
0.0
 40
0.25
  1
FROM CLOSED END OF THE BOX. DIMENSIONS
 41
0.75
100
AcDbText
  0
TEXT
  5
621
330
1E
100
AcDbEntity
  8
TEXT
100
AcDbText
 10
0.461928
 20
8.977508999999999
 30
0.0
 40
0.25
  1
LENGTH AND WIDTH DIMENSIONS ARE TAKEN
 41
0.75
100
AcDbText
  0
TEXT
  5
622
330
1E
100
AcDbEntity
  8
TEXT
100
AcDbText
 10
0.461928
 20
12.695557
 30
0.0
 40
0.25
  1
%%uFINISH:%%u OUTSIDE SURFACES ARE TEXTURED FINISH.
 41
0.75
100
AcDbText
  0
TEXT
  5
623
330
1E
100
AcDbEntity
  8
TEXT
100
AcDbText
 10
0.461928
 20
11.44622299999999
 30
0.0
 40
0.2496
  1
EXCEPT ON PB-1577 COVER REDUCES
 41
0.75
100
AcDbText
  0
TEXT
  5
624
330
1E
100
AcDbEntity
  8
TEXT
100
AcDbText
 10
0.461928
 20
11.862223
 30
0.0
 40
0.25
  1
COVER REDUCES INSIDE HEIGHT BY 0.075,
 41
0.75
100
AcDbText
  0
TEXT
  5
625
330
1E
100
AcDbEntity
  8
TEXT
100
AcDbText
 10
5.673726
 20
14.33063699999999
 30
0.0
 40
0.25
  1
0.070" THICKNESS AND CONTINUOUS USE
 41
0.75
100
AcDbText
  0
TEXT
  5
626
330
1E
100
AcDbEntity
  8
TEXT
100
AcDbText
 10
0.461928
 20
11.03022299999999
 30
0.0
 40
0.2496
  1
INSIDE HEIGHT BY 0.060 & PB-1583 COVER
 41
0.75
100
AcDbText
  0
TEXT
  5
627
330
1E
100
AcDbEntity
  8
TEXT
100
AcDbText
 10
0.461928
 20
9.798925
 30
0.0
 40
0.25
  1
ALL COVERS HAVE SMOOTH SURFACES.
 41
0.75
100
AcDbText
  0
TEXT
  5
628
330
1E
100
AcDbEntity
  8
TEXT
100
AcDbText
 10
0.461928
 20
13.500881
 30
0.0
 40
0.25
  1
%%UCOLOR:%%U BLACK
 41
0.75
100
AcDbText
  0
DIMENSION
  5
629
330
1E
100
AcDbEntity
  8
DIM
100
AcDbDimension
  2
*D33
 10
14.89584431909373
 20
10.13259500789633
 30
0.0
 11
13.93356467126862
 21
10.11478325400288
 31
0.0
 70
    33
  1
D
 71
     5
 42
0.0701334639740541
  3
23NSTD
100
AcDbAlignedDimension
 13
14.965349
 23
10.158872
 33
0.0
 14
14.895237
 24
10.15713699999999
 34
0.0
  0
LINE
  5
637
330
1E
100
AcDbEntity
  8
OBJECT
100
AcDbLine
 10
14.905764
 20
9.731740999999999
 30
0.0
 11
14.85577799999999
 21
11.87032499999999
 31
0.0
  0
LINE
  5
638
330
1E
100
AcDbEntity
  8
HIDDEN
100
AcDbLine
 10
14.97638
 20
9.710324999999999
 30
0.0
 11
14.92772999999999
 21
11.800325
 31
0.0
  0
ARC
  5
639
330
1E
100
AcDbEntity
  8
OBJECT
100
AcDbCircle
 10
14.999729
 20
9.734325
 30
0.0
 40
0.094
100
AcDbArc
 50
181.575237
 51
270.0
  0
LWPOLYLINE
  5
63A
330
1E
100
AcDbEntity
  8
DIM
100
AcDbPolyline
 90
        3
 70
     0
 43
0.0
 10
14.944547
 20
9.640325
 10
14.90827799999999
 20
9.640325
 10
14.907281
 20
9.676579999999999
  0
LINE
  5
63F
330
1E
100
AcDbEntity
  8
HIDDEN
100
AcDbLine
 10
14.895778
 20
11.800325
 30
0.0
 11
14.895778
 21
11.87032499999999
 31
0.0
  0
DIMENSION
  5
640
330
1E
100
AcDbEntity
  8
DIM
100
AcDbDimension
  2
*D34
 10
12.388112
 20
12.368325
 30
0.0
 11
11.273112
 21
12.368325
 31
0.0
 70
    32
  1
F
 71
     5
 42
2.23
  3
23NSTD
100
AcDbAlignedDimension
 13
10.15811199999999
 23
11.87032499999999
 33
0.0
 14
12.388112
 24
11.87032499999999
 34
0.0
100
AcDbRotatedDimension
  0
LINE
  5
64E
330
1E
100
AcDbEntity
  8
HIDDEN
100
AcDbLine
 10
10.198112
 20
11.800325
 30
0.0
 11
12.348112
 21
11.800325
 31
0.0
  0
LINE
  5
64F
330
1E
100
AcDbEntity
  8
OBJECT
100
AcDbLine
 10
10.15811199999999
 20
11.87032499999999
 30
0.0
 11
12.388112
 21
11.87032499999999
 31
0.0
  0
DIMENSION
  5
650
330
1E
100
AcDbEntity
  8
DIM
100
AcDbDimension
  2
*D35
 10
12.335612
 20
9.132385000000001
 30
0.0
 11
11.273112
 21
9.132385000000001
 31
0.0
 70
    32
  1
B
 71
     5
 42
2.125
  3
23NSTD
100
AcDbAlignedDimension
 13
10.21061199999999
 23
9.640325
 33
0.0
 14
12.335612
 24
9.640325
 34
0.0
100
AcDbRotatedDimension
  0
LINE
  5
65E
330
1E
100
AcDbEntity
  8
OBJECT
100
AcDbLine
 10
12.244161
 20
9.640325
 30
0.0
 11
10.302062
 21
9.640325
 31
0.0
  0
LINE
  5
65F
330
1E
100
AcDbEntity
  8
HIDDEN
100
AcDbLine
 10
12.26751
 20
9.710324999999999
 30
0.0
 11
10.27871299999999
 21
9.710324999999999
 31
0.0
  0
DIMENSION
  5
660
330
1E
100
AcDbEntity
  8
DIM
100
AcDbDimension
  2
*D36
 10
19.541979
 20
11.87032499999999
 30
0.0
 11
19.54197899999999
 21
10.755325
 31
0.0
 70
    32
  1
C
 71
     5
 42
2.229999999999998
  3
23NSTD
100
AcDbAlignedDimension
 13
18.908278
 23
9.640325
 33
0.0
 14
18.960778
 24
11.87032499999999
 34
0.0
 50
90.0
100
AcDbRotatedDimension
  0
LINE
  5
66E
330
1E
100
AcDbEntity
  8
HIDDEN
100
AcDbLine
 10
18.840177
 20
9.710324999999999
 30
0.0
 11
18.88882699999999
 21
11.800325
 31
0.0
  0
LINE
  5
66F
330
1E
100
AcDbEntity
  8
OBJECT
100
AcDbLine
 10
18.910792
 20
9.731740999999999
 30
0.0
 11
18.960778
 21
11.87032499999999
 31
0.0
  0
ARC
  5
670
330
1E
100
AcDbEntity
  8
OBJECT
100
AcDbCircle
 10
18.816828
 20
9.734325
 30
0.0
 40
0.094
100
AcDbArc
 50
270.0
 51
358.424763
  0
LWPOLYLINE
  5
671
330
1E
100
AcDbEntity
  8
DIM
100
AcDbPolyline
 90
        3
 70
     0
 43
0.0
 10
18.87200899999999
 20
9.640325
 10
18.908278
 20
9.640325
 10
18.909275
 20
9.676579999999999
  0
LINE
  5
676
330
1E
100
AcDbEntity
  8
HIDDEN
100
AcDbLine
 10
18.920778
 20
11.800325
 30
0.0
 11
18.920778
 21
11.87032499999999
 31
0.0
  0
LINE
  5
677
330
1E
100
AcDbEntity
  8
HIDDEN
100
AcDbLine
 10
10.27871299999999
 20
9.710324999999999
 30
0.0
 11
10.230063
 21
11.800325
 31
0.0
  0
LINE
  5
678
330
1E
100
AcDbEntity
  8
OBJECT
100
AcDbLine
 10
10.208098
 20
9.731740999999999
 30
0.0
 11
10.15811199999999
 21
11.87032499999999
 31
0.0
  0
ARC
  5
679
330
1E
100
AcDbEntity
  8
OBJECT
100
AcDbCircle
 10
10.302062
 20
9.734325
 30
0.0
 40
0.094
100
AcDbArc
 50
181.575237
 51
270.0
  0
LWPOLYLINE
  5
67A
330
1E
100
AcDbEntity
  8
DIM
100
AcDbPolyline
 90
        3
 70
     0
 43
0.0
 10
10.246881
 20
9.640325
 10
10.21061199999999
 20
9.640325
 10
10.209615
 20
9.676579999999999
  0
LINE
  5
67F
330
1E
100
AcDbEntity
  8
HIDDEN
100
AcDbLine
 10
10.198112
 20
11.800325
 30
0.0
 11
10.198112
 21
11.87032499999999
 31
0.0
  0
DIMENSION
  5
680
330
1E
100
AcDbEntity
  8
DIM
100
AcDbDimension
  2
*D37
 10
12.388112
 20
11.87032499999999
 30
0.0
 11
13.97927099999999
 21
8.699877999999998
 31
0.0
 70
   162
  1
1%%d30' REF.
 71
     5
 42
0.0233691546653061
  3
23NSTD
100
AcDb2LineAngularDimension
 13
12.388112
 23
11.87032499999999
 33
0.0
 14
12.388112
 24
11.33826999999999
 34
0.0
 15
12.338126
 25
9.731740999999999
 35
0.0
 16
12.33284889700119
 26
8.323429578291468
 36
0.0
  0
LINE
  5
691
330
1E
100
AcDbEntity
  8
OBJECT
100
AcDbLine
 10
12.338126
 20
9.731740999999999
 30
0.0
 11
12.388112
 21
11.87032499999999
 31
0.0
  0
LINE
  5
692
330
1E
100
AcDbEntity
  8
HIDDEN
100
AcDbLine
 10
12.26751
 20
9.710324999999999
 30
0.0
 11
12.31616
 21
11.800325
 31
0.0
  0
ARC
  5
693
330
1E
100
AcDbEntity
  8
OBJECT
100
AcDbCircle
 10
12.244161
 20
9.734325
 30
0.0
 40
0.094
100
AcDbArc
 50
270.0
 51
358.424763
  0
LWPOLYLINE
  5
694
330
1E
100
AcDbEntity
  8
DIM
100
AcDbPolyline
 90
        3
 70
     0
 43
0.0
 10
12.299343
 20
9.640325
 10
12.335612
 20
9.640325
 10
12.336609
 20
9.676579999999999
  0
LINE
  5
699
330
1E
100
AcDbEntity
  8
HIDDEN
100
AcDbLine
 10
12.348112
 20
11.800325
 30
0.0
 11
12.348112
 21
11.87032499999999
 31
0.0
  0
LINE
  5
69A
330
1E
100
AcDbEntity
  8
TITLE
100
AcDbLine
 10
0.124
 20
15.376
 30
0.0
 11
20.116
 21
15.376
 31
0.0
  0
TEXT
  5
69B
330
1E
100
AcDbEntity
  8
TEXT
100
AcDbText
 10
0.511812
 20
14.747304
 30
0.0
 40
0.25
  1
%%UMATERIAL:%%U ABS THERMOPLASTIC (FLAMMABILITY RATING OF 94-VO AT
 41
0.75
100
AcDbText
  0
TEXT
  5
69C
330
1E
100
AcDbEntity
  8
TEXT
100
AcDbText
 10
2.504330000000001
 20
15.60799999999999
 30
0.0
 40
0.374
  1
POTTING BOX  (STYLE A)
 41
0.75
 72
     1
 11
5.40283
 21
15.60799999999999
 31
0.0
100
AcDbText
  0
TEXT
  5
69D
330
1E
100
AcDbEntity
  8
TEXT
100
AcDbText
 10
0.4156666666666668
 20
15.456158
 30
0.0
 40
0.25
  1
NAME
 72
     1
 11
0.8740000000000001
 21
15.456158
 31
0.0
100
AcDbText
  0
TEXT
  5
69E
330
1E
100
AcDbEntity
  8
TEXT
100
AcDbText
 10
0.4156666666666668
 20
15.872825
 30
0.0
 40
0.25
  1
PART
 72
     1
 11
0.8740000000000001
 21
15.872825
 31
0.0
100
AcDbText
  0
LINE
  5
69F
330
1E
100
AcDbEntity
  8
TITLE
100
AcDbLine
 10
1.624
 20
15.376
 30
0.0
 11
1.624
 21
16.21199999999999
 31
0.0
  0
LINE
  5
6A0
330
1E
100
AcDbEntity
  8
TITLE
100
AcDbLine
 10
9.350342999999998
 20
16.21199999999999
 30
0.0
 11
9.350342999999998
 21
15.376
 31
0.0
  0
LINE
  5
6A1
330
1E
100
AcDbEntity
  8
TITLE
100
AcDbLine
 10
9.226342999999999
 20
16.21199999999999
 30
0.0
 11
9.226342999999999
 21
15.376
 31
0.0
  0
TEXT
  5
6A2
330
1E
100
AcDbEntity
  8
TEXT
100
AcDbText
 10
9.850342999999998
 20
15.456158
 30
0.0
 40
0.25
  1
No.
 72
     1
 11
10.10034299999999
 21
15.456158
 31
0.0
100
AcDbText
  0
TEXT
  5
6A3
330
1E
100
AcDbEntity
  8
TEXT
100
AcDbText
 10
9.642009666666664
 20
15.872825
 30
0.0
 40
0.25
  1
PART
 72
     1
 11
10.10034299999999
 21
15.872825
 31
0.0
100
AcDbText
  0
LINE
  5
6A4
330
1E
100
AcDbEntity
  8
TITLE
100
AcDbLine
 10
10.850343
 20
16.21199999999999
 30
0.0
 11
10.850343
 21
15.376
 31
0.0
  0
TEXT
  5
6A5
330
1E
100
AcDbEntity
  8
TEXT
100
AcDbText
 10
10.22849999999999
 20
5.203999999999999
 30
0.0
 40
0.25
  1
E
 41
0.75
 72
     4
 11
10.29099999999999
 21
5.328999999999999
 31
0.0
100
AcDbText
  0
TEXT
  5
6A6
330
1E
100
AcDbEntity
  8
TEXT
100
AcDbText
 10
8.5785
 20
5.203999999999999
 30
0.0
 40
0.25
  1
D
 41
0.75
 72
     4
 11
8.641
 21
5.328999999999999
 31
0.0
100
AcDbText
  0
TEXT
  5
6A7
330
1E
100
AcDbEntity
  8
TEXT
100
AcDbText
 10
6.9285
 20
5.203999999999999
 30
0.0
 40
0.25
  1
C
 41
0.75
 72
     4
 11
6.991
 21
5.328999999999999
 31
0.0
100
AcDbText
  0
LINE
  5
6A8
330
1E
100
AcDbEntity
  8
TITLE
100
AcDbLine
 10
7.815999999999999
 20
5.540667
 30
0.0
 11
7.815999999999999
 21
0.124
 31
0.0
  0
LINE
  5
6A9
330
1E
100
AcDbEntity
  8
TITLE
100
AcDbLine
 10
6.166
 20
5.540667
 30
0.0
 11
6.166
 21
0.124
 31
0.0
  0
LINE
  5
6AA
330
1E
100
AcDbEntity
  8
TITLE
100
AcDbLine
 10
9.466000000000001
 20
5.540667
 30
0.0
 11
9.466000000000001
 21
0.124
 31
0.0
  0
TEXT
  5
6AB
330
1E
100
AcDbEntity
  8
TEXT
100
AcDbText
 10
5.2785
 20
5.203999999999999
 30
0.0
 40
0.25
  1
B
 41
0.75
 72
     4
 11
5.341
 21
5.328999999999999
 31
0.0
100
AcDbText
  0
TEXT
  5
6AC
330
1E
100
AcDbEntity
  8
TEXT
100
AcDbText
 10
3.6285
 20
5.203999999999999
 30
0.0
 40
0.25
  1
A
 41
0.75
 72
     4
 11
3.691
 21
5.328999999999999
 31
0.0
100
AcDbText
  0
TEXT
  5
6AD
330
1E
100
AcDbEntity
  8
TEXT
100
AcDbText
 10
0.8387500000000001
 20
5.203999999999999
 30
0.0
 40
0.25
  1
PART No.
 41
0.75
 72
     4
 11
1.495
 21
5.328999999999999
 31
0.0
100
AcDbText
  0
LINE
  5
6AE
330
1E
100
AcDbEntity
  8
TITLE
100
AcDbLine
 10
4.516
 20
5.540667
 30
0.0
 11
4.516
 21
0.124
 31
0.0
  0
LINE
  5
6AF
330
1E
100
AcDbEntity
  8
TITLE
100
AcDbLine
 10
2.866
 20
5.540667
 30
0.0
 11
2.866
 21
0.124
 31
0.0
  0
TEXT
  5
6B0
330
1E
100
AcDbEntity
  8
TEXT
100
AcDbText
 10
5.012875
 20
4.370667
 30
0.0
 40
0.25
  1
2.000
 41
0.75
 72
     4
 11
5.341
 21
4.495667
 31
0.0
100
AcDbText
  0
TEXT
  5
6B1
330
1E
100
AcDbEntity
  8
TEXT
100
AcDbText
 10
5.0285
 20
4.787333
 30
0.0
 40
0.25
  1
1.500
 41
0.75
 72
     4
 11
5.341
 21
4.912333
 31
0.0
100
AcDbText
  0
TEXT
  5
6B2
330
1E
100
AcDbEntity
  8
TEXT
100
AcDbText
 10
5.012875
 20
3.132583
 30
0.0
 40
0.25
  1
3.000
 41
0.75
 72
     4
 11
5.341
 21
3.257583
 31
0.0
100
AcDbText
  0
TEXT
  5
6B3
330
1E
100
AcDbEntity
  8
TEXT
100
AcDbText
 10
4.99725
 20
3.549249999999999
 30
0.0
 40
0.25
  1
2.030
 41
0.75
 72
     4
 11
5.341
 21
3.674249999999999
 31
0.0
100
AcDbText
  0
TEXT
  5
6B4
330
1E
100
AcDbEntity
  8
TEXT
100
AcDbText
 10
5.012875
 20
3.965917
 30
0.0
 40
0.25
  1
2.000
 41
0.75
 72
     4
 11
5.341
 21
4.090917
 31
0.0
100
AcDbText
  0
TEXT
  5
6B5
330
1E
100
AcDbEntity
  8
TEXT
100
AcDbText
 10
4.997799999999999
 20
2.300783
 30
0.0
 40
0.2496
  1
2.125
 41
0.75
 72
     4
 11
5.341
 21
2.425583
 31
0.0
100
AcDbText
  0
TEXT
  5
6B6
330
1E
100
AcDbEntity
  8
TEXT
100
AcDbText
 10
5.028999999999999
 20
2.716782999999999
 30
0.0
 40
0.2496
  1
1.030
 41
0.75
 72
     4
 11
5.341
 21
2.841582999999999
 31
0.0
100
AcDbText
  0
TEXT
  5
6B7
330
1E
100
AcDbEntity
  8
TEXT
100
AcDbText
 10
0.9022000000000002
 20
2.71545
 30
0.0
 40
0.2496
  1
PB-1577
 41
0.75
 72
     4
 11
1.495
 21
2.84025
 31
0.0
100
AcDbText
  0
TEXT
  5
6B8
330
1E
100
AcDbEntity
  8
TEXT
100
AcDbText
 10
0.9022000000000002
 20
2.299449999999999
 30
0.0
 40
0.2496
  1
PB-1578
 41
0.75
 72
     4
 11
1.495
 21
2.424249999999999
 31
0.0
100
AcDbText
  0
TEXT
  5
6B9
330
1E
100
AcDbEntity
  8
TEXT
100
AcDbText
 10
0.9012500000000001
 20
3.13125
 30
0.0
 40
0.25
  1
PB-1576
 41
0.75
 72
     4
 11
1.495
 21
3.25625
 31
0.0
100
AcDbText
  0
TEXT
  5
6BA
330
1E
100
AcDbEntity
  8
TEXT
100
AcDbText
 10
0.9012500000000001
 20
3.547916999999999
 30
0.0
 40
0.25
  1
PB-1575
 41
0.75
 72
     4
 11
1.495
 21
3.672916999999999
 31
0.0
100
AcDbText
  0
TEXT
  5
6BB
330
1E
100
AcDbEntity
  8
TEXT
100
AcDbText
 10
0.9012500000000001
 20
3.964583
 30
0.0
 40
0.25
  1
PB-1574
 41
0.75
 72
     4
 11
1.495
 21
4.089583
 31
0.0
100
AcDbText
  0
TEXT
  5
6BC
330
1E
100
AcDbEntity
  8
TEXT
100
AcDbText
 10
0.9012500000000001
 20
4.369333
 30
0.0
 40
0.25
  1
PB-1559
 41
0.75
 72
     4
 11
1.495
 21
4.494333
 31
0.0
100
AcDbText
  0
TEXT
  5
6BD
330
1E
100
AcDbEntity
  8
TEXT
100
AcDbText
 10
0.9012500000000001
 20
4.786
 30
0.0
 40
0.25
  1
PB-1558
 41
0.75
 72
     4
 11
1.495
 21
4.911
 31
0.0
100
AcDbText
  0
TEXT
  5
6BE
330
1E
100
AcDbEntity
  8
TEXT
100
AcDbText
 10
3.379
 20
2.716782999999999
 30
0.0
 40
0.2496
  1
1.030
 41
0.75
 72
     4
 11
3.691
 21
2.841582999999999
 31
0.0
100
AcDbText
  0
TEXT
  5
6BF
330
1E
100
AcDbEntity
  8
TEXT
100
AcDbText
 10
3.3634
 20
2.300783
 30
0.0
 40
0.2496
  1
4.000
 41
0.75
 72
     4
 11
3.691
 21
2.425583
 31
0.0
100
AcDbText
  0
TEXT
  5
6C0
330
1E
100
AcDbEntity
  8
TEXT
100
AcDbText
 10
3.362875
 20
3.965917
 30
0.0
 40
0.25
  1
2.000
 41
0.75
 72
     4
 11
3.691
 21
4.090917
 31
0.0
100
AcDbText
  0
TEXT
  5
6C1
330
1E
100
AcDbEntity
  8
TEXT
100
AcDbText
 10
3.362875
 20
3.132583
 30
0.0
 40
0.25
  1
3.000
 41
0.75
 72
     4
 11
3.691
 21
3.257583
 31
0.0
100
AcDbText
  0
TEXT
  5
6C2
330
1E
100
AcDbEntity
  8
TEXT
100
AcDbText
 10
3.34725
 20
3.549249999999999
 30
0.0
 40
0.25
  1
3.030
 41
0.75
 72
     4
 11
3.691
 21
3.674249999999999
 31
0.0
100
AcDbText
  0
TEXT
  5
6C3
330
1E
100
AcDbEntity
  8
TEXT
100
AcDbText
 10
3.362875
 20
4.370667
 30
0.0
 40
0.25
  1
3.000
 41
0.75
 72
     4
 11
3.691
 21
4.495667
 31
0.0
100
AcDbText
  0
TEXT
  5
6C4
330
1E
100
AcDbEntity
  8
TEXT
100
AcDbText
 10
3.362875
 20
4.787333
 30
0.0
 40
0.25
  1
2.000
 41
0.75
 72
     4
 11
3.691
 21
4.912333
 31
0.0
100
AcDbText
  0
TEXT
  5
6C5
330
1E
100
AcDbEntity
  8
TEXT
100
AcDbText
 10
6.6478
 20
2.716782999999999
 30
0.0
 40
0.2496
  1
0.780
 41
0.75
 72
     4
 11
6.991
 21
2.841582999999999
 31
0.0
100
AcDbText
  0
TEXT
  5
6C6
330
1E
100
AcDbEntity
  8
TEXT
100
AcDbText
 10
6.6322
 20
2.300783
 30
0.0
 40
0.2496
  1
2.230
 41
0.75
 72
     4
 11
6.991
 21
2.425583
 31
0.0
100
AcDbText
  0
TEXT
  5
6C7
330
1E
100
AcDbEntity
  8
TEXT
100
AcDbText
 10
6.694125
 20
4.787333
 30
0.0
 40
0.25
  1
1.000
 41
0.75
 72
     4
 11
6.991
 21
4.912333
 31
0.0
100
AcDbText
  0
TEXT
  5
6C8
330
1E
100
AcDbEntity
  8
TEXT
100
AcDbText
 10
6.6785
 20
4.370667
 30
0.0
 40
0.25
  1
1.500
 41
0.75
 72
     4
 11
6.991
 21
4.495667
 31
0.0
100
AcDbText
  0
TEXT
  5
6C9
330
1E
100
AcDbEntity
  8
TEXT
100
AcDbText
 10
6.6785
 20
3.132583
 30
0.0
 40
0.25
  1
1.500
 41
0.75
 72
     4
 11
6.991
 21
3.257583
 31
0.0
100
AcDbText
  0
TEXT
  5
6CA
330
1E
100
AcDbEntity
  8
TEXT
100
AcDbText
 10
6.662875
 20
3.549249999999999
 30
0.0
 40
0.25
  1
0.900
 41
0.75
 72
     4
 11
6.991
 21
3.674249999999999
 31
0.0
100
AcDbText
  0
TEXT
  5
6CB
330
1E
100
AcDbEntity
  8
TEXT
100
AcDbText
 10
6.6785
 20
3.965917
 30
0.0
 40
0.25
  1
1.500
 41
0.75
 72
     4
 11
6.991
 21
4.090917
 31
0.0
100
AcDbText
  0
TEXT
  5
6CC
330
1E
100
AcDbEntity
  8
TEXT
100
AcDbText
 10
8.313399999999999
 20
2.7082
 30
0.0
 40
0.2496
  1
0.060
 41
0.75
 72
     4
 11
8.641
 21
2.833
 31
0.0
100
AcDbText
  0
TEXT
  5
6CD
330
1E
100
AcDbEntity
  8
TEXT
100
AcDbText
 10
9.963399999999998
 20
2.7082
 30
0.0
 40
0.2496
  1
1.072
 41
0.75
 72
     4
 11
10.29099999999999
 21
2.833
 31
0.0
100
AcDbText
  0
TEXT
  5
6CE
330
1E
100
AcDbEntity
  8
TEXT
100
AcDbText
 10
8.313399999999999
 20
2.292199999999999
 30
0.0
 40
0.2496
  1
0.070
 41
0.75
 72
     4
 11
8.641
 21
2.416999999999999
 31
0.0
100
AcDbText
  0
TEXT
  5
6CF
330
1E
100
AcDbEntity
  8
TEXT
100
AcDbText
 10
9.963399999999998
 20
2.292199999999999
 30
0.0
 40
0.2496
  1
4.105
 41
0.75
 72
     4
 11
10.29099999999999
 21
2.416999999999999
 31
0.0
100
AcDbText
  0
TEXT
  5
6D0
330
1E
100
AcDbEntity
  8
TEXT
100
AcDbText
 10
8.313399999999999
 20
3.9562
 30
0.0
 40
0.2496
  1
0.070
 41
0.75
 72
     4
 11
8.641
 21
4.081
 31
0.0
100
AcDbText
  0
TEXT
  5
6D1
330
1E
100
AcDbEntity
  8
TEXT
100
AcDbText
 10
8.313399999999999
 20
3.124199999999999
 30
0.0
 40
0.2496
  1
0.070
 41
0.75
 72
     4
 11
8.641
 21
3.248999999999999
 31
0.0
100
AcDbText
  0
TEXT
  5
6D2
330
1E
100
AcDbEntity
  8
TEXT
100
AcDbText
 10
8.313399999999999
 20
3.5402
 30
0.0
 40
0.2496
  1
0.070
 41
0.75
 72
     4
 11
8.641
 21
3.665
 31
0.0
100
AcDbText
  0
TEXT
  5
6D3
330
1E
100
AcDbEntity
  8
TEXT
100
AcDbText
 10
8.313399999999999
 20
4.3722
 30
0.0
 40
0.2496
  1
0.070
 41
0.75
 72
     4
 11
8.641
 21
4.496999999999999
 31
0.0
100
AcDbText
  0
TEXT
  5
6D4
330
1E
100
AcDbEntity
  8
TEXT
100
AcDbText
 10
8.313399999999999
 20
4.7882
 30
0.0
 40
0.2496
  1
0.070
 41
0.75
 72
     4
 11
8.641
 21
4.913
 31
0.0
100
AcDbText
  0
TEXT
  5
6D5
330
1E
100
AcDbEntity
  8
TEXT
100
AcDbText
 10
9.932199999999998
 20
3.9562
 30
0.0
 40
0.2496
  1
2.078
 41
0.75
 72
     4
 11
10.29099999999999
 21
4.081
 31
0.0
100
AcDbText
  0
TEXT
  5
6D6
330
1E
100
AcDbEntity
  8
TEXT
100
AcDbText
 10
9.932199999999998
 20
3.124199999999999
 30
0.0
 40
0.2496
  1
3.078
 41
0.75
 72
     4
 11
10.29099999999999
 21
3.248999999999999
 31
0.0
100
AcDbText
  0
TEXT
  5
6D7
330
1E
100
AcDbEntity
  8
TEXT
100
AcDbText
 10
9.932199999999998
 20
3.5402
 30
0.0
 40
0.2496
  1
3.078
 41
0.75
 72
     4
 11
10.29099999999999
 21
3.665
 31
0.0
100
AcDbText
  0
TEXT
  5
6D8
330
1E
100
AcDbEntity
  8
TEXT
100
AcDbText
 10
9.932199999999998
 20
4.3722
 30
0.0
 40
0.2496
  1
3.078
 41
0.75
 72
     4
 11
10.29099999999999
 21
4.496999999999999
 31
0.0
100
AcDbText
  0
TEXT
  5
6D9
330
1E
100
AcDbEntity
  8
TEXT
100
AcDbText
 10
9.932199999999998
 20
4.7882
 30
0.0
 40
0.2496
  1
2.052
 41
0.75
 72
     4
 11
10.29099999999999
 21
4.913
 31
0.0
100
AcDbText
  0
TEXT
  5
6DA
330
1E
100
AcDbEntity
  8
TEXT
100
AcDbText
 10
0.461928
 20
5.809383
 30
0.0
 40
0.25
  1
SHIPPED IN PACKAGES OF TEN (10).
 41
0.75
100
AcDbText
  0
TEXT
  5
6DB
330
1E
100
AcDbEntity
  8
TEXT
100
AcDbText
 10
11.87849999999999
 20
5.203999999999999
 30
0.0
 40
0.25
  1
F
 41
0.75
 72
     4
 11
11.94099999999999
 21
5.328999999999999
 31
0.0
100
AcDbText
  0
LINE
  5
6DC
330
1E
100
AcDbEntity
  8
TITLE
100
AcDbLine
 10
11.11599999999999
 20
5.540667
 30
0.0
 11
11.11599999999999
 21
0.124
 31
0.0
  0
LINE
  5
6DD
330
1E
100
AcDbEntity
  8
TITLE
100
AcDbLine
 10
16.066
 20
5.540667
 30
0.0
 11
16.066
 21
0.124
 31
0.0
  0
TEXT
  5
6DE
330
1E
100
AcDbEntity
  8
TEXT
100
AcDbText
 10
16.80974999999999
 20
5.203999999999999
 30
0.0
 40
0.25
  1
OPTIONAL COVER
 41
0.75
 72
     4
 11
18.09099999999999
 21
5.328999999999999
 31
0.0
100
AcDbText
  0
TEXT
  5
6DF
330
1E
100
AcDbEntity
  8
TEXT
100
AcDbText
 10
11.61339999999999
 20
2.7082
 30
0.0
 40
0.2496
  1
1.072
 41
0.75
 72
     4
 11
11.94099999999999
 21
2.833
 31
0.0
100
AcDbText
  0
TEXT
  5
6E0
330
1E
100
AcDbEntity
  8
TEXT
100
AcDbText
 10
11.58219999999999
 20
2.292199999999999
 30
0.0
 40
0.2496
  1
2.230
 41
0.75
 72
     4
 11
11.94099999999999
 21
2.416999999999999
 31
0.0
100
AcDbText
  0
TEXT
  5
6E1
330
1E
100
AcDbEntity
  8
TEXT
100
AcDbText
 10
11.58219999999999
 20
4.3722
 30
0.0
 40
0.2496
  1
2.078
 41
0.75
 72
     4
 11
11.94099999999999
 21
4.496999999999999
 31
0.0
100
AcDbText
  0
TEXT
  5
6E2
330
1E
100
AcDbEntity
  8
TEXT
100
AcDbText
 10
11.5978
 20
4.7882
 30
0.0
 40
0.2496
  1
1.552
 41
0.75
 72
     4
 11
11.94099999999999
 21
4.913
 31
0.0
100
AcDbText
  0
TEXT
  5
6E3
330
1E
100
AcDbEntity
  8
TEXT
100
AcDbText
 10
11.58219999999999
 20
3.124199999999999
 30
0.0
 40
0.2496
  1
3.078
 41
0.75
 72
     4
 11
11.94099999999999
 21
3.248999999999999
 31
0.0
100
AcDbText
  0
TEXT
  5
6E4
330
1E
100
AcDbEntity
  8
TEXT
100
AcDbText
 10
11.58219999999999
 20
3.5402
 30
0.0
 40
0.2496
  1
2.078
 41
0.75
 72
     4
 11
11.94099999999999
 21
3.665
 31
0.0
100
AcDbText
  0
TEXT
  5
6E5
330
1E
100
AcDbEntity
  8
TEXT
100
AcDbText
 10
11.58219999999999
 20
3.9562
 30
0.0
 40
0.2496
  1
2.078
 41
0.75
 72
     4
 11
11.94099999999999
 21
4.081
 31
0.0
100
AcDbText
  0
TEXT
  5
6E6
330
1E
100
AcDbEntity
  8
TEXT
100
AcDbText
 10
17.21739999999999
 20
2.716782999999999
 30
0.0
 40
0.2496
  1
PBC-1577-C
 41
0.75
 72
     4
 11
18.09099999999999
 21
2.841582999999999
 31
0.0
100
AcDbText
  0
TEXT
  5
6E7
330
1E
100
AcDbEntity
  8
TEXT
100
AcDbText
 10
17.21739999999999
 20
2.300783
 30
0.0
 40
0.2496
  1
PBC-1578-C
 41
0.75
 72
     4
 11
18.09099999999999
 21
2.425583
 31
0.0
100
AcDbText
  0
TEXT
  5
6E8
330
1E
100
AcDbEntity
  8
TEXT
100
AcDbText
 10
17.21599999999999
 20
3.132583
 30
0.0
 40
0.25
  1
PBC-1576-C
 41
0.75
 72
     4
 11
18.09099999999999
 21
3.257583
 31
0.0
100
AcDbText
  0
TEXT
  5
6E9
330
1E
100
AcDbEntity
  8
TEXT
100
AcDbText
 10
17.21599999999999
 20
3.549249999999999
 30
0.0
 40
0.25
  1
PBC-1575-C
 41
0.75
 72
     4
 11
18.09099999999999
 21
3.674249999999999
 31
0.0
100
AcDbText
  0
TEXT
  5
6EA
330
1E
100
AcDbEntity
  8
TEXT
100
AcDbText
 10
17.21599999999999
 20
3.965917
 30
0.0
 40
0.25
  1
PBC-1574-C
 41
0.75
 72
     4
 11
18.09099999999999
 21
4.090917
 31
0.0
100
AcDbText
  0
TEXT
  5
6EB
330
1E
100
AcDbEntity
  8
TEXT
100
AcDbText
 10
17.21599999999999
 20
4.382583
 30
0.0
 40
0.25
  1
PBC-1575-C
 41
0.75
 72
     4
 11
18.09099999999999
 21
4.507583
 31
0.0
100
AcDbText
  0
TEXT
  5
6EC
330
1E
100
AcDbEntity
  8
TEXT
100
AcDbText
 10
17.12224999999999
 20
4.799249999999999
 30
0.0
 40
0.25
  1
PBC-1558-CN
 41
0.75
 72
     4
 11
18.09099999999999
 21
4.924249999999999
 31
0.0
100
AcDbText
  0
TEXT
  5
6ED
330
1E
100
AcDbEntity
  8
TEXT
100
AcDbText
 10
0.461928
 20
7.105483
 30
0.0
 40
0.25
  1
ALL DIMENSIONS HAVE %%p0.010 TOLERANCE
 41
0.75
100
AcDbText
  0
LINE
  5
6EE
330
1E
100
AcDbEntity
  8
TITLE
100
AcDbLine
 10
0.124
 20
1.790666999999999
 30
0.0
 11
20.116
 21
1.790666999999999
 31
0.0
  0
TEXT
  5
6EF
330
1E
100
AcDbEntity
  8
TEXT
100
AcDbText
 10
17.21599999999999
 20
1.883916999999999
 30
0.0
 40
0.25
  1
PBC-1579-C
 41
0.75
 72
     4
 11
18.09099999999999
 21
2.008916999999999
 31
0.0
100
AcDbText
  0
TEXT
  5
6F0
330
1E
100
AcDbEntity
  8
TEXT
100
AcDbText
 10
17.23162499999999
 20
1.467249999999999
 30
0.0
 40
0.25
  1
PBC-1580-C
 41
0.75
 72
     4
 11
18.09099999999999
 21
1.592249999999999
 31
0.0
100
AcDbText
  0
TEXT
  5
6F1
330
1E
100
AcDbEntity
  8
TEXT
100
AcDbText
 10
0.9012500000000001
 20
1.882583
 30
0.0
 40
0.25
  1
PB-1579
 41
0.75
 72
     4
 11
1.495
 21
2.007583
 31
0.0
100
AcDbText
  0
TEXT
  5
6F2
330
1E
100
AcDbEntity
  8
TEXT
100
AcDbText
 10
0.9168750000000001
 20
1.465916999999999
 30
0.0
 40
0.25
  1
PB-1580
 41
0.75
 72
     4
 11
1.495
 21
1.590916999999999
 31
0.0
100
AcDbText
  0
TEXT
  5
6F3
330
1E
100
AcDbEntity
  8
TEXT
100
AcDbText
 10
3.3785
 20
1.883916999999999
 30
0.0
 40
0.25
  1
1.500
 41
0.75
 72
     4
 11
3.691
 21
2.008916999999999
 31
0.0
100
AcDbText
  0
TEXT
  5
6F4
330
1E
100
AcDbEntity
  8
TEXT
100
AcDbText
 10
3.362875
 20
1.467249999999999
 30
0.0
 40
0.25
  1
4.000
 41
0.75
 72
     4
 11
3.691
 21
1.592249999999999
 31
0.0
100
AcDbText
  0
TEXT
  5
6F5
330
1E
100
AcDbEntity
  8
TEXT
100
AcDbText
 10
5.012875
 20
1.883916999999999
 30
0.0
 40
0.25
  1
1.250
 41
0.75
 72
     4
 11
5.341
 21
2.008916999999999
 31
0.0
100
AcDbText
  0
TEXT
  5
6F6
330
1E
100
AcDbEntity
  8
TEXT
100
AcDbText
 10
5.012875
 20
1.467249999999999
 30
0.0
 40
0.25
  1
1.750
 41
0.75
 72
     4
 11
5.341
 21
1.592249999999999
 31
0.0
100
AcDbText
  0
TEXT
  5
6F7
330
1E
100
AcDbEntity
  8
TEXT
100
AcDbText
 10
6.662875
 20
1.883916999999999
 30
0.0
 40
0.25
  1
0.800
 41
0.75
 72
     4
 11
6.991
 21
2.008916999999999
 31
0.0
100
AcDbText
  0
TEXT
  5
6F8
330
1E
100
AcDbEntity
  8
TEXT
100
AcDbText
 10
6.694125
 20
1.467249999999999
 30
0.0
 40
0.25
  1
1.000
 41
0.75
 72
     4
 11
6.991
 21
1.592249999999999
 31
0.0
100
AcDbText
  0
TEXT
  5
6F9
330
1E
100
AcDbEntity
  8
TEXT
100
AcDbText
 10
8.312875
 20
1.875333
 30
0.0
 40
0.25
  1
0.070
 41
0.75
 72
     4
 11
8.641
 21
2.000333
 31
0.0
100
AcDbText
  0
TEXT
  5
6FA
330
1E
100
AcDbEntity
  8
TEXT
100
AcDbText
 10
8.312875
 20
1.458666999999999
 30
0.0
 40
0.25
  1
0.070
 41
0.75
 72
     4
 11
8.641
 21
1.583666999999999
 31
0.0
100
AcDbText
  0
TEXT
  5
6FB
330
1E
100
AcDbEntity
  8
TEXT
100
AcDbText
 10
9.947249999999998
 20
1.875333
 30
0.0
 40
0.25
  1
1.542
 41
0.75
 72
     4
 11
10.29099999999999
 21
2.000333
 31
0.0
100
AcDbText
  0
TEXT
  5
6FC
330
1E
100
AcDbEntity
  8
TEXT
100
AcDbText
 10
9.931624999999998
 20
1.458666999999999
 30
0.0
 40
0.25
  1
4.052
 41
0.75
 72
     4
 11
10.29099999999999
 21
1.583666999999999
 31
0.0
100
AcDbText
  0
TEXT
  5
6FD
330
1E
100
AcDbEntity
  8
TEXT
100
AcDbText
 10
11.59724999999999
 20
1.875333
 30
0.0
 40
0.25
  1
1.292
 41
0.75
 72
     4
 11
11.94099999999999
 21
2.000333
 31
0.0
100
AcDbText
  0
TEXT
  5
6FE
330
1E
100
AcDbEntity
  8
TEXT
100
AcDbText
 10
11.612875
 20
1.458666999999999
 30
0.0
 40
0.25
  1
1.802
 41
0.75
 72
     4
 11
11.94099999999999
 21
1.583666999999999
 31
0.0
100
AcDbText
  0
TEXT
  5
6FF
330
1E
100
AcDbEntity
  8
TEXT
100
AcDbText
 10
11.17368099999999
 20
15.600689
 30
0.0
 40
0.374
  1
PB-1558 & PB-1559 / PB-1574 TO PB-1583
 41
0.6428520335573767
 72
     5
 11
19.90918299999999
 21
15.600689
 31
0.0
100
AcDbText
  0
TEXT
  5
700
330
1E
100
AcDbEntity
  8
TEXT
100
AcDbText
 10
14.52195899999999
 20
22.59393251222283
 30
0.0
 40
0.25
  1
UNLESS OTHERWISE SPECIFIED
 41
0.75
100
AcDbText
  0
TEXT
  5
701
330
1E
100
AcDbEntity
  8
TEXT
100
AcDbText
 10
0.461928
 20
6.700733
 30
0.0
 40
0.25
  1
UNLESS OTHERWISE SPECIFIED
 41
0.75
100
AcDbText
  0
TEXT
  5
702
330
1E
100
AcDbEntity
  8
TEXT
100
AcDbText
 10
14.470588
 20
23.81963751222282
 30
0.0
 40
0.25
  1
x 0.250" LG.  (NOT SUPPLIED)
 41
0.75
100
AcDbText
  0
LINE
  5
703
330
1E
100
AcDbEntity
  8
TITLE
100
AcDbLine
 10
0.124
 20
2.207333
 30
0.0
 11
20.116
 21
2.207333
 31
0.0
  0
LINE
  5
704
330
1E
100
AcDbEntity
  8
TITLE
100
AcDbLine
 10
0.124
 20
2.623999999999999
 30
0.0
 11
20.116
 21
2.623999999999999
 31
0.0
  0
LINE
  5
705
330
1E
100
AcDbEntity
  8
TITLE
100
AcDbLine
 10
0.124
 20
3.873999999999999
 30
0.0
 11
20.116
 21
3.873999999999999
 31
0.0
  0
LINE
  5
706
330
1E
100
AcDbEntity
  8
TITLE
100
AcDbLine
 10
0.124
 20
3.457333
 30
0.0
 11
20.116
 21
3.457333
 31
0.0
  0
LINE
  5
707
330
1E
100
AcDbEntity
  8
TITLE
100
AcDbLine
 10
0.124
 20
3.040667
 30
0.0
 11
20.116
 21
3.040667
 31
0.0
  0
LINE
  5
708
330
1E
100
AcDbEntity
  8
TITLE
100
AcDbLine
 10
0.124
 20
4.707333
 30
0.0
 11
20.116
 21
4.707333
 31
0.0
  0
LINE
  5
709
330
1E
100
AcDbEntity
  8
TITLE
100
AcDbLine
 10
0.124
 20
5.123999999999999
 30
0.0
 11
20.116
 21
5.123999999999999
 31
0.0
  0
LINE
  5
70A
330
1E
100
AcDbEntity
  8
TITLE
100
AcDbLine
 10
0.124
 20
5.540667
 30
0.0
 11
20.116
 21
5.540667
 31
0.0
  0
LINE
  5
70B
330
1E
100
AcDbEntity
  8
TITLE
100
AcDbLine
 10
0.124
 20
4.290667
 30
0.0
 11
20.116
 21
4.290667
 31
0.0
  0
LINE
  5
70C
330
1E
100
AcDbEntity
  8
TITLE
100
AcDbLine
 10
0.124
 20
1.374
 30
0.0
 11
20.116
 21
1.374
 31
0.0
  0
LINE
  5
70D
330
1E
100
AcDbEntity
  8
TITLE
100
AcDbLine
 10
0.124
 20
0.957333
 30
0.0
 11
20.116
 21
0.957333
 31
0.0
  0
TEXT
  5
70E
330
1E
100
AcDbEntity
  8
TEXT
100
AcDbText
 10
3.331625
 20
1.050583
 30
0.0
 40
0.25
  1
2.079
 41
0.75
 72
     4
 11
3.691
 21
1.175583
 31
0.0
100
AcDbText
  0
TEXT
  5
70F
330
1E
100
AcDbEntity
  8
TEXT
100
AcDbText
 10
0.9325000000000001
 20
1.04925
 30
0.0
 40
0.25
  1
PB-1581
 41
0.75
 72
     4
 11
1.495
 21
1.17425
 31
0.0
100
AcDbText
  0
TEXT
  5
710
330
1E
100
AcDbEntity
  8
TEXT
100
AcDbText
 10
5.012875
 20
1.050583
 30
0.0
 40
0.25
  1
1.280
 41
0.75
 72
     4
 11
5.341
 21
1.175583
 31
0.0
100
AcDbText
  0
TEXT
  5
711
330
1E
100
AcDbEntity
  8
TEXT
100
AcDbText
 10
6.631625
 20
1.050583
 30
0.0
 40
0.25
  1
0.445
 41
0.75
 72
     4
 11
6.991
 21
1.175583
 31
0.0
100
AcDbText
  0
TEXT
  5
712
330
1E
100
AcDbEntity
  8
TEXT
100
AcDbText
 10
8.312875
 20
1.042
 30
0.0
 40
0.25
  1
0.070
 41
0.75
 72
     4
 11
8.641
 21
1.167
 31
0.0
100
AcDbText
  0
TEXT
  5
713
330
1E
100
AcDbEntity
  8
TEXT
100
AcDbText
 10
9.931624999999998
 20
1.042
 30
0.0
 40
0.25
  1
2.097
 41
0.75
 72
     4
 11
10.29099999999999
 21
1.167
 31
0.0
100
AcDbText
  0
TEXT
  5
714
330
1E
100
AcDbEntity
  8
TEXT
100
AcDbText
 10
11.62849999999999
 20
1.042
 30
0.0
 40
0.25
  1
1.300
 41
0.75
 72
     4
 11
11.94099999999999
 21
1.167
 31
0.0
100
AcDbText
  0
TEXT
  5
715
330
1E
100
AcDbEntity
  8
TEXT
100
AcDbText
 10
17.24724999999999
 20
1.050583
 30
0.0
 40
0.25
  1
PBC-1581-C
 41
0.75
 72
     4
 11
18.09099999999999
 21
1.175583
 31
0.0
100
AcDbText
  0
TEXT
  5
716
330
1E
100
AcDbEntity
  8
TEXT
100
AcDbText
 10
3.3322
 20
0.6341169999999999
 30
0.0
 40
0.2496
  1
4.063
 41
0.75
 72
     4
 11
3.691
 21
0.758917
 31
0.0
100
AcDbText
  0
TEXT
  5
717
330
1E
100
AcDbEntity
  8
TEXT
100
AcDbText
 10
0.9022000000000002
 20
0.6327830000000001
 30
0.0
 40
0.2496
  1
PB-1582
 41
0.75
 72
     4
 11
1.495
 21
0.757583
 31
0.0
100
AcDbText
  0
TEXT
  5
718
330
1E
100
AcDbEntity
  8
TEXT
100
AcDbText
 10
4.997799999999999
 20
0.634117
 30
0.0
 40
0.2496
  1
2.188
 41
0.75
 72
     4
 11
5.341
 21
0.758917
 31
0.0
100
AcDbText
  0
TEXT
  5
719
330
1E
100
AcDbEntity
  8
TEXT
100
AcDbText
 10
6.6634
 20
0.6341169999999999
 30
0.0
 40
0.2496
  1
0.900
 41
0.75
 72
     4
 11
6.991
 21
0.758917
 31
0.0
100
AcDbText
  0
TEXT
  5
71A
330
1E
100
AcDbEntity
  8
TEXT
100
AcDbText
 10
8.313399999999999
 20
0.625533
 30
0.0
 40
0.2496
  1
0.070
 41
0.75
 72
     4
 11
8.641
 21
0.750333
 31
0.0
100
AcDbText
  0
TEXT
  5
71B
330
1E
100
AcDbEntity
  8
TEXT
100
AcDbText
 10
9.963399999999998
 20
0.625533
 30
0.0
 40
0.2496
  1
4.105
 41
0.75
 72
     4
 11
10.29099999999999
 21
0.750333
 31
0.0
100
AcDbText
  0
TEXT
  5
71C
330
1E
100
AcDbEntity
  8
TEXT
100
AcDbText
 10
11.58219999999999
 20
0.6255330000000001
 30
0.0
 40
0.2496
  1
2.230
 41
0.75
 72
     4
 11
11.94099999999999
 21
0.750333
 31
0.0
100
AcDbText
  0
TEXT
  5
71D
330
1E
100
AcDbEntity
  8
TEXT
100
AcDbText
 10
17.21739999999999
 20
0.6341169999999999
 30
0.0
 40
0.2496
  1
PBC-1578-C
 41
0.75
 72
     4
 11
18.09099999999999
 21
0.758917
 31
0.0
100
AcDbText
  0
LINE
  5
71E
330
1E
100
AcDbEntity
  8
TITLE
100
AcDbLine
 10
0.124
 20
0.540667
 30
0.0
 11
20.116
 21
0.540667
 31
0.0
  0
TEXT
  5
71F
330
1E
100
AcDbEntity
  8
TEXT
100
AcDbText
 10
8.344125
 20
0.208667
 30
0.0
 40
0.25
  1
0.100
 41
0.75
 72
     4
 11
8.641
 21
0.333667
 31
0.0
100
AcDbText
  0
TEXT
  5
720
330
1E
100
AcDbEntity
  8
TEXT
100
AcDbText
 10
0.9012500000000001
 20
0.215917
 30
0.0
 40
0.25
  1
PB-1583
 41
0.75
 72
     4
 11
1.495
 21
0.340917
 31
0.0
100
AcDbText
  0
TEXT
  5
721
330
1E
100
AcDbEntity
  8
TEXT
100
AcDbText
 10
3.316
 20
0.21725
 30
0.0
 40
0.25
  1
4.375
 41
0.75
 72
     4
 11
3.691
 21
0.34225
 31
0.0
100
AcDbText
  0
TEXT
  5
722
330
1E
100
AcDbEntity
  8
TEXT
100
AcDbText
 10
4.99725
 20
0.21725
 30
0.0
 40
0.25
  1
3.125
 41
0.75
 72
     4
 11
5.341
 21
0.34225
 31
0.0
100
AcDbText
  0
TEXT
  5
723
330
1E
100
AcDbEntity
  8
TEXT
100
AcDbText
 10
6.662875
 20
0.21725
 30
0.0
 40
0.25
  1
2.000
 41
0.75
 72
     4
 11
6.991
 21
0.34225
 31
0.0
100
AcDbText
  0
TEXT
  5
724
330
1E
100
AcDbEntity
  8
TEXT
100
AcDbText
 10
11.56599999999999
 20
0.208667
 30
0.0
 40
0.25
  1
3.223
 41
0.75
 72
     4
 11
11.94099999999999
 21
0.333667
 31
0.0
100
AcDbText
  0
TEXT
  5
725
330
1E
100
AcDbEntity
  8
TEXT
100
AcDbText
 10
9.915999999999998
 20
0.208667
 30
0.0
 40
0.25
  1
4.473
 41
0.75
 72
     4
 11
10.29099999999999
 21
0.333667
 31
0.0
100
AcDbText
  0
TEXT
  5
726
330
1E
100
AcDbEntity
  8
TEXT
100
AcDbText
 10
17.21599999999999
 20
0.21725
 30
0.0
 40
0.25
  1
PBC-1583-C
 41
0.75
 72
     4
 11
18.09099999999999
 21
0.34225
 31
0.0
100
AcDbText
  0
TEXT
  5
727
330
1E
100
AcDbEntity
  8
TEXT
100
AcDbText
 10
0.461928
 20
10.626121
 30
0.0
 40
0.2496
  1
REDUCES INSIDE HEIGHT BY 0.110.
 41
0.75
100
AcDbText
  0
LWPOLYLINE
  5
728
330
1E
100
AcDbEntity
  8
OBJECT
100
AcDbPolyline
 90
        8
 70
     1
 43
0.0
 10
18.81415
 20
5.953289999999999
 10
15.00215
 20
5.953289999999999
 42
-0.4142140000000001
 10
14.90815
 20
6.04729
 10
14.90815
 20
7.984289999999999
 42
-0.4142140000000001
 10
15.00215
 20
8.078289999999999
 10
18.81415
 20
8.078289999999999
 42
-0.4142140000000001
 10
18.90814999999999
 20
7.984289999999999
 10
18.90814999999999
 20
6.04729
 42
-0.4142140000000001
  0
LINE
  5
732
330
1E
100
AcDbEntity
  8
OBJECT
100
AcDbLine
 10
14.949778
 20
5.900789999999999
 30
0.0
 11
18.866522
 21
5.900789999999999
 31
0.0
  0
LINE
  5
733
330
1E
100
AcDbEntity
  8
OBJECT
100
AcDbLine
 10
18.866522
 20
8.130289999999998
 30
0.0
 11
14.949778
 21
8.130289999999998
 31
0.0
  0
LWPOLYLINE
  5
734
330
1E
100
AcDbEntity
  8
OBJECT
100
AcDbPolyline
 90
        4
 70
     1
 43
0.0
 10
15.01314999999999
 20
7.968789999999999
 10
15.01314999999999
 20
6.06279
 10
18.80314999999999
 20
6.06279
 10
18.80314999999999
 20
7.968789999999999
  0
LWPOLYLINE
  5
73A
330
1E
100
AcDbEntity
  8
OBJECT
100
AcDbPolyline
 90
        4
 70
     1
 43
0.0
 10
15.04415
 20
7.937789999999999
 10
15.04415
 20
6.09379
 10
18.77214999999999
 20
6.09379
 10
18.77214999999999
 20
7.937789999999999
  0
LINE
  5
740
330
1E
100
AcDbEntity
  8
OBJECT
100
AcDbLine
 10
14.85577799999999
 20
8.036289999999999
 30
0.0
 11
14.85577799999999
 21
5.99479
 31
0.0
  0
ARC
  5
741
330
1E
100
AcDbEntity
  8
OBJECT
100
AcDbCircle
 10
14.949778
 20
5.99479
 30
0.0
 40
0.094
100
AcDbArc
 50
180.0
 51
270.0
  0
ARC
  5
742
330
1E
100
AcDbEntity
  8
OBJECT
100
AcDbCircle
 10
14.949778
 20
8.036289999999999
 30
0.0
 40
0.094
100
AcDbArc
 50
90.0
 51
180.0
  0
LINE
  5
743
330
1E
100
AcDbEntity
  8
OBJECT
100
AcDbLine
 10
18.960522
 20
5.99479
 30
0.0
 11
18.960522
 21
8.036289999999999
 31
0.0
  0
ARC
  5
744
330
1E
100
AcDbEntity
  8
OBJECT
100
AcDbCircle
 10
18.866522
 20
5.99479
 30
0.0
 40
0.094
100
AcDbArc
 50
270.0
 51
0.0
  0
TEXT
  5
745
330
1E
100
AcDbEntity
  8
DIM
100
AcDbText
 10
11.99484999999999
 20
6.366794
 30
0.0
 40
0.25
  1
INSERT AREA
 41
0.75
 72
     2
 11
13.93234999999999
 21
6.491794
 31
0.0
100
AcDbText
 73
     2
  0
LWPOLYLINE
  5
746
330
1E
100
AcDbEntity
  8
DIM
100
AcDbPolyline
 90
        4
 70
     0
 10
15.648153
 20
7.472982
 40
0.0
 41
0.135
 10
15.37175
 20
7.242327999999999
 40
0.0
 41
0.0
 10
14.47235
 20
6.491794
 40
0.0
 41
0.0
 10
14.11235
 20
6.491794
 40
0.0
 41
0.0
  0
ARC
  5
74C
330
1E
100
AcDbEntity
  8
OBJECT
100
AcDbCircle
 10
18.866522
 20
8.036289999999999
 30
0.0
 40
0.094
100
AcDbArc
 50
0.0
 51
90.0
  0
DIMENSION
  5
74D
330
1E
100
AcDbEntity
  8
DIM
100
AcDbDimension
  2
*D38
 10
19.541979
 20
6.06279
 30
0.0
 11
19.541979
 21
7.015790000000003
 31
0.0
 70
    32
  1
H
 71
     5
 42
1.905999999999998
  3
23NSTD
100
AcDbAlignedDimension
 13
18.80314999999999
 23
7.968789999999999
 33
0.0
 14
18.80314999999999
 24
6.06279
 34
0.0
 50
270.0
100
AcDbRotatedDimension
  0
DIMENSION
  5
75B
330
1E
100
AcDbEntity
  8
DIM
100
AcDbDimension
  2
*D39
 10
18.80314999999999
 20
8.550307
 30
0.0
 11
16.90814999999999
 21
8.550307
 31
0.0
 70
    32
  1
G
 71
     5
 42
3.789999999999999
  3
23NSTD
100
AcDbAlignedDimension
 13
15.01314999999999
 23
7.968789999999999
 33
0.0
 14
18.80314999999999
 24
7.968789999999999
 34
0.0
100
AcDbRotatedDimension
  0
LINE
  5
769
330
1E
100
AcDbEntity
  8
TITLE
100
AcDbLine
 10
12.76599999999999
 20
5.540667
 30
0.0
 11
12.76599999999999
 21
0.124
 31
0.0
  0
LINE
  5
76A
330
1E
100
AcDbEntity
  8
TITLE
100
AcDbLine
 10
14.416
 20
5.540667
 30
0.0
 11
14.416
 21
0.124
 31
0.0
  0
TEXT
  5
76B
330
1E
100
AcDbEntity
  8
TEXT
100
AcDbText
 10
13.1542
 20
0.625533
 30
0.0
 40
0.2496
  1
-----
 41
0.75
 72
     4
 11
13.59099999999999
 21
0.750333
 31
0.0
100
AcDbText
  0
TEXT
  5
76C
330
1E
100
AcDbEntity
  8
TEXT
100
AcDbText
 10
13.216
 20
0.208667
 30
0.0
 40
0.25
  1
3.974
 41
0.75
 72
     4
 11
13.59099999999999
 21
0.333667
 31
0.0
100
AcDbText
  0
TEXT
  5
76D
330
1E
100
AcDbEntity
  8
TEXT
100
AcDbText
 10
13.1542
 20
4.7882
 30
0.0
 40
0.2496
  1
-----
 41
0.75
 72
     4
 11
13.59099999999999
 21
4.913
 31
0.0
100
AcDbText
  0
TEXT
  5
76E
330
1E
100
AcDbEntity
  8
TEXT
100
AcDbText
 10
13.1542
 20
4.3722
 30
0.0
 40
0.2496
  1
-----
 41
0.75
 72
     4
 11
13.59099999999999
 21
4.496999999999999
 31
0.0
100
AcDbText
  0
TEXT
  5
76F
330
1E
100
AcDbEntity
  8
TEXT
100
AcDbText
 10
13.1542
 20
3.5402
 30
0.0
 40
0.2496
  1
-----
 41
0.75
 72
     4
 11
13.59099999999999
 21
3.665
 31
0.0
100
AcDbText
  0
TEXT
  5
770
330
1E
100
AcDbEntity
  8
TEXT
100
AcDbText
 10
13.1542
 20
3.9562
 30
0.0
 40
0.2496
  1
-----
 41
0.75
 72
     4
 11
13.59099999999999
 21
4.081
 31
0.0
100
AcDbText
  0
TEXT
  5
771
330
1E
100
AcDbEntity
  8
TEXT
100
AcDbText
 10
13.2322
 20
2.292199999999999
 30
0.0
 40
0.2496
  1
3.790
 41
0.75
 72
     4
 11
13.59099999999999
 21
2.416999999999999
 31
0.0
100
AcDbText
  0
TEXT
  5
772
330
1E
100
AcDbEntity
  8
TEXT
100
AcDbText
 10
13.1542
 20
2.7082
 30
0.0
 40
0.2496
  1
-----
 41
0.75
 72
     4
 11
13.59099999999999
 21
2.833
 31
0.0
100
AcDbText
  0
TEXT
  5
773
330
1E
100
AcDbEntity
  8
TEXT
100
AcDbText
 10
13.1535
 20
1.042
 30
0.0
 40
0.25
  1
-----
 41
0.75
 72
     4
 11
13.59099999999999
 21
1.167
 31
0.0
100
AcDbText
  0
TEXT
  5
774
330
1E
100
AcDbEntity
  8
TEXT
100
AcDbText
 10
13.1535
 20
1.458666999999999
 30
0.0
 40
0.25
  1
-----
 41
0.75
 72
     4
 11
13.59099999999999
 21
1.583666999999999
 31
0.0
100
AcDbText
  0
TEXT
  5
775
330
1E
100
AcDbEntity
  8
TEXT
100
AcDbText
 10
13.1535
 20
1.875333
 30
0.0
 40
0.25
  1
-----
 41
0.75
 72
     4
 11
13.59099999999999
 21
2.000333
 31
0.0
100
AcDbText
  0
TEXT
  5
776
330
1E
100
AcDbEntity
  8
TEXT
100
AcDbText
 10
13.1542
 20
3.124199999999999
 30
0.0
 40
0.2496
  1
-----
 41
0.75
 72
     4
 11
13.59099999999999
 21
3.248999999999999
 31
0.0
100
AcDbText
  0
TEXT
  5
777
330
1E
100
AcDbEntity
  8
TEXT
100
AcDbText
 10
13.5285
 20
5.203999999999999
 30
0.0
 40
0.25
  1
G
 41
0.75
 72
     4
 11
13.59099999999999
 21
5.328999999999999
 31
0.0
100
AcDbText
  0
TEXT
  5
778
330
1E
100
AcDbEntity
  8
TEXT
100
AcDbText
 10
14.8042
 20
0.625533
 30
0.0
 40
0.2496
  1
-----
 41
0.75
 72
     4
 11
15.24099999999999
 21
0.750333
 31
0.0
100
AcDbText
  0
TEXT
  5
779
330
1E
100
AcDbEntity
  8
TEXT
100
AcDbText
 10
14.866
 20
0.208667
 30
0.0
 40
0.25
  1
2.723
 41
0.75
 72
     4
 11
15.24099999999999
 21
0.333667
 31
0.0
100
AcDbText
  0
TEXT
  5
77A
330
1E
100
AcDbEntity
  8
TEXT
100
AcDbText
 10
14.8042
 20
3.124199999999999
 30
0.0
 40
0.2496
  1
-----
 41
0.75
 72
     4
 11
15.24099999999999
 21
3.248999999999999
 31
0.0
100
AcDbText
  0
TEXT
  5
77B
330
1E
100
AcDbEntity
  8
TEXT
100
AcDbText
 10
14.8035
 20
1.875333
 30
0.0
 40
0.25
  1
-----
 41
0.75
 72
     4
 11
15.24099999999999
 21
2.000333
 31
0.0
100
AcDbText
  0
TEXT
  5
77C
330
1E
100
AcDbEntity
  8
TEXT
100
AcDbText
 10
14.8035
 20
1.458666999999999
 30
0.0
 40
0.25
  1
-----
 41
0.75
 72
     4
 11
15.24099999999999
 21
1.583666999999999
 31
0.0
100
AcDbText
  0
TEXT
  5
77D
330
1E
100
AcDbEntity
  8
TEXT
100
AcDbText
 10
14.8035
 20
1.042
 30
0.0
 40
0.25
  1
-----
 41
0.75
 72
     4
 11
15.24099999999999
 21
1.167
 31
0.0
100
AcDbText
  0
TEXT
  5
77E
330
1E
100
AcDbEntity
  8
TEXT
100
AcDbText
 10
14.8042
 20
2.7082
 30
0.0
 40
0.2496
  1
-----
 41
0.75
 72
     4
 11
15.24099999999999
 21
2.833
 31
0.0
100
AcDbText
  0
TEXT
  5
77F
330
1E
100
AcDbEntity
  8
TEXT
100
AcDbText
 10
14.9134
 20
2.292199999999999
 30
0.0
 40
0.2496
  1
1.906
 41
0.75
 72
     4
 11
15.24099999999999
 21
2.416999999999999
 31
0.0
100
AcDbText
  0
TEXT
  5
780
330
1E
100
AcDbEntity
  8
TEXT
100
AcDbText
 10
14.8042
 20
3.9562
 30
0.0
 40
0.2496
  1
-----
 41
0.75
 72
     4
 11
15.24099999999999
 21
4.081
 31
0.0
100
AcDbText
  0
TEXT
  5
781
330
1E
100
AcDbEntity
  8
TEXT
100
AcDbText
 10
14.8042
 20
3.5402
 30
0.0
 40
0.2496
  1
-----
 41
0.75
 72
     4
 11
15.24099999999999
 21
3.665
 31
0.0
100
AcDbText
  0
TEXT
  5
782
330
1E
100
AcDbEntity
  8
TEXT
100
AcDbText
 10
14.8042
 20
4.3722
 30
0.0
 40
0.2496
  1
-----
 41
0.75
 72
     4
 11
15.24099999999999
 21
4.496999999999999
 31
0.0
100
AcDbText
  0
TEXT
  5
783
330
1E
100
AcDbEntity
  8
TEXT
100
AcDbText
 10
14.8042
 20
4.7882
 30
0.0
 40
0.2496
  1
-----
 41
0.75
 72
     4
 11
15.24099999999999
 21
4.913
 31
0.0
100
AcDbText
  0
TEXT
  5
784
330
1E
100
AcDbEntity
  8
TEXT
100
AcDbText
 10
15.1785
 20
5.203999999999999
 30
0.0
 40
0.25
  1
H
 41
0.75
 72
     4
 11
15.24099999999999
 21
5.328999999999999
 31
0.0
100
AcDbText
  0
DIMENSION
  5
A78
330
1E
100
AcDbEntity
  8
OBJECT
100
AcDbDimension
  2
*D41
 10
9.97433
 20
25.77674612862946
 30
0.0
 11
6.78633
 21
25.77674612862946
 31
0.0
 70
    32
 71
     5
 42
6.375999999999999
  3
23NSTD
100
AcDbAlignedDimension
 13
3.59833
 23
25.49542
 33
0.0
 14
9.97433
 24
25.49542
 34
0.0
100
AcDbRotatedDimension
  0
DIMENSION
  5
A90
330
1E
100
AcDbEntity
  8
OBJECT
100
AcDbDimension
  2
*D42
 10
10.10433
 20
23.92740873453356
 30
0.0
 11
6.786330000000001
 21
23.92740873453356
 31
0.0
 70
    32
 71
     5
 42
6.636000000000001
  3
23NSTD
100
AcDbAlignedDimension
 13
3.46833
 23
23.34442
 33
0.0
 14
10.10433
 24
23.34442
 34
0.0
100
AcDbRotatedDimension
  0
TEXT
  5
AA0
330
1E
100
AcDbEntity
  8
TEXT
100
AcDbText
 10
14.483321
 20
28.61464145300434
 30
0.0
 40
0.25
  1
POLYSTYRENE (UL94-HB)
 41
0.75
100
AcDbText
  0
ENDSEC
  0
SECTION
  2
OBJECTS
  0
DICTIONARY
  5
C
330
0
100
AcDbDictionary
281
     1
  3
ACAD_GROUP
350
D
  3
ACAD_LAYOUT
350
19
  3
ACAD_MLINESTYLE
350
16
  3
ACAD_PLOTSETTINGS
350
18
  3
ACAD_PLOTSTYLENAME
350
E
  0
DICTIONARY
  5
D
102
{ACAD_REACTORS
330
C
102
}
330
C
100
AcDbDictionary
281
     1
  0
DICTIONARY
  5
19
102
{ACAD_REACTORS
330
C
102
}
330
C
100
AcDbDictionary
281
     1
  3
Layout1
350
1D
  3
Model
350
21
  0
DICTIONARY
  5
16
102
{ACAD_REACTORS
330
C
102
}
330
C
100
AcDbDictionary
281
     1
  3
Standard
350
17
  0
DICTIONARY
  5
18
102
{ACAD_REACTORS
330
C
102
}
330
C
100
AcDbDictionary
281
     1
  0
ACDBDICTIONARYWDFLT
  5
E
102
{ACAD_REACTORS
330
C
102
}
330
C
100
AcDbDictionary
281
     1
  3
Normal
350
F
100
AcDbDictionaryWithDefault
340
F
  0
LAYOUT
  5
1D
102
{ACAD_REACTORS
330
19
102
}
330
19
100
AcDbPlotSettings
  1

  2
None
  4

  6

 40
0.0
 41
0.0
 42
0.0
 43
0.0
 44
0.0
 45
0.0
 46
0.0
 47
0.0
 48
0.0
 49
0.0
140
0.0
141
0.0
142
1.0
143
1.0
 70
   688
 72
     0
 73
     0
 74
     5
  7
monochrome.ctb
 75
    16
147
1.0
148
0.0
149
0.0
100
AcDbLayout
  1
Layout1
 70
     0
 71
     1
 10
0.0
 20
0.0
 11
12.0
 21
9.0
 12
0.0
 22
0.0
 32
0.0
 14
1.000000000000000E+20
 24
1.000000000000000E+20
 34
1.000000000000000E+20
 15
-1.000000000000000E+20
 25
-1.000000000000000E+20
 35
-1.000000000000000E+20
146
0.0
 13
0.0
 23
0.0
 33
0.0
 16
1.0
 26
0.0
 36
0.0
 17
0.0
 27
1.0
 37
0.0
 76
     0
330
1A
  0
LAYOUT
  5
21
102
{ACAD_REACTORS
330
19
102
}
330
19
100
AcDbPlotSettings
  1

  2
none_device
  4
Letter_(8.50_x_11.00_Inches)
  6

 40
6.349999904632568
 41
6.349999904632568
 42
6.350006103515625
 43
6.350006103515625
 44
215.8999938964843
 45
279.3999938964843
 46
0.0
 47
0.0
 48
0.0
 49
0.0
140
0.0
141
0.0
142
1.0
143
1.0
 70
 11952
 72
     0
 73
     1
 74
     0
  7

 75
     0
147
1.0
148
140.649430207733
149
3.985537487492618
100
AcDbLayout
  1
Model
 70
     1
 71
     0
 10
0.0
 20
0.0
 11
12.0
 21
9.0
 12
0.0
 22
0.0
 32
0.0
 14
0.0
 24
0.0
 34
0.0
 15
0.0
 25
0.0
 35
0.0
146
0.0
 13
0.0
 23
0.0
 33
0.0
 16
1.0
 26
0.0
 36
0.0
 17
0.0
 27
1.0
 37
0.0
 76
     0
330
1E
  0
MLINESTYLE
  5
17
102
{ACAD_REACTORS
330
16
102
}
330
16
100
AcDbMlineStyle
  2
STANDARD
 70
     0
  3

 62
   256
 51
90.0
 52
90.0
 71
     2
 49
0.5
 62
   256
  6
BYLAYER
 49
-0.5
 62
   256
  6
BYLAYER
  0
ACDBPLACEHOLDER
  5
F
102
{ACAD_REACTORS
330
E
102
}
330
E
  0
ENDSEC
  0
EOF
