  0
SECTION
  2
HEADER
  9
$ACADVER
  1
AC1015
  9
$ACADMAINTVER
 70
     6
  9
$DWGCODEPAGE
  3
ANSI_1252
  9
$INSBASE
 10
0.0
 20
0.0
 30
0.0
  9
$EXTMIN
 10
0.0
 20
0.0
 30
-0.00000001
  9
$EXTMAX
 10
41.49999999999998
 20
25.82
 30
0.00000001
  9
$LIMMIN
 10
0.0
 20
0.0
  9
$LIMMAX
 10
38.75
 20
25.3
  9
$ORTHOMODE
 70
     1
  9
$REGENMODE
 70
     1
  9
$FILLMODE
 70
     1
  9
$QTEXTMODE
 70
     0
  9
$MIRRTEXT
 70
     0
  9
$LTSCALE
 40
0.75
  9
$ATTMODE
 70
     1
  9
$TEXTSIZE
 40
0.18
  9
$TRACEWID
 40
0.05
  9
$TEXTSTYLE
  7
TXT
  9
$CLAYER
  8
OBJECT
  9
$CELTYPE
  6
ByLayer
  9
$CECOLOR
 62
   256
  9
$CELTSCALE
 40
1.0
  9
$DISPSILH
 70
     0
  9
$DIMSCALE
 40
2.5
  9
$DIMASZ
 40
0.18
  9
$DIMEXO
 40
0.063
  9
$DIMDLI
 40
0.281
  9
$DIMRND
 40
0.0
  9
$DIMDLE
 40
0.0
  9
$DIMEXE
 40
0.093
  9
$DIMTP
 40
0.0
  9
$DIMTM
 40
0.0
  9
$DIMTXT
 40
0.125
  9
$DIMCEN
 40
0.09
  9
$DIMTSZ
 40
0.0
  9
$DIMTOL
 70
     0
  9
$DIMLIM
 70
     0
  9
$DIMTIH
 70
     1
  9
$DIMTOH
 70
     1
  9
$DIMSE1
 70
     0
  9
$DIMSE2
 70
     0
  9
$DIMTAD
 70
     0
  9
$DIMZIN
 70
     0
  9
$DIMBLK
  1

  9
$DIMASO
 70
     1
  9
$DIMSHO
 70
     1
  9
$DIMPOST
  1

  9
$DIMAPOST
  1

  9
$DIMALT
 70
     0
  9
$DIMALTD
 70
     2
  9
$DIMALTF
 40
25.4
  9
$DIMLFAC
 40
1.0
  9
$DIMTOFL
 70
     0
  9
$DIMTVP
 40
0.0
  9
$DIMTIX
 70
     0
  9
$DIMSOXD
 70
     0
  9
$DIMSAH
 70
     0
  9
$DIMBLK1
  1

  9
$DIMBLK2
  1

  9
$DIMSTYLE
  2
23NSTD
  9
$DIMCLRD
 70
     0
  9
$DIMCLRE
 70
     0
  9
$DIMCLRT
 70
     0
  9
$DIMTFAC
 40
1.0
  9
$DIMGAP
 40
0.09
  9
$DIMJUST
 70
     0
  9
$DIMSD1
 70
     0
  9
$DIMSD2
 70
     0
  9
$DIMTOLJ
 70
     1
  9
$DIMTZIN
 70
     0
  9
$DIMALTZ
 70
     0
  9
$DIMALTTZ
 70
     0
  9
$DIMUPT
 70
     0
  9
$DIMDEC
 70
     3
  9
$DIMTDEC
 70
     3
  9
$DIMALTU
 70
     2
  9
$DIMALTTD
 70
     2
  9
$DIMTXSTY
  7
TXT
  9
$DIMAUNIT
 70
     0
  9
$DIMADEC
 70
     0
  9
$DIMALTRND
 40
0.0
  9
$DIMAZIN
 70
     0
  9
$DIMDSEP
 70
    46
  9
$DIMATFIT
 70
     1
  9
$DIMFRAC
 70
     0
  9
$DIMLDRBLK
  1

  9
$DIMLUNIT
 70
     2
  9
$DIMLWD
 70
    -2
  9
$DIMLWE
 70
    -2
  9
$DIMTMOVE
 70
     0
  9
$LUNITS
 70
     2
  9
$LUPREC
 70
     3
  9
$SKETCHINC
 40
0.1
  9
$FILLETRAD
 40
0.0
  9
$AUNITS
 70
     0
  9
$AUPREC
 70
     0
  9
$MENU
  1
acad
  9
$ELEVATION
 40
0.0
  9
$PELEVATION
 40
0.0
  9
$THICKNESS
 40
0.0
  9
$LIMCHECK
 70
     0
  9
$CHAMFERA
 40
0.0
  9
$CHAMFERB
 40
0.0
  9
$CHAMFERC
 40
0.0
  9
$CHAMFERD
 40
0.0
  9
$SKPOLY
 70
     0
  9
$TDCREATE
 40
2449608.570524537
  9
$TDUCREATE
 40
2449608.778857870
  9
$TDUPDATE
 40
2454788.496290509
  9
$TDUUPDATE
 40
2454788.704623842
  9
$TDINDWG
 40
0.2101537963
  9
$TDUSRTIMER
 40
0.2101536111
  9
$USRTIMER
 70
     1
  9
$ANGBASE
 50
0.0
  9
$ANGDIR
 70
     0
  9
$PDMODE
 70
     0
  9
$PDSIZE
 40
0.0
  9
$PLINEWID
 40
0.0
  9
$SPLFRAME
 70
     0
  9
$SPLINETYPE
 70
     6
  9
$SPLINESEGS
 70
     8
  9
$HANDSEED
  5
2103
  9
$SURFTAB1
 70
     6
  9
$SURFTAB2
 70
     6
  9
$SURFTYPE
 70
     6
  9
$SURFU
 70
     6
  9
$SURFV
 70
     6
  9
$UCSBASE
  2

  9
$UCSNAME
  2

  9
$UCSORG
 10
0.0
 20
0.0
 30
0.0
  9
$UCSXDIR
 10
1.0
 20
0.0
 30
0.0
  9
$UCSYDIR
 10
0.0
 20
1.0
 30
0.0
  9
$UCSORTHOREF
  2

  9
$UCSORTHOVIEW
 70
     0
  9
$UCSORGTOP
 10
0.0
 20
0.0
 30
0.0
  9
$UCSORGBOTTOM
 10
0.0
 20
0.0
 30
0.0
  9
$UCSORGLEFT
 10
0.0
 20
0.0
 30
0.0
  9
$UCSORGRIGHT
 10
0.0
 20
0.0
 30
0.0
  9
$UCSORGFRONT
 10
0.0
 20
0.0
 30
0.0
  9
$UCSORGBACK
 10
0.0
 20
0.0
 30
0.0
  9
$PUCSBASE
  2

  9
$PUCSNAME
  2

  9
$PUCSORG
 10
0.0
 20
0.0
 30
0.0
  9
$PUCSXDIR
 10
1.0
 20
0.0
 30
0.0
  9
$PUCSYDIR
 10
0.0
 20
1.0
 30
0.0
  9
$PUCSORTHOREF
  2

  9
$PUCSORTHOVIEW
 70
     0
  9
$PUCSORGTOP
 10
0.0
 20
0.0
 30
0.0
  9
$PUCSORGBOTTOM
 10
0.0
 20
0.0
 30
0.0
  9
$PUCSORGLEFT
 10
0.0
 20
0.0
 30
0.0
  9
$PUCSORGRIGHT
 10
0.0
 20
0.0
 30
0.0
  9
$PUCSORGFRONT
 10
0.0
 20
0.0
 30
0.0
  9
$PUCSORGBACK
 10
0.0
 20
0.0
 30
0.0
  9
$USERI1
 70
     0
  9
$USERI2
 70
     0
  9
$USERI3
 70
     0
  9
$USERI4
 70
     0
  9
$USERI5
 70
     0
  9
$USERR1
 40
0.0
  9
$USERR2
 40
0.0
  9
$USERR3
 40
0.0
  9
$USERR4
 40
0.0
  9
$USERR5
 40
0.0
  9
$WORLDVIEW
 70
     1
  9
$SHADEDGE
 70
     3
  9
$SHADEDIF
 70
    70
  9
$TILEMODE
 70
     1
  9
$MAXACTVP
 70
    16
  9
$PINSBASE
 10
0.0
 20
0.0
 30
0.0
  9
$PLIMCHECK
 70
     0
  9
$PEXTMIN
 10
1.000000000000000E+20
 20
1.000000000000000E+20
 30
1.000000000000000E+20
  9
$PEXTMAX
 10
-1.000000000000000E+20
 20
-1.000000000000000E+20
 30
-1.000000000000000E+20
  9
$PLIMMIN
 10
0.0
 20
0.0
  9
$PLIMMAX
 10
12.0
 20
9.0
  9
$UNITMODE
 70
     0
  9
$VISRETAIN
 70
     0
  9
$PLINEGEN
 70
     0
  9
$PSLTSCALE
 70
     0
  9
$TREEDEPTH
 70
  3020
  9
$CMLSTYLE
  2
Standard
  9
$CMLJUST
 70
     0
  9
$CMLSCALE
 40
1.0
  9
$PROXYGRAPHICS
 70
     1
  9
$MEASUREMENT
 70
     0
  9
$CELWEIGHT
370
    -1
  9
$ENDCAPS
280
     0
  9
$JOINSTYLE
280
     0
  9
$LWDISPLAY
290
     0
  9
$INSUNITS
 70
     0
  9
$HYPERLINKBASE
  1

  9
$STYLESHEET
  1
monochrome.ctb
  9
$XEDIT
290
     1
  9
$CEPSNTYPE
380
     0
  9
$PSTYLEMODE
290
     1
  9
$FINGERPRINTGUID
  2
{765EFE1E-2DA3-457A-8061-8EE788A34A2C}
  9
$VERSIONGUID
  2
{F15D52C6-D976-42A8-BF00-92276D079213}
  9
$EXTNAMES
290
     1
  9
$PSVPSCALE
 40
0.0
  9
$OLESTARTUP
290
     0
  0
ENDSEC
  0
SECTION
  2
CLASSES
  0
CLASS
  1
ACDBDICTIONARYWDFLT
  2
AcDbDictionaryWithDefault
  3
AutoCAD 2000
 90
        0
280
     0
281
     0
  0
CLASS
  1
ACDBPLACEHOLDER
  2
AcDbPlaceHolder
  3
AutoCAD 2000
 90
        0
280
     0
281
     0
  0
CLASS
  1
LAYOUT
  2
AcDbLayout
  3
AutoCAD 2000
 90
        0
280
     0
281
     0
  0
CLASS
  1
DICTIONARYVAR
  2
AcDbDictionaryVar
  3
AutoCAD 2000
 90
        0
280
     0
281
     0
  0
ENDSEC
  0
SECTION
  2
TABLES
  0
TABLE
  2
VPORT
  5
8
330
0
100
AcDbSymbolTable
 70
     2
  0
VPORT
  5
2102
330
8
100
AcDbSymbolTableRecord
100
AcDbViewportTableRecord
  2
*Active
 70
     0
 10
0.0
 20
0.0
 11
1.0
 21
1.0
 12
20.74972244030312
 22
12.90999204109187
 13
0.0
 23
0.0
 14
1.0
 24
1.0
 15
0.25
 25
0.25
 16
0.0
 26
0.0
 36
1.0
 17
0.0
 27
0.0
 37
0.0
 40
26.10092645956705
 41
1.796327212020033
 42
50.0
 43
0.0
 44
0.0
 50
0.0
 51
0.0
 71
     0
 72
  5000
 73
     1
 74
     0
 75
     0
 76
     0
 77
     0
 78
     0
281
     0
 65
     1
110
0.0
120
0.0
130
0.0
111
1.0
121
0.0
131
0.0
112
0.0
122
1.0
132
0.0
 79
     0
146
0.0
  0
ENDTAB
  0
TABLE
  2
LTYPE
  5
5
330
0
100
AcDbSymbolTable
 70
     4
  0
LTYPE
  5
13
330
5
100
AcDbSymbolTableRecord
100
AcDbLinetypeTableRecord
  2
ByBlock
 70
     0
  3

 72
    65
 73
     0
 40
0.0
  0
LTYPE
  5
14
330
5
100
AcDbSymbolTableRecord
100
AcDbLinetypeTableRecord
  2
ByLayer
 70
     0
  3

 72
    65
 73
     0
 40
0.0
  0
LTYPE
  5
15
330
5
100
AcDbSymbolTableRecord
100
AcDbLinetypeTableRecord
  2
CONTINUOUS
 70
     0
  3
Solid line
 72
    65
 73
     0
 40
0.0
  0
LTYPE
  5
25
330
5
100
AcDbSymbolTableRecord
100
AcDbLinetypeTableRecord
  2
CENTER
 70
     0
  3
____ _ ____ _ ____ _ ____ _ ____ _ ____ _ ____ 
 72
    65
 73
     4
 40
2.0
 49
1.25
 74
     0
 49
-0.25
 74
     0
 49
0.25
 74
     0
 49
-0.25
 74
     0
  0
LTYPE
  5
26
330
5
100
AcDbSymbolTableRecord
100
AcDbLinetypeTableRecord
  2
PHANTOM
 70
     0
  3
______  __  __  ______  __  __  ______  __  __ 
 72
    65
 73
     6
 40
2.5
 49
1.25
 74
     0
 49
-0.25
 74
     0
 49
0.25
 74
     0
 49
-0.25
 74
     0
 49
0.25
 74
     0
 49
-0.25
 74
     0
  0
LTYPE
  5
1F16
330
5
100
AcDbSymbolTableRecord
100
AcDbLinetypeTableRecord
  2
HIDDEN
 70
     0
  3
Hidden __ __ __ __ __ __ __ __ __ __ __ __ __ _
 72
    65
 73
     2
 40
0.375
 49
0.25
 74
     0
 49
-0.125
 74
     0
  0
ENDTAB
  0
TABLE
  2
LAYER
  5
2
330
0
100
AcDbSymbolTable
 70
     9
  0
LAYER
  5
10
330
2
100
AcDbSymbolTableRecord
100
AcDbLayerTableRecord
  2
0
 70
     0
 62
     7
  6
CONTINUOUS
370
    -3
390
F
  0
LAYER
  5
22
330
2
100
AcDbSymbolTableRecord
100
AcDbLayerTableRecord
  2
OBJECT
 70
     0
 62
     7
  6
CONTINUOUS
370
    -3
390
F
  0
LAYER
  5
27
330
2
100
AcDbSymbolTableRecord
100
AcDbLayerTableRecord
  2
TEXT
 70
     0
 62
     1
  6
CONTINUOUS
370
    -3
390
F
  0
LAYER
  5
28
330
2
100
AcDbSymbolTableRecord
100
AcDbLayerTableRecord
  2
TITLE
 70
     0
 62
     8
  6
CONTINUOUS
370
    -3
390
F
  0
LAYER
  5
29
330
2
100
AcDbSymbolTableRecord
100
AcDbLayerTableRecord
  2
DIM
 70
     0
 62
     2
  6
CONTINUOUS
370
    -3
390
F
  0
LAYER
  5
2A
330
2
100
AcDbSymbolTableRecord
100
AcDbLayerTableRecord
  2
CENTER
 70
     0
 62
     3
  6
CENTER
370
    -3
390
F
  0
LAYER
  5
2B
330
2
100
AcDbSymbolTableRecord
100
AcDbLayerTableRecord
  2
DEFPOINTS
 70
     0
 62
     7
  6
CONTINUOUS
290
     0
370
    -3
390
F
  0
LAYER
  5
2C
330
2
100
AcDbSymbolTableRecord
100
AcDbLayerTableRecord
  2
BEND
 70
     0
 62
     4
  6
PHANTOM
370
    -3
390
F
  0
LAYER
  5
1F17
330
2
100
AcDbSymbolTableRecord
100
AcDbLayerTableRecord
  2
HIDDEN
 70
     0
 62
     6
  6
HIDDEN
370
    -3
390
F
  0
ENDTAB
  0
TABLE
  2
STYLE
  5
3
330
0
100
AcDbSymbolTable
 70
     2
  0
STYLE
  5
11
330
3
100
AcDbSymbolTableRecord
100
AcDbTextStyleTableRecord
  2
TXT
 70
     0
 40
0.0
 41
0.75
 50
0.0
 71
     0
 42
0.18
  3
txt.shx
  4

  0
STYLE
  5
1F06
330
3
100
AcDbSymbolTableRecord
100
AcDbTextStyleTableRecord
  2
SECTION
 70
     0
 40
0.0
 41
0.8
 50
0.0
 71
     0
 42
0.2
  3
ROMANT.SHX
  4

  0
ENDTAB
  0
TABLE
  2
VIEW
  5
6
330
0
100
AcDbSymbolTable
 70
     0
  0
ENDTAB
  0
TABLE
  2
UCS
  5
7
330
0
100
AcDbSymbolTable
 70
     0
  0
ENDTAB
  0
TABLE
  2
APPID
  5
9
330
0
100
AcDbSymbolTable
 70
     1
  0
APPID
  5
12
330
9
100
AcDbSymbolTableRecord
100
AcDbRegAppTableRecord
  2
ACAD
 70
     0
  0
ENDTAB
  0
TABLE
  2
DIMSTYLE
  5
A
330
0
100
AcDbSymbolTable
 70
     4
100
AcDbDimStyleTable
 71
     4
340
2D
340
2F
340
2E
340
30
  0
DIMSTYLE
105
2D
102
{ACAD_REACTORS
330
937
330
945
330
953
330
961
330
96F
330
97D
330
98B
330
999
330
9A7
330
9B5
330
9C3
330
9D1
330
9ED
330
9FB
330
A09
330
A17
330
A25
330
A33
330
A41
330
A4F
330
A5C
330
A6A
330
A78
330
A86
330
A94
330
AA2
330
ACD
330
ADB
330
AE9
330
B09
330
B33
330
B7A
330
BB2
330
BC0
330
BCE
330
C2D
330
ABF
102
}
330
A
100
AcDbSymbolTableRecord
100
AcDbDimStyleTableRecord
  2
23NSTD
 70
     0
 40
2.5
 42
0.063
 43
0.281
 44
0.093
140
0.125
271
     3
272
     3
289
     1
340
11
  0
DIMSTYLE
105
2E
102
{ACAD_REACTORS
330
9DF
330
AB1
330
AF7
330
B17
330
B25
330
B51
330
C3B
102
}
330
A
100
AcDbSymbolTableRecord
100
AcDbDimStyleTableRecord
  2
23NSTDI
 70
     0
 40
2.5
 42
0.063
 43
0.281
 44
0.093
140
0.125
174
     1
271
     3
272
     3
340
11
  0
DIMSTYLE
105
2F
102
{ACAD_REACTORS
330
15B0
330
15BF
330
1681
102
}
330
A
100
AcDbSymbolTableRecord
100
AcDbDimStyleTableRecord
  2
23NSTD4
 70
     0
 40
2.5
 42
0.063
 43
0.281
 44
0.093
140
0.125
144
0.25
271
     3
272
     3
289
     1
340
11
  0
DIMSTYLE
105
30
102
{ACAD_REACTORS
330
15AF
330
15B1
102
}
330
A
100
AcDbSymbolTableRecord
100
AcDbDimStyleTableRecord
  2
23NSTD4I
 70
     0
 40
2.5
 42
0.063
 43
0.281
 44
0.093
140
0.125
144
0.25
174
     1
271
     3
272
     3
340
11
  0
ENDTAB
  0
TABLE
  2
BLOCK_RECORD
  5
1
330
0
100
AcDbSymbolTable
 70
    50
  0
BLOCK_RECORD
  5
1E
330
1
100
AcDbSymbolTableRecord
100
AcDbBlockTableRecord
  2
*Model_Space
340
21
  0
BLOCK_RECORD
  5
1A
330
1
100
AcDbSymbolTableRecord
100
AcDbBlockTableRecord
  2
*Paper_Space
340
1D
  0
BLOCK_RECORD
  5
938
330
1
100
AcDbSymbolTableRecord
100
AcDbBlockTableRecord
  2
*D0
340
0
  0
BLOCK_RECORD
  5
946
330
1
100
AcDbSymbolTableRecord
100
AcDbBlockTableRecord
  2
*D1
340
0
  0
BLOCK_RECORD
  5
954
330
1
100
AcDbSymbolTableRecord
100
AcDbBlockTableRecord
  2
*D2
340
0
  0
BLOCK_RECORD
  5
962
330
1
100
AcDbSymbolTableRecord
100
AcDbBlockTableRecord
  2
*D3
340
0
  0
BLOCK_RECORD
  5
970
330
1
100
AcDbSymbolTableRecord
100
AcDbBlockTableRecord
  2
*D4
340
0
  0
BLOCK_RECORD
  5
97E
330
1
100
AcDbSymbolTableRecord
100
AcDbBlockTableRecord
  2
*D5
340
0
  0
BLOCK_RECORD
  5
98C
330
1
100
AcDbSymbolTableRecord
100
AcDbBlockTableRecord
  2
*D6
340
0
  0
BLOCK_RECORD
  5
99A
330
1
100
AcDbSymbolTableRecord
100
AcDbBlockTableRecord
  2
*D7
340
0
  0
BLOCK_RECORD
  5
9A8
330
1
100
AcDbSymbolTableRecord
100
AcDbBlockTableRecord
  2
*D8
340
0
  0
BLOCK_RECORD
  5
9B6
330
1
100
AcDbSymbolTableRecord
100
AcDbBlockTableRecord
  2
*D9
340
0
  0
BLOCK_RECORD
  5
9C4
330
1
100
AcDbSymbolTableRecord
100
AcDbBlockTableRecord
  2
*D10
340
0
  0
BLOCK_RECORD
  5
9D2
330
1
100
AcDbSymbolTableRecord
100
AcDbBlockTableRecord
  2
*D11
340
0
  0
BLOCK_RECORD
  5
9E0
330
1
100
AcDbSymbolTableRecord
100
AcDbBlockTableRecord
  2
*D12
340
0
  0
BLOCK_RECORD
  5
9EE
330
1
100
AcDbSymbolTableRecord
100
AcDbBlockTableRecord
  2
*D13
340
0
  0
BLOCK_RECORD
  5
9FC
330
1
100
AcDbSymbolTableRecord
100
AcDbBlockTableRecord
  2
*D14
340
0
  0
BLOCK_RECORD
  5
A0A
330
1
100
AcDbSymbolTableRecord
100
AcDbBlockTableRecord
  2
*D15
340
0
  0
BLOCK_RECORD
  5
A18
330
1
100
AcDbSymbolTableRecord
100
AcDbBlockTableRecord
  2
*D16
340
0
  0
BLOCK_RECORD
  5
A26
330
1
100
AcDbSymbolTableRecord
100
AcDbBlockTableRecord
  2
*D17
340
0
  0
BLOCK_RECORD
  5
A34
330
1
100
AcDbSymbolTableRecord
100
AcDbBlockTableRecord
  2
*D18
340
0
  0
BLOCK_RECORD
  5
A42
330
1
100
AcDbSymbolTableRecord
100
AcDbBlockTableRecord
  2
*D19
340
0
  0
BLOCK_RECORD
  5
A50
330
1
100
AcDbSymbolTableRecord
100
AcDbBlockTableRecord
  2
*D20
340
0
  0
BLOCK_RECORD
  5
A5D
330
1
100
AcDbSymbolTableRecord
100
AcDbBlockTableRecord
  2
*D21
340
0
  0
BLOCK_RECORD
  5
A6B
330
1
100
AcDbSymbolTableRecord
100
AcDbBlockTableRecord
  2
*D22
340
0
  0
BLOCK_RECORD
  5
A79
330
1
100
AcDbSymbolTableRecord
100
AcDbBlockTableRecord
  2
*D23
340
0
  0
BLOCK_RECORD
  5
A87
330
1
100
AcDbSymbolTableRecord
100
AcDbBlockTableRecord
  2
*D24
340
0
  0
BLOCK_RECORD
  5
A95
330
1
100
AcDbSymbolTableRecord
100
AcDbBlockTableRecord
  2
*D25
340
0
  0
BLOCK_RECORD
  5
AA3
330
1
100
AcDbSymbolTableRecord
100
AcDbBlockTableRecord
  2
*D26
340
0
  0
BLOCK_RECORD
  5
AB2
330
1
100
AcDbSymbolTableRecord
100
AcDbBlockTableRecord
  2
*D27
340
0
  0
BLOCK_RECORD
  5
AC0
330
1
100
AcDbSymbolTableRecord
100
AcDbBlockTableRecord
  2
*D28
340
0
  0
BLOCK_RECORD
  5
ACE
330
1
100
AcDbSymbolTableRecord
100
AcDbBlockTableRecord
  2
*D29
340
0
  0
BLOCK_RECORD
  5
ADC
330
1
100
AcDbSymbolTableRecord
100
AcDbBlockTableRecord
  2
*D30
340
0
  0
BLOCK_RECORD
  5
AEA
330
1
100
AcDbSymbolTableRecord
100
AcDbBlockTableRecord
  2
*D31
340
0
  0
BLOCK_RECORD
  5
AF8
330
1
100
AcDbSymbolTableRecord
100
AcDbBlockTableRecord
  2
*D32
340
0
  0
BLOCK_RECORD
  5
B0A
330
1
100
AcDbSymbolTableRecord
100
AcDbBlockTableRecord
  2
*D33
340
0
  0
BLOCK_RECORD
  5
B18
330
1
100
AcDbSymbolTableRecord
100
AcDbBlockTableRecord
  2
*D34
340
0
  0
BLOCK_RECORD
  5
B26
330
1
100
AcDbSymbolTableRecord
100
AcDbBlockTableRecord
  2
*D35
340
0
  0
BLOCK_RECORD
  5
B34
330
1
100
AcDbSymbolTableRecord
100
AcDbBlockTableRecord
  2
*D36
340
0
  0
BLOCK_RECORD
  5
B52
330
1
100
AcDbSymbolTableRecord
100
AcDbBlockTableRecord
  2
*D37
340
0
  0
BLOCK_RECORD
  5
B7B
330
1
100
AcDbSymbolTableRecord
100
AcDbBlockTableRecord
  2
*D38
340
0
  0
BLOCK_RECORD
  5
BB3
330
1
100
AcDbSymbolTableRecord
100
AcDbBlockTableRecord
  2
*D39
340
0
  0
BLOCK_RECORD
  5
BC1
330
1
100
AcDbSymbolTableRecord
100
AcDbBlockTableRecord
  2
*D40
340
0
  0
BLOCK_RECORD
  5
BCF
330
1
100
AcDbSymbolTableRecord
100
AcDbBlockTableRecord
  2
*D41
340
0
  0
BLOCK_RECORD
  5
C2E
330
1
100
AcDbSymbolTableRecord
100
AcDbBlockTableRecord
  2
*D42
340
0
  0
BLOCK_RECORD
  5
C3C
330
1
100
AcDbSymbolTableRecord
100
AcDbBlockTableRecord
  2
*D43
340
0
  0
BLOCK_RECORD
  5
1529
330
1
100
AcDbSymbolTableRecord
100
AcDbBlockTableRecord
  2
HBS
340
0
102
{BLKREFS
331
154A
102
}
  0
BLOCK_RECORD
  5
15C7
330
1
100
AcDbSymbolTableRecord
100
AcDbBlockTableRecord
  2
*D45
340
0
  0
BLOCK_RECORD
  5
15D4
330
1
100
AcDbSymbolTableRecord
100
AcDbBlockTableRecord
  2
*D46
340
0
  0
BLOCK_RECORD
  5
15E2
330
1
100
AcDbSymbolTableRecord
100
AcDbBlockTableRecord
  2
*D47
340
0
  0
BLOCK_RECORD
  5
15FC
330
1
100
AcDbSymbolTableRecord
100
AcDbBlockTableRecord
  2
*D48
340
0
  0
BLOCK_RECORD
  5
168E
330
1
100
AcDbSymbolTableRecord
100
AcDbBlockTableRecord
  2
*D49
340
0
  0
ENDTAB
  0
ENDSEC
  0
SECTION
  2
BLOCKS
  0
BLOCK
  5
1F
330
1E
100
AcDbEntity
  8
0
100
AcDbBlockBegin
  2
*Model_Space
 70
     0
 10
0.0
 20
0.0
 30
0.0
  3
*Model_Space
  1

  0
ENDBLK
  5
20
330
1E
100
AcDbEntity
  8
0
100
AcDbBlockEnd
  0
BLOCK
  5
1B
330
1A
100
AcDbEntity
 67
     1
  8
0
100
AcDbBlockBegin
  2
*Paper_Space
 70
     0
 10
0.0
 20
0.0
 30
0.0
  3
*Paper_Space
  1

  0
ENDBLK
  5
1C
330
1A
100
AcDbEntity
 67
     1
  8
0
100
AcDbBlockEnd
  0
BLOCK
  5
943
330
938
100
AcDbEntity
  8
0
100
AcDbBlockBegin
  2
*D0
 70
     1
 10
0.0
 20
0.0
 30
0.0
  3
*D0
  1

  0
LINE
  5
1D87
330
938
100
AcDbEntity
  8
DIM
 62
     0
370
    -2
100
AcDbLine
 10
6.400498319179026
 20
7.236682446214269
 30
0.0
 11
5.504132319179026
 21
7.23668244621427
 31
0.0
  0
LINE
  5
1D88
330
938
100
AcDbEntity
  8
DIM
 62
     0
370
    -2
100
AcDbLine
 10
6.400498319179026
 20
7.000682446214269
 30
0.0
 11
5.504132319179026
 21
7.00068244621427
 31
0.0
  0
LINE
  5
1D89
330
938
100
AcDbEntity
  8
DIM
 62
     0
370
    -2
100
AcDbLine
 10
5.736632319179026
 20
7.68668244621427
 30
0.0
 11
5.736632319179026
 21
8.136682446214269
 31
0.0
  0
LINE
  5
1D8A
330
938
100
AcDbEntity
  8
DIM
 62
     0
370
    -2
100
AcDbLine
 10
5.736632319179026
 20
6.55068244621427
 30
0.0
 11
5.736632319179026
 21
6.10068244621427
 31
0.0
  0
LINE
  5
1D8B
330
938
100
AcDbEntity
  8
DIM
 62
     0
370
    -2
100
AcDbLine
 10
5.736632319179026
 20
6.10068244621427
 30
0.0
 11
5.286632319179026
 21
6.10068244621427
 31
0.0
  0
SOLID
  5
1D8C
330
938
100
AcDbEntity
  8
DIM
 62
     0
100
AcDbTrace
 10
5.661632319179026
 20
7.68668244621427
 30
0.0
 11
5.811632319179026
 21
7.68668244621427
 31
0.0
 12
5.736632319179026
 22
7.23668244621427
 32
0.0
 13
5.736632319179026
 23
7.23668244621427
 33
0.0
  0
SOLID
  5
1D8D
330
938
100
AcDbEntity
  8
DIM
 62
     0
100
AcDbTrace
 10
5.661632319179026
 20
6.55068244621427
 30
0.0
 11
5.811632319179026
 21
6.55068244621427
 31
0.0
 12
5.736632319179026
 22
7.00068244621427
 32
0.0
 13
5.736632319179026
 23
7.00068244621427
 33
0.0
  0
MTEXT
  5
1D8E
330
938
100
AcDbEntity
  8
DIM
 62
     0
100
AcDbMText
 10
4.612413569179024
 20
6.100682446214271
 30
0.0
 40
0.3125
 41
0.0
 71
     5
 72
     1
  1
\A1;0.236
 73
     1
 44
1.0
  0
POINT
  5
1D8F
330
938
100
AcDbEntity
  8
DEFPOINTS
 62
     0
100
AcDbPoint
 10
6.557998319179025
 20
7.236682446214269
 30
0.0
  0
POINT
  5
1D90
330
938
100
AcDbEntity
  8
DEFPOINTS
 62
     0
100
AcDbPoint
 10
6.557998319179025
 20
7.000682446214269
 30
0.0
  0
POINT
  5
1D91
330
938
100
AcDbEntity
  8
DEFPOINTS
 62
     0
100
AcDbPoint
 10
5.736632319179026
 20
7.00068244621427
 30
0.0
  0
ENDBLK
  5
944
330
938
100
AcDbEntity
  8
0
100
AcDbBlockEnd
  0
BLOCK
  5
951
330
946
100
AcDbEntity
  8
0
100
AcDbBlockBegin
  2
*D1
 70
     1
 10
0.0
 20
0.0
 30
0.0
  3
*D1
  1

  0
LINE
  5
1D2C
330
946
100
AcDbEntity
  8
DIM
 62
     0
370
    -2
100
AcDbLine
 10
6.400498319179026
 20
7.236682446214269
 30
0.0
 11
1.816485319179024
 21
7.23668244621427
 31
0.0
  0
LINE
  5
1D2D
330
946
100
AcDbEntity
  8
DIM
 62
     0
370
    -2
100
AcDbLine
 10
6.419998319179025
 20
13.49668244621426
 30
0.0
 11
1.816485319179025
 21
13.49668244621427
 31
0.0
  0
LINE
  5
1D2E
330
946
100
AcDbEntity
  8
DIM
 62
     0
370
    -2
100
AcDbLine
 10
2.048985319179025
 20
7.68668244621427
 30
0.0
 11
2.048985319179025
 21
9.985432446214272
 31
0.0
  0
LINE
  5
1D2F
330
946
100
AcDbEntity
  8
DIM
 62
     0
370
    -2
100
AcDbLine
 10
2.048985319179026
 20
13.04668244621427
 30
0.0
 11
2.048985319179025
 21
10.74793244621427
 31
0.0
  0
SOLID
  5
1D30
330
946
100
AcDbEntity
  8
DIM
 62
     0
100
AcDbTrace
 10
1.973985319179025
 20
7.686682446214271
 30
0.0
 11
2.123985319179025
 21
7.68668244621427
 31
0.0
 12
2.048985319179025
 22
7.23668244621427
 32
0.0
 13
2.048985319179025
 23
7.23668244621427
 33
0.0
  0
SOLID
  5
1D31
330
946
100
AcDbEntity
  8
DIM
 62
     0
100
AcDbTrace
 10
1.973985319179026
 20
13.04668244621427
 30
0.0
 11
2.123985319179026
 21
13.04668244621427
 31
0.0
 12
2.048985319179026
 22
13.49668244621427
 32
0.0
 13
2.048985319179026
 23
13.49668244621427
 33
0.0
  0
MTEXT
  5
1D32
330
946
100
AcDbEntity
  8
DIM
 62
     0
100
AcDbMText
 10
2.048985319179023
 20
10.36668244621427
 30
0.0
 40
0.3125
 41
0.0
 71
     5
 72
     1
  1
\A1;6.260
 73
     1
 44
1.0
  0
POINT
  5
1D33
330
946
100
AcDbEntity
  8
DEFPOINTS
 62
     0
100
AcDbPoint
 10
6.557998319179025
 20
7.236682446214269
 30
0.0
  0
POINT
  5
1D34
330
946
100
AcDbEntity
  8
DEFPOINTS
 62
     0
100
AcDbPoint
 10
6.577498319179025
 20
13.49668244621426
 30
0.0
  0
POINT
  5
1D35
330
946
100
AcDbEntity
  8
DEFPOINTS
 62
     0
100
AcDbPoint
 10
2.048985319179026
 20
13.49668244621427
 30
0.0
  0
ENDBLK
  5
952
330
946
100
AcDbEntity
  8
0
100
AcDbBlockEnd
  0
BLOCK
  5
95F
330
954
100
AcDbEntity
  8
0
100
AcDbBlockBegin
  2
*D2
 70
     1
 10
0.0
 20
0.0
 30
0.0
  3
*D2
  1

  0
LINE
  5
1DD8
330
954
100
AcDbEntity
  8
DIM
 62
     0
370
    -2
100
AcDbLine
 10
6.577498319179025
 20
13.65418244621427
 30
0.0
 11
6.577498319179025
 21
16.37181144621427
 31
0.0
  0
LINE
  5
1DD9
330
954
100
AcDbEntity
  8
DIM
 62
     0
370
    -2
100
AcDbLine
 10
6.339248319179025
 20
13.67143244621427
 30
0.0
 11
6.339248319179025
 21
16.37181144621427
 31
0.0
  0
LINE
  5
1DDA
330
954
100
AcDbEntity
  8
DIM
 62
     0
370
    -2
100
AcDbLine
 10
7.027498319179025
 20
16.13931144621427
 30
0.0
 11
7.477498319179025
 21
16.13931144621427
 31
0.0
  0
LINE
  5
1DDB
330
954
100
AcDbEntity
  8
DIM
 62
     0
370
    -2
100
AcDbLine
 10
5.889248319179025
 20
16.13931144621427
 30
0.0
 11
5.439248319179025
 21
16.13931144621427
 31
0.0
  0
SOLID
  5
1DDC
330
954
100
AcDbEntity
  8
DIM
 62
     0
100
AcDbTrace
 10
7.027498319179025
 20
16.21431144621427
 30
0.0
 11
7.027498319179025
 21
16.06431144621427
 31
0.0
 12
6.577498319179025
 22
16.13931144621427
 32
0.0
 13
6.577498319179025
 23
16.13931144621427
 33
0.0
  0
SOLID
  5
1DDD
330
954
100
AcDbEntity
  8
DIM
 62
     0
100
AcDbTrace
 10
5.889248319179025
 20
16.21431144621427
 30
0.0
 11
5.889248319179025
 21
16.06431144621427
 31
0.0
 12
6.339248319179025
 22
16.13931144621427
 32
0.0
 13
6.339248319179025
 23
16.13931144621427
 33
0.0
  0
MTEXT
  5
1DDE
330
954
100
AcDbEntity
  8
DIM
 62
     0
100
AcDbMText
 10
4.765029569179025
 20
16.13931144621427
 30
0.0
 40
0.3125
 41
0.0
 71
     5
 72
     1
  1
\A1;0.238
 73
     1
 44
1.0
  0
POINT
  5
1DDF
330
954
100
AcDbEntity
  8
DEFPOINTS
 62
     0
100
AcDbPoint
 10
6.577498319179025
 20
13.49668244621426
 30
0.0
  0
POINT
  5
1DE0
330
954
100
AcDbEntity
  8
DEFPOINTS
 62
     0
100
AcDbPoint
 10
6.339248319179025
 20
13.51393244621426
 30
0.0
  0
POINT
  5
1DE1
330
954
100
AcDbEntity
  8
DEFPOINTS
 62
     0
100
AcDbPoint
 10
6.339248319179025
 20
16.13931144621427
 30
0.0
  0
ENDBLK
  5
960
330
954
100
AcDbEntity
  8
0
100
AcDbBlockEnd
  0
BLOCK
  5
96D
330
962
100
AcDbEntity
  8
0
100
AcDbBlockBegin
  2
*D3
 70
     1
 10
0.0
 20
0.0
 30
0.0
  3
*D3
  1

  0
LINE
  5
1DCE
330
962
100
AcDbEntity
  8
DIM
 62
     0
370
    -2
100
AcDbLine
 10
6.920498319179025
 20
13.65418244621427
 30
0.0
 11
6.920498319179025
 21
15.66931144621427
 31
0.0
  0
LINE
  5
1DCF
330
962
100
AcDbEntity
  8
DIM
 62
     0
370
    -2
100
AcDbLine
 10
6.339248319179025
 20
13.67143244621427
 30
0.0
 11
6.339248319179025
 21
15.66931144621427
 31
0.0
  0
LINE
  5
1DD0
330
962
100
AcDbEntity
  8
DIM
 62
     0
370
    -2
100
AcDbLine
 10
7.370498319179025
 20
15.43681144621427
 30
0.0
 11
7.820498319179025
 21
15.43681144621427
 31
0.0
  0
LINE
  5
1DD1
330
962
100
AcDbEntity
  8
DIM
 62
     0
370
    -2
100
AcDbLine
 10
5.889248319179025
 20
15.43681144621427
 30
0.0
 11
5.439248319179025
 21
15.43681144621427
 31
0.0
  0
SOLID
  5
1DD2
330
962
100
AcDbEntity
  8
DIM
 62
     0
100
AcDbTrace
 10
7.370498319179025
 20
15.51181144621427
 30
0.0
 11
7.370498319179025
 21
15.36181144621427
 31
0.0
 12
6.920498319179025
 22
15.43681144621427
 32
0.0
 13
6.920498319179025
 23
15.43681144621427
 33
0.0
  0
SOLID
  5
1DD3
330
962
100
AcDbEntity
  8
DIM
 62
     0
100
AcDbTrace
 10
5.889248319179025
 20
15.51181144621427
 30
0.0
 11
5.889248319179025
 21
15.36181144621427
 31
0.0
 12
6.339248319179025
 22
15.43681144621427
 32
0.0
 13
6.339248319179025
 23
15.43681144621427
 33
0.0
  0
MTEXT
  5
1DD4
330
962
100
AcDbEntity
  8
DIM
 62
     0
100
AcDbMText
 10
4.804092069179025
 20
15.43681144621427
 30
0.0
 40
0.3125
 41
0.0
 71
     5
 72
     1
  1
\A1;0.581
 73
     1
 44
1.0
  0
POINT
  5
1DD5
330
962
100
AcDbEntity
  8
DEFPOINTS
 62
     0
100
AcDbPoint
 10
6.920498319179025
 20
13.49668244621426
 30
0.0
  0
POINT
  5
1DD6
330
962
100
AcDbEntity
  8
DEFPOINTS
 62
     0
100
AcDbPoint
 10
6.339248319179025
 20
13.51393244621426
 30
0.0
  0
POINT
  5
1DD7
330
962
100
AcDbEntity
  8
DEFPOINTS
 62
     0
100
AcDbPoint
 10
6.339248319179025
 20
15.43681144621427
 30
0.0
  0
ENDBLK
  5
96E
330
962
100
AcDbEntity
  8
0
100
AcDbBlockEnd
  0
BLOCK
  5
97B
330
970
100
AcDbEntity
  8
0
100
AcDbBlockBegin
  2
*D4
 70
     1
 10
0.0
 20
0.0
 30
0.0
  3
*D4
  1

  0
LINE
  5
1DC4
330
970
100
AcDbEntity
  8
DIM
 62
     0
370
    -2
100
AcDbLine
 10
6.920498319179025
 20
13.65418244621427
 30
0.0
 11
6.920498319179025
 21
15.66931144621427
 31
0.0
  0
LINE
  5
1DC5
330
970
100
AcDbEntity
  8
DIM
 62
     0
370
    -2
100
AcDbLine
 10
10.52199831917902
 20
14.20258444621427
 30
0.0
 11
10.52199831917902
 21
15.66931144621427
 31
0.0
  0
LINE
  5
1DC6
330
970
100
AcDbEntity
  8
DIM
 62
     0
370
    -2
100
AcDbLine
 10
7.370498319179025
 20
15.43681144621427
 30
0.0
 11
8.047029569179025
 21
15.43681144621427
 31
0.0
  0
LINE
  5
1DC7
330
970
100
AcDbEntity
  8
DIM
 62
     0
370
    -2
100
AcDbLine
 10
10.07199831917902
 20
15.43681144621427
 30
0.0
 11
9.395467069179025
 21
15.43681144621427
 31
0.0
  0
SOLID
  5
1DC8
330
970
100
AcDbEntity
  8
DIM
 62
     0
100
AcDbTrace
 10
7.370498319179025
 20
15.51181144621427
 30
0.0
 11
7.370498319179025
 21
15.36181144621427
 31
0.0
 12
6.920498319179025
 22
15.43681144621427
 32
0.0
 13
6.920498319179025
 23
15.43681144621427
 33
0.0
  0
SOLID
  5
1DC9
330
970
100
AcDbEntity
  8
DIM
 62
     0
100
AcDbTrace
 10
10.07199831917902
 20
15.51181144621427
 30
0.0
 11
10.07199831917902
 21
15.36181144621427
 31
0.0
 12
10.52199831917902
 22
15.43681144621427
 32
0.0
 13
10.52199831917902
 23
15.43681144621427
 33
0.0
  0
MTEXT
  5
1DCA
330
970
100
AcDbEntity
  8
DIM
 62
     0
100
AcDbMText
 10
8.721248319179025
 20
15.43681144621427
 30
0.0
 40
0.3125
 41
0.0
 71
     5
 72
     1
  1
\A1;3.602
 73
     1
 44
1.0
  0
POINT
  5
1DCB
330
970
100
AcDbEntity
  8
DEFPOINTS
 62
     0
100
AcDbPoint
 10
6.920498319179025
 20
13.49668244621426
 30
0.0
  0
POINT
  5
1DCC
330
970
100
AcDbEntity
  8
DEFPOINTS
 62
     0
100
AcDbPoint
 10
10.52199831917902
 20
14.04508444621427
 30
0.0
  0
POINT
  5
1DCD
330
970
100
AcDbEntity
  8
DEFPOINTS
 62
     0
100
AcDbPoint
 10
10.52199831917902
 20
15.43681144621427
 30
0.0
  0
ENDBLK
  5
97C
330
970
100
AcDbEntity
  8
0
100
AcDbBlockEnd
  0
BLOCK
  5
989
330
97E
100
AcDbEntity
  8
0
100
AcDbBlockBegin
  2
*D5
 70
     1
 10
0.0
 20
0.0
 30
0.0
  3
*D5
  1

  0
LINE
  5
1DBA
330
97E
100
AcDbEntity
  8
DIM
 62
     0
370
    -2
100
AcDbLine
 10
6.577498319179025
 20
13.65418244621427
 30
0.0
 11
6.577498319179025
 21
16.37181144621427
 31
0.0
  0
LINE
  5
1DBB
330
97E
100
AcDbEntity
  8
DIM
 62
     0
370
    -2
100
AcDbLine
 10
10.86499831917902
 20
13.65418244621427
 30
0.0
 11
10.86499831917902
 21
16.37181144621427
 31
0.0
  0
LINE
  5
1DBC
330
97E
100
AcDbEntity
  8
DIM
 62
     0
370
    -2
100
AcDbLine
 10
7.027498319179025
 20
16.13931144621427
 30
0.0
 11
8.027498319179025
 21
16.13931144621427
 31
0.0
  0
LINE
  5
1DBD
330
97E
100
AcDbEntity
  8
DIM
 62
     0
370
    -2
100
AcDbLine
 10
10.41499831917902
 20
16.13931144621427
 30
0.0
 11
9.414998319179025
 21
16.13931144621427
 31
0.0
  0
SOLID
  5
1DBE
330
97E
100
AcDbEntity
  8
DIM
 62
     0
100
AcDbTrace
 10
7.027498319179025
 20
16.21431144621427
 30
0.0
 11
7.027498319179025
 21
16.06431144621427
 31
0.0
 12
6.577498319179025
 22
16.13931144621427
 32
0.0
 13
6.577498319179025
 23
16.13931144621427
 33
0.0
  0
SOLID
  5
1DBF
330
97E
100
AcDbEntity
  8
DIM
 62
     0
100
AcDbTrace
 10
10.41499831917902
 20
16.21431144621427
 30
0.0
 11
10.41499831917902
 21
16.06431144621427
 31
0.0
 12
10.86499831917902
 22
16.13931144621427
 32
0.0
 13
10.86499831917902
 23
16.13931144621427
 33
0.0
  0
MTEXT
  5
1DC0
330
97E
100
AcDbEntity
  8
DIM
 62
     0
100
AcDbMText
 10
8.721248319179025
 20
16.13931144621427
 30
0.0
 40
0.3125
 41
0.0
 71
     5
 72
     1
  1
\A1;4.288
 73
     1
 44
1.0
  0
POINT
  5
1DC1
330
97E
100
AcDbEntity
  8
DEFPOINTS
 62
     0
100
AcDbPoint
 10
6.577498319179025
 20
13.49668244621426
 30
0.0
  0
POINT
  5
1DC2
330
97E
100
AcDbEntity
  8
DEFPOINTS
 62
     0
100
AcDbPoint
 10
10.86499831917902
 20
13.49668244621426
 30
0.0
  0
POINT
  5
1DC3
330
97E
100
AcDbEntity
  8
DEFPOINTS
 62
     0
100
AcDbPoint
 10
10.86499831917902
 20
16.13931144621427
 30
0.0
  0
ENDBLK
  5
98A
330
97E
100
AcDbEntity
  8
0
100
AcDbBlockEnd
  0
BLOCK
  5
997
330
98C
100
AcDbEntity
  8
0
100
AcDbBlockBegin
  2
*D6
 70
     1
 10
0.0
 20
0.0
 30
0.0
  3
*D6
  1

  0
LINE
  5
1D72
330
98C
100
AcDbEntity
  8
DIM
 62
     0
370
    -2
100
AcDbLine
 10
7.188998319179026
 20
7.09358144621427
 30
0.0
 11
7.188998319179026
 21
4.599141446214269
 31
0.0
  0
LINE
  5
1D73
330
98C
100
AcDbEntity
  8
DIM
 62
     0
370
    -2
100
AcDbLine
 10
6.339248319179025
 20
7.061932446214269
 30
0.0
 11
6.339248319179025
 21
4.599141446214269
 31
0.0
  0
LINE
  5
1D74
330
98C
100
AcDbEntity
  8
DIM
 62
     0
370
    -2
100
AcDbLine
 10
7.638998319179026
 20
4.831641446214269
 30
0.0
 11
8.088998319179026
 21
4.831641446214269
 31
0.0
  0
LINE
  5
1D75
330
98C
100
AcDbEntity
  8
DIM
 62
     0
370
    -2
100
AcDbLine
 10
5.889248319179025
 20
4.831641446214269
 30
0.0
 11
5.439248319179025
 21
4.831641446214269
 31
0.0
  0
SOLID
  5
1D76
330
98C
100
AcDbEntity
  8
DIM
 62
     0
100
AcDbTrace
 10
7.638998319179026
 20
4.906641446214269
 30
0.0
 11
7.638998319179026
 21
4.756641446214269
 31
0.0
 12
7.188998319179026
 22
4.831641446214269
 32
0.0
 13
7.188998319179026
 23
4.831641446214269
 33
0.0
  0
SOLID
  5
1D77
330
98C
100
AcDbEntity
  8
DIM
 62
     0
100
AcDbTrace
 10
5.889248319179025
 20
4.906641446214269
 30
0.0
 11
5.889248319179025
 21
4.756641446214269
 31
0.0
 12
6.339248319179025
 22
4.831641446214269
 32
0.0
 13
6.339248319179025
 23
4.831641446214269
 33
0.0
  0
MTEXT
  5
1D78
330
98C
100
AcDbEntity
  8
DIM
 62
     0
100
AcDbMText
 10
4.784560819179025
 20
4.831641446214269
 30
0.0
 40
0.3125
 41
0.0
 71
     5
 72
     1
  1
\A1;0.850
 73
     1
 44
1.0
  0
POINT
  5
1D79
330
98C
100
AcDbEntity
  8
DEFPOINTS
 62
     0
100
AcDbPoint
 10
7.188998319179026
 20
7.25108144621427
 30
0.0
  0
POINT
  5
1D7A
330
98C
100
AcDbEntity
  8
DEFPOINTS
 62
     0
100
AcDbPoint
 10
6.339248319179025
 20
7.219432446214269
 30
0.0
  0
POINT
  5
1D7B
330
98C
100
AcDbEntity
  8
DEFPOINTS
 62
     0
100
AcDbPoint
 10
6.339248319179025
 20
4.831641446214269
 30
0.0
  0
ENDBLK
  5
998
330
98C
100
AcDbEntity
  8
0
100
AcDbBlockEnd
  0
BLOCK
  5
9A5
330
99A
100
AcDbEntity
  8
0
100
AcDbBlockBegin
  2
*D7
 70
     1
 10
0.0
 20
0.0
 30
0.0
  3
*D7
  1

  0
LINE
  5
1D68
330
99A
100
AcDbEntity
  8
DIM
 62
     0
370
    -2
100
AcDbLine
 10
7.188998319179026
 20
7.09358144621427
 30
0.0
 11
7.188998319179026
 21
4.599141446214269
 31
0.0
  0
LINE
  5
1D69
330
99A
100
AcDbEntity
  8
DIM
 62
     0
370
    -2
100
AcDbLine
 10
10.25349831917902
 20
7.09358144621427
 30
0.0
 11
10.25349831917902
 21
4.599141446214269
 31
0.0
  0
LINE
  5
1D6A
330
99A
100
AcDbEntity
  8
DIM
 62
     0
370
    -2
100
AcDbLine
 10
7.638998319179026
 20
4.831641446214269
 30
0.0
 11
8.047029569179027
 21
4.831641446214269
 31
0.0
  0
LINE
  5
1D6B
330
99A
100
AcDbEntity
  8
DIM
 62
     0
370
    -2
100
AcDbLine
 10
9.803498319179027
 20
4.831641446214269
 30
0.0
 11
9.395467069179026
 21
4.831641446214269
 31
0.0
  0
SOLID
  5
1D6C
330
99A
100
AcDbEntity
  8
DIM
 62
     0
100
AcDbTrace
 10
7.638998319179026
 20
4.906641446214269
 30
0.0
 11
7.638998319179026
 21
4.756641446214269
 31
0.0
 12
7.188998319179026
 22
4.831641446214269
 32
0.0
 13
7.188998319179026
 23
4.831641446214269
 33
0.0
  0
SOLID
  5
1D6D
330
99A
100
AcDbEntity
  8
DIM
 62
     0
100
AcDbTrace
 10
9.803498319179027
 20
4.906641446214269
 30
0.0
 11
9.803498319179027
 21
4.756641446214269
 31
0.0
 12
10.25349831917902
 22
4.831641446214269
 32
0.0
 13
10.25349831917902
 23
4.831641446214269
 33
0.0
  0
MTEXT
  5
1D6E
330
99A
100
AcDbEntity
  8
DIM
 62
     0
100
AcDbMText
 10
8.721248319179027
 20
4.831641446214269
 30
0.0
 40
0.3125
 41
0.0
 71
     5
 72
     1
  1
\A1;3.065
 73
     1
 44
1.0
  0
POINT
  5
1D6F
330
99A
100
AcDbEntity
  8
DEFPOINTS
 62
     0
100
AcDbPoint
 10
7.188998319179026
 20
7.25108144621427
 30
0.0
  0
POINT
  5
1D70
330
99A
100
AcDbEntity
  8
DEFPOINTS
 62
     0
100
AcDbPoint
 10
10.25349831917902
 20
7.25108144621427
 30
0.0
  0
POINT
  5
1D71
330
99A
100
AcDbEntity
  8
DEFPOINTS
 62
     0
100
AcDbPoint
 10
10.25349831917902
 20
4.831641446214269
 30
0.0
  0
ENDBLK
  5
9A6
330
99A
100
AcDbEntity
  8
0
100
AcDbBlockEnd
  0
BLOCK
  5
9B3
330
9A8
100
AcDbEntity
  8
0
100
AcDbBlockBegin
  2
*D8
 70
     1
 10
0.0
 20
0.0
 30
0.0
  3
*D8
  1

  0
LINE
  5
1D5E
330
9A8
100
AcDbEntity
  8
DIM
 62
     0
370
    -2
100
AcDbLine
 10
8.721248319179025
 20
6.78195244621427
 30
0.0
 11
8.721248319179025
 21
5.30164144621427
 31
0.0
  0
LINE
  5
1D5F
330
9A8
100
AcDbEntity
  8
DIM
 62
     0
370
    -2
100
AcDbLine
 10
6.339248319179025
 20
7.061932446214269
 30
0.0
 11
6.339248319179025
 21
5.30164144621427
 31
0.0
  0
LINE
  5
1D60
330
9A8
100
AcDbEntity
  8
DIM
 62
     0
370
    -2
100
AcDbLine
 10
9.171248319179024
 20
5.534141446214269
 30
0.0
 11
9.621248319179025
 21
5.534141446214269
 31
0.0
  0
LINE
  5
1D61
330
9A8
100
AcDbEntity
  8
DIM
 62
     0
370
    -2
100
AcDbLine
 10
5.889248319179025
 20
5.534141446214269
 30
0.0
 11
5.439248319179025
 21
5.534141446214269
 31
0.0
  0
SOLID
  5
1D62
330
9A8
100
AcDbEntity
  8
DIM
 62
     0
100
AcDbTrace
 10
9.171248319179024
 20
5.60914144621427
 30
0.0
 11
9.171248319179024
 21
5.459141446214269
 31
0.0
 12
8.721248319179025
 22
5.534141446214269
 32
0.0
 13
8.721248319179025
 23
5.534141446214269
 33
0.0
  0
SOLID
  5
1D63
330
9A8
100
AcDbEntity
  8
DIM
 62
     0
100
AcDbTrace
 10
5.889248319179025
 20
5.60914144621427
 30
0.0
 11
5.889248319179025
 21
5.459141446214269
 31
0.0
 12
6.339248319179025
 22
5.534141446214269
 32
0.0
 13
6.339248319179025
 23
5.534141446214269
 33
0.0
  0
MTEXT
  5
1D64
330
9A8
100
AcDbEntity
  8
DIM
 62
     0
100
AcDbMText
 10
7.817238856905646
 20
5.534141446214269
 30
0.0
 40
0.3125
 41
0.0
 71
     5
 72
     1
  1
\A1;2.382
 73
     1
 44
1.0
  0
POINT
  5
1D65
330
9A8
100
AcDbEntity
  8
DEFPOINTS
 62
     0
100
AcDbPoint
 10
8.721248319179025
 20
6.93945244621427
 30
0.0
  0
POINT
  5
1D66
330
9A8
100
AcDbEntity
  8
DEFPOINTS
 62
     0
100
AcDbPoint
 10
6.339248319179025
 20
7.219432446214269
 30
0.0
  0
POINT
  5
1D67
330
9A8
100
AcDbEntity
  8
DEFPOINTS
 62
     0
100
AcDbPoint
 10
6.339248319179025
 20
5.534141446214269
 30
0.0
  0
ENDBLK
  5
9B4
330
9A8
100
AcDbEntity
  8
0
100
AcDbBlockEnd
  0
BLOCK
  5
9C1
330
9B6
100
AcDbEntity
  8
0
100
AcDbBlockBegin
  2
*D9
 70
     1
 10
0.0
 20
0.0
 30
0.0
  3
*D9
  1

  0
LINE
  5
1D54
330
9B6
100
AcDbEntity
  8
DIM
 62
     0
370
    -2
100
AcDbLine
 10
6.339248319179025
 20
7.061932446214269
 30
0.0
 11
6.339248319179025
 21
3.896641446214269
 31
0.0
  0
LINE
  5
1D55
330
9B6
100
AcDbEntity
  8
DIM
 62
     0
370
    -2
100
AcDbLine
 10
11.10324831917902
 20
7.061932446214269
 30
0.0
 11
11.10324831917902
 21
3.896641446214269
 31
0.0
  0
LINE
  5
1D56
330
9B6
100
AcDbEntity
  8
DIM
 62
     0
370
    -2
100
AcDbLine
 10
6.789248319179026
 20
4.129141446214269
 30
0.0
 11
8.027498319179025
 21
4.129141446214269
 31
0.0
  0
LINE
  5
1D57
330
9B6
100
AcDbEntity
  8
DIM
 62
     0
370
    -2
100
AcDbLine
 10
10.65324831917902
 20
4.129141446214269
 30
0.0
 11
9.414998319179025
 21
4.129141446214269
 31
0.0
  0
SOLID
  5
1D58
330
9B6
100
AcDbEntity
  8
DIM
 62
     0
100
AcDbTrace
 10
6.789248319179026
 20
4.204141446214269
 30
0.0
 11
6.789248319179026
 21
4.054141446214269
 31
0.0
 12
6.339248319179025
 22
4.129141446214269
 32
0.0
 13
6.339248319179025
 23
4.129141446214269
 33
0.0
  0
SOLID
  5
1D59
330
9B6
100
AcDbEntity
  8
DIM
 62
     0
100
AcDbTrace
 10
10.65324831917902
 20
4.204141446214269
 30
0.0
 11
10.65324831917902
 21
4.054141446214269
 31
0.0
 12
11.10324831917902
 22
4.129141446214269
 32
0.0
 13
11.10324831917902
 23
4.129141446214269
 33
0.0
  0
MTEXT
  5
1D5A
330
9B6
100
AcDbEntity
  8
DIM
 62
     0
100
AcDbMText
 10
8.721248319179025
 20
4.129141446214269
 30
0.0
 40
0.3125
 41
0.0
 71
     5
 72
     1
  1
\A1;4.764
 73
     1
 44
1.0
  0
POINT
  5
1D5B
330
9B6
100
AcDbEntity
  8
DEFPOINTS
 62
     0
100
AcDbPoint
 10
6.339248319179025
 20
7.219432446214269
 30
0.0
  0
POINT
  5
1D5C
330
9B6
100
AcDbEntity
  8
DEFPOINTS
 62
     0
100
AcDbPoint
 10
11.10324831917902
 20
7.219432446214269
 30
0.0
  0
POINT
  5
1D5D
330
9B6
100
AcDbEntity
  8
DEFPOINTS
 62
     0
100
AcDbPoint
 10
11.10324831917902
 20
4.129141446214269
 30
0.0
  0
ENDBLK
  5
9C2
330
9B6
100
AcDbEntity
  8
0
100
AcDbBlockEnd
  0
BLOCK
  5
9CF
330
9C4
100
AcDbEntity
  8
0
100
AcDbBlockBegin
  2
*D10
 70
     1
 10
0.0
 20
0.0
 30
0.0
  3
*D10
  1

  0
LINE
  5
1D4A
330
9C4
100
AcDbEntity
  8
DIM
 62
     0
370
    -2
100
AcDbLine
 10
10.92224831917902
 20
11.65911944621426
 30
0.0
 11
10.92224831917902
 21
10.86542644621427
 31
0.0
  0
LINE
  5
1D4B
330
9C4
100
AcDbEntity
  8
DIM
 62
     0
370
    -2
100
AcDbLine
 10
6.520248319179025
 20
11.65911944621426
 30
0.0
 11
6.520248319179025
 21
10.86542644621427
 31
0.0
  0
LINE
  5
1D4C
330
9C4
100
AcDbEntity
  8
DIM
 62
     0
370
    -2
100
AcDbLine
 10
10.47224831917902
 20
11.09792644621427
 30
0.0
 11
9.395467069179025
 21
11.09792644621427
 31
0.0
  0
LINE
  5
1D4D
330
9C4
100
AcDbEntity
  8
DIM
 62
     0
370
    -2
100
AcDbLine
 10
6.970248319179026
 20
11.09792644621427
 30
0.0
 11
8.047029569179025
 21
11.09792644621427
 31
0.0
  0
SOLID
  5
1D4E
330
9C4
100
AcDbEntity
  8
DIM
 62
     0
100
AcDbTrace
 10
10.47224831917902
 20
11.17292644621427
 30
0.0
 11
10.47224831917902
 21
11.02292644621427
 31
0.0
 12
10.92224831917902
 22
11.09792644621427
 32
0.0
 13
10.92224831917902
 23
11.09792644621427
 33
0.0
  0
SOLID
  5
1D4F
330
9C4
100
AcDbEntity
  8
DIM
 62
     0
100
AcDbTrace
 10
6.970248319179026
 20
11.17292644621427
 30
0.0
 11
6.970248319179026
 21
11.02292644621427
 31
0.0
 12
6.520248319179025
 22
11.09792644621427
 32
0.0
 13
6.520248319179025
 23
11.09792644621427
 33
0.0
  0
MTEXT
  5
1D50
330
9C4
100
AcDbEntity
  8
DIM
 62
     0
100
AcDbMText
 10
8.721248319179025
 20
11.09792644621427
 30
0.0
 40
0.3125
 41
0.0
 71
     5
 72
     1
  1
\A1;4.402
 73
     1
 44
1.0
  0
POINT
  5
1D51
330
9C4
100
AcDbEntity
  8
DEFPOINTS
 62
     0
100
AcDbPoint
 10
10.92224831917902
 20
11.81661944621427
 30
0.0
  0
POINT
  5
1D52
330
9C4
100
AcDbEntity
  8
DEFPOINTS
 62
     0
100
AcDbPoint
 10
6.520248319179025
 20
11.81661944621427
 30
0.0
  0
POINT
  5
1D53
330
9C4
100
AcDbEntity
  8
DEFPOINTS
 62
     0
100
AcDbPoint
 10
6.520248319179025
 20
11.09792644621427
 30
0.0
  0
ENDBLK
  5
9D0
330
9C4
100
AcDbEntity
  8
0
100
AcDbBlockEnd
  0
BLOCK
  5
9DD
330
9D2
100
AcDbEntity
  8
0
100
AcDbBlockBegin
  2
*D11
 70
     1
 10
0.0
 20
0.0
 30
0.0
  3
*D11
  1

  0
LINE
  5
1D40
330
9D2
100
AcDbEntity
  8
DIM
 62
     0
370
    -2
100
AcDbLine
 10
6.520248319179025
 20
11.65911944621426
 30
0.0
 11
6.520248319179025
 21
10.86542644621427
 31
0.0
  0
LINE
  5
1D41
330
9D2
100
AcDbEntity
  8
DIM
 62
     0
370
    -2
100
AcDbLine
 10
6.339248319179025
 20
11.23840144621427
 30
0.0
 11
6.339248319179025
 21
11.33042644621427
 31
0.0
  0
LINE
  5
1D42
330
9D2
100
AcDbEntity
  8
DIM
 62
     0
370
    -2
100
AcDbLine
 10
6.970248319179026
 20
11.09792644621427
 30
0.0
 11
7.420248319179025
 21
11.09792644621427
 31
0.0
  0
LINE
  5
1D43
330
9D2
100
AcDbEntity
  8
DIM
 62
     0
370
    -2
100
AcDbLine
 10
5.889248319179025
 20
11.09792644621427
 30
0.0
 11
5.439248319179025
 21
11.09792644621427
 31
0.0
  0
SOLID
  5
1D44
330
9D2
100
AcDbEntity
  8
DIM
 62
     0
100
AcDbTrace
 10
6.970248319179026
 20
11.17292644621427
 30
0.0
 11
6.970248319179026
 21
11.02292644621427
 31
0.0
 12
6.520248319179025
 22
11.09792644621427
 32
0.0
 13
6.520248319179025
 23
11.09792644621427
 33
0.0
  0
SOLID
  5
1D45
330
9D2
100
AcDbEntity
  8
DIM
 62
     0
100
AcDbTrace
 10
5.889248319179025
 20
11.17292644621427
 30
0.0
 11
5.889248319179025
 21
11.02292644621427
 31
0.0
 12
6.339248319179025
 22
11.09792644621427
 32
0.0
 13
6.339248319179025
 23
11.09792644621427
 33
0.0
  0
MTEXT
  5
1D46
330
9D2
100
AcDbEntity
  8
DIM
 62
     0
100
AcDbMText
 10
4.843154569179025
 20
11.09792644621427
 30
0.0
 40
0.3125
 41
0.0
 71
     5
 72
     1
  1
\A1;0.181
 73
     1
 44
1.0
  0
POINT
  5
1D47
330
9D2
100
AcDbEntity
  8
DEFPOINTS
 62
     0
100
AcDbPoint
 10
6.520248319179025
 20
11.81661944621427
 30
0.0
  0
POINT
  5
1D48
330
9D2
100
AcDbEntity
  8
DEFPOINTS
 62
     0
100
AcDbPoint
 10
6.339248319179025
 20
11.08090144621427
 30
0.0
  0
POINT
  5
1D49
330
9D2
100
AcDbEntity
  8
DEFPOINTS
 62
     0
100
AcDbPoint
 10
6.339248319179025
 20
11.09792644621427
 30
0.0
  0
ENDBLK
  5
9DE
330
9D2
100
AcDbEntity
  8
0
100
AcDbBlockEnd
  0
BLOCK
  5
9EB
330
9E0
100
AcDbEntity
  8
0
100
AcDbBlockBegin
  2
*D12
 70
     1
 10
0.0
 20
0.0
 30
0.0
  3
*D12
  1

  0
LINE
  5
1D92
330
9E0
100
AcDbEntity
  8
DIM
 62
     0
370
    -2
100
AcDbLine
 10
11.04199831917902
 20
7.000682446214269
 30
0.0
 11
14.24431331917902
 21
7.000682446214268
 31
0.0
  0
LINE
  5
1D93
330
9E0
100
AcDbEntity
  8
DIM
 62
     0
370
    -2
100
AcDbLine
 10
11.00524831917902
 20
7.491807446214268
 30
0.0
 11
14.24431331917902
 21
7.491807446214267
 31
0.0
  0
LINE
  5
1D94
330
9E0
100
AcDbEntity
  8
DIM
 62
     0
370
    -2
100
AcDbLine
 10
14.01181331917902
 20
6.550682446214268
 30
0.0
 11
14.01181331917902
 21
6.100682446214268
 31
0.0
  0
LINE
  5
1D95
330
9E0
100
AcDbEntity
  8
DIM
 62
     0
370
    -2
100
AcDbLine
 10
14.01181331917902
 20
7.941807446214268
 30
0.0
 11
14.01181331917902
 21
8.391807446214267
 31
0.0
  0
SOLID
  5
1D96
330
9E0
100
AcDbEntity
  8
DIM
 62
     0
100
AcDbTrace
 10
13.93681331917902
 20
6.550682446214269
 30
0.0
 11
14.08681331917902
 21
6.550682446214268
 31
0.0
 12
14.01181331917902
 22
7.000682446214268
 32
0.0
 13
14.01181331917902
 23
7.000682446214268
 33
0.0
  0
SOLID
  5
1D97
330
9E0
100
AcDbEntity
  8
DIM
 62
     0
100
AcDbTrace
 10
13.93681331917902
 20
7.941807446214268
 30
0.0
 11
14.08681331917902
 21
7.941807446214268
 31
0.0
 12
14.01181331917902
 22
7.491807446214267
 32
0.0
 13
14.01181331917902
 23
7.491807446214267
 33
0.0
  0
MTEXT
  5
1D98
330
9E0
100
AcDbEntity
  8
DIM
 62
     0
100
AcDbMText
 10
14.01181331917902
 20
7.246244946214271
 30
0.0
 40
0.3125
 41
0.0
 71
     5
 72
     1
  1
\A1;0.491
 73
     1
 44
1.0
  0
POINT
  5
1D99
330
9E0
100
AcDbEntity
  8
DEFPOINTS
 62
     0
100
AcDbPoint
 10
10.88449831917902
 20
7.000682446214269
 30
0.0
  0
POINT
  5
1D9A
330
9E0
100
AcDbEntity
  8
DEFPOINTS
 62
     0
100
AcDbPoint
 10
10.84774831917902
 20
7.491807446214268
 30
0.0
  0
POINT
  5
1D9B
330
9E0
100
AcDbEntity
  8
DEFPOINTS
 62
     0
100
AcDbPoint
 10
14.01181331917902
 20
7.491807446214267
 30
0.0
  0
ENDBLK
  5
9EC
330
9E0
100
AcDbEntity
  8
0
100
AcDbBlockEnd
  0
BLOCK
  5
9F9
330
9EE
100
AcDbEntity
  8
0
100
AcDbBlockBegin
  2
*D13
 70
     1
 10
0.0
 20
0.0
 30
0.0
  3
*D13
  1

  0
LINE
  5
1D22
330
9EE
100
AcDbEntity
  8
DIM
 62
     0
370
    -2
100
AcDbLine
 10
11.00524831917902
 20
7.491807446214268
 30
0.0
 11
14.24431331917902
 21
7.491807446214267
 31
0.0
  0
LINE
  5
1D23
330
9EE
100
AcDbEntity
  8
DIM
 62
     0
370
    -2
100
AcDbLine
 10
10.90524831917902
 20
13.24155744621426
 30
0.0
 11
14.24431331917902
 21
13.24155744621426
 31
0.0
  0
LINE
  5
1D24
330
9EE
100
AcDbEntity
  8
DIM
 62
     0
370
    -2
100
AcDbLine
 10
14.01181331917902
 20
7.941807446214268
 30
0.0
 11
14.01181331917902
 21
9.985432446214268
 31
0.0
  0
LINE
  5
1D25
330
9EE
100
AcDbEntity
  8
DIM
 62
     0
370
    -2
100
AcDbLine
 10
14.01181331917902
 20
12.79155744621427
 30
0.0
 11
14.01181331917902
 21
10.74793244621426
 31
0.0
  0
SOLID
  5
1D26
330
9EE
100
AcDbEntity
  8
DIM
 62
     0
100
AcDbTrace
 10
13.93681331917902
 20
7.941807446214268
 30
0.0
 11
14.08681331917902
 21
7.941807446214268
 31
0.0
 12
14.01181331917902
 22
7.491807446214267
 32
0.0
 13
14.01181331917902
 23
7.491807446214267
 33
0.0
  0
SOLID
  5
1D27
330
9EE
100
AcDbEntity
  8
DIM
 62
     0
100
AcDbTrace
 10
13.93681331917902
 20
12.79155744621427
 30
0.0
 11
14.08681331917902
 21
12.79155744621427
 31
0.0
 12
14.01181331917902
 22
13.24155744621426
 32
0.0
 13
14.01181331917902
 23
13.24155744621426
 33
0.0
  0
MTEXT
  5
1D28
330
9EE
100
AcDbEntity
  8
DIM
 62
     0
100
AcDbMText
 10
14.01181331917902
 20
10.36668244621427
 30
0.0
 40
0.3125
 41
0.0
 71
     5
 72
     1
  1
\A1;5.750
 73
     1
 44
1.0
  0
POINT
  5
1D29
330
9EE
100
AcDbEntity
  8
DEFPOINTS
 62
     0
100
AcDbPoint
 10
10.84774831917902
 20
7.491807446214268
 30
0.0
  0
POINT
  5
1D2A
330
9EE
100
AcDbEntity
  8
DEFPOINTS
 62
     0
100
AcDbPoint
 10
10.74774831917902
 20
13.24155744621426
 30
0.0
  0
POINT
  5
1D2B
330
9EE
100
AcDbEntity
  8
DEFPOINTS
 62
     0
100
AcDbPoint
 10
14.01181331917902
 20
13.24155744621426
 30
0.0
  0
ENDBLK
  5
9FA
330
9EE
100
AcDbEntity
  8
0
100
AcDbBlockEnd
  0
BLOCK
  5
A07
330
9FC
100
AcDbEntity
  8
0
100
AcDbBlockBegin
  2
*D14
 70
     1
 10
0.0
 20
0.0
 30
0.0
  3
*D14
  1

  0
LINE
  5
1D18
330
9FC
100
AcDbEntity
  8
DIM
 62
     0
370
    -2
100
AcDbLine
 10
11.16799831917902
 20
7.000682446214269
 30
0.0
 11
15.50547831917902
 21
7.000682446214268
 31
0.0
  0
LINE
  5
1D19
330
9FC
100
AcDbEntity
  8
DIM
 62
     0
370
    -2
100
AcDbLine
 10
11.04199831917902
 20
13.73268244621427
 30
0.0
 11
15.50547831917902
 21
13.73268244621426
 31
0.0
  0
LINE
  5
1D1A
330
9FC
100
AcDbEntity
  8
DIM
 62
     0
370
    -2
100
AcDbLine
 10
15.27297831917902
 20
7.450682446214268
 30
0.0
 11
15.27297831917902
 21
9.985432446214268
 31
0.0
  0
LINE
  5
1D1B
330
9FC
100
AcDbEntity
  8
DIM
 62
     0
370
    -2
100
AcDbLine
 10
15.27297831917902
 20
13.28268244621426
 30
0.0
 11
15.27297831917902
 21
10.74793244621426
 31
0.0
  0
SOLID
  5
1D1C
330
9FC
100
AcDbEntity
  8
DIM
 62
     0
100
AcDbTrace
 10
15.19797831917902
 20
7.450682446214268
 30
0.0
 11
15.34797831917902
 21
7.450682446214268
 31
0.0
 12
15.27297831917902
 22
7.000682446214268
 32
0.0
 13
15.27297831917902
 23
7.000682446214268
 33
0.0
  0
SOLID
  5
1D1D
330
9FC
100
AcDbEntity
  8
DIM
 62
     0
100
AcDbTrace
 10
15.19797831917902
 20
13.28268244621426
 30
0.0
 11
15.34797831917902
 21
13.28268244621426
 31
0.0
 12
15.27297831917902
 22
13.73268244621426
 32
0.0
 13
15.27297831917902
 23
13.73268244621426
 33
0.0
  0
MTEXT
  5
1D1E
330
9FC
100
AcDbEntity
  8
DIM
 62
     0
100
AcDbMText
 10
15.27297831917902
 20
10.36668244621427
 30
0.0
 40
0.3125
 41
0.0
 71
     5
 72
     1
  1
\A1;6.732
 73
     1
 44
1.0
  0
POINT
  5
1D1F
330
9FC
100
AcDbEntity
  8
DEFPOINTS
 62
     0
100
AcDbPoint
 10
11.01049831917902
 20
7.000682446214269
 30
0.0
  0
POINT
  5
1D20
330
9FC
100
AcDbEntity
  8
DEFPOINTS
 62
     0
100
AcDbPoint
 10
10.88449831917902
 20
13.73268244621427
 30
0.0
  0
POINT
  5
1D21
330
9FC
100
AcDbEntity
  8
DEFPOINTS
 62
     0
100
AcDbPoint
 10
15.27297831917902
 20
13.73268244621426
 30
0.0
  0
ENDBLK
  5
A08
330
9FC
100
AcDbEntity
  8
0
100
AcDbBlockEnd
  0
BLOCK
  5
A15
330
A0A
100
AcDbEntity
  8
0
100
AcDbBlockBegin
  2
*D15
 70
     1
 10
0.0
 20
0.0
 30
0.0
  3
*D15
  1

  0
LINE
  5
1D7C
330
A0A
100
AcDbEntity
  8
DIM
 62
     0
370
    -2
100
AcDbLine
 10
6.762998319179025
 20
7.772682446214268
 30
0.0
 11
2.983985319179025
 21
7.772682446214269
 31
0.0
  0
LINE
  5
1D7D
330
A0A
100
AcDbEntity
  8
DIM
 62
     0
370
    -2
100
AcDbLine
 10
6.400498319179026
 20
7.000682446214269
 30
0.0
 11
2.983985319179025
 21
7.00068244621427
 31
0.0
  0
LINE
  5
1D7E
330
A0A
100
AcDbEntity
  8
DIM
 62
     0
370
    -2
100
AcDbLine
 10
3.216485319179025
 20
8.222682446214269
 30
0.0
 11
3.216485319179025
 21
8.67268244621427
 31
0.0
  0
LINE
  5
1D7F
330
A0A
100
AcDbEntity
  8
DIM
 62
     0
370
    -2
100
AcDbLine
 10
3.216485319179025
 20
6.55068244621427
 30
0.0
 11
3.216485319179025
 21
6.10068244621427
 31
0.0
  0
LINE
  5
1D80
330
A0A
100
AcDbEntity
  8
DIM
 62
     0
370
    -2
100
AcDbLine
 10
3.216485319179025
 20
6.10068244621427
 30
0.0
 11
2.766485319179025
 21
6.10068244621427
 31
0.0
  0
SOLID
  5
1D81
330
A0A
100
AcDbEntity
  8
DIM
 62
     0
100
AcDbTrace
 10
3.141485319179025
 20
8.222682446214269
 30
0.0
 11
3.291485319179026
 21
8.222682446214269
 31
0.0
 12
3.216485319179025
 22
7.772682446214269
 32
0.0
 13
3.216485319179025
 23
7.772682446214269
 33
0.0
  0
SOLID
  5
1D82
330
A0A
100
AcDbEntity
  8
DIM
 62
     0
100
AcDbTrace
 10
3.141485319179025
 20
6.55068244621427
 30
0.0
 11
3.291485319179025
 21
6.55068244621427
 31
0.0
 12
3.216485319179025
 22
7.00068244621427
 32
0.0
 13
3.216485319179025
 23
7.00068244621427
 33
0.0
  0
MTEXT
  5
1D83
330
A0A
100
AcDbEntity
  8
DIM
 62
     0
100
AcDbMText
 10
2.092266569179024
 20
6.100682446214271
 30
0.0
 40
0.3125
 41
0.0
 71
     5
 72
     1
  1
\A1;0.772
 73
     1
 44
1.0
  0
POINT
  5
1D84
330
A0A
100
AcDbEntity
  8
DEFPOINTS
 62
     0
100
AcDbPoint
 10
6.920498319179025
 20
7.772682446214268
 30
0.0
  0
POINT
  5
1D85
330
A0A
100
AcDbEntity
  8
DEFPOINTS
 62
     0
100
AcDbPoint
 10
6.557998319179025
 20
7.000682446214269
 30
0.0
  0
POINT
  5
1D86
330
A0A
100
AcDbEntity
  8
DEFPOINTS
 62
     0
100
AcDbPoint
 10
3.216485319179025
 20
7.00068244621427
 30
0.0
  0
ENDBLK
  5
A16
330
A0A
100
AcDbEntity
  8
0
100
AcDbBlockEnd
  0
BLOCK
  5
A23
330
A18
100
AcDbEntity
  8
0
100
AcDbBlockBegin
  2
*D16
 70
     1
 10
0.0
 20
0.0
 30
0.0
  3
*D16
  1

  0
LINE
  5
1D0E
330
A18
100
AcDbEntity
  8
DIM
 62
     0
370
    -2
100
AcDbLine
 10
6.762998319179025
 20
7.772682446214268
 30
0.0
 11
2.983985319179025
 21
7.772682446214269
 31
0.0
  0
LINE
  5
1D0F
330
A18
100
AcDbEntity
  8
DIM
 62
     0
370
    -2
100
AcDbLine
 10
6.762998319179025
 20
12.96068244621427
 30
0.0
 11
2.983985319179026
 21
12.96068244621427
 31
0.0
  0
LINE
  5
1D10
330
A18
100
AcDbEntity
  8
DIM
 62
     0
370
    -2
100
AcDbLine
 10
3.216485319179025
 20
8.222682446214269
 30
0.0
 11
3.216485319179025
 21
9.98543244621427
 31
0.0
  0
LINE
  5
1D11
330
A18
100
AcDbEntity
  8
DIM
 62
     0
370
    -2
100
AcDbLine
 10
3.216485319179026
 20
12.51068244621427
 30
0.0
 11
3.216485319179025
 21
10.74793244621427
 31
0.0
  0
SOLID
  5
1D12
330
A18
100
AcDbEntity
  8
DIM
 62
     0
100
AcDbTrace
 10
3.141485319179025
 20
8.222682446214269
 30
0.0
 11
3.291485319179025
 21
8.222682446214269
 31
0.0
 12
3.216485319179025
 22
7.772682446214269
 32
0.0
 13
3.216485319179025
 23
7.772682446214269
 33
0.0
  0
SOLID
  5
1D13
330
A18
100
AcDbEntity
  8
DIM
 62
     0
100
AcDbTrace
 10
3.141485319179026
 20
12.51068244621427
 30
0.0
 11
3.291485319179026
 21
12.51068244621427
 31
0.0
 12
3.216485319179026
 22
12.96068244621427
 32
0.0
 13
3.216485319179026
 23
12.96068244621427
 33
0.0
  0
MTEXT
  5
1D14
330
A18
100
AcDbEntity
  8
DIM
 62
     0
100
AcDbMText
 10
3.216485319179024
 20
10.36668244621427
 30
0.0
 40
0.3125
 41
0.0
 71
     5
 72
     1
  1
\A1;5.188
 73
     1
 44
1.0
  0
POINT
  5
1D15
330
A18
100
AcDbEntity
  8
DEFPOINTS
 62
     0
100
AcDbPoint
 10
6.920498319179025
 20
7.772682446214268
 30
0.0
  0
POINT
  5
1D16
330
A18
100
AcDbEntity
  8
DEFPOINTS
 62
     0
100
AcDbPoint
 10
6.920498319179025
 20
12.96068244621427
 30
0.0
  0
POINT
  5
1D17
330
A18
100
AcDbEntity
  8
DEFPOINTS
 62
     0
100
AcDbPoint
 10
3.216485319179026
 20
12.96068244621427
 30
0.0
  0
ENDBLK
  5
A24
330
A18
100
AcDbEntity
  8
0
100
AcDbBlockEnd
  0
BLOCK
  5
A31
330
A26
100
AcDbEntity
  8
0
100
AcDbBlockBegin
  2
*D17
 70
     1
 10
0.0
 20
0.0
 30
0.0
  3
*D17
  1

  0
LINE
  5
1D04
330
A26
100
AcDbEntity
  8
DIM
 62
     0
370
    -2
100
AcDbLine
 10
8.469998319179024
 20
13.55168244621427
 30
0.0
 11
7.720117319179027
 21
13.55168244621427
 31
0.0
  0
LINE
  5
1D05
330
A26
100
AcDbEntity
  8
DIM
 62
     0
370
    -2
100
AcDbLine
 10
8.469998319179024
 20
7.181682446214269
 30
0.0
 11
7.720117319179026
 21
7.181682446214269
 31
0.0
  0
LINE
  5
1D06
330
A26
100
AcDbEntity
  8
DIM
 62
     0
370
    -2
100
AcDbLine
 10
7.952617319179027
 20
13.10168244621427
 30
0.0
 11
7.952617319179027
 21
10.74793244621427
 31
0.0
  0
LINE
  5
1D07
330
A26
100
AcDbEntity
  8
DIM
 62
     0
370
    -2
100
AcDbLine
 10
7.952617319179026
 20
7.631682446214269
 30
0.0
 11
7.952617319179026
 21
9.98543244621427
 31
0.0
  0
SOLID
  5
1D08
330
A26
100
AcDbEntity
  8
DIM
 62
     0
100
AcDbTrace
 10
7.877617319179027
 20
13.10168244621427
 30
0.0
 11
8.027617319179027
 21
13.10168244621427
 31
0.0
 12
7.952617319179027
 22
13.55168244621427
 32
0.0
 13
7.952617319179027
 23
13.55168244621427
 33
0.0
  0
SOLID
  5
1D09
330
A26
100
AcDbEntity
  8
DIM
 62
     0
100
AcDbTrace
 10
7.877617319179026
 20
7.631682446214269
 30
0.0
 11
8.027617319179025
 21
7.631682446214269
 31
0.0
 12
7.952617319179026
 22
7.181682446214269
 32
0.0
 13
7.952617319179026
 23
7.181682446214269
 33
0.0
  0
MTEXT
  5
1D0A
330
A26
100
AcDbEntity
  8
DIM
 62
     0
100
AcDbMText
 10
7.952617319179025
 20
10.36668244621427
 30
0.0
 40
0.3125
 41
0.0
 71
     5
 72
     1
  1
\A1;6.370
 73
     1
 44
1.0
  0
POINT
  5
1D0B
330
A26
100
AcDbEntity
  8
DEFPOINTS
 62
     0
100
AcDbPoint
 10
8.627498319179025
 20
13.55168244621427
 30
0.0
  0
POINT
  5
1D0C
330
A26
100
AcDbEntity
  8
DEFPOINTS
 62
     0
100
AcDbPoint
 10
8.627498319179025
 20
7.181682446214269
 30
0.0
  0
POINT
  5
1D0D
330
A26
100
AcDbEntity
  8
DEFPOINTS
 62
     0
100
AcDbPoint
 10
7.952617319179026
 20
7.181682446214269
 30
0.0
  0
ENDBLK
  5
A32
330
A26
100
AcDbEntity
  8
0
100
AcDbBlockEnd
  0
BLOCK
  5
A3F
330
A34
100
AcDbEntity
  8
0
100
AcDbBlockBegin
  2
*D18
 70
     1
 10
0.0
 20
0.0
 30
0.0
  3
*D18
  1

  0
LINE
  5
1CF9
330
A34
100
AcDbEntity
  8
DIM
 62
     0
370
    -2
100
AcDbLine
 10
8.469998319179024
 20
13.55168244621427
 30
0.0
 11
7.720117319179026
 21
13.55168244621427
 31
0.0
  0
LINE
  5
1CFA
330
A34
100
AcDbEntity
  8
DIM
 62
     0
370
    -2
100
AcDbLine
 10
7.800794319179026
 20
13.73268244621427
 30
0.0
 11
7.720117319179026
 21
13.73268244621427
 31
0.0
  0
LINE
  5
1CFB
330
A34
100
AcDbEntity
  8
DIM
 62
     0
370
    -2
100
AcDbLine
 10
7.952617319179026
 20
13.10168244621427
 30
0.0
 11
7.952617319179026
 21
12.65168244621426
 31
0.0
  0
LINE
  5
1CFC
330
A34
100
AcDbEntity
  8
DIM
 62
     0
370
    -2
100
AcDbLine
 10
7.952617319179027
 20
14.18268244621426
 30
0.0
 11
7.952617319179027
 21
14.63268244621427
 31
0.0
  0
LINE
  5
1CFD
330
A34
100
AcDbEntity
  8
DIM
 62
     0
370
    -2
100
AcDbLine
 10
7.952617319179027
 20
14.63268244621427
 30
0.0
 11
8.402617319179027
 21
14.63268244621427
 31
0.0
  0
SOLID
  5
1CFE
330
A34
100
AcDbEntity
  8
DIM
 62
     0
100
AcDbTrace
 10
7.877617319179026
 20
13.10168244621427
 30
0.0
 11
8.027617319179027
 21
13.10168244621427
 31
0.0
 12
7.952617319179026
 22
13.55168244621427
 32
0.0
 13
7.952617319179026
 23
13.55168244621427
 33
0.0
  0
SOLID
  5
1CFF
330
A34
100
AcDbEntity
  8
DIM
 62
     0
100
AcDbTrace
 10
7.877617319179027
 20
14.18268244621426
 30
0.0
 11
8.027617319179027
 21
14.18268244621426
 31
0.0
 12
7.952617319179026
 22
13.73268244621427
 32
0.0
 13
7.952617319179026
 23
13.73268244621427
 33
0.0
  0
MTEXT
  5
1D00
330
A34
100
AcDbEntity
  8
DIM
 62
     0
100
AcDbMText
 10
8.998711069179025
 20
14.63268244621427
 30
0.0
 40
0.3125
 41
0.0
 71
     5
 72
     1
  1
\A1;0.181
 73
     1
 44
1.0
  0
POINT
  5
1D01
330
A34
100
AcDbEntity
  8
DEFPOINTS
 62
     0
100
AcDbPoint
 10
8.627498319179025
 20
13.55168244621427
 30
0.0
  0
POINT
  5
1D02
330
A34
100
AcDbEntity
  8
DEFPOINTS
 62
     0
100
AcDbPoint
 10
7.958294319179026
 20
13.73268244621427
 30
0.0
  0
POINT
  5
1D03
330
A34
100
AcDbEntity
  8
DEFPOINTS
 62
     0
100
AcDbPoint
 10
7.952617319179026
 20
13.73268244621427
 30
0.0
  0
ENDBLK
  5
A40
330
A34
100
AcDbEntity
  8
0
100
AcDbBlockEnd
  0
BLOCK
  5
A4D
330
A42
100
AcDbEntity
  8
0
100
AcDbBlockBegin
  2
*D19
 70
     1
 10
0.0
 20
0.0
 30
0.0
  3
*D19
  1

  0
LINE
  5
1B81
330
A42
100
AcDbEntity
  8
DIM
 62
     0
370
    -2
100
AcDbLine
 10
39.94095837934434
 20
13.82768244621427
 30
0.0
 11
39.94095837934434
 21
15.85813744621427
 31
0.0
  0
LINE
  5
1B82
330
A42
100
AcDbEntity
  8
DIM
 62
     0
370
    -2
100
AcDbLine
 10
36.78295837934434
 20
13.82768244621427
 30
0.0
 11
36.78295837934434
 21
15.85813744621427
 31
0.0
  0
LINE
  5
1B83
330
A42
100
AcDbEntity
  8
DIM
 62
     0
370
    -2
100
AcDbLine
 10
39.49095837934434
 20
15.62563744621427
 30
0.0
 11
39.01664587934434
 21
15.62563744621427
 31
0.0
  0
LINE
  5
1B84
330
A42
100
AcDbEntity
  8
DIM
 62
     0
370
    -2
100
AcDbLine
 10
37.23295837934434
 20
15.62563744621427
 30
0.0
 11
37.70727087934434
 21
15.62563744621427
 31
0.0
  0
SOLID
  5
1B85
330
A42
100
AcDbEntity
  8
DIM
 62
     0
100
AcDbTrace
 10
39.49095837934434
 20
15.70063744621426
 30
0.0
 11
39.49095837934434
 21
15.55063744621427
 31
0.0
 12
39.94095837934434
 22
15.62563744621427
 32
0.0
 13
39.94095837934434
 23
15.62563744621427
 33
0.0
  0
SOLID
  5
1B86
330
A42
100
AcDbEntity
  8
DIM
 62
     0
100
AcDbTrace
 10
37.23295837934434
 20
15.70063744621426
 30
0.0
 11
37.23295837934434
 21
15.55063744621427
 31
0.0
 12
36.78295837934434
 22
15.62563744621427
 32
0.0
 13
36.78295837934434
 23
15.62563744621427
 33
0.0
  0
MTEXT
  5
1B87
330
A42
100
AcDbEntity
  8
DIM
 62
     0
100
AcDbMText
 10
38.36195837934434
 20
15.62563744621427
 30
0.0
 40
0.3125
 41
0.0
 71
     5
 72
     1
  1
\A1;3.158
 73
     1
 44
1.0
  0
POINT
  5
1B88
330
A42
100
AcDbEntity
  8
DEFPOINTS
 62
     0
100
AcDbPoint
 10
39.94095837934434
 20
13.67018244621426
 30
0.0
  0
POINT
  5
1B89
330
A42
100
AcDbEntity
  8
DEFPOINTS
 62
     0
100
AcDbPoint
 10
36.78295837934434
 20
13.67018244621426
 30
0.0
  0
POINT
  5
1B8A
330
A42
100
AcDbEntity
  8
DEFPOINTS
 62
     0
100
AcDbPoint
 10
36.78295837934434
 20
15.62563744621427
 30
0.0
  0
ENDBLK
  5
A4E
330
A42
100
AcDbEntity
  8
0
100
AcDbBlockEnd
  0
BLOCK
  5
A5A
330
A50
100
AcDbEntity
  8
0
100
AcDbBlockBegin
  2
*D20
 70
     1
 10
0.0
 20
0.0
 30
0.0
  3
*D20
  1

  0
LINE
  5
1B77
330
A50
100
AcDbEntity
  8
DIM
 62
     0
370
    -2
100
AcDbLine
 10
38.36095837934434
 20
13.89018244621427
 30
0.0
 11
38.36095837934434
 21
15.15563744621427
 31
0.0
  0
LINE
  5
1B78
330
A50
100
AcDbEntity
  8
DIM
 62
     0
370
    -2
100
AcDbLine
 10
36.78295837934434
 20
13.82768244621427
 30
0.0
 11
36.78295837934434
 21
15.15563744621427
 31
0.0
  0
LINE
  5
1B79
330
A50
100
AcDbEntity
  8
DIM
 62
     0
370
    -2
100
AcDbLine
 10
38.81095837934434
 20
14.92313744621427
 30
0.0
 11
39.26095837934434
 21
14.92313744621427
 31
0.0
  0
LINE
  5
1B7A
330
A50
100
AcDbEntity
  8
DIM
 62
     0
370
    -2
100
AcDbLine
 10
36.33295837934434
 20
14.92313744621427
 30
0.0
 11
35.88295837934434
 21
14.92313744621427
 31
0.0
  0
SOLID
  5
1B7B
330
A50
100
AcDbEntity
  8
DIM
 62
     0
100
AcDbTrace
 10
38.81095837934434
 20
14.99813744621427
 30
0.0
 11
38.81095837934434
 21
14.84813744621427
 31
0.0
 12
38.36095837934434
 22
14.92313744621427
 32
0.0
 13
38.36095837934434
 23
14.92313744621427
 33
0.0
  0
SOLID
  5
1B7C
330
A50
100
AcDbEntity
  8
DIM
 62
     0
100
AcDbTrace
 10
36.33295837934434
 20
14.99813744621427
 30
0.0
 11
36.33295837934434
 21
14.84813744621427
 31
0.0
 12
36.78295837934434
 22
14.92313744621427
 32
0.0
 13
36.78295837934434
 23
14.92313744621427
 33
0.0
  0
MTEXT
  5
1B7D
330
A50
100
AcDbEntity
  8
DIM
 62
     0
100
AcDbMText
 10
34.72045837934434
 20
14.92313744621427
 30
0.0
 40
0.3125
 41
0.0
 71
     5
 72
     1
  1
\A1;1.578 REF.
 73
     1
 44
1.0
  0
POINT
  5
1B7E
330
A50
100
AcDbEntity
  8
DEFPOINTS
 62
     0
100
AcDbPoint
 10
38.36095837934434
 20
13.73268244621427
 30
0.0
  0
POINT
  5
1B7F
330
A50
100
AcDbEntity
  8
DEFPOINTS
 62
     0
100
AcDbPoint
 10
36.78295837934434
 20
13.67018244621426
 30
0.0
  0
POINT
  5
1B80
330
A50
100
AcDbEntity
  8
DEFPOINTS
 62
     0
100
AcDbPoint
 10
36.78295837934434
 20
14.92313744621427
 30
0.0
  0
ENDBLK
  5
A5B
330
A50
100
AcDbEntity
  8
0
100
AcDbBlockEnd
  0
BLOCK
  5
A68
330
A5D
100
AcDbEntity
  8
0
100
AcDbBlockBegin
  2
*D21
 70
     1
 10
0.0
 20
0.0
 30
0.0
  3
*D21
  1

  0
LINE
  5
1EB2
330
A5D
100
AcDbEntity
  8
DIM
 62
     0
370
    -2
100
AcDbLine
 10
29.14795148921493
 20
13.49668244621426
 30
0.0
 11
30.17423248921493
 21
13.49668244621426
 31
0.0
  0
LINE
  5
1EB3
330
A5D
100
AcDbEntity
  8
DIM
 62
     0
370
    -2
100
AcDbLine
 10
29.16745148921493
 20
13.73268244621427
 30
0.0
 11
30.17423248921493
 21
13.73268244621427
 31
0.0
  0
LINE
  5
1EB4
330
A5D
100
AcDbEntity
  8
DIM
 62
     0
370
    -2
100
AcDbLine
 10
29.94173248921493
 20
13.04668244621427
 30
0.0
 11
29.94173248921493
 21
12.59668244621426
 31
0.0
  0
LINE
  5
1EB5
330
A5D
100
AcDbEntity
  8
DIM
 62
     0
370
    -2
100
AcDbLine
 10
29.94173248921493
 20
14.18268244621426
 30
0.0
 11
29.94173248921493
 21
14.63268244621427
 31
0.0
  0
LINE
  5
1EB6
330
A5D
100
AcDbEntity
  8
DIM
 62
     0
370
    -2
100
AcDbLine
 10
29.94173248921493
 20
14.63268244621427
 30
0.0
 11
30.39173248921493
 21
14.63268244621427
 31
0.0
  0
SOLID
  5
1EB7
330
A5D
100
AcDbEntity
  8
DIM
 62
     0
100
AcDbTrace
 10
29.86673248921493
 20
13.04668244621427
 30
0.0
 11
30.01673248921493
 21
13.04668244621427
 31
0.0
 12
29.94173248921493
 22
13.49668244621426
 32
0.0
 13
29.94173248921493
 23
13.49668244621426
 33
0.0
  0
SOLID
  5
1EB8
330
A5D
100
AcDbEntity
  8
DIM
 62
     0
100
AcDbTrace
 10
29.86673248921493
 20
14.18268244621426
 30
0.0
 11
30.01673248921493
 21
14.18268244621426
 31
0.0
 12
29.94173248921493
 22
13.73268244621427
 32
0.0
 13
29.94173248921493
 23
13.73268244621427
 33
0.0
  0
MTEXT
  5
1EB9
330
A5D
100
AcDbEntity
  8
DIM
 62
     0
100
AcDbMText
 10
31.06595123921493
 20
14.63268244621427
 30
0.0
 40
0.3125
 41
0.0
 71
     5
 72
     1
  1
\A1;0.236
 73
     1
 44
1.0
  0
POINT
  5
1EBA
330
A5D
100
AcDbEntity
  8
DEFPOINTS
 62
     0
100
AcDbPoint
 10
28.99045148921493
 20
13.49668244621426
 30
0.0
  0
POINT
  5
1EBB
330
A5D
100
AcDbEntity
  8
DEFPOINTS
 62
     0
100
AcDbPoint
 10
29.00995148921493
 20
13.73268244621427
 30
0.0
  0
POINT
  5
1EBC
330
A5D
100
AcDbEntity
  8
DEFPOINTS
 62
     0
100
AcDbPoint
 10
29.94173248921493
 20
13.73268244621427
 30
0.0
  0
ENDBLK
  5
A69
330
A5D
100
AcDbEntity
  8
0
100
AcDbBlockEnd
  0
BLOCK
  5
A76
330
A6B
100
AcDbEntity
  8
0
100
AcDbBlockBegin
  2
*D22
 70
     1
 10
0.0
 20
0.0
 30
0.0
  3
*D22
  1

  0
LINE
  5
1EA8
330
A6B
100
AcDbEntity
  8
DIM
 62
     0
370
    -2
100
AcDbLine
 10
29.14795148921493
 20
7.236682446214269
 30
0.0
 11
30.17423248921493
 21
7.236682446214268
 31
0.0
  0
LINE
  5
1EA9
330
A6B
100
AcDbEntity
  8
DIM
 62
     0
370
    -2
100
AcDbLine
 10
29.14795148921493
 20
13.49668244621426
 30
0.0
 11
30.17423248921493
 21
13.49668244621426
 31
0.0
  0
LINE
  5
1EAA
330
A6B
100
AcDbEntity
  8
DIM
 62
     0
370
    -2
100
AcDbLine
 10
29.94173248921493
 20
7.686682446214269
 30
0.0
 11
29.94173248921493
 21
9.98543244621427
 31
0.0
  0
LINE
  5
1EAB
330
A6B
100
AcDbEntity
  8
DIM
 62
     0
370
    -2
100
AcDbLine
 10
29.94173248921493
 20
13.04668244621427
 30
0.0
 11
29.94173248921493
 21
10.74793244621427
 31
0.0
  0
SOLID
  5
1EAC
330
A6B
100
AcDbEntity
  8
DIM
 62
     0
100
AcDbTrace
 10
29.86673248921492
 20
7.686682446214269
 30
0.0
 11
30.01673248921493
 21
7.686682446214268
 31
0.0
 12
29.94173248921493
 22
7.236682446214269
 32
0.0
 13
29.94173248921493
 23
7.236682446214269
 33
0.0
  0
SOLID
  5
1EAD
330
A6B
100
AcDbEntity
  8
DIM
 62
     0
100
AcDbTrace
 10
29.86673248921493
 20
13.04668244621427
 30
0.0
 11
30.01673248921493
 21
13.04668244621427
 31
0.0
 12
29.94173248921493
 22
13.49668244621426
 32
0.0
 13
29.94173248921493
 23
13.49668244621426
 33
0.0
  0
MTEXT
  5
1EAE
330
A6B
100
AcDbEntity
  8
DIM
 62
     0
100
AcDbMText
 10
29.94173248921493
 20
10.36668244621427
 30
0.0
 40
0.3125
 41
0.0
 71
     5
 72
     1
  1
\A1;6.260
 73
     1
 44
1.0
  0
POINT
  5
1EAF
330
A6B
100
AcDbEntity
  8
DEFPOINTS
 62
     0
100
AcDbPoint
 10
28.99045148921493
 20
7.236682446214269
 30
0.0
  0
POINT
  5
1EB0
330
A6B
100
AcDbEntity
  8
DEFPOINTS
 62
     0
100
AcDbPoint
 10
28.99045148921493
 20
13.49668244621426
 30
0.0
  0
POINT
  5
1EB1
330
A6B
100
AcDbEntity
  8
DEFPOINTS
 62
     0
100
AcDbPoint
 10
29.94173248921493
 20
13.49668244621426
 30
0.0
  0
ENDBLK
  5
A77
330
A6B
100
AcDbEntity
  8
0
100
AcDbBlockEnd
  0
BLOCK
  5
A84
330
A79
100
AcDbEntity
  8
0
100
AcDbBlockBegin
  2
*D23
 70
     1
 10
0.0
 20
0.0
 30
0.0
  3
*D23
  1

  0
LINE
  5
1E9E
330
A79
100
AcDbEntity
  8
DIM
 62
     0
370
    -2
100
AcDbLine
 10
29.16745148921493
 20
7.000682446214269
 30
0.0
 11
31.54132848921493
 21
7.000682446214268
 31
0.0
  0
LINE
  5
1E9F
330
A79
100
AcDbEntity
  8
DIM
 62
     0
370
    -2
100
AcDbLine
 10
29.16745148921493
 20
13.73268244621427
 30
0.0
 11
31.54132848921493
 21
13.73268244621427
 31
0.0
  0
LINE
  5
1EA0
330
A79
100
AcDbEntity
  8
DIM
 62
     0
370
    -2
100
AcDbLine
 10
31.30882848921493
 20
7.450682446214268
 30
0.0
 11
31.30882848921493
 21
9.98543244621427
 31
0.0
  0
LINE
  5
1EA1
330
A79
100
AcDbEntity
  8
DIM
 62
     0
370
    -2
100
AcDbLine
 10
31.30882848921493
 20
13.28268244621427
 30
0.0
 11
31.30882848921493
 21
10.74793244621427
 31
0.0
  0
SOLID
  5
1EA2
330
A79
100
AcDbEntity
  8
DIM
 62
     0
100
AcDbTrace
 10
31.23382848921493
 20
7.450682446214268
 30
0.0
 11
31.38382848921493
 21
7.450682446214268
 31
0.0
 12
31.30882848921493
 22
7.000682446214268
 32
0.0
 13
31.30882848921493
 23
7.000682446214268
 33
0.0
  0
SOLID
  5
1EA3
330
A79
100
AcDbEntity
  8
DIM
 62
     0
100
AcDbTrace
 10
31.23382848921493
 20
13.28268244621427
 30
0.0
 11
31.38382848921493
 21
13.28268244621427
 31
0.0
 12
31.30882848921493
 22
13.73268244621427
 32
0.0
 13
31.30882848921493
 23
13.73268244621427
 33
0.0
  0
MTEXT
  5
1EA4
330
A79
100
AcDbEntity
  8
DIM
 62
     0
100
AcDbMText
 10
31.30882848921493
 20
10.36668244621427
 30
0.0
 40
0.3125
 41
0.0
 71
     5
 72
     1
  1
\A1;6.732
 73
     1
 44
1.0
  0
POINT
  5
1EA5
330
A79
100
AcDbEntity
  8
DEFPOINTS
 62
     0
100
AcDbPoint
 10
29.00995148921493
 20
7.000682446214269
 30
0.0
  0
POINT
  5
1EA6
330
A79
100
AcDbEntity
  8
DEFPOINTS
 62
     0
100
AcDbPoint
 10
29.00995148921493
 20
13.73268244621427
 30
0.0
  0
POINT
  5
1EA7
330
A79
100
AcDbEntity
  8
DEFPOINTS
 62
     0
100
AcDbPoint
 10
31.30882848921493
 20
13.73268244621427
 30
0.0
  0
ENDBLK
  5
A85
330
A79
100
AcDbEntity
  8
0
100
AcDbBlockEnd
  0
BLOCK
  5
A92
330
A87
100
AcDbEntity
  8
0
100
AcDbBlockBegin
  2
*D24
 70
     1
 10
0.0
 20
0.0
 30
0.0
  3
*D24
  1

  0
LINE
  5
1EF0
330
A87
100
AcDbEntity
  8
DIM
 62
     0
370
    -2
100
AcDbLine
 10
28.99045148921493
 20
13.65418244621427
 30
0.0
 11
28.99045148921493
 21
15.53087344621427
 31
0.0
  0
LINE
  5
1EF1
330
A87
100
AcDbEntity
  8
DIM
 62
     0
370
    -2
100
AcDbLine
 10
29.22870148921493
 20
13.67143244621427
 30
0.0
 11
29.22870148921493
 21
15.53087344621427
 31
0.0
  0
LINE
  5
1EF2
330
A87
100
AcDbEntity
  8
DIM
 62
     0
370
    -2
100
AcDbLine
 10
28.54045148921493
 20
15.29837344621427
 30
0.0
 11
28.09045148921493
 21
15.29837344621427
 31
0.0
  0
LINE
  5
1EF3
330
A87
100
AcDbEntity
  8
DIM
 62
     0
370
    -2
100
AcDbLine
 10
29.67870148921493
 20
15.29837344621427
 30
0.0
 11
30.12870148921493
 21
15.29837344621427
 31
0.0
  0
SOLID
  5
1EF4
330
A87
100
AcDbEntity
  8
DIM
 62
     0
100
AcDbTrace
 10
28.54045148921493
 20
15.37337344621427
 30
0.0
 11
28.54045148921493
 21
15.22337344621427
 31
0.0
 12
28.99045148921493
 22
15.29837344621427
 32
0.0
 13
28.99045148921493
 23
15.29837344621427
 33
0.0
  0
SOLID
  5
1EF5
330
A87
100
AcDbEntity
  8
DIM
 62
     0
100
AcDbTrace
 10
29.67870148921493
 20
15.37337344621427
 30
0.0
 11
29.67870148921493
 21
15.22337344621427
 31
0.0
 12
29.22870148921493
 22
15.29837344621427
 32
0.0
 13
29.22870148921493
 23
15.29837344621427
 33
0.0
  0
MTEXT
  5
1EF6
330
A87
100
AcDbEntity
  8
DIM
 62
     0
100
AcDbMText
 10
30.80292023921493
 20
15.29837344621427
 30
0.0
 40
0.3125
 41
0.0
 71
     5
 72
     1
  1
\A1;0.238
 73
     1
 44
1.0
  0
POINT
  5
1EF7
330
A87
100
AcDbEntity
  8
DEFPOINTS
 62
     0
100
AcDbPoint
 10
28.99045148921493
 20
13.49668244621426
 30
0.0
  0
POINT
  5
1EF8
330
A87
100
AcDbEntity
  8
DEFPOINTS
 62
     0
100
AcDbPoint
 10
29.22870148921493
 20
13.51393244621426
 30
0.0
  0
POINT
  5
1EF9
330
A87
100
AcDbEntity
  8
DEFPOINTS
 62
     0
100
AcDbPoint
 10
29.22870148921493
 20
15.29837344621427
 30
0.0
  0
ENDBLK
  5
A93
330
A87
100
AcDbEntity
  8
0
100
AcDbBlockEnd
  0
BLOCK
  5
AA0
330
A95
100
AcDbEntity
  8
0
100
AcDbBlockBegin
  2
*D25
 70
     1
 10
0.0
 20
0.0
 30
0.0
  3
*D25
  1

  0
LINE
  5
1EE6
330
A95
100
AcDbEntity
  8
DIM
 62
     0
370
    -2
100
AcDbLine
 10
28.99045148921493
 20
13.65418244621427
 30
0.0
 11
28.99045148921493
 21
15.53087344621427
 31
0.0
  0
LINE
  5
1EE7
330
A95
100
AcDbEntity
  8
DIM
 62
     0
370
    -2
100
AcDbLine
 10
24.70295148921493
 20
13.65418244621427
 30
0.0
 11
24.70295148921493
 21
15.53087344621427
 31
0.0
  0
LINE
  5
1EE8
330
A95
100
AcDbEntity
  8
DIM
 62
     0
370
    -2
100
AcDbLine
 10
28.54045148921493
 20
15.29837344621427
 30
0.0
 11
27.54045148921493
 21
15.29837344621427
 31
0.0
  0
LINE
  5
1EE9
330
A95
100
AcDbEntity
  8
DIM
 62
     0
370
    -2
100
AcDbLine
 10
25.15295148921493
 20
15.29837344621427
 30
0.0
 11
26.15295148921493
 21
15.29837344621427
 31
0.0
  0
SOLID
  5
1EEA
330
A95
100
AcDbEntity
  8
DIM
 62
     0
100
AcDbTrace
 10
28.54045148921493
 20
15.37337344621427
 30
0.0
 11
28.54045148921493
 21
15.22337344621427
 31
0.0
 12
28.99045148921493
 22
15.29837344621427
 32
0.0
 13
28.99045148921493
 23
15.29837344621427
 33
0.0
  0
SOLID
  5
1EEB
330
A95
100
AcDbEntity
  8
DIM
 62
     0
100
AcDbTrace
 10
25.15295148921493
 20
15.37337344621427
 30
0.0
 11
25.15295148921493
 21
15.22337344621427
 31
0.0
 12
24.70295148921493
 22
15.29837344621427
 32
0.0
 13
24.70295148921493
 23
15.29837344621427
 33
0.0
  0
MTEXT
  5
1EEC
330
A95
100
AcDbEntity
  8
DIM
 62
     0
100
AcDbMText
 10
26.84670148921493
 20
15.29837344621427
 30
0.0
 40
0.3125
 41
0.0
 71
     5
 72
     1
  1
\A1;4.288
 73
     1
 44
1.0
  0
POINT
  5
1EED
330
A95
100
AcDbEntity
  8
DEFPOINTS
 62
     0
100
AcDbPoint
 10
28.99045148921493
 20
13.49668244621426
 30
0.0
  0
POINT
  5
1EEE
330
A95
100
AcDbEntity
  8
DEFPOINTS
 62
     0
100
AcDbPoint
 10
24.70295148921493
 20
13.49668244621426
 30
0.0
  0
POINT
  5
1EEF
330
A95
100
AcDbEntity
  8
DEFPOINTS
 62
     0
100
AcDbPoint
 10
24.70295148921493
 20
15.29837344621427
 30
0.0
  0
ENDBLK
  5
AA1
330
A95
100
AcDbEntity
  8
0
100
AcDbBlockEnd
  0
BLOCK
  5
AAE
330
AA3
100
AcDbEntity
  8
0
100
AcDbBlockBegin
  2
*D26
 70
     1
 10
0.0
 20
0.0
 30
0.0
  3
*D26
  1

  0
LINE
  5
1EDC
330
AA3
100
AcDbEntity
  8
DIM
 62
     0
370
    -2
100
AcDbLine
 10
29.22870148921493
 20
13.67143244621427
 30
0.0
 11
29.22870148921493
 21
16.14916644621426
 31
0.0
  0
LINE
  5
1EDD
330
AA3
100
AcDbEntity
  8
DIM
 62
     0
370
    -2
100
AcDbLine
 10
24.46470148921493
 20
13.67143244621427
 30
0.0
 11
24.46470148921493
 21
16.14916644621426
 31
0.0
  0
LINE
  5
1EDE
330
AA3
100
AcDbEntity
  8
DIM
 62
     0
370
    -2
100
AcDbLine
 10
28.77870148921493
 20
15.91666644621426
 30
0.0
 11
27.54045148921493
 21
15.91666644621426
 31
0.0
  0
LINE
  5
1EDF
330
AA3
100
AcDbEntity
  8
DIM
 62
     0
370
    -2
100
AcDbLine
 10
24.91470148921493
 20
15.91666644621426
 30
0.0
 11
26.15295148921493
 21
15.91666644621426
 31
0.0
  0
SOLID
  5
1EE0
330
AA3
100
AcDbEntity
  8
DIM
 62
     0
100
AcDbTrace
 10
28.77870148921493
 20
15.99166644621426
 30
0.0
 11
28.77870148921493
 21
15.84166644621427
 31
0.0
 12
29.22870148921493
 22
15.91666644621426
 32
0.0
 13
29.22870148921493
 23
15.91666644621426
 33
0.0
  0
SOLID
  5
1EE1
330
AA3
100
AcDbEntity
  8
DIM
 62
     0
100
AcDbTrace
 10
24.91470148921493
 20
15.99166644621426
 30
0.0
 11
24.91470148921493
 21
15.84166644621427
 31
0.0
 12
24.46470148921493
 22
15.91666644621426
 32
0.0
 13
24.46470148921493
 23
15.91666644621426
 33
0.0
  0
MTEXT
  5
1EE2
330
AA3
100
AcDbEntity
  8
DIM
 62
     0
100
AcDbMText
 10
26.84670148921493
 20
15.91666644621426
 30
0.0
 40
0.3125
 41
0.0
 71
     5
 72
     1
  1
\A1;4.764
 73
     1
 44
1.0
  0
POINT
  5
1EE3
330
AA3
100
AcDbEntity
  8
DEFPOINTS
 62
     0
100
AcDbPoint
 10
29.22870148921493
 20
13.51393244621426
 30
0.0
  0
POINT
  5
1EE4
330
AA3
100
AcDbEntity
  8
DEFPOINTS
 62
     0
100
AcDbPoint
 10
24.46470148921493
 20
13.51393244621426
 30
0.0
  0
POINT
  5
1EE5
330
AA3
100
AcDbEntity
  8
DEFPOINTS
 62
     0
100
AcDbPoint
 10
24.46470148921493
 20
15.91666644621426
 30
0.0
  0
ENDBLK
  5
AAF
330
AA3
100
AcDbEntity
  8
0
100
AcDbBlockEnd
  0
BLOCK
  5
ABD
330
AB2
100
AcDbEntity
  8
0
100
AcDbBlockBegin
  2
*D27
 70
     1
 10
0.0
 20
0.0
 30
0.0
  3
*D27
  1

  0
LINE
  5
1E56
330
AB2
100
AcDbEntity
  8
DIM
 62
     0
370
    -2
100
AcDbLine
 10
20.00892782342215
 20
13.84018244621427
 30
0.0
 11
20.00892782342215
 21
15.11084946767291
 31
0.0
  0
LINE
  5
1E57
330
AB2
100
AcDbEntity
  8
DIM
 62
     0
370
    -2
100
AcDbLine
 10
18.36892782342215
 20
13.81218244621427
 30
0.0
 11
18.36892782342215
 21
15.11084946767291
 31
0.0
  0
LINE
  5
1E58
330
AB2
100
AcDbEntity
  8
DIM
 62
     0
370
    -2
100
AcDbLine
 10
20.45892782342215
 20
14.87834946767291
 30
0.0
 11
20.90892782342215
 21
14.87834946767291
 31
0.0
  0
LINE
  5
1E59
330
AB2
100
AcDbEntity
  8
DIM
 62
     0
370
    -2
100
AcDbLine
 10
17.91892782342215
 20
14.87834946767291
 30
0.0
 11
17.46892782342215
 21
14.87834946767291
 31
0.0
  0
SOLID
  5
1E5A
330
AB2
100
AcDbEntity
  8
DIM
 62
     0
100
AcDbTrace
 10
20.45892782342215
 20
14.95334946767291
 30
0.0
 11
20.45892782342215
 21
14.80334946767292
 31
0.0
 12
20.00892782342215
 22
14.87834946767291
 32
0.0
 13
20.00892782342215
 23
14.87834946767291
 33
0.0
  0
SOLID
  5
1E5B
330
AB2
100
AcDbEntity
  8
DIM
 62
     0
100
AcDbTrace
 10
17.91892782342215
 20
14.95334946767291
 30
0.0
 11
17.91892782342215
 21
14.80334946767292
 31
0.0
 12
18.36892782342215
 22
14.87834946767291
 32
0.0
 13
18.36892782342215
 23
14.87834946767291
 33
0.0
  0
MTEXT
  5
1E5C
330
AB2
100
AcDbEntity
  8
DIM
 62
     0
100
AcDbMText
 10
19.18892782342215
 20
14.87834946767291
 30
0.0
 40
0.3125
 41
0.0
 71
     5
 72
     1
  1
\A1;1.640
 73
     1
 44
1.0
  0
POINT
  5
1E5D
330
AB2
100
AcDbEntity
  8
DEFPOINTS
 62
     0
100
AcDbPoint
 10
20.00892782342215
 20
13.68268244621426
 30
0.0
  0
POINT
  5
1E5E
330
AB2
100
AcDbEntity
  8
DEFPOINTS
 62
     0
100
AcDbPoint
 10
18.36892782342215
 20
13.65468244621427
 30
0.0
  0
POINT
  5
1E5F
330
AB2
100
AcDbEntity
  8
DEFPOINTS
 62
     0
100
AcDbPoint
 10
18.36892782342215
 20
14.87834946767291
 30
0.0
  0
ENDBLK
  5
ABE
330
AB2
100
AcDbEntity
  8
0
100
AcDbBlockEnd
  0
BLOCK
  5
ACB
330
AC0
100
AcDbEntity
  8
0
100
AcDbBlockBegin
  2
*D28
 70
     1
 10
0.0
 20
0.0
 30
0.0
  3
*D28
  1

  0
LINE
  5
2050
330
AC0
100
AcDbEntity
  8
DIM
 62
     0
370
    -2
100
AcDbLine
 10
19.71213544672809
 20
13.27413960182056
 30
0.0
 11
19.71213544672809
 21
14.52750635601877
 31
0.0
  0
LINE
  5
2051
330
AC0
100
AcDbEntity
  8
DIM
 62
     0
370
    -2
100
AcDbLine
 10
20.00892782342215
 20
13.84018244621427
 30
0.0
 11
20.00892782342215
 21
14.52750635601877
 31
0.0
  0
LINE
  5
2052
330
AC0
100
AcDbEntity
  8
DIM
 62
     0
370
    -2
100
AcDbLine
 10
19.26213544672809
 20
14.29500635601877
 30
0.0
 11
18.81213544672809
 21
14.29500635601877
 31
0.0
  0
LINE
  5
2053
330
AC0
100
AcDbEntity
  8
DIM
 62
     0
370
    -2
100
AcDbLine
 10
20.45892782342215
 20
14.29500635601877
 30
0.0
 11
20.90892782342215
 21
14.29500635601877
 31
0.0
  0
SOLID
  5
2054
330
AC0
100
AcDbEntity
  8
DIM
 62
     0
100
AcDbTrace
 10
19.26213544672809
 20
14.37000635601877
 30
0.0
 11
19.26213544672809
 21
14.22000635601877
 31
0.0
 12
19.71213544672809
 22
14.29500635601877
 32
0.0
 13
19.71213544672809
 23
14.29500635601877
 33
0.0
  0
SOLID
  5
2055
330
AC0
100
AcDbEntity
  8
DIM
 62
     0
100
AcDbTrace
 10
20.45892782342215
 20
14.37000635601877
 30
0.0
 11
20.45892782342215
 21
14.22000635601877
 31
0.0
 12
20.00892782342215
 22
14.29500635601877
 32
0.0
 13
20.00892782342215
 23
14.29500635601877
 33
0.0
  0
MTEXT
  5
2056
330
AC0
100
AcDbEntity
  8
DIM
 62
     0
100
AcDbMText
 10
21.58314657342215
 20
14.29500635601877
 30
0.0
 40
0.3125
 41
0.0
 71
     5
 72
     1
  1
\A1;0.297
 73
     1
 44
1.0
  0
POINT
  5
2057
330
AC0
100
AcDbEntity
  8
DEFPOINTS
 62
     0
100
AcDbPoint
 10
19.71213544672809
 20
13.11663960182056
 30
0.0
  0
POINT
  5
2058
330
AC0
100
AcDbEntity
  8
DEFPOINTS
 62
     0
100
AcDbPoint
 10
20.00892782342215
 20
13.68268244621426
 30
0.0
  0
POINT
  5
2059
330
AC0
100
AcDbEntity
  8
DEFPOINTS
 62
     0
100
AcDbPoint
 10
20.00892782342215
 20
14.29500635601877
 30
0.0
  0
ENDBLK
  5
ACC
330
AC0
100
AcDbEntity
  8
0
100
AcDbBlockEnd
  0
BLOCK
  5
AD9
330
ACE
100
AcDbEntity
  8
0
100
AcDbBlockBegin
  2
*D29
 70
     1
 10
0.0
 20
0.0
 30
0.0
  3
*D29
  1

  0
LINE
  5
1E6A
330
ACE
100
AcDbEntity
  8
DIM
 62
     0
370
    -2
100
AcDbLine
 10
19.88892782342215
 20
11.16450044621426
 30
0.0
 11
19.88892782342215
 21
11.06490944621427
 31
0.0
  0
LINE
  5
1E6B
330
ACE
100
AcDbEntity
  8
DIM
 62
     0
370
    -2
100
AcDbLine
 10
20.00892782342215
 20
11.16450044621426
 30
0.0
 11
20.00892782342215
 21
11.06490944621427
 31
0.0
  0
LINE
  5
1E6C
330
ACE
100
AcDbEntity
  8
DIM
 62
     0
370
    -2
100
AcDbLine
 10
19.43892782342215
 20
11.29740944621427
 30
0.0
 11
18.98892782342215
 21
11.29740944621427
 31
0.0
  0
LINE
  5
1E6D
330
ACE
100
AcDbEntity
  8
DIM
 62
     0
370
    -2
100
AcDbLine
 10
20.45892782342215
 20
11.29740944621427
 30
0.0
 11
20.90892782342215
 21
11.29740944621427
 31
0.0
  0
SOLID
  5
1E6E
330
ACE
100
AcDbEntity
  8
DIM
 62
     0
100
AcDbTrace
 10
19.43892782342215
 20
11.37240944621426
 30
0.0
 11
19.43892782342215
 21
11.22240944621426
 31
0.0
 12
19.88892782342215
 22
11.29740944621427
 32
0.0
 13
19.88892782342215
 23
11.29740944621427
 33
0.0
  0
SOLID
  5
1E6F
330
ACE
100
AcDbEntity
  8
DIM
 62
     0
100
AcDbTrace
 10
20.45892782342215
 20
11.37240944621426
 30
0.0
 11
20.45892782342215
 21
11.22240944621426
 31
0.0
 12
20.00892782342215
 22
11.29740944621427
 32
0.0
 13
20.00892782342215
 23
11.29740944621427
 33
0.0
  0
MTEXT
  5
1E70
330
ACE
100
AcDbEntity
  8
DIM
 62
     0
100
AcDbMText
 10
21.52455282342215
 20
11.29740944621427
 30
0.0
 40
0.3125
 41
0.0
 71
     5
 72
     1
  1
\A1;0.120
 73
     1
 44
1.0
  0
POINT
  5
1E71
330
ACE
100
AcDbEntity
  8
DEFPOINTS
 62
     0
100
AcDbPoint
 10
19.88892782342215
 20
11.32200044621427
 30
0.0
  0
POINT
  5
1E72
330
ACE
100
AcDbEntity
  8
DEFPOINTS
 62
     0
100
AcDbPoint
 10
20.00892782342215
 20
11.32200044621427
 30
0.0
  0
POINT
  5
1E73
330
ACE
100
AcDbEntity
  8
DEFPOINTS
 62
     0
100
AcDbPoint
 10
20.00892782342215
 20
11.29740944621427
 30
0.0
  0
ENDBLK
  5
ADA
330
ACE
100
AcDbEntity
  8
0
100
AcDbBlockEnd
  0
BLOCK
  5
AE7
330
ADC
100
AcDbEntity
  8
0
100
AcDbBlockBegin
  2
*D30
 70
     1
 10
0.0
 20
0.0
 30
0.0
  3
*D30
  1

  0
LINE
  5
1E89
330
ADC
100
AcDbEntity
  8
DIM
 62
     0
370
    -2
100
AcDbLine
 10
18.48492782342215
 20
9.086114446214271
 30
0.0
 11
18.48492782342215
 21
9.733328446214269
 31
0.0
  0
LINE
  5
1E8A
330
ADC
100
AcDbEntity
  8
DIM
 62
     0
370
    -2
100
AcDbLine
 10
18.36892782342215
 20
9.402913446214268
 30
0.0
 11
18.36892782342215
 21
9.268328446214269
 31
0.0
  0
LINE
  5
1E8B
330
ADC
100
AcDbEntity
  8
DIM
 62
     0
370
    -2
100
AcDbLine
 10
18.93492782342215
 20
9.500828446214269
 30
0.0
 11
19.38492782342215
 21
9.500828446214269
 31
0.0
  0
LINE
  5
1E8C
330
ADC
100
AcDbEntity
  8
DIM
 62
     0
370
    -2
100
AcDbLine
 10
17.91892782342215
 20
9.500828446214269
 30
0.0
 11
17.46892782342215
 21
9.500828446214269
 31
0.0
  0
SOLID
  5
1E8D
330
ADC
100
AcDbEntity
  8
DIM
 62
     0
100
AcDbTrace
 10
18.93492782342215
 20
9.575828446214268
 30
0.0
 11
18.93492782342215
 21
9.42582844621427
 31
0.0
 12
18.48492782342215
 22
9.500828446214269
 32
0.0
 13
18.48492782342215
 23
9.500828446214269
 33
0.0
  0
SOLID
  5
1E8E
330
ADC
100
AcDbEntity
  8
DIM
 62
     0
100
AcDbTrace
 10
17.91892782342215
 20
9.575828446214268
 30
0.0
 11
17.91892782342215
 21
9.42582844621427
 31
0.0
 12
18.36892782342215
 22
9.500828446214269
 32
0.0
 13
18.36892782342215
 23
9.500828446214269
 33
0.0
  0
MTEXT
  5
1E8F
330
ADC
100
AcDbEntity
  8
DIM
 62
     0
100
AcDbMText
 10
16.87283407342215
 20
9.500828446214269
 30
0.0
 40
0.3125
 41
0.0
 71
     5
 72
     1
  1
\A1;0.116
 73
     1
 44
1.0
  0
POINT
  5
1E90
330
ADC
100
AcDbEntity
  8
DEFPOINTS
 62
     0
100
AcDbPoint
 10
18.48492782342215
 20
8.92861444621427
 30
0.0
  0
POINT
  5
1E91
330
ADC
100
AcDbEntity
  8
DEFPOINTS
 62
     0
100
AcDbPoint
 10
18.36892782342215
 20
9.560413446214269
 30
0.0
  0
POINT
  5
1E92
330
ADC
100
AcDbEntity
  8
DEFPOINTS
 62
     0
100
AcDbPoint
 10
18.36892782342215
 20
9.500828446214269
 30
0.0
  0
ENDBLK
  5
AE8
330
ADC
100
AcDbEntity
  8
0
100
AcDbBlockEnd
  0
BLOCK
  5
AF5
330
AEA
100
AcDbEntity
  8
0
100
AcDbBlockBegin
  2
*D31
 70
     1
 10
0.0
 20
0.0
 30
0.0
  3
*D31
  1

  0
LINE
  5
1E4B
330
AEA
100
AcDbEntity
  8
DIM
 62
     0
370
    -2
100
AcDbLine
 10
20.16642782342215
 20
13.41074444621426
 30
0.0
 11
22.98942276900961
 21
13.41074444621426
 31
0.0
  0
LINE
  5
1E4C
330
AEA
100
AcDbEntity
  8
DIM
 62
     0
370
    -2
100
AcDbLine
 10
20.16642782342215
 20
13.58261944621427
 30
0.0
 11
22.98942276900961
 21
13.58261944621427
 31
0.0
  0
LINE
  5
1E4D
330
AEA
100
AcDbEntity
  8
DIM
 62
     0
370
    -2
100
AcDbLine
 10
22.75692276900961
 20
14.03261944621426
 30
0.0
 11
22.75692276900961
 21
14.48261944621426
 31
0.0
  0
LINE
  5
1E4E
330
AEA
100
AcDbEntity
  8
DIM
 62
     0
370
    -2
100
AcDbLine
 10
22.75692276900961
 20
12.96074444621426
 30
0.0
 11
22.75692276900961
 21
12.51074444621426
 31
0.0
  0
LINE
  5
1E4F
330
AEA
100
AcDbEntity
  8
DIM
 62
     0
370
    -2
100
AcDbLine
 10
22.75692276900961
 20
12.51074444621426
 30
0.0
 11
22.30692276900961
 21
12.51074444621426
 31
0.0
  0
SOLID
  5
1E50
330
AEA
100
AcDbEntity
  8
DIM
 62
     0
100
AcDbTrace
 10
22.68192276900961
 20
14.03261944621426
 30
0.0
 11
22.83192276900961
 21
14.03261944621426
 31
0.0
 12
22.75692276900961
 22
13.58261944621427
 32
0.0
 13
22.75692276900961
 23
13.58261944621427
 33
0.0
  0
SOLID
  5
1E51
330
AEA
100
AcDbEntity
  8
DIM
 62
     0
100
AcDbTrace
 10
22.68192276900961
 20
12.96074444621426
 30
0.0
 11
22.83192276900961
 21
12.96074444621426
 31
0.0
 12
22.75692276900961
 22
13.41074444621426
 32
0.0
 13
22.75692276900961
 23
13.41074444621426
 33
0.0
  0
MTEXT
  5
1E52
330
AEA
100
AcDbEntity
  8
DIM
 62
     0
100
AcDbMText
 10
21.2030165190096
 20
12.51074444621427
 30
0.0
 40
0.3125
 41
0.0
 71
     5
 72
     1
  1
\A1;0.172 DIA.
 73
     1
 44
1.0
  0
POINT
  5
1E53
330
AEA
100
AcDbEntity
  8
DEFPOINTS
 62
     0
100
AcDbPoint
 10
20.00892782342215
 20
13.41074444621426
 30
0.0
  0
POINT
  5
1E54
330
AEA
100
AcDbEntity
  8
DEFPOINTS
 62
     0
100
AcDbPoint
 10
20.00892782342215
 20
13.58261944621427
 30
0.0
  0
POINT
  5
1E55
330
AEA
100
AcDbEntity
  8
DEFPOINTS
 62
     0
100
AcDbPoint
 10
22.75692276900961
 20
13.58261944621427
 30
0.0
  0
ENDBLK
  5
AF6
330
AEA
100
AcDbEntity
  8
0
100
AcDbBlockEnd
  0
BLOCK
  5
B03
330
AF8
100
AcDbEntity
  8
0
100
AcDbBlockBegin
  2
*D32
 70
     1
 10
0.0
 20
0.0
 30
0.0
  3
*D32
  1

  0
LINE
  5
1E74
330
AF8
100
AcDbEntity
  8
DIM
 62
     0
370
    -2
100
AcDbLine
 10
18.82517782342215
 20
6.921682446214269
 30
0.0
 11
18.82517782342215
 21
5.620665446214269
 31
0.0
  0
LINE
  5
1E75
330
AF8
100
AcDbEntity
  8
DIM
 62
     0
370
    -2
100
AcDbLine
 10
20.00892782342215
 20
6.893182446214269
 30
0.0
 11
20.00892782342215
 21
5.620665446214269
 31
0.0
  0
LINE
  5
1E76
330
AF8
100
AcDbEntity
  8
DIM
 62
     0
370
    -2
100
AcDbLine
 10
18.37517782342215
 20
5.853165446214269
 30
0.0
 11
17.92517782342215
 21
5.853165446214269
 31
0.0
  0
LINE
  5
1E77
330
AF8
100
AcDbEntity
  8
DIM
 62
     0
370
    -2
100
AcDbLine
 10
20.45892782342215
 20
5.853165446214269
 30
0.0
 11
20.90892782342215
 21
5.853165446214269
 31
0.0
  0
SOLID
  5
1E78
330
AF8
100
AcDbEntity
  8
DIM
 62
     0
100
AcDbTrace
 10
18.37517782342215
 20
5.928165446214269
 30
0.0
 11
18.37517782342215
 21
5.778165446214269
 31
0.0
 12
18.82517782342215
 22
5.853165446214269
 32
0.0
 13
18.82517782342215
 23
5.853165446214269
 33
0.0
  0
SOLID
  5
1E79
330
AF8
100
AcDbEntity
  8
DIM
 62
     0
100
AcDbTrace
 10
20.45892782342215
 20
5.928165446214269
 30
0.0
 11
20.45892782342215
 21
5.778165446214269
 31
0.0
 12
20.00892782342215
 22
5.853165446214269
 32
0.0
 13
20.00892782342215
 23
5.853165446214269
 33
0.0
  0
MTEXT
  5
1E7A
330
AF8
100
AcDbEntity
  8
DIM
 62
     0
100
AcDbMText
 10
19.41705282342215
 20
5.853165446214269
 30
0.0
 40
0.3125
 41
0.0
 71
     5
 72
     1
  1
\A1;1.184
 73
     1
 44
1.0
  0
POINT
  5
1E7B
330
AF8
100
AcDbEntity
  8
DEFPOINTS
 62
     0
100
AcDbPoint
 10
18.82517782342215
 20
7.079182446214269
 30
0.0
  0
POINT
  5
1E7C
330
AF8
100
AcDbEntity
  8
DEFPOINTS
 62
     0
100
AcDbPoint
 10
20.00892782342215
 20
7.050682446214269
 30
0.0
  0
POINT
  5
1E7D
330
AF8
100
AcDbEntity
  8
DEFPOINTS
 62
     0
100
AcDbPoint
 10
20.00892782342215
 20
5.853165446214269
 30
0.0
  0
ENDBLK
  5
B04
330
AF8
100
AcDbEntity
  8
0
100
AcDbBlockEnd
  0
BLOCK
  5
B15
330
B0A
100
AcDbEntity
  8
0
100
AcDbBlockBegin
  2
*D33
 70
     1
 10
0.0
 20
0.0
 30
0.0
  3
*D33
  1

  0
LINE
  5
1DA6
330
B0A
100
AcDbEntity
  8
DIM
 62
     0
370
    -2
100
AcDbLine
 10
11.04199831917902
 20
7.000682446214269
 30
0.0
 11
13.26664631917902
 21
7.000682446214269
 31
0.0
  0
LINE
  5
1DA7
330
B0A
100
AcDbEntity
  8
DIM
 62
     0
370
    -2
100
AcDbLine
 10
11.32197731917902
 20
10.36668244621427
 30
0.0
 11
13.26664631917902
 21
10.36668244621426
 31
0.0
  0
LINE
  5
1DA8
330
B0A
100
AcDbEntity
  8
DIM
 62
     0
370
    -2
100
AcDbLine
 10
13.03414631917902
 20
7.450682446214269
 30
0.0
 11
13.03414631917902
 21
8.302432446214268
 31
0.0
  0
LINE
  5
1DA9
330
B0A
100
AcDbEntity
  8
DIM
 62
     0
370
    -2
100
AcDbLine
 10
13.03414631917902
 20
9.916682446214268
 30
0.0
 11
13.03414631917902
 21
9.064932446214267
 31
0.0
  0
SOLID
  5
1DAA
330
B0A
100
AcDbEntity
  8
DIM
 62
     0
100
AcDbTrace
 10
12.95914631917902
 20
7.450682446214269
 30
0.0
 11
13.10914631917902
 21
7.450682446214269
 31
0.0
 12
13.03414631917902
 22
7.000682446214269
 32
0.0
 13
13.03414631917902
 23
7.000682446214269
 33
0.0
  0
SOLID
  5
1DAB
330
B0A
100
AcDbEntity
  8
DIM
 62
     0
100
AcDbTrace
 10
12.95914631917902
 20
9.916682446214268
 30
0.0
 11
13.10914631917902
 21
9.916682446214268
 31
0.0
 12
13.03414631917902
 22
10.36668244621426
 32
0.0
 13
13.03414631917902
 23
10.36668244621426
 33
0.0
  0
MTEXT
  5
1DAC
330
B0A
100
AcDbEntity
  8
DIM
 62
     0
100
AcDbMText
 10
13.03414631917902
 20
8.683682446214271
 30
0.0
 40
0.3125
 41
0.0
 71
     5
 72
     1
  1
\A1;3.366
 73
     1
 44
1.0
  0
POINT
  5
1DAD
330
B0A
100
AcDbEntity
  8
DEFPOINTS
 62
     0
100
AcDbPoint
 10
10.88449831917902
 20
7.000682446214269
 30
0.0
  0
POINT
  5
1DAE
330
B0A
100
AcDbEntity
  8
DEFPOINTS
 62
     0
100
AcDbPoint
 10
11.16447731917902
 20
10.36668244621427
 30
0.0
  0
POINT
  5
1DAF
330
B0A
100
AcDbEntity
  8
DEFPOINTS
 62
     0
100
AcDbPoint
 10
13.03414631917902
 20
10.36668244621426
 30
0.0
  0
ENDBLK
  5
B16
330
B0A
100
AcDbEntity
  8
0
100
AcDbBlockEnd
  0
BLOCK
  5
B23
330
B18
100
AcDbEntity
  8
0
100
AcDbBlockBegin
  2
*D34
 70
     1
 10
0.0
 20
0.0
 30
0.0
  3
*D34
  1

  0
LINE
  5
1DB0
330
B18
100
AcDbEntity
  8
DIM
 62
     0
370
    -2
100
AcDbLine
 10
11.32197731917902
 20
10.36668244621427
 30
0.0
 11
13.26664631917902
 21
10.36668244621426
 31
0.0
  0
LINE
  5
1DB1
330
B18
100
AcDbEntity
  8
DIM
 62
     0
370
    -2
100
AcDbLine
 10
11.32197731917902
 20
11.91036944621427
 30
0.0
 11
13.26664631917902
 21
11.91036944621426
 31
0.0
  0
LINE
  5
1DB2
330
B18
100
AcDbEntity
  8
DIM
 62
     0
370
    -2
100
AcDbLine
 10
13.03414631917902
 20
9.916682446214268
 30
0.0
 11
13.03414631917902
 21
9.466682446214267
 31
0.0
  0
LINE
  5
1DB3
330
B18
100
AcDbEntity
  8
DIM
 62
     0
370
    -2
100
AcDbLine
 10
13.03414631917902
 20
12.36036944621426
 30
0.0
 11
13.03414631917902
 21
12.81036944621426
 31
0.0
  0
SOLID
  5
1DB4
330
B18
100
AcDbEntity
  8
DIM
 62
     0
100
AcDbTrace
 10
12.95914631917902
 20
9.916682446214268
 30
0.0
 11
13.10914631917902
 21
9.916682446214268
 31
0.0
 12
13.03414631917902
 22
10.36668244621426
 32
0.0
 13
13.03414631917902
 23
10.36668244621426
 33
0.0
  0
SOLID
  5
1DB5
330
B18
100
AcDbEntity
  8
DIM
 62
     0
100
AcDbTrace
 10
12.95914631917902
 20
12.36036944621426
 30
0.0
 11
13.10914631917902
 21
12.36036944621426
 31
0.0
 12
13.03414631917902
 22
11.91036944621426
 32
0.0
 13
13.03414631917902
 23
11.91036944621426
 33
0.0
  0
MTEXT
  5
1DB6
330
B18
100
AcDbEntity
  8
DIM
 62
     0
100
AcDbMText
 10
13.03414631917902
 20
11.13852594621427
 30
0.0
 40
0.3125
 41
0.0
 71
     5
 72
     1
  1
\A1;1.544
 73
     1
 44
1.0
  0
POINT
  5
1DB7
330
B18
100
AcDbEntity
  8
DEFPOINTS
 62
     0
100
AcDbPoint
 10
11.16447731917902
 20
10.36668244621427
 30
0.0
  0
POINT
  5
1DB8
330
B18
100
AcDbEntity
  8
DEFPOINTS
 62
     0
100
AcDbPoint
 10
11.16447731917902
 20
11.91036944621427
 30
0.0
  0
POINT
  5
1DB9
330
B18
100
AcDbEntity
  8
DEFPOINTS
 62
     0
100
AcDbPoint
 10
13.03414631917902
 20
11.91036944621426
 30
0.0
  0
ENDBLK
  5
B24
330
B18
100
AcDbEntity
  8
0
100
AcDbBlockEnd
  0
BLOCK
  5
B31
330
B26
100
AcDbEntity
  8
0
100
AcDbBlockBegin
  2
*D35
 70
     1
 10
0.0
 20
0.0
 30
0.0
  3
*D35
  1

  0
LINE
  5
1D9C
330
B26
100
AcDbEntity
  8
DIM
 62
     0
370
    -2
100
AcDbLine
 10
11.32197731917902
 20
10.36668244621427
 30
0.0
 11
12.22701931917902
 21
10.36668244621426
 31
0.0
  0
LINE
  5
1D9D
330
B26
100
AcDbEntity
  8
DIM
 62
     0
370
    -2
100
AcDbLine
 10
11.32197731917902
 20
8.82299444621427
 30
0.0
 11
12.22701931917902
 21
8.822994446214268
 31
0.0
  0
LINE
  5
1D9E
330
B26
100
AcDbEntity
  8
DIM
 62
     0
370
    -2
100
AcDbLine
 10
11.99451931917902
 20
10.81668244621426
 30
0.0
 11
11.99451931917902
 21
11.26668244621427
 31
0.0
  0
LINE
  5
1D9F
330
B26
100
AcDbEntity
  8
DIM
 62
     0
370
    -2
100
AcDbLine
 10
11.99451931917902
 20
8.372994446214271
 30
0.0
 11
11.99451931917902
 21
7.922994446214269
 31
0.0
  0
SOLID
  5
1DA0
330
B26
100
AcDbEntity
  8
DIM
 62
     0
100
AcDbTrace
 10
11.91951931917902
 20
10.81668244621426
 30
0.0
 11
12.06951931917902
 21
10.81668244621426
 31
0.0
 12
11.99451931917902
 22
10.36668244621427
 32
0.0
 13
11.99451931917902
 23
10.36668244621427
 33
0.0
  0
SOLID
  5
1DA1
330
B26
100
AcDbEntity
  8
DIM
 62
     0
100
AcDbTrace
 10
11.91951931917902
 20
8.372994446214271
 30
0.0
 11
12.06951931917902
 21
8.372994446214269
 31
0.0
 12
11.99451931917902
 22
8.82299444621427
 32
0.0
 13
11.99451931917902
 23
8.82299444621427
 33
0.0
  0
MTEXT
  5
1DA2
330
B26
100
AcDbEntity
  8
DIM
 62
     0
100
AcDbMText
 10
11.99451931917902
 20
9.594838446214271
 30
0.0
 40
0.3125
 41
0.0
 71
     5
 72
     1
  1
\A1;1.544
 73
     1
 44
1.0
  0
POINT
  5
1DA3
330
B26
100
AcDbEntity
  8
DEFPOINTS
 62
     0
100
AcDbPoint
 10
11.16447731917902
 20
10.36668244621427
 30
0.0
  0
POINT
  5
1DA4
330
B26
100
AcDbEntity
  8
DEFPOINTS
 62
     0
100
AcDbPoint
 10
11.16447731917902
 20
8.82299444621427
 30
0.0
  0
POINT
  5
1DA5
330
B26
100
AcDbEntity
  8
DEFPOINTS
 62
     0
100
AcDbPoint
 10
11.99451931917902
 20
8.82299444621427
 30
0.0
  0
ENDBLK
  5
B32
330
B26
100
AcDbEntity
  8
0
100
AcDbBlockEnd
  0
BLOCK
  5
B3F
330
B34
100
AcDbEntity
  8
0
100
AcDbBlockBegin
  2
*D36
 70
     1
 10
0.0
 20
0.0
 30
0.0
  3
*D36
  1

  0
LINE
  5
1D36
330
B34
100
AcDbEntity
  8
DIM
 62
     0
370
    -2
100
AcDbLine
 10
6.457248319179026
 20
9.493734446214268
 30
0.0
 11
6.457248319179026
 21
9.38917744621427
 31
0.0
  0
LINE
  5
1D37
330
B34
100
AcDbEntity
  8
DIM
 62
     0
370
    -2
100
AcDbLine
 10
6.339248319179025
 20
9.493734446214268
 30
0.0
 11
6.339248319179025
 21
9.38917744621427
 31
0.0
  0
LINE
  5
1D38
330
B34
100
AcDbEntity
  8
DIM
 62
     0
370
    -2
100
AcDbLine
 10
6.907248319179026
 20
9.62167744621427
 30
0.0
 11
7.357248319179026
 21
9.62167744621427
 31
0.0
  0
LINE
  5
1D39
330
B34
100
AcDbEntity
  8
DIM
 62
     0
370
    -2
100
AcDbLine
 10
5.889248319179025
 20
9.62167744621427
 30
0.0
 11
5.439248319179025
 21
9.62167744621427
 31
0.0
  0
SOLID
  5
1D3A
330
B34
100
AcDbEntity
  8
DIM
 62
     0
100
AcDbTrace
 10
6.907248319179026
 20
9.69667744621427
 30
0.0
 11
6.907248319179026
 21
9.546677446214271
 31
0.0
 12
6.457248319179026
 22
9.62167744621427
 32
0.0
 13
6.457248319179026
 23
9.62167744621427
 33
0.0
  0
SOLID
  5
1D3B
330
B34
100
AcDbEntity
  8
DIM
 62
     0
100
AcDbTrace
 10
5.889248319179025
 20
9.69667744621427
 30
0.0
 11
5.889248319179025
 21
9.546677446214271
 31
0.0
 12
6.339248319179025
 22
9.62167744621427
 32
0.0
 13
6.339248319179025
 23
9.62167744621427
 33
0.0
  0
MTEXT
  5
1D3C
330
B34
100
AcDbEntity
  8
DIM
 62
     0
100
AcDbMText
 10
4.335342069179025
 20
9.62167744621427
 30
0.0
 40
0.3125
 41
0.0
 71
     5
 72
     1
  1
\A1;0.118 TYP.
 73
     1
 44
1.0
  0
POINT
  5
1D3D
330
B34
100
AcDbEntity
  8
DEFPOINTS
 62
     0
100
AcDbPoint
 10
6.457248319179026
 20
9.651234446214269
 30
0.0
  0
POINT
  5
1D3E
330
B34
100
AcDbEntity
  8
DEFPOINTS
 62
     0
100
AcDbPoint
 10
6.339248319179025
 20
9.651234446214269
 30
0.0
  0
POINT
  5
1D3F
330
B34
100
AcDbEntity
  8
DEFPOINTS
 62
     0
100
AcDbPoint
 10
6.339248319179025
 20
9.62167744621427
 30
0.0
  0
ENDBLK
  5
B40
330
B34
100
AcDbEntity
  8
0
100
AcDbBlockEnd
  0
BLOCK
  5
B5D
330
B52
100
AcDbEntity
  8
0
100
AcDbBlockBegin
  2
*D37
 70
     1
 10
0.0
 20
0.0
 30
0.0
  3
*D37
  1

  0
LINE
  5
1CEF
330
B52
100
AcDbEntity
  8
DIM
 62
     0
370
    -2
100
AcDbLine
 10
6.762998319179025
 20
12.96068244621427
 30
0.0
 11
5.002169319179025
 21
12.96068244621427
 31
0.0
  0
LINE
  5
1CF0
330
B52
100
AcDbEntity
  8
DIM
 62
     0
370
    -2
100
AcDbLine
 10
6.755514319179027
 20
12.41068244621426
 30
0.0
 11
5.002169319179025
 21
12.41068244621426
 31
0.0
  0
LINE
  5
1CF1
330
B52
100
AcDbEntity
  8
DIM
 62
     0
370
    -2
100
AcDbLine
 10
5.234669319179025
 20
13.41068244621427
 30
0.0
 11
5.234669319179025
 21
13.86068244621426
 31
0.0
  0
LINE
  5
1CF2
330
B52
100
AcDbEntity
  8
DIM
 62
     0
370
    -2
100
AcDbLine
 10
5.234669319179025
 20
11.96068244621427
 30
0.0
 11
5.234669319179025
 21
11.51068244621426
 31
0.0
  0
SOLID
  5
1CF3
330
B52
100
AcDbEntity
  8
DIM
 62
     0
100
AcDbTrace
 10
5.159669319179025
 20
13.41068244621427
 30
0.0
 11
5.309669319179025
 21
13.41068244621427
 31
0.0
 12
5.234669319179025
 22
12.96068244621427
 32
0.0
 13
5.234669319179025
 23
12.96068244621427
 33
0.0
  0
SOLID
  5
1CF4
330
B52
100
AcDbEntity
  8
DIM
 62
     0
100
AcDbTrace
 10
5.159669319179025
 20
11.96068244621427
 30
0.0
 11
5.309669319179025
 21
11.96068244621427
 31
0.0
 12
5.234669319179025
 22
12.41068244621426
 32
0.0
 13
5.234669319179025
 23
12.41068244621426
 33
0.0
  0
MTEXT
  5
1CF5
330
B52
100
AcDbEntity
  8
DIM
 62
     0
100
AcDbMText
 10
5.234669319179023
 20
12.68568244621427
 30
0.0
 40
0.3125
 41
0.0
 71
     5
 72
     1
  1
\A1;0.550
 73
     1
 44
1.0
  0
POINT
  5
1CF6
330
B52
100
AcDbEntity
  8
DEFPOINTS
 62
     0
100
AcDbPoint
 10
6.920498319179025
 20
12.96068244621427
 30
0.0
  0
POINT
  5
1CF7
330
B52
100
AcDbEntity
  8
DEFPOINTS
 62
     0
100
AcDbPoint
 10
6.913014319179026
 20
12.41068244621426
 30
0.0
  0
POINT
  5
1CF8
330
B52
100
AcDbEntity
  8
DEFPOINTS
 62
     0
100
AcDbPoint
 10
5.234669319179025
 20
12.41068244621426
 30
0.0
  0
ENDBLK
  5
B5E
330
B52
100
AcDbEntity
  8
0
100
AcDbBlockEnd
  0
BLOCK
  5
B86
330
B7B
100
AcDbEntity
  8
0
100
AcDbBlockBegin
  2
*D38
 70
     1
 10
0.0
 20
0.0
 30
0.0
  3
*D38
  1

  0
LINE
  5
1EC7
330
B7B
100
AcDbEntity
  8
DIM
 62
     0
370
    -2
100
AcDbLine
 10
26.65623048921493
 20
7.178682446214269
 30
0.0
 11
26.58123048921493
 21
7.178682446214269
 31
0.0
  0
LINE
  5
1EC8
330
B7B
100
AcDbEntity
  8
DIM
 62
     0
370
    -2
100
AcDbLine
 10
26.65623048921493
 20
7.000682446214269
 30
0.0
 11
26.58123048921493
 21
7.000682446214269
 31
0.0
  0
LINE
  5
1EC9
330
B7B
100
AcDbEntity
  8
DIM
 62
     0
370
    -2
100
AcDbLine
 10
26.81373048921493
 20
7.628682446214269
 30
0.0
 11
26.81373048921493
 21
8.078682446214269
 31
0.0
  0
LINE
  5
1ECA
330
B7B
100
AcDbEntity
  8
DIM
 62
     0
370
    -2
100
AcDbLine
 10
26.81373048921493
 20
6.550682446214269
 30
0.0
 11
26.81373048921493
 21
6.100682446214269
 31
0.0
  0
LINE
  5
1ECB
330
B7B
100
AcDbEntity
  8
DIM
 62
     0
370
    -2
100
AcDbLine
 10
26.81373048921493
 20
6.100682446214269
 30
0.0
 11
26.36373048921493
 21
6.100682446214269
 31
0.0
  0
SOLID
  5
1ECC
330
B7B
100
AcDbEntity
  8
DIM
 62
     0
100
AcDbTrace
 10
26.73873048921493
 20
7.628682446214269
 30
0.0
 11
26.88873048921493
 21
7.628682446214269
 31
0.0
 12
26.81373048921493
 22
7.178682446214269
 32
0.0
 13
26.81373048921493
 23
7.178682446214269
 33
0.0
  0
SOLID
  5
1ECD
330
B7B
100
AcDbEntity
  8
DIM
 62
     0
100
AcDbTrace
 10
26.73873048921493
 20
6.550682446214269
 30
0.0
 11
26.88873048921493
 21
6.550682446214269
 31
0.0
 12
26.81373048921493
 22
7.000682446214269
 32
0.0
 13
26.81373048921493
 23
7.000682446214269
 33
0.0
  0
MTEXT
  5
1ECE
330
B7B
100
AcDbEntity
  8
DIM
 62
     0
100
AcDbMText
 10
25.22076173921493
 20
6.100682446214273
 30
0.0
 40
0.3125
 41
0.0
 71
     5
 72
     1
  1
\A1;0.178 TYP.
 73
     1
 44
1.0
  0
POINT
  5
1ECF
330
B7B
100
AcDbEntity
  8
DEFPOINTS
 62
     0
100
AcDbPoint
 10
26.81373048921493
 20
7.178682446214269
 30
0.0
  0
POINT
  5
1ED0
330
B7B
100
AcDbEntity
  8
DEFPOINTS
 62
     0
100
AcDbPoint
 10
26.81373048921493
 20
7.000682446214269
 30
0.0
  0
POINT
  5
1ED1
330
B7B
100
AcDbEntity
  8
DEFPOINTS
 62
     0
100
AcDbPoint
 10
26.81373048921493
 20
7.000682446214269
 30
0.0
  0
ENDBLK
  5
B87
330
B7B
100
AcDbEntity
  8
0
100
AcDbBlockEnd
  0
BLOCK
  5
BBE
330
BB3
100
AcDbEntity
  8
0
100
AcDbBlockBegin
  2
*D39
 70
     1
 10
0.0
 20
0.0
 30
0.0
  3
*D39
  1

  0
LINE
  5
1E93
330
BB3
100
AcDbEntity
  8
DIM
 62
     0
370
    -2
100
AcDbLine
 10
18.32742782342215
 20
11.86661944621427
 30
0.0
 11
17.76019382342215
 21
11.86661944621427
 31
0.0
  0
LINE
  5
1E94
330
BB3
100
AcDbEntity
  8
DIM
 62
     0
370
    -2
100
AcDbLine
 10
18.32742782342215
 20
11.81661944621427
 30
0.0
 11
17.76019382342215
 21
11.81661944621427
 31
0.0
  0
LINE
  5
1E95
330
BB3
100
AcDbEntity
  8
DIM
 62
     0
370
    -2
100
AcDbLine
 10
17.99269382342215
 20
12.31661944621427
 30
0.0
 11
17.99269382342215
 21
12.76661944621427
 31
0.0
  0
LINE
  5
1E96
330
BB3
100
AcDbEntity
  8
DIM
 62
     0
370
    -2
100
AcDbLine
 10
17.99269382342215
 20
11.36661944621427
 30
0.0
 11
17.99269382342215
 21
10.91661944621427
 31
0.0
  0
LINE
  5
1E97
330
BB3
100
AcDbEntity
  8
DIM
 62
     0
370
    -2
100
AcDbLine
 10
17.99269382342215
 20
10.91661944621427
 30
0.0
 11
17.54269382342215
 21
10.91661944621427
 31
0.0
  0
SOLID
  5
1E98
330
BB3
100
AcDbEntity
  8
DIM
 62
     0
100
AcDbTrace
 10
17.91769382342215
 20
12.31661944621427
 30
0.0
 11
18.06769382342215
 21
12.31661944621427
 31
0.0
 12
17.99269382342215
 22
11.86661944621427
 32
0.0
 13
17.99269382342215
 23
11.86661944621427
 33
0.0
  0
SOLID
  5
1E99
330
BB3
100
AcDbEntity
  8
DIM
 62
     0
100
AcDbTrace
 10
17.91769382342215
 20
11.36661944621427
 30
0.0
 11
18.06769382342215
 21
11.36661944621427
 31
0.0
 12
17.99269382342215
 22
11.81661944621427
 32
0.0
 13
17.99269382342215
 23
11.81661944621427
 33
0.0
  0
MTEXT
  5
1E9A
330
BB3
100
AcDbEntity
  8
DIM
 62
     0
100
AcDbMText
 10
16.90753757342214
 20
10.91661944621427
 30
0.0
 40
0.3125
 41
0.0
 71
     5
 72
     1
  1
\A1;0.050
 73
     1
 44
1.0
  0
POINT
  5
1E9B
330
BB3
100
AcDbEntity
  8
DEFPOINTS
 62
     0
100
AcDbPoint
 10
18.48492782342215
 20
11.86661944621427
 30
0.0
  0
POINT
  5
1E9C
330
BB3
100
AcDbEntity
  8
DEFPOINTS
 62
     0
100
AcDbPoint
 10
18.48492782342215
 20
11.81661944621427
 30
0.0
  0
POINT
  5
1E9D
330
BB3
100
AcDbEntity
  8
DEFPOINTS
 62
     0
100
AcDbPoint
 10
17.99269382342215
 20
11.81661944621427
 30
0.0
  0
ENDBLK
  5
BBF
330
BB3
100
AcDbEntity
  8
0
100
AcDbBlockEnd
  0
BLOCK
  5
BCC
330
BC1
100
AcDbEntity
  8
0
100
AcDbBlockBegin
  2
*D40
 70
     1
 10
0.0
 20
0.0
 30
0.0
  3
*D40
  1

  0
LINE
  5
1E7E
330
BC1
100
AcDbEntity
  8
DIM
 62
     0
370
    -2
100
AcDbLine
 10
18.32742782342215
 20
11.86661944621427
 30
0.0
 11
16.00694282342215
 21
11.86661944621427
 31
0.0
  0
LINE
  5
1E7F
330
BC1
100
AcDbEntity
  8
DIM
 62
     0
370
    -2
100
AcDbLine
 10
18.32742782342215
 20
11.95411944621427
 30
0.0
 11
16.00694282342215
 21
11.95411944621427
 31
0.0
  0
LINE
  5
1E80
330
BC1
100
AcDbEntity
  8
DIM
 62
     0
370
    -2
100
AcDbLine
 10
16.23944282342215
 20
11.41661944621427
 30
0.0
 11
16.23944282342215
 21
10.96661944621427
 31
0.0
  0
LINE
  5
1E81
330
BC1
100
AcDbEntity
  8
DIM
 62
     0
370
    -2
100
AcDbLine
 10
16.23944282342215
 20
12.40411944621427
 30
0.0
 11
16.23944282342215
 21
12.85411944621427
 31
0.0
  0
LINE
  5
1E82
330
BC1
100
AcDbEntity
  8
DIM
 62
     0
370
    -2
100
AcDbLine
 10
16.23944282342215
 20
12.85411944621427
 30
0.0
 11
16.68944282342215
 21
12.85411944621427
 31
0.0
  0
SOLID
  5
1E83
330
BC1
100
AcDbEntity
  8
DIM
 62
     0
100
AcDbTrace
 10
16.16444282342215
 20
11.41661944621427
 30
0.0
 11
16.31444282342215
 21
11.41661944621427
 31
0.0
 12
16.23944282342215
 22
11.86661944621427
 32
0.0
 13
16.23944282342215
 23
11.86661944621427
 33
0.0
  0
SOLID
  5
1E84
330
BC1
100
AcDbEntity
  8
DIM
 62
     0
100
AcDbTrace
 10
16.16444282342215
 20
12.40411944621427
 30
0.0
 11
16.31444282342215
 21
12.40411944621427
 31
0.0
 12
16.23944282342215
 22
11.95411944621427
 32
0.0
 13
16.23944282342215
 23
11.95411944621427
 33
0.0
  0
MTEXT
  5
1E85
330
BC1
100
AcDbEntity
  8
DIM
 62
     0
100
AcDbMText
 10
17.34413032342215
 20
12.85411944621427
 30
0.0
 40
0.3125
 41
0.0
 71
     5
 72
     1
  1
\A1;0.088
 73
     1
 44
1.0
  0
POINT
  5
1E86
330
BC1
100
AcDbEntity
  8
DEFPOINTS
 62
     0
100
AcDbPoint
 10
18.48492782342215
 20
11.86661944621427
 30
0.0
  0
POINT
  5
1E87
330
BC1
100
AcDbEntity
  8
DEFPOINTS
 62
     0
100
AcDbPoint
 10
18.48492782342215
 20
11.95411944621427
 30
0.0
  0
POINT
  5
1E88
330
BC1
100
AcDbEntity
  8
DEFPOINTS
 62
     0
100
AcDbPoint
 10
16.23944282342215
 20
11.95411944621427
 30
0.0
  0
ENDBLK
  5
BCD
330
BC1
100
AcDbEntity
  8
0
100
AcDbBlockEnd
  0
BLOCK
  5
BDA
330
BCF
100
AcDbEntity
  8
0
100
AcDbBlockBegin
  2
*D41
 70
     1
 10
0.0
 20
0.0
 30
0.0
  3
*D41
  1

  0
LINE
  5
1E40
330
BCF
100
AcDbEntity
  8
DIM
 62
     0
370
    -2
100
AcDbLine
 10
20.16642782342215
 20
7.079182446214269
 30
0.0
 11
20.69966782342215
 21
7.079182446214269
 31
0.0
  0
LINE
  5
1E41
330
BCF
100
AcDbEntity
  8
DIM
 62
     0
370
    -2
100
AcDbLine
 10
20.16642782342215
 20
7.394182446214269
 30
0.0
 11
20.69966782342215
 21
7.394182446214269
 31
0.0
  0
LINE
  5
1E42
330
BCF
100
AcDbEntity
  8
DIM
 62
     0
370
    -2
100
AcDbLine
 10
20.46716782342215
 20
6.629182446214269
 30
0.0
 11
20.46716782342215
 21
6.179182446214269
 31
0.0
  0
LINE
  5
1E43
330
BCF
100
AcDbEntity
  8
DIM
 62
     0
370
    -2
100
AcDbLine
 10
20.46716782342215
 20
7.844182446214269
 30
0.0
 11
20.46716782342215
 21
8.294182446214268
 31
0.0
  0
LINE
  5
1E44
330
BCF
100
AcDbEntity
  8
DIM
 62
     0
370
    -2
100
AcDbLine
 10
20.46716782342215
 20
8.294182446214268
 30
0.0
 11
20.91716782342215
 21
8.294182446214268
 31
0.0
  0
SOLID
  5
1E45
330
BCF
100
AcDbEntity
  8
DIM
 62
     0
100
AcDbTrace
 10
20.39216782342215
 20
6.629182446214269
 30
0.0
 11
20.54216782342215
 21
6.629182446214269
 31
0.0
 12
20.46716782342215
 22
7.079182446214269
 32
0.0
 13
20.46716782342215
 23
7.079182446214269
 33
0.0
  0
SOLID
  5
1E46
330
BCF
100
AcDbEntity
  8
DIM
 62
     0
100
AcDbTrace
 10
20.39216782342215
 20
7.844182446214269
 30
0.0
 11
20.54216782342215
 21
7.844182446214269
 31
0.0
 12
20.46716782342215
 22
7.394182446214269
 32
0.0
 13
20.46716782342215
 23
7.394182446214269
 33
0.0
  0
MTEXT
  5
1E47
330
BCF
100
AcDbEntity
  8
DIM
 62
     0
100
AcDbMText
 10
22.02107407342215
 20
8.294182446214271
 30
0.0
 40
0.3125
 41
0.0
 71
     5
 72
     1
  1
\A1;0.313 DIA.
 73
     1
 44
1.0
  0
POINT
  5
1E48
330
BCF
100
AcDbEntity
  8
DEFPOINTS
 62
     0
100
AcDbPoint
 10
20.00892782342215
 20
7.079182446214269
 30
0.0
  0
POINT
  5
1E49
330
BCF
100
AcDbEntity
  8
DEFPOINTS
 62
     0
100
AcDbPoint
 10
20.00892782342215
 20
7.394182446214269
 30
0.0
  0
POINT
  5
1E4A
330
BCF
100
AcDbEntity
  8
DEFPOINTS
 62
     0
100
AcDbPoint
 10
20.46716782342215
 20
7.394182446214269
 30
0.0
  0
ENDBLK
  5
BDB
330
BCF
100
AcDbEntity
  8
0
100
AcDbBlockEnd
  0
BLOCK
  5
C39
330
C2E
100
AcDbEntity
  8
0
100
AcDbBlockBegin
  2
*D42
 70
     1
 10
0.0
 20
0.0
 30
0.0
  3
*D42
  1

  0
LINE
  5
1EBD
330
C2E
100
AcDbEntity
  8
DIM
 62
     0
370
    -2
100
AcDbLine
 10
34.04575348921493
 20
9.657901446214269
 30
0.0
 11
34.04575348921493
 21
9.53141944621427
 31
0.0
  0
LINE
  5
1EBE
330
C2E
100
AcDbEntity
  8
DIM
 62
     0
370
    -2
100
AcDbLine
 10
34.16575348921493
 20
9.657901446214269
 30
0.0
 11
34.16575348921493
 21
9.53141944621427
 31
0.0
  0
LINE
  5
1EBF
330
C2E
100
AcDbEntity
  8
DIM
 62
     0
370
    -2
100
AcDbLine
 10
33.59575348921493
 20
9.76391944621427
 30
0.0
 11
33.14575348921493
 21
9.76391944621427
 31
0.0
  0
LINE
  5
1EC0
330
C2E
100
AcDbEntity
  8
DIM
 62
     0
370
    -2
100
AcDbLine
 10
34.61575348921494
 20
9.76391944621427
 30
0.0
 11
35.06575348921493
 21
9.76391944621427
 31
0.0
  0
SOLID
  5
1EC1
330
C2E
100
AcDbEntity
  8
DIM
 62
     0
100
AcDbTrace
 10
33.59575348921493
 20
9.838919446214269
 30
0.0
 11
33.59575348921493
 21
9.688919446214271
 31
0.0
 12
34.04575348921493
 22
9.76391944621427
 32
0.0
 13
34.04575348921493
 23
9.76391944621427
 33
0.0
  0
SOLID
  5
1EC2
330
C2E
100
AcDbEntity
  8
DIM
 62
     0
100
AcDbTrace
 10
34.61575348921494
 20
9.838919446214269
 30
0.0
 11
34.61575348921494
 21
9.688919446214271
 31
0.0
 12
34.16575348921493
 22
9.76391944621427
 32
0.0
 13
34.16575348921493
 23
9.76391944621427
 33
0.0
  0
MTEXT
  5
1EC3
330
C2E
100
AcDbEntity
  8
DIM
 62
     0
100
AcDbMText
 10
35.68137848921493
 20
9.76391944621427
 30
0.0
 40
0.3125
 41
0.0
 71
     5
 72
     1
  1
\A1;0.120
 73
     1
 44
1.0
  0
POINT
  5
1EC4
330
C2E
100
AcDbEntity
  8
DEFPOINTS
 62
     0
100
AcDbPoint
 10
34.04575348921493
 20
9.81540144621427
 30
0.0
  0
POINT
  5
1EC5
330
C2E
100
AcDbEntity
  8
DEFPOINTS
 62
     0
100
AcDbPoint
 10
34.16575348921493
 20
9.81540144621427
 30
0.0
  0
POINT
  5
1EC6
330
C2E
100
AcDbEntity
  8
DEFPOINTS
 62
     0
100
AcDbPoint
 10
34.16575348921493
 20
9.76391944621427
 30
0.0
  0
ENDBLK
  5
C3A
330
C2E
100
AcDbEntity
  8
0
100
AcDbBlockEnd
  0
BLOCK
  5
C47
330
C3C
100
AcDbEntity
  8
0
100
AcDbBlockBegin
  2
*D43
 70
     1
 10
0.0
 20
0.0
 30
0.0
  3
*D43
  1

  0
LINE
  5
1ED2
330
C3C
100
AcDbEntity
  8
DIM
 62
     0
370
    -2
100
AcDbLine
 10
34.16575348921493
 20
13.82768244621427
 30
0.0
 11
34.16575348921493
 21
14.45313744621427
 31
0.0
  0
LINE
  5
1ED3
330
C3C
100
AcDbEntity
  8
DIM
 62
     0
370
    -2
100
AcDbLine
 10
32.58775348921493
 20
13.89018244621427
 30
0.0
 11
32.58775348921493
 21
14.45313744621427
 31
0.0
  0
LINE
  5
1ED4
330
C3C
100
AcDbEntity
  8
DIM
 62
     0
370
    -2
100
AcDbLine
 10
34.61575348921494
 20
14.22063744621427
 30
0.0
 11
35.06575348921493
 21
14.22063744621427
 31
0.0
  0
LINE
  5
1ED5
330
C3C
100
AcDbEntity
  8
DIM
 62
     0
370
    -2
100
AcDbLine
 10
32.13775348921493
 20
14.22063744621427
 30
0.0
 11
31.68775348921493
 21
14.22063744621427
 31
0.0
  0
SOLID
  5
1ED6
330
C3C
100
AcDbEntity
  8
DIM
 62
     0
100
AcDbTrace
 10
34.61575348921494
 20
14.29563744621427
 30
0.0
 11
34.61575348921494
 21
14.14563744621427
 31
0.0
 12
34.16575348921493
 22
14.22063744621427
 32
0.0
 13
34.16575348921493
 23
14.22063744621427
 33
0.0
  0
SOLID
  5
1ED7
330
C3C
100
AcDbEntity
  8
DIM
 62
     0
100
AcDbTrace
 10
32.13775348921493
 20
14.29563744621427
 30
0.0
 11
32.13775348921493
 21
14.14563744621427
 31
0.0
 12
32.58775348921493
 22
14.22063744621427
 32
0.0
 13
32.58775348921493
 23
14.22063744621427
 33
0.0
  0
MTEXT
  5
1ED8
330
C3C
100
AcDbEntity
  8
DIM
 62
     0
100
AcDbMText
 10
33.37675348921493
 20
14.22063744621427
 30
0.0
 40
0.3125
 41
0.0
 71
     5
 72
     1
  1
\A1;1.578
 73
     1
 44
1.0
  0
POINT
  5
1ED9
330
C3C
100
AcDbEntity
  8
DEFPOINTS
 62
     0
100
AcDbPoint
 10
34.16575348921493
 20
13.67018244621426
 30
0.0
  0
POINT
  5
1EDA
330
C3C
100
AcDbEntity
  8
DEFPOINTS
 62
     0
100
AcDbPoint
 10
32.58775348921493
 20
13.73268244621427
 30
0.0
  0
POINT
  5
1EDB
330
C3C
100
AcDbEntity
  8
DEFPOINTS
 62
     0
100
AcDbPoint
 10
32.58775348921493
 20
14.22063744621427
 30
0.0
  0
ENDBLK
  5
C48
330
C3C
100
AcDbEntity
  8
0
100
AcDbBlockEnd
  0
BLOCK
  5
1540
330
1529
100
AcDbEntity
  8
0
100
AcDbBlockBegin
  2
HBS
 70
     0
 10
0.0
 20
0.0
 30
0.0
  3
HBS
  1

  0
LINE
  5
152A
330
1529
100
AcDbEntity
  8
TITLE
100
AcDbLine
 10
0.0620000000000118
 20
10.266
 30
0.0
 11
16.53800000000001
 21
10.266
 31
0.0
  0
LINE
  5
152B
330
1529
100
AcDbEntity
  8
TITLE
100
AcDbLine
 10
16.53800000000001
 20
0.0620000000000012
 30
0.0
 11
0.0620000000000118
 21
0.0620000000000012
 31
0.0
  0
LINE
  5
152C
330
1529
100
AcDbEntity
  8
TITLE
100
AcDbLine
 10
0.0
 20
10.32799999999999
 30
0.0
 11
16.59999999999999
 21
10.32799999999999
 31
0.0
  0
LINE
  5
152D
330
1529
100
AcDbEntity
  8
TITLE
100
AcDbLine
 10
16.59999999999999
 20
0.0
 30
0.0
 11
0.0
 21
0.0
 31
0.0
  0
LINE
  5
152E
330
1529
100
AcDbEntity
  8
TITLE
100
AcDbLine
 10
0.0620000000000118
 20
9.848000000000002
 30
0.0
 11
16.53800000000001
 21
9.848000000000006
 31
0.0
  0
LINE
  5
152F
330
1529
100
AcDbEntity
  8
TITLE
100
AcDbLine
 10
0.0620000000000118
 20
0.0620000000000012
 30
0.0
 11
0.0620000000000118
 21
10.266
 31
0.0
  0
LINE
  5
1530
330
1529
100
AcDbEntity
  8
TITLE
100
AcDbLine
 10
0.0
 20
0.0
 30
0.0
 11
0.0
 21
10.32799999999999
 31
0.0
  0
TEXT
  5
1531
330
1529
100
AcDbEntity
  8
TEXT
100
AcDbText
 10
0.2078333333333452
 20
9.888079195640081
 30
0.0
 40
0.125
  1
NAME
 72
     1
 11
0.4370000000000119
 21
9.888079195640081
 31
0.0
100
AcDbText
  0
TEXT
  5
1532
330
1529
100
AcDbEntity
  8
TEXT
100
AcDbText
 10
0.2078333333333452
 20
10.09641252897341
 30
0.0
 40
0.125
  1
PART
 72
     1
 11
0.4370000000000119
 21
10.09641252897341
 31
0.0
100
AcDbText
  0
LINE
  5
1533
330
1529
100
AcDbEntity
  8
TITLE
100
AcDbLine
 10
0.8120000000000118
 20
9.848000000000002
 30
0.0
 11
0.8120000000000118
 21
10.266
 31
0.0
  0
LINE
  5
1534
330
1529
100
AcDbEntity
  8
TITLE
100
AcDbLine
 10
7.0
 20
10.266
 30
0.0
 11
7.0
 21
9.848000000000002
 31
0.0
  0
LINE
  5
1535
330
1529
100
AcDbEntity
  8
TITLE
100
AcDbLine
 10
7.062000000000011
 20
10.266
 30
0.0
 11
7.062000000000011
 21
9.848000000000002
 31
0.0
  0
LINE
  5
1536
330
1529
100
AcDbEntity
  8
TITLE
100
AcDbLine
 10
7.812000000000011
 20
10.266
 30
0.0
 11
7.812000000000011
 21
9.848000000000002
 31
0.0
  0
TEXT
  5
1537
330
1529
100
AcDbEntity
  8
TEXT
100
AcDbText
 10
7.312000000000011
 20
9.888079195640081
 30
0.0
 40
0.125
  1
No.
 72
     1
 11
7.437000000000011
 21
9.888079195640081
 31
0.0
100
AcDbText
  0
TEXT
  5
1538
330
1529
100
AcDbEntity
  8
TEXT
100
AcDbText
 10
7.207833333333344
 20
10.09641252897341
 30
0.0
 40
0.125
  1
PART
 72
     1
 11
7.437000000000011
 21
10.09641252897341
 31
0.0
100
AcDbText
  0
LINE
  5
1539
330
1529
100
AcDbEntity
  8
TITLE
100
AcDbLine
 10
16.53800000000001
 20
10.266
 30
0.0
 11
16.53800000000001
 21
0.0620000000000012
 31
0.0
  0
LINE
  5
153A
330
1529
100
AcDbEntity
  8
TITLE
100
AcDbLine
 10
16.59999999999999
 20
10.32799999999999
 30
0.0
 11
16.59999999999999
 21
0.0
 31
0.0
  0
TEXT
  5
153B
330
1529
100
AcDbEntity
  8
TEXT
100
AcDbText
 10
14.22865779971668
 20
10.09641252897341
 30
0.0
 40
0.125
  1
REV.
 72
     1
 11
14.43699113305001
 21
10.09641252897341
 31
0.0
100
AcDbText
  0
TEXT
  5
153C
330
1529
100
AcDbEntity
  8
TEXT
100
AcDbText
 10
14.20782446638335
 20
9.888079195640081
 30
0.0
 40
0.125
  1
DATE
 72
     1
 11
14.43699113305001
 21
9.888079195640081
 31
0.0
100
AcDbText
  0
LINE
  5
153D
330
1529
100
AcDbEntity
  8
TITLE
100
AcDbLine
 10
14.06199113305001
 20
10.266
 30
0.0
 11
14.06199113305001
 21
9.848000000000002
 31
0.0
  0
LINE
  5
153E
330
1529
100
AcDbEntity
  8
TITLE
100
AcDbLine
 10
14.81199113305001
 20
10.266
 30
0.0
 11
14.81199113305001
 21
9.848000000000002
 31
0.0
  0
LINE
  5
153F
330
1529
100
AcDbEntity
  8
TITLE
100
AcDbLine
 10
13.99999113305
 20
10.266
 30
0.0
 11
13.99999113305
 21
9.848000000000002
 31
0.0
  0
ENDBLK
  5
1541
330
1529
100
AcDbEntity
  8
0
100
AcDbBlockEnd
  0
BLOCK
  5
15D2
330
15C7
100
AcDbEntity
  8
0
100
AcDbBlockBegin
  2
*D45
 70
     1
 10
0.0
 20
0.0
 30
0.0
  3
*D45
  1

  0
LINE
  5
1BCE
330
15C7
100
AcDbEntity
  8
DIM
 62
     0
370
    -2
100
AcDbLine
 10
36.20198675843275
 20
19.40540764391841
 30
0.0
 11
37.51709675843275
 21
19.40540764391841
 31
0.0
  0
LINE
  5
1BCF
330
15C7
100
AcDbEntity
  8
DIM
 62
     0
370
    -2
100
AcDbLine
 10
36.20198675843275
 20
20.64540764391841
 30
0.0
 11
37.51709675843275
 21
20.64540764391841
 31
0.0
  0
LINE
  5
1BD0
330
15C7
100
AcDbEntity
  8
DIM
 62
     0
370
    -2
100
AcDbLine
 10
37.28459675843275
 20
18.95540764391841
 30
0.0
 11
37.28459675843275
 21
18.50540764391841
 31
0.0
  0
LINE
  5
1BD1
330
15C7
100
AcDbEntity
  8
DIM
 62
     0
370
    -2
100
AcDbLine
 10
37.28459675843275
 20
21.09540764391841
 30
0.0
 11
37.28459675843275
 21
21.54540764391841
 31
0.0
  0
SOLID
  5
1BD2
330
15C7
100
AcDbEntity
  8
DIM
 62
     0
100
AcDbTrace
 10
37.20959675843274
 20
18.95540764391841
 30
0.0
 11
37.35959675843275
 21
18.95540764391841
 31
0.0
 12
37.28459675843275
 22
19.40540764391841
 32
0.0
 13
37.28459675843275
 23
19.40540764391841
 33
0.0
  0
SOLID
  5
1BD3
330
15C7
100
AcDbEntity
  8
DIM
 62
     0
100
AcDbTrace
 10
37.20959675843274
 20
21.09540764391841
 30
0.0
 11
37.35959675843275
 21
21.09540764391841
 31
0.0
 12
37.28459675843275
 22
20.64540764391841
 32
0.0
 13
37.28459675843275
 23
20.64540764391841
 33
0.0
  0
MTEXT
  5
1BD4
330
15C7
100
AcDbEntity
  8
DIM
 62
     0
100
AcDbMText
 10
37.28459675843274
 20
20.02540764391842
 30
0.0
 40
0.3125
 41
0.0
 71
     5
 72
     1
  1
\A1;0.310 DIA.\PC'BORE
 73
     1
 44
1.0
  0
POINT
  5
1BD5
330
15C7
100
AcDbEntity
  8
DEFPOINTS
 62
     0
100
AcDbPoint
 10
36.04448675843275
 20
19.40540764391841
 30
0.0
  0
POINT
  5
1BD6
330
15C7
100
AcDbEntity
  8
DEFPOINTS
 62
     0
100
AcDbPoint
 10
36.04448675843275
 20
20.64540764391841
 30
0.0
  0
POINT
  5
1BD7
330
15C7
100
AcDbEntity
  8
DEFPOINTS
 62
     0
100
AcDbPoint
 10
37.28459675843275
 20
20.64540764391841
 30
0.0
  0
ENDBLK
  5
15D3
330
15C7
100
AcDbEntity
  8
0
100
AcDbBlockEnd
  0
BLOCK
  5
15E0
330
15D4
100
AcDbEntity
  8
0
100
AcDbBlockBegin
  2
*D46
 70
     1
 10
0.0
 20
0.0
 30
0.0
  3
*D46
  1

  0
LINE
  5
1BB9
330
15D4
100
AcDbEntity
  8
DIM
 62
     0
370
    -2
100
AcDbLine
 10
29.57949175843274
 20
20.80844664391842
 30
0.0
 11
26.87574588800815
 21
20.80844664391842
 31
0.0
  0
LINE
  5
1BBA
330
15D4
100
AcDbEntity
  8
DIM
 62
     0
370
    -2
100
AcDbLine
 10
29.57949175843274
 20
21.12844664391842
 30
0.0
 11
26.87574588800815
 21
21.12844664391842
 31
0.0
  0
LINE
  5
1BBB
330
15D4
100
AcDbEntity
  8
DIM
 62
     0
370
    -2
100
AcDbLine
 10
27.10824588800815
 20
21.57844664391842
 30
0.0
 11
27.10824588800815
 21
22.02844664391842
 31
0.0
  0
LINE
  5
1BBC
330
15D4
100
AcDbEntity
  8
DIM
 62
     0
370
    -2
100
AcDbLine
 10
27.10824588800815
 20
20.35844664391842
 30
0.0
 11
27.10824588800815
 21
19.90844664391841
 31
0.0
  0
LINE
  5
1BBD
330
15D4
100
AcDbEntity
  8
DIM
 62
     0
370
    -2
100
AcDbLine
 10
27.10824588800815
 20
19.90844664391841
 30
0.0
 11
26.65824588800815
 21
19.90844664391841
 31
0.0
  0
SOLID
  5
1BBE
330
15D4
100
AcDbEntity
  8
DIM
 62
     0
100
AcDbTrace
 10
27.03324588800815
 20
21.57844664391842
 30
0.0
 11
27.18324588800815
 21
21.57844664391842
 31
0.0
 12
27.10824588800815
 22
21.12844664391842
 32
0.0
 13
27.10824588800815
 23
21.12844664391842
 33
0.0
  0
SOLID
  5
1BBF
330
15D4
100
AcDbEntity
  8
DIM
 62
     0
100
AcDbTrace
 10
27.03324588800815
 20
20.35844664391842
 30
0.0
 11
27.18324588800815
 21
20.35844664391842
 31
0.0
 12
27.10824588800815
 22
20.80844664391842
 32
0.0
 13
27.10824588800815
 23
20.80844664391842
 33
0.0
  0
MTEXT
  5
1BC0
330
15D4
100
AcDbEntity
  8
DIM
 62
     0
100
AcDbMText
 10
26.02308963800815
 20
19.90844664391842
 30
0.0
 40
0.3125
 41
0.0
 71
     5
 72
     1
  1
\A1;0.080
 73
     1
 44
1.0
  0
POINT
  5
1BC1
330
15D4
100
AcDbEntity
  8
DEFPOINTS
 62
     0
100
AcDbPoint
 10
29.73699175843274
 20
20.80844664391842
 30
0.0
  0
POINT
  5
1BC2
330
15D4
100
AcDbEntity
  8
DEFPOINTS
 62
     0
100
AcDbPoint
 10
29.73699175843274
 20
21.12844664391842
 30
0.0
  0
POINT
  5
1BC3
330
15D4
100
AcDbEntity
  8
DEFPOINTS
 62
     0
100
AcDbPoint
 10
27.10824588800815
 20
21.12844664391842
 30
0.0
  0
ENDBLK
  5
15E1
330
15D4
100
AcDbEntity
  8
0
100
AcDbBlockEnd
  0
BLOCK
  5
15ED
330
15E2
100
AcDbEntity
  8
0
100
AcDbBlockBegin
  2
*D47
 70
     1
 10
0.0
 20
0.0
 30
0.0
  3
*D47
  1

  0
LINE
  5
1CAA
330
15E2
100
AcDbEntity
  8
DIM
 62
     0
370
    -2
100
AcDbLine
 10
29.57949175843273
 20
20.37169464391842
 30
0.0
 11
28.01812075843275
 21
20.37169464391842
 31
0.0
  0
LINE
  5
1CAB
330
15E2
100
AcDbEntity
  8
DIM
 62
     0
370
    -2
100
AcDbLine
 10
29.57949175843273
 20
19.68419464391842
 30
0.0
 11
28.01812075843275
 21
19.68419464391842
 31
0.0
  0
LINE
  5
1CAC
330
15E2
100
AcDbEntity
  8
DIM
 62
     0
370
    -2
100
AcDbLine
 10
28.25062075843275
 20
20.82169464391842
 30
0.0
 11
28.25062075843275
 21
21.27169464391842
 31
0.0
  0
LINE
  5
1CAD
330
15E2
100
AcDbEntity
  8
DIM
 62
     0
370
    -2
100
AcDbLine
 10
28.25062075843275
 20
19.23419464391842
 30
0.0
 11
28.25062075843275
 21
18.78419464391842
 31
0.0
  0
SOLID
  5
1CAE
330
15E2
100
AcDbEntity
  8
DIM
 62
     0
100
AcDbTrace
 10
28.17562075843275
 20
20.82169464391842
 30
0.0
 11
28.32562075843275
 21
20.82169464391842
 31
0.0
 12
28.25062075843275
 22
20.37169464391842
 32
0.0
 13
28.25062075843275
 23
20.37169464391842
 33
0.0
  0
SOLID
  5
1CAF
330
15E2
100
AcDbEntity
  8
DIM
 62
     0
100
AcDbTrace
 10
28.17562075843275
 20
19.23419464391842
 30
0.0
 11
28.32562075843275
 21
19.23419464391842
 31
0.0
 12
28.25062075843275
 22
19.68419464391842
 32
0.0
 13
28.25062075843275
 23
19.68419464391842
 33
0.0
  0
MTEXT
  5
1CB0
330
15E2
100
AcDbEntity
  8
DIM
 62
     0
100
AcDbMText
 10
28.25062075843275
 20
20.02794464391843
 30
0.0
 40
0.3125
 41
0.0
 71
     5
 72
     1
  1
\A1;0.172 DIA.
 73
     1
 44
1.0
  0
POINT
  5
1CB1
330
15E2
100
AcDbEntity
  8
DEFPOINTS
 62
     0
100
AcDbPoint
 10
29.73699175843274
 20
20.37169464391842
 30
0.0
  0
POINT
  5
1CB2
330
15E2
100
AcDbEntity
  8
DEFPOINTS
 62
     0
100
AcDbPoint
 10
29.73699175843274
 20
19.68419464391842
 30
0.0
  0
POINT
  5
1CB3
330
15E2
100
AcDbEntity
  8
DEFPOINTS
 62
     0
100
AcDbPoint
 10
28.25062075843275
 20
19.68419464391842
 30
0.0
  0
ENDBLK
  5
15EE
330
15E2
100
AcDbEntity
  8
0
100
AcDbBlockEnd
  0
BLOCK
  5
1607
330
15FC
100
AcDbEntity
  8
0
100
AcDbBlockBegin
  2
*D48
 70
     1
 10
0.0
 20
0.0
 30
0.0
  3
*D48
  1

  0
LINE
  5
1BAF
330
15FC
100
AcDbEntity
  8
DIM
 62
     0
370
    -2
100
AcDbLine
 10
29.73699175843274
 20
22.50088763805356
 30
0.0
 11
29.73699175843274
 21
23.20899131014988
 31
0.0
  0
LINE
  5
1BB0
330
15FC
100
AcDbEntity
  8
DIM
 62
     0
370
    -2
100
AcDbLine
 10
30.19699175843274
 20
21.28594664391842
 30
0.0
 11
30.19699175843274
 21
23.20899131014988
 31
0.0
  0
LINE
  5
1BB1
330
15FC
100
AcDbEntity
  8
DIM
 62
     0
370
    -2
100
AcDbLine
 10
29.28699175843274
 20
22.97649131014988
 30
0.0
 11
28.83699175843274
 21
22.97649131014988
 31
0.0
  0
LINE
  5
1BB2
330
15FC
100
AcDbEntity
  8
DIM
 62
     0
370
    -2
100
AcDbLine
 10
30.64699175843274
 20
22.97649131014988
 30
0.0
 11
31.09699175843274
 21
22.97649131014988
 31
0.0
  0
SOLID
  5
1BB3
330
15FC
100
AcDbEntity
  8
DIM
 62
     0
100
AcDbTrace
 10
29.28699175843274
 20
23.05149131014988
 30
0.0
 11
29.28699175843274
 21
22.90149131014988
 31
0.0
 12
29.73699175843274
 22
22.97649131014988
 32
0.0
 13
29.73699175843274
 23
22.97649131014988
 33
0.0
  0
SOLID
  5
1BB4
330
15FC
100
AcDbEntity
  8
DIM
 62
     0
100
AcDbTrace
 10
30.64699175843274
 20
23.05149131014988
 30
0.0
 11
30.64699175843274
 21
22.90149131014988
 31
0.0
 12
30.19699175843274
 22
22.97649131014988
 32
0.0
 13
30.19699175843274
 23
22.97649131014988
 33
0.0
  0
MTEXT
  5
1BB5
330
15FC
100
AcDbEntity
  8
DIM
 62
     0
100
AcDbMText
 10
31.69308550843274
 20
22.97649131014988
 30
0.0
 40
0.3125
 41
0.0
 71
     5
 72
     1
  1
\A1;0.115
 73
     1
 44
1.0
  0
POINT
  5
1BB6
330
15FC
100
AcDbEntity
  8
DEFPOINTS
 62
     0
100
AcDbPoint
 10
29.73699175843274
 20
22.34338763805356
 30
0.0
  0
POINT
  5
1BB7
330
15FC
100
AcDbEntity
  8
DEFPOINTS
 62
     0
100
AcDbPoint
 10
30.19699175843274
 20
21.12844664391842
 30
0.0
  0
POINT
  5
1BB8
330
15FC
100
AcDbEntity
  8
DEFPOINTS
 62
     0
100
AcDbPoint
 10
30.19699175843274
 20
22.97649131014988
 30
0.0
  0
ENDBLK
  5
1608
330
15FC
100
AcDbEntity
  8
0
100
AcDbBlockEnd
  0
BLOCK
  5
1699
330
168E
100
AcDbEntity
  8
0
100
AcDbBlockBegin
  2
*D49
 70
     1
 10
0.0
 20
0.0
 30
0.0
  3
*D49
  1

  0
LINE
  5
1BA5
330
168E
100
AcDbEntity
  8
DIM
 62
     0
370
    -2
100
AcDbLine
 10
31.62899175843273
 20
19.24544664391842
 30
0.0
 11
31.62899175843273
 21
18.31595851918878
 31
0.0
  0
LINE
  5
1BA6
330
168E
100
AcDbEntity
  8
DIM
 62
     0
370
    -2
100
AcDbLine
 10
36.04899175843275
 20
19.17644664391842
 30
0.0
 11
36.04899175843275
 21
18.31595851918878
 31
0.0
  0
LINE
  5
1BA7
330
168E
100
AcDbEntity
  8
DIM
 62
     0
370
    -2
100
AcDbLine
 10
32.07899175843273
 20
18.54845851918878
 30
0.0
 11
33.24289800843274
 21
18.54845851918878
 31
0.0
  0
LINE
  5
1BA8
330
168E
100
AcDbEntity
  8
DIM
 62
     0
370
    -2
100
AcDbLine
 10
35.59899175843274
 20
18.54845851918878
 30
0.0
 11
34.43508550843274
 21
18.54845851918878
 31
0.0
  0
SOLID
  5
1BA9
330
168E
100
AcDbEntity
  8
DIM
 62
     0
100
AcDbTrace
 10
32.07899175843273
 20
18.62345851918878
 30
0.0
 11
32.07899175843273
 21
18.47345851918878
 31
0.0
 12
31.62899175843273
 22
18.54845851918878
 32
0.0
 13
31.62899175843273
 23
18.54845851918878
 33
0.0
  0
SOLID
  5
1BAA
330
168E
100
AcDbEntity
  8
DIM
 62
     0
100
AcDbTrace
 10
35.59899175843274
 20
18.62345851918878
 30
0.0
 11
35.59899175843274
 21
18.47345851918878
 31
0.0
 12
36.04899175843275
 22
18.54845851918878
 32
0.0
 13
36.04899175843275
 23
18.54845851918878
 33
0.0
  0
MTEXT
  5
1BAB
330
168E
100
AcDbEntity
  8
DIM
 62
     0
100
AcDbMText
 10
33.83899175843274
 20
18.54845851918878
 30
0.0
 40
0.3125
 41
0.0
 71
     5
 72
     1
  1
\A1;1.105
 73
     1
 44
1.0
  0
POINT
  5
1BAC
330
168E
100
AcDbEntity
  8
DEFPOINTS
 62
     0
100
AcDbPoint
 10
31.62899175843273
 20
19.40294664391841
 30
0.0
  0
POINT
  5
1BAD
330
168E
100
AcDbEntity
  8
DEFPOINTS
 62
     0
100
AcDbPoint
 10
36.04899175843275
 20
19.33394664391842
 30
0.0
  0
POINT
  5
1BAE
330
168E
100
AcDbEntity
  8
DEFPOINTS
 62
     0
100
AcDbPoint
 10
36.04899175843275
 20
18.54845851918878
 30
0.0
  0
ENDBLK
  5
169A
330
168E
100
AcDbEntity
  8
0
100
AcDbBlockEnd
  0
ENDSEC
  0
SECTION
  2
ENTITIES
  0
ARC
  5
841
330
1E
100
AcDbEntity
  8
OBJECT
100
AcDbCircle
 10
36.84545837934434
 20
7.06318244621427
 30
0.0
 40
0.0625
100
AcDbArc
 50
180.0
 51
270.0
  0
LINE
  5
842
330
1E
100
AcDbEntity
  8
OBJECT
100
AcDbLine
 10
36.78295837934434
 20
7.06318244621427
 30
0.0
 11
36.78295837934434
 21
13.67018244621426
 31
0.0
  0
LINE
  5
843
330
1E
100
AcDbEntity
  8
OBJECT
100
AcDbLine
 10
38.36095837934434
 20
7.00068244621427
 30
0.0
 11
36.84545837934434
 21
7.00068244621427
 31
0.0
  0
LINE
  5
844
330
1E
100
AcDbEntity
  8
OBJECT
100
AcDbLine
 10
38.36095837934434
 20
7.00068244621427
 30
0.0
 11
38.36095837934434
 21
13.73268244621427
 31
0.0
  0
ARC
  5
845
330
1E
100
AcDbEntity
  8
OBJECT
100
AcDbCircle
 10
36.84545837934434
 20
13.67018244621426
 30
0.0
 40
0.0625
100
AcDbArc
 50
90.0
 51
180.0
  0
LINE
  5
846
330
1E
100
AcDbEntity
  8
OBJECT
100
AcDbLine
 10
38.36095837934434
 20
13.73268244621427
 30
0.0
 11
36.84545837934434
 21
13.73268244621427
 31
0.0
  0
LINE
  5
847
330
1E
100
AcDbEntity
  8
OBJECT
100
AcDbLine
 10
38.36095837934434
 20
13.71268244621427
 30
0.0
 11
38.40095837934434
 21
13.71268244621427
 31
0.0
  0
LINE
  5
848
330
1E
100
AcDbEntity
  8
OBJECT
100
AcDbLine
 10
38.40095837934434
 20
7.00068244621427
 30
0.0
 11
38.40095837934434
 21
13.73268244621427
 31
0.0
  0
ARC
  5
849
330
1E
100
AcDbEntity
  8
OBJECT
100
AcDbCircle
 10
39.87845837934434
 20
13.67018244621426
 30
0.0
 40
0.0625
100
AcDbArc
 50
0.0
 51
90.0
  0
ARC
  5
84A
330
1E
100
AcDbEntity
  8
OBJECT
100
AcDbCircle
 10
39.87845837934434
 20
7.06318244621427
 30
0.0
 40
0.0625
100
AcDbArc
 50
270.0
 51
0.0
  0
LINE
  5
84B
330
1E
100
AcDbEntity
  8
OBJECT
100
AcDbLine
 10
38.40095837934434
 20
7.00068244621427
 30
0.0
 11
39.87845837934434
 21
7.00068244621427
 31
0.0
  0
LINE
  5
84C
330
1E
100
AcDbEntity
  8
OBJECT
100
AcDbLine
 10
39.94095837934434
 20
7.06318244621427
 30
0.0
 11
39.94095837934434
 21
13.67018244621426
 31
0.0
  0
LINE
  5
84D
330
1E
100
AcDbEntity
  8
OBJECT
100
AcDbLine
 10
39.87845837934434
 20
13.73268244621427
 30
0.0
 11
38.40095837934434
 21
13.73268244621427
 31
0.0
  0
LINE
  5
84E
330
1E
100
AcDbEntity
  8
OBJECT
100
AcDbLine
 10
6.557998319179025
 20
7.00068244621427
 30
0.0
 11
10.88449831917902
 21
7.00068244621427
 31
0.0
  0
LINE
  5
84F
330
1E
100
AcDbEntity
  8
OBJECT
100
AcDbLine
 10
10.88449831917902
 20
7.020682446214269
 30
0.0
 11
6.557998319179025
 21
7.020682446214269
 31
0.0
  0
LINE
  5
850
330
1E
100
AcDbEntity
  8
OBJECT
100
AcDbLine
 10
6.359248319179027
 20
7.21943244621427
 30
0.0
 11
6.359248319179027
 21
13.51393244621426
 31
0.0
  0
LINE
  5
851
330
1E
100
AcDbEntity
  8
OBJECT
100
AcDbLine
 10
6.557998319179025
 20
13.73268244621427
 30
0.0
 11
10.88449831917902
 21
13.73268244621427
 31
0.0
  0
LINE
  5
852
330
1E
100
AcDbEntity
  8
OBJECT
100
AcDbLine
 10
11.08324831917902
 20
13.51393244621426
 30
0.0
 11
11.08324831917902
 21
7.21943244621427
 31
0.0
  0
LINE
  5
853
330
1E
100
AcDbEntity
  8
OBJECT
100
AcDbLine
 10
6.557998319179025
 20
13.71268244621427
 30
0.0
 11
10.88449831917902
 21
13.71268244621427
 31
0.0
  0
LINE
  5
854
330
1E
100
AcDbEntity
  8
OBJECT
100
AcDbLine
 10
7.326404319179026
 20
13.65468244621427
 30
0.0
 11
10.11609331917902
 21
13.65468244621427
 31
0.0
  0
LINE
  5
855
330
1E
100
AcDbEntity
  8
OBJECT
100
AcDbLine
 10
7.326404319179026
 20
13.61468244621427
 30
0.0
 11
10.11609331917902
 21
13.61468244621427
 31
0.0
  0
LINE
  5
856
330
1E
100
AcDbEntity
  8
OBJECT
100
AcDbLine
 10
10.11609331917902
 20
7.078682446214269
 30
0.0
 11
7.326404319179026
 21
7.078682446214269
 31
0.0
  0
LINE
  5
857
330
1E
100
AcDbEntity
  8
OBJECT
100
AcDbLine
 10
10.11609331917902
 20
7.118682446214268
 30
0.0
 11
7.326404319179026
 21
7.118682446214268
 31
0.0
  0
LINE
  5
858
330
1E
100
AcDbEntity
  8
OBJECT
100
AcDbLine
 10
38.36095837934434
 20
7.020682446214269
 30
0.0
 11
38.40095837934434
 21
7.020682446214269
 31
0.0
  0
TEXT
  5
859
330
1E
100
AcDbEntity
  8
TEXT
100
AcDbText
 10
17.82503182342215
 20
4.886857446214271
 30
0.0
 40
0.3125
  1
%%USECTION "A-A"
 41
0.8
  7
SECTION
100
AcDbText
  0
TEXT
  5
85A
330
1E
100
AcDbEntity
  8
TEXT
100
AcDbText
 10
9.973267319179026
 20
2.703415446214268
 30
0.0
 40
0.45
  1
%%UBODY
 41
0.75
100
AcDbText
  0
TEXT
  5
85B
330
1E
100
AcDbEntity
  8
TEXT
100
AcDbText
 10
32.28341848921493
 20
5.504903945021517
 30
0.0
 40
0.3125
  1
%%USECTION "B-B"
 41
0.8
  7
SECTION
100
AcDbText
  0
LINE
  5
862
330
1E
100
AcDbEntity
  8
CENTER
100
AcDbLine
 10
11.16447731917902
 20
11.91036944621427
 30
0.0
 11
10.78996031917902
 21
11.91036944621427
 31
0.0
  0
LINE
  5
863
330
1E
100
AcDbEntity
  8
OBJECT
100
AcDbLine
 10
10.92224831917902
 20
11.81661944621427
 30
0.0
 11
10.92224831917902
 21
11.86661944621427
 31
0.0
  0
LINE
  5
864
330
1E
100
AcDbEntity
  8
OBJECT
100
AcDbLine
 10
10.98524831917902
 20
11.86661944621427
 30
0.0
 11
10.92224831917902
 21
11.86661944621427
 31
0.0
  0
LINE
  5
865
330
1E
100
AcDbEntity
  8
OBJECT
100
AcDbLine
 10
10.98524831917902
 20
11.95411944621427
 30
0.0
 11
10.92224831917902
 21
11.95411944621427
 31
0.0
  0
LINE
  5
866
330
1E
100
AcDbEntity
  8
OBJECT
100
AcDbLine
 10
10.92224831917902
 20
12.00411944621427
 30
0.0
 11
10.92224831917902
 21
11.95411944621427
 31
0.0
  0
LINE
  5
867
330
1E
100
AcDbEntity
  8
OBJECT
100
AcDbLine
 10
10.98524831917902
 20
12.00411944621427
 30
0.0
 11
10.92224831917902
 21
12.00411944621427
 31
0.0
  0
LINE
  5
868
330
1E
100
AcDbEntity
  8
OBJECT
100
AcDbLine
 10
10.98524831917902
 20
11.81661944621427
 30
0.0
 11
10.92224831917902
 21
11.81661944621427
 31
0.0
  0
LINE
  5
869
330
1E
100
AcDbEntity
  8
OBJECT
100
AcDbLine
 10
6.457248319179026
 20
12.00411944621427
 30
0.0
 11
6.520248319179025
 21
12.00411944621427
 31
0.0
  0
LINE
  5
86A
330
1E
100
AcDbEntity
  8
OBJECT
100
AcDbLine
 10
6.457248319179026
 20
11.81661944621427
 30
0.0
 11
6.520248319179025
 21
11.81661944621427
 31
0.0
  0
LINE
  5
86B
330
1E
100
AcDbEntity
  8
OBJECT
100
AcDbLine
 10
6.520248319179025
 20
11.81661944621427
 30
0.0
 11
6.520248319179025
 21
11.86661944621427
 31
0.0
  0
LINE
  5
86C
330
1E
100
AcDbEntity
  8
OBJECT
100
AcDbLine
 10
6.457248319179026
 20
11.86661944621427
 30
0.0
 11
6.520248319179025
 21
11.86661944621427
 31
0.0
  0
LINE
  5
86D
330
1E
100
AcDbEntity
  8
OBJECT
100
AcDbLine
 10
6.457248319179026
 20
11.95411944621427
 30
0.0
 11
6.520248319179025
 21
11.95411944621427
 31
0.0
  0
LINE
  5
86E
330
1E
100
AcDbEntity
  8
OBJECT
100
AcDbLine
 10
6.520248319179025
 20
12.00411944621427
 30
0.0
 11
6.520248319179025
 21
11.95411944621427
 31
0.0
  0
LINE
  5
86F
330
1E
100
AcDbEntity
  8
CENTER
100
AcDbLine
 10
6.278019319179026
 20
11.91036944621427
 30
0.0
 11
6.652537319179025
 21
11.91036944621427
 31
0.0
  0
LINE
  5
870
102
{ACAD_REACTORS
330
20E3
102
}
330
1E
100
AcDbEntity
  8
OBJECT
100
AcDbLine
 10
18.46892782342215
 20
13.73268244621427
 30
0.0
 11
19.95892782342215
 21
13.73268244621427
 31
0.0
  0
LINE
  5
871
102
{ACAD_REACTORS
330
20E3
102
}
330
1E
100
AcDbEntity
  8
OBJECT
100
AcDbLine
 10
18.46892782342215
 20
7.00068244621427
 30
0.0
 11
19.95892782342215
 21
7.00068244621427
 31
0.0
  0
LINE
  5
872
102
{ACAD_REACTORS
330
20E3
102
}
330
1E
100
AcDbEntity
  8
OBJECT
100
AcDbLine
 10
20.00892782342215
 20
13.68268244621426
 30
0.0
 11
20.00892782342215
 21
7.050682446214269
 31
0.0
  0
ARC
  5
873
102
{ACAD_REACTORS
330
20E3
102
}
330
1E
100
AcDbEntity
  8
OBJECT
100
AcDbCircle
 10
19.95892782342215
 20
13.68268244621426
 30
0.0
 40
0.05
100
AcDbArc
 50
0.0
 51
90.0
  0
ARC
  5
874
102
{ACAD_REACTORS
330
20E3
102
}
330
1E
100
AcDbEntity
  8
OBJECT
100
AcDbCircle
 10
19.95892782342215
 20
7.050682446214269
 30
0.0
 40
0.05
100
AcDbArc
 50
270.0
 51
0.0
  0
LINE
  5
875
102
{ACAD_REACTORS
330
20E3
102
}
330
1E
100
AcDbEntity
  8
OBJECT
100
AcDbLine
 10
18.36892782342215
 20
13.65468244621427
 30
0.0
 11
18.36892782342215
 21
7.078682446214269
 31
0.0
  0
LINE
  5
876
102
{ACAD_REACTORS
330
20E3
102
}
330
1E
100
AcDbEntity
  8
OBJECT
100
AcDbLine
 10
18.42892782342215
 20
13.66268244621426
 30
0.0
 11
19.88892782342215
 21
13.66268244621426
 31
0.0
  0
LINE
  5
877
330
1E
100
AcDbEntity
  8
OBJECT
100
AcDbLine
 10
18.36892782342215
 20
13.65468244621427
 30
0.0
 11
18.42892782342215
 21
13.65468244621427
 31
0.0
  0
LINE
  5
878
102
{ACAD_REACTORS
330
20E3
102
}
330
1E
100
AcDbEntity
  8
OBJECT
100
AcDbLine
 10
18.42892782342215
 20
13.71268244621427
 30
0.0
 11
18.46892782342215
 21
13.71268244621427
 31
0.0
  0
LINE
  5
879
330
1E
100
AcDbEntity
  8
OBJECT
100
AcDbLine
 10
18.42892782342215
 20
7.078682446214269
 30
0.0
 11
18.36892782342215
 21
7.078682446214269
 31
0.0
  0
LINE
  5
87A
102
{ACAD_REACTORS
330
20E3
102
}
330
1E
100
AcDbEntity
  8
OBJECT
100
AcDbLine
 10
18.46892782342215
 20
7.020682446214269
 30
0.0
 11
18.42892782342215
 21
7.020682446214269
 31
0.0
  0
LINE
  5
87E
102
{ACAD_REACTORS
330
20E3
102
}
330
1E
100
AcDbEntity
  8
OBJECT
100
AcDbLine
 10
19.71192782342215
 20
12.89043244621427
 30
0.0
 11
19.90892782342215
 21
12.89043244621427
 31
0.0
  0
LINE
  5
87F
102
{ACAD_REACTORS
330
20E3
102
}
330
1E
100
AcDbEntity
  8
OBJECT
100
AcDbLine
 10
19.71192782342215
 20
13.07793244621427
 30
0.0
 11
19.90892782342215
 21
13.07793244621427
 31
0.0
  0
LINE
  5
880
330
1E
100
AcDbEntity
  8
OBJECT
100
AcDbLine
 10
19.71192782342215
 20
12.92168244621427
 30
0.0
 11
19.90892782342215
 21
12.92168244621427
 31
0.0
  0
LINE
  5
881
330
1E
100
AcDbEntity
  8
OBJECT
100
AcDbLine
 10
19.71192782342215
 20
13.04668244621427
 30
0.0
 11
19.90892782342215
 21
13.04668244621427
 31
0.0
  0
LINE
  5
882
102
{ACAD_REACTORS
330
20E3
102
}
330
1E
100
AcDbEntity
  8
OBJECT
100
AcDbLine
 10
19.90892782342215
 20
13.07793244621427
 30
0.0
 11
19.90892782342215
 21
12.89043244621427
 31
0.0
  0
LINE
  5
883
330
1E
100
AcDbEntity
  8
OBJECT
100
AcDbLine
 10
19.88892782342215
 20
12.00411944621427
 30
0.0
 11
18.48492782342215
 21
12.00411944621427
 31
0.0
  0
LINE
  5
884
330
1E
100
AcDbEntity
  8
OBJECT
100
AcDbLine
 10
19.88892782342215
 20
11.81661944621427
 30
0.0
 11
18.48492782342215
 21
11.81661944621427
 31
0.0
  0
LINE
  5
885
330
1E
100
AcDbEntity
  8
OBJECT
100
AcDbLine
 10
19.88892782342215
 20
11.86661944621427
 30
0.0
 11
18.48492782342215
 21
11.86661944621427
 31
0.0
  0
LINE
  5
886
330
1E
100
AcDbEntity
  8
OBJECT
100
AcDbLine
 10
19.88892782342215
 20
11.95411944621427
 30
0.0
 11
18.48492782342215
 21
11.95411944621427
 31
0.0
  0
LINE
  5
887
330
1E
100
AcDbEntity
  8
OBJECT
100
AcDbLine
 10
18.48492782342215
 20
12.00411944621427
 30
0.0
 11
18.48492782342215
 21
11.95411944621427
 31
0.0
  0
LINE
  5
888
330
1E
100
AcDbEntity
  8
OBJECT
100
AcDbLine
 10
18.48492782342215
 20
11.86661944621427
 30
0.0
 11
18.48492782342215
 21
11.81661944621427
 31
0.0
  0
LINE
  5
889
102
{ACAD_REACTORS
330
20E3
102
}
330
1E
100
AcDbEntity
  8
OBJECT
100
AcDbLine
 10
18.46892782342215
 20
13.71268244621427
 30
0.0
 11
18.46892782342215
 21
13.73268244621427
 31
0.0
  0
LINE
  5
88A
102
{ACAD_REACTORS
330
20E3
102
}
330
1E
100
AcDbEntity
  8
OBJECT
100
AcDbLine
 10
18.42892782342215
 20
13.28155744621427
 30
0.0
 11
18.42892782342215
 21
13.71268244621427
 31
0.0
  0
LINE
  5
88B
102
{ACAD_REACTORS
330
1C9D
330
20E3
102
}
330
1E
100
AcDbEntity
  8
OBJECT
100
AcDbLine
 10
18.42892782342215
 20
7.020682446214269
 30
0.0
 11
18.42892782342215
 21
7.45565344621427
 31
0.0
  0
LINE
  5
88C
102
{ACAD_REACTORS
330
20E3
102
}
330
1E
100
AcDbEntity
  8
OBJECT
100
AcDbLine
 10
18.46892782342215
 20
7.00068244621427
 30
0.0
 11
18.46892782342215
 21
7.020682446214269
 31
0.0
  0
LINE
  5
88D
102
{ACAD_REACTORS
330
1C9D
102
}
330
1E
100
AcDbEntity
  8
OBJECT
100
AcDbLine
 10
18.42892782342215
 20
7.174182446214269
 30
0.0
 11
18.77342282342215
 21
7.174182446214269
 31
0.0
  0
LINE
  5
88E
102
{ACAD_REACTORS
330
1C9D
102
}
330
1E
100
AcDbEntity
  8
OBJECT
100
AcDbLine
 10
18.42892782342215
 20
7.299182446214269
 30
0.0
 11
18.77342282342215
 21
7.299182446214269
 31
0.0
  0
LINE
  5
88F
102
{ACAD_REACTORS
330
1C9D
330
20E3
102
}
330
1E
100
AcDbEntity
  8
OBJECT
100
AcDbLine
 10
18.42892782342215
 20
7.361682446214269
 30
0.0
 11
18.82517782342215
 21
7.361682446214269
 31
0.0
  0
LINE
  5
890
102
{ACAD_REACTORS
330
1C9D
330
20E3
102
}
330
1E
100
AcDbEntity
  8
OBJECT
100
AcDbLine
 10
18.42892782342215
 20
7.111682446214269
 30
0.0
 11
18.82517782342215
 21
7.111682446214269
 31
0.0
  0
LINE
  5
891
102
{ACAD_REACTORS
330
20E3
102
}
330
1E
100
AcDbEntity
  8
OBJECT
100
AcDbLine
 10
18.82517782342215
 20
7.394182446214269
 30
0.0
 11
18.82517782342215
 21
7.079182446214268
 31
0.0
  0
LINE
  5
892
102
{ACAD_REACTORS
330
20E3
102
}
330
1E
100
AcDbEntity
  8
OBJECT
100
AcDbLine
 10
18.82517782342215
 20
7.394182446214269
 30
0.0
 11
20.00892782342215
 21
7.394182446214269
 31
0.0
  0
LINE
  5
893
102
{ACAD_REACTORS
330
20E3
102
}
330
1E
100
AcDbEntity
  8
OBJECT
100
AcDbLine
 10
18.82517782342215
 20
7.079182446214268
 30
0.0
 11
20.00892782342215
 21
7.079182446214268
 31
0.0
  0
SOLID
  5
894
330
1E
100
AcDbEntity
  8
BEND
100
AcDbTrace
 10
10.39058731917902
 20
6.54834744621427
 30
0.0
 11
10.39058731917902
 21
6.69834744621427
 31
0.0
 12
9.940587319179025
 22
6.623347446214271
 32
0.0
 13
9.940587319179025
 23
6.623347446214271
 33
0.0
  0
TEXT
  5
895
330
1E
100
AcDbEntity
  8
BEND
100
AcDbText
 10
10.59455831917902
 20
6.181777446214269
 30
0.0
 40
0.3125
  1
A
 41
0.8
  7
SECTION
100
AcDbText
  0
CIRCLE
  5
896
330
1E
100
AcDbEntity
  8
OBJECT
100
AcDbCircle
 10
24.56654548921493
 20
7.365367446214269
 30
0.0
 40
0.03125
  0
LINE
  5
897
330
1E
100
AcDbEntity
  8
OBJECT
100
AcDbLine
 10
24.46470148921493
 20
13.51393244621426
 30
0.0
 11
24.46470148921493
 21
7.21943244621427
 31
0.0
  0
LINE
  5
898
330
1E
100
AcDbEntity
  8
OBJECT
100
AcDbLine
 10
29.00995148921493
 20
7.00068244621427
 30
0.0
 11
24.68345148921493
 21
7.00068244621427
 31
0.0
  0
LINE
  5
899
330
1E
100
AcDbEntity
  8
OBJECT
100
AcDbLine
 10
29.22870148921493
 20
13.51393244621426
 30
0.0
 11
29.22870148921493
 21
7.21943244621427
 31
0.0
  0
LINE
  5
89A
330
1E
100
AcDbEntity
  8
OBJECT
100
AcDbLine
 10
25.44010648921493
 20
7.178682446214269
 30
0.0
 11
28.25329548921493
 21
7.178682446214269
 31
0.0
  0
LINE
  5
89B
330
1E
100
AcDbEntity
  8
OBJECT
100
AcDbLine
 10
24.64270148921493
 20
7.59180744621427
 30
0.0
 11
24.64270148921493
 21
13.14155744621427
 31
0.0
  0
LINE
  5
89C
330
1E
100
AcDbEntity
  8
OBJECT
100
AcDbLine
 10
29.05070148921493
 20
7.59180744621427
 30
0.0
 11
29.05070148921493
 21
13.14155744621427
 31
0.0
  0
TEXT
  5
89D
330
1E
100
AcDbEntity
  8
BEND
100
AcDbText
 10
29.07172548921493
 20
6.497374446214269
 30
0.0
 40
0.3125
  1
B
 41
0.8
  7
SECTION
100
AcDbText
  0
SOLID
  5
89E
330
1E
100
AcDbEntity
  8
BEND
100
AcDbTrace
 10
28.37450648921493
 20
6.743387446214269
 30
0.0
 11
28.37450648921493
 21
6.593387446214268
 31
0.0
 12
27.92450648921493
 22
6.66838744621427
 32
0.0
 13
27.92450648921493
 23
6.66838744621427
 33
0.0
  0
LINE
  5
89F
102
{ACAD_REACTORS
330
1C9D
102
}
330
1E
100
AcDbEntity
  8
OBJECT
100
AcDbLine
 10
18.77342282342215
 20
7.361682446214269
 30
0.0
 11
18.77342282342215
 21
7.111682446214269
 31
0.0
  0
LINE
  5
8A0
330
1E
100
AcDbEntity
  8
CENTER
100
AcDbLine
 10
11.16447731917902
 20
8.82299444621427
 30
0.0
 11
10.78996031917902
 21
8.82299444621427
 31
0.0
  0
LINE
  5
8A1
330
1E
100
AcDbEntity
  8
OBJECT
100
AcDbLine
 10
10.92224831917902
 20
8.91674444621427
 30
0.0
 11
10.92224831917902
 21
8.866744446214269
 31
0.0
  0
LINE
  5
8A2
330
1E
100
AcDbEntity
  8
OBJECT
100
AcDbLine
 10
10.98524831917902
 20
8.866744446214269
 30
0.0
 11
10.92224831917902
 21
8.866744446214269
 31
0.0
  0
LINE
  5
8A3
330
1E
100
AcDbEntity
  8
OBJECT
100
AcDbLine
 10
10.98524831917902
 20
8.779244446214271
 30
0.0
 11
10.92224831917902
 21
8.779244446214271
 31
0.0
  0
LINE
  5
8A4
330
1E
100
AcDbEntity
  8
OBJECT
100
AcDbLine
 10
10.92224831917902
 20
8.72924444621427
 30
0.0
 11
10.92224831917902
 21
8.779244446214271
 31
0.0
  0
LINE
  5
8A5
330
1E
100
AcDbEntity
  8
OBJECT
100
AcDbLine
 10
10.98524831917902
 20
8.72924444621427
 30
0.0
 11
10.92224831917902
 21
8.72924444621427
 31
0.0
  0
LINE
  5
8A6
330
1E
100
AcDbEntity
  8
OBJECT
100
AcDbLine
 10
10.98524831917902
 20
8.91674444621427
 30
0.0
 11
10.92224831917902
 21
8.91674444621427
 31
0.0
  0
LINE
  5
8A7
330
1E
100
AcDbEntity
  8
OBJECT
100
AcDbLine
 10
6.457248319179026
 20
8.91674444621427
 30
0.0
 11
6.520248319179025
 21
8.91674444621427
 31
0.0
  0
LINE
  5
8A8
330
1E
100
AcDbEntity
  8
OBJECT
100
AcDbLine
 10
6.457248319179026
 20
8.72924444621427
 30
0.0
 11
6.520248319179025
 21
8.72924444621427
 31
0.0
  0
LINE
  5
8A9
330
1E
100
AcDbEntity
  8
OBJECT
100
AcDbLine
 10
6.520248319179025
 20
8.72924444621427
 30
0.0
 11
6.520248319179025
 21
8.779244446214271
 31
0.0
  0
LINE
  5
8AA
330
1E
100
AcDbEntity
  8
OBJECT
100
AcDbLine
 10
6.457248319179026
 20
8.779244446214271
 30
0.0
 11
6.520248319179025
 21
8.779244446214271
 31
0.0
  0
LINE
  5
8AB
330
1E
100
AcDbEntity
  8
OBJECT
100
AcDbLine
 10
6.457248319179026
 20
8.866744446214269
 30
0.0
 11
6.520248319179025
 21
8.866744446214269
 31
0.0
  0
LINE
  5
8AC
330
1E
100
AcDbEntity
  8
OBJECT
100
AcDbLine
 10
6.520248319179025
 20
8.91674444621427
 30
0.0
 11
6.520248319179025
 21
8.866744446214269
 31
0.0
  0
LINE
  5
8AD
330
1E
100
AcDbEntity
  8
CENTER
100
AcDbLine
 10
6.278019319179026
 20
8.82299444621427
 30
0.0
 11
6.652537319179025
 21
8.82299444621427
 31
0.0
  0
LINE
  5
8AE
330
1E
100
AcDbEntity
  8
CENTER
100
AcDbLine
 10
8.721248319179025
 20
6.93945244621427
 30
0.0
 11
8.721248319179025
 21
7.31397044621427
 31
0.0
  0
LINE
  5
8AF
330
1E
100
AcDbEntity
  8
OBJECT
100
AcDbLine
 10
8.627498319179025
 20
7.181682446214269
 30
0.0
 11
8.677498319179026
 21
7.181682446214269
 31
0.0
  0
LINE
  5
8B0
330
1E
100
AcDbEntity
  8
OBJECT
100
AcDbLine
 10
8.677498319179026
 20
7.118682446214268
 30
0.0
 11
8.677498319179026
 21
7.181682446214269
 31
0.0
  0
LINE
  5
8B1
330
1E
100
AcDbEntity
  8
OBJECT
100
AcDbLine
 10
8.764998319179024
 20
7.118682446214268
 30
0.0
 11
8.764998319179024
 21
7.181682446214269
 31
0.0
  0
LINE
  5
8B2
330
1E
100
AcDbEntity
  8
OBJECT
100
AcDbLine
 10
8.814998319179025
 20
7.181682446214269
 30
0.0
 11
8.764998319179024
 21
7.181682446214269
 31
0.0
  0
LINE
  5
8B3
330
1E
100
AcDbEntity
  8
OBJECT
100
AcDbLine
 10
8.814998319179025
 20
7.118682446214268
 30
0.0
 11
8.814998319179025
 21
7.181682446214269
 31
0.0
  0
LINE
  5
8B4
330
1E
100
AcDbEntity
  8
OBJECT
100
AcDbLine
 10
8.627498319179025
 20
7.118682446214268
 30
0.0
 11
8.627498319179025
 21
7.181682446214269
 31
0.0
  0
LINE
  5
8B5
330
1E
100
AcDbEntity
  8
OBJECT
100
AcDbLine
 10
8.627498319179025
 20
13.61468244621427
 30
0.0
 11
8.627498319179025
 21
13.55168244621427
 31
0.0
  0
LINE
  5
8B6
330
1E
100
AcDbEntity
  8
OBJECT
100
AcDbLine
 10
8.814998319179025
 20
13.61468244621427
 30
0.0
 11
8.814998319179025
 21
13.55168244621427
 31
0.0
  0
LINE
  5
8B7
330
1E
100
AcDbEntity
  8
OBJECT
100
AcDbLine
 10
8.814998319179025
 20
13.55168244621427
 30
0.0
 11
8.764998319179024
 21
13.55168244621427
 31
0.0
  0
LINE
  5
8B8
330
1E
100
AcDbEntity
  8
OBJECT
100
AcDbLine
 10
8.764998319179024
 20
13.61468244621427
 30
0.0
 11
8.764998319179024
 21
13.55168244621427
 31
0.0
  0
LINE
  5
8B9
330
1E
100
AcDbEntity
  8
OBJECT
100
AcDbLine
 10
8.677498319179026
 20
13.61468244621427
 30
0.0
 11
8.677498319179026
 21
13.55168244621427
 31
0.0
  0
LINE
  5
8BA
330
1E
100
AcDbEntity
  8
OBJECT
100
AcDbLine
 10
8.627498319179025
 20
13.55168244621427
 30
0.0
 11
8.677498319179026
 21
13.55168244621427
 31
0.0
  0
LINE
  5
8BB
330
1E
100
AcDbEntity
  8
CENTER
100
AcDbLine
 10
8.721248319179025
 20
13.79391144621427
 30
0.0
 11
8.721248319179025
 21
13.41939344621427
 31
0.0
  0
LINE
  5
8BC
330
1E
100
AcDbEntity
  8
OBJECT
100
AcDbLine
 10
19.88892782342215
 20
8.92861444621427
 30
0.0
 11
18.48492782342215
 21
8.92861444621427
 31
0.0
  0
LINE
  5
8BD
330
1E
100
AcDbEntity
  8
OBJECT
100
AcDbLine
 10
19.88892782342215
 20
8.74111444621427
 30
0.0
 11
18.48492782342215
 21
8.74111444621427
 31
0.0
  0
LINE
  5
8BE
330
1E
100
AcDbEntity
  8
OBJECT
100
AcDbLine
 10
19.88892782342215
 20
8.791114446214269
 30
0.0
 11
18.48492782342215
 21
8.791114446214269
 31
0.0
  0
LINE
  5
8BF
330
1E
100
AcDbEntity
  8
OBJECT
100
AcDbLine
 10
19.88892782342215
 20
8.878614446214269
 30
0.0
 11
18.48492782342215
 21
8.878614446214269
 31
0.0
  0
LINE
  5
8C0
330
1E
100
AcDbEntity
  8
OBJECT
100
AcDbLine
 10
18.48492782342215
 20
8.92861444621427
 30
0.0
 11
18.48492782342215
 21
8.878614446214269
 31
0.0
  0
LINE
  5
8C1
330
1E
100
AcDbEntity
  8
OBJECT
100
AcDbLine
 10
18.48492782342215
 20
8.791114446214269
 30
0.0
 11
18.48492782342215
 21
8.74111444621427
 31
0.0
  0
LINE
  5
8C2
330
1E
100
AcDbEntity
  8
OBJECT
100
AcDbLine
 10
6.339248319179025
 20
13.51393244621426
 30
0.0
 11
6.339248319179025
 21
7.21943244621427
 31
0.0
  0
LINE
  5
8C3
330
1E
100
AcDbEntity
  8
OBJECT
100
AcDbLine
 10
11.10324831917902
 20
13.51393244621426
 30
0.0
 11
11.10324831917902
 21
7.21943244621427
 31
0.0
  0
CIRCLE
  5
8C4
330
1E
100
AcDbEntity
  8
OBJECT
100
AcDbCircle
 10
28.99045148921493
 20
7.236682446214269
 30
0.0
 40
0.085938
  0
TEXT
  5
8C5
330
1E
100
AcDbEntity
  8
BEND
100
AcDbText
 10
28.76338148921493
 20
13.98485044621426
 30
0.0
 40
0.3125
  1
B
 41
0.8
  7
SECTION
100
AcDbText
  0
SOLID
  5
8C6
330
1E
100
AcDbEntity
  8
BEND
100
AcDbTrace
 10
28.22893948921493
 20
14.24126044621426
 30
0.0
 11
28.22893948921493
 21
14.09126044621427
 31
0.0
 12
27.77894048921493
 22
14.16626044621426
 32
0.0
 13
27.77894048921493
 23
14.16626044621426
 33
0.0
  0
ARC
  5
8C7
330
1E
100
AcDbEntity
  8
OBJECT
100
AcDbCircle
 10
6.594748319179025
 20
13.10405744621427
 30
0.0
 40
0.1375
100
AcDbArc
 50
90.0
 51
180.0
  0
ARC
  5
8C8
330
1E
100
AcDbEntity
  8
OBJECT
100
AcDbCircle
 10
6.594748319179025
 20
13.10405744621427
 30
0.0
 40
0.1775
100
AcDbArc
 50
90.0
 51
180.0
  0
ARC
  5
8C9
330
1E
100
AcDbEntity
  8
OBJECT
100
AcDbCircle
 10
7.326404319179026
 20
13.47718244621427
 30
0.0
 40
0.1775
100
AcDbArc
 50
90.0
 51
177.8740239999999
  0
ARC
  5
8CA
330
1E
100
AcDbEntity
  8
OBJECT
100
AcDbCircle
 10
7.326404319179026
 20
13.47718244621427
 30
0.0
 40
0.1375
100
AcDbArc
 50
90.0
 51
177.8740239999999
  0
ARC
  5
8CB
330
1E
100
AcDbEntity
  8
OBJECT
100
AcDbCircle
 10
6.939170319179027
 20
13.49155744621427
 30
0.0
 40
0.21
100
AcDbArc
 50
270.0
 51
357.874024
  0
ARC
  5
8CC
330
1E
100
AcDbEntity
  8
OBJECT
100
AcDbCircle
 10
6.939170319179027
 20
13.49155744621427
 30
0.0
 40
0.25
100
AcDbArc
 50
270.0
 51
357.874024
  0
LINE
  5
8CD
330
1E
100
AcDbEntity
  8
OBJECT
100
AcDbLine
 10
6.594748319179025
 20
13.24155744621426
 30
0.0
 11
6.939170319179027
 21
13.24155744621426
 31
0.0
  0
LINE
  5
8CE
330
1E
100
AcDbEntity
  8
OBJECT
100
AcDbLine
 10
6.594748319179025
 20
13.28155744621427
 30
0.0
 11
6.939170319179027
 21
13.28155744621427
 31
0.0
  0
LINE
  5
8CF
330
1E
100
AcDbEntity
  8
OBJECT
100
AcDbLine
 10
6.655443319179026
 20
13.29955744621426
 30
0.0
 11
6.951170319179025
 21
13.29955744621426
 31
0.0
  0
ARC
  5
8D0
330
1E
100
AcDbEntity
  8
OBJECT
100
AcDbCircle
 10
6.951170319179025
 20
13.47955744621426
 30
0.0
 40
0.18
100
AcDbArc
 50
270.0
 51
357.874024
  0
ARC
  5
8D1
330
1E
100
AcDbEntity
  8
OBJECT
100
AcDbCircle
 10
6.655443319179026
 20
13.30455744621427
 30
0.0
 40
0.005
100
AcDbArc
 50
114.449547
 51
270.0
  0
ARC
  5
8D2
330
1E
100
AcDbEntity
  8
OBJECT
100
AcDbCircle
 10
7.248404319179027
 20
13.65768244621427
 30
0.0
 40
0.005
100
AcDbArc
 50
295.057615
 51
90.0
  0
LINE
  5
8D3
330
1E
100
AcDbEntity
  8
OBJECT
100
AcDbLine
 10
6.739792319179025
 20
13.66268244621426
 30
0.0
 11
7.248404319179027
 21
13.66268244621426
 31
0.0
  0
ARC
  5
8D4
330
1E
100
AcDbEntity
  8
OBJECT
100
AcDbCircle
 10
7.338404319179026
 20
13.46518244621426
 30
0.0
 40
0.2075
100
AcDbArc
 50
115.0576149999999
 51
177.8740239999999
  0
ARC
  5
8D5
330
1E
100
AcDbEntity
  8
OBJECT
100
AcDbCircle
 10
6.739792319179025
 20
13.65768244621427
 30
0.0
 40
0.005
100
AcDbArc
 50
90.0
 51
218.682187
  0
CIRCLE
  5
8D6
330
1E
100
AcDbEntity
  8
OBJECT
100
AcDbCircle
 10
6.920498319179024
 20
13.49668244621426
 30
0.0
 40
0.085937
  0
CIRCLE
  5
8D7
330
1E
100
AcDbEntity
  8
OBJECT
100
AcDbCircle
 10
6.577498319179024
 20
13.49668244621426
 30
0.0
 40
0.0625
  0
CIRCLE
  5
8D8
330
1E
100
AcDbEntity
  8
OBJECT
100
AcDbCircle
 10
6.577498319179024
 20
13.49668244621426
 30
0.0
 40
0.125
  0
ARC
  5
8D9
330
1E
100
AcDbEntity
  8
OBJECT
100
AcDbCircle
 10
6.560248319179025
 20
13.51393244621426
 30
0.0
 40
0.225
100
AcDbArc
 50
294.449547
 51
38.68218699999999
  0
CIRCLE
  5
8DA
330
1E
100
AcDbEntity
  8
OBJECT
100
AcDbCircle
 10
6.432998319179025
 20
13.30151044621427
 30
0.0
 40
0.03125
  0
CIRCLE
  5
8DB
330
1E
100
AcDbEntity
  8
OBJECT
100
AcDbCircle
 10
6.577498319179024
 20
13.49668244621426
 30
0.0
 40
0.164063
  0
ARC
  5
8DF
330
1E
100
AcDbEntity
  8
OBJECT
100
AcDbCircle
 10
6.557998319179025
 20
13.51393244621426
 30
0.0
 40
0.19875
100
AcDbArc
 50
90.0
 51
180.0
  0
ARC
  5
8E0
330
1E
100
AcDbEntity
  8
OBJECT
100
AcDbCircle
 10
6.557998319179025
 20
13.51393244621426
 30
0.0
 40
0.21875
100
AcDbArc
 50
90.0
 51
180.0
  0
ARC
  5
8E1
330
1E
100
AcDbEntity
  8
OBJECT
100
AcDbCircle
 10
10.88449831917902
 20
13.51393244621426
 30
0.0
 40
0.21875
100
AcDbArc
 50
0.0
 51
90.0
  0
ARC
  5
8E2
330
1E
100
AcDbEntity
  8
OBJECT
100
AcDbCircle
 10
10.88449831917902
 20
13.51393244621426
 30
0.0
 40
0.19875
100
AcDbArc
 50
0.0
 51
90.0
  0
CIRCLE
  5
8E3
330
1E
100
AcDbEntity
  8
OBJECT
100
AcDbCircle
 10
10.86499831917902
 20
13.49668244621426
 30
0.0
 40
0.164063
  0
CIRCLE
  5
8E4
330
1E
100
AcDbEntity
  8
OBJECT
100
AcDbCircle
 10
11.00949831917902
 20
13.30151044621427
 30
0.0
 40
0.03125
  0
ARC
  5
8E5
330
1E
100
AcDbEntity
  8
OBJECT
100
AcDbCircle
 10
10.88224831917902
 20
13.51393244621426
 30
0.0
 40
0.225
100
AcDbArc
 50
141.317813
 51
245.5504529999999
  0
CIRCLE
  5
8E6
330
1E
100
AcDbEntity
  8
OBJECT
100
AcDbCircle
 10
10.86499831917902
 20
13.49668244621426
 30
0.0
 40
0.125
  0
CIRCLE
  5
8E7
330
1E
100
AcDbEntity
  8
OBJECT
100
AcDbCircle
 10
10.86499831917902
 20
13.49668244621426
 30
0.0
 40
0.0625
  0
CIRCLE
  5
8E8
330
1E
100
AcDbEntity
  8
OBJECT
100
AcDbCircle
 10
10.52999831917902
 20
13.49668244621426
 30
0.0
 40
0.085937
  0
ARC
  5
8E9
330
1E
100
AcDbEntity
  8
OBJECT
100
AcDbCircle
 10
10.70270431917902
 20
13.65768244621427
 30
0.0
 40
0.005
100
AcDbArc
 50
321.317813
 51
90.0
  0
ARC
  5
8EA
330
1E
100
AcDbEntity
  8
OBJECT
100
AcDbCircle
 10
10.10409331917902
 20
13.46518244621426
 30
0.0
 40
0.2075
100
AcDbArc
 50
2.125975999999999
 51
64.942385
  0
LINE
  5
8EB
330
1E
100
AcDbEntity
  8
OBJECT
100
AcDbLine
 10
10.70270431917902
 20
13.66268244621426
 30
0.0
 11
10.19409331917902
 21
13.66268244621426
 31
0.0
  0
ARC
  5
8EC
330
1E
100
AcDbEntity
  8
OBJECT
100
AcDbCircle
 10
10.19409331917902
 20
13.65768244621427
 30
0.0
 40
0.005
100
AcDbArc
 50
90.0
 51
244.942385
  0
ARC
  5
8ED
330
1E
100
AcDbEntity
  8
OBJECT
100
AcDbCircle
 10
10.78705331917902
 20
13.30455744621427
 30
0.0
 40
0.005
100
AcDbArc
 50
270.0
 51
65.550453
  0
ARC
  5
8EE
330
1E
100
AcDbEntity
  8
OBJECT
100
AcDbCircle
 10
10.49132631917902
 20
13.47955744621426
 30
0.0
 40
0.18
100
AcDbArc
 50
182.125976
 51
270.0
  0
LINE
  5
8EF
330
1E
100
AcDbEntity
  8
OBJECT
100
AcDbLine
 10
10.78705331917902
 20
13.29955744621426
 30
0.0
 11
10.49132631917902
 21
13.29955744621426
 31
0.0
  0
LINE
  5
8F0
330
1E
100
AcDbEntity
  8
OBJECT
100
AcDbLine
 10
10.84774831917902
 20
13.28155744621427
 30
0.0
 11
10.50332631917902
 21
13.28155744621427
 31
0.0
  0
LINE
  5
8F1
330
1E
100
AcDbEntity
  8
OBJECT
100
AcDbLine
 10
10.84774831917902
 20
13.24155744621426
 30
0.0
 11
10.50332631917902
 21
13.24155744621426
 31
0.0
  0
ARC
  5
8F2
330
1E
100
AcDbEntity
  8
OBJECT
100
AcDbCircle
 10
10.50332631917902
 20
13.49155744621427
 30
0.0
 40
0.25
100
AcDbArc
 50
182.125976
 51
270.0
  0
ARC
  5
8F3
330
1E
100
AcDbEntity
  8
OBJECT
100
AcDbCircle
 10
10.50332631917902
 20
13.49155744621427
 30
0.0
 40
0.21
100
AcDbArc
 50
182.125976
 51
270.0
  0
ARC
  5
8F4
330
1E
100
AcDbEntity
  8
OBJECT
100
AcDbCircle
 10
10.11609331917902
 20
13.47718244621427
 30
0.0
 40
0.1375
100
AcDbArc
 50
2.125975999999999
 51
90.0
  0
ARC
  5
8F5
330
1E
100
AcDbEntity
  8
OBJECT
100
AcDbCircle
 10
10.11609331917902
 20
13.47718244621427
 30
0.0
 40
0.1775
100
AcDbArc
 50
2.125975999999999
 51
90.0
  0
ARC
  5
8F6
330
1E
100
AcDbEntity
  8
OBJECT
100
AcDbCircle
 10
10.84774831917902
 20
13.10405744621427
 30
0.0
 40
0.1775
100
AcDbArc
 50
0.0
 51
90.0
  0
ARC
  5
8F7
330
1E
100
AcDbEntity
  8
OBJECT
100
AcDbCircle
 10
10.84774831917902
 20
13.10405744621427
 30
0.0
 40
0.1375
100
AcDbArc
 50
0.0
 51
90.0
  0
TEXT
  5
8FB
330
1E
100
AcDbEntity
  8
BEND
100
AcDbText
 10
10.61172031917902
 20
13.99833244621427
 30
0.0
 40
0.3125
  1
A
 41
0.8
  7
SECTION
100
AcDbText
  0
SOLID
  5
8FC
330
1E
100
AcDbEntity
  8
BEND
100
AcDbTrace
 10
10.26695231917902
 20
13.97008444621427
 30
0.0
 11
10.26695231917902
 21
14.12008444621427
 31
0.0
 12
9.816952319179026
 22
14.04508444621427
 32
0.0
 13
9.816952319179026
 23
14.04508444621427
 33
0.0
  0
LINE
  5
8FD
102
{ACAD_REACTORS
330
20E3
102
}
330
1E
100
AcDbEntity
  8
OBJECT
100
AcDbLine
 10
18.36892782342215
 20
7.45565344621427
 30
0.0
 11
18.42892782342215
 21
7.45565344621427
 31
0.0
  0
LINE
  5
8FE
102
{ACAD_REACTORS
330
20E3
102
}
330
1E
100
AcDbEntity
  8
OBJECT
100
AcDbLine
 10
18.36892782342215
 20
7.496809446214269
 30
0.0
 11
19.88892782342215
 21
7.496809446214269
 31
0.0
  0
LINE
  5
902
102
{ACAD_REACTORS
330
20E3
102
}
330
1E
100
AcDbEntity
  8
OBJECT
100
AcDbLine
 10
18.36892782342215
 20
13.24155744621426
 30
0.0
 11
19.88892782342215
 21
13.24155744621426
 31
0.0
  0
LINE
  5
903
102
{ACAD_REACTORS
330
20E3
102
}
330
1E
100
AcDbEntity
  8
OBJECT
100
AcDbLine
 10
18.36892782342215
 20
13.28155744621427
 30
0.0
 11
18.42892782342215
 21
13.28155744621427
 31
0.0
  0
LINE
  5
904
102
{ACAD_REACTORS
330
20E3
102
}
330
1E
100
AcDbEntity
  8
OBJECT
100
AcDbLine
 10
18.42892782342215
 20
13.29955744621426
 30
0.0
 11
19.88892782342215
 21
13.29955744621426
 31
0.0
  0
LINE
  5
905
102
{ACAD_REACTORS
330
20E3
102
}
330
1E
100
AcDbEntity
  8
OBJECT
100
AcDbLine
 10
19.88892782342215
 20
13.41074444621426
 30
0.0
 11
20.00892782342215
 21
13.41074444621426
 31
0.0
  0
LINE
  5
906
102
{ACAD_REACTORS
330
20E3
102
}
330
1E
100
AcDbEntity
  8
OBJECT
100
AcDbLine
 10
19.88892782342215
 20
13.58261944621427
 30
0.0
 11
20.00892782342215
 21
13.58261944621427
 31
0.0
  0
ARC
  5
907
330
1E
100
AcDbEntity
  8
OBJECT
100
AcDbCircle
 10
28.25329548921493
 20
7.256182446214268
 30
0.0
 40
0.0775
100
AcDbArc
 50
270.0
 51
357.874024
  0
ARC
  5
908
330
1E
100
AcDbEntity
  8
OBJECT
100
AcDbCircle
 10
28.64052948921493
 20
7.24180744621427
 30
0.0
 40
0.31
100
AcDbArc
 50
90.0
 51
177.8740239999999
  0
LINE
  5
909
330
1E
100
AcDbEntity
  8
OBJECT
100
AcDbLine
 10
29.01070148921493
 20
7.551807446214269
 30
0.0
 11
28.64052948921493
 21
7.551807446214269
 31
0.0
  0
ARC
  5
90A
330
1E
100
AcDbEntity
  8
OBJECT
100
AcDbCircle
 10
29.01070148921493
 20
7.59180744621427
 30
0.0
 40
0.04
100
AcDbArc
 50
270.0
 51
0.0
  0
ARC
  5
90B
330
1E
100
AcDbEntity
  8
OBJECT
100
AcDbCircle
 10
28.24129548921493
 20
7.268182446214268
 30
0.0
 40
0.2675
100
AcDbArc
 50
312.411689
 51
357.874024
  0
ARC
  5
90C
330
1E
100
AcDbEntity
  8
OBJECT
100
AcDbCircle
 10
28.62852948921493
 20
7.253807446214269
 30
0.0
 40
0.12
100
AcDbArc
 50
90.0
 51
177.8740239999999
  0
LINE
  5
90D
330
1E
100
AcDbEntity
  8
OBJECT
100
AcDbLine
 10
28.84113648921493
 20
7.07068244621427
 30
0.0
 11
28.42171248921493
 21
7.07068244621427
 31
0.0
  0
ARC
  5
90E
330
1E
100
AcDbEntity
  8
OBJECT
100
AcDbCircle
 10
29.00995148921493
 20
7.21943244621427
 30
0.0
 40
0.225
100
AcDbArc
 50
136.6769469999999
 51
221.384668
  0
LINE
  5
90F
330
1E
100
AcDbEntity
  8
OBJECT
100
AcDbLine
 10
28.84626448921493
 20
7.373807446214268
 30
0.0
 11
28.62852948921493
 21
7.373807446214268
 31
0.0
  0
ARC
  5
910
330
1E
100
AcDbEntity
  8
OBJECT
100
AcDbCircle
 10
29.00995148921493
 20
7.21943244621427
 30
0.0
 40
0.21875
100
AcDbArc
 50
270.0
 51
0.0
  0
ARC
  5
911
330
1E
100
AcDbEntity
  8
OBJECT
100
AcDbCircle
 10
24.68345148921493
 20
7.21943244621427
 30
0.0
 40
0.21875
100
AcDbArc
 50
180.0
 51
270.0
  0
LINE
  5
912
330
1E
100
AcDbEntity
  8
OBJECT
100
AcDbLine
 10
24.84713848921493
 20
7.373807446214268
 30
0.0
 11
25.06487348921493
 21
7.373807446214268
 31
0.0
  0
ARC
  5
913
330
1E
100
AcDbEntity
  8
OBJECT
100
AcDbCircle
 10
24.68345148921493
 20
7.21943244621427
 30
0.0
 40
0.225
100
AcDbArc
 50
318.6153319999999
 51
43.323053
  0
LINE
  5
914
330
1E
100
AcDbEntity
  8
OBJECT
100
AcDbLine
 10
24.85226648921493
 20
7.07068244621427
 30
0.0
 11
25.27169048921493
 21
7.07068244621427
 31
0.0
  0
ARC
  5
915
330
1E
100
AcDbEntity
  8
OBJECT
100
AcDbCircle
 10
25.06487348921493
 20
7.253807446214269
 30
0.0
 40
0.12
100
AcDbArc
 50
2.125975999999999
 51
90.0
  0
ARC
  5
916
330
1E
100
AcDbEntity
  8
OBJECT
100
AcDbCircle
 10
25.45210648921493
 20
7.268182446214268
 30
0.0
 40
0.2675
100
AcDbArc
 50
182.125976
 51
227.5883109999999
  0
ARC
  5
917
330
1E
100
AcDbEntity
  8
OBJECT
100
AcDbCircle
 10
24.68270148921493
 20
7.59180744621427
 30
0.0
 40
0.04
100
AcDbArc
 50
180.0
 51
270.0
  0
LINE
  5
918
330
1E
100
AcDbEntity
  8
OBJECT
100
AcDbLine
 10
24.68270148921493
 20
7.551807446214269
 30
0.0
 11
25.05287348921493
 21
7.551807446214269
 31
0.0
  0
ARC
  5
919
330
1E
100
AcDbEntity
  8
OBJECT
100
AcDbCircle
 10
25.05287348921493
 20
7.24180744621427
 30
0.0
 40
0.31
100
AcDbArc
 50
2.125975999999999
 51
90.0
  0
ARC
  5
91A
330
1E
100
AcDbEntity
  8
OBJECT
100
AcDbCircle
 10
25.44010648921493
 20
7.256182446214268
 30
0.0
 40
0.0775
100
AcDbArc
 50
182.125976
 51
270.0
  0
CIRCLE
  5
91B
330
1E
100
AcDbEntity
  8
OBJECT
100
AcDbCircle
 10
24.70295148921493
 20
7.236682446214269
 30
0.0
 40
0.085938
  0
CIRCLE
  5
91C
330
1E
100
AcDbEntity
  8
OBJECT
100
AcDbCircle
 10
29.12685748921493
 20
7.365367446214269
 30
0.0
 40
0.03125
  0
CIRCLE
  5
91D
330
1E
100
AcDbEntity
  8
OBJECT
100
AcDbCircle
 10
29.12685748921493
 20
13.36799644621427
 30
0.0
 40
0.03125
  0
CIRCLE
  5
91E
330
1E
100
AcDbEntity
  8
OBJECT
100
AcDbCircle
 10
24.70295148921493
 20
13.49668244621426
 30
0.0
 40
0.085938
  0
ARC
  5
91F
330
1E
100
AcDbEntity
  8
OBJECT
100
AcDbCircle
 10
25.44010648921493
 20
13.47718244621427
 30
0.0
 40
0.0775
100
AcDbArc
 50
90.0
 51
177.8740239999999
  0
ARC
  5
920
330
1E
100
AcDbEntity
  8
OBJECT
100
AcDbCircle
 10
25.05287348921493
 20
13.49155744621427
 30
0.0
 40
0.31
100
AcDbArc
 50
270.0
 51
357.874024
  0
LINE
  5
921
330
1E
100
AcDbEntity
  8
OBJECT
100
AcDbLine
 10
24.68270148921493
 20
13.18155744621426
 30
0.0
 11
25.05287348921493
 21
13.18155744621426
 31
0.0
  0
ARC
  5
922
330
1E
100
AcDbEntity
  8
OBJECT
100
AcDbCircle
 10
24.68270148921493
 20
13.14155744621427
 30
0.0
 40
0.04
100
AcDbArc
 50
90.0
 51
180.0
  0
ARC
  5
923
330
1E
100
AcDbEntity
  8
OBJECT
100
AcDbCircle
 10
25.45210648921493
 20
13.46518244621426
 30
0.0
 40
0.2675
100
AcDbArc
 50
132.4116889999999
 51
177.8740239999999
  0
ARC
  5
924
330
1E
100
AcDbEntity
  8
OBJECT
100
AcDbCircle
 10
25.06487348921493
 20
13.47955744621426
 30
0.0
 40
0.12
100
AcDbArc
 50
270.0
 51
357.874024
  0
LINE
  5
925
330
1E
100
AcDbEntity
  8
OBJECT
100
AcDbLine
 10
24.85226648921493
 20
13.66268244621426
 30
0.0
 11
25.27169048921493
 21
13.66268244621426
 31
0.0
  0
ARC
  5
926
330
1E
100
AcDbEntity
  8
OBJECT
100
AcDbCircle
 10
24.68345148921493
 20
13.51393244621426
 30
0.0
 40
0.225
100
AcDbArc
 50
316.676947
 51
41.38466799999999
  0
LINE
  5
927
330
1E
100
AcDbEntity
  8
OBJECT
100
AcDbLine
 10
24.84713848921493
 20
13.35955744621426
 30
0.0
 11
25.06487348921493
 21
13.35955744621426
 31
0.0
  0
ARC
  5
928
330
1E
100
AcDbEntity
  8
OBJECT
100
AcDbCircle
 10
24.68345148921493
 20
13.51393244621426
 30
0.0
 40
0.21875
100
AcDbArc
 50
90.0
 51
180.0
  0
ARC
  5
929
330
1E
100
AcDbEntity
  8
OBJECT
100
AcDbCircle
 10
29.00995148921493
 20
13.51393244621426
 30
0.0
 40
0.21875
100
AcDbArc
 50
0.0
 51
90.0
  0
LINE
  5
92A
330
1E
100
AcDbEntity
  8
OBJECT
100
AcDbLine
 10
28.84626448921493
 20
13.35955744621426
 30
0.0
 11
28.62852948921493
 21
13.35955744621426
 31
0.0
  0
ARC
  5
92B
330
1E
100
AcDbEntity
  8
OBJECT
100
AcDbCircle
 10
29.00995148921493
 20
13.51393244621426
 30
0.0
 40
0.225
100
AcDbArc
 50
138.615332
 51
223.3230529999999
  0
LINE
  5
92C
330
1E
100
AcDbEntity
  8
OBJECT
100
AcDbLine
 10
28.84113648921493
 20
13.66268244621426
 30
0.0
 11
28.42171248921493
 21
13.66268244621426
 31
0.0
  0
ARC
  5
92D
330
1E
100
AcDbEntity
  8
OBJECT
100
AcDbCircle
 10
28.62852948921493
 20
13.47955744621426
 30
0.0
 40
0.12
100
AcDbArc
 50
182.125976
 51
270.0
  0
ARC
  5
92E
330
1E
100
AcDbEntity
  8
OBJECT
100
AcDbCircle
 10
28.24129548921493
 20
13.46518244621426
 30
0.0
 40
0.2675
100
AcDbArc
 50
2.125975999999999
 51
47.588311
  0
ARC
  5
92F
330
1E
100
AcDbEntity
  8
OBJECT
100
AcDbCircle
 10
29.01070148921493
 20
13.14155744621427
 30
0.0
 40
0.04
100
AcDbArc
 50
0.0
 51
90.0
  0
LINE
  5
930
330
1E
100
AcDbEntity
  8
OBJECT
100
AcDbLine
 10
29.01070148921493
 20
13.18155744621426
 30
0.0
 11
28.64052948921493
 21
13.18155744621426
 31
0.0
  0
ARC
  5
931
330
1E
100
AcDbEntity
  8
OBJECT
100
AcDbCircle
 10
28.64052948921493
 20
13.49155744621427
 30
0.0
 40
0.31
100
AcDbArc
 50
182.125976
 51
270.0
  0
ARC
  5
932
330
1E
100
AcDbEntity
  8
OBJECT
100
AcDbCircle
 10
28.25329548921493
 20
13.47718244621427
 30
0.0
 40
0.0775
100
AcDbArc
 50
2.125975999999999
 51
90.0
  0
CIRCLE
  5
933
330
1E
100
AcDbEntity
  8
OBJECT
100
AcDbCircle
 10
28.99045148921493
 20
13.49668244621426
 30
0.0
 40
0.085938
  0
LINE
  5
934
330
1E
100
AcDbEntity
  8
OBJECT
100
AcDbLine
 10
25.44010648921493
 20
13.55468244621427
 30
0.0
 11
28.25329548921493
 21
13.55468244621427
 31
0.0
  0
LINE
  5
935
330
1E
100
AcDbEntity
  8
OBJECT
100
AcDbLine
 10
29.00995148921493
 20
13.73268244621427
 30
0.0
 11
24.68345148921493
 21
13.73268244621427
 31
0.0
  0
CIRCLE
  5
936
330
1E
100
AcDbEntity
  8
OBJECT
100
AcDbCircle
 10
24.56654548921493
 20
13.36799644621427
 30
0.0
 40
0.03125
  0
DIMENSION
  5
937
330
1E
100
AcDbEntity
  8
DIM
100
AcDbDimension
  2
*D0
 10
5.736632319179026
 20
7.00068244621427
 30
0.0
 11
4.612413569179024
 21
6.100682446214271
 31
0.0
 70
    32
 71
     5
 42
0.2359999999999998
  3
23NSTD
100
AcDbAlignedDimension
 13
6.557998319179025
 23
7.236682446214269
 33
0.0
 14
6.557998319179025
 24
7.000682446214269
 34
0.0
 50
90.0
100
AcDbRotatedDimension
  0
DIMENSION
  5
945
330
1E
100
AcDbEntity
  8
DIM
100
AcDbDimension
  2
*D1
 10
2.048985319179026
 20
13.49668244621427
 30
0.0
 11
2.048985319179023
 21
10.36668244621427
 31
0.0
 70
    32
  1
<>
 71
     5
 42
6.259999999999999
  3
23NSTD
100
AcDbAlignedDimension
 13
6.557998319179025
 23
7.236682446214269
 33
0.0
 14
6.577498319179025
 24
13.49668244621426
 34
0.0
 50
90.0
100
AcDbRotatedDimension
  0
DIMENSION
  5
953
330
1E
100
AcDbEntity
  8
DIM
100
AcDbDimension
  2
*D2
 10
6.339248319179025
 20
16.13931144621427
 30
0.0
 11
4.765029569179025
 21
16.13931144621427
 31
0.0
 70
    32
 71
     5
 42
0.2382499999999998
  3
23NSTD
100
AcDbAlignedDimension
 13
6.577498319179025
 23
13.49668244621426
 33
0.0
 14
6.339248319179025
 24
13.51393244621426
 34
0.0
100
AcDbRotatedDimension
  0
DIMENSION
  5
961
330
1E
100
AcDbEntity
  8
DIM
100
AcDbDimension
  2
*D3
 10
6.339248319179025
 20
15.43681144621427
 30
0.0
 11
4.804092069179025
 21
15.43681144621427
 31
0.0
 70
    32
 71
     5
 42
0.5812499999999999
  3
23NSTD
100
AcDbAlignedDimension
 13
6.920498319179025
 23
13.49668244621426
 33
0.0
 14
6.339248319179025
 24
13.51393244621426
 34
0.0
100
AcDbRotatedDimension
  0
DIMENSION
  5
96F
330
1E
100
AcDbEntity
  8
DIM
100
AcDbDimension
  2
*D4
 10
10.52199831917902
 20
15.43681144621427
 30
0.0
 11
8.721248319179025
 21
15.43681144621427
 31
0.0
 70
    32
  1
<>
 71
     5
 42
3.6015
  3
23NSTD
100
AcDbAlignedDimension
 13
6.920498319179025
 23
13.49668244621426
 33
0.0
 14
10.52199831917902
 24
14.04508444621427
 34
0.0
100
AcDbRotatedDimension
  0
DIMENSION
  5
97D
330
1E
100
AcDbEntity
  8
DIM
100
AcDbDimension
  2
*D5
 10
10.86499831917902
 20
16.13931144621427
 30
0.0
 11
8.721248319179025
 21
16.13931144621427
 31
0.0
 70
    32
  1
<>
 71
     5
 42
4.2875
  3
23NSTD
100
AcDbAlignedDimension
 13
6.577498319179025
 23
13.49668244621426
 33
0.0
 14
10.86499831917902
 24
13.49668244621426
 34
0.0
100
AcDbRotatedDimension
  0
DIMENSION
  5
98B
330
1E
100
AcDbEntity
  8
DIM
100
AcDbDimension
  2
*D6
 10
6.339248319179025
 20
4.831641446214269
 30
0.0
 11
4.784560819179025
 21
4.831641446214269
 31
0.0
 70
    32
 71
     5
 42
0.8497500000000002
  3
23NSTD
100
AcDbAlignedDimension
 13
7.188998319179026
 23
7.25108144621427
 33
0.0
 14
6.339248319179025
 24
7.219432446214269
 34
0.0
100
AcDbRotatedDimension
  0
DIMENSION
  5
999
330
1E
100
AcDbEntity
  8
DIM
100
AcDbDimension
  2
*D7
 10
10.25349831917902
 20
4.831641446214269
 30
0.0
 11
8.721248319179027
 21
4.831641446214269
 31
0.0
 70
    32
  1
<>
 71
     5
 42
3.0645
  3
23NSTD
100
AcDbAlignedDimension
 13
7.188998319179026
 23
7.25108144621427
 33
0.0
 14
10.25349831917902
 24
7.25108144621427
 34
0.0
100
AcDbRotatedDimension
  0
DIMENSION
  5
9A7
330
1E
100
AcDbEntity
  8
DIM
100
AcDbDimension
  2
*D8
 10
6.339248319179025
 20
5.534141446214269
 30
0.0
 11
7.817238856905646
 21
5.534141446214269
 31
0.0
 70
   160
 71
     5
 42
2.381999999999999
  3
23NSTD
100
AcDbAlignedDimension
 13
8.721248319179025
 23
6.93945244621427
 33
0.0
 14
6.339248319179025
 24
7.219432446214269
 34
0.0
100
AcDbRotatedDimension
  0
DIMENSION
  5
9B5
330
1E
100
AcDbEntity
  8
DIM
100
AcDbDimension
  2
*D9
 10
11.10324831917902
 20
4.129141446214269
 30
0.0
 11
8.721248319179025
 21
4.129141446214269
 31
0.0
 70
    32
  1
<>
 71
     5
 42
4.763999999999999
  3
23NSTD
100
AcDbAlignedDimension
 13
6.339248319179025
 23
7.219432446214269
 33
0.0
 14
11.10324831917902
 24
7.219432446214269
 34
0.0
100
AcDbRotatedDimension
  0
DIMENSION
  5
9C3
330
1E
100
AcDbEntity
  8
DIM
100
AcDbDimension
  2
*D10
 10
6.520248319179025
 20
11.09792644621427
 30
0.0
 11
8.721248319179025
 21
11.09792644621427
 31
0.0
 70
    32
 71
     5
 42
4.402
  3
23NSTD
100
AcDbAlignedDimension
 13
10.92224831917902
 23
11.81661944621427
 33
0.0
 14
6.520248319179025
 24
11.81661944621427
 34
0.0
 50
180.0
100
AcDbRotatedDimension
  0
DIMENSION
  5
9D1
330
1E
100
AcDbEntity
  8
DIM
100
AcDbDimension
  2
*D11
 10
6.339248319179025
 20
11.09792644621427
 30
0.0
 11
4.843154569179025
 21
11.09792644621427
 31
0.0
 70
    32
 71
     5
 42
0.181
  3
23NSTD
100
AcDbAlignedDimension
 13
6.520248319179025
 23
11.81661944621427
 33
0.0
 14
6.339248319179025
 24
11.08090144621427
 34
0.0
 50
180.0
100
AcDbRotatedDimension
  0
DIMENSION
  5
9DF
330
1E
100
AcDbEntity
  8
DIM
100
AcDbDimension
  2
*D12
 10
14.01181331917902
 20
7.491807446214267
 30
0.0
 11
14.01181331917902
 21
7.246244946214271
 31
0.0
 70
    32
 71
     5
 42
0.4911249999999994
  3
23NSTDI
100
AcDbAlignedDimension
 13
10.88449831917902
 23
7.000682446214269
 33
0.0
 14
10.84774831917902
 24
7.491807446214268
 34
0.0
 50
90.0
100
AcDbRotatedDimension
  0
DIMENSION
  5
9ED
330
1E
100
AcDbEntity
  8
DIM
100
AcDbDimension
  2
*D13
 10
14.01181331917902
 20
13.24155744621426
 30
0.0
 11
14.01181331917902
 21
10.36668244621427
 31
0.0
 70
    32
  1
<>
 71
     5
 42
5.749749999999999
  3
23NSTD
100
AcDbAlignedDimension
 13
10.84774831917902
 23
7.491807446214268
 33
0.0
 14
10.74774831917902
 24
13.24155744621426
 34
0.0
 50
90.0
100
AcDbRotatedDimension
  0
DIMENSION
  5
9FB
330
1E
100
AcDbEntity
  8
DIM
100
AcDbDimension
  2
*D14
 10
15.27297831917902
 20
13.73268244621426
 30
0.0
 11
15.27297831917902
 21
10.36668244621427
 31
0.0
 70
    32
  1
<>
 71
     5
 42
6.731999999999999
  3
23NSTD
100
AcDbAlignedDimension
 13
11.01049831917902
 23
7.000682446214269
 33
0.0
 14
10.88449831917902
 24
13.73268244621427
 34
0.0
 50
90.0
100
AcDbRotatedDimension
  0
DIMENSION
  5
A09
330
1E
100
AcDbEntity
  8
DIM
100
AcDbDimension
  2
*D15
 10
3.216485319179025
 20
7.00068244621427
 30
0.0
 11
2.092266569179024
 21
6.100682446214271
 31
0.0
 70
   160
 71
     5
 42
0.7719999999999994
  3
23NSTD
100
AcDbAlignedDimension
 13
6.920498319179025
 23
7.772682446214268
 33
0.0
 14
6.557998319179025
 24
7.000682446214269
 34
0.0
 50
90.0
100
AcDbRotatedDimension
  0
DIMENSION
  5
A17
330
1E
100
AcDbEntity
  8
DIM
100
AcDbDimension
  2
*D16
 10
3.216485319179026
 20
12.96068244621427
 30
0.0
 11
3.216485319179024
 21
10.36668244621427
 31
0.0
 70
    32
  1
<>
 71
     5
 42
5.188
  3
23NSTD
100
AcDbAlignedDimension
 13
6.920498319179025
 23
7.772682446214268
 33
0.0
 14
6.920498319179025
 24
12.96068244621427
 34
0.0
 50
90.0
100
AcDbRotatedDimension
  0
DIMENSION
  5
A25
330
1E
100
AcDbEntity
  8
DIM
100
AcDbDimension
  2
*D17
 10
7.952617319179026
 20
7.181682446214269
 30
0.0
 11
7.952617319179025
 21
10.36668244621427
 31
0.0
 70
    32
 71
     5
 42
6.369999999999999
  3
23NSTD
100
AcDbAlignedDimension
 13
8.627498319179025
 23
13.55168244621427
 33
0.0
 14
8.627498319179025
 24
7.181682446214269
 34
0.0
 50
270.0
100
AcDbRotatedDimension
  0
DIMENSION
  5
A33
330
1E
100
AcDbEntity
  8
DIM
100
AcDbDimension
  2
*D18
 10
7.952617319179026
 20
13.73268244621427
 30
0.0
 11
8.998711069179025
 21
14.63268244621427
 31
0.0
 70
    32
 71
     5
 42
0.1810000000000009
  3
23NSTD
100
AcDbAlignedDimension
 13
8.627498319179025
 23
13.55168244621427
 33
0.0
 14
7.958294319179026
 24
13.73268244621427
 34
0.0
 50
270.0
100
AcDbRotatedDimension
  0
DIMENSION
  5
A41
330
1E
100
AcDbEntity
  8
DIM
100
AcDbDimension
  2
*D19
 10
36.78295837934434
 20
15.62563744621427
 30
0.0
 11
38.36195837934434
 21
15.62563744621427
 31
0.0
 70
    32
 71
     5
 42
3.158000000000001
  3
23NSTD
100
AcDbAlignedDimension
 13
39.94095837934434
 23
13.67018244621426
 33
0.0
 14
36.78295837934434
 24
13.67018244621426
 34
0.0
100
AcDbRotatedDimension
  0
DIMENSION
  5
A4F
330
1E
100
AcDbEntity
  8
DIM
100
AcDbDimension
  2
*D20
 10
36.78295837934434
 20
14.92313744621427
 30
0.0
 11
34.72045837934434
 21
14.92313744621427
 31
0.0
 70
    32
  1
<> REF.
 71
     5
 42
1.578000000000002
  3
23NSTD
100
AcDbAlignedDimension
 13
38.36095837934434
 23
13.73268244621427
 33
0.0
 14
36.78295837934434
 24
13.67018244621426
 34
0.0
100
AcDbRotatedDimension
  0
DIMENSION
  5
A5C
330
1E
100
AcDbEntity
  8
DIM
100
AcDbDimension
  2
*D21
 10
29.94173248921493
 20
13.73268244621427
 30
0.0
 11
31.06595123921493
 21
14.63268244621427
 31
0.0
 70
    32
 71
     5
 42
0.2360000000000006
  3
23NSTD
100
AcDbAlignedDimension
 13
28.99045148921493
 23
13.49668244621426
 33
0.0
 14
29.00995148921493
 24
13.73268244621427
 34
0.0
 50
90.0
100
AcDbRotatedDimension
  0
DIMENSION
  5
A6A
330
1E
100
AcDbEntity
  8
DIM
100
AcDbDimension
  2
*D22
 10
29.94173248921493
 20
13.49668244621426
 30
0.0
 11
29.94173248921493
 21
10.36668244621427
 31
0.0
 70
    32
  1
<>
 71
     5
 42
6.26
  3
23NSTD
100
AcDbAlignedDimension
 13
28.99045148921493
 23
7.236682446214269
 33
0.0
 14
28.99045148921493
 24
13.49668244621426
 34
0.0
 50
90.0
100
AcDbRotatedDimension
  0
DIMENSION
  5
A78
330
1E
100
AcDbEntity
  8
DIM
100
AcDbDimension
  2
*D23
 10
31.30882848921493
 20
13.73268244621427
 30
0.0
 11
31.30882848921493
 21
10.36668244621427
 31
0.0
 70
    32
  1
<>
 71
     5
 42
6.732000000000001
  3
23NSTD
100
AcDbAlignedDimension
 13
29.00995148921493
 23
7.000682446214269
 33
0.0
 14
29.00995148921493
 24
13.73268244621427
 34
0.0
 50
90.0
100
AcDbRotatedDimension
  0
DIMENSION
  5
A86
330
1E
100
AcDbEntity
  8
DIM
100
AcDbDimension
  2
*D24
 10
29.22870148921493
 20
15.29837344621427
 30
0.0
 11
30.80292023921493
 21
15.29837344621427
 31
0.0
 70
    32
 71
     5
 42
0.2382500000000007
  3
23NSTD
100
AcDbAlignedDimension
 13
28.99045148921493
 23
13.49668244621426
 33
0.0
 14
29.22870148921493
 24
13.51393244621426
 34
0.0
100
AcDbRotatedDimension
  0
DIMENSION
  5
A94
330
1E
100
AcDbEntity
  8
DIM
100
AcDbDimension
  2
*D25
 10
24.70295148921493
 20
15.29837344621427
 30
0.0
 11
26.84670148921493
 21
15.29837344621427
 31
0.0
 70
    32
  1
<>
 71
     5
 42
4.287500000000001
  3
23NSTD
100
AcDbAlignedDimension
 13
28.99045148921493
 23
13.49668244621426
 33
0.0
 14
24.70295148921493
 24
13.49668244621426
 34
0.0
100
AcDbRotatedDimension
  0
DIMENSION
  5
AA2
330
1E
100
AcDbEntity
  8
DIM
100
AcDbDimension
  2
*D26
 10
24.46470148921493
 20
15.91666644621426
 30
0.0
 11
26.84670148921493
 21
15.91666644621426
 31
0.0
 70
    32
  1
<>
 71
     5
 42
4.763999999999999
  3
23NSTD
100
AcDbAlignedDimension
 13
29.22870148921493
 23
13.51393244621426
 33
0.0
 14
24.46470148921493
 24
13.51393244621426
 34
0.0
100
AcDbRotatedDimension
  0
TEXT
  5
AB0
330
1E
100
AcDbEntity
  8
TEXT
100
AcDbText
 10
29.11234448921493
 20
4.481054446214269
 30
0.0
 40
0.45
  1
%%UCOVER
 41
0.75
100
AcDbText
  0
DIMENSION
  5
AB1
330
1E
100
AcDbEntity
  8
DIM
100
AcDbDimension
  2
*D27
 10
18.36892782342215
 20
14.87834946767291
 30
0.0
 11
19.18892782342215
 21
14.87834946767291
 31
0.0
 70
    32
 71
     5
 42
1.64
  3
23NSTDI
100
AcDbAlignedDimension
 13
20.00892782342215
 23
13.68268244621426
 33
0.0
 14
18.36892782342215
 24
13.65468244621427
 34
0.0
100
AcDbRotatedDimension
  0
DIMENSION
  5
ABF
330
1E
100
AcDbEntity
  8
DIM
100
AcDbDimension
  2
*D28
 10
20.00892782342215
 20
14.29500635601877
 30
0.0
 11
21.58314657342215
 21
14.29500635601877
 31
0.0
 70
    32
  1
<>
 71
     5
 42
0.2967923766940608
  3
23NSTD
100
AcDbAlignedDimension
 13
19.71213544672809
 23
13.11663960182056
 33
0.0
 14
20.00892782342215
 24
13.68268244621426
 34
0.0
100
AcDbRotatedDimension
  0
DIMENSION
  5
ACD
330
1E
100
AcDbEntity
  8
DIM
100
AcDbDimension
  2
*D29
 10
20.00892782342215
 20
11.29740944621427
 30
0.0
 11
21.52455282342215
 21
11.29740944621427
 31
0.0
 70
    32
  1
0.120
 71
     5
 42
0.1199999999999974
  3
23NSTD
100
AcDbAlignedDimension
 13
19.88892782342215
 23
11.32200044621427
 33
0.0
 14
20.00892782342215
 24
11.32200044621427
 34
0.0
100
AcDbRotatedDimension
  0
DIMENSION
  5
ADB
330
1E
100
AcDbEntity
  8
DIM
100
AcDbDimension
  2
*D30
 10
18.36892782342215
 20
9.500828446214269
 30
0.0
 11
16.87283407342215
 21
9.500828446214269
 31
0.0
 70
    32
 71
     5
 42
0.1159999999999997
  3
23NSTD
100
AcDbAlignedDimension
 13
18.48492782342215
 23
8.92861444621427
 33
0.0
 14
18.36892782342215
 24
9.560413446214269
 34
0.0
100
AcDbRotatedDimension
  0
DIMENSION
  5
AE9
330
1E
100
AcDbEntity
  8
DIM
100
AcDbDimension
  2
*D31
 10
22.75692276900961
 20
13.58261944621427
 30
0.0
 11
21.2030165190096
 21
12.51074444621427
 31
0.0
 70
   160
  1
<> DIA.
 71
     5
 42
0.171875
  3
23NSTD
100
AcDbAlignedDimension
 13
20.00892782342215
 23
13.41074444621426
 33
0.0
 14
20.00892782342215
 24
13.58261944621427
 34
0.0
 50
90.0
100
AcDbRotatedDimension
  0
DIMENSION
  5
AF7
330
1E
100
AcDbEntity
  8
DIM
100
AcDbDimension
  2
*D32
 10
20.00892782342215
 20
5.853165446214269
 30
0.0
 11
19.41705282342215
 21
5.853165446214269
 31
0.0
 70
    32
 71
     5
 42
1.183749999999999
  3
23NSTDI
100
AcDbAlignedDimension
 13
18.82517782342215
 23
7.079182446214269
 33
0.0
 14
20.00892782342215
 24
7.050682446214269
 34
0.0
100
AcDbRotatedDimension
  0
LINE
  5
B05
330
1E
100
AcDbEntity
  8
OBJECT
100
AcDbLine
 10
6.457248319179026
 20
7.629307446214269
 30
0.0
 11
6.457248319179026
 21
13.10405744621427
 31
0.0
  0
LINE
  5
B06
330
1E
100
AcDbEntity
  8
OBJECT
100
AcDbLine
 10
6.417248319179027
 20
7.629307446214269
 30
0.0
 11
6.417248319179027
 21
13.10405744621427
 31
0.0
  0
LINE
  5
B07
330
1E
100
AcDbEntity
  8
OBJECT
100
AcDbLine
 10
11.02524831917902
 20
7.629307446214269
 30
0.0
 11
11.02524831917902
 21
13.10405744621427
 31
0.0
  0
LINE
  5
B08
330
1E
100
AcDbEntity
  8
OBJECT
100
AcDbLine
 10
10.98524831917902
 20
7.629307446214269
 30
0.0
 11
10.98524831917902
 21
13.10405744621427
 31
0.0
  0
DIMENSION
  5
B09
330
1E
100
AcDbEntity
  8
DIM
100
AcDbDimension
  2
*D33
 10
13.03414631917902
 20
10.36668244621426
 30
0.0
 11
13.03414631917902
 21
8.683682446214271
 31
0.0
 70
    32
 71
     5
 42
3.365999999999999
  3
23NSTD
100
AcDbAlignedDimension
 13
10.88449831917902
 23
7.000682446214269
 33
0.0
 14
11.16447731917902
 24
10.36668244621427
 34
0.0
 50
90.0
100
AcDbRotatedDimension
  0
DIMENSION
  5
B17
330
1E
100
AcDbEntity
  8
DIM
100
AcDbDimension
  2
*D34
 10
13.03414631917902
 20
11.91036944621426
 30
0.0
 11
13.03414631917902
 21
11.13852594621427
 31
0.0
 70
    32
 71
     5
 42
1.543687
  3
23NSTDI
100
AcDbAlignedDimension
 13
11.16447731917902
 23
10.36668244621427
 33
0.0
 14
11.16447731917902
 24
11.91036944621427
 34
0.0
 50
90.0
100
AcDbRotatedDimension
  0
DIMENSION
  5
B25
330
1E
100
AcDbEntity
  8
DIM
100
AcDbDimension
  2
*D35
 10
11.99451931917902
 20
8.82299444621427
 30
0.0
 11
11.99451931917902
 21
9.594838446214271
 31
0.0
 70
    32
 71
     5
 42
1.543687999999999
  3
23NSTDI
100
AcDbAlignedDimension
 13
11.16447731917902
 23
10.36668244621427
 33
0.0
 14
11.16447731917902
 24
8.82299444621427
 34
0.0
 50
90.0
100
AcDbRotatedDimension
  0
DIMENSION
  5
B33
330
1E
100
AcDbEntity
  8
DIM
100
AcDbDimension
  2
*D36
 10
6.339248319179025
 20
9.62167744621427
 30
0.0
 11
4.335342069179025
 21
9.62167744621427
 31
0.0
 70
    32
  1
<> TYP.
 71
     5
 42
0.1180000000000003
  3
23NSTD
100
AcDbAlignedDimension
 13
6.457248319179026
 23
9.651234446214269
 33
0.0
 14
6.339248319179025
 24
9.651234446214269
 34
0.0
100
AcDbRotatedDimension
  0
CIRCLE
  5
B41
330
1E
100
AcDbEntity
  8
OBJECT
100
AcDbCircle
 10
10.52948331917902
 20
12.41068244621426
 30
0.0
 40
0.15625
  0
CIRCLE
  5
B42
330
1E
100
AcDbEntity
  8
OBJECT
100
AcDbCircle
 10
6.913014319179026
 20
12.41068244621426
 30
0.0
 40
0.15625
  0
LINE
  5
B43
330
1E
100
AcDbEntity
  8
OBJECT
100
AcDbLine
 10
6.520248319179025
 20
10.46043244621426
 30
0.0
 11
6.520248319179025
 21
10.41043244621427
 31
0.0
  0
LINE
  5
B44
330
1E
100
AcDbEntity
  8
CENTER
100
AcDbLine
 10
6.278019319179026
 20
10.36668244621427
 30
0.0
 11
6.652537319179025
 21
10.36668244621427
 31
0.0
  0
LINE
  5
B45
330
1E
100
AcDbEntity
  8
OBJECT
100
AcDbLine
 10
6.457248319179026
 20
10.41043244621427
 30
0.0
 11
6.520248319179025
 21
10.41043244621427
 31
0.0
  0
LINE
  5
B46
330
1E
100
AcDbEntity
  8
OBJECT
100
AcDbLine
 10
6.457248319179026
 20
10.32293244621427
 30
0.0
 11
6.520248319179025
 21
10.32293244621427
 31
0.0
  0
LINE
  5
B47
330
1E
100
AcDbEntity
  8
OBJECT
100
AcDbLine
 10
6.520248319179025
 20
10.27293244621427
 30
0.0
 11
6.520248319179025
 21
10.32293244621427
 31
0.0
  0
LINE
  5
B48
330
1E
100
AcDbEntity
  8
OBJECT
100
AcDbLine
 10
6.457248319179026
 20
10.27293244621427
 30
0.0
 11
6.520248319179025
 21
10.27293244621427
 31
0.0
  0
LINE
  5
B49
330
1E
100
AcDbEntity
  8
OBJECT
100
AcDbLine
 10
6.457248319179026
 20
10.46043244621426
 30
0.0
 11
6.520248319179025
 21
10.46043244621426
 31
0.0
  0
LINE
  5
B4A
330
1E
100
AcDbEntity
  8
OBJECT
100
AcDbLine
 10
10.92224831917902
 20
10.46043244621426
 30
0.0
 11
10.92224831917902
 21
10.41043244621427
 31
0.0
  0
LINE
  5
B4B
330
1E
100
AcDbEntity
  8
CENTER
100
AcDbLine
 10
11.16447731917902
 20
10.36668244621427
 30
0.0
 11
10.78996031917902
 21
10.36668244621427
 31
0.0
  0
LINE
  5
B4C
330
1E
100
AcDbEntity
  8
OBJECT
100
AcDbLine
 10
10.98524831917902
 20
10.27293244621427
 30
0.0
 11
10.92224831917902
 21
10.27293244621427
 31
0.0
  0
LINE
  5
B4D
330
1E
100
AcDbEntity
  8
OBJECT
100
AcDbLine
 10
10.92224831917902
 20
10.27293244621427
 30
0.0
 11
10.92224831917902
 21
10.32293244621427
 31
0.0
  0
LINE
  5
B4E
330
1E
100
AcDbEntity
  8
OBJECT
100
AcDbLine
 10
10.98524831917902
 20
10.32293244621427
 30
0.0
 11
10.92224831917902
 21
10.32293244621427
 31
0.0
  0
LINE
  5
B4F
330
1E
100
AcDbEntity
  8
OBJECT
100
AcDbLine
 10
10.98524831917902
 20
10.41043244621427
 30
0.0
 11
10.92224831917902
 21
10.41043244621427
 31
0.0
  0
LINE
  5
B50
330
1E
100
AcDbEntity
  8
OBJECT
100
AcDbLine
 10
10.98524831917902
 20
10.46043244621426
 30
0.0
 11
10.92224831917902
 21
10.46043244621426
 31
0.0
  0
DIMENSION
  5
B51
330
1E
100
AcDbEntity
  8
DIM
100
AcDbDimension
  2
*D37
 10
5.234669319179025
 20
12.41068244621426
 30
0.0
 11
5.234669319179023
 21
12.68568244621427
 31
0.0
 70
    32
 71
     5
 42
0.5500000000000007
  3
23NSTDI
100
AcDbAlignedDimension
 13
6.920498319179025
 23
12.96068244621427
 33
0.0
 14
6.913014319179026
 24
12.41068244621426
 34
0.0
 50
90.0
100
AcDbRotatedDimension
  0
LINE
  5
B5F
330
1E
100
AcDbEntity
  8
OBJECT
100
AcDbLine
 10
18.48492782342215
 20
10.32293244621427
 30
0.0
 11
18.48492782342215
 21
10.27293244621427
 31
0.0
  0
LINE
  5
B60
330
1E
100
AcDbEntity
  8
OBJECT
100
AcDbLine
 10
19.88892782342215
 20
10.27293244621427
 30
0.0
 11
18.48492782342215
 21
10.27293244621427
 31
0.0
  0
LINE
  5
B61
330
1E
100
AcDbEntity
  8
OBJECT
100
AcDbLine
 10
19.88892782342215
 20
10.41043244621427
 30
0.0
 11
18.48492782342215
 21
10.41043244621427
 31
0.0
  0
LINE
  5
B62
330
1E
100
AcDbEntity
  8
OBJECT
100
AcDbLine
 10
19.88892782342215
 20
10.32293244621427
 30
0.0
 11
18.48492782342215
 21
10.32293244621427
 31
0.0
  0
LINE
  5
B63
330
1E
100
AcDbEntity
  8
OBJECT
100
AcDbLine
 10
19.88892782342215
 20
10.46043244621426
 30
0.0
 11
18.48492782342215
 21
10.46043244621426
 31
0.0
  0
LINE
  5
B64
330
1E
100
AcDbEntity
  8
OBJECT
100
AcDbLine
 10
18.48492782342215
 20
10.46043244621426
 30
0.0
 11
18.48492782342215
 21
10.41043244621427
 31
0.0
  0
LINE
  5
B65
102
{ACAD_REACTORS
330
20E3
102
}
330
1E
100
AcDbEntity
  8
OBJECT
100
AcDbLine
 10
19.71192782342215
 20
12.56693244621426
 30
0.0
 11
19.88892782342215
 21
12.56693244621426
 31
0.0
  0
LINE
  5
B66
102
{ACAD_REACTORS
330
20E3
102
}
330
1E
100
AcDbEntity
  8
OBJECT
100
AcDbLine
 10
19.71192782342215
 20
12.56693244621426
 30
0.0
 11
19.71192782342215
 21
12.25443244621426
 31
0.0
  0
LINE
  5
B67
102
{ACAD_REACTORS
330
20E3
102
}
330
1E
100
AcDbEntity
  8
OBJECT
100
AcDbLine
 10
19.71192782342215
 20
12.25443244621426
 30
0.0
 11
19.88892782342215
 21
12.25443244621426
 31
0.0
  0
LINE
  5
B68
102
{ACAD_REACTORS
330
20E3
102
}
330
1E
100
AcDbEntity
  8
OBJECT
100
AcDbLine
 10
19.85192782342215
 20
12.45568244621426
 30
0.0
 11
19.85192782342215
 21
12.36568244621427
 31
0.0
  0
LWPOLYLINE
  5
B6A
330
1E
100
AcDbEntity
  8
BEND
100
AcDbPolyline
 90
        6
 70
     0
 43
0.0
 10
10.12936931917902
 20
6.62334744621427
 10
10.88449831917902
 20
6.62334744621427
 10
10.88449831917902
 20
8.38029144621427
 10
10.52948331917902
 20
8.38029144621427
 10
10.52948331917902
 20
14.04508444621427
 10
9.816952319179026
 20
14.04508444621427
  0
LWPOLYLINE
  5
B72
330
1E
100
AcDbEntity
  8
BEND
100
AcDbPolyline
 90
        6
 70
     0
 43
0.0
 10
27.77894048921493
 20
14.16626044621426
 10
28.67407448921493
 20
14.16626044621426
 10
28.67407448921493
 20
9.01393344621427
 10
28.99045148921493
 20
9.01393344621427
 10
28.99045148921493
 20
6.66838744621427
 10
28.37450648921493
 20
6.66838744621427
  0
DIMENSION
  5
B7A
330
1E
100
AcDbEntity
  8
DIM
100
AcDbDimension
  2
*D38
 10
26.81373048921493
 20
7.000682446214269
 30
0.0
 11
25.22076173921493
 21
6.100682446214273
 31
0.0
 70
    32
  1
<> TYP.
 71
     5
 42
0.1779999999999999
  3
23NSTD
100
AcDbAlignedDimension
 13
26.81373048921493
 23
7.178682446214269
 33
0.0
 14
26.81373048921493
 24
7.000682446214269
 34
0.0
 50
90.0
100
AcDbRotatedDimension
  0
CIRCLE
  5
B8F
330
1E
100
AcDbEntity
  8
OBJECT
100
AcDbCircle
 10
6.913014319179026
 20
12.41068244621426
 30
0.0
 40
0.045
  0
CIRCLE
  5
B90
330
1E
100
AcDbEntity
  8
OBJECT
100
AcDbCircle
 10
10.52948331917902
 20
12.41068244621426
 30
0.0
 40
0.045
  0
LINE
  5
B91
102
{ACAD_REACTORS
330
20E3
102
}
330
1E
100
AcDbEntity
  8
OBJECT
100
AcDbLine
 10
19.85192782342215
 20
12.45568244621426
 30
0.0
 11
19.71192782342215
 21
12.45568244621426
 31
0.0
  0
LINE
  5
B92
102
{ACAD_REACTORS
330
20E3
102
}
330
1E
100
AcDbEntity
  8
OBJECT
100
AcDbLine
 10
19.85192782342215
 20
12.36568244621427
 30
0.0
 11
19.71192782342215
 21
12.36568244621427
 31
0.0
  0
LINE
  5
BA5
102
{ACAD_REACTORS
330
20E3
102
}
330
1E
100
AcDbEntity
  8
OBJECT
100
AcDbLine
 10
19.88892782342215
 20
13.66268244621426
 30
0.0
 11
19.88892782342215
 21
13.29955744621426
 31
0.0
  0
LINE
  5
BA6
102
{ACAD_REACTORS
330
20E3
102
}
330
1E
100
AcDbEntity
  8
OBJECT
100
AcDbLine
 10
19.88892782342215
 20
13.24155744621426
 30
0.0
 11
19.88892782342215
 21
13.19359744558383
 31
0.0
  0
LINE
  5
BA7
102
{ACAD_REACTORS
330
20E3
102
}
330
1E
100
AcDbEntity
  8
OBJECT
100
AcDbLine
 10
19.88892782342215
 20
12.72776742022537
 30
0.0
 11
19.88892782342215
 21
12.56693244621426
 31
0.0
  0
DIMENSION
  5
BB2
330
1E
100
AcDbEntity
  8
DIM
100
AcDbDimension
  2
*D39
 10
17.99269382342215
 20
11.81661944621427
 30
0.0
 11
16.90753757342214
 21
10.91661944621427
 31
0.0
 70
    32
 71
     5
 42
0.0500000000000007
  3
23NSTD
100
AcDbAlignedDimension
 13
18.48492782342215
 23
11.86661944621427
 33
0.0
 14
18.48492782342215
 24
11.81661944621427
 34
0.0
 50
90.0
100
AcDbRotatedDimension
  0
DIMENSION
  5
BC0
330
1E
100
AcDbEntity
  8
DIM
100
AcDbDimension
  2
*D40
 10
16.23944282342215
 20
11.95411944621427
 30
0.0
 11
17.34413032342215
 21
12.85411944621427
 31
0.0
 70
    32
 71
     5
 42
0.0875000000000004
  3
23NSTD
100
AcDbAlignedDimension
 13
18.48492782342215
 23
11.86661944621427
 33
0.0
 14
18.48492782342215
 24
11.95411944621427
 34
0.0
 50
90.0
100
AcDbRotatedDimension
  0
DIMENSION
  5
BCE
330
1E
100
AcDbEntity
  8
DIM
100
AcDbDimension
  2
*D41
 10
20.46716782342215
 20
7.394182446214269
 30
0.0
 11
22.02107407342215
 21
8.294182446214271
 31
0.0
 70
    32
  1
0.313 DIA.
 71
     5
 42
0.3150000000000004
  3
23NSTD
100
AcDbAlignedDimension
 13
20.00892782342215
 23
7.079182446214269
 33
0.0
 14
20.00892782342215
 24
7.394182446214269
 34
0.0
 50
90.0
100
AcDbRotatedDimension
  0
CIRCLE
  5
BDC
330
1E
100
AcDbEntity
  8
BEND
100
AcDbCircle
 10
33.39764407336609
 20
7.322020272787291
 30
0.0
 40
0.9910344400986936
  0
ARC
  5
BDD
330
1E
100
AcDbEntity
  8
OBJECT
100
AcDbCircle
 10
6.557998319179025
 20
7.21943244621427
 30
0.0
 40
0.21875
100
AcDbArc
 50
180.0
 51
270.0
  0
ARC
  5
BDE
330
1E
100
AcDbEntity
  8
OBJECT
100
AcDbCircle
 10
6.557998319179025
 20
7.21943244621427
 30
0.0
 40
0.19875
100
AcDbArc
 50
180.0
 51
270.0
  0
CIRCLE
  5
BDF
330
1E
100
AcDbEntity
  8
OBJECT
100
AcDbCircle
 10
6.577498319179024
 20
7.236682446214269
 30
0.0
 40
0.164063
  0
CIRCLE
  5
BE0
330
1E
100
AcDbEntity
  8
OBJECT
100
AcDbCircle
 10
6.432998319179025
 20
7.43185444621427
 30
0.0
 40
0.03125
  0
ARC
  5
BE1
330
1E
100
AcDbEntity
  8
OBJECT
100
AcDbCircle
 10
6.594748319179025
 20
7.629307446214269
 30
0.0
 40
0.1775
100
AcDbArc
 50
180.0
 51
270.0
  0
ARC
  5
BE2
330
1E
100
AcDbEntity
  8
OBJECT
100
AcDbCircle
 10
6.594748319179025
 20
7.629307446214269
 30
0.0
 40
0.1375
100
AcDbArc
 50
180.0
 51
270.0
  0
ARC
  5
BE3
330
1E
100
AcDbEntity
  8
OBJECT
100
AcDbCircle
 10
7.338404319179026
 20
7.268182446214268
 30
0.0
 40
0.2075
100
AcDbArc
 50
182.125976
 51
244.942385
  0
LINE
  5
BE4
330
1E
100
AcDbEntity
  8
OBJECT
100
AcDbLine
 10
6.739792319179025
 20
7.07068244621427
 30
0.0
 11
7.248404319179027
 21
7.07068244621427
 31
0.0
  0
ARC
  5
BE5
330
1E
100
AcDbEntity
  8
OBJECT
100
AcDbCircle
 10
6.939170319179027
 20
7.24180744621427
 30
0.0
 40
0.25
100
AcDbArc
 50
2.125975999999999
 51
90.0
  0
ARC
  5
BE6
330
1E
100
AcDbEntity
  8
OBJECT
100
AcDbCircle
 10
7.326404319179026
 20
7.256182446214268
 30
0.0
 40
0.1375
100
AcDbArc
 50
182.125976
 51
270.0
  0
ARC
  5
BE7
330
1E
100
AcDbEntity
  8
OBJECT
100
AcDbCircle
 10
7.326404319179026
 20
7.256182446214268
 30
0.0
 40
0.1775
100
AcDbArc
 50
182.125976
 51
270.0
  0
CIRCLE
  5
BE8
330
1E
100
AcDbEntity
  8
OBJECT
100
AcDbCircle
 10
6.920498319179024
 20
7.236682446214269
 30
0.0
 40
0.085937
  0
LINE
  5
BE9
330
1E
100
AcDbEntity
  8
OBJECT
100
AcDbLine
 10
6.655443319179026
 20
7.433807446214268
 30
0.0
 11
6.951170319179025
 21
7.433807446214268
 31
0.0
  0
LINE
  5
BEA
330
1E
100
AcDbEntity
  8
OBJECT
100
AcDbLine
 10
6.594748319179025
 20
7.451807446214269
 30
0.0
 11
6.939170319179027
 21
7.451807446214269
 31
0.0
  0
LINE
  5
BEB
330
1E
100
AcDbEntity
  8
OBJECT
100
AcDbLine
 10
6.594748319179025
 20
7.491807446214268
 30
0.0
 11
6.939170319179027
 21
7.491807446214268
 31
0.0
  0
ARC
  5
BEC
330
1E
100
AcDbEntity
  8
OBJECT
100
AcDbCircle
 10
6.560248319179025
 20
7.21943244621427
 30
0.0
 40
0.225
100
AcDbArc
 50
321.317813
 51
65.550453
  0
CIRCLE
  5
BED
330
1E
100
AcDbEntity
  8
OBJECT
100
AcDbCircle
 10
6.577498319179024
 20
7.236682446214269
 30
0.0
 40
0.125
  0
CIRCLE
  5
BEE
330
1E
100
AcDbEntity
  8
OBJECT
100
AcDbCircle
 10
6.577498319179024
 20
7.236682446214269
 30
0.0
 40
0.0625
  0
ARC
  5
BEF
330
1E
100
AcDbEntity
  8
OBJECT
100
AcDbCircle
 10
6.739792319179025
 20
7.075682446214269
 30
0.0
 40
0.005
100
AcDbArc
 50
141.317813
 51
270.0
  0
ARC
  5
BF0
330
1E
100
AcDbEntity
  8
OBJECT
100
AcDbCircle
 10
6.655443319179026
 20
7.428807446214269
 30
0.0
 40
0.005
100
AcDbArc
 50
90.0
 51
245.5504529999999
  0
ARC
  5
BF1
330
1E
100
AcDbEntity
  8
OBJECT
100
AcDbCircle
 10
6.951170319179025
 20
7.253807446214269
 30
0.0
 40
0.18
100
AcDbArc
 50
2.125975999999999
 51
90.0
  0
ARC
  5
BF2
330
1E
100
AcDbEntity
  8
OBJECT
100
AcDbCircle
 10
6.939170319179027
 20
7.24180744621427
 30
0.0
 40
0.21
100
AcDbArc
 50
2.125975999999999
 51
90.0
  0
ARC
  5
BF3
330
1E
100
AcDbEntity
  8
OBJECT
100
AcDbCircle
 10
7.248404319179027
 20
7.075682446214269
 30
0.0
 40
0.005
100
AcDbArc
 50
270.0
 51
64.942385
  0
ARC
  5
BF4
330
1E
100
AcDbEntity
  8
OBJECT
100
AcDbCircle
 10
10.88449831917902
 20
7.21943244621427
 30
0.0
 40
0.21875
100
AcDbArc
 50
270.0
 51
0.0
  0
ARC
  5
BF5
330
1E
100
AcDbEntity
  8
OBJECT
100
AcDbCircle
 10
10.50332631917902
 20
7.24180744621427
 30
0.0
 40
0.21
100
AcDbArc
 50
90.0
 51
177.8740239999999
  0
ARC
  5
BF6
330
1E
100
AcDbEntity
  8
OBJECT
100
AcDbCircle
 10
10.50332631917902
 20
7.24180744621427
 30
0.0
 40
0.25
100
AcDbArc
 50
90.0
 51
177.8740239999999
  0
ARC
  5
BF7
330
1E
100
AcDbEntity
  8
OBJECT
100
AcDbCircle
 10
10.49132631917902
 20
7.253807446214269
 30
0.0
 40
0.18
100
AcDbArc
 50
90.0
 51
177.8740239999999
  0
LINE
  5
BF8
330
1E
100
AcDbEntity
  8
OBJECT
100
AcDbLine
 10
10.70270431917902
 20
7.07068244621427
 30
0.0
 11
10.19409331917902
 21
7.07068244621427
 31
0.0
  0
ARC
  5
BF9
330
1E
100
AcDbEntity
  8
OBJECT
100
AcDbCircle
 10
10.11609331917902
 20
7.256182446214268
 30
0.0
 40
0.1775
100
AcDbArc
 50
270.0
 51
357.874024
  0
ARC
  5
BFA
330
1E
100
AcDbEntity
  8
OBJECT
100
AcDbCircle
 10
10.11609331917902
 20
7.256182446214268
 30
0.0
 40
0.1375
100
AcDbArc
 50
270.0
 51
357.874024
  0
ARC
  5
BFB
330
1E
100
AcDbEntity
  8
OBJECT
100
AcDbCircle
 10
10.19409331917902
 20
7.075682446214269
 30
0.0
 40
0.005
100
AcDbArc
 50
115.0576149999999
 51
270.0
  0
ARC
  5
BFC
330
1E
100
AcDbEntity
  8
OBJECT
100
AcDbCircle
 10
10.10409331917902
 20
7.268182446214268
 30
0.0
 40
0.2075
100
AcDbArc
 50
295.057615
 51
357.874024
  0
ARC
  5
BFD
330
1E
100
AcDbEntity
  8
OBJECT
100
AcDbCircle
 10
10.84774831917902
 20
7.629307446214269
 30
0.0
 40
0.1375
100
AcDbArc
 50
270.0
 51
0.0
  0
ARC
  5
BFE
330
1E
100
AcDbEntity
  8
OBJECT
100
AcDbCircle
 10
10.84774831917902
 20
7.629307446214269
 30
0.0
 40
0.1775
100
AcDbArc
 50
270.0
 51
0.0
  0
LINE
  5
BFF
330
1E
100
AcDbEntity
  8
OBJECT
100
AcDbLine
 10
10.84774831917902
 20
7.491807446214268
 30
0.0
 11
10.50332631917902
 21
7.491807446214268
 31
0.0
  0
LINE
  5
C00
330
1E
100
AcDbEntity
  8
OBJECT
100
AcDbLine
 10
10.84774831917902
 20
7.451807446214269
 30
0.0
 11
10.50332631917902
 21
7.451807446214269
 31
0.0
  0
LINE
  5
C01
330
1E
100
AcDbEntity
  8
OBJECT
100
AcDbLine
 10
10.78705331917902
 20
7.433807446214268
 30
0.0
 11
10.49132631917902
 21
7.433807446214268
 31
0.0
  0
CIRCLE
  5
C02
330
1E
100
AcDbEntity
  8
OBJECT
100
AcDbCircle
 10
10.86499831917902
 20
7.236682446214269
 30
0.0
 40
0.125
  0
ARC
  5
C03
330
1E
100
AcDbEntity
  8
OBJECT
100
AcDbCircle
 10
10.88224831917902
 20
7.21943244621427
 30
0.0
 40
0.225
100
AcDbArc
 50
114.449547
 51
218.682187
  0
CIRCLE
  5
C04
330
1E
100
AcDbEntity
  8
OBJECT
100
AcDbCircle
 10
10.86499831917902
 20
7.236682446214269
 30
0.0
 40
0.164063
  0
ARC
  5
C05
330
1E
100
AcDbEntity
  8
OBJECT
100
AcDbCircle
 10
10.70270431917902
 20
7.075682446214269
 30
0.0
 40
0.005
100
AcDbArc
 50
270.0
 51
38.68218699999999
  0
CIRCLE
  5
C06
330
1E
100
AcDbEntity
  8
OBJECT
100
AcDbCircle
 10
10.52999831917902
 20
7.236682446214269
 30
0.0
 40
0.085937
  0
ARC
  5
C07
330
1E
100
AcDbEntity
  8
OBJECT
100
AcDbCircle
 10
10.78705331917902
 20
7.428807446214269
 30
0.0
 40
0.005
100
AcDbArc
 50
294.449547
 51
90.0
  0
CIRCLE
  5
C08
330
1E
100
AcDbEntity
  8
OBJECT
100
AcDbCircle
 10
10.86499831917902
 20
7.236682446214269
 30
0.0
 40
0.0625
  0
CIRCLE
  5
C09
330
1E
100
AcDbEntity
  8
OBJECT
100
AcDbCircle
 10
11.00949831917902
 20
7.43185444621427
 30
0.0
 40
0.03125
  0
ARC
  5
C0A
330
1E
100
AcDbEntity
  8
OBJECT
100
AcDbCircle
 10
10.88449831917902
 20
7.21943244621427
 30
0.0
 40
0.19875
100
AcDbArc
 50
270.0
 51
0.0
  0
LINE
  5
C1C
330
1E
100
AcDbEntity
  8
OBJECT
100
AcDbLine
 10
32.58775348921493
 20
7.00068244621427
 30
0.0
 11
34.10325348921493
 21
7.00068244621427
 31
0.0
  0
ARC
  5
C1D
330
1E
100
AcDbEntity
  8
OBJECT
100
AcDbCircle
 10
34.10325348921493
 20
7.06318244621427
 30
0.0
 40
0.0625
100
AcDbArc
 50
270.0
 51
0.0
  0
ARC
  5
C1E
330
1E
100
AcDbEntity
  8
OBJECT
100
AcDbCircle
 10
34.10325348921493
 20
13.67018244621426
 30
0.0
 40
0.0625
100
AcDbArc
 50
0.0
 51
90.0
  0
LINE
  5
C1F
330
1E
100
AcDbEntity
  8
OBJECT
100
AcDbLine
 10
32.58775348921493
 20
13.73268244621427
 30
0.0
 11
34.10325348921493
 21
13.73268244621427
 31
0.0
  0
LINE
  5
C20
330
1E
100
AcDbEntity
  8
OBJECT
100
AcDbLine
 10
34.16575348921493
 20
13.67018244621426
 30
0.0
 11
34.16575348921493
 21
7.06318244621427
 31
0.0
  0
LINE
  5
C21
330
1E
100
AcDbEntity
  8
OBJECT
100
AcDbLine
 10
32.58775348921493
 20
13.18155744621426
 30
0.0
 11
34.04575348921493
 21
13.18155744621426
 31
0.0
  0
LINE
  5
C22
330
1E
100
AcDbEntity
  8
OBJECT
100
AcDbLine
 10
32.58775348921493
 20
7.551807446214269
 30
0.0
 11
34.04575348921493
 21
7.551807446214269
 31
0.0
  0
LINE
  5
C23
330
1E
100
AcDbEntity
  8
OBJECT
100
AcDbLine
 10
32.58775348921493
 20
7.32261944621427
 30
0.0
 11
33.06075348921493
 21
7.32261944621427
 31
0.0
  0
LINE
  5
C24
330
1E
100
AcDbEntity
  8
OBJECT
100
AcDbLine
 10
32.58775348921493
 20
7.15074444621427
 30
0.0
 11
33.06075348921493
 21
7.15074444621427
 31
0.0
  0
LINE
  5
C25
330
1E
100
AcDbEntity
  8
OBJECT
100
AcDbLine
 10
33.06075348921493
 20
7.080432446214269
 30
0.0
 11
34.16575348921493
 21
7.080432446214269
 31
0.0
  0
LINE
  5
C26
330
1E
100
AcDbEntity
  8
OBJECT
100
AcDbLine
 10
33.06075348921493
 20
7.392932446214269
 30
0.0
 11
34.16575348921493
 21
7.392932446214269
 31
0.0
  0
LINE
  5
C2B
330
1E
100
AcDbEntity
  8
OBJECT
100
AcDbLine
 10
34.04575348921493
 20
13.35955744621426
 30
0.0
 11
32.58775348921493
 21
13.35955744621426
 31
0.0
  0
LINE
  5
C2C
330
1E
100
AcDbEntity
  8
OBJECT
100
AcDbLine
 10
34.04575348921493
 20
13.66268244621426
 30
0.0
 11
32.58775348921493
 21
13.66268244621426
 31
0.0
  0
DIMENSION
  5
C2D
330
1E
100
AcDbEntity
  8
DIM
100
AcDbDimension
  2
*D42
 10
34.16575348921493
 20
9.76391944621427
 30
0.0
 11
35.68137848921493
 21
9.76391944621427
 31
0.0
 70
    32
  1
<>
 71
     5
 42
0.1199999999999974
  3
23NSTD
100
AcDbAlignedDimension
 13
34.04575348921493
 23
9.81540144621427
 33
0.0
 14
34.16575348921493
 24
9.81540144621427
 34
0.0
100
AcDbRotatedDimension
  0
DIMENSION
  5
C3B
330
1E
100
AcDbEntity
  8
DIM
100
AcDbDimension
  2
*D43
 10
32.58775348921493
 20
14.22063744621427
 30
0.0
 11
33.37675348921493
 21
14.22063744621427
 31
0.0
 70
    32
 71
     5
 42
1.578000000000002
  3
23NSTDI
100
AcDbAlignedDimension
 13
34.16575348921493
 23
13.67018244621426
 33
0.0
 14
32.58775348921493
 24
13.73268244621427
 34
0.0
 50
180.0
100
AcDbRotatedDimension
  0
LINE
  5
C49
330
1E
100
AcDbEntity
  8
OBJECT
100
AcDbLine
 10
34.04575348921493
 20
13.66268244621426
 30
0.0
 11
34.04575348921493
 21
13.35955744621426
 31
0.0
  0
LINE
  5
C4A
330
1E
100
AcDbEntity
  8
OBJECT
100
AcDbLine
 10
34.04575348921493
 20
13.18155744621426
 30
0.0
 11
34.04575348921493
 21
7.551807446214269
 31
0.0
  0
LINE
  5
CDE
102
{ACAD_REACTORS
330
1C0F
330
1C15
102
}
330
1E
100
AcDbEntity
  8
OBJECT
100
AcDbLine
 10
32.58775348921493
 20
13.73268244621427
 30
0.0
 11
32.58775348921493
 21
7.00068244621427
 31
0.0
  0
TEXT
  5
CE1
330
1E
100
AcDbEntity
  8
TEXT
100
AcDbText
 10
29.30794243463507
 20
17.79846447320976
 30
0.0
 40
0.3125
  1
%%UDETAIL "C"
 41
0.8
  7
SECTION
100
AcDbText
  0
TEXT
  5
D39
330
1E
100
AcDbEntity
  8
TEXT
100
AcDbText
 10
22.69955922881251
 20
24.97972358333333
 30
0.0
 40
0.390625
  1
PN-1327, PN-1327-C AND PN-1327-DG
 41
0.75
 72
     4
 11
27.26498891631251
 21
25.14248399999999
 31
0.0
100
AcDbText
  0
LINE
  5
D3A
330
1E
100
AcDbEntity
  8
TITLE
100
AcDbLine
 10
36.34500300000003
 20
2.754998000000003
 30
0.0
 11
36.34500300000003
 21
0.1550000000000029
 31
0.0
  0
LINE
  5
D3B
330
1E
100
AcDbEntity
  8
TITLE
100
AcDbLine
 10
31.34500600000003
 20
2.754998000000003
 30
0.0
 11
31.34500600000003
 21
0.1550000000000029
 31
0.0
  0
LINE
  5
D3C
330
1E
100
AcDbEntity
  8
TITLE
100
AcDbLine
 10
26.34501000000003
 20
2.754998000000003
 30
0.0
 11
26.34501000000003
 21
0.1550000000000029
 31
0.0
  0
LINE
  5
D3D
330
1E
100
AcDbEntity
  8
TITLE
100
AcDbLine
 10
21.34501300000003
 20
2.754998000000003
 30
0.0
 11
21.34501300000003
 21
0.1550000000000029
 31
0.0
  0
LINE
  5
D3E
330
1E
100
AcDbEntity
  8
TITLE
100
AcDbLine
 10
33.84500500000003
 20
1.194999000000003
 30
0.0
 11
33.84500500000003
 21
0.6749990000000033
 31
0.0
  0
LINE
  5
D40
330
1E
100
AcDbEntity
  8
TITLE
100
AcDbLine
 10
21.34501300000003
 20
0.6749990000000033
 30
0.0
 11
36.34500300000003
 21
0.6749990000000033
 31
0.0
  0
LINE
  5
D41
330
1E
100
AcDbEntity
  8
TITLE
100
AcDbLine
 10
21.34501300000003
 20
1.194999000000003
 30
0.0
 11
36.34500300000003
 21
1.194999000000003
 31
0.0
  0
LINE
  5
D42
330
1E
100
AcDbEntity
  8
TITLE
100
AcDbLine
 10
21.34501300000003
 20
1.714999000000003
 30
0.0
 11
41.34500000000002
 21
1.714999000000003
 31
0.0
  0
LINE
  5
D43
330
1E
100
AcDbEntity
  8
TITLE
100
AcDbLine
 10
21.34501300000003
 20
2.754998000000003
 30
0.0
 11
41.34500000000002
 21
2.754998000000003
 31
0.0
  0
TEXT
  5
D44
330
1E
100
AcDbEntity
  8
TEXT
100
AcDbText
 10
22.59501100000002
 20
2.078748000000003
 30
0.0
 40
0.3125
  1
PART NUMBER
 41
0.75
 72
     4
 11
23.84501100000002
 21
2.234998000000003
 31
0.0
100
AcDbText
  0
TEXT
  5
D46
330
1E
100
AcDbEntity
  8
TEXT
100
AcDbText
 10
23.10282350000002
 20
1.297082000000002
 30
0.0
 40
0.3125
  1
PN-1327
 41
0.75
 72
     4
 11
23.84501100000002
 21
1.453332000000002
 31
0.0
100
AcDbText
  0
TEXT
  5
D47
330
1E
100
AcDbEntity
  8
TEXT
100
AcDbText
 10
22.86844850000002
 20
0.7762490000000031
 30
0.0
 40
0.3125
  1
PN-1327-C
 41
0.75
 72
     4
 11
23.84501100000002
 21
0.9324990000000031
 31
0.0
100
AcDbText
  0
TEXT
  5
D48
330
1E
100
AcDbEntity
  8
TEXT
100
AcDbText
 10
22.75126100000002
 20
0.255416000000003
 30
0.0
 40
0.3125
  1
PN-1327-DG
 41
0.75
 72
     4
 11
23.84501100000002
 21
0.411666000000003
 31
0.0
100
AcDbText
  0
TEXT
  5
D49
330
1E
100
AcDbEntity
  8
TEXT
100
AcDbText
 10
37.47781450000003
 20
2.078748000000003
 30
0.0
 40
0.3125
  1
HARDWARE KIT
 41
0.75
 72
     4
 11
38.84500200000003
 21
2.234998000000003
 31
0.0
100
AcDbText
  0
TEXT
  5
D4B
330
1E
100
AcDbEntity
  8
TEXT
100
AcDbText
 10
27.98563300000003
 20
2.338748000000002
 30
0.0
 40
0.3125
  1
MATERIAL
 41
0.75
 72
     4
 11
28.84500800000003
 21
2.494998000000002
 31
0.0
100
AcDbText
  0
TEXT
  5
D4C
330
1E
100
AcDbEntity
  8
TEXT
100
AcDbText
 10
33.25906750000003
 20
2.338748000000002
 30
0.0
 40
0.3125
  1
FINISH
 41
0.75
 72
     4
 11
33.84500500000003
 21
2.494998000000002
 31
0.0
100
AcDbText
  0
TEXT
  5
D4D
330
1E
100
AcDbEntity
  8
TEXT
100
AcDbText
 10
32.16531850000002
 20
1.818749000000003
 30
0.0
 40
0.3125
  1
BODY
 41
0.75
 72
     4
 11
32.59500600000002
 21
1.974999000000003
 31
0.0
100
AcDbText
  0
TEXT
  5
D4E
330
1E
100
AcDbEntity
  8
TEXT
100
AcDbText
 10
27.36063300000003
 20
1.297916000000003
 30
0.0
 40
0.3125
  1
POLYCARBONATE
 41
0.75
 72
     4
 11
28.84500800000003
 21
1.454166000000003
 31
0.0
100
AcDbText
  0
TEXT
  5
D4F
330
1E
100
AcDbEntity
  8
TEXT
100
AcDbText
 10
27.36063300000003
 20
0.7770830000000031
 30
0.0
 40
0.3125
  1
POLYCARBONATE
 41
0.75
 72
     4
 11
28.84500800000003
 21
0.933333000000003
 31
0.0
100
AcDbText
  0
TEXT
  5
D50
330
1E
100
AcDbEntity
  8
TEXT
100
AcDbText
 10
27.20438300000003
 20
0.2562500000000032
 30
0.0
 40
0.3125
  1
HIGH-IMPACT ABS
 41
0.75
 72
     4
 11
28.84500800000003
 21
0.4125000000000032
 31
0.0
100
AcDbText
  0
TEXT
  5
D51
330
1E
100
AcDbEntity
  8
TEXT
100
AcDbText
 10
34.50906650000002
 20
1.818749000000003
 30
0.0
 40
0.3125
  1
COVER
 41
0.75
 72
     4
 11
35.09500400000002
 21
1.974999000000003
 31
0.0
100
AcDbText
  0
TEXT
  5
D52
330
1E
100
AcDbEntity
  8
TEXT
100
AcDbText
 10
29.50906950000003
 20
1.818749000000003
 30
0.0
 40
0.3125
  1
COVER
 41
0.75
 72
     4
 11
30.09500700000003
 21
1.974999000000003
 31
0.0
100
AcDbText
  0
TEXT
  5
D53
330
1E
100
AcDbEntity
  8
TEXT
100
AcDbText
 10
27.16532150000003
 20
1.818749000000003
 30
0.0
 40
0.3125
  1
BODY
 41
0.75
 72
     4
 11
27.59500900000003
 21
1.974999000000003
 31
0.0
100
AcDbText
  0
TEXT
  5
D54
330
1E
100
AcDbEntity
  8
TEXT
100
AcDbText
 10
32.75125500000003
 20
1.297916000000003
 30
0.0
 40
0.3125
  1
LIGHT GRAY
 41
0.75
 72
     4
 11
33.84500500000003
 21
1.454166000000003
 31
0.0
100
AcDbText
  0
TEXT
  5
D55
330
1E
100
AcDbEntity
  8
TEXT
100
AcDbText
 10
31.50125600000002
 20
0.7770830000000031
 30
0.0
 40
0.3125
  1
LIGHT GRAY
 41
0.75
 72
     4
 11
32.59500600000002
 21
0.933333000000003
 31
0.0
100
AcDbText
  0
TEXT
  5
D56
330
1E
100
AcDbEntity
  8
TEXT
100
AcDbText
 10
32.82938000000003
 20
0.2562500000000033
 30
0.0
 40
0.3125
  1
DARK GRAY
 41
0.75
 72
     4
 11
33.84500500000003
 21
0.4125000000000032
 31
0.0
100
AcDbText
  0
TEXT
  5
D57
330
1E
100
AcDbEntity
  8
TEXT
100
AcDbText
 10
34.54812900000002
 20
0.7770830000000031
 30
0.0
 40
0.3125
  1
CLEAR
 41
0.75
 72
     4
 11
35.09500400000002
 21
0.933333000000003
 31
0.0
100
AcDbText
  0
LINE
  5
D58
330
1E
100
AcDbEntity
  8
TITLE
100
AcDbLine
 10
33.84500500000003
 20
2.234998000000003
 30
0.0
 11
33.84500500000003
 21
1.714999000000003
 31
0.0
  0
LINE
  5
D59
330
1E
100
AcDbEntity
  8
TITLE
100
AcDbLine
 10
26.34501000000003
 20
2.234998000000003
 30
0.0
 11
36.34500300000003
 21
2.234998000000003
 31
0.0
  0
LINE
  5
D5A
330
1E
100
AcDbEntity
  8
TITLE
100
AcDbLine
 10
28.84500800000003
 20
2.234998000000003
 30
0.0
 11
28.84500800000003
 21
1.714999000000003
 31
0.0
  0
TEXT
  5
D5B
330
1E
100
AcDbEntity
  8
TEXT
100
AcDbText
 10
37.16531450000003
 20
1.297916000000003
 30
0.0
 40
0.3125
  1
KIT CONTAINS (4)
 41
0.75
 72
     4
 11
38.84500200000003
 21
1.454166000000003
 31
0.0
100
AcDbText
  0
TEXT
  5
D5C
330
1E
100
AcDbEntity
  8
TEXT
100
AcDbText
 10
36.61843950000003
 20
0.7770830000000031
 30
0.0
 40
0.3125
  1
M4 x 20mm (0.787") LG.
 41
0.75
 72
     4
 11
38.84500200000003
 21
0.933333000000003
 31
0.0
100
AcDbText
  0
TEXT
  5
D5D
330
1E
100
AcDbEntity
  8
TEXT
100
AcDbText
 10
36.61843950000003
 20
0.2562500000000031
 30
0.0
 40
0.3125
  1
SCREWS FOR ASSEMBLY
 41
0.75
 72
     4
 11
38.84500200000003
 21
0.4125000000000032
 31
0.0
100
AcDbText
  0
TEXT
  5
D5E
330
1E
100
AcDbEntity
  8
TEXT
100
AcDbText
 10
21.34501300000003
 20
3.012498000000003
 30
0.0
 40
0.3125
  1
%%UNOTE%%U:  ALL DIMENSIONS HAVE %%P0.015 TOLERANCE UNLESS OTHERWISE SPECIFIED.
 41
0.75
100
AcDbText
  0
LWPOLYLINE
  5
D6A
102
{ACAD_REACTORS
330
1C0F
102
}
330
1E
100
AcDbEntity
  8
OBJECT
100
AcDbPolyline
 90
        3
 70
     0
 43
0.0
 10
32.70275348921493
 20
7.51180744621427
 10
32.70275348921493
 20
7.43180744621427
 10
32.58775348921493
 20
7.43180744621427
  0
LWPOLYLINE
  5
D6F
102
{ACAD_REACTORS
330
1C0F
102
}
330
1E
100
AcDbEntity
  8
OBJECT
100
AcDbPolyline
 90
        2
 70
     0
 43
0.0
 10
32.58775348921493
 20
7.51180744621427
 10
32.70275348921493
 20
7.51180744621427
  0
LWPOLYLINE
  5
D73
102
{ACAD_REACTORS
330
1C15
102
}
330
1E
100
AcDbEntity
  8
OBJECT
100
AcDbPolyline
 90
        3
 70
     0
 43
0.0
 10
32.70275348921493
 20
13.30155744621427
 10
32.70275348921493
 20
13.22155744621427
 10
32.58775348921493
 20
13.22155744621427
  0
LWPOLYLINE
  5
D78
102
{ACAD_REACTORS
330
1C15
102
}
330
1E
100
AcDbEntity
  8
OBJECT
100
AcDbPolyline
 90
        2
 70
     0
 43
0.0
 10
32.58775348921493
 20
13.30155744621427
 10
32.70275348921493
 20
13.30155744621427
  0
LWPOLYLINE
  5
D7D
102
{ACAD_REACTORS
330
1C16
102
}
330
1E
100
AcDbEntity
  8
OBJECT
100
AcDbPolyline
 90
       20
 70
     1
 43
0.0
 10
28.45065948921493
 20
13.48450844621427
 42
0.4033870000000001
 10
28.25329548921493
 20
13.67468244621427
 10
25.44010648921493
 20
13.67468244621427
 42
0.4033870000000001
 10
25.24274248921493
 20
13.48450844621427
 42
-0.4033870000000001
 10
25.05287348921493
 20
13.30155744621427
 10
24.68270148921493
 20
13.30155744621427
 42
0.4142140000000001
 10
24.52270148921493
 20
13.14155744621427
 10
24.52270148921493
 20
7.59180744621427
 42
0.4142140000000001
 10
24.68270148921493
 20
7.43180744621427
 10
25.05287348921493
 20
7.43180744621427
 42
-0.4033870000000001
 10
25.24274248921493
 20
7.24885544621427
 42
0.4033870000000001
 10
25.44010648921493
 20
7.058682446214269
 10
28.25329548921493
 20
7.058682446214269
 42
0.4033870000000001
 10
28.45065948921493
 20
7.24885544621427
 42
-0.4033870000000001
 10
28.64052948921493
 20
7.43180744621427
 10
29.01070148921493
 20
7.43180744621427
 42
0.4142140000000001
 10
29.17070148921493
 20
7.59180744621427
 10
29.17070148921493
 20
13.14155744621427
 42
0.4142140000000001
 10
29.01070148921493
 20
13.30155744621427
 10
28.64052948921493
 20
13.30155744621427
 42
-0.4033870000000001
  0
LWPOLYLINE
  5
D93
102
{ACAD_REACTORS
330
1C16
102
}
330
1E
100
AcDbEntity
  8
OBJECT
100
AcDbPolyline
 90
       20
 70
     1
 43
0.0
 10
29.09070148921493
 20
7.59180744621427
 42
-0.4142140000000001
 10
29.01070148921493
 20
7.51180744621427
 10
28.64052948921493
 20
7.51180744621427
 42
0.4033870000000001
 10
28.37071548921493
 20
7.251823446214269
 42
-0.4033870000000001
 10
28.25329548921493
 20
7.138682446214269
 10
25.44010648921493
 20
7.138682446214269
 42
-0.4033870000000001
 10
25.32268748921493
 20
7.251823446214269
 42
0.4033870000000001
 10
25.05287348921493
 20
7.51180744621427
 10
24.68270148921493
 20
7.51180744621427
 42
-0.4142140000000001
 10
24.60270148921493
 20
7.59180744621427
 10
24.60270148921493
 20
13.14155744621427
 42
-0.4142140000000001
 10
24.68270148921493
 20
13.22155744621427
 10
25.05287348921493
 20
13.22155744621427
 42
0.4033870000000001
 10
25.32268748921493
 20
13.48154144621426
 42
-0.4033870000000001
 10
25.44010648921493
 20
13.59468244621427
 10
28.25329548921493
 20
13.59468244621427
 42
-0.4033870000000001
 10
28.37071548921493
 20
13.48154144621426
 42
0.4033870000000001
 10
28.64052948921493
 20
13.22155744621427
 10
29.01070148921493
 20
13.22155744621427
 42
-0.4142140000000001
 10
29.09070148921493
 20
13.14155744621427
  0
TEXT
  5
DAB
330
1E
100
AcDbEntity
  8
TEXT
100
AcDbText
 10
0.6695020000000001
 20
23.22737599999999
 30
0.0
 40
0.3125
  1
 %%UPOLYCARBONATE%%U (LIGHT GRAY AND CLEAR)
 41
0.75
100
AcDbText
  0
TEXT
  5
DAC
330
1E
100
AcDbEntity
  8
TEXT
100
AcDbText
 10
0.6695020000000001
 20
20.62321
 30
0.0
 40
0.3125
  1
 %%UABS%%U (DARK GRAY)
 41
0.75
100
AcDbText
  0
TEXT
  5
DAD
330
1E
100
AcDbEntity
  8
TEXT
100
AcDbText
 10
0.6695020000000001
 20
19.581544
 30
0.0
 40
0.3125
  1
  SERVICE TEMPERATURE RANGE: -40%%DC TO +80%%DC
 41
0.75
100
AcDbText
  0
TEXT
  5
DAE
330
1E
100
AcDbEntity
  8
TEXT
100
AcDbText
 10
0.6695020000000001
 20
20.102377
 30
0.0
 40
0.3125
  1
  UL94-HB FLAMMABILITY RATING (UL FILE #E56070)
 41
0.75
100
AcDbText
  0
TEXT
  5
DAF
330
1E
100
AcDbEntity
  8
TEXT
100
AcDbText
 10
0.6695020000000001
 20
19.06071099999999
 30
0.0
 40
0.3125
  1

 41
0.75
100
AcDbText
  0
TEXT
  5
DB0
330
1E
100
AcDbEntity
  8
TEXT
100
AcDbText
 10
0.6695020000000001
 20
20.62321
 30
0.0
 40
0.3125
  1

 41
0.75
100
AcDbText
  0
TEXT
  5
DB1
330
1E
100
AcDbEntity
  8
TEXT
100
AcDbText
 10
0.6695020000000001
 20
18.019044
 30
0.0
 40
0.3125
  1

 41
0.75
100
AcDbText
  0
TEXT
  5
DB2
330
1E
100
AcDbEntity
  8
TEXT
100
AcDbText
 10
0.6695020000000001
 20
23.748209
 30
0.0
 40
0.390625
  1
INDUSTRY STANDARDS:
 41
0.75
100
AcDbText
  0
TEXT
  5
DB3
330
1E
100
AcDbEntity
  8
TEXT
100
AcDbText
 10
0.6695020000000001
 20
21.66487599999999
 30
0.0
 40
0.3125
  1
  SERVICE TEMPERATURE RANGE: -40%%DC TO +120%%DC
 41
0.75
100
AcDbText
  0
TEXT
  5
DB4
330
1E
100
AcDbEntity
  8
TEXT
100
AcDbText
 10
0.6695020000000001
 20
22.185709
 30
0.0
 40
0.3125
  1
  UV STABILIZED
 41
0.75
100
AcDbText
  0
TEXT
  5
DB5
330
1E
100
AcDbEntity
  8
TEXT
100
AcDbText
 10
0.6695020000000001
 20
22.70654299999999
 30
0.0
 40
0.3125
  1
  UL94-HB FLAMMABILITY RATING (UL FILE #E41613)
 41
0.75
100
AcDbText
  0
TEXT
  5
DB6
330
1E
100
AcDbEntity
  8
TEXT
100
AcDbText
 10
0.6695020000000001
 20
22.185709
 30
0.0
 40
0.3125
  1

 41
0.75
100
AcDbText
  0
INSERT
  5
154A
330
1E
100
AcDbEntity
  8
OBJECT
100
AcDbBlockReference
  2
HBS
 10
0.0
 20
0.0
 30
0.0
 41
2.5
 42
2.5
 43
2.5
  0
TEXT
  5
154B
330
1E
100
AcDbEntity
  8
TEXT
100
AcDbText
 10
7.323593750000014
 20
24.9471875
 30
0.0
 40
0.390625
  1
NEMA 4X ENCLOSURE
 41
0.75
 72
     4
 11
9.765000000000014
 21
25.1425
 31
0.0
100
AcDbText
  0
TEXT
  5
154D
330
1E
100
AcDbEntity
  8
TEXT
100
AcDbText
 10
38.23534047881253
 20
24.94718750000001
 30
0.0
 40
0.390625
  1
11-17-08
 41
0.75
 72
     4
 11
39.18748891631253
 21
25.14250000000001
 31
0.0
100
AcDbText
  0
DIMENSION
  5
15AF
330
1E
100
AcDbEntity
  8
DIM
100
AcDbDimension
  2
*D45
 10
37.28459675843275
 20
20.64540764391841
 30
0.0
 11
37.28459675843274
 21
20.02540764391842
 31
0.0
 70
    32
  1
<> DIA.\PC'BORE
 71
     5
 42
0.3100000000000005
  3
23NSTD4I
100
AcDbAlignedDimension
 13
36.04448675843275
 23
19.40540764391841
 33
0.0
 14
36.04448675843275
 24
20.64540764391841
 34
0.0
 50
90.0
100
AcDbRotatedDimension
  0
DIMENSION
  5
15B0
330
1E
100
AcDbEntity
  8
DIM
100
AcDbDimension
  2
*D46
 10
27.10824588800815
 20
21.12844664391842
 30
0.0
 11
26.02308963800815
 21
19.90844664391842
 31
0.0
 70
   160
 71
     5
 42
0.0800000000000001
  3
23NSTD4
100
AcDbAlignedDimension
 13
29.73699175843274
 23
20.80844664391842
 33
0.0
 14
29.73699175843274
 24
21.12844664391842
 34
0.0
 50
90.0
100
AcDbRotatedDimension
  0
DIMENSION
  5
15B1
330
1E
100
AcDbEntity
  8
DIM
100
AcDbDimension
  2
*D47
 10
28.25062075843275
 20
19.68419464391842
 30
0.0
 11
28.25062075843275
 21
20.02794464391843
 31
0.0
 70
    32
  1
<> DIA.
 71
     5
 42
0.171875
  3
23NSTD4I
100
AcDbAlignedDimension
 13
29.73699175843274
 23
20.37169464391842
 33
0.0
 14
29.73699175843274
 24
19.68419464391842
 34
0.0
 50
90.0
100
AcDbRotatedDimension
  0
LINE
  5
15BC
330
1E
100
AcDbEntity
  8
OBJECT
100
AcDbLine
 10
31.17677475843273
 20
20.37169464391842
 30
0.0
 11
31.14148075843273
 21
19.68419464391842
 31
0.0
  0
LINE
  5
15BD
330
1E
100
AcDbEntity
  8
OBJECT
100
AcDbLine
 10
31.29675175843273
 20
20.37169464391842
 30
0.0
 11
31.26145675843273
 21
19.68419464391842
 31
0.0
  0
DIMENSION
  5
15BF
330
1E
100
AcDbEntity
  8
DIM
100
AcDbDimension
  2
*D48
 10
30.19699175843274
 20
22.97649131014988
 30
0.0
 11
31.69308550843274
 21
22.97649131014988
 31
0.0
 70
   160
 71
     5
 42
0.1150000000000002
  3
23NSTD4
100
AcDbAlignedDimension
 13
29.73699175843274
 23
22.34338763805356
 33
0.0
 14
30.19699175843274
 24
21.12844664391842
 34
0.0
100
AcDbRotatedDimension
  0
HATCH
  5
15C2
330
1E
100
AcDbEntity
  8
OBJECT
 62
   221
100
AcDbHatch
 10
0.0
 20
0.0
 30
0.0
210
0.0
220
0.0
230
1.0
  2
ZIGZAG
 70
     0
 71
     0
 91
        1
 92
        7
 72
     0
 73
     1
 93
        4
 10
30.19699175843274
 20
21.12844664391842
 10
29.73699175843274
 20
21.12844664391842
 10
29.73699175843274
 20
20.80844664391842
 10
30.19699175843274
 20
20.80844664391842
 97
        0
 75
     0
 76
     1
 52
0.0
 41
0.875
 77
     0
 78
     2
 53
0.0
 43
-0.1486072415672552
 44
-0.5189293560815767
 45
0.109375
 46
0.109375
 79
     2
 49
0.109375
 49
-0.109375
 53
90.0
 43
-0.0392322415672553
 44
-0.5189293560815767
 45
-0.109375
 46
0.109375
 79
     2
 49
0.109375
 49
-0.109375
 47
0.0060283717773825
 98
        1
 10
29.99975724252517
 20
20.96990639795408
  0
LINE
  5
163C
330
1E
100
AcDbEntity
  8
OBJECT
100
AcDbLine
 10
33.06075348921493
 20
7.392932446214269
 30
0.0
 11
33.06075348921493
 21
7.080432446214269
 31
0.0
  0
LINE
  5
167E
102
{ACAD_REACTORS
330
17C0
102
}
330
1E
100
AcDbEntity
  8
OBJECT
100
AcDbLine
 10
29.73699175843274
 20
22.34338763805356
 30
0.0
 11
29.73699175843274
 21
19.08394664391842
 31
0.0
  0
LINE
  5
167F
102
{ACAD_REACTORS
330
17C0
102
}
330
1E
100
AcDbEntity
  8
OBJECT
100
AcDbLine
 10
35.56899175843275
 20
22.4783030447422
 30
0.0
 11
35.56899175843275
 21
21.28844664391841
 31
0.0
  0
LINE
  5
1680
102
{ACAD_REACTORS
330
17C0
102
}
330
1E
100
AcDbEntity
  8
OBJECT
100
AcDbLine
 10
36.04899175843275
 20
22.17799705497253
 30
0.0
 11
36.04899175843275
 21
19.33394664391842
 31
0.0
  0
DIMENSION
  5
1681
330
1E
100
AcDbEntity
  8
DIM
100
AcDbDimension
  2
*D49
 10
36.04899175843275
 20
18.54845851918878
 30
0.0
 11
33.83899175843274
 21
18.54845851918878
 31
0.0
 70
   160
 71
     5
 42
1.105000000000003
  3
23NSTD4
100
AcDbAlignedDimension
 13
31.62899175843273
 23
19.40294664391841
 33
0.0
 14
36.04899175843275
 24
19.33394664391842
 34
0.0
100
AcDbRotatedDimension
  0
LINE
  5
1682
102
{ACAD_REACTORS
330
17C0
102
}
330
1E
100
AcDbEntity
  8
OBJECT
100
AcDbLine
 10
29.73699175843274
 20
20.37169464391842
 30
0.0
 11
31.62899175843273
 21
20.37169464391842
 31
0.0
  0
LINE
  5
1683
102
{ACAD_REACTORS
330
17C0
102
}
330
1E
100
AcDbEntity
  8
OBJECT
100
AcDbLine
 10
29.73699175843274
 20
19.68419464391842
 30
0.0
 11
31.62899175843273
 21
19.68419464391842
 31
0.0
  0
LINE
  5
1684
102
{ACAD_REACTORS
330
17C0
102
}
330
1E
100
AcDbEntity
  8
OBJECT
100
AcDbLine
 10
29.73699175843274
 20
21.28844664391841
 30
0.0
 11
35.56899175843275
 21
21.28844664391841
 31
0.0
  0
LINE
  5
1685
102
{ACAD_REACTORS
330
17C0
102
}
330
1E
100
AcDbEntity
  8
OBJECT
100
AcDbLine
 10
29.73699175843274
 20
19.08394664391842
 30
0.0
 11
35.79899175843275
 21
19.08394664391842
 31
0.0
  0
LWPOLYLINE
  5
1688
102
{ACAD_REACTORS
330
17C0
102
}
330
1E
100
AcDbEntity
  8
OBJECT
100
AcDbPolyline
 90
        2
 70
     0
 43
0.0
 10
29.73699175843274
 20
21.12844664391842
 10
30.19699175843274
 20
21.12844664391842
  0
LWPOLYLINE
  5
1689
102
{ACAD_REACTORS
330
17C0
102
}
330
1E
100
AcDbEntity
  8
OBJECT
100
AcDbPolyline
 90
        3
 70
     0
 43
0.0
 10
30.19699175843274
 20
21.12844664391842
 10
30.19699175843274
 20
20.80844664391842
 10
29.73699175843274
 20
20.80844664391842
  0
LINE
  5
168A
102
{ACAD_REACTORS
330
17C0
102
}
330
1E
100
AcDbEntity
  8
OBJECT
100
AcDbLine
 10
31.62899175843273
 20
20.65294664391842
 30
0.0
 11
31.62899175843273
 21
19.40294664391841
 31
0.0
  0
LINE
  5
168B
102
{ACAD_REACTORS
330
17C0
102
}
330
1E
100
AcDbEntity
  8
OBJECT
100
AcDbLine
 10
31.62899175843273
 20
19.40294664391841
 30
0.0
 11
36.04899175843275
 21
19.40294664391841
 31
0.0
  0
ARC
  5
168C
102
{ACAD_REACTORS
330
17C0
102
}
330
1E
100
AcDbEntity
  8
OBJECT
100
AcDbCircle
 10
35.79899175843275
 20
19.33394664391842
 30
0.0
 40
0.25
100
AcDbArc
 50
270.0
 51
0.0
  0
LINE
  5
168D
102
{ACAD_REACTORS
330
17C0
102
}
330
1E
100
AcDbEntity
  8
OBJECT
100
AcDbLine
 10
31.62899175843273
 20
20.65294664391842
 30
0.0
 11
36.04899175843275
 21
20.65294664391842
 31
0.0
  0
SPLINE
  5
16CD
102
{ACAD_REACTORS
330
17C0
102
}
330
1E
100
AcDbEntity
  8
OBJECT
100
AcDbSpline
210
0.0
220
0.0
230
1.0
 70
     8
 71
     3
 72
    13
 73
     9
 74
     0
 42
0.0000000001
 43
0.0000000001
 40
0.4485983120817846
 40
0.4485983120817846
 40
0.4485983120817846
 40
0.4485983120817846
 40
1.067717250412937
 40
2.277412489508457
 40
3.890117129060737
 40
5.31757311519552
 40
6.718337334147869
 40
7.256582074159544
 40
7.256582074159544
 40
7.256582074159544
 40
7.256582074159544
 10
29.73699175843739
 20
22.34338763805627
 30
0.0
 10
29.92525615993002
 20
22.45286341432678
 30
0.0
 10
30.4810083039109
 20
22.66259296322689
 30
0.0
 10
31.52205447294875
 20
21.55361801756905
 30
0.0
 10
32.92437297689115
 20
23.02210244828237
 30
0.0
 10
34.26500757505681
 20
21.43652924792326
 30
0.0
 10
35.37294078360391
 20
22.77085325918084
 30
0.0
 10
35.90206080312265
 20
22.31376230368798
 30
0.0
 10
36.04899175841923
 20
22.17799705498503
 30
0.0
  0
HATCH
  5
17C0
330
1E
100
AcDbEntity
  8
OBJECT
 62
   151
100
AcDbHatch
 10
0.0
 20
0.0
 30
0.0
210
0.0
220
0.0
230
1.0
  2
ANSI31
 70
     0
 71
     1
 91
        2
 92
        7
 72
     1
 73
     1
 93
        7
 10
35.79899175843275
 20
19.08394664391842
 42
0.4142135623730951
 10
36.04899175843275
 20
19.33394664391842
 42
0.0
 10
36.04899175843275
 20
19.40294664391842
 42
0.0
 10
31.62899175843273
 20
19.40294664391841
 42
0.0
 10
31.62899175843274
 20
19.68419464391842
 42
0.0
 10
29.73699175843274
 20
19.68419464391842
 42
0.0
 10
29.73699175843273
 20
19.08394664391842
 42
0.0
 97
        7
330
1680
330
168B
330
168A
330
1683
330
167E
330
1685
330
168C
 92
        5
 93
       12
 72
     1
 10
29.73699175843274
 20
21.28844664391842
 11
29.73699175843274
 21
21.12844664391842
 72
     1
 10
29.73699175843274
 20
21.12844664391842
 11
30.19699175843274
 21
21.12844664391842
 72
     1
 10
30.19699175843274
 20
21.12844664391842
 11
30.19699175843274
 21
20.80844664391842
 72
     1
 10
30.19699175843274
 20
20.80844664391842
 11
29.73699175843274
 21
20.80844664391842
 72
     1
 10
29.73699175843274
 20
20.80844664391842
 11
29.73699175843274
 21
20.37169464391842
 72
     1
 10
29.73699175843274
 20
20.37169464391842
 11
31.62899175843273
 21
20.37169464391842
 72
     1
 10
31.62899175843273
 20
20.37169464391842
 11
31.62899175843273
 21
20.65294664391842
 72
     1
 10
31.62899175843273
 20
20.65294664391842
 11
36.04899175843275
 21
20.65294664391842
 72
     1
 10
36.04899175843275
 20
20.65294664391842
 11
36.04899175843275
 21
22.17799705497263
 72
     4
 94
        3
 73
     0
 74
     0
 95
        9
 96
        5
 40
6.682743996472405
 40
6.682743996472405
 40
6.682743996472405
 40
6.682743996472405
 40
7.22098873648408
 40
7.256582074159543
 40
7.256582074159543
 40
7.256582074159543
 40
7.256582074159543
 10
36.04899175841923
 20
22.17799705498503
 10
35.90206080312265
 20
22.31376230368798
 10
35.74547090524584
 20
22.44903563185679
 10
35.5793322976274
 20
22.47696461826329
 10
35.56899175843276
 20
22.4783030447422
 72
     1
 10
35.56899175843276
 20
22.4783030447422
 11
35.56899175843276
 21
21.28844664391842
 72
     1
 10
35.56899175843276
 20
21.28844664391842
 11
29.73699175843274
 21
21.28844664391842
 97
       10
330
16CD
330
167F
330
1684
330
167E
330
1688
330
1689
330
1682
330
168A
330
168D
330
1680
 75
     0
 76
     1
 52
0.0
 41
1.5
 77
     0
 78
     1
 53
45.0
 43
-13.63604391450044
 44
3.925847087789476
 45
-0.1325825214724776
 46
0.1325825214724777
 79
     0
 47
0.0307873479361233
 98
        2
 10
30.90902676848517
 20
19.29883362582025
 10
31.64852048454199
 20
21.0229251752
  0
LEADER
  5
1B96
330
1E
100
AcDbEntity
  8
DIM
100
AcDbLeader
  3
23NSTD
 73
     0
 75
     1
 40
1.354166666666666
 41
3.359375
 76
     3
 10
6.475499783563289
 20
13.6251852349048
 30
0.0
 10
4.58905527093731
 20
14.99853171203692
 30
0.0
 10
4.13905527093731
 20
14.99853171203692
 30
0.0
340
1B97
213
0.0
223
-0.15625
233
0.0
1001
ACAD
1000
DSTYLE
1002
{
1070
   147
1040
0.09
1070
    77
1070
     0
1002
}
  0
MTEXT
  5
1B97
102
{ACAD_REACTORS
330
1B96
102
}
330
1E
100
AcDbEntity
  8
DIM
100
AcDbMText
 10
3.914055270937311
 20
15.15478171203692
 30
0.0
 40
0.3125
 41
0.0
 71
     3
 72
     1
  1
\A1;M4 x 0.315 LG.\PTHREADED INSERT\P(4) PLACES
 73
     1
 44
1.0
  0
LEADER
  5
1BA3
330
1E
100
AcDbEntity
  8
DIM
100
AcDbLeader
  3
23NSTD
 73
     0
 74
     0
 75
     1
 40
2.916666666666666
 41
9.0234375
 76
     3
 10
10.6610647840484
 20
12.49494620237804
 30
0.0
 10
12.50539827144744
 20
18.2974716472956
 30
0.0
 10
12.95539827144744
 20
18.2974716472956
 30
0.0
340
1BA4
213
0.0
223
-0.15625
233
0.0
1001
ACAD
1000
DSTYLE
1002
{
1070
   147
1040
0.09
1070
    77
1070
     0
1002
}
  0
MTEXT
  5
1BA4
102
{ACAD_REACTORS
330
1BA3
102
}
330
1E
100
AcDbEntity
  8
DIM
100
AcDbMText
 10
13.18039827144744
 20
18.4537216472956
 30
0.0
 40
0.3125
 41
0.0
 71
     1
 72
     1
  1
\A1;0.315 DIA. BOSS WITH\P0.090 DIA. HOLE X 0.140 DEEP\P(2) PLACES\PMOUNTING BOSSES USE EITHER M2.5 METRIC\POR #4 STD. SHEET METAL SCREWS x 0.188 LG.\P(NOT SUPPLIED)
 73
     1
 44
1.0
  0
LEADER
  5
1BDA
330
1E
100
AcDbEntity
  8
DIM
100
AcDbLeader
  3
23NSTD
 73
     0
 75
     1
 40
0.8333333333333332
 41
3.28125
 76
     3
 10
29.73699175843274
 20
20.93590264391843
 30
0.0
 10
28.02562551210521
 20
23.09490434141365
 30
0.0
 10
27.57562551210521
 20
23.09490434141365
 30
0.0
340
1BDB
213
0.0
223
-0.15625
233
0.0
1001
ACAD
1000
DSTYLE
1002
{
1070
   147
1040
0.09
1070
    77
1070
     0
1002
}
  0
MTEXT
  5
1BDB
102
{ACAD_REACTORS
330
1BDA
102
}
330
1E
100
AcDbEntity
  8
DIM
100
AcDbMText
 10
27.35062551210521
 20
23.25115434141365
 30
0.0
 40
0.3125
 41
0.0
 71
     3
 72
     1
  1
\A1;SILICONE GASKET\P(CLEAR)
 73
     1
 44
1.0
  0
LEADER
  5
1C07
330
1E
100
AcDbEntity
  8
DIM
100
AcDbLeader
  3
23NSTD
 73
     0
 74
     0
 75
     1
 40
2.395833333333333
 41
4.6875
 76
     3
 10
10.61416831917902
 20
7.641371446214268
 30
0.0
 10
12.21294959242372
 20
5.333197077083639
 30
0.0
 10
12.66294959242372
 20
5.333197077083639
 30
0.0
340
1C08
213
0.0
223
-0.15625
233
0.0
1001
ACAD
1000
DSTYLE
1002
{
1070
   147
1040
0.09
1070
    77
1070
     0
1002
}
  0
MTEXT
  5
1C08
102
{ACAD_REACTORS
330
1C07
102
}
330
1E
100
AcDbEntity
  8
DIM
100
AcDbMText
 10
12.88794959242372
 20
5.489447077083639
 30
0.0
 40
0.3125
 41
0.0
 71
     1
 72
     1
  1
\A1;0.315 DIA. BOSS\PWITH M3 x 0.188 LG.\PTHREADED INSERT\P(4) PLACES\P(SCREWS NOT SUPPLIED)
 73
     1
 44
1.0
  0
HATCH
  5
1C0F
330
1E
100
AcDbEntity
  8
OBJECT
 62
   221
100
AcDbHatch
 10
0.0
 20
0.0
 30
0.0
210
0.0
220
0.0
230
1.0
  2
ZIGZAG
 70
     0
 71
     1
 91
        1
 92
        7
 72
     0
 73
     1
 93
        4
 10
32.70275348921493
 20
7.43180744621427
 10
32.70275348921493
 20
7.51180744621427
 10
32.58775348921493
 20
7.51180744621427
 10
32.58775348921493
 20
7.43180744621427
 97
        3
330
D6F
330
CDE
330
D6A
 75
     0
 76
     1
 52
0.0
 41
0.375
 77
     0
 78
     2
 53
0.0
 43
-0.4044718901294147
 44
0.0
 45
0.046875
 46
0.046875
 79
     2
 49
0.046875
 49
-0.046875
 53
90.0
 43
-0.3575968901294146
 44
0.0
 45
-0.046875
 46
0.046875
 79
     2
 49
0.046875
 49
-0.046875
 47
0.0046370674649175
 98
        1
 10
32.64867289486754
 20
7.465069676145418
  0
HATCH
  5
1C15
330
1E
100
AcDbEntity
  8
OBJECT
 62
   221
100
AcDbHatch
 10
0.0
 20
0.0
 30
0.0
210
0.0
220
0.0
230
1.0
  2
ZIGZAG
 70
     0
 71
     1
 91
        1
 92
        7
 72
     0
 73
     1
 93
        4
 10
32.70275348921493
 20
13.22155744621427
 10
32.70275348921493
 20
13.30155744621426
 10
32.58775348921493
 20
13.30155744621427
 10
32.58775348921493
 20
13.22155744621427
 97
        3
330
D78
330
CDE
330
D73
 75
     0
 76
     1
 52
0.0
 41
0.375
 77
     0
 78
     2
 53
0.0
 43
-0.4044718901294147
 44
0.0
 45
0.046875
 46
0.046875
 79
     2
 49
0.046875
 49
-0.046875
 53
90.0
 43
-0.3575968901294146
 44
0.0
 45
-0.046875
 46
0.046875
 79
     2
 49
0.046875
 49
-0.046875
 47
0.0019321113714096
 98
        1
 10
32.65451268601093
 20
13.25634187177816
  0
HATCH
  5
1C16
330
1E
100
AcDbEntity
  8
OBJECT
 62
   221
100
AcDbHatch
 10
0.0
 20
0.0
 30
0.0
210
0.0
220
0.0
230
1.0
  2
ZIGZAG
 70
     0
 71
     1
 91
        2
 92
        1
 93
       20
 72
     2
 10
28.25329515506844
 20
13.4771821815383
 40
0.1975002646762545
 50
2.125872460445272
 51
89.99990306249083
 73
     1
 72
     1
 10
28.25329548921493
 20
13.67468244621427
 11
25.44010648921493
 21
13.67468244621427
 72
     2
 10
25.44010682336142
 20
13.4771821815383
 40
0.1975002646762525
 50
90.00009693750916
 51
177.8741275395547
 73
     1
 72
     2
 10
25.05287370947935
 20
13.49155701418391
 40
0.1899995679697778
 50
2.126035820323056
 51
90.0000664223686
 73
     0
 72
     1
 10
25.05287348921493
 20
13.30155744621427
 11
24.68270148921493
 21
13.30155744621427
 72
     2
 10
24.6827013696829
 20
13.1415575657463
 40
0.1599998804680143
 50
89.99995719571327
 51
180.0000428042873
 73
     1
 72
     1
 10
24.52270148921493
 20
13.14155744621427
 11
24.52270148921493
 21
7.59180744621427
 72
     2
 10
24.6827013696829
 20
7.591807326682241
 40
0.1599998804680161
 50
179.9999571957132
 51
270.0000428042867
 73
     1
 72
     1
 10
24.68270148921493
 20
7.43180744621427
 11
25.05287348921493
 21
7.43180744621427
 72
     2
 10
25.05287319057385
 20
7.241807378244621
 40
0.1900000679698828
 50
270.0000900571976
 51
357.8741206592427
 73
     0
 72
     2
 10
25.44010630445592
 20
7.256182210890241
 40
0.1974997646760579
 50
182.1260229975689
 51
270.0000535996146
 73
     1
 72
     1
 10
25.44010648921493
 20
7.058682446214269
 11
28.25329548921493
 21
7.058682446214269
 72
     2
 10
28.25329567397394
 20
7.256182210890241
 40
0.1974997646760584
 50
269.9999464003852
 51
357.8739770024309
 73
     1
 72
     2
 10
28.64052928785601
 20
7.241806859339125
 40
0.1900005868752537
 50
182.1260301189042
 51
270.0000607209493
 73
     0
 72
     1
 10
28.64052948921493
 20
7.43180744621427
 11
29.01070148921493
 21
7.43180744621427
 72
     2
 10
29.01070160874697
 20
7.591807326682241
 40
0.1599998804680161
 50
269.9999571957119
 51
360.0000428042867
 73
     1
 72
     1
 10
29.17070148921493
 20
7.59180744621427
 11
29.17070148921493
 21
13.14155744621427
 72
     2
 10
29.01070160874697
 20
13.1415575657463
 40
0.1599998804680125
 50
359.9999571957126
 51
450.000042804288
 73
     1
 72
     1
 10
29.01070148921493
 20
13.30155744621427
 11
28.64052948921493
 21
13.30155744621427
 72
     2
 10
28.64052876895051
 20
13.49155753308941
 40
0.1900000868765118
 50
89.99978279951497
 51
177.87381340156
 73
     0
 97
        1
330
D7D
 92
       16
 93
       20
 72
     2
 10
29.01070154898095
 20
7.591807386448254
 40
0.0799999402340081
 50
359.999957195712
 51
450.0000428042854
 73
     0
 72
     1
 10
29.01070148921493
 20
7.51180744621427
 11
28.64052948921493
 21
7.51180744621427
 72
     2
 10
28.64052961616573
 20
7.241807478219691
 40
0.2699999679946089
 50
90.00002693980006
 51
177.8740575418456
 73
     1
 72
     2
 10
28.25329600228366
 20
7.256182829770806
 40
0.1175003835576592
 50
2.126219581584632
 51
90.00025018362977
 73
     0
 72
     1
 10
28.25329548921493
 20
7.138682446214269
 11
25.44010648921493
 21
7.138682446214269
 72
     2
 10
25.44010647614621
 20
7.25618231086531
 40
0.1174998646510417
 50
89.99999362737332
 51
177.8740242294183
 73
     0
 72
     2
 10
25.05287336226413
 20
7.241807478219691
 40
0.2699999679946093
 50
2.125942458154339
 51
89.99997306019995
 73
     1
 72
     1
 10
25.05287348921493
 20
7.51180744621427
 11
24.68270148921493
 21
7.51180744621427
 72
     2
 10
24.68270142944892
 20
7.591807386448255
 40
0.0799999402340081
 50
89.99995719571455
 51
180.0000428042867
 73
     0
 72
     1
 10
24.60270148921493
 20
7.59180744621427
 11
24.60270148921493
 21
13.14155744621427
 72
     2
 10
24.68270142944892
 20
13.14155750598028
 40
0.0799999402340116
 50
179.9999571957132
 51
270.0000428042854
 73
     0
 72
     1
 10
24.68270148921493
 20
13.22155744621427
 11
25.05287348921493
 21
13.22155744621427
 72
     2
 10
25.05287336226413
 20
13.49155741420885
 40
0.2699999679946089
 50
270.0000269398
 51
357.8740575418454
 73
     1
 72
     2
 10
25.44010647614621
 20
13.47718258156322
 40
0.1174998646510432
 50
182.1259757705816
 51
270.0000063726266
 73
     0
 72
     1
 10
25.44010648921493
 20
13.59468244621427
 11
28.25329548921493
 21
13.59468244621427
 72
     2
 10
28.25329600228366
 20
13.47718206265773
 40
0.1175003835576575
 50
269.9997498163702
 51
357.8737804184153
 73
     0
 72
     2
 10
28.64052961616573
 20
13.49155741420885
 40
0.2699999679946093
 50
182.1259424581545
 51
269.9999730601999
 73
     1
 72
     1
 10
28.64052948921493
 20
13.22155744621427
 11
29.01070148921493
 21
13.22155744621427
 72
     2
 10
29.01070154898095
 20
13.14155750598028
 40
0.0799999402340081
 50
269.9999571957145
 51
360.0000428042867
 73
     0
 72
     1
 10
29.09070148921493
 20
13.14155744621427
 11
29.09070148921493
 21
7.59180744621427
 97
        1
330
D93
 75
     0
 76
     1
 52
0.0
 41
0.375
 77
     0
 78
     2
 53
0.0
 43
-0.4044718901294147
 44
0.0
 45
0.046875
 46
0.046875
 79
     2
 49
0.046875
 49
-0.046875
 53
90.0
 43
-0.3575968901294146
 44
0.0
 45
-0.046875
 46
0.046875
 79
     2
 49
0.046875
 49
-0.046875
 98
        1
 10
-0.4044718901294147
 20
0.0
  0
HATCH
  5
1C4B
330
1E
100
AcDbEntity
  8
OBJECT
 62
   151
100
AcDbHatch
 10
0.0
 20
0.0
 30
0.0
210
0.0
220
0.0
230
1.0
  2
ANSI31
 70
     0
 71
     0
 91
        4
 92
        7
 72
     1
 73
     1
 93
        6
 10
33.06075348921493
 20
7.150744446214269
 42
0.0
 10
32.58775348921493
 20
7.150744446214269
 42
0.0
 10
32.58775348921493
 20
7.00068244621427
 42
0.0
 10
33.5249056998226
 20
7.00068244621427
 42
0.0311154319181055
 10
33.55520499809937
 20
7.080432446214269
 42
0.0
 10
33.06075348921493
 20
7.080432446214269
 42
0.0
 97
        0
 92
        7
 72
     1
 73
     1
 93
       10
 10
33.53150170298342
 20
7.551807446214269
 42
0.0
 10
32.58775348921493
 20
7.551807446214268
 42
0.0
 10
32.58775348921493
 20
7.51180744621427
 42
0.0
 10
32.70275348921493
 20
7.51180744621427
 42
0.0
 10
32.70275348921493
 20
7.43180744621427
 42
0.0
 10
32.58775348921493
 20
7.43180744621427
 42
0.0
 10
32.58775348921493
 20
7.322619446214269
 42
0.0
 10
33.06075348921494
 20
7.322619446214269
 42
0.0
 10
33.06075348921493
 20
7.39293244621427
 42
0.0
 10
33.5772858713662
 20
7.39293244621427
 42
0.060465861218254
 97
        0
 92
        7
 72
     1
 73
     1
 93
        5
 10
34.16575348921493
 20
7.063182446214268
 42
0.0
 10
34.16575348921493
 20
7.080432446214269
 42
0.0
 10
33.55520499809937
 20
7.080432446214269
 42
-0.0311154319181055
 10
33.5249056998226
 20
7.00068244621427
 42
0.0
 10
34.10325348921493
 20
7.00068244621427
 42
0.4142135623730868
 97
        0
 92
        7
 72
     1
 73
     1
 93
       17
 10
34.16575348921493
 20
13.67018244621426
 42
0.4142135623730951
 10
34.10325348921493
 20
13.73268244621427
 42
0.0
 10
32.58775348921493
 20
13.73268244621427
 42
0.0
 10
32.58775348921493
 20
13.66268244621427
 42
0.0
 10
34.04575348921493
 20
13.66268244621426
 42
0.0
 10
34.04575348921493
 20
13.35955744621427
 42
0.0
 10
32.58775348921493
 20
13.35955744621427
 42
0.0
 10
32.58775348921493
 20
13.30155744621427
 42
0.0
 10
32.70275348921493
 20
13.30155744621426
 42
0.0
 10
32.70275348921492
 20
13.22155744621427
 42
0.0
 10
32.58775348921493
 20
13.22155744621427
 42
0.0
 10
32.58775348921493
 20
13.18155744621426
 42
0.0
 10
34.04575348921493
 20
13.18155744621427
 42
0.0
 10
34.04575348921493
 20
7.551807446214269
 42
0.0
 10
33.53150170298342
 20
7.551807446214269
 42
-0.0604658612182543
 10
33.5772858713662
 20
7.392932446214269
 42
0.0
 10
34.16575348921493
 20
7.392932446214269
 42
0.0
 97
        0
 75
     0
 76
     1
 52
0.0
 41
0.625
 77
     0
 78
     1
 53
45.0
 43
-0.4044718901294147
 44
0.0
 45
-0.055242717280199
 46
0.055242717280199
 79
     0
 47
0.0129837890505129
 98
        4
 10
32.8622337719802
 20
7.085769738369236
 10
32.92720528238227
 20
7.462299622073643
 10
33.79782246319784
 20
7.033834537296144
 10
33.83680534229621
 20
7.475283386333529
  0
HATCH
  5
1C93
330
1E
100
AcDbEntity
  8
OBJECT
 62
   221
100
AcDbHatch
 10
0.0
 20
0.0
 30
0.0
210
0.0
220
0.0
230
1.0
  2
ANSI32
 70
     0
 71
     0
 91
        2
 92
        7
 72
     0
 73
     1
 93
        4
 10
19.90892782342215
 20
13.07793244621427
 10
19.71192782342215
 20
13.07793244621426
 10
19.71192782342215
 20
13.04668244621427
 10
19.90892782342215
 20
13.04668244621427
 97
        0
 92
        7
 72
     0
 73
     1
 93
        4
 10
19.90892782342215
 20
12.92168244621427
 10
19.71192782342215
 20
12.92168244621427
 10
19.71192782342214
 20
12.89043244621427
 10
19.90892782342215
 20
12.89043244621427
 97
        0
 75
     0
 76
     1
 52
89.99998127603165
 41
0.25
 77
     0
 78
     2
 53
134.9999812760316
 43
-1.213415555922196
 44
0.0
 45
-0.066291282399881
 46
-0.0662912390725896
 79
     0
 53
134.9999812760316
 43
-1.213415541479766
 44
0.0441941737499977
 45
-0.066291282399881
 46
-0.0662912390725896
 79
     0
 47
0.0013184914486552
 98
        2
 10
19.78627803048125
 20
13.06033519628771
 10
19.787597581708
 20
12.90607168873809
  0
HATCH
  5
1C9D
330
1E
100
AcDbEntity
  8
OBJECT
 62
   221
100
AcDbHatch
 10
0.0
 20
0.0
 30
0.0
210
0.0
220
0.0
230
1.0
  2
ANSI32
 70
     0
 71
     1
 91
        2
 92
        7
 72
     0
 73
     1
 93
        4
 10
18.77342282342215
 20
7.299182446214268
 10
18.77342282342215
 20
7.361682446214269
 10
18.42892782342215
 20
7.36168244621427
 10
18.42892782342214
 20
7.299182446214269
 97
        4
330
88F
330
88B
330
88E
330
89F
 92
        7
 72
     0
 73
     1
 93
        4
 10
18.42892782342215
 20
7.174182446214268
 10
18.42892782342215
 20
7.11168244621427
 10
18.77342282342215
 20
7.111682446214269
 10
18.77342282342215
 20
7.174182446214269
 97
        4
330
88D
330
88B
330
890
330
89F
 75
     0
 76
     1
 52
89.99998127603165
 41
0.25
 77
     0
 78
     2
 53
134.9999812760316
 43
0.0
 44
0.0
 45
-0.066291282399881
 46
-0.0662912390725896
 79
     0
 53
134.9999812760316
 43
0.0000000144424304
 44
0.0441941737499977
 45
-0.066291282399881
 46
-0.0662912390725896
 79
     0
 47
0.0013138357672654
 98
        2
 10
18.60903232174509
 20
7.323136740508786
 10
18.5801045234232
 20
7.148396553093945
  0
LINE
  5
1C9E
330
1E
100
AcDbEntity
  8
OBJECT
100
AcDbLine
 10
32.97769348921493
 20
7.32261944621427
 30
0.0
 11
32.96886973921493
 21
7.15074444621427
 31
0.0
  0
LINE
  5
1C9F
330
1E
100
AcDbEntity
  8
OBJECT
100
AcDbLine
 10
32.94769923921493
 20
7.32261944621427
 30
0.0
 11
32.93887573921493
 21
7.15074444621427
 31
0.0
  0
LEADER
  5
1CB5
330
1E
100
AcDbEntity
  8
DIM
100
AcDbLeader
  3
23NSTD
 73
     0
 75
     1
 40
0.3125
 41
2.96875
 76
     3
 10
32.6216380996132
 20
6.70560808101822
 30
0.0
 10
31.55355169412845
 20
5.815162413089808
 30
0.0
 10
31.10355169412845
 20
5.815162413089808
 30
0.0
340
1CB6
213
0.0
223
-0.15625
233
0.0
1001
ACAD
1000
DSTYLE
1002
{
1070
   147
1040
0.09
1070
    77
1070
     0
1002
}
  0
MTEXT
  5
1CB6
102
{ACAD_REACTORS
330
1CB5
102
}
330
1E
100
AcDbEntity
  8
DIM
100
AcDbMText
 10
30.87855169412845
 20
5.971412413089808
 30
0.0
 40
0.3125
 41
0.0
 71
     3
 72
     1
  1
\A1;SEE DETAIL "C"
 73
     1
 44
1.0
  0
CIRCLE
  5
1F40
330
1E
100
AcDbEntity
  8
OBJECT
100
AcDbCircle
 10
6.920498319179025
 20
12.96068244621427
 30
0.0
 40
0.09375
  0
LINE
  5
1F41
330
1E
100
AcDbEntity
  8
OBJECT
100
AcDbLine
 10
6.873498295725569
 20
12.72776748939679
 30
0.0
 11
6.967498422631432
 21
12.72776748939679
 31
0.0
  0
LINE
  5
1F42
330
1E
100
AcDbEntity
  8
OBJECT
100
AcDbLine
 10
6.96749837958716
 20
12.76276747174067
 30
0.0
 11
6.873498305484037
 21
12.76276747174067
 31
0.0
  0
LINE
  5
1F43
330
1E
100
AcDbEntity
  8
OBJECT
100
AcDbLine
 10
6.873498305484037
 20
13.15859745907888
 30
0.0
 11
6.96749837958716
 21
13.15859745907888
 31
0.0
  0
LINE
  5
1F44
330
1E
100
AcDbEntity
  8
OBJECT
100
AcDbLine
 10
6.967498422631397
 20
13.19359744142277
 30
0.0
 11
6.873498295725577
 21
13.19359744142277
 31
0.0
  0
CIRCLE
  5
1F45
330
1E
100
AcDbEntity
  8
OBJECT
100
AcDbCircle
 10
6.920498319179025
 20
12.96068244621427
 30
0.0
 40
0.0590000000000011
  0
CIRCLE
  5
1F46
330
1E
100
AcDbEntity
  8
OBJECT
100
AcDbCircle
 10
6.920498319179025
 20
12.96068244621427
 30
0.0
 40
0.1559553444010344
  0
LINE
  5
1F47
330
1E
100
AcDbEntity
  8
OBJECT
100
AcDbLine
 10
6.873498295725569
 20
12.72776748939679
 30
0.0
 11
6.873498319179025
 21
12.81188628666534
 31
0.0
  0
LINE
  5
1F48
330
1E
100
AcDbEntity
  8
OBJECT
100
AcDbLine
 10
6.873498319179026
 20
13.1094786057632
 30
0.0
 11
6.873498295725577
 21
13.19359744142277
 31
0.0
  0
LINE
  5
1F49
330
1E
100
AcDbEntity
  8
OBJECT
100
AcDbLine
 10
6.722583275534008
 20
12.9136825016907
 30
0.0
 11
6.722583275534008
 21
13.00768242912885
 31
0.0
  0
LINE
  5
1F4A
330
1E
100
AcDbEntity
  8
OBJECT
100
AcDbLine
 10
6.687583293190124
 20
13.00768241695453
 30
0.0
 11
6.687583293190123
 21
12.9136825412208
 31
0.0
  0
LINE
  5
1F4B
330
1E
100
AcDbEntity
  8
OBJECT
100
AcDbLine
 10
6.771702159630097
 20
12.91368244621427
 30
0.0
 11
6.687583293190123
 21
12.9136825412208
 31
0.0
  0
LINE
  5
1F4C
330
1E
100
AcDbEntity
  8
OBJECT
100
AcDbLine
 10
6.687583293190124
 20
13.00768241695453
 30
0.0
 11
6.771702159630097
 21
13.00768244621427
 31
0.0
  0
LINE
  5
1F4D
102
{ACAD_REACTORS
330
20E3
102
}
330
1E
100
AcDbEntity
  8
OBJECT
100
AcDbLine
 10
19.71192788946598
 20
13.1166377906153
 30
0.0
 11
19.71192788946598
 21
12.80472710181323
 31
0.0
  0
LINE
  5
1F4E
102
{ACAD_REACTORS
330
20E3
102
}
330
1E
100
AcDbEntity
  8
OBJECT
100
AcDbLine
 10
19.88892782342215
 20
12.72776742022537
 30
0.0
 11
19.72192789928619
 21
12.76276740256925
 31
0.0
  0
LINE
  5
1F50
330
1E
100
AcDbEntity
  8
OBJECT
100
AcDbLine
 10
6.967498319179025
 20
12.81188628666534
 30
0.0
 11
6.967498422631432
 21
12.72776748939679
 31
0.0
  0
LINE
  5
1F51
102
{ACAD_REACTORS
330
20E3
102
}
330
1E
100
AcDbEntity
  8
OBJECT
100
AcDbLine
 10
19.72192789928619
 20
12.80463981218893
 30
0.0
 11
19.72192789928619
 21
12.76276740256925
 31
0.0
  0
LINE
  5
1F52
102
{ACAD_REACTORS
330
20E3
102
}
330
1E
100
AcDbEntity
  8
OBJECT
100
AcDbLine
 10
19.71192788946598
 20
12.80472710181323
 30
0.0
 11
19.72192789928619
 21
12.80463981218893
 31
0.0
  0
LINE
  5
1F53
102
{ACAD_REACTORS
330
20E3
102
}
330
1E
100
AcDbEntity
  8
OBJECT
100
AcDbLine
 10
19.88892782342215
 20
13.19359744558383
 30
0.0
 11
19.72192789928619
 21
13.15859746323994
 31
0.0
  0
LINE
  5
1F5B
102
{ACAD_REACTORS
330
20E3
102
}
330
1E
100
AcDbEntity
  8
OBJECT
100
AcDbLine
 10
19.72192789928619
 20
13.15859746323994
 30
0.0
 11
19.72192789928619
 21
13.11672505362026
 31
0.0
  0
LINE
  5
1F5C
330
1E
100
AcDbEntity
  8
OBJECT
100
AcDbLine
 10
6.967498422631397
 20
13.19359744142277
 30
0.0
 11
6.967498319179027
 21
13.10947860576319
 31
0.0
  0
LINE
  5
1F5D
330
1E
100
AcDbEntity
  8
OBJECT
100
AcDbLine
 10
7.069294478727954
 20
13.00768244621426
 30
0.0
 11
7.153413318548587
 21
13.00768241695452
 31
0.0
  0
LINE
  5
1F5E
330
1E
100
AcDbEntity
  8
OBJECT
100
AcDbLine
 10
7.153413318548587
 20
12.91368254122082
 30
0.0
 11
7.069294478727954
 21
12.91368244621426
 31
0.0
  0
LINE
  5
1F5F
330
1E
100
AcDbEntity
  8
OBJECT
100
AcDbLine
 10
7.118413336204703
 20
13.00768242912885
 30
0.0
 11
7.118413336204703
 21
12.9136825016907
 31
0.0
  0
LINE
  5
1F61
330
1E
100
AcDbEntity
  8
OBJECT
100
AcDbLine
 10
7.153413318548587
 20
12.91368254122082
 30
0.0
 11
7.153413318548587
 21
13.00768241695452
 31
0.0
  0
LINE
  5
1F62
102
{ACAD_REACTORS
330
20E3
102
}
330
1E
100
AcDbEntity
  8
OBJECT
100
AcDbLine
 10
19.72192789928619
 20
13.11672505362026
 30
0.0
 11
19.71192788946598
 21
13.1166377906153
 31
0.0
  0
CIRCLE
  5
1F8C
330
1E
100
AcDbEntity
  8
OBJECT
100
AcDbCircle
 10
6.920498319179025
 20
7.772682446214268
 30
0.0
 40
0.09375
  0
LINE
  5
1F8D
330
1E
100
AcDbEntity
  8
OBJECT
100
AcDbLine
 10
6.873498295725569
 20
7.539767489396792
 30
0.0
 11
6.967498422631432
 21
7.539767489396792
 31
0.0
  0
LINE
  5
1F8E
330
1E
100
AcDbEntity
  8
OBJECT
100
AcDbLine
 10
6.96749837958716
 20
7.574767471740676
 30
0.0
 11
6.873498305484037
 21
7.574767471740676
 31
0.0
  0
LINE
  5
1F8F
330
1E
100
AcDbEntity
  8
OBJECT
100
AcDbLine
 10
6.873498305484037
 20
7.970597459078884
 30
0.0
 11
6.96749837958716
 21
7.970597459078884
 31
0.0
  0
LINE
  5
1F90
330
1E
100
AcDbEntity
  8
OBJECT
100
AcDbLine
 10
6.967498422631397
 20
8.005597441422768
 30
0.0
 11
6.873498295725577
 21
8.005597441422768
 31
0.0
  0
CIRCLE
  5
1F91
330
1E
100
AcDbEntity
  8
OBJECT
100
AcDbCircle
 10
6.920498319179025
 20
7.772682446214268
 30
0.0
 40
0.0590000000000011
  0
CIRCLE
  5
1F92
330
1E
100
AcDbEntity
  8
OBJECT
100
AcDbCircle
 10
6.920498319179025
 20
7.772682446214268
 30
0.0
 40
0.1559553444010344
  0
LINE
  5
1F93
330
1E
100
AcDbEntity
  8
OBJECT
100
AcDbLine
 10
6.873498295725569
 20
7.539767489396792
 30
0.0
 11
6.873498319179025
 21
7.62388628666534
 31
0.0
  0
LINE
  5
1F94
330
1E
100
AcDbEntity
  8
OBJECT
100
AcDbLine
 10
6.873498319179026
 20
7.921478605763198
 30
0.0
 11
6.873498295725577
 21
8.005597441422768
 31
0.0
  0
LINE
  5
1F95
330
1E
100
AcDbEntity
  8
OBJECT
100
AcDbLine
 10
6.722583275534008
 20
7.725682501690705
 30
0.0
 11
6.722583275534008
 21
7.819682429128855
 31
0.0
  0
LINE
  5
1F96
330
1E
100
AcDbEntity
  8
OBJECT
100
AcDbLine
 10
6.687583293190124
 20
7.819682416954532
 30
0.0
 11
6.687583293190123
 21
7.725682541220802
 31
0.0
  0
LINE
  5
1F97
330
1E
100
AcDbEntity
  8
OBJECT
100
AcDbLine
 10
6.771702159630097
 20
7.725682446214269
 30
0.0
 11
6.687583293190123
 21
7.725682541220802
 31
0.0
  0
LINE
  5
1F98
330
1E
100
AcDbEntity
  8
OBJECT
100
AcDbLine
 10
6.687583293190124
 20
7.819682416954532
 30
0.0
 11
6.771702159630097
 21
7.819682446214269
 31
0.0
  0
LINE
  5
1F99
330
1E
100
AcDbEntity
  8
OBJECT
100
AcDbLine
 10
19.71192788946598
 20
7.928637790615304
 30
0.0
 11
19.71192788946598
 21
7.616727101813233
 31
0.0
  0
LINE
  5
1F9A
330
1E
100
AcDbEntity
  8
OBJECT
100
AcDbLine
 10
19.88892782342215
 20
7.539767420225366
 30
0.0
 11
19.72192789928619
 21
7.574767402569251
 31
0.0
  0
LINE
  5
1F9B
330
1E
100
AcDbEntity
  8
OBJECT
100
AcDbLine
 10
19.72192789928619
 20
7.623886235144305
 30
0.0
 11
19.88892782342215
 21
7.62388628666534
 31
0.0
  0
LINE
  5
1F9C
330
1E
100
AcDbEntity
  8
OBJECT
100
AcDbLine
 10
6.967498319179025
 20
7.62388628666534
 30
0.0
 11
6.967498422631432
 21
7.539767489396792
 31
0.0
  0
LINE
  5
1F9D
330
1E
100
AcDbEntity
  8
OBJECT
100
AcDbLine
 10
19.72192789928619
 20
7.623886235144305
 30
0.0
 11
19.72192789928619
 21
7.574767402569251
 31
0.0
  0
LINE
  5
1F9E
330
1E
100
AcDbEntity
  8
OBJECT
100
AcDbLine
 10
19.71192788946598
 20
7.616727101813233
 30
0.0
 11
19.72192789928619
 21
7.616639812188935
 31
0.0
  0
LINE
  5
1F9F
330
1E
100
AcDbEntity
  8
OBJECT
100
AcDbLine
 10
19.88892782342215
 20
8.005597445583829
 30
0.0
 11
19.72192789928619
 21
7.970597463239945
 31
0.0
  0
LINE
  5
1FA2
330
1E
100
AcDbEntity
  8
OBJECT
100
AcDbLine
 10
19.72192789928619
 20
7.921478630664891
 30
0.0
 11
19.88892782342215
 21
7.921478605763196
 31
0.0
  0
LINE
  5
1FA3
330
1E
100
AcDbEntity
  8
OBJECT
100
AcDbLine
 10
19.72192789928619
 20
7.819682506622402
 30
0.0
 11
19.88892782342215
 21
7.819682549666675
 31
0.0
  0
LINE
  5
1FA4
330
1E
100
AcDbEntity
  8
OBJECT
100
AcDbLine
 10
19.72192789928619
 20
7.72568243251928
 30
0.0
 11
19.88892782342215
 21
7.725682422760812
 31
0.0
  0
LINE
  5
1FA7
330
1E
100
AcDbEntity
  8
OBJECT
100
AcDbLine
 10
19.72192789928619
 20
7.970597463239945
 30
0.0
 11
19.72192789928619
 21
7.921478630664891
 31
0.0
  0
LINE
  5
1FA8
330
1E
100
AcDbEntity
  8
OBJECT
100
AcDbLine
 10
6.967498422631397
 20
8.005597441422768
 30
0.0
 11
6.967498319179027
 21
7.921478605763197
 31
0.0
  0
LINE
  5
1FA9
330
1E
100
AcDbEntity
  8
OBJECT
100
AcDbLine
 10
7.069294478727954
 20
7.819682446214267
 30
0.0
 11
7.153413318548587
 21
7.819682416954527
 31
0.0
  0
LINE
  5
1FAA
330
1E
100
AcDbEntity
  8
OBJECT
100
AcDbLine
 10
7.153413318548587
 20
7.725682541220826
 30
0.0
 11
7.069294478727954
 21
7.725682446214268
 31
0.0
  0
LINE
  5
1FAB
330
1E
100
AcDbEntity
  8
OBJECT
100
AcDbLine
 10
7.118413336204703
 20
7.819682429128855
 30
0.0
 11
7.118413336204703
 21
7.725682501690705
 31
0.0
  0
LINE
  5
1FAC
330
1E
100
AcDbEntity
  8
OBJECT
100
AcDbLine
 10
19.72192789928619
 20
7.819682506622402
 30
0.0
 11
19.72192789928619
 21
7.72568243251928
 31
0.0
  0
LINE
  5
1FAD
330
1E
100
AcDbEntity
  8
OBJECT
100
AcDbLine
 10
7.153413318548587
 20
7.725682541220826
 30
0.0
 11
7.153413318548587
 21
7.819682416954527
 31
0.0
  0
LINE
  5
1FAE
330
1E
100
AcDbEntity
  8
OBJECT
100
AcDbLine
 10
19.72192789928619
 20
7.928725053620262
 30
0.0
 11
19.71192788946598
 21
7.928637790615304
 31
0.0
  0
CIRCLE
  5
1FD8
330
1E
100
AcDbEntity
  8
OBJECT
100
AcDbCircle
 10
10.52948331917902
 20
7.772682446214268
 30
0.0
 40
0.09375
  0
LINE
  5
1FD9
330
1E
100
AcDbEntity
  8
OBJECT
100
AcDbLine
 10
10.48248329572557
 20
7.539767489396792
 30
0.0
 11
10.57648342263143
 21
7.539767489396792
 31
0.0
  0
LINE
  5
1FDA
330
1E
100
AcDbEntity
  8
OBJECT
100
AcDbLine
 10
10.57648337958716
 20
7.574767471740676
 30
0.0
 11
10.48248330548403
 21
7.574767471740676
 31
0.0
  0
LINE
  5
1FDB
330
1E
100
AcDbEntity
  8
OBJECT
100
AcDbLine
 10
10.48248330548403
 20
7.970597459078884
 30
0.0
 11
10.57648337958716
 21
7.970597459078884
 31
0.0
  0
LINE
  5
1FDC
330
1E
100
AcDbEntity
  8
OBJECT
100
AcDbLine
 10
10.57648342263139
 20
8.005597441422768
 30
0.0
 11
10.48248329572557
 21
8.005597441422768
 31
0.0
  0
CIRCLE
  5
1FDD
330
1E
100
AcDbEntity
  8
OBJECT
100
AcDbCircle
 10
10.52948331917902
 20
7.772682446214268
 30
0.0
 40
0.0590000000000011
  0
CIRCLE
  5
1FDE
330
1E
100
AcDbEntity
  8
OBJECT
100
AcDbCircle
 10
10.52948331917902
 20
7.772682446214268
 30
0.0
 40
0.1559553444010344
  0
LINE
  5
1FDF
330
1E
100
AcDbEntity
  8
OBJECT
100
AcDbLine
 10
10.48248329572557
 20
7.539767489396792
 30
0.0
 11
10.48248331917902
 21
7.62388628666534
 31
0.0
  0
LINE
  5
1FE0
330
1E
100
AcDbEntity
  8
OBJECT
100
AcDbLine
 10
10.48248331917902
 20
7.921478605763198
 30
0.0
 11
10.48248329572557
 21
8.005597441422768
 31
0.0
  0
LINE
  5
1FE1
330
1E
100
AcDbEntity
  8
OBJECT
100
AcDbLine
 10
10.33156827553401
 20
7.725682501690705
 30
0.0
 11
10.33156827553401
 21
7.819682429128855
 31
0.0
  0
LINE
  5
1FE2
330
1E
100
AcDbEntity
  8
OBJECT
100
AcDbLine
 10
10.29656829319012
 20
7.819682416954532
 30
0.0
 11
10.29656829319012
 21
7.725682541220802
 31
0.0
  0
LINE
  5
1FE3
330
1E
100
AcDbEntity
  8
OBJECT
100
AcDbLine
 10
10.38068715963009
 20
7.725682446214269
 30
0.0
 11
10.29656829319012
 21
7.725682541220802
 31
0.0
  0
LINE
  5
1FE4
330
1E
100
AcDbEntity
  8
OBJECT
100
AcDbLine
 10
10.29656829319012
 20
7.819682416954532
 30
0.0
 11
10.38068715963009
 21
7.819682446214269
 31
0.0
  0
LINE
  5
1FE8
330
1E
100
AcDbEntity
  8
OBJECT
100
AcDbLine
 10
10.57648331917902
 20
7.62388628666534
 30
0.0
 11
10.57648342263143
 21
7.539767489396792
 31
0.0
  0
LINE
  5
1FF4
330
1E
100
AcDbEntity
  8
OBJECT
100
AcDbLine
 10
10.57648342263139
 20
8.005597441422768
 30
0.0
 11
10.57648331917902
 21
7.921478605763197
 31
0.0
  0
LINE
  5
1FF5
330
1E
100
AcDbEntity
  8
OBJECT
100
AcDbLine
 10
10.67827947872795
 20
7.819682446214267
 30
0.0
 11
10.76239831854858
 21
7.819682416954527
 31
0.0
  0
LINE
  5
1FF6
330
1E
100
AcDbEntity
  8
OBJECT
100
AcDbLine
 10
10.76239831854858
 20
7.725682541220826
 30
0.0
 11
10.67827947872795
 21
7.725682446214268
 31
0.0
  0
LINE
  5
1FF7
330
1E
100
AcDbEntity
  8
OBJECT
100
AcDbLine
 10
10.7273983362047
 20
7.819682429128855
 30
0.0
 11
10.7273983362047
 21
7.725682501690705
 31
0.0
  0
LINE
  5
1FF9
330
1E
100
AcDbEntity
  8
OBJECT
100
AcDbLine
 10
10.76239831854858
 20
7.725682541220826
 30
0.0
 11
10.76239831854858
 21
7.819682416954527
 31
0.0
  0
CIRCLE
  5
2024
330
1E
100
AcDbEntity
  8
OBJECT
100
AcDbCircle
 10
10.52948331917902
 20
12.96068244621427
 30
0.0
 40
0.09375
  0
LINE
  5
2025
330
1E
100
AcDbEntity
  8
OBJECT
100
AcDbLine
 10
10.48248329572557
 20
12.72776748939679
 30
0.0
 11
10.57648342263143
 21
12.72776748939679
 31
0.0
  0
LINE
  5
2026
330
1E
100
AcDbEntity
  8
OBJECT
100
AcDbLine
 10
10.57648337958716
 20
12.76276747174067
 30
0.0
 11
10.48248330548403
 21
12.76276747174067
 31
0.0
  0
LINE
  5
2027
330
1E
100
AcDbEntity
  8
OBJECT
100
AcDbLine
 10
10.48248330548403
 20
13.15859745907888
 30
0.0
 11
10.57648337958716
 21
13.15859745907888
 31
0.0
  0
LINE
  5
2028
330
1E
100
AcDbEntity
  8
OBJECT
100
AcDbLine
 10
10.57648342263139
 20
13.19359744142277
 30
0.0
 11
10.48248329572557
 21
13.19359744142277
 31
0.0
  0
CIRCLE
  5
2029
330
1E
100
AcDbEntity
  8
OBJECT
100
AcDbCircle
 10
10.52948331917902
 20
12.96068244621427
 30
0.0
 40
0.0590000000000011
  0
CIRCLE
  5
202A
330
1E
100
AcDbEntity
  8
OBJECT
100
AcDbCircle
 10
10.52948331917902
 20
12.96068244621427
 30
0.0
 40
0.1559553444010344
  0
LINE
  5
202B
330
1E
100
AcDbEntity
  8
OBJECT
100
AcDbLine
 10
10.48248329572557
 20
12.72776748939679
 30
0.0
 11
10.48248331917902
 21
12.81188628666534
 31
0.0
  0
LINE
  5
202C
330
1E
100
AcDbEntity
  8
OBJECT
100
AcDbLine
 10
10.48248331917902
 20
13.1094786057632
 30
0.0
 11
10.48248329572557
 21
13.19359744142277
 31
0.0
  0
LINE
  5
202D
330
1E
100
AcDbEntity
  8
OBJECT
100
AcDbLine
 10
10.33156827553401
 20
12.9136825016907
 30
0.0
 11
10.33156827553401
 21
13.00768242912885
 31
0.0
  0
LINE
  5
202E
330
1E
100
AcDbEntity
  8
OBJECT
100
AcDbLine
 10
10.29656829319012
 20
13.00768241695453
 30
0.0
 11
10.29656829319012
 21
12.9136825412208
 31
0.0
  0
LINE
  5
202F
330
1E
100
AcDbEntity
  8
OBJECT
100
AcDbLine
 10
10.38068715963009
 20
12.91368244621427
 30
0.0
 11
10.29656829319012
 21
12.9136825412208
 31
0.0
  0
LINE
  5
2030
330
1E
100
AcDbEntity
  8
OBJECT
100
AcDbLine
 10
10.29656829319012
 20
13.00768241695453
 30
0.0
 11
10.38068715963009
 21
13.00768244621427
 31
0.0
  0
LINE
  5
2034
330
1E
100
AcDbEntity
  8
OBJECT
100
AcDbLine
 10
10.57648331917902
 20
12.81188628666534
 30
0.0
 11
10.57648342263143
 21
12.72776748939679
 31
0.0
  0
LINE
  5
2040
330
1E
100
AcDbEntity
  8
OBJECT
100
AcDbLine
 10
10.57648342263139
 20
13.19359744142277
 30
0.0
 11
10.57648331917902
 21
13.10947860576319
 31
0.0
  0
LINE
  5
2041
330
1E
100
AcDbEntity
  8
OBJECT
100
AcDbLine
 10
10.67827947872795
 20
13.00768244621426
 30
0.0
 11
10.76239831854858
 21
13.00768241695452
 31
0.0
  0
LINE
  5
2042
330
1E
100
AcDbEntity
  8
OBJECT
100
AcDbLine
 10
10.76239831854858
 20
12.91368254122082
 30
0.0
 11
10.67827947872795
 21
12.91368244621426
 31
0.0
  0
LINE
  5
2043
330
1E
100
AcDbEntity
  8
OBJECT
100
AcDbLine
 10
10.7273983362047
 20
13.00768242912885
 30
0.0
 11
10.7273983362047
 21
12.9136825016907
 31
0.0
  0
LINE
  5
2045
330
1E
100
AcDbEntity
  8
OBJECT
100
AcDbLine
 10
10.76239831854858
 20
12.91368254122082
 30
0.0
 11
10.76239831854858
 21
13.00768241695452
 31
0.0
  0
LINE
  5
209A
102
{ACAD_REACTORS
330
20E3
102
}
330
1E
100
AcDbEntity
  8
OBJECT
100
AcDbLine
 10
19.88892782342215
 20
12.25443244621426
 30
0.0
 11
19.88892782342215
 21
7.496809446214269
 31
0.0
  0
HATCH
  5
20E3
330
1E
100
AcDbEntity
  8
OBJECT
 62
   151
100
AcDbHatch
 10
0.0
 20
0.0
 30
0.0
210
0.0
220
0.0
230
1.0
  2
ANSI31
 70
     0
 71
     1
 91
        3
 92
        7
 72
     1
 73
     1
 93
        9
 10
19.95892782342214
 20
13.73268244621427
 42
0.0
 10
18.46892782342215
 20
13.73268244621427
 42
0.0
 10
18.46892782342215
 20
13.71268244621427
 42
0.0
 10
18.42892782342215
 20
13.71268244621427
 42
0.0
 10
18.42892782342215
 20
13.66268244621426
 42
0.0
 10
19.88892782342215
 20
13.66268244621426
 42
0.0
 10
19.88892782342215
 20
13.58261944621427
 42
0.0
 10
20.00892782342215
 20
13.58261944621426
 42
0.0
 10
20.00892782342215
 20
13.68268244621426
 42
0.4142135623731158
 97
        9
330
870
330
889
330
878
330
88A
330
876
330
BA5
330
906
330
872
330
873
 92
        7
 72
     0
 73
     1
 93
       36
 10
20.00892782342215
 20
13.41074444621426
 10
19.88892782342215
 20
13.41074444621426
 10
19.88892782342215
 20
13.29955744621426
 10
18.42892782342215
 20
13.29955744621426
 10
18.42892782342215
 20
13.28155744621427
 10
18.36892782342215
 20
13.28155744621427
 10
18.36892782342215
 20
13.24155744621426
 10
19.88892782342215
 20
13.24155744621426
 10
19.88892782342215
 20
13.19359744558383
 10
19.72192789928619
 20
13.15859746323994
 10
19.7219278992862
 20
13.11672505362026
 10
19.71192788946598
 20
13.11663779061531
 10
19.71192788946598
 20
13.07793244621426
 10
19.90892782342215
 20
13.07793244621426
 10
19.90892782342215
 20
12.89043244621427
 10
19.71192788946598
 20
12.89043244621427
 10
19.71192788946598
 20
12.80472710181323
 10
19.72192789928619
 20
12.80463981218893
 10
19.72192789928619
 20
12.76276740256925
 10
19.88892782342215
 20
12.72776742022536
 10
19.88892782342215
 20
12.56693244621426
 10
19.71192782342215
 20
12.56693244621426
 10
19.71192782342215
 20
12.45568244621426
 10
19.85192782342215
 20
12.45568244621426
 10
19.85192782342214
 20
12.36568244621427
 10
19.71192782342215
 20
12.36568244621427
 10
19.71192782342215
 20
12.25443244621426
 10
19.88892782342215
 20
12.25443244621426
 10
19.88892782342215
 20
7.496809446214269
 10
18.36892782342215
 20
7.496809446214268
 10
18.36892782342214
 20
7.45565344621427
 10
18.42892782342215
 20
7.45565344621427
 10
18.42892782342215
 20
7.36168244621427
 10
18.82517782342215
 20
7.361682446214269
 10
18.82517782342215
 20
7.394182446214269
 10
20.00892782342215
 20
7.394182446214268
 97
       33
330
905
330
BA5
330
904
330
88A
330
903
330
875
330
902
330
BA6
330
1F53
330
1F5B
330
1F62
330
1F4D
330
87F
330
882
330
87E
330
1F52
330
1F51
330
1F4E
330
BA7
330
B65
330
B66
330
B91
330
B68
330
B92
330
B67
330
209A
330
8FE
330
8FD
330
88B
330
88F
330
891
330
892
330
872
 92
        7
 72
     1
 73
     1
 93
        9
 10
20.00892782342215
 20
7.050682446214283
 42
0.0
 10
20.00892782342215
 20
7.079182446214268
 42
0.0
 10
18.82517782342215
 20
7.079182446214268
 42
0.0
 10
18.82517782342215
 20
7.111682446214269
 42
0.0
 10
18.42892782342215
 20
7.11168244621427
 42
0.0
 10
18.42892782342215
 20
7.020682446214268
 42
0.0
 10
18.46892782342215
 20
7.020682446214268
 42
0.0
 10
18.46892782342215
 20
7.000682446214271
 42
0.0
 10
19.95892782342215
 20
7.00068244621427
 42
0.4142135623731732
 97
        9
330
872
330
893
330
891
330
890
330
88B
330
87A
330
88C
330
871
330
874
 75
     0
 76
     1
 52
0.0
 41
0.625
 77
     0
 78
     1
 53
45.0
 43
0.0
 44
0.0
 45
-0.055242717280199
 46
0.055242717280199
 79
     0
 47
0.0136020644170323
 98
        3
 10
18.91683169325547
 20
13.6994526325522
 10
18.93044470911211
 20
7.456104968097356
 10
18.9985100173702
 20
7.048043051480384
  0
ENDSEC
  0
SECTION
  2
OBJECTS
  0
DICTIONARY
  5
C
330
0
100
AcDbDictionary
281
     1
  3
ACAD_GROUP
350
D
  3
ACAD_LAYOUT
350
19
  3
ACAD_MLINESTYLE
350
16
  3
ACAD_PLOTSETTINGS
350
18
  3
ACAD_PLOTSTYLENAME
350
E
  3
AcadDim
350
1BA2
  3
AcDbVariableDictionary
350
1780
  0
DICTIONARY
  5
D
102
{ACAD_REACTORS
330
C
102
}
330
C
100
AcDbDictionary
281
     1
  0
DICTIONARY
  5
19
102
{ACAD_REACTORS
330
C
102
}
330
C
100
AcDbDictionary
281
     1
  3
Layout1
350
1D
  3
Model
350
21
  0
DICTIONARY
  5
16
102
{ACAD_REACTORS
330
C
102
}
330
C
100
AcDbDictionary
281
     1
  3
Standard
350
17
  0
DICTIONARY
  5
18
102
{ACAD_REACTORS
330
C
102
}
330
C
100
AcDbDictionary
281
     1
  0
ACDBDICTIONARYWDFLT
  5
E
102
{ACAD_REACTORS
330
C
102
}
330
C
100
AcDbDictionary
281
     1
  3
Normal
350
F
100
AcDbDictionaryWithDefault
340
F
  0
XRECORD
  5
1BA2
102
{ACAD_REACTORS
330
C
102
}
330
C
100
AcDbXrecord
280
     1
 90
   990106
  3

 60
     0
 61
     0
 62
     1
 63
     1
 64
     0
 65
     0
 66
     0
 67
     3
 68
     1
 69
     0
 70
     0
 71
     0
 72
     0
 40
0.0
170
     2
340
1CB6
  0
DICTIONARY
  5
1780
102
{ACAD_REACTORS
330
C
102
}
330
C
100
AcDbDictionary
281
     1
  3
SORTENTS
350
1781
  0
LAYOUT
  5
1D
102
{ACAD_REACTORS
330
19
102
}
330
19
100
AcDbPlotSettings
  1

  2
C:\Program Files\ACAD2000\plotters\RICOH Aficio 1060 RPCS.pc3
  4

  6

 40
0.0
 41
0.0
 42
0.0
 43
0.0
 44
0.0
 45
0.0
 46
0.0
 47
0.0
 48
0.0
 49
0.0
140
0.0
141
0.0
142
1.0
143
1.0
 70
   688
 72
     0
 73
     0
 74
     5
  7
monochrome.ctb
 75
    16
147
1.0
148
0.0
149
0.0
100
AcDbLayout
  1
Layout1
 70
     0
 71
     1
 10
0.0
 20
0.0
 11
12.0
 21
9.0
 12
0.0
 22
0.0
 32
0.0
 14
1.000000000000000E+20
 24
1.000000000000000E+20
 34
1.000000000000000E+20
 15
-1.000000000000000E+20
 25
-1.000000000000000E+20
 35
-1.000000000000000E+20
146
0.0
 13
0.0
 23
0.0
 33
0.0
 16
1.0
 26
0.0
 36
0.0
 17
0.0
 27
1.0
 37
0.0
 76
     0
330
1A
  0
LAYOUT
  5
21
102
{ACAD_REACTORS
330
19
102
}
330
19
100
AcDbPlotSettings
  1

  2
Acrobat PDFWriter
  4
Tabloid
  6

 40
3.174999952316284
 41
3.174999952316284
 42
3.17498779296875
 43
3.17498779296875
 44
431.8000183105469
 45
279.3999938964843
 46
0.0
 47
4.064
 48
0.0
 49
0.0
140
0.0
141
0.0
142
1.0
143
2.477946535122403
 70
 11956
 72
     0
 73
     0
 74
     1
  7
monochrome.ctb
 75
     0
147
0.4035599581451836
148
0.078262115306876
149
0.0500158197724616
100
AcDbLayout
  1
Model
 70
     1
 71
     0
 10
0.0
 20
0.0
 11
12.0
 21
9.0
 12
0.0
 22
0.0
 32
0.0
 14
0.0
 24
0.0
 34
0.0
 15
0.0
 25
0.0
 35
0.0
146
0.0
 13
0.0
 23
0.0
 33
0.0
 16
1.0
 26
0.0
 36
0.0
 17
0.0
 27
1.0
 37
0.0
 76
     0
330
1E
  0
MLINESTYLE
  5
17
102
{ACAD_REACTORS
330
16
102
}
330
16
100
AcDbMlineStyle
  2
STANDARD
 70
     0
  3

 62
   256
 51
90.0
 52
90.0
 71
     2
 49
0.5
 62
   256
  6
BYLAYER
 49
-0.5
 62
   256
  6
BYLAYER
  0
ACDBPLACEHOLDER
  5
F
102
{ACAD_REACTORS
330
E
102
}
330
E
  0
DICTIONARYVAR
  5
1781
102
{ACAD_REACTORS
330
1780
102
}
330
1780
100
DictionaryVariables
280
     0
  1
96
  0
ENDSEC
  0
EOF
