  0
SECTION
  2
HEADER
  9
$ACADVER
  1
AC1015
  9
$ACADMAINTVER
 70
     6
  9
$DWGCODEPAGE
  3
ANSI_1252
  9
$INSBASE
 10
0.0
 20
0.0
 30
0.0
  9
$EXTMIN
 10
0.0
 20
0.0
 30
-0.00000001
  9
$EXTMAX
 10
41.49999999999998
 20
25.82
 30
0.00000001
  9
$LIMMIN
 10
0.0
 20
0.0
  9
$LIMMAX
 10
38.75
 20
25.29999999999999
  9
$ORTHOMODE
 70
     1
  9
$REGENMODE
 70
     1
  9
$FILLMODE
 70
     1
  9
$QTEXTMODE
 70
     0
  9
$MIRRTEXT
 70
     0
  9
$LTSCALE
 40
0.5
  9
$ATTMODE
 70
     1
  9
$TEXTSIZE
 40
0.2
  9
$TRACEWID
 40
0.05
  9
$TEXTSTYLE
  7
TXT
  9
$CLAYER
  8
OBJECT
  9
$CELTYPE
  6
ByLayer
  9
$CECOLOR
 62
   256
  9
$CELTSCALE
 40
1.0
  9
$DISPSILH
 70
     0
  9
$DIMSCALE
 40
2.5
  9
$DIMASZ
 40
0.18
  9
$DIMEXO
 40
0.063
  9
$DIMDLI
 40
0.281
  9
$DIMRND
 40
0.0
  9
$DIMDLE
 40
0.0
  9
$DIMEXE
 40
0.093
  9
$DIMTP
 40
0.0
  9
$DIMTM
 40
0.0
  9
$DIMTXT
 40
0.125
  9
$DIMCEN
 40
0.09
  9
$DIMTSZ
 40
0.0
  9
$DIMTOL
 70
     0
  9
$DIMLIM
 70
     0
  9
$DIMTIH
 70
     1
  9
$DIMTOH
 70
     1
  9
$DIMSE1
 70
     0
  9
$DIMSE2
 70
     0
  9
$DIMTAD
 70
     0
  9
$DIMZIN
 70
     0
  9
$DIMBLK
  1

  9
$DIMASO
 70
     1
  9
$DIMSHO
 70
     1
  9
$DIMPOST
  1

  9
$DIMAPOST
  1

  9
$DIMALT
 70
     0
  9
$DIMALTD
 70
     2
  9
$DIMALTF
 40
25.4
  9
$DIMLFAC
 40
1.0
  9
$DIMTOFL
 70
     0
  9
$DIMTVP
 40
0.0
  9
$DIMTIX
 70
     0
  9
$DIMSOXD
 70
     0
  9
$DIMSAH
 70
     0
  9
$DIMBLK1
  1

  9
$DIMBLK2
  1

  9
$DIMSTYLE
  2
23NSTD
  9
$DIMCLRD
 70
     0
  9
$DIMCLRE
 70
     0
  9
$DIMCLRT
 70
     0
  9
$DIMTFAC
 40
1.0
  9
$DIMGAP
 40
0.09
  9
$DIMJUST
 70
     0
  9
$DIMSD1
 70
     0
  9
$DIMSD2
 70
     0
  9
$DIMTOLJ
 70
     1
  9
$DIMTZIN
 70
     0
  9
$DIMALTZ
 70
     0
  9
$DIMALTTZ
 70
     0
  9
$DIMUPT
 70
     0
  9
$DIMDEC
 70
     3
  9
$DIMTDEC
 70
     3
  9
$DIMALTU
 70
     2
  9
$DIMALTTD
 70
     2
  9
$DIMTXSTY
  7
TXT
  9
$DIMAUNIT
 70
     0
  9
$DIMADEC
 70
     0
  9
$DIMALTRND
 40
0.0
  9
$DIMAZIN
 70
     0
  9
$DIMDSEP
 70
    46
  9
$DIMATFIT
 70
     1
  9
$DIMFRAC
 70
     0
  9
$DIMLDRBLK
  1

  9
$DIMLUNIT
 70
     2
  9
$DIMLWD
 70
    -2
  9
$DIMLWE
 70
    -2
  9
$DIMTMOVE
 70
     0
  9
$LUNITS
 70
     2
  9
$LUPREC
 70
     3
  9
$SKETCHINC
 40
0.1
  9
$FILLETRAD
 40
0.0
  9
$AUNITS
 70
     0
  9
$AUPREC
 70
     0
  9
$MENU
  1
acad
  9
$ELEVATION
 40
0.0
  9
$PELEVATION
 40
0.0
  9
$THICKNESS
 40
0.0
  9
$LIMCHECK
 70
     0
  9
$CHAMFERA
 40
0.0
  9
$CHAMFERB
 40
0.0
  9
$CHAMFERC
 40
0.0
  9
$CHAMFERD
 40
0.0
  9
$SKPOLY
 70
     0
  9
$TDCREATE
 40
2449889.574965393
  9
$TDUCREATE
 40
2449889.783298726
  9
$TDUPDATE
 40
2454788.496583113
  9
$TDUUPDATE
 40
2454788.704916447
  9
$TDINDWG
 40
0.4689318634
  9
$TDUSRTIMER
 40
0.4689318634
  9
$USRTIMER
 70
     1
  9
$ANGBASE
 50
0.0
  9
$ANGDIR
 70
     0
  9
$PDMODE
 70
     0
  9
$PDSIZE
 40
0.0
  9
$PLINEWID
 40
0.0
  9
$SPLFRAME
 70
     0
  9
$SPLINETYPE
 70
     6
  9
$SPLINESEGS
 70
     8
  9
$HANDSEED
  5
1E76
  9
$SURFTAB1
 70
     6
  9
$SURFTAB2
 70
     6
  9
$SURFTYPE
 70
     6
  9
$SURFU
 70
     6
  9
$SURFV
 70
     6
  9
$UCSBASE
  2

  9
$UCSNAME
  2

  9
$UCSORG
 10
0.0
 20
0.0
 30
0.0
  9
$UCSXDIR
 10
1.0
 20
0.0
 30
0.0
  9
$UCSYDIR
 10
0.0
 20
1.0
 30
0.0
  9
$UCSORTHOREF
  2

  9
$UCSORTHOVIEW
 70
     0
  9
$UCSORGTOP
 10
0.0
 20
0.0
 30
0.0
  9
$UCSORGBOTTOM
 10
0.0
 20
0.0
 30
0.0
  9
$UCSORGLEFT
 10
0.0
 20
0.0
 30
0.0
  9
$UCSORGRIGHT
 10
0.0
 20
0.0
 30
0.0
  9
$UCSORGFRONT
 10
0.0
 20
0.0
 30
0.0
  9
$UCSORGBACK
 10
0.0
 20
0.0
 30
0.0
  9
$PUCSBASE
  2

  9
$PUCSNAME
  2

  9
$PUCSORG
 10
0.0
 20
0.0
 30
0.0
  9
$PUCSXDIR
 10
1.0
 20
0.0
 30
0.0
  9
$PUCSYDIR
 10
0.0
 20
1.0
 30
0.0
  9
$PUCSORTHOREF
  2

  9
$PUCSORTHOVIEW
 70
     0
  9
$PUCSORGTOP
 10
0.0
 20
0.0
 30
0.0
  9
$PUCSORGBOTTOM
 10
0.0
 20
0.0
 30
0.0
  9
$PUCSORGLEFT
 10
0.0
 20
0.0
 30
0.0
  9
$PUCSORGRIGHT
 10
0.0
 20
0.0
 30
0.0
  9
$PUCSORGFRONT
 10
0.0
 20
0.0
 30
0.0
  9
$PUCSORGBACK
 10
0.0
 20
0.0
 30
0.0
  9
$USERI1
 70
     0
  9
$USERI2
 70
     0
  9
$USERI3
 70
     0
  9
$USERI4
 70
     0
  9
$USERI5
 70
     0
  9
$USERR1
 40
0.0
  9
$USERR2
 40
0.0
  9
$USERR3
 40
0.0
  9
$USERR4
 40
0.0
  9
$USERR5
 40
0.0
  9
$WORLDVIEW
 70
     1
  9
$SHADEDGE
 70
     3
  9
$SHADEDIF
 70
    70
  9
$TILEMODE
 70
     1
  9
$MAXACTVP
 70
    16
  9
$PINSBASE
 10
0.0
 20
0.0
 30
0.0
  9
$PLIMCHECK
 70
     0
  9
$PEXTMIN
 10
1.000000000000000E+20
 20
1.000000000000000E+20
 30
1.000000000000000E+20
  9
$PEXTMAX
 10
-1.000000000000000E+20
 20
-1.000000000000000E+20
 30
-1.000000000000000E+20
  9
$PLIMMIN
 10
0.0
 20
0.0
  9
$PLIMMAX
 10
12.0
 20
9.0
  9
$UNITMODE
 70
     0
  9
$VISRETAIN
 70
     0
  9
$PLINEGEN
 70
     0
  9
$PSLTSCALE
 70
     1
  9
$TREEDEPTH
 70
  3020
  9
$CMLSTYLE
  2
Standard
  9
$CMLJUST
 70
     0
  9
$CMLSCALE
 40
1.0
  9
$PROXYGRAPHICS
 70
     1
  9
$MEASUREMENT
 70
     0
  9
$CELWEIGHT
370
    -1
  9
$ENDCAPS
280
     0
  9
$JOINSTYLE
280
     0
  9
$LWDISPLAY
290
     0
  9
$INSUNITS
 70
     0
  9
$HYPERLINKBASE
  1

  9
$STYLESHEET
  1
monochrome.ctb
  9
$XEDIT
290
     1
  9
$CEPSNTYPE
380
     0
  9
$PSTYLEMODE
290
     1
  9
$FINGERPRINTGUID
  2
{A4359019-9ABA-11D4-81CD-00C04F604D1B}
  9
$VERSIONGUID
  2
{77550518-4F31-40D3-8F6E-F55BA126D784}
  9
$EXTNAMES
290
     1
  9
$PSVPSCALE
 40
0.0
  9
$OLESTARTUP
290
     0
  0
ENDSEC
  0
SECTION
  2
CLASSES
  0
CLASS
  1
ACDBDICTIONARYWDFLT
  2
AcDbDictionaryWithDefault
  3
AutoCAD 2000
 90
        0
280
     0
281
     0
  0
CLASS
  1
ACDBPLACEHOLDER
  2
AcDbPlaceHolder
  3
AutoCAD 2000
 90
        0
280
     0
281
     0
  0
CLASS
  1
LAYOUT
  2
AcDbLayout
  3
AutoCAD 2000
 90
        0
280
     0
281
     0
  0
CLASS
  1
DICTIONARYVAR
  2
AcDbDictionaryVar
  3
AutoCAD 2000
 90
        0
280
     0
281
     0
  0
ENDSEC
  0
SECTION
  2
TABLES
  0
TABLE
  2
VPORT
  5
8
330
0
100
AcDbSymbolTable
 70
     2
  0
VPORT
  5
1E75
330
8
100
AcDbSymbolTableRecord
100
AcDbViewportTableRecord
  2
*Active
 70
     0
 10
0.0
 20
0.0
 11
1.0
 21
1.0
 12
20.75005558020886
 22
12.90979507044396
 13
0.0
 23
0.0
 14
1.0
 24
1.0
 15
0.25
 25
0.25
 16
0.0
 26
0.0
 36
1.0
 17
0.0
 27
0.0
 37
0.0
 40
26.08520104358505
 41
1.796327212020033
 42
50.0
 43
0.0
 44
0.0
 50
0.0
 51
0.0
 71
     0
 72
   100
 73
     1
 74
     0
 75
     0
 76
     0
 77
     0
 78
     0
281
     0
 65
     1
110
0.0
120
0.0
130
0.0
111
1.0
121
0.0
131
0.0
112
0.0
122
1.0
132
0.0
 79
     0
146
0.0
  0
ENDTAB
  0
TABLE
  2
LTYPE
  5
5
330
0
100
AcDbSymbolTable
 70
     4
  0
LTYPE
  5
13
330
5
100
AcDbSymbolTableRecord
100
AcDbLinetypeTableRecord
  2
ByBlock
 70
     0
  3

 72
    65
 73
     0
 40
0.0
  0
LTYPE
  5
14
330
5
100
AcDbSymbolTableRecord
100
AcDbLinetypeTableRecord
  2
ByLayer
 70
     0
  3

 72
    65
 73
     0
 40
0.0
  0
LTYPE
  5
15
330
5
100
AcDbSymbolTableRecord
100
AcDbLinetypeTableRecord
  2
CONTINUOUS
 70
     0
  3
Solid line
 72
    65
 73
     0
 40
0.0
  0
LTYPE
  5
69
330
5
100
AcDbSymbolTableRecord
100
AcDbLinetypeTableRecord
  2
PHANTOM
 70
     0
  3
_____ _ _ _____ _ _ _____ _ _ _____ _ _ ____
 72
    65
 73
     6
 40
2.5
 49
1.25
 74
     0
 49
-0.25
 74
     0
 49
0.25
 74
     0
 49
-0.25
 74
     0
 49
0.25
 74
     0
 49
-0.25
 74
     0
  0
LTYPE
  5
6A
330
5
100
AcDbSymbolTableRecord
100
AcDbLinetypeTableRecord
  2
CENTER
 70
     0
  3
____ _ ____ _ ____ _ ____ _ ____ _ ____ _ ____
 72
    65
 73
     4
 40
2.0
 49
1.25
 74
     0
 49
-0.25
 74
     0
 49
0.25
 74
     0
 49
-0.25
 74
     0
  0
LTYPE
  5
6B
330
5
100
AcDbSymbolTableRecord
100
AcDbLinetypeTableRecord
  2
HIDDEN
 70
     0
  3
_ _ _ _ _ _ _ _ _ _ _ _ _ _ _ _ _ _ _ _ _ _ _
 72
    65
 73
     2
 40
0.375
 49
0.25
 74
     0
 49
-0.125
 74
     0
  0
ENDTAB
  0
TABLE
  2
LAYER
  5
2
330
0
100
AcDbSymbolTable
 70
     9
  0
LAYER
  5
10
330
2
100
AcDbSymbolTableRecord
100
AcDbLayerTableRecord
  2
0
 70
     0
 62
     7
  6
CONTINUOUS
370
    -3
390
F
  0
LAYER
  5
72
330
2
100
AcDbSymbolTableRecord
100
AcDbLayerTableRecord
  2
OBJECT
 70
     0
 62
     7
  6
CONTINUOUS
370
    -3
390
F
  0
LAYER
  5
73
330
2
100
AcDbSymbolTableRecord
100
AcDbLayerTableRecord
  2
DIM
 70
     0
 62
     2
  6
CONTINUOUS
370
    -3
390
F
  0
LAYER
  5
74
330
2
100
AcDbSymbolTableRecord
100
AcDbLayerTableRecord
  2
BEND
 70
     0
 62
     4
  6
PHANTOM
370
    -3
390
F
  0
LAYER
  5
75
330
2
100
AcDbSymbolTableRecord
100
AcDbLayerTableRecord
  2
TEXT
 70
     0
 62
     1
  6
CONTINUOUS
370
    -3
390
F
  0
LAYER
  5
76
330
2
100
AcDbSymbolTableRecord
100
AcDbLayerTableRecord
  2
TITLE
 70
     0
 62
     8
  6
CONTINUOUS
370
    -3
390
F
  0
LAYER
  5
77
330
2
100
AcDbSymbolTableRecord
100
AcDbLayerTableRecord
  2
DEFPOINTS
 70
     0
 62
     7
  6
CONTINUOUS
290
     0
370
    -3
390
F
  0
LAYER
  5
78
330
2
100
AcDbSymbolTableRecord
100
AcDbLayerTableRecord
  2
CENTER
 70
     0
 62
     3
  6
CENTER
370
    -3
390
F
  0
LAYER
  5
79
330
2
100
AcDbSymbolTableRecord
100
AcDbLayerTableRecord
  2
HIDDEN
 70
     0
 62
     6
  6
HIDDEN
370
    -3
390
F
  0
ENDTAB
  0
TABLE
  2
STYLE
  5
3
330
0
100
AcDbSymbolTable
 70
     2
  0
STYLE
  5
11
330
3
100
AcDbSymbolTableRecord
100
AcDbTextStyleTableRecord
  2
TXT
 70
     0
 40
0.0
 41
0.75
 50
0.0
 71
     0
 42
0.2
  3
TXT.shx
  4

  0
STYLE
  5
1BF3
330
3
100
AcDbSymbolTableRecord
100
AcDbTextStyleTableRecord
  2
SECTION
 70
     0
 40
0.0
 41
0.8
 50
0.0
 71
     0
 42
0.2
  3
ROMANT.SHX
  4

  0
ENDTAB
  0
TABLE
  2
VIEW
  5
6
330
0
100
AcDbSymbolTable
 70
     0
  0
ENDTAB
  0
TABLE
  2
UCS
  5
7
330
0
100
AcDbSymbolTable
 70
     0
  0
ENDTAB
  0
TABLE
  2
APPID
  5
9
330
0
100
AcDbSymbolTable
 70
     1
  0
APPID
  5
12
330
9
100
AcDbSymbolTableRecord
100
AcDbRegAppTableRecord
  2
ACAD
 70
     0
  0
ENDTAB
  0
TABLE
  2
DIMSTYLE
  5
A
330
0
100
AcDbSymbolTable
 70
     4
100
AcDbDimStyleTable
 71
     4
340
6E
340
70
340
6F
340
71
  0
DIMSTYLE
105
6E
102
{ACAD_REACTORS
330
AB4
330
BA9
330
BAA
330
BAB
330
BAC
330
BAF
330
BB0
330
BB1
330
BB2
330
BB3
330
BB4
330
BB5
330
BB6
330
BB8
330
BB9
330
BBA
330
BBB
330
BBC
330
BC8
330
BC9
330
BCC
330
BD2
330
BD3
330
BD4
330
BD5
330
BD6
330
BD8
330
BD9
330
BF6
330
BF7
330
BF9
330
BFA
330
BFB
330
BFC
330
BFD
330
BFE
330
BFF
330
C12
330
C13
330
C14
330
C35
330
C45
330
11C5
102
}
330
A
100
AcDbSymbolTableRecord
100
AcDbDimStyleTableRecord
  2
23NSTD
 70
     0
 40
2.5
 42
0.063
 43
0.281
 44
0.093
140
0.125
271
     3
272
     3
289
     1
340
11
  0
DIMSTYLE
105
6F
102
{ACAD_REACTORS
330
A02
330
BA8
330
BAD
330
BAE
330
BB7
330
BD7
330
BF8
330
C46
330
C47
102
}
330
A
100
AcDbSymbolTableRecord
100
AcDbDimStyleTableRecord
  2
23NSTDI
 70
     0
 40
2.5
 42
0.063
 43
0.281
 44
0.093
140
0.125
174
     1
271
     3
272
     3
340
11
  0
DIMSTYLE
105
70
102
{ACAD_REACTORS
330
AB5
330
AB6
330
14A3
102
}
330
A
100
AcDbSymbolTableRecord
100
AcDbDimStyleTableRecord
  2
23NSTD4
 70
     0
 40
2.5
 42
0.063
 43
0.281
 44
0.093
140
0.125
144
0.25
271
     3
272
     3
289
     1
340
11
  0
DIMSTYLE
105
71
102
{ACAD_REACTORS
330
A03
330
A05
102
}
330
A
100
AcDbSymbolTableRecord
100
AcDbDimStyleTableRecord
  2
23NSTD4I
 70
     0
 40
2.5
 42
0.063
 43
0.281
 44
0.093
140
0.125
144
0.25
174
     1
271
     3
272
     3
340
11
  0
ENDTAB
  0
TABLE
  2
BLOCK_RECORD
  5
1
330
0
100
AcDbSymbolTable
 70
    57
  0
BLOCK_RECORD
  5
1E
330
1
100
AcDbSymbolTableRecord
100
AcDbBlockTableRecord
  2
*Model_Space
340
21
  0
BLOCK_RECORD
  5
1A
330
1
100
AcDbSymbolTableRecord
100
AcDbBlockTableRecord
  2
*Paper_Space
340
1D
  0
BLOCK_RECORD
  5
D8D
330
1
100
AcDbSymbolTableRecord
100
AcDbBlockTableRecord
  2
*D0
340
0
  0
BLOCK_RECORD
  5
D9A
330
1
100
AcDbSymbolTableRecord
100
AcDbBlockTableRecord
  2
*D1
340
0
  0
BLOCK_RECORD
  5
DA7
330
1
100
AcDbSymbolTableRecord
100
AcDbBlockTableRecord
  2
*D2
340
0
  0
BLOCK_RECORD
  5
DB4
330
1
100
AcDbSymbolTableRecord
100
AcDbBlockTableRecord
  2
*D3
340
0
  0
BLOCK_RECORD
  5
DC1
330
1
100
AcDbSymbolTableRecord
100
AcDbBlockTableRecord
  2
*D4
340
0
  0
BLOCK_RECORD
  5
DCE
330
1
100
AcDbSymbolTableRecord
100
AcDbBlockTableRecord
  2
*D5
340
0
  0
BLOCK_RECORD
  5
DDB
330
1
100
AcDbSymbolTableRecord
100
AcDbBlockTableRecord
  2
*D6
340
0
  0
BLOCK_RECORD
  5
DE8
330
1
100
AcDbSymbolTableRecord
100
AcDbBlockTableRecord
  2
*D7
340
0
  0
BLOCK_RECORD
  5
DF5
330
1
100
AcDbSymbolTableRecord
100
AcDbBlockTableRecord
  2
*D8
340
0
  0
BLOCK_RECORD
  5
E02
330
1
100
AcDbSymbolTableRecord
100
AcDbBlockTableRecord
  2
*D9
340
0
  0
BLOCK_RECORD
  5
E0F
330
1
100
AcDbSymbolTableRecord
100
AcDbBlockTableRecord
  2
*D10
340
0
  0
BLOCK_RECORD
  5
E1C
330
1
100
AcDbSymbolTableRecord
100
AcDbBlockTableRecord
  2
*D11
340
0
  0
BLOCK_RECORD
  5
E29
330
1
100
AcDbSymbolTableRecord
100
AcDbBlockTableRecord
  2
*D12
340
0
  0
BLOCK_RECORD
  5
E36
330
1
100
AcDbSymbolTableRecord
100
AcDbBlockTableRecord
  2
*D13
340
0
  0
BLOCK_RECORD
  5
E43
330
1
100
AcDbSymbolTableRecord
100
AcDbBlockTableRecord
  2
*D14
340
0
  0
BLOCK_RECORD
  5
E50
330
1
100
AcDbSymbolTableRecord
100
AcDbBlockTableRecord
  2
*D15
340
0
  0
BLOCK_RECORD
  5
E5D
330
1
100
AcDbSymbolTableRecord
100
AcDbBlockTableRecord
  2
*D16
340
0
  0
BLOCK_RECORD
  5
E6A
330
1
100
AcDbSymbolTableRecord
100
AcDbBlockTableRecord
  2
*D17
340
0
  0
BLOCK_RECORD
  5
E78
330
1
100
AcDbSymbolTableRecord
100
AcDbBlockTableRecord
  2
*D18
340
0
  0
BLOCK_RECORD
  5
E86
330
1
100
AcDbSymbolTableRecord
100
AcDbBlockTableRecord
  2
*D19
340
0
  0
BLOCK_RECORD
  5
E93
330
1
100
AcDbSymbolTableRecord
100
AcDbBlockTableRecord
  2
*D20
340
0
  0
BLOCK_RECORD
  5
EA0
330
1
100
AcDbSymbolTableRecord
100
AcDbBlockTableRecord
  2
*D21
340
0
  0
BLOCK_RECORD
  5
EAD
330
1
100
AcDbSymbolTableRecord
100
AcDbBlockTableRecord
  2
*D22
340
0
  0
BLOCK_RECORD
  5
EBA
330
1
100
AcDbSymbolTableRecord
100
AcDbBlockTableRecord
  2
*D23
340
0
  0
BLOCK_RECORD
  5
EC8
330
1
100
AcDbSymbolTableRecord
100
AcDbBlockTableRecord
  2
*D24
340
0
  0
BLOCK_RECORD
  5
ED5
330
1
100
AcDbSymbolTableRecord
100
AcDbBlockTableRecord
  2
*D25
340
0
  0
BLOCK_RECORD
  5
EE2
330
1
100
AcDbSymbolTableRecord
100
AcDbBlockTableRecord
  2
*D26
340
0
  0
BLOCK_RECORD
  5
EEF
330
1
100
AcDbSymbolTableRecord
100
AcDbBlockTableRecord
  2
*D27
340
0
  0
BLOCK_RECORD
  5
EFC
330
1
100
AcDbSymbolTableRecord
100
AcDbBlockTableRecord
  2
*D28
340
0
  0
BLOCK_RECORD
  5
F09
330
1
100
AcDbSymbolTableRecord
100
AcDbBlockTableRecord
  2
*D29
340
0
  0
BLOCK_RECORD
  5
F16
330
1
100
AcDbSymbolTableRecord
100
AcDbBlockTableRecord
  2
*D30
340
0
  0
BLOCK_RECORD
  5
F23
330
1
100
AcDbSymbolTableRecord
100
AcDbBlockTableRecord
  2
*D31
340
0
  0
BLOCK_RECORD
  5
F30
330
1
100
AcDbSymbolTableRecord
100
AcDbBlockTableRecord
  2
*D32
340
0
  0
BLOCK_RECORD
  5
F3D
330
1
100
AcDbSymbolTableRecord
100
AcDbBlockTableRecord
  2
*D33
340
0
  0
BLOCK_RECORD
  5
F4A
330
1
100
AcDbSymbolTableRecord
100
AcDbBlockTableRecord
  2
*D34
340
0
  0
BLOCK_RECORD
  5
F57
330
1
100
AcDbSymbolTableRecord
100
AcDbBlockTableRecord
  2
*D35
340
0
  0
BLOCK_RECORD
  5
F64
330
1
100
AcDbSymbolTableRecord
100
AcDbBlockTableRecord
  2
*D36
340
0
  0
BLOCK_RECORD
  5
F71
330
1
100
AcDbSymbolTableRecord
100
AcDbBlockTableRecord
  2
*D37
340
0
  0
BLOCK_RECORD
  5
F7F
330
1
100
AcDbSymbolTableRecord
100
AcDbBlockTableRecord
  2
*D38
340
0
  0
BLOCK_RECORD
  5
F8D
330
1
100
AcDbSymbolTableRecord
100
AcDbBlockTableRecord
  2
*D39
340
0
  0
BLOCK_RECORD
  5
F9B
330
1
100
AcDbSymbolTableRecord
100
AcDbBlockTableRecord
  2
*D40
340
0
  0
BLOCK_RECORD
  5
FA9
330
1
100
AcDbSymbolTableRecord
100
AcDbBlockTableRecord
  2
*D41
340
0
  0
BLOCK_RECORD
  5
FC6
330
1
100
AcDbSymbolTableRecord
100
AcDbBlockTableRecord
  2
*D42
340
0
  0
BLOCK_RECORD
  5
FD4
330
1
100
AcDbSymbolTableRecord
100
AcDbBlockTableRecord
  2
*D43
340
0
  0
BLOCK_RECORD
  5
FE1
330
1
100
AcDbSymbolTableRecord
100
AcDbBlockTableRecord
  2
*D44
340
0
  0
BLOCK_RECORD
  5
FEE
330
1
100
AcDbSymbolTableRecord
100
AcDbBlockTableRecord
  2
*D45
340
0
  0
BLOCK_RECORD
  5
FFB
330
1
100
AcDbSymbolTableRecord
100
AcDbBlockTableRecord
  2
*D46
340
0
  0
BLOCK_RECORD
  5
1008
330
1
100
AcDbSymbolTableRecord
100
AcDbBlockTableRecord
  2
*D47
340
0
  0
BLOCK_RECORD
  5
1015
330
1
100
AcDbSymbolTableRecord
100
AcDbBlockTableRecord
  2
*D48
340
0
  0
BLOCK_RECORD
  5
1022
330
1
100
AcDbSymbolTableRecord
100
AcDbBlockTableRecord
  2
*D49
340
0
  0
BLOCK_RECORD
  5
102F
330
1
100
AcDbSymbolTableRecord
100
AcDbBlockTableRecord
  2
*D50
340
0
  0
BLOCK_RECORD
  5
103C
330
1
100
AcDbSymbolTableRecord
100
AcDbBlockTableRecord
  2
*D51
340
0
  0
BLOCK_RECORD
  5
1049
330
1
100
AcDbSymbolTableRecord
100
AcDbBlockTableRecord
  2
*D52
340
0
  0
BLOCK_RECORD
  5
1056
330
1
100
AcDbSymbolTableRecord
100
AcDbBlockTableRecord
  2
*D53
340
0
  0
BLOCK_RECORD
  5
1063
330
1
100
AcDbSymbolTableRecord
100
AcDbBlockTableRecord
  2
*D54
340
0
  0
BLOCK_RECORD
  5
14A4
330
1
100
AcDbSymbolTableRecord
100
AcDbBlockTableRecord
  2
*D55
340
0
  0
BLOCK_RECORD
  5
14CB
330
1
100
AcDbSymbolTableRecord
100
AcDbBlockTableRecord
  2
HBS
340
0
102
{BLKREFS
331
14EC
102
}
  0
ENDTAB
  0
ENDSEC
  0
SECTION
  2
BLOCKS
  0
BLOCK
  5
7C
330
1E
100
AcDbEntity
  8
0
100
AcDbBlockBegin
  2
*Model_Space
 70
     0
 10
0.0
 20
0.0
 30
0.0
  3
*Model_Space
  1

  0
ENDBLK
  5
7D
330
1E
100
AcDbEntity
  8
0
100
AcDbBlockEnd
  0
BLOCK
  5
7A
330
1A
100
AcDbEntity
 67
     1
  8
0
100
AcDbBlockBegin
  2
*Paper_Space
 70
     0
 10
0.0
 20
0.0
 30
0.0
  3
*Paper_Space
  1

  0
ENDBLK
  5
7B
330
1A
100
AcDbEntity
 67
     1
  8
0
100
AcDbBlockEnd
  0
BLOCK
  5
D98
330
D8D
100
AcDbEntity
  8
0
100
AcDbBlockBegin
  2
*D0
 70
     1
 10
0.0
 20
0.0
 30
0.0
  3
*D0
  1

  0
LINE
  5
1A20
330
D8D
100
AcDbEntity
  8
DIM
 62
     0
370
    -2
100
AcDbLine
 10
33.75545041211373
 20
8.661885521773443
 30
0.0
 11
33.75545041211373
 21
8.573801878236201
 31
0.0
  0
LINE
  5
1A21
330
D8D
100
AcDbEntity
  8
DIM
 62
     0
370
    -2
100
AcDbLine
 10
33.87545041211374
 20
8.661885521773443
 30
0.0
 11
33.87545041211374
 21
8.573801878236201
 31
0.0
  0
LINE
  5
1A22
330
D8D
100
AcDbEntity
  8
DIM
 62
     0
370
    -2
100
AcDbLine
 10
33.30545041211372
 20
8.806301878236201
 30
0.0
 11
32.85545041211373
 21
8.806301878236201
 31
0.0
  0
LINE
  5
1A23
330
D8D
100
AcDbEntity
  8
DIM
 62
     0
370
    -2
100
AcDbLine
 10
34.32545041211374
 20
8.806301878236201
 30
0.0
 11
34.77545041211374
 21
8.806301878236201
 31
0.0
  0
SOLID
  5
1A24
330
D8D
100
AcDbEntity
  8
DIM
 62
     0
100
AcDbTrace
 10
33.30545041211372
 20
8.8813018782362
 30
0.0
 11
33.30545041211372
 21
8.731301878236202
 31
0.0
 12
33.75545041211373
 22
8.806301878236201
 32
0.0
 13
33.75545041211373
 23
8.806301878236201
 33
0.0
  0
SOLID
  5
1A25
330
D8D
100
AcDbEntity
  8
DIM
 62
     0
100
AcDbTrace
 10
34.32545041211374
 20
8.8813018782362
 30
0.0
 11
34.32545041211374
 21
8.731301878236202
 31
0.0
 12
33.87545041211374
 22
8.806301878236201
 32
0.0
 13
33.87545041211374
 23
8.806301878236201
 33
0.0
  0
MTEXT
  5
1A26
330
D8D
100
AcDbEntity
  8
DIM
 62
     0
100
AcDbMText
 10
35.39107541211374
 20
8.806301878236201
 30
0.0
 40
0.3125
 41
0.0
 71
     5
 72
     1
  1
\A1;0.120
 73
     1
 44
1.0
  0
POINT
  5
1A27
330
D8D
100
AcDbEntity
  8
DEFPOINTS
 62
     0
100
AcDbPoint
 10
33.75545041211373
 20
8.819385521773444
 30
0.0
  0
POINT
  5
1A28
330
D8D
100
AcDbEntity
  8
DEFPOINTS
 62
     0
100
AcDbPoint
 10
33.87545041211374
 20
8.819385521773444
 30
0.0
  0
POINT
  5
1A29
330
D8D
100
AcDbEntity
  8
DEFPOINTS
 62
     0
100
AcDbPoint
 10
33.87545041211374
 20
8.806301878236201
 30
0.0
  0
ENDBLK
  5
D99
330
D8D
100
AcDbEntity
  8
0
100
AcDbBlockEnd
  0
BLOCK
  5
DA5
330
D9A
100
AcDbEntity
  8
0
100
AcDbBlockBegin
  2
*D1
 70
     1
 10
0.0
 20
0.0
 30
0.0
  3
*D1
  1

  0
LINE
  5
1B15
330
D9A
100
AcDbEntity
  8
DIM
 62
     0
370
    -2
100
AcDbLine
 10
7.906284611796908
 20
7.207203600222572
 30
0.0
 11
3.559437486515147
 21
7.207203600222573
 31
0.0
  0
LINE
  5
1B16
330
D9A
100
AcDbEntity
  8
DIM
 62
     0
370
    -2
100
AcDbLine
 10
7.906284611796907
 20
13.74220360022256
 30
0.0
 11
3.559437486515148
 21
13.74220360022257
 31
0.0
  0
LINE
  5
1B17
330
D9A
100
AcDbEntity
  8
DIM
 62
     0
370
    -2
100
AcDbLine
 10
3.791937486515147
 20
7.657203600222573
 30
0.0
 11
3.791937486515147
 21
10.09345360022257
 31
0.0
  0
LINE
  5
1B18
330
D9A
100
AcDbEntity
  8
DIM
 62
     0
370
    -2
100
AcDbLine
 10
3.791937486515148
 20
13.29220360022257
 30
0.0
 11
3.791937486515147
 21
10.85595360022257
 31
0.0
  0
SOLID
  5
1B19
330
D9A
100
AcDbEntity
  8
DIM
 62
     0
100
AcDbTrace
 10
3.716937486515146
 20
7.657203600222573
 30
0.0
 11
3.866937486515147
 21
7.657203600222573
 31
0.0
 12
3.791937486515147
 22
7.207203600222573
 32
0.0
 13
3.791937486515147
 23
7.207203600222573
 33
0.0
  0
SOLID
  5
1B1A
330
D9A
100
AcDbEntity
  8
DIM
 62
     0
100
AcDbTrace
 10
3.716937486515148
 20
13.29220360022257
 30
0.0
 11
3.866937486515148
 21
13.29220360022257
 31
0.0
 12
3.791937486515148
 22
13.74220360022257
 32
0.0
 13
3.791937486515148
 23
13.74220360022257
 33
0.0
  0
MTEXT
  5
1B1B
330
D9A
100
AcDbEntity
  8
DIM
 62
     0
100
AcDbMText
 10
3.791937486515145
 20
10.47470360022257
 30
0.0
 40
0.3125
 41
0.0
 71
     5
 72
     1
  1
\A1;6.535
 73
     1
 44
1.0
  0
POINT
  5
1B1C
330
D9A
100
AcDbEntity
  8
DEFPOINTS
 62
     0
100
AcDbPoint
 10
8.063784611796908
 20
7.207203600222572
 30
0.0
  0
POINT
  5
1B1D
330
D9A
100
AcDbEntity
  8
DEFPOINTS
 62
     0
100
AcDbPoint
 10
8.063784611796908
 20
13.74220360022256
 30
0.0
  0
POINT
  5
1B1E
330
D9A
100
AcDbEntity
  8
DEFPOINTS
 62
     0
100
AcDbPoint
 10
3.791937486515148
 20
13.74220360022257
 30
0.0
  0
ENDBLK
  5
DA6
330
D9A
100
AcDbEntity
  8
0
100
AcDbBlockEnd
  0
BLOCK
  5
DB2
330
DA7
100
AcDbEntity
  8
0
100
AcDbBlockBegin
  2
*D2
 70
     1
 10
0.0
 20
0.0
 30
0.0
  3
*D2
  1

  0
LINE
  5
1A90
330
DA7
100
AcDbEntity
  8
DIM
 62
     0
370
    -2
100
AcDbLine
 10
11.6227846117969
 20
6.34945360022256
 30
0.0
 11
13.53521857914459
 21
6.34945360022256
 31
0.0
  0
LINE
  5
1A91
330
DA7
100
AcDbEntity
  8
DIM
 62
     0
370
    -2
100
AcDbLine
 10
11.6400346117969
 20
10.47470360022257
 30
0.0
 11
13.53521857914459
 21
10.47470360022256
 31
0.0
  0
LINE
  5
1A92
330
DA7
100
AcDbEntity
  8
DIM
 62
     0
370
    -2
100
AcDbLine
 10
13.30271857914459
 20
6.79945360022256
 30
0.0
 11
13.30271857914459
 21
8.030828600222564
 31
0.0
  0
LINE
  5
1A93
330
DA7
100
AcDbEntity
  8
DIM
 62
     0
370
    -2
100
AcDbLine
 10
13.30271857914459
 20
10.02470360022256
 30
0.0
 11
13.30271857914459
 21
8.793328600222563
 31
0.0
  0
SOLID
  5
1A94
330
DA7
100
AcDbEntity
  8
DIM
 62
     0
100
AcDbTrace
 10
13.22771857914459
 20
6.79945360022256
 30
0.0
 11
13.37771857914459
 21
6.79945360022256
 31
0.0
 12
13.30271857914459
 22
6.34945360022256
 32
0.0
 13
13.30271857914459
 23
6.34945360022256
 33
0.0
  0
SOLID
  5
1A95
330
DA7
100
AcDbEntity
  8
DIM
 62
     0
100
AcDbTrace
 10
13.22771857914459
 20
10.02470360022256
 30
0.0
 11
13.37771857914459
 21
10.02470360022256
 31
0.0
 12
13.30271857914459
 22
10.47470360022256
 32
0.0
 13
13.30271857914459
 23
10.47470360022256
 33
0.0
  0
MTEXT
  5
1A96
330
DA7
100
AcDbEntity
  8
DIM
 62
     0
100
AcDbMText
 10
13.30271857914459
 20
8.412078600222567
 30
0.0
 40
0.3125
 41
0.0
 71
     5
 72
     1
  1
\A1;4.125
 73
     1
 44
1.0
  0
POINT
  5
1A97
330
DA7
100
AcDbEntity
  8
DEFPOINTS
 62
     0
100
AcDbPoint
 10
11.4652846117969
 20
6.34945360022256
 30
0.0
  0
POINT
  5
1A98
330
DA7
100
AcDbEntity
  8
DEFPOINTS
 62
     0
100
AcDbPoint
 10
11.4825346117969
 20
10.47470360022257
 30
0.0
  0
POINT
  5
1A99
330
DA7
100
AcDbEntity
  8
DEFPOINTS
 62
     0
100
AcDbPoint
 10
13.30271857914459
 20
10.47470360022256
 30
0.0
  0
ENDBLK
  5
DB3
330
DA7
100
AcDbEntity
  8
0
100
AcDbBlockEnd
  0
BLOCK
  5
DBF
330
DB4
100
AcDbEntity
  8
0
100
AcDbBlockBegin
  2
*D3
 70
     1
 10
0.0
 20
0.0
 30
0.0
  3
*D3
  1

  0
LINE
  5
1A52
330
DB4
100
AcDbEntity
  8
DIM
 62
     0
370
    -2
100
AcDbLine
 10
11.6400346117969
 20
10.47470360022257
 30
0.0
 11
13.53521857914459
 21
10.47470360022256
 31
0.0
  0
LINE
  5
1A53
330
DB4
100
AcDbEntity
  8
DIM
 62
     0
370
    -2
100
AcDbLine
 10
11.6227846117969
 20
14.59995360022257
 30
0.0
 11
13.53521857914459
 21
14.59995360022257
 31
0.0
  0
LINE
  5
1A54
330
DB4
100
AcDbEntity
  8
DIM
 62
     0
370
    -2
100
AcDbLine
 10
13.30271857914459
 20
10.92470360022256
 30
0.0
 11
13.30271857914459
 21
12.15607860022257
 31
0.0
  0
LINE
  5
1A55
330
DB4
100
AcDbEntity
  8
DIM
 62
     0
370
    -2
100
AcDbLine
 10
13.30271857914459
 20
14.14995360022257
 30
0.0
 11
13.30271857914459
 21
12.91857860022257
 31
0.0
  0
SOLID
  5
1A56
330
DB4
100
AcDbEntity
  8
DIM
 62
     0
100
AcDbTrace
 10
13.22771857914459
 20
10.92470360022256
 30
0.0
 11
13.37771857914459
 21
10.92470360022256
 31
0.0
 12
13.30271857914459
 22
10.47470360022256
 32
0.0
 13
13.30271857914459
 23
10.47470360022256
 33
0.0
  0
SOLID
  5
1A57
330
DB4
100
AcDbEntity
  8
DIM
 62
     0
100
AcDbTrace
 10
13.22771857914459
 20
14.14995360022257
 30
0.0
 11
13.37771857914459
 21
14.14995360022257
 31
0.0
 12
13.30271857914459
 22
14.59995360022257
 32
0.0
 13
13.30271857914459
 23
14.59995360022257
 33
0.0
  0
MTEXT
  5
1A58
330
DB4
100
AcDbEntity
  8
DIM
 62
     0
100
AcDbMText
 10
13.30271857914459
 20
12.53732860022257
 30
0.0
 40
0.3125
 41
0.0
 71
     5
 72
     1
  1
\A1;4.125
 73
     1
 44
1.0
  0
POINT
  5
1A59
330
DB4
100
AcDbEntity
  8
DEFPOINTS
 62
     0
100
AcDbPoint
 10
11.4825346117969
 20
10.47470360022257
 30
0.0
  0
POINT
  5
1A5A
330
DB4
100
AcDbEntity
  8
DEFPOINTS
 62
     0
100
AcDbPoint
 10
11.4652846117969
 20
14.59995360022257
 30
0.0
  0
POINT
  5
1A5B
330
DB4
100
AcDbEntity
  8
DEFPOINTS
 62
     0
100
AcDbPoint
 10
13.30271857914459
 20
14.59995360022257
 30
0.0
  0
ENDBLK
  5
DC0
330
DB4
100
AcDbEntity
  8
0
100
AcDbBlockEnd
  0
BLOCK
  5
DCC
330
DC1
100
AcDbEntity
  8
0
100
AcDbBlockBegin
  2
*D4
 70
     1
 10
0.0
 20
0.0
 30
0.0
  3
*D4
  1

  0
LINE
  5
1A48
330
DC1
100
AcDbEntity
  8
DIM
 62
     0
370
    -2
100
AcDbLine
 10
11.2682846117969
 20
6.902203600222565
 30
0.0
 11
14.53457002123219
 21
6.902203600222565
 31
0.0
  0
LINE
  5
1A49
330
DC1
100
AcDbEntity
  8
DIM
 62
     0
370
    -2
100
AcDbLine
 10
11.2682846117969
 20
14.04720360022255
 30
0.0
 11
14.53457002123219
 21
14.04720360022255
 31
0.0
  0
LINE
  5
1A4A
330
DC1
100
AcDbEntity
  8
DIM
 62
     0
370
    -2
100
AcDbLine
 10
14.30207002123219
 20
7.352203600222565
 30
0.0
 11
14.30207002123219
 21
10.09345360022256
 31
0.0
  0
LINE
  5
1A4B
330
DC1
100
AcDbEntity
  8
DIM
 62
     0
370
    -2
100
AcDbLine
 10
14.30207002123219
 20
13.59720360022255
 30
0.0
 11
14.30207002123219
 21
10.85595360022256
 31
0.0
  0
SOLID
  5
1A4C
330
DC1
100
AcDbEntity
  8
DIM
 62
     0
100
AcDbTrace
 10
14.22707002123219
 20
7.352203600222565
 30
0.0
 11
14.37707002123219
 21
7.352203600222565
 31
0.0
 12
14.30207002123219
 22
6.902203600222565
 32
0.0
 13
14.30207002123219
 23
6.902203600222565
 33
0.0
  0
SOLID
  5
1A4D
330
DC1
100
AcDbEntity
  8
DIM
 62
     0
100
AcDbTrace
 10
14.22707002123219
 20
13.59720360022255
 30
0.0
 11
14.37707002123219
 21
13.59720360022255
 31
0.0
 12
14.30207002123219
 22
14.04720360022255
 32
0.0
 13
14.30207002123219
 23
14.04720360022255
 33
0.0
  0
MTEXT
  5
1A4E
330
DC1
100
AcDbEntity
  8
DIM
 62
     0
100
AcDbMText
 10
14.30207002123219
 20
10.47470360022256
 30
0.0
 40
0.3125
 41
0.0
 71
     5
 72
     1
  1
\A1;7.145
 73
     1
 44
1.0
  0
POINT
  5
1A4F
330
DC1
100
AcDbEntity
  8
DEFPOINTS
 62
     0
100
AcDbPoint
 10
11.1107846117969
 20
6.902203600222565
 30
0.0
  0
POINT
  5
1A50
330
DC1
100
AcDbEntity
  8
DEFPOINTS
 62
     0
100
AcDbPoint
 10
11.1107846117969
 20
14.04720360022255
 30
0.0
  0
POINT
  5
1A51
330
DC1
100
AcDbEntity
  8
DEFPOINTS
 62
     0
100
AcDbPoint
 10
14.30207002123219
 20
14.04720360022255
 30
0.0
  0
ENDBLK
  5
DCD
330
DC1
100
AcDbEntity
  8
0
100
AcDbBlockEnd
  0
BLOCK
  5
DD9
330
DCE
100
AcDbEntity
  8
0
100
AcDbBlockBegin
  2
*D5
 70
     1
 10
0.0
 20
0.0
 30
0.0
  3
*D5
  1

  0
LINE
  5
1BC1
330
DCE
100
AcDbEntity
  8
DIM
 62
     0
370
    -2
100
AcDbLine
 10
6.197284611796908
 20
14.75745360022258
 30
0.0
 11
6.197284611796908
 21
18.82078667315349
 31
0.0
  0
LINE
  5
1BC2
330
DCE
100
AcDbEntity
  8
DIM
 62
     0
370
    -2
100
AcDbLine
 10
5.961284611796909
 20
14.78345360022256
 30
0.0
 11
5.961284611796909
 21
18.82078667315349
 31
0.0
  0
LINE
  5
1BC3
330
DCE
100
AcDbEntity
  8
DIM
 62
     0
370
    -2
100
AcDbLine
 10
6.647284611796909
 20
18.58828667315349
 30
0.0
 11
7.097284611796908
 21
18.58828667315349
 31
0.0
  0
LINE
  5
1BC4
330
DCE
100
AcDbEntity
  8
DIM
 62
     0
370
    -2
100
AcDbLine
 10
5.511284611796908
 20
18.58828667315349
 30
0.0
 11
5.061284611796908
 21
18.58828667315349
 31
0.0
  0
SOLID
  5
1BC5
330
DCE
100
AcDbEntity
  8
DIM
 62
     0
100
AcDbTrace
 10
6.647284611796909
 20
18.66328667315349
 30
0.0
 11
6.647284611796909
 21
18.51328667315349
 31
0.0
 12
6.197284611796908
 22
18.58828667315349
 32
0.0
 13
6.197284611796908
 23
18.58828667315349
 33
0.0
  0
SOLID
  5
1BC6
330
DCE
100
AcDbEntity
  8
DIM
 62
     0
100
AcDbTrace
 10
5.511284611796908
 20
18.66328667315349
 30
0.0
 11
5.511284611796908
 21
18.51328667315349
 31
0.0
 12
5.961284611796909
 22
18.58828667315349
 32
0.0
 13
5.961284611796909
 23
18.58828667315349
 33
0.0
  0
MTEXT
  5
1BC7
330
DCE
100
AcDbEntity
  8
DIM
 62
     0
100
AcDbMText
 10
4.387065861796909
 20
18.58828667315349
 30
0.0
 40
0.3125
 41
0.0
 71
     5
 72
     1
  1
\A1;0.236
 73
     1
 44
1.0
  0
POINT
  5
1BC8
330
DCE
100
AcDbEntity
  8
DEFPOINTS
 62
     0
100
AcDbPoint
 10
6.197284611796908
 20
14.59995360022257
 30
0.0
  0
POINT
  5
1BC9
330
DCE
100
AcDbEntity
  8
DEFPOINTS
 62
     0
100
AcDbPoint
 10
5.961284611796909
 20
14.62595360022256
 30
0.0
  0
POINT
  5
1BCA
330
DCE
100
AcDbEntity
  8
DEFPOINTS
 62
     0
100
AcDbPoint
 10
5.961284611796909
 20
18.58828667315349
 30
0.0
  0
ENDBLK
  5
DDA
330
DCE
100
AcDbEntity
  8
0
100
AcDbBlockEnd
  0
BLOCK
  5
DE6
330
DDB
100
AcDbEntity
  8
0
100
AcDbBlockBegin
  2
*D6
 70
     1
 10
0.0
 20
0.0
 30
0.0
  3
*D6
  1

  0
LINE
  5
1BB7
330
DDB
100
AcDbEntity
  8
DIM
 62
     0
370
    -2
100
AcDbLine
 10
6.551284611796907
 20
14.74964110022257
 30
0.0
 11
6.551284611796907
 21
18.04286697271914
 31
0.0
  0
LINE
  5
1BB8
330
DDB
100
AcDbEntity
  8
DIM
 62
     0
370
    -2
100
AcDbLine
 10
5.961284611796909
 20
14.92520360022256
 30
0.0
 11
5.961284611796909
 21
18.04286697271914
 31
0.0
  0
LINE
  5
1BB9
330
DDB
100
AcDbEntity
  8
DIM
 62
     0
370
    -2
100
AcDbLine
 10
7.001284611796907
 20
17.81036697271914
 30
0.0
 11
7.451284611796907
 21
17.81036697271914
 31
0.0
  0
LINE
  5
1BBA
330
DDB
100
AcDbEntity
  8
DIM
 62
     0
370
    -2
100
AcDbLine
 10
5.511284611796908
 20
17.81036697271914
 30
0.0
 11
5.061284611796908
 21
17.81036697271914
 31
0.0
  0
SOLID
  5
1BBB
330
DDB
100
AcDbEntity
  8
DIM
 62
     0
100
AcDbTrace
 10
7.001284611796907
 20
17.88536697271914
 30
0.0
 11
7.001284611796907
 21
17.73536697271914
 31
0.0
 12
6.551284611796907
 22
17.81036697271914
 32
0.0
 13
6.551284611796907
 23
17.81036697271914
 33
0.0
  0
SOLID
  5
1BBC
330
DDB
100
AcDbEntity
  8
DIM
 62
     0
100
AcDbTrace
 10
5.511284611796908
 20
17.88536697271914
 30
0.0
 11
5.511284611796908
 21
17.73536697271914
 31
0.0
 12
5.961284611796909
 22
17.81036697271914
 32
0.0
 13
5.961284611796909
 23
17.81036697271914
 33
0.0
  0
MTEXT
  5
1BBD
330
DDB
100
AcDbEntity
  8
DIM
 62
     0
100
AcDbMText
 10
4.406597111796909
 20
17.81036697271914
 30
0.0
 40
0.3125
 41
0.0
 71
     5
 72
     1
  1
\A1;0.590
 73
     1
 44
1.0
  0
POINT
  5
1BBE
330
DDB
100
AcDbEntity
  8
DEFPOINTS
 62
     0
100
AcDbPoint
 10
6.551284611796907
 20
14.59214110022258
 30
0.0
  0
POINT
  5
1BBF
330
DDB
100
AcDbEntity
  8
DEFPOINTS
 62
     0
100
AcDbPoint
 10
5.961284611796909
 20
14.76770360022256
 30
0.0
  0
POINT
  5
1BC0
330
DDB
100
AcDbEntity
  8
DEFPOINTS
 62
     0
100
AcDbPoint
 10
5.961284611796909
 20
17.81036697271914
 30
0.0
  0
ENDBLK
  5
DE7
330
DDB
100
AcDbEntity
  8
0
100
AcDbBlockEnd
  0
BLOCK
  5
DF3
330
DE8
100
AcDbEntity
  8
0
100
AcDbBlockBegin
  2
*D7
 70
     1
 10
0.0
 20
0.0
 30
0.0
  3
*D7
  1

  0
LINE
  5
1BA3
330
DE8
100
AcDbEntity
  8
DIM
 62
     0
370
    -2
100
AcDbLine
 10
6.197284611796908
 20
14.75745360022258
 30
0.0
 11
6.197284611796908
 21
18.82078667315349
 31
0.0
  0
LINE
  5
1BA4
330
DE8
100
AcDbEntity
  8
DIM
 62
     0
370
    -2
100
AcDbLine
 10
11.4652846117969
 20
15.37939525622429
 30
0.0
 11
11.4652846117969
 21
18.82078667315349
 31
0.0
  0
LINE
  5
1BA5
330
DE8
100
AcDbEntity
  8
DIM
 62
     0
370
    -2
100
AcDbLine
 10
6.647284611796909
 20
18.58828667315349
 30
0.0
 11
8.137534611796908
 21
18.58828667315349
 31
0.0
  0
LINE
  5
1BA6
330
DE8
100
AcDbEntity
  8
DIM
 62
     0
370
    -2
100
AcDbLine
 10
11.0152846117969
 20
18.58828667315349
 30
0.0
 11
9.525034611796908
 21
18.58828667315349
 31
0.0
  0
SOLID
  5
1BA7
330
DE8
100
AcDbEntity
  8
DIM
 62
     0
100
AcDbTrace
 10
6.647284611796909
 20
18.66328667315349
 30
0.0
 11
6.647284611796909
 21
18.51328667315349
 31
0.0
 12
6.197284611796908
 22
18.58828667315349
 32
0.0
 13
6.197284611796908
 23
18.58828667315349
 33
0.0
  0
SOLID
  5
1BA8
330
DE8
100
AcDbEntity
  8
DIM
 62
     0
100
AcDbTrace
 10
11.0152846117969
 20
18.66328667315349
 30
0.0
 11
11.0152846117969
 21
18.51328667315349
 31
0.0
 12
11.4652846117969
 22
18.58828667315349
 32
0.0
 13
11.4652846117969
 23
18.58828667315349
 33
0.0
  0
MTEXT
  5
1BA9
330
DE8
100
AcDbEntity
  8
DIM
 62
     0
100
AcDbMText
 10
8.831284611796908
 20
18.58828667315349
 30
0.0
 40
0.3125
 41
0.0
 71
     5
 72
     1
  1
\A1;5.268
 73
     1
 44
1.0
  0
POINT
  5
1BAA
330
DE8
100
AcDbEntity
  8
DEFPOINTS
 62
     0
100
AcDbPoint
 10
6.197284611796908
 20
14.59995360022257
 30
0.0
  0
POINT
  5
1BAB
330
DE8
100
AcDbEntity
  8
DEFPOINTS
 62
     0
100
AcDbPoint
 10
11.4652846117969
 20
15.2218952562243
 30
0.0
  0
POINT
  5
1BAC
330
DE8
100
AcDbEntity
  8
DEFPOINTS
 62
     0
100
AcDbPoint
 10
11.4652846117969
 20
18.58828667315349
 30
0.0
  0
ENDBLK
  5
DF4
330
DE8
100
AcDbEntity
  8
0
100
AcDbBlockEnd
  0
BLOCK
  5
E00
330
DF5
100
AcDbEntity
  8
0
100
AcDbBlockBegin
  2
*D8
 70
     1
 10
0.0
 20
0.0
 30
0.0
  3
*D8
  1

  0
LINE
  5
1B99
330
DF5
100
AcDbEntity
  8
DIM
 62
     0
370
    -2
100
AcDbLine
 10
6.551284611796907
 20
14.74964110022257
 30
0.0
 11
6.551284611796907
 21
18.04286697271914
 31
0.0
  0
LINE
  5
1B9A
330
DF5
100
AcDbEntity
  8
DIM
 62
     0
370
    -2
100
AcDbLine
 10
11.1112846117969
 20
14.74964110022257
 30
0.0
 11
11.1112846117969
 21
18.04286697271914
 31
0.0
  0
LINE
  5
1B9B
330
DF5
100
AcDbEntity
  8
DIM
 62
     0
370
    -2
100
AcDbLine
 10
7.001284611796907
 20
17.81036697271914
 30
0.0
 11
8.157065861796906
 21
17.81036697271914
 31
0.0
  0
LINE
  5
1B9C
330
DF5
100
AcDbEntity
  8
DIM
 62
     0
370
    -2
100
AcDbLine
 10
10.6612846117969
 20
17.81036697271914
 30
0.0
 11
9.505503361796906
 21
17.81036697271914
 31
0.0
  0
SOLID
  5
1B9D
330
DF5
100
AcDbEntity
  8
DIM
 62
     0
100
AcDbTrace
 10
7.001284611796907
 20
17.88536697271914
 30
0.0
 11
7.001284611796907
 21
17.73536697271914
 31
0.0
 12
6.551284611796907
 22
17.81036697271914
 32
0.0
 13
6.551284611796907
 23
17.81036697271914
 33
0.0
  0
SOLID
  5
1B9E
330
DF5
100
AcDbEntity
  8
DIM
 62
     0
100
AcDbTrace
 10
10.6612846117969
 20
17.88536697271914
 30
0.0
 11
10.6612846117969
 21
17.73536697271914
 31
0.0
 12
11.1112846117969
 22
17.81036697271914
 32
0.0
 13
11.1112846117969
 23
17.81036697271914
 33
0.0
  0
MTEXT
  5
1B9F
330
DF5
100
AcDbEntity
  8
DIM
 62
     0
100
AcDbMText
 10
8.831284611796906
 20
17.81036697271914
 30
0.0
 40
0.3125
 41
0.0
 71
     5
 72
     1
  1
\A1;4.560
 73
     1
 44
1.0
  0
POINT
  5
1BA0
330
DF5
100
AcDbEntity
  8
DEFPOINTS
 62
     0
100
AcDbPoint
 10
6.551284611796907
 20
14.59214110022258
 30
0.0
  0
POINT
  5
1BA1
330
DF5
100
AcDbEntity
  8
DEFPOINTS
 62
     0
100
AcDbPoint
 10
11.1112846117969
 20
14.59214110022258
 30
0.0
  0
POINT
  5
1BA2
330
DF5
100
AcDbEntity
  8
DEFPOINTS
 62
     0
100
AcDbPoint
 10
11.1112846117969
 20
17.81036697271914
 30
0.0
  0
ENDBLK
  5
E01
330
DF5
100
AcDbEntity
  8
0
100
AcDbBlockEnd
  0
BLOCK
  5
E0D
330
E02
100
AcDbEntity
  8
0
100
AcDbBlockBegin
  2
*D9
 70
     1
 10
0.0
 20
0.0
 30
0.0
  3
*D9
  1

  0
LINE
  5
1B8F
330
E02
100
AcDbEntity
  8
DIM
 62
     0
370
    -2
100
AcDbLine
 10
5.961284611796909
 20
14.78345360022256
 30
0.0
 11
5.961284611796909
 21
19.47457828609734
 31
0.0
  0
LINE
  5
1B90
330
E02
100
AcDbEntity
  8
DIM
 62
     0
370
    -2
100
AcDbLine
 10
11.7012846117969
 20
14.78345360022256
 30
0.0
 11
11.7012846117969
 21
19.47457828609734
 31
0.0
  0
LINE
  5
1B91
330
E02
100
AcDbEntity
  8
DIM
 62
     0
370
    -2
100
AcDbLine
 10
6.411284611796909
 20
19.24207828609733
 30
0.0
 11
8.157065861796908
 21
19.24207828609733
 31
0.0
  0
LINE
  5
1B92
330
E02
100
AcDbEntity
  8
DIM
 62
     0
370
    -2
100
AcDbLine
 10
11.2512846117969
 20
19.24207828609733
 30
0.0
 11
9.505503361796908
 21
19.24207828609733
 31
0.0
  0
SOLID
  5
1B93
330
E02
100
AcDbEntity
  8
DIM
 62
     0
100
AcDbTrace
 10
6.411284611796909
 20
19.31707828609734
 30
0.0
 11
6.411284611796909
 21
19.16707828609734
 31
0.0
 12
5.961284611796909
 22
19.24207828609733
 32
0.0
 13
5.961284611796909
 23
19.24207828609733
 33
0.0
  0
SOLID
  5
1B94
330
E02
100
AcDbEntity
  8
DIM
 62
     0
100
AcDbTrace
 10
11.2512846117969
 20
19.31707828609734
 30
0.0
 11
11.2512846117969
 21
19.16707828609734
 31
0.0
 12
11.7012846117969
 22
19.24207828609733
 32
0.0
 13
11.7012846117969
 23
19.24207828609733
 33
0.0
  0
MTEXT
  5
1B95
330
E02
100
AcDbEntity
  8
DIM
 62
     0
100
AcDbMText
 10
8.831284611796908
 20
19.24207828609733
 30
0.0
 40
0.3125
 41
0.0
 71
     5
 72
     1
  1
\A1;5.740
 73
     1
 44
1.0
  0
POINT
  5
1B96
330
E02
100
AcDbEntity
  8
DEFPOINTS
 62
     0
100
AcDbPoint
 10
5.961284611796909
 20
14.62595360022256
 30
0.0
  0
POINT
  5
1B97
330
E02
100
AcDbEntity
  8
DEFPOINTS
 62
     0
100
AcDbPoint
 10
11.7012846117969
 20
14.62595360022256
 30
0.0
  0
POINT
  5
1B98
330
E02
100
AcDbEntity
  8
DEFPOINTS
 62
     0
100
AcDbPoint
 10
11.7012846117969
 20
19.24207828609733
 30
0.0
  0
ENDBLK
  5
E0E
330
E02
100
AcDbEntity
  8
0
100
AcDbBlockEnd
  0
BLOCK
  5
E1A
330
E0F
100
AcDbEntity
  8
0
100
AcDbBlockBegin
  2
*D10
 70
     1
 10
0.0
 20
0.0
 30
0.0
  3
*D10
  1

  0
LINE
  5
1B71
330
E0F
100
AcDbEntity
  8
DIM
 62
     0
370
    -2
100
AcDbLine
 10
6.136284611796908
 20
12.38570360022256
 30
0.0
 11
6.136284611796908
 21
11.63706682882465
 31
0.0
  0
LINE
  5
1B72
330
E0F
100
AcDbEntity
  8
DIM
 62
     0
370
    -2
100
AcDbLine
 10
5.961284611796909
 20
12.02706682882465
 30
0.0
 11
5.961284611796909
 21
12.10206682882465
 31
0.0
  0
LINE
  5
1B73
330
E0F
100
AcDbEntity
  8
DIM
 62
     0
370
    -2
100
AcDbLine
 10
6.586284611796909
 20
11.86956682882465
 30
0.0
 11
7.036284611796908
 21
11.86956682882465
 31
0.0
  0
LINE
  5
1B74
330
E0F
100
AcDbEntity
  8
DIM
 62
     0
370
    -2
100
AcDbLine
 10
5.511284611796908
 20
11.86956682882465
 30
0.0
 11
5.061284611796908
 21
11.86956682882465
 31
0.0
  0
SOLID
  5
1B75
330
E0F
100
AcDbEntity
  8
DIM
 62
     0
100
AcDbTrace
 10
6.586284611796909
 20
11.94456682882464
 30
0.0
 11
6.586284611796909
 21
11.79456682882465
 31
0.0
 12
6.136284611796908
 22
11.86956682882465
 32
0.0
 13
6.136284611796908
 23
11.86956682882465
 33
0.0
  0
SOLID
  5
1B76
330
E0F
100
AcDbEntity
  8
DIM
 62
     0
100
AcDbTrace
 10
5.511284611796908
 20
11.94456682882464
 30
0.0
 11
5.511284611796908
 21
11.79456682882465
 31
0.0
 12
5.961284611796909
 22
11.86956682882465
 32
0.0
 13
5.961284611796909
 23
11.86956682882465
 33
0.0
  0
MTEXT
  5
1B77
330
E0F
100
AcDbEntity
  8
DIM
 62
     0
100
AcDbMText
 10
4.426128361796909
 20
11.86956682882465
 30
0.0
 40
0.3125
 41
0.0
 71
     5
 72
     1
  1
\A1;0.175
 73
     1
 44
1.0
  0
POINT
  5
1B78
330
E0F
100
AcDbEntity
  8
DEFPOINTS
 62
     0
100
AcDbPoint
 10
6.136284611796908
 20
12.54320360022256
 30
0.0
  0
POINT
  5
1B79
330
E0F
100
AcDbEntity
  8
DEFPOINTS
 62
     0
100
AcDbPoint
 10
5.961284611796909
 20
11.86956682882465
 30
0.0
  0
POINT
  5
1B7A
330
E0F
100
AcDbEntity
  8
DEFPOINTS
 62
     0
100
AcDbPoint
 10
5.961284611796909
 20
11.86956682882465
 30
0.0
  0
ENDBLK
  5
E1B
330
E0F
100
AcDbEntity
  8
0
100
AcDbBlockEnd
  0
BLOCK
  5
E27
330
E1C
100
AcDbEntity
  8
0
100
AcDbBlockBegin
  2
*D11
 70
     1
 10
0.0
 20
0.0
 30
0.0
  3
*D11
  1

  0
LINE
  5
1B1F
330
E1C
100
AcDbEntity
  8
DIM
 62
     0
370
    -2
100
AcDbLine
 10
11.5262846117969
 20
12.38570360022256
 30
0.0
 11
11.5262846117969
 21
11.63706682882465
 31
0.0
  0
LINE
  5
1B20
330
E1C
100
AcDbEntity
  8
DIM
 62
     0
370
    -2
100
AcDbLine
 10
6.136284611796908
 20
12.38570360022256
 30
0.0
 11
6.136284611796908
 21
11.63706682882465
 31
0.0
  0
LINE
  5
1B21
330
E1C
100
AcDbEntity
  8
DIM
 62
     0
370
    -2
100
AcDbLine
 10
11.0762846117969
 20
11.86956682882465
 30
0.0
 11
9.162998285660213
 21
11.86956682882465
 31
0.0
  0
LINE
  5
1B22
330
E1C
100
AcDbEntity
  8
DIM
 62
     0
370
    -2
100
AcDbLine
 10
6.586284611796909
 20
11.86956682882465
 30
0.0
 11
7.814560785660214
 21
11.86956682882465
 31
0.0
  0
SOLID
  5
1B23
330
E1C
100
AcDbEntity
  8
DIM
 62
     0
100
AcDbTrace
 10
11.0762846117969
 20
11.94456682882464
 30
0.0
 11
11.0762846117969
 21
11.79456682882465
 31
0.0
 12
11.5262846117969
 22
11.86956682882465
 32
0.0
 13
11.5262846117969
 23
11.86956682882465
 33
0.0
  0
SOLID
  5
1B24
330
E1C
100
AcDbEntity
  8
DIM
 62
     0
100
AcDbTrace
 10
6.586284611796909
 20
11.94456682882464
 30
0.0
 11
6.586284611796909
 21
11.79456682882465
 31
0.0
 12
6.136284611796908
 22
11.86956682882465
 32
0.0
 13
6.136284611796908
 23
11.86956682882465
 33
0.0
  0
MTEXT
  5
1B25
330
E1C
100
AcDbEntity
  8
DIM
 62
     0
100
AcDbMText
 10
8.488779535660214
 20
11.86956682882465
 30
0.0
 40
0.3125
 41
0.0
 71
     5
 72
     1
  1
\A1;5.390
 73
     1
 44
1.0
  0
POINT
  5
1B26
330
E1C
100
AcDbEntity
  8
DEFPOINTS
 62
     0
100
AcDbPoint
 10
11.5262846117969
 20
12.54320360022256
 30
0.0
  0
POINT
  5
1B27
330
E1C
100
AcDbEntity
  8
DEFPOINTS
 62
     0
100
AcDbPoint
 10
6.136284611796908
 20
12.54320360022256
 30
0.0
  0
POINT
  5
1B28
330
E1C
100
AcDbEntity
  8
DEFPOINTS
 62
     0
100
AcDbPoint
 10
6.136284611796908
 20
11.86956682882465
 30
0.0
  0
ENDBLK
  5
E28
330
E1C
100
AcDbEntity
  8
0
100
AcDbBlockEnd
  0
BLOCK
  5
E34
330
E29
100
AcDbEntity
  8
0
100
AcDbBlockBegin
  2
*D12
 70
     1
 10
0.0
 20
0.0
 30
0.0
  3
*D12
  1

  0
LINE
  5
1BCB
330
E29
100
AcDbEntity
  8
DIM
 62
     0
370
    -2
100
AcDbLine
 10
5.961284611796909
 20
15.06695360022256
 30
0.0
 11
5.961284611796909
 21
15.79724740383213
 31
0.0
  0
LINE
  5
1BCC
330
E29
100
AcDbEntity
  8
DIM
 62
     0
370
    -2
100
AcDbLine
 10
8.063784611796908
 20
13.89970360022257
 30
0.0
 11
8.063784611796908
 21
15.79724740383213
 31
0.0
  0
LINE
  5
1BCD
330
E29
100
AcDbEntity
  8
DIM
 62
     0
370
    -2
100
AcDbLine
 10
5.511284611796908
 20
15.56474740383213
 30
0.0
 11
5.061284611796908
 21
15.56474740383213
 31
0.0
  0
LINE
  5
1BCE
330
E29
100
AcDbEntity
  8
DIM
 62
     0
370
    -2
100
AcDbLine
 10
8.513784611796907
 20
15.56474740383213
 30
0.0
 11
8.963784611796908
 21
15.56474740383213
 31
0.0
  0
SOLID
  5
1BCF
330
E29
100
AcDbEntity
  8
DIM
 62
     0
100
AcDbTrace
 10
5.511284611796908
 20
15.63974740383214
 30
0.0
 11
5.511284611796908
 21
15.48974740383214
 31
0.0
 12
5.961284611796909
 22
15.56474740383213
 32
0.0
 13
5.961284611796909
 23
15.56474740383213
 33
0.0
  0
SOLID
  5
1BD0
330
E29
100
AcDbEntity
  8
DIM
 62
     0
100
AcDbTrace
 10
8.513784611796907
 20
15.63974740383214
 30
0.0
 11
8.513784611796907
 21
15.48974740383214
 31
0.0
 12
8.063784611796908
 22
15.56474740383213
 32
0.0
 13
8.063784611796908
 23
15.56474740383213
 33
0.0
  0
MTEXT
  5
1BD1
330
E29
100
AcDbEntity
  8
DIM
 62
     0
100
AcDbMText
 10
7.012534611796908
 20
15.56474740383213
 30
0.0
 40
0.3125
 41
0.0
 71
     5
 72
     1
  1
\A1;     
 73
     1
 44
1.0
  0
POINT
  5
1BD2
330
E29
100
AcDbEntity
  8
DEFPOINTS
 62
     0
100
AcDbPoint
 10
5.961284611796909
 20
14.90945360022256
 30
0.0
  0
POINT
  5
1BD3
330
E29
100
AcDbEntity
  8
DEFPOINTS
 62
     0
100
AcDbPoint
 10
8.063784611796908
 20
13.74220360022256
 30
0.0
  0
POINT
  5
1BD4
330
E29
100
AcDbEntity
  8
DEFPOINTS
 62
     0
100
AcDbPoint
 10
8.063784611796908
 20
15.56474740383213
 30
0.0
  0
ENDBLK
  5
E35
330
E29
100
AcDbEntity
  8
0
100
AcDbBlockEnd
  0
BLOCK
  5
E41
330
E36
100
AcDbEntity
  8
0
100
AcDbBlockBegin
  2
*D13
 70
     1
 10
0.0
 20
0.0
 30
0.0
  3
*D13
  1

  0
LINE
  5
1A9A
330
E36
100
AcDbEntity
  8
DIM
 62
     0
370
    -2
100
AcDbLine
 10
11.7817846117969
 20
6.10470360022257
 30
0.0
 11
12.61274032490987
 21
6.10470360022257
 31
0.0
  0
LINE
  5
1A9B
330
E36
100
AcDbEntity
  8
DIM
 62
     0
370
    -2
100
AcDbLine
 10
11.92001395238092
 20
8.312453600222569
 30
0.0
 11
12.61274032490987
 21
8.312453600222568
 31
0.0
  0
LINE
  5
1A9C
330
E36
100
AcDbEntity
  8
DIM
 62
     0
370
    -2
100
AcDbLine
 10
12.38024032490987
 20
6.55470360022257
 30
0.0
 11
12.38024032490987
 21
6.827328600222569
 31
0.0
  0
LINE
  5
1A9D
330
E36
100
AcDbEntity
  8
DIM
 62
     0
370
    -2
100
AcDbLine
 10
12.38024032490987
 20
7.862453600222568
 30
0.0
 11
12.38024032490987
 21
7.589828600222569
 31
0.0
  0
SOLID
  5
1A9E
330
E36
100
AcDbEntity
  8
DIM
 62
     0
100
AcDbTrace
 10
12.30524032490987
 20
6.55470360022257
 30
0.0
 11
12.45524032490987
 21
6.55470360022257
 31
0.0
 12
12.38024032490987
 22
6.10470360022257
 32
0.0
 13
12.38024032490987
 23
6.10470360022257
 33
0.0
  0
SOLID
  5
1A9F
330
E36
100
AcDbEntity
  8
DIM
 62
     0
100
AcDbTrace
 10
12.30524032490987
 20
7.862453600222568
 30
0.0
 11
12.45524032490987
 21
7.862453600222568
 31
0.0
 12
12.38024032490987
 22
8.312453600222568
 32
0.0
 13
12.38024032490987
 23
8.312453600222568
 33
0.0
  0
MTEXT
  5
1AA0
330
E36
100
AcDbEntity
  8
DIM
 62
     0
100
AcDbMText
 10
12.38024032490987
 20
7.208578600222571
 30
0.0
 40
0.3125
 41
0.0
 71
     5
 72
     1
  1
\A1;2.208
 73
     1
 44
1.0
  0
POINT
  5
1AA1
330
E36
100
AcDbEntity
  8
DEFPOINTS
 62
     0
100
AcDbPoint
 10
11.6242846117969
 20
6.10470360022257
 30
0.0
  0
POINT
  5
1AA2
330
E36
100
AcDbEntity
  8
DEFPOINTS
 62
     0
100
AcDbPoint
 10
11.76251395238092
 20
8.312453600222569
 30
0.0
  0
POINT
  5
1AA3
330
E36
100
AcDbEntity
  8
DEFPOINTS
 62
     0
100
AcDbPoint
 10
12.38024032490987
 20
8.312453600222568
 30
0.0
  0
ENDBLK
  5
E42
330
E36
100
AcDbEntity
  8
0
100
AcDbBlockEnd
  0
BLOCK
  5
E4E
330
E43
100
AcDbEntity
  8
0
100
AcDbBlockBegin
  2
*D14
 70
     1
 10
0.0
 20
0.0
 30
0.0
  3
*D14
  1

  0
LINE
  5
1A86
330
E43
100
AcDbEntity
  8
DIM
 62
     0
370
    -2
100
AcDbLine
 10
11.92001395238092
 20
8.312453600222569
 30
0.0
 11
12.61274032490987
 21
8.312453600222568
 31
0.0
  0
LINE
  5
1A87
330
E43
100
AcDbEntity
  8
DIM
 62
     0
370
    -2
100
AcDbLine
 10
11.92001395238092
 20
12.63695360022256
 30
0.0
 11
12.61274032490988
 21
12.63695360022256
 31
0.0
  0
LINE
  5
1A88
330
E43
100
AcDbEntity
  8
DIM
 62
     0
370
    -2
100
AcDbLine
 10
12.38024032490987
 20
8.762453600222567
 30
0.0
 11
12.38024032490987
 21
10.47470360022256
 31
0.0
  0
LINE
  5
1A89
330
E43
100
AcDbEntity
  8
DIM
 62
     0
370
    -2
100
AcDbLine
 10
12.38024032490988
 20
12.18695360022256
 30
0.0
 11
12.38024032490987
 21
11.23720360022256
 31
0.0
  0
SOLID
  5
1A8A
330
E43
100
AcDbEntity
  8
DIM
 62
     0
100
AcDbTrace
 10
12.30524032490988
 20
8.762453600222567
 30
0.0
 11
12.45524032490987
 21
8.762453600222567
 31
0.0
 12
12.38024032490987
 22
8.312453600222568
 32
0.0
 13
12.38024032490987
 23
8.312453600222568
 33
0.0
  0
SOLID
  5
1A8B
330
E43
100
AcDbEntity
  8
DIM
 62
     0
100
AcDbTrace
 10
12.30524032490988
 20
12.18695360022256
 30
0.0
 11
12.45524032490988
 21
12.18695360022256
 31
0.0
 12
12.38024032490988
 22
12.63695360022256
 32
0.0
 13
12.38024032490988
 23
12.63695360022256
 33
0.0
  0
MTEXT
  5
1A8C
330
E43
100
AcDbEntity
  8
DIM
 62
     0
100
AcDbMText
 10
12.38024032490987
 20
10.85595360022256
 30
0.0
 40
0.3125
 41
0.0
 71
     5
 72
     1
  1
\A1;4.325
 73
     1
 44
1.0
  0
POINT
  5
1A8D
330
E43
100
AcDbEntity
  8
DEFPOINTS
 62
     0
100
AcDbPoint
 10
11.76251395238092
 20
8.312453600222569
 30
0.0
  0
POINT
  5
1A8E
330
E43
100
AcDbEntity
  8
DEFPOINTS
 62
     0
100
AcDbPoint
 10
11.76251395238092
 20
12.63695360022256
 30
0.0
  0
POINT
  5
1A8F
330
E43
100
AcDbEntity
  8
DEFPOINTS
 62
     0
100
AcDbPoint
 10
12.38024032490988
 20
12.63695360022256
 30
0.0
  0
ENDBLK
  5
E4F
330
E43
100
AcDbEntity
  8
0
100
AcDbBlockEnd
  0
BLOCK
  5
E5B
330
E50
100
AcDbEntity
  8
0
100
AcDbBlockBegin
  2
*D15
 70
     1
 10
0.0
 20
0.0
 30
0.0
  3
*D15
  1

  0
LINE
  5
1B0B
330
E50
100
AcDbEntity
  8
DIM
 62
     0
370
    -2
100
AcDbLine
 10
5.880784611796911
 20
6.104703600222567
 30
0.0
 11
1.02249103120388
 21
6.104703600222568
 31
0.0
  0
LINE
  5
1B0C
330
E50
100
AcDbEntity
  8
DIM
 62
     0
370
    -2
100
AcDbLine
 10
6.022534611796907
 20
14.84470360022256
 30
0.0
 11
1.022491031203882
 21
14.84470360022256
 31
0.0
  0
LINE
  5
1B0D
330
E50
100
AcDbEntity
  8
DIM
 62
     0
370
    -2
100
AcDbLine
 10
1.25499103120388
 20
6.554703600222568
 30
0.0
 11
1.254991031203881
 21
10.09345360022256
 31
0.0
  0
LINE
  5
1B0E
330
E50
100
AcDbEntity
  8
DIM
 62
     0
370
    -2
100
AcDbLine
 10
1.254991031203882
 20
14.39470360022256
 30
0.0
 11
1.254991031203881
 21
10.85595360022256
 31
0.0
  0
SOLID
  5
1B0F
330
E50
100
AcDbEntity
  8
DIM
 62
     0
100
AcDbTrace
 10
1.17999103120388
 20
6.554703600222568
 30
0.0
 11
1.32999103120388
 21
6.554703600222568
 31
0.0
 12
1.25499103120388
 22
6.104703600222568
 32
0.0
 13
1.25499103120388
 23
6.104703600222568
 33
0.0
  0
SOLID
  5
1B10
330
E50
100
AcDbEntity
  8
DIM
 62
     0
100
AcDbTrace
 10
1.179991031203882
 20
14.39470360022256
 30
0.0
 11
1.329991031203882
 21
14.39470360022256
 31
0.0
 12
1.254991031203882
 22
14.84470360022256
 32
0.0
 13
1.254991031203882
 23
14.84470360022256
 33
0.0
  0
MTEXT
  5
1B11
330
E50
100
AcDbEntity
  8
DIM
 62
     0
100
AcDbMText
 10
1.254991031203879
 20
10.47470360022256
 30
0.0
 40
0.3125
 41
0.0
 71
     5
 72
     1
  1
\A1;8.740
 73
     1
 44
1.0
  0
POINT
  5
1B12
330
E50
100
AcDbEntity
  8
DEFPOINTS
 62
     0
100
AcDbPoint
 10
6.03828461179691
 20
6.104703600222566
 30
0.0
  0
POINT
  5
1B13
330
E50
100
AcDbEntity
  8
DEFPOINTS
 62
     0
100
AcDbPoint
 10
6.180034611796907
 20
14.84470360022256
 30
0.0
  0
POINT
  5
1B14
330
E50
100
AcDbEntity
  8
DEFPOINTS
 62
     0
100
AcDbPoint
 10
1.254991031203882
 20
14.84470360022256
 30
0.0
  0
ENDBLK
  5
E5C
330
E50
100
AcDbEntity
  8
0
100
AcDbBlockEnd
  0
BLOCK
  5
E68
330
E5D
100
AcDbEntity
  8
0
100
AcDbBlockBegin
  2
*D16
 70
     1
 10
0.0
 20
0.0
 30
0.0
  3
*D16
  1

  0
LINE
  5
1B01
330
E5D
100
AcDbEntity
  8
DIM
 62
     0
370
    -2
100
AcDbLine
 10
9.082534611796909
 20
14.66370360022255
 30
0.0
 11
9.384518441802871
 21
14.66370360022255
 31
0.0
  0
LINE
  5
1B02
330
E5D
100
AcDbEntity
  8
DIM
 62
     0
370
    -2
100
AcDbLine
 10
9.082534611796909
 20
6.285703600222568
 30
0.0
 11
9.384518441802869
 21
6.285703600222568
 31
0.0
  0
LINE
  5
1B03
330
E5D
100
AcDbEntity
  8
DIM
 62
     0
370
    -2
100
AcDbLine
 10
9.152018441802871
 20
14.21370360022256
 30
0.0
 11
9.152018441802869
 21
10.85595360022256
 31
0.0
  0
LINE
  5
1B04
330
E5D
100
AcDbEntity
  8
DIM
 62
     0
370
    -2
100
AcDbLine
 10
9.152018441802869
 20
6.735703600222568
 30
0.0
 11
9.152018441802869
 21
10.09345360022256
 31
0.0
  0
SOLID
  5
1B05
330
E5D
100
AcDbEntity
  8
DIM
 62
     0
100
AcDbTrace
 10
9.077018441802872
 20
14.21370360022256
 30
0.0
 11
9.22701844180287
 21
14.21370360022256
 31
0.0
 12
9.152018441802871
 22
14.66370360022255
 32
0.0
 13
9.152018441802871
 23
14.66370360022255
 33
0.0
  0
SOLID
  5
1B06
330
E5D
100
AcDbEntity
  8
DIM
 62
     0
100
AcDbTrace
 10
9.07701844180287
 20
6.735703600222568
 30
0.0
 11
9.227018441802869
 21
6.735703600222568
 31
0.0
 12
9.152018441802869
 22
6.285703600222568
 32
0.0
 13
9.152018441802869
 23
6.285703600222568
 33
0.0
  0
MTEXT
  5
1B07
330
E5D
100
AcDbEntity
  8
DIM
 62
     0
100
AcDbMText
 10
9.152018441802868
 20
10.47470360022256
 30
0.0
 40
0.3125
 41
0.0
 71
     5
 72
     1
  1
\A1;8.378
 73
     1
 44
1.0
  0
POINT
  5
1B08
330
E5D
100
AcDbEntity
  8
DEFPOINTS
 62
     0
100
AcDbPoint
 10
8.925034611796908
 20
14.66370360022255
 30
0.0
  0
POINT
  5
1B09
330
E5D
100
AcDbEntity
  8
DEFPOINTS
 62
     0
100
AcDbPoint
 10
8.925034611796908
 20
6.285703600222568
 30
0.0
  0
POINT
  5
1B0A
330
E5D
100
AcDbEntity
  8
DEFPOINTS
 62
     0
100
AcDbPoint
 10
9.152018441802869
 20
6.285703600222568
 30
0.0
  0
ENDBLK
  5
E69
330
E5D
100
AcDbEntity
  8
0
100
AcDbBlockEnd
  0
BLOCK
  5
E76
330
E6A
100
AcDbEntity
  8
0
100
AcDbBlockBegin
  2
*D17
 70
     1
 10
0.0
 20
0.0
 30
0.0
  3
*D17
  1

  0
LINE
  5
1B33
330
E6A
100
AcDbEntity
  8
DIM
 62
     0
370
    -2
100
AcDbLine
 10
9.082534611796909
 20
6.285703600222568
 30
0.0
 11
9.384518441802869
 21
6.285703600222568
 31
0.0
  0
LINE
  5
1B34
330
E6A
100
AcDbEntity
  8
DIM
 62
     0
370
    -2
100
AcDbLine
 10
9.022902388087015
 20
6.10470360022257
 30
0.0
 11
8.919518441802869
 21
6.10470360022257
 31
0.0
  0
LINE
  5
1B35
330
E6A
100
AcDbEntity
  8
DIM
 62
     0
370
    -2
100
AcDbLine
 10
9.152018441802869
 20
6.735703600222568
 30
0.0
 11
9.152018441802869
 21
7.185703600222568
 31
0.0
  0
LINE
  5
1B36
330
E6A
100
AcDbEntity
  8
DIM
 62
     0
370
    -2
100
AcDbLine
 10
9.152018441802869
 20
5.654703600222569
 30
0.0
 11
9.152018441802869
 21
5.20470360022257
 31
0.0
  0
LINE
  5
1B37
330
E6A
100
AcDbEntity
  8
DIM
 62
     0
370
    -2
100
AcDbLine
 10
9.152018441802869
 20
5.20470360022257
 30
0.0
 11
8.70201844180287
 21
5.20470360022257
 31
0.0
  0
SOLID
  5
1B38
330
E6A
100
AcDbEntity
  8
DIM
 62
     0
100
AcDbTrace
 10
9.07701844180287
 20
6.735703600222568
 30
0.0
 11
9.227018441802869
 21
6.735703600222568
 31
0.0
 12
9.152018441802869
 22
6.285703600222568
 32
0.0
 13
9.152018441802869
 23
6.285703600222568
 33
0.0
  0
SOLID
  5
1B39
330
E6A
100
AcDbEntity
  8
DIM
 62
     0
100
AcDbTrace
 10
9.07701844180287
 20
5.654703600222569
 30
0.0
 11
9.227018441802869
 21
5.654703600222569
 31
0.0
 12
9.152018441802869
 22
6.10470360022257
 32
0.0
 13
9.152018441802869
 23
6.10470360022257
 33
0.0
  0
MTEXT
  5
1B3A
330
E6A
100
AcDbEntity
  8
DIM
 62
     0
100
AcDbMText
 10
8.105924691802869
 20
5.204703600222571
 30
0.0
 40
0.3125
 41
0.0
 71
     5
 72
     1
  1
\A1;0.181
 73
     1
 44
1.0
  0
POINT
  5
1B3B
330
E6A
100
AcDbEntity
  8
DEFPOINTS
 62
     0
100
AcDbPoint
 10
8.925034611796908
 20
6.285703600222568
 30
0.0
  0
POINT
  5
1B3C
330
E6A
100
AcDbEntity
  8
DEFPOINTS
 62
     0
100
AcDbPoint
 10
9.180402388087015
 20
6.10470360022257
 30
0.0
  0
POINT
  5
1B3D
330
E6A
100
AcDbEntity
  8
DEFPOINTS
 62
     0
100
AcDbPoint
 10
9.152018441802869
 20
6.10470360022257
 30
0.0
  0
ENDBLK
  5
E77
330
E6A
100
AcDbEntity
  8
0
100
AcDbBlockEnd
  0
BLOCK
  5
E84
330
E78
100
AcDbEntity
  8
0
100
AcDbBlockBegin
  2
*D18
 70
     1
 10
0.0
 20
0.0
 30
0.0
  3
*D18
  1

  0
LINE
  5
1A70
330
E78
100
AcDbEntity
  8
DIM
 62
     0
370
    -2
100
AcDbLine
 10
17.40158298671766
 20
8.268703600222568
 30
0.0
 11
16.88003271007704
 21
8.268703600222568
 31
0.0
  0
LINE
  5
1A71
330
E78
100
AcDbEntity
  8
DIM
 62
     0
370
    -2
100
AcDbLine
 10
17.40158298671766
 20
8.218703600222569
 30
0.0
 11
16.88003271007704
 21
8.218703600222569
 31
0.0
  0
LINE
  5
1A72
330
E78
100
AcDbEntity
  8
DIM
 62
     0
370
    -2
100
AcDbLine
 10
17.11253271007704
 20
8.718703600222568
 30
0.0
 11
17.11253271007704
 21
9.168703600222569
 31
0.0
  0
LINE
  5
1A73
330
E78
100
AcDbEntity
  8
DIM
 62
     0
370
    -2
100
AcDbLine
 10
17.11253271007704
 20
7.768703600222569
 30
0.0
 11
17.11253271007704
 21
7.318703600222569
 31
0.0
  0
LINE
  5
1A74
330
E78
100
AcDbEntity
  8
DIM
 62
     0
370
    -2
100
AcDbLine
 10
17.11253271007704
 20
7.318703600222569
 30
0.0
 11
16.66253271007704
 21
7.318703600222569
 31
0.0
  0
SOLID
  5
1A75
330
E78
100
AcDbEntity
  8
DIM
 62
     0
100
AcDbTrace
 10
17.03753271007704
 20
8.718703600222568
 30
0.0
 11
17.18753271007704
 21
8.718703600222568
 31
0.0
 12
17.11253271007704
 22
8.268703600222568
 32
0.0
 13
17.11253271007704
 23
8.268703600222568
 33
0.0
  0
SOLID
  5
1A76
330
E78
100
AcDbEntity
  8
DIM
 62
     0
100
AcDbTrace
 10
17.03753271007704
 20
7.768703600222569
 30
0.0
 11
17.18753271007703
 21
7.768703600222569
 31
0.0
 12
17.11253271007704
 22
8.218703600222569
 32
0.0
 13
17.11253271007704
 23
8.218703600222569
 33
0.0
  0
MTEXT
  5
1A77
330
E78
100
AcDbEntity
  8
DIM
 62
     0
100
AcDbMText
 10
16.02737646007704
 20
7.318703600222572
 30
0.0
 40
0.3125
 41
0.0
 71
     5
 72
     1
  1
\A1;0.050
 73
     1
 44
1.0
  0
POINT
  5
1A78
330
E78
100
AcDbEntity
  8
DEFPOINTS
 62
     0
100
AcDbPoint
 10
17.55908298671766
 20
8.268703600222568
 30
0.0
  0
POINT
  5
1A79
330
E78
100
AcDbEntity
  8
DEFPOINTS
 62
     0
100
AcDbPoint
 10
17.55908298671766
 20
8.218703600222569
 30
0.0
  0
POINT
  5
1A7A
330
E78
100
AcDbEntity
  8
DEFPOINTS
 62
     0
100
AcDbPoint
 10
17.11253271007704
 20
8.218703600222569
 30
0.0
  0
ENDBLK
  5
E85
330
E78
100
AcDbEntity
  8
0
100
AcDbBlockEnd
  0
BLOCK
  5
E91
330
E86
100
AcDbEntity
  8
0
100
AcDbBlockBegin
  2
*D19
 70
     1
 10
0.0
 20
0.0
 30
0.0
  3
*D19
  1

  0
LINE
  5
1A66
330
E86
100
AcDbEntity
  8
DIM
 62
     0
370
    -2
100
AcDbLine
 10
17.55908298671766
 20
8.56370360022257
 30
0.0
 11
17.55908298671766
 21
10.08719241158382
 31
0.0
  0
LINE
  5
1A67
330
E86
100
AcDbEntity
  8
DIM
 62
     0
370
    -2
100
AcDbLine
 10
17.44870798671765
 20
10.01219241158382
 30
0.0
 11
17.44870798671765
 21
10.08719241158382
 31
0.0
  0
LINE
  5
1A68
330
E86
100
AcDbEntity
  8
DIM
 62
     0
370
    -2
100
AcDbLine
 10
18.00908298671766
 20
9.854692411583828
 30
0.0
 11
18.45908298671766
 21
9.854692411583828
 31
0.0
  0
LINE
  5
1A69
330
E86
100
AcDbEntity
  8
DIM
 62
     0
370
    -2
100
AcDbLine
 10
16.99870798671765
 20
9.854692411583828
 30
0.0
 11
16.54870798671765
 21
9.854692411583828
 31
0.0
  0
SOLID
  5
1A6A
330
E86
100
AcDbEntity
  8
DIM
 62
     0
100
AcDbTrace
 10
18.00908298671766
 20
9.929692411583827
 30
0.0
 11
18.00908298671766
 21
9.779692411583829
 31
0.0
 12
17.55908298671766
 22
9.854692411583828
 32
0.0
 13
17.55908298671766
 23
9.854692411583828
 33
0.0
  0
SOLID
  5
1A6B
330
E86
100
AcDbEntity
  8
DIM
 62
     0
100
AcDbTrace
 10
16.99870798671765
 20
9.929692411583827
 30
0.0
 11
16.99870798671765
 21
9.779692411583829
 31
0.0
 12
17.44870798671765
 22
9.854692411583828
 32
0.0
 13
17.44870798671765
 23
9.854692411583828
 33
0.0
  0
MTEXT
  5
1A6C
330
E86
100
AcDbEntity
  8
DIM
 62
     0
100
AcDbMText
 10
15.97214548671765
 20
9.854692411583828
 30
0.0
 40
0.3125
 41
0.0
 71
     5
 72
     1
  1
\A1;0.110
 73
     1
 44
1.0
  0
POINT
  5
1A6D
330
E86
100
AcDbEntity
  8
DEFPOINTS
 62
     0
100
AcDbPoint
 10
17.55908298671766
 20
8.406203600222569
 30
0.0
  0
POINT
  5
1A6E
330
E86
100
AcDbEntity
  8
DEFPOINTS
 62
     0
100
AcDbPoint
 10
17.44870798671765
 20
9.854692411583828
 30
0.0
  0
POINT
  5
1A6F
330
E86
100
AcDbEntity
  8
DEFPOINTS
 62
     0
100
AcDbPoint
 10
17.44870798671765
 20
9.854692411583828
 30
0.0
  0
ENDBLK
  5
E92
330
E86
100
AcDbEntity
  8
0
100
AcDbBlockEnd
  0
BLOCK
  5
E9E
330
E93
100
AcDbEntity
  8
0
100
AcDbBlockBegin
  2
*D20
 70
     1
 10
0.0
 20
0.0
 30
0.0
  3
*D20
  1

  0
LINE
  5
1A5C
330
E93
100
AcDbEntity
  8
DIM
 62
     0
370
    -2
100
AcDbLine
 10
19.08870798671765
 20
6.009703600222566
 30
0.0
 11
19.08870798671765
 21
4.836345252547237
 31
0.0
  0
LINE
  5
1A5D
330
E93
100
AcDbEntity
  8
DIM
 62
     0
370
    -2
100
AcDbLine
 10
18.78320798671766
 20
6.578453600222568
 30
0.0
 11
18.78320798671766
 21
4.836345252547237
 31
0.0
  0
LINE
  5
1A5E
330
E93
100
AcDbEntity
  8
DIM
 62
     0
370
    -2
100
AcDbLine
 10
19.53870798671765
 20
5.068845252547237
 30
0.0
 11
19.98870798671765
 21
5.068845252547237
 31
0.0
  0
LINE
  5
1A5F
330
E93
100
AcDbEntity
  8
DIM
 62
     0
370
    -2
100
AcDbLine
 10
18.33320798671766
 20
5.068845252547237
 30
0.0
 11
17.88320798671766
 21
5.068845252547237
 31
0.0
  0
SOLID
  5
1A60
330
E93
100
AcDbEntity
  8
DIM
 62
     0
100
AcDbTrace
 10
19.53870798671765
 20
5.143845252547238
 30
0.0
 11
19.53870798671765
 21
4.993845252547237
 31
0.0
 12
19.08870798671765
 22
5.068845252547237
 32
0.0
 13
19.08870798671765
 23
5.068845252547237
 33
0.0
  0
SOLID
  5
1A61
330
E93
100
AcDbEntity
  8
DIM
 62
     0
100
AcDbTrace
 10
18.33320798671766
 20
5.143845252547238
 30
0.0
 11
18.33320798671766
 21
4.993845252547237
 31
0.0
 12
18.78320798671766
 22
5.068845252547237
 32
0.0
 13
18.78320798671766
 23
5.068845252547237
 33
0.0
  0
MTEXT
  5
1A62
330
E93
100
AcDbEntity
  8
DIM
 62
     0
100
AcDbMText
 10
17.20898923671766
 20
5.068845252547237
 30
0.0
 40
0.3125
 41
0.0
 71
     5
 72
     1
  1
\A1;0.297
 73
     1
 44
1.0
  0
POINT
  5
1A63
330
E93
100
AcDbEntity
  8
DEFPOINTS
 62
     0
100
AcDbPoint
 10
19.08870798671765
 20
6.167203600222566
 30
0.0
  0
POINT
  5
1A64
330
E93
100
AcDbEntity
  8
DEFPOINTS
 62
     0
100
AcDbPoint
 10
18.78320798671766
 20
6.735953600222567
 30
0.0
  0
POINT
  5
1A65
330
E93
100
AcDbEntity
  8
DEFPOINTS
 62
     0
100
AcDbPoint
 10
18.78320798671766
 20
5.068845252547237
 30
0.0
  0
ENDBLK
  5
E9F
330
E93
100
AcDbEntity
  8
0
100
AcDbBlockEnd
  0
BLOCK
  5
EAB
330
EA0
100
AcDbEntity
  8
0
100
AcDbBlockBegin
  2
*D21
 70
     1
 10
0.0
 20
0.0
 30
0.0
  3
*D21
  1

  0
LINE
  5
1A0B
330
EA0
100
AcDbEntity
  8
DIM
 62
     0
370
    -2
100
AcDbLine
 10
25.67299380694247
 20
14.75745360022256
 30
0.0
 11
25.67299380694247
 21
15.96999005007241
 31
0.0
  0
LINE
  5
1A0C
330
EA0
100
AcDbEntity
  8
DIM
 62
     0
370
    -2
100
AcDbLine
 10
25.43674380694247
 20
14.78345360022256
 30
0.0
 11
25.43674380694247
 21
15.96999005007241
 31
0.0
  0
LINE
  5
1A0D
330
EA0
100
AcDbEntity
  8
DIM
 62
     0
370
    -2
100
AcDbLine
 10
26.12299380694247
 20
15.73749005007241
 30
0.0
 11
26.57299380694247
 21
15.73749005007241
 31
0.0
  0
LINE
  5
1A0E
330
EA0
100
AcDbEntity
  8
DIM
 62
     0
370
    -2
100
AcDbLine
 10
24.98674380694247
 20
15.73749005007241
 30
0.0
 11
24.53674380694247
 21
15.73749005007241
 31
0.0
  0
SOLID
  5
1A0F
330
EA0
100
AcDbEntity
  8
DIM
 62
     0
100
AcDbTrace
 10
26.12299380694247
 20
15.8124900500724
 30
0.0
 11
26.12299380694247
 21
15.66249005007241
 31
0.0
 12
25.67299380694247
 22
15.73749005007241
 32
0.0
 13
25.67299380694247
 23
15.73749005007241
 33
0.0
  0
SOLID
  5
1A10
330
EA0
100
AcDbEntity
  8
DIM
 62
     0
100
AcDbTrace
 10
24.98674380694247
 20
15.8124900500724
 30
0.0
 11
24.98674380694247
 21
15.66249005007241
 31
0.0
 12
25.43674380694247
 22
15.73749005007241
 32
0.0
 13
25.43674380694247
 23
15.73749005007241
 33
0.0
  0
MTEXT
  5
1A11
330
EA0
100
AcDbEntity
  8
DIM
 62
     0
100
AcDbMText
 10
23.86252505694247
 20
15.73749005007241
 30
0.0
 40
0.3125
 41
0.0
 71
     5
 72
     1
  1
\A1;0.236
 73
     1
 44
1.0
  0
POINT
  5
1A12
330
EA0
100
AcDbEntity
  8
DEFPOINTS
 62
     0
100
AcDbPoint
 10
25.67299380694247
 20
14.59995360022255
 30
0.0
  0
POINT
  5
1A13
330
EA0
100
AcDbEntity
  8
DEFPOINTS
 62
     0
100
AcDbPoint
 10
25.43674380694247
 20
14.62595360022256
 30
0.0
  0
POINT
  5
1A14
330
EA0
100
AcDbEntity
  8
DEFPOINTS
 62
     0
100
AcDbPoint
 10
25.43674380694247
 20
15.73749005007241
 30
0.0
  0
ENDBLK
  5
EAC
330
EA0
100
AcDbEntity
  8
0
100
AcDbBlockEnd
  0
BLOCK
  5
EB8
330
EAD
100
AcDbEntity
  8
0
100
AcDbBlockBegin
  2
*D22
 70
     1
 10
0.0
 20
0.0
 30
0.0
  3
*D22
  1

  0
LINE
  5
1A34
330
EAD
100
AcDbEntity
  8
DIM
 62
     0
370
    -2
100
AcDbLine
 10
30.94049380694247
 20
14.75745360022256
 30
0.0
 11
30.94049380694247
 21
15.96999005007241
 31
0.0
  0
LINE
  5
1A35
330
EAD
100
AcDbEntity
  8
DIM
 62
     0
370
    -2
100
AcDbLine
 10
25.67299380694247
 20
14.75745360022256
 30
0.0
 11
25.67299380694247
 21
15.96999005007241
 31
0.0
  0
LINE
  5
1A36
330
EAD
100
AcDbEntity
  8
DIM
 62
     0
370
    -2
100
AcDbLine
 10
30.49049380694247
 20
15.73749005007241
 30
0.0
 11
29.00049380694247
 21
15.73749005007241
 31
0.0
  0
LINE
  5
1A37
330
EAD
100
AcDbEntity
  8
DIM
 62
     0
370
    -2
100
AcDbLine
 10
26.12299380694247
 20
15.73749005007241
 30
0.0
 11
27.61299380694246
 21
15.73749005007241
 31
0.0
  0
SOLID
  5
1A38
330
EAD
100
AcDbEntity
  8
DIM
 62
     0
100
AcDbTrace
 10
30.49049380694247
 20
15.8124900500724
 30
0.0
 11
30.49049380694247
 21
15.66249005007241
 31
0.0
 12
30.94049380694247
 22
15.73749005007241
 32
0.0
 13
30.94049380694247
 23
15.73749005007241
 33
0.0
  0
SOLID
  5
1A39
330
EAD
100
AcDbEntity
  8
DIM
 62
     0
100
AcDbTrace
 10
26.12299380694247
 20
15.8124900500724
 30
0.0
 11
26.12299380694247
 21
15.66249005007241
 31
0.0
 12
25.67299380694247
 22
15.73749005007241
 32
0.0
 13
25.67299380694247
 23
15.73749005007241
 33
0.0
  0
MTEXT
  5
1A3A
330
EAD
100
AcDbEntity
  8
DIM
 62
     0
100
AcDbMText
 10
28.30674380694247
 20
15.73749005007241
 30
0.0
 40
0.3125
 41
0.0
 71
     5
 72
     1
  1
\A1;5.268
 73
     1
 44
1.0
  0
POINT
  5
1A3B
330
EAD
100
AcDbEntity
  8
DEFPOINTS
 62
     0
100
AcDbPoint
 10
30.94049380694247
 20
14.59995360022255
 30
0.0
  0
POINT
  5
1A3C
330
EAD
100
AcDbEntity
  8
DEFPOINTS
 62
     0
100
AcDbPoint
 10
25.67299380694247
 20
14.59995360022255
 30
0.0
  0
POINT
  5
1A3D
330
EAD
100
AcDbEntity
  8
DEFPOINTS
 62
     0
100
AcDbPoint
 10
25.67299380694247
 20
15.73749005007241
 30
0.0
  0
ENDBLK
  5
EB9
330
EAD
100
AcDbEntity
  8
0
100
AcDbBlockEnd
  0
BLOCK
  5
EC6
330
EBA
100
AcDbEntity
  8
0
100
AcDbBlockBegin
  2
*D23
 70
     1
 10
0.0
 20
0.0
 30
0.0
  3
*D23
  1

  0
LINE
  5
1A00
330
EBA
100
AcDbEntity
  8
DIM
 62
     0
370
    -2
100
AcDbLine
 10
25.49849380694247
 20
6.349453600222563
 30
0.0
 11
24.35830996469201
 21
6.349453600222563
 31
0.0
  0
LINE
  5
1A01
330
EBA
100
AcDbEntity
  8
DIM
 62
     0
370
    -2
100
AcDbLine
 10
25.49799380694247
 20
6.104703600222566
 30
0.0
 11
24.35830996469201
 21
6.104703600222566
 31
0.0
  0
LINE
  5
1A02
330
EBA
100
AcDbEntity
  8
DIM
 62
     0
370
    -2
100
AcDbLine
 10
24.59080996469201
 20
6.799453600222563
 30
0.0
 11
24.59080996469201
 21
7.249453600222564
 31
0.0
  0
LINE
  5
1A03
330
EBA
100
AcDbEntity
  8
DIM
 62
     0
370
    -2
100
AcDbLine
 10
24.59080996469201
 20
5.654703600222566
 30
0.0
 11
24.59080996469201
 21
5.204703600222567
 31
0.0
  0
LINE
  5
1A04
330
EBA
100
AcDbEntity
  8
DIM
 62
     0
370
    -2
100
AcDbLine
 10
24.59080996469201
 20
5.204703600222567
 30
0.0
 11
24.14080996469202
 21
5.204703600222567
 31
0.0
  0
SOLID
  5
1A05
330
EBA
100
AcDbEntity
  8
DIM
 62
     0
100
AcDbTrace
 10
24.51580996469202
 20
6.799453600222563
 30
0.0
 11
24.66580996469201
 21
6.799453600222563
 31
0.0
 12
24.59080996469201
 22
6.349453600222563
 32
0.0
 13
24.59080996469201
 23
6.349453600222563
 33
0.0
  0
SOLID
  5
1A06
330
EBA
100
AcDbEntity
  8
DIM
 62
     0
100
AcDbTrace
 10
24.51580996469202
 20
5.654703600222566
 30
0.0
 11
24.66580996469201
 21
5.654703600222566
 31
0.0
 12
24.59080996469201
 22
6.104703600222566
 32
0.0
 13
24.59080996469201
 23
6.104703600222566
 33
0.0
  0
MTEXT
  5
1A07
330
EBA
100
AcDbEntity
  8
DIM
 62
     0
100
AcDbMText
 10
23.46659121469201
 20
5.20470360022257
 30
0.0
 40
0.3125
 41
0.0
 71
     5
 72
     1
  1
\A1;0.245
 73
     1
 44
1.0
  0
POINT
  5
1A08
330
EBA
100
AcDbEntity
  8
DEFPOINTS
 62
     0
100
AcDbPoint
 10
25.65599380694247
 20
6.349453600222563
 30
0.0
  0
POINT
  5
1A09
330
EBA
100
AcDbEntity
  8
DEFPOINTS
 62
     0
100
AcDbPoint
 10
25.65549380694247
 20
6.104703600222566
 30
0.0
  0
POINT
  5
1A0A
330
EBA
100
AcDbEntity
  8
DEFPOINTS
 62
     0
100
AcDbPoint
 10
24.59080996469201
 20
6.104703600222566
 30
0.0
  0
ENDBLK
  5
EC7
330
EBA
100
AcDbEntity
  8
0
100
AcDbBlockEnd
  0
BLOCK
  5
ED3
330
EC8
100
AcDbEntity
  8
0
100
AcDbBlockBegin
  2
*D24
 70
     1
 10
0.0
 20
0.0
 30
0.0
  3
*D24
  1

  0
LINE
  5
19F6
330
EC8
100
AcDbEntity
  8
DIM
 62
     0
370
    -2
100
AcDbLine
 10
25.49849380694247
 20
10.47470360022257
 30
0.0
 11
24.35830996469202
 21
10.47470360022257
 31
0.0
  0
LINE
  5
19F7
330
EC8
100
AcDbEntity
  8
DIM
 62
     0
370
    -2
100
AcDbLine
 10
25.49849380694247
 20
6.349453600222563
 30
0.0
 11
24.35830996469201
 21
6.349453600222563
 31
0.0
  0
LINE
  5
19F8
330
EC8
100
AcDbEntity
  8
DIM
 62
     0
370
    -2
100
AcDbLine
 10
24.59080996469202
 20
10.02470360022257
 30
0.0
 11
24.59080996469202
 21
8.793328600222567
 31
0.0
  0
LINE
  5
19F9
330
EC8
100
AcDbEntity
  8
DIM
 62
     0
370
    -2
100
AcDbLine
 10
24.59080996469201
 20
6.799453600222563
 30
0.0
 11
24.59080996469202
 21
8.030828600222568
 31
0.0
  0
SOLID
  5
19FA
330
EC8
100
AcDbEntity
  8
DIM
 62
     0
100
AcDbTrace
 10
24.51580996469202
 20
10.02470360022257
 30
0.0
 11
24.66580996469202
 21
10.02470360022257
 31
0.0
 12
24.59080996469202
 22
10.47470360022257
 32
0.0
 13
24.59080996469202
 23
10.47470360022257
 33
0.0
  0
SOLID
  5
19FB
330
EC8
100
AcDbEntity
  8
DIM
 62
     0
100
AcDbTrace
 10
24.51580996469202
 20
6.799453600222563
 30
0.0
 11
24.66580996469201
 21
6.799453600222563
 31
0.0
 12
24.59080996469201
 22
6.349453600222563
 32
0.0
 13
24.59080996469201
 23
6.349453600222563
 33
0.0
  0
MTEXT
  5
19FC
330
EC8
100
AcDbEntity
  8
DIM
 62
     0
100
AcDbMText
 10
24.59080996469201
 20
8.412078600222571
 30
0.0
 40
0.3125
 41
0.0
 71
     5
 72
     1
  1
\A1;4.125
 73
     1
 44
1.0
  0
POINT
  5
19FD
330
EC8
100
AcDbEntity
  8
DEFPOINTS
 62
     0
100
AcDbPoint
 10
25.65599380694247
 20
10.47470360022257
 30
0.0
  0
POINT
  5
19FE
330
EC8
100
AcDbEntity
  8
DEFPOINTS
 62
     0
100
AcDbPoint
 10
25.65599380694247
 20
6.349453600222563
 30
0.0
  0
POINT
  5
19FF
330
EC8
100
AcDbEntity
  8
DEFPOINTS
 62
     0
100
AcDbPoint
 10
24.59080996469201
 20
6.349453600222563
 30
0.0
  0
ENDBLK
  5
ED4
330
EC8
100
AcDbEntity
  8
0
100
AcDbBlockEnd
  0
BLOCK
  5
EE0
330
ED5
100
AcDbEntity
  8
0
100
AcDbBlockBegin
  2
*D25
 70
     1
 10
0.0
 20
0.0
 30
0.0
  3
*D25
  1

  0
LINE
  5
19EC
330
ED5
100
AcDbEntity
  8
DIM
 62
     0
370
    -2
100
AcDbLine
 10
25.51549380694247
 20
14.59995360022255
 30
0.0
 11
24.35830996469201
 21
14.59995360022255
 31
0.0
  0
LINE
  5
19ED
330
ED5
100
AcDbEntity
  8
DIM
 62
     0
370
    -2
100
AcDbLine
 10
25.49849380694247
 20
10.47470360022257
 30
0.0
 11
24.35830996469201
 21
10.47470360022257
 31
0.0
  0
LINE
  5
19EE
330
ED5
100
AcDbEntity
  8
DIM
 62
     0
370
    -2
100
AcDbLine
 10
24.59080996469201
 20
14.14995360022255
 30
0.0
 11
24.59080996469201
 21
12.91857860022256
 31
0.0
  0
LINE
  5
19EF
330
ED5
100
AcDbEntity
  8
DIM
 62
     0
370
    -2
100
AcDbLine
 10
24.59080996469201
 20
10.92470360022256
 30
0.0
 11
24.59080996469201
 21
12.15607860022256
 31
0.0
  0
SOLID
  5
19F0
330
ED5
100
AcDbEntity
  8
DIM
 62
     0
100
AcDbTrace
 10
24.51580996469202
 20
14.14995360022255
 30
0.0
 11
24.66580996469201
 21
14.14995360022255
 31
0.0
 12
24.59080996469201
 22
14.59995360022255
 32
0.0
 13
24.59080996469201
 23
14.59995360022255
 33
0.0
  0
SOLID
  5
19F1
330
ED5
100
AcDbEntity
  8
DIM
 62
     0
100
AcDbTrace
 10
24.51580996469202
 20
10.92470360022256
 30
0.0
 11
24.66580996469201
 21
10.92470360022256
 31
0.0
 12
24.59080996469201
 22
10.47470360022257
 32
0.0
 13
24.59080996469201
 23
10.47470360022257
 33
0.0
  0
MTEXT
  5
19F2
330
ED5
100
AcDbEntity
  8
DIM
 62
     0
100
AcDbMText
 10
24.59080996469201
 20
12.53732860022256
 30
0.0
 40
0.3125
 41
0.0
 71
     5
 72
     1
  1
\A1;4.125
 73
     1
 44
1.0
  0
POINT
  5
19F3
330
ED5
100
AcDbEntity
  8
DEFPOINTS
 62
     0
100
AcDbPoint
 10
25.67299380694247
 20
14.59995360022255
 30
0.0
  0
POINT
  5
19F4
330
ED5
100
AcDbEntity
  8
DEFPOINTS
 62
     0
100
AcDbPoint
 10
25.65599380694247
 20
10.47470360022257
 30
0.0
  0
POINT
  5
19F5
330
ED5
100
AcDbEntity
  8
DEFPOINTS
 62
     0
100
AcDbPoint
 10
24.59080996469201
 20
10.47470360022257
 30
0.0
  0
ENDBLK
  5
EE1
330
ED5
100
AcDbEntity
  8
0
100
AcDbBlockEnd
  0
BLOCK
  5
EED
330
EE2
100
AcDbEntity
  8
0
100
AcDbBlockBegin
  2
*D26
 70
     1
 10
0.0
 20
0.0
 30
0.0
  3
*D26
  1

  0
LINE
  5
19E2
330
EE2
100
AcDbEntity
  8
DIM
 62
     0
370
    -2
100
AcDbLine
 10
25.49799380694247
 20
6.104703600222566
 30
0.0
 11
23.37315049574648
 21
6.104703600222566
 31
0.0
  0
LINE
  5
19E3
330
EE2
100
AcDbEntity
  8
DIM
 62
     0
370
    -2
100
AcDbLine
 10
25.49799380694247
 20
14.84470360022256
 30
0.0
 11
23.37315049574648
 21
14.84470360022256
 31
0.0
  0
LINE
  5
19E4
330
EE2
100
AcDbEntity
  8
DIM
 62
     0
370
    -2
100
AcDbLine
 10
23.60565049574648
 20
6.554703600222566
 30
0.0
 11
23.60565049574648
 21
10.09345360022256
 31
0.0
  0
LINE
  5
19E5
330
EE2
100
AcDbEntity
  8
DIM
 62
     0
370
    -2
100
AcDbLine
 10
23.60565049574648
 20
14.39470360022256
 30
0.0
 11
23.60565049574648
 21
10.85595360022256
 31
0.0
  0
SOLID
  5
19E6
330
EE2
100
AcDbEntity
  8
DIM
 62
     0
100
AcDbTrace
 10
23.53065049574648
 20
6.554703600222566
 30
0.0
 11
23.68065049574648
 21
6.554703600222566
 31
0.0
 12
23.60565049574648
 22
6.104703600222566
 32
0.0
 13
23.60565049574648
 23
6.104703600222566
 33
0.0
  0
SOLID
  5
19E7
330
EE2
100
AcDbEntity
  8
DIM
 62
     0
100
AcDbTrace
 10
23.53065049574648
 20
14.39470360022256
 30
0.0
 11
23.68065049574648
 21
14.39470360022256
 31
0.0
 12
23.60565049574648
 22
14.84470360022256
 32
0.0
 13
23.60565049574648
 23
14.84470360022256
 33
0.0
  0
MTEXT
  5
19E8
330
EE2
100
AcDbEntity
  8
DIM
 62
     0
100
AcDbMText
 10
23.60565049574648
 20
10.47470360022256
 30
0.0
 40
0.3125
 41
0.0
 71
     5
 72
     1
  1
\A1;8.740
 73
     1
 44
1.0
  0
POINT
  5
19E9
330
EE2
100
AcDbEntity
  8
DEFPOINTS
 62
     0
100
AcDbPoint
 10
25.65549380694247
 20
6.104703600222566
 30
0.0
  0
POINT
  5
19EA
330
EE2
100
AcDbEntity
  8
DEFPOINTS
 62
     0
100
AcDbPoint
 10
25.65549380694247
 20
14.84470360022256
 30
0.0
  0
POINT
  5
19EB
330
EE2
100
AcDbEntity
  8
DEFPOINTS
 62
     0
100
AcDbPoint
 10
23.60565049574648
 20
14.84470360022256
 30
0.0
  0
ENDBLK
  5
EEE
330
EE2
100
AcDbEntity
  8
0
100
AcDbBlockEnd
  0
BLOCK
  5
EFA
330
EEF
100
AcDbEntity
  8
0
100
AcDbBlockBegin
  2
*D27
 70
     1
 10
0.0
 20
0.0
 30
0.0
  3
*D27
  1

  0
LINE
  5
1A2A
330
EEF
100
AcDbEntity
  8
DIM
 62
     0
370
    -2
100
AcDbLine
 10
25.43674380694247
 20
14.78345360022256
 30
0.0
 11
25.43674380694247
 21
16.61607812386277
 31
0.0
  0
LINE
  5
1A2B
330
EEF
100
AcDbEntity
  8
DIM
 62
     0
370
    -2
100
AcDbLine
 10
31.17674380694247
 20
14.78345360022256
 30
0.0
 11
31.17674380694247
 21
16.61607812386277
 31
0.0
  0
LINE
  5
1A2C
330
EEF
100
AcDbEntity
  8
DIM
 62
     0
370
    -2
100
AcDbLine
 10
25.88674380694247
 20
16.38357812386277
 30
0.0
 11
27.63252505694246
 21
16.38357812386277
 31
0.0
  0
LINE
  5
1A2D
330
EEF
100
AcDbEntity
  8
DIM
 62
     0
370
    -2
100
AcDbLine
 10
30.72674380694247
 20
16.38357812386277
 30
0.0
 11
28.98096255694247
 21
16.38357812386277
 31
0.0
  0
SOLID
  5
1A2E
330
EEF
100
AcDbEntity
  8
DIM
 62
     0
100
AcDbTrace
 10
25.88674380694247
 20
16.45857812386277
 30
0.0
 11
25.88674380694247
 21
16.30857812386277
 31
0.0
 12
25.43674380694247
 22
16.38357812386277
 32
0.0
 13
25.43674380694247
 23
16.38357812386277
 33
0.0
  0
SOLID
  5
1A2F
330
EEF
100
AcDbEntity
  8
DIM
 62
     0
100
AcDbTrace
 10
30.72674380694247
 20
16.45857812386277
 30
0.0
 11
30.72674380694247
 21
16.30857812386277
 31
0.0
 12
31.17674380694247
 22
16.38357812386277
 32
0.0
 13
31.17674380694247
 23
16.38357812386277
 33
0.0
  0
MTEXT
  5
1A30
330
EEF
100
AcDbEntity
  8
DIM
 62
     0
100
AcDbMText
 10
28.30674380694247
 20
16.38357812386277
 30
0.0
 40
0.3125
 41
0.0
 71
     5
 72
     1
  1
\A1;5.740
 73
     1
 44
1.0
  0
POINT
  5
1A31
330
EEF
100
AcDbEntity
  8
DEFPOINTS
 62
     0
100
AcDbPoint
 10
25.43674380694247
 20
14.62595360022256
 30
0.0
  0
POINT
  5
1A32
330
EEF
100
AcDbEntity
  8
DEFPOINTS
 62
     0
100
AcDbPoint
 10
31.17674380694247
 20
14.62595360022256
 30
0.0
  0
POINT
  5
1A33
330
EEF
100
AcDbEntity
  8
DEFPOINTS
 62
     0
100
AcDbPoint
 10
31.17674380694247
 20
16.38357812386277
 30
0.0
  0
ENDBLK
  5
EFB
330
EEF
100
AcDbEntity
  8
0
100
AcDbBlockEnd
  0
BLOCK
  5
F07
330
EFC
100
AcDbEntity
  8
0
100
AcDbBlockBegin
  2
*D28
 70
     1
 10
0.0
 20
0.0
 30
0.0
  3
*D28
  1

  0
LINE
  5
19D8
330
EFC
100
AcDbEntity
  8
DIM
 62
     0
370
    -2
100
AcDbLine
 10
38.08512445496826
 20
14.92062843406757
 30
0.0
 11
38.08512445496826
 21
16.32771292248833
 31
0.0
  0
LINE
  5
19D9
330
EFC
100
AcDbEntity
  8
DIM
 62
     0
370
    -2
100
AcDbLine
 10
36.70512445496827
 20
14.85812843406757
 30
0.0
 11
36.70512445496827
 21
16.32771292248833
 31
0.0
  0
LINE
  5
19DA
330
EFC
100
AcDbEntity
  8
DIM
 62
     0
370
    -2
100
AcDbLine
 10
38.53512445496827
 20
16.09521292248833
 30
0.0
 11
38.98512445496826
 21
16.09521292248833
 31
0.0
  0
LINE
  5
19DB
330
EFC
100
AcDbEntity
  8
DIM
 62
     0
370
    -2
100
AcDbLine
 10
36.25512445496827
 20
16.09521292248833
 30
0.0
 11
35.80512445496827
 21
16.09521292248833
 31
0.0
  0
SOLID
  5
19DC
330
EFC
100
AcDbEntity
  8
DIM
 62
     0
100
AcDbTrace
 10
38.53512445496827
 20
16.17021292248833
 30
0.0
 11
38.53512445496827
 21
16.02021292248833
 31
0.0
 12
38.08512445496826
 22
16.09521292248833
 32
0.0
 13
38.08512445496826
 23
16.09521292248833
 33
0.0
  0
SOLID
  5
19DD
330
EFC
100
AcDbEntity
  8
DIM
 62
     0
100
AcDbTrace
 10
36.25512445496827
 20
16.17021292248833
 30
0.0
 11
36.25512445496827
 21
16.02021292248833
 31
0.0
 12
36.70512445496827
 22
16.09521292248833
 32
0.0
 13
36.70512445496827
 23
16.09521292248833
 33
0.0
  0
MTEXT
  5
19DE
330
EFC
100
AcDbEntity
  8
DIM
 62
     0
100
AcDbMText
 10
34.66215570496827
 20
16.09521292248833
 30
0.0
 40
0.3125
 41
0.0
 71
     5
 72
     1
  1
\A1;1.380 REF.
 73
     1
 44
1.0
  0
POINT
  5
19DF
330
EFC
100
AcDbEntity
  8
DEFPOINTS
 62
     0
100
AcDbPoint
 10
38.08512445496826
 20
14.76312843406757
 30
0.0
  0
POINT
  5
19E0
330
EFC
100
AcDbEntity
  8
DEFPOINTS
 62
     0
100
AcDbPoint
 10
36.70512445496827
 20
14.70062843406758
 30
0.0
  0
POINT
  5
19E1
330
EFC
100
AcDbEntity
  8
DEFPOINTS
 62
     0
100
AcDbPoint
 10
36.70512445496827
 20
16.09521292248833
 30
0.0
  0
ENDBLK
  5
F08
330
EFC
100
AcDbEntity
  8
0
100
AcDbBlockEnd
  0
BLOCK
  5
F14
330
F09
100
AcDbEntity
  8
0
100
AcDbBlockBegin
  2
*D29
 70
     1
 10
0.0
 20
0.0
 30
0.0
  3
*D29
  1

  0
LINE
  5
1AB9
330
F09
100
AcDbEntity
  8
DIM
 62
     0
370
    -2
100
AcDbLine
 10
18.96870798671764
 20
11.81461913122882
 30
0.0
 11
18.96870798671764
 21
11.88961913122882
 31
0.0
  0
LINE
  5
1ABA
330
F09
100
AcDbEntity
  8
DIM
 62
     0
370
    -2
100
AcDbLine
 10
19.08870798671765
 20
11.81461913122882
 30
0.0
 11
19.08870798671765
 21
11.88961913122882
 31
0.0
  0
LINE
  5
1ABB
330
F09
100
AcDbEntity
  8
DIM
 62
     0
370
    -2
100
AcDbLine
 10
18.51870798671764
 20
11.65711913122882
 30
0.0
 11
18.06870798671764
 21
11.65711913122882
 31
0.0
  0
LINE
  5
1ABC
330
F09
100
AcDbEntity
  8
DIM
 62
     0
370
    -2
100
AcDbLine
 10
19.53870798671765
 20
11.65711913122882
 30
0.0
 11
19.98870798671765
 21
11.65711913122882
 31
0.0
  0
SOLID
  5
1ABD
330
F09
100
AcDbEntity
  8
DIM
 62
     0
100
AcDbTrace
 10
18.51870798671764
 20
11.73211913122882
 30
0.0
 11
18.51870798671764
 21
11.58211913122882
 31
0.0
 12
18.96870798671764
 22
11.65711913122882
 32
0.0
 13
18.96870798671764
 23
11.65711913122882
 33
0.0
  0
SOLID
  5
1ABE
330
F09
100
AcDbEntity
  8
DIM
 62
     0
100
AcDbTrace
 10
19.53870798671765
 20
11.73211913122882
 30
0.0
 11
19.53870798671765
 21
11.58211913122882
 31
0.0
 12
19.08870798671765
 22
11.65711913122882
 32
0.0
 13
19.08870798671765
 23
11.65711913122882
 33
0.0
  0
MTEXT
  5
1ABF
330
F09
100
AcDbEntity
  8
DIM
 62
     0
100
AcDbMText
 10
20.60433298671765
 20
11.65711913122882
 30
0.0
 40
0.3125
 41
0.0
 71
     5
 72
     1
  1
\A1;0.120
 73
     1
 44
1.0
  0
POINT
  5
1AC0
330
F09
100
AcDbEntity
  8
DEFPOINTS
 62
     0
100
AcDbPoint
 10
18.96870798671764
 20
11.65711913122882
 30
0.0
  0
POINT
  5
1AC1
330
F09
100
AcDbEntity
  8
DEFPOINTS
 62
     0
100
AcDbPoint
 10
19.08870798671765
 20
11.65711913122882
 30
0.0
  0
POINT
  5
1AC2
330
F09
100
AcDbEntity
  8
DEFPOINTS
 62
     0
100
AcDbPoint
 10
19.08870798671765
 20
11.65711913122882
 30
0.0
  0
ENDBLK
  5
F15
330
F09
100
AcDbEntity
  8
0
100
AcDbBlockEnd
  0
BLOCK
  5
F21
330
F16
100
AcDbEntity
  8
0
100
AcDbBlockBegin
  2
*D30
 70
     1
 10
0.0
 20
0.0
 30
0.0
  3
*D30
  1

  0
LINE
  5
1AF7
330
F16
100
AcDbEntity
  8
DIM
 62
     0
370
    -2
100
AcDbLine
 10
5.961284611796909
 20
13.21333848320731
 30
0.0
 11
5.961284611796909
 21
13.2883384832073
 31
0.0
  0
LINE
  5
1AF8
330
F16
100
AcDbEntity
  8
DIM
 62
     0
370
    -2
100
AcDbLine
 10
6.079284611796907
 20
13.21333848320731
 30
0.0
 11
6.079284611796907
 21
13.2883384832073
 31
0.0
  0
LINE
  5
1AF9
330
F16
100
AcDbEntity
  8
DIM
 62
     0
370
    -2
100
AcDbLine
 10
5.511284611796908
 20
13.0558384832073
 30
0.0
 11
5.061284611796908
 21
13.0558384832073
 31
0.0
  0
LINE
  5
1AFA
330
F16
100
AcDbEntity
  8
DIM
 62
     0
370
    -2
100
AcDbLine
 10
6.529284611796907
 20
13.0558384832073
 30
0.0
 11
6.979284611796908
 21
13.0558384832073
 31
0.0
  0
SOLID
  5
1AFB
330
F16
100
AcDbEntity
  8
DIM
 62
     0
100
AcDbTrace
 10
5.511284611796908
 20
13.1308384832073
 30
0.0
 11
5.511284611796908
 21
12.98083848320731
 31
0.0
 12
5.961284611796909
 22
13.0558384832073
 32
0.0
 13
5.961284611796909
 23
13.0558384832073
 33
0.0
  0
SOLID
  5
1AFC
330
F16
100
AcDbEntity
  8
DIM
 62
     0
100
AcDbTrace
 10
6.529284611796907
 20
13.1308384832073
 30
0.0
 11
6.529284611796907
 21
12.98083848320731
 31
0.0
 12
6.079284611796907
 22
13.0558384832073
 32
0.0
 13
6.079284611796907
 23
13.0558384832073
 33
0.0
  0
MTEXT
  5
1AFD
330
F16
100
AcDbEntity
  8
DIM
 62
     0
100
AcDbMText
 10
8.083190861796907
 20
13.0558384832073
 30
0.0
 40
0.3125
 41
0.0
 71
     5
 72
     1
  1
\A1;0.118 TYP.
 73
     1
 44
1.0
  0
POINT
  5
1AFE
330
F16
100
AcDbEntity
  8
DEFPOINTS
 62
     0
100
AcDbPoint
 10
5.961284611796909
 20
13.0558384832073
 30
0.0
  0
POINT
  5
1AFF
330
F16
100
AcDbEntity
  8
DEFPOINTS
 62
     0
100
AcDbPoint
 10
6.079284611796907
 20
13.0558384832073
 30
0.0
  0
POINT
  5
1B00
330
F16
100
AcDbEntity
  8
DEFPOINTS
 62
     0
100
AcDbPoint
 10
6.079284611796907
 20
13.0558384832073
 30
0.0
  0
ENDBLK
  5
F22
330
F16
100
AcDbEntity
  8
0
100
AcDbBlockEnd
  0
BLOCK
  5
F2E
330
F23
100
AcDbEntity
  8
0
100
AcDbBlockBegin
  2
*D31
 70
     1
 10
0.0
 20
0.0
 30
0.0
  3
*D31
  1

  0
LINE
  5
1B29
330
F23
100
AcDbEntity
  8
DIM
 62
     0
370
    -2
100
AcDbLine
 10
11.21528461179689
 20
10.31720360022257
 30
0.0
 11
11.21528461179689
 21
9.457653191889479
 31
0.0
  0
LINE
  5
1B2A
330
F23
100
AcDbEntity
  8
DIM
 62
     0
370
    -2
100
AcDbLine
 10
6.447284611796908
 20
10.31720360022257
 30
0.0
 11
6.447284611796908
 21
9.457653191889479
 31
0.0
  0
LINE
  5
1B2B
330
F23
100
AcDbEntity
  8
DIM
 62
     0
370
    -2
100
AcDbLine
 10
10.76528461179689
 20
9.690153191889478
 30
0.0
 11
9.228163568584013
 21
9.690153191889478
 31
0.0
  0
LINE
  5
1B2C
330
F23
100
AcDbEntity
  8
DIM
 62
     0
370
    -2
100
AcDbLine
 10
6.897284611796909
 20
9.690153191889478
 30
0.0
 11
7.840663568584014
 21
9.690153191889478
 31
0.0
  0
SOLID
  5
1B2D
330
F23
100
AcDbEntity
  8
DIM
 62
     0
100
AcDbTrace
 10
10.76528461179689
 20
9.765153191889478
 30
0.0
 11
10.76528461179689
 21
9.615153191889479
 31
0.0
 12
11.21528461179689
 22
9.690153191889478
 32
0.0
 13
11.21528461179689
 23
9.690153191889478
 33
0.0
  0
SOLID
  5
1B2E
330
F23
100
AcDbEntity
  8
DIM
 62
     0
100
AcDbTrace
 10
6.897284611796909
 20
9.765153191889478
 30
0.0
 11
6.897284611796909
 21
9.615153191889479
 31
0.0
 12
6.447284611796908
 22
9.690153191889478
 32
0.0
 13
6.447284611796908
 23
9.690153191889478
 33
0.0
  0
MTEXT
  5
1B2F
330
F23
100
AcDbEntity
  8
DIM
 62
     0
100
AcDbMText
 10
8.534413568584014
 20
9.690153191889478
 30
0.0
 40
0.3125
 41
0.0
 71
     5
 72
     1
  1
\A1;4.768
 73
     1
 44
1.0
  0
POINT
  5
1B30
330
F23
100
AcDbEntity
  8
DEFPOINTS
 62
     0
100
AcDbPoint
 10
11.21528461179689
 20
10.47470360022257
 30
0.0
  0
POINT
  5
1B31
330
F23
100
AcDbEntity
  8
DEFPOINTS
 62
     0
100
AcDbPoint
 10
6.447284611796908
 20
10.47470360022257
 30
0.0
  0
POINT
  5
1B32
330
F23
100
AcDbEntity
  8
DEFPOINTS
 62
     0
100
AcDbPoint
 10
6.447284611796908
 20
9.690153191889478
 30
0.0
  0
ENDBLK
  5
F2F
330
F23
100
AcDbEntity
  8
0
100
AcDbBlockEnd
  0
BLOCK
  5
F3B
330
F30
100
AcDbEntity
  8
0
100
AcDbBlockBegin
  2
*D32
 70
     1
 10
0.0
 20
0.0
 30
0.0
  3
*D32
  1

  0
LINE
  5
1AED
330
F30
100
AcDbEntity
  8
DIM
 62
     0
370
    -2
100
AcDbLine
 10
5.880034611796907
 20
6.595828600222564
 30
0.0
 11
2.26901933884925
 21
6.595828600222564
 31
0.0
  0
LINE
  5
1AEE
330
F30
100
AcDbEntity
  8
DIM
 62
     0
370
    -2
100
AcDbLine
 10
6.021784611796907
 20
14.35357860022256
 30
0.0
 11
2.269019338849252
 21
14.35357860022256
 31
0.0
  0
LINE
  5
1AEF
330
F30
100
AcDbEntity
  8
DIM
 62
     0
370
    -2
100
AcDbLine
 10
2.501519338849251
 20
7.045828600222564
 30
0.0
 11
2.501519338849251
 21
10.09345360022256
 31
0.0
  0
LINE
  5
1AF0
330
F30
100
AcDbEntity
  8
DIM
 62
     0
370
    -2
100
AcDbLine
 10
2.501519338849252
 20
13.90357860022256
 30
0.0
 11
2.501519338849251
 21
10.85595360022256
 31
0.0
  0
SOLID
  5
1AF1
330
F30
100
AcDbEntity
  8
DIM
 62
     0
100
AcDbTrace
 10
2.426519338849251
 20
7.045828600222564
 30
0.0
 11
2.576519338849251
 21
7.045828600222564
 31
0.0
 12
2.50151933884925
 22
6.595828600222564
 32
0.0
 13
2.50151933884925
 23
6.595828600222564
 33
0.0
  0
SOLID
  5
1AF2
330
F30
100
AcDbEntity
  8
DIM
 62
     0
100
AcDbTrace
 10
2.426519338849252
 20
13.90357860022256
 30
0.0
 11
2.576519338849252
 21
13.90357860022256
 31
0.0
 12
2.501519338849252
 22
14.35357860022256
 32
0.0
 13
2.501519338849252
 23
14.35357860022256
 33
0.0
  0
MTEXT
  5
1AF3
330
F30
100
AcDbEntity
  8
DIM
 62
     0
100
AcDbMText
 10
2.50151933884925
 20
10.47470360022256
 30
0.0
 40
0.3125
 41
0.0
 71
     5
 72
     1
  1
\A1;7.758
 73
     1
 44
1.0
  0
POINT
  5
1AF4
330
F30
100
AcDbEntity
  8
DEFPOINTS
 62
     0
100
AcDbPoint
 10
6.037534611796907
 20
6.595828600222563
 30
0.0
  0
POINT
  5
1AF5
330
F30
100
AcDbEntity
  8
DEFPOINTS
 62
     0
100
AcDbPoint
 10
6.179284611796907
 20
14.35357860022256
 30
0.0
  0
POINT
  5
1AF6
330
F30
100
AcDbEntity
  8
DEFPOINTS
 62
     0
100
AcDbPoint
 10
2.501519338849252
 20
14.35357860022256
 30
0.0
  0
ENDBLK
  5
F3C
330
F30
100
AcDbEntity
  8
0
100
AcDbBlockEnd
  0
BLOCK
  5
F48
330
F3D
100
AcDbEntity
  8
0
100
AcDbBlockBegin
  2
*D33
 70
     1
 10
0.0
 20
0.0
 30
0.0
  3
*D33
  1

  0
LINE
  5
1B52
330
F3D
100
AcDbEntity
  8
DIM
 62
     0
370
    -2
100
AcDbLine
 10
5.961284611796909
 20
6.165953600222566
 30
0.0
 11
5.961284611796909
 21
3.649429529942525
 31
0.0
  0
LINE
  5
1B53
330
F3D
100
AcDbEntity
  8
DIM
 62
     0
370
    -2
100
AcDbLine
 10
8.831284611796908
 20
5.885974259638542
 30
0.0
 11
8.831284611796908
 21
3.649429529942525
 31
0.0
  0
LINE
  5
1B54
330
F3D
100
AcDbEntity
  8
DIM
 62
     0
370
    -2
100
AcDbLine
 10
6.411284611796909
 20
3.881929529942524
 30
0.0
 11
6.72206586179691
 21
3.881929529942524
 31
0.0
  0
LINE
  5
1B55
330
F3D
100
AcDbEntity
  8
DIM
 62
     0
370
    -2
100
AcDbLine
 10
8.381284611796909
 20
3.881929529942524
 30
0.0
 11
8.070503361796909
 21
3.881929529942524
 31
0.0
  0
SOLID
  5
1B56
330
F3D
100
AcDbEntity
  8
DIM
 62
     0
100
AcDbTrace
 10
6.411284611796909
 20
3.956929529942525
 30
0.0
 11
6.411284611796909
 21
3.806929529942524
 31
0.0
 12
5.961284611796909
 22
3.881929529942524
 32
0.0
 13
5.961284611796909
 23
3.881929529942524
 33
0.0
  0
SOLID
  5
1B57
330
F3D
100
AcDbEntity
  8
DIM
 62
     0
100
AcDbTrace
 10
8.381284611796909
 20
3.956929529942525
 30
0.0
 11
8.381284611796909
 21
3.806929529942524
 31
0.0
 12
8.831284611796908
 22
3.881929529942524
 32
0.0
 13
8.831284611796908
 23
3.881929529942524
 33
0.0
  0
MTEXT
  5
1B58
330
F3D
100
AcDbEntity
  8
DIM
 62
     0
100
AcDbMText
 10
7.396284611796909
 20
3.881929529942524
 30
0.0
 40
0.3125
 41
0.0
 71
     5
 72
     1
  1
\A1;2.870
 73
     1
 44
1.0
  0
POINT
  5
1B59
330
F3D
100
AcDbEntity
  8
DEFPOINTS
 62
     0
100
AcDbPoint
 10
5.961284611796909
 20
6.323453600222566
 30
0.0
  0
POINT
  5
1B5A
330
F3D
100
AcDbEntity
  8
DEFPOINTS
 62
     0
100
AcDbPoint
 10
8.831284611796908
 20
6.043474259638542
 30
0.0
  0
POINT
  5
1B5B
330
F3D
100
AcDbEntity
  8
DEFPOINTS
 62
     0
100
AcDbPoint
 10
8.831284611796908
 20
3.881929529942524
 30
0.0
  0
ENDBLK
  5
F49
330
F3D
100
AcDbEntity
  8
0
100
AcDbBlockEnd
  0
BLOCK
  5
F55
330
F4A
100
AcDbEntity
  8
0
100
AcDbBlockBegin
  2
*D34
 70
     1
 10
0.0
 20
0.0
 30
0.0
  3
*D34
  1

  0
LINE
  5
1B5C
330
F4A
100
AcDbEntity
  8
DIM
 62
     0
370
    -2
100
AcDbLine
 10
7.906284611796908
 20
7.207203600222572
 30
0.0
 11
4.89467029648292
 21
7.207203600222573
 31
0.0
  0
LINE
  5
1B5D
330
F4A
100
AcDbEntity
  8
DIM
 62
     0
370
    -2
100
AcDbLine
 10
6.022534611796907
 20
6.104703600222566
 30
0.0
 11
4.89467029648292
 21
6.104703600222567
 31
0.0
  0
LINE
  5
1B5E
330
F4A
100
AcDbEntity
  8
DIM
 62
     0
370
    -2
100
AcDbLine
 10
5.12717029648292
 20
7.657203600222573
 30
0.0
 11
5.12717029648292
 21
8.107203600222572
 31
0.0
  0
LINE
  5
1B5F
330
F4A
100
AcDbEntity
  8
DIM
 62
     0
370
    -2
100
AcDbLine
 10
5.127170296482919
 20
5.654703600222567
 30
0.0
 11
5.127170296482919
 21
5.204703600222566
 31
0.0
  0
LINE
  5
1B60
330
F4A
100
AcDbEntity
  8
DIM
 62
     0
370
    -2
100
AcDbLine
 10
5.127170296482919
 20
5.204703600222566
 30
0.0
 11
4.677170296482919
 21
5.204703600222566
 31
0.0
  0
SOLID
  5
1B61
330
F4A
100
AcDbEntity
  8
DIM
 62
     0
100
AcDbTrace
 10
5.05217029648292
 20
7.657203600222573
 30
0.0
 11
5.20217029648292
 21
7.657203600222573
 31
0.0
 12
5.12717029648292
 22
7.207203600222573
 32
0.0
 13
5.12717029648292
 23
7.207203600222573
 33
0.0
  0
SOLID
  5
1B62
330
F4A
100
AcDbEntity
  8
DIM
 62
     0
100
AcDbTrace
 10
5.052170296482919
 20
5.654703600222567
 30
0.0
 11
5.202170296482919
 21
5.654703600222567
 31
0.0
 12
5.12717029648292
 22
6.104703600222567
 32
0.0
 13
5.12717029648292
 23
6.104703600222567
 33
0.0
  0
MTEXT
  5
1B63
330
F4A
100
AcDbEntity
  8
DIM
 62
     0
100
AcDbMText
 10
4.081076546482918
 20
5.204703600222567
 30
0.0
 40
0.3125
 41
0.0
 71
     5
 72
     1
  1
\A1;1.103
 73
     1
 44
1.0
  0
POINT
  5
1B64
330
F4A
100
AcDbEntity
  8
DEFPOINTS
 62
     0
100
AcDbPoint
 10
8.063784611796908
 20
7.207203600222572
 30
0.0
  0
POINT
  5
1B65
330
F4A
100
AcDbEntity
  8
DEFPOINTS
 62
     0
100
AcDbPoint
 10
6.180034611796907
 20
6.104703600222566
 30
0.0
  0
POINT
  5
1B66
330
F4A
100
AcDbEntity
  8
DEFPOINTS
 62
     0
100
AcDbPoint
 10
5.12717029648292
 20
6.104703600222567
 30
0.0
  0
ENDBLK
  5
F56
330
F4A
100
AcDbEntity
  8
0
100
AcDbBlockEnd
  0
BLOCK
  5
F62
330
F57
100
AcDbEntity
  8
0
100
AcDbBlockBegin
  2
*D35
 70
     1
 10
0.0
 20
0.0
 30
0.0
  3
*D35
  1

  0
LINE
  5
1BAD
330
F57
100
AcDbEntity
  8
DIM
 62
     0
370
    -2
100
AcDbLine
 10
6.815284611796907
 20
14.75180440667418
 30
0.0
 11
6.815284611796907
 21
17.29160986788841
 31
0.0
  0
LINE
  5
1BAE
330
F57
100
AcDbEntity
  8
DIM
 62
     0
370
    -2
100
AcDbLine
 10
5.96128461179691
 20
15.20870360022256
 30
0.0
 11
5.96128461179691
 21
17.29160986788841
 31
0.0
  0
LINE
  5
1BAF
330
F57
100
AcDbEntity
  8
DIM
 62
     0
370
    -2
100
AcDbLine
 10
7.265284611796907
 20
17.05910986788841
 30
0.0
 11
7.715284611796906
 21
17.05910986788841
 31
0.0
  0
LINE
  5
1BB0
330
F57
100
AcDbEntity
  8
DIM
 62
     0
370
    -2
100
AcDbLine
 10
5.51128461179691
 20
17.05910986788841
 30
0.0
 11
5.06128461179691
 21
17.05910986788841
 31
0.0
  0
SOLID
  5
1BB1
330
F57
100
AcDbEntity
  8
DIM
 62
     0
100
AcDbTrace
 10
7.265284611796907
 20
17.1341098678884
 30
0.0
 11
7.265284611796907
 21
16.98410986788841
 31
0.0
 12
6.815284611796907
 22
17.05910986788841
 32
0.0
 13
6.815284611796907
 23
17.05910986788841
 33
0.0
  0
SOLID
  5
1BB2
330
F57
100
AcDbEntity
  8
DIM
 62
     0
100
AcDbTrace
 10
5.51128461179691
 20
17.1341098678884
 30
0.0
 11
5.51128461179691
 21
16.98410986788841
 31
0.0
 12
5.96128461179691
 22
17.05910986788841
 32
0.0
 13
5.96128461179691
 23
17.05910986788841
 33
0.0
  0
MTEXT
  5
1BB3
330
F57
100
AcDbEntity
  8
DIM
 62
     0
100
AcDbMText
 10
4.38706586179691
 20
17.05910986788841
 30
0.0
 40
0.3125
 41
0.0
 71
     5
 72
     1
  1
\A1;0.854
 73
     1
 44
1.0
  0
POINT
  5
1BB4
330
F57
100
AcDbEntity
  8
DEFPOINTS
 62
     0
100
AcDbPoint
 10
6.815284611796907
 20
14.59430440667417
 30
0.0
  0
POINT
  5
1BB5
330
F57
100
AcDbEntity
  8
DEFPOINTS
 62
     0
100
AcDbPoint
 10
5.96128461179691
 20
15.05120360022256
 30
0.0
  0
POINT
  5
1BB6
330
F57
100
AcDbEntity
  8
DEFPOINTS
 62
     0
100
AcDbPoint
 10
5.96128461179691
 20
17.05910986788841
 30
0.0
  0
ENDBLK
  5
F63
330
F57
100
AcDbEntity
  8
0
100
AcDbBlockEnd
  0
BLOCK
  5
F6F
330
F64
100
AcDbEntity
  8
0
100
AcDbBlockBegin
  2
*D36
 70
     1
 10
0.0
 20
0.0
 30
0.0
  3
*D36
  1

  0
LINE
  5
1B7B
330
F64
100
AcDbEntity
  8
DIM
 62
     0
370
    -2
100
AcDbLine
 10
10.8472846117969
 20
14.75180440667418
 30
0.0
 11
10.8472846117969
 21
17.29160986788841
 31
0.0
  0
LINE
  5
1B7C
330
F64
100
AcDbEntity
  8
DIM
 62
     0
370
    -2
100
AcDbLine
 10
6.815284611796907
 20
14.75180440667418
 30
0.0
 11
6.815284611796907
 21
17.29160986788841
 31
0.0
  0
LINE
  5
1B7D
330
F64
100
AcDbEntity
  8
DIM
 62
     0
370
    -2
100
AcDbLine
 10
10.3972846117969
 20
17.05910986788841
 30
0.0
 11
9.505503361796906
 21
17.05910986788841
 31
0.0
  0
LINE
  5
1B7E
330
F64
100
AcDbEntity
  8
DIM
 62
     0
370
    -2
100
AcDbLine
 10
7.265284611796907
 20
17.05910986788841
 30
0.0
 11
8.157065861796906
 21
17.05910986788841
 31
0.0
  0
SOLID
  5
1B7F
330
F64
100
AcDbEntity
  8
DIM
 62
     0
100
AcDbTrace
 10
10.3972846117969
 20
17.1341098678884
 30
0.0
 11
10.3972846117969
 21
16.98410986788841
 31
0.0
 12
10.8472846117969
 22
17.05910986788841
 32
0.0
 13
10.8472846117969
 23
17.05910986788841
 33
0.0
  0
SOLID
  5
1B80
330
F64
100
AcDbEntity
  8
DIM
 62
     0
100
AcDbTrace
 10
7.265284611796907
 20
17.1341098678884
 30
0.0
 11
7.265284611796907
 21
16.98410986788841
 31
0.0
 12
6.815284611796907
 22
17.05910986788841
 32
0.0
 13
6.815284611796907
 23
17.05910986788841
 33
0.0
  0
MTEXT
  5
1B81
330
F64
100
AcDbEntity
  8
DIM
 62
     0
100
AcDbMText
 10
8.831284611796906
 20
17.05910986788841
 30
0.0
 40
0.3125
 41
0.0
 71
     5
 72
     1
  1
\A1;4.032
 73
     1
 44
1.0
  0
POINT
  5
1B82
330
F64
100
AcDbEntity
  8
DEFPOINTS
 62
     0
100
AcDbPoint
 10
10.8472846117969
 20
14.59430440667417
 30
0.0
  0
POINT
  5
1B83
330
F64
100
AcDbEntity
  8
DEFPOINTS
 62
     0
100
AcDbPoint
 10
6.815284611796907
 20
14.59430440667417
 30
0.0
  0
POINT
  5
1B84
330
F64
100
AcDbEntity
  8
DEFPOINTS
 62
     0
100
AcDbPoint
 10
6.815284611796907
 20
17.05910986788841
 30
0.0
  0
ENDBLK
  5
F70
330
F64
100
AcDbEntity
  8
0
100
AcDbBlockEnd
  0
BLOCK
  5
F7D
330
F71
100
AcDbEntity
  8
0
100
AcDbBlockBegin
  2
*D37
 70
     1
 10
0.0
 20
0.0
 30
0.0
  3
*D37
  1

  0
LINE
  5
1AC3
330
F71
100
AcDbEntity
  8
DIM
 62
     0
370
    -2
100
AcDbLine
 10
11.6227846117969
 20
14.59995360022257
 30
0.0
 11
13.53521857914459
 21
14.59995360022257
 31
0.0
  0
LINE
  5
1AC4
330
F71
100
AcDbEntity
  8
DIM
 62
     0
370
    -2
100
AcDbLine
 10
11.6400346117969
 20
14.84470360022256
 30
0.0
 11
13.53521857914459
 21
14.84470360022255
 31
0.0
  0
LINE
  5
1AC5
330
F71
100
AcDbEntity
  8
DIM
 62
     0
370
    -2
100
AcDbLine
 10
13.30271857914459
 20
14.14995360022257
 30
0.0
 11
13.30271857914459
 21
13.69995360022257
 31
0.0
  0
LINE
  5
1AC6
330
F71
100
AcDbEntity
  8
DIM
 62
     0
370
    -2
100
AcDbLine
 10
13.30271857914459
 20
15.29470360022255
 30
0.0
 11
13.30271857914459
 21
15.74470360022256
 31
0.0
  0
LINE
  5
1AC7
330
F71
100
AcDbEntity
  8
DIM
 62
     0
370
    -2
100
AcDbLine
 10
13.30271857914459
 20
15.74470360022256
 30
0.0
 11
13.75271857914459
 21
15.74470360022256
 31
0.0
  0
SOLID
  5
1AC8
330
F71
100
AcDbEntity
  8
DIM
 62
     0
100
AcDbTrace
 10
13.22771857914459
 20
14.14995360022257
 30
0.0
 11
13.37771857914459
 21
14.14995360022257
 31
0.0
 12
13.30271857914459
 22
14.59995360022257
 32
0.0
 13
13.30271857914459
 23
14.59995360022257
 33
0.0
  0
SOLID
  5
1AC9
330
F71
100
AcDbEntity
  8
DIM
 62
     0
100
AcDbTrace
 10
13.22771857914459
 20
15.29470360022255
 30
0.0
 11
13.37771857914459
 21
15.29470360022255
 31
0.0
 12
13.30271857914459
 22
14.84470360022255
 32
0.0
 13
13.30271857914459
 23
14.84470360022255
 33
0.0
  0
MTEXT
  5
1ACA
330
F71
100
AcDbEntity
  8
DIM
 62
     0
100
AcDbMText
 10
14.42693732914459
 20
15.74470360022256
 30
0.0
 40
0.3125
 41
0.0
 71
     5
 72
     1
  1
\A1;0.245
 73
     1
 44
1.0
  0
POINT
  5
1ACB
330
F71
100
AcDbEntity
  8
DEFPOINTS
 62
     0
100
AcDbPoint
 10
11.4652846117969
 20
14.59995360022257
 30
0.0
  0
POINT
  5
1ACC
330
F71
100
AcDbEntity
  8
DEFPOINTS
 62
     0
100
AcDbPoint
 10
11.4825346117969
 20
14.84470360022256
 30
0.0
  0
POINT
  5
1ACD
330
F71
100
AcDbEntity
  8
DEFPOINTS
 62
     0
100
AcDbPoint
 10
13.30271857914459
 20
14.84470360022255
 30
0.0
  0
ENDBLK
  5
F7E
330
F71
100
AcDbEntity
  8
0
100
AcDbBlockEnd
  0
BLOCK
  5
F8B
330
F7F
100
AcDbEntity
  8
0
100
AcDbBlockBegin
  2
*D38
 70
     1
 10
0.0
 20
0.0
 30
0.0
  3
*D38
  1

  0
LINE
  5
1A15
330
F7F
100
AcDbEntity
  8
DIM
 62
     0
370
    -2
100
AcDbLine
 10
28.1116576580752
 20
6.28470360022257
 30
0.0
 11
27.98031508989063
 21
6.28470360022257
 31
0.0
  0
LINE
  5
1A16
330
F7F
100
AcDbEntity
  8
DIM
 62
     0
370
    -2
100
AcDbLine
 10
28.1116576580752
 20
6.10470360022257
 30
0.0
 11
27.98031508989063
 21
6.10470360022257
 31
0.0
  0
LINE
  5
1A17
330
F7F
100
AcDbEntity
  8
DIM
 62
     0
370
    -2
100
AcDbLine
 10
28.21281508989063
 20
6.73470360022257
 30
0.0
 11
28.21281508989063
 21
7.18470360022257
 31
0.0
  0
LINE
  5
1A18
330
F7F
100
AcDbEntity
  8
DIM
 62
     0
370
    -2
100
AcDbLine
 10
28.21281508989063
 20
5.654703600222569
 30
0.0
 11
28.21281508989063
 21
5.204703600222569
 31
0.0
  0
LINE
  5
1A19
330
F7F
100
AcDbEntity
  8
DIM
 62
     0
370
    -2
100
AcDbLine
 10
28.21281508989063
 20
5.204703600222569
 30
0.0
 11
27.76281508989063
 21
5.204703600222569
 31
0.0
  0
SOLID
  5
1A1A
330
F7F
100
AcDbEntity
  8
DIM
 62
     0
100
AcDbTrace
 10
28.13781508989063
 20
6.73470360022257
 30
0.0
 11
28.28781508989063
 21
6.73470360022257
 31
0.0
 12
28.21281508989063
 22
6.28470360022257
 32
0.0
 13
28.21281508989063
 23
6.28470360022257
 33
0.0
  0
SOLID
  5
1A1B
330
F7F
100
AcDbEntity
  8
DIM
 62
     0
100
AcDbTrace
 10
28.13781508989063
 20
5.654703600222569
 30
0.0
 11
28.28781508989063
 21
5.654703600222569
 31
0.0
 12
28.21281508989063
 22
6.10470360022257
 32
0.0
 13
28.21281508989063
 23
6.10470360022257
 33
0.0
  0
MTEXT
  5
1A1C
330
F7F
100
AcDbEntity
  8
DIM
 62
     0
100
AcDbMText
 10
26.63937758989063
 20
5.204703600222574
 30
0.0
 40
0.3125
 41
0.0
 71
     5
 72
     1
  1
\A1;0.180 TYP.
 73
     1
 44
1.0
  0
POINT
  5
1A1D
330
F7F
100
AcDbEntity
  8
DEFPOINTS
 62
     0
100
AcDbPoint
 10
28.2691576580752
 20
6.28470360022257
 30
0.0
  0
POINT
  5
1A1E
330
F7F
100
AcDbEntity
  8
DEFPOINTS
 62
     0
100
AcDbPoint
 10
28.2691576580752
 20
6.10470360022257
 30
0.0
  0
POINT
  5
1A1F
330
F7F
100
AcDbEntity
  8
DEFPOINTS
 62
     0
100
AcDbPoint
 10
28.21281508989063
 20
6.10470360022257
 30
0.0
  0
ENDBLK
  5
F8C
330
F7F
100
AcDbEntity
  8
0
100
AcDbBlockEnd
  0
BLOCK
  5
F99
330
F8D
100
AcDbEntity
  8
0
100
AcDbBlockBegin
  2
*D39
 70
     1
 10
0.0
 20
0.0
 30
0.0
  3
*D39
  1

  0
LINE
  5
1A7B
330
F8D
100
AcDbEntity
  8
DIM
 62
     0
370
    -2
100
AcDbLine
 10
17.40158298671766
 20
8.268703600222568
 30
0.0
 11
15.05335763424765
 21
8.268703600222568
 31
0.0
  0
LINE
  5
1A7C
330
F8D
100
AcDbEntity
  8
DIM
 62
     0
370
    -2
100
AcDbLine
 10
17.40158298671766
 20
8.356203600222574
 30
0.0
 11
15.05335763424765
 21
8.356203600222574
 31
0.0
  0
LINE
  5
1A7D
330
F8D
100
AcDbEntity
  8
DIM
 62
     0
370
    -2
100
AcDbLine
 10
15.28585763424765
 20
7.818703600222568
 30
0.0
 11
15.28585763424765
 21
7.368703600222568
 31
0.0
  0
LINE
  5
1A7E
330
F8D
100
AcDbEntity
  8
DIM
 62
     0
370
    -2
100
AcDbLine
 10
15.28585763424765
 20
8.806203600222573
 30
0.0
 11
15.28585763424765
 21
9.256203600222574
 31
0.0
  0
LINE
  5
1A7F
330
F8D
100
AcDbEntity
  8
DIM
 62
     0
370
    -2
100
AcDbLine
 10
15.28585763424765
 20
9.256203600222574
 30
0.0
 11
15.73585763424765
 21
9.256203600222574
 31
0.0
  0
SOLID
  5
1A80
330
F8D
100
AcDbEntity
  8
DIM
 62
     0
100
AcDbTrace
 10
15.21085763424765
 20
7.818703600222568
 30
0.0
 11
15.36085763424765
 21
7.818703600222568
 31
0.0
 12
15.28585763424765
 22
8.268703600222568
 32
0.0
 13
15.28585763424765
 23
8.268703600222568
 33
0.0
  0
SOLID
  5
1A81
330
F8D
100
AcDbEntity
  8
DIM
 62
     0
100
AcDbTrace
 10
15.21085763424765
 20
8.806203600222573
 30
0.0
 11
15.36085763424765
 21
8.806203600222573
 31
0.0
 12
15.28585763424765
 22
8.356203600222574
 32
0.0
 13
15.28585763424765
 23
8.356203600222574
 33
0.0
  0
MTEXT
  5
1A82
330
F8D
100
AcDbEntity
  8
DIM
 62
     0
100
AcDbMText
 10
16.39054513424765
 20
9.256203600222576
 30
0.0
 40
0.3125
 41
0.0
 71
     5
 72
     1
  1
\A1;0.088
 73
     1
 44
1.0
  0
POINT
  5
1A83
330
F8D
100
AcDbEntity
  8
DEFPOINTS
 62
     0
100
AcDbPoint
 10
17.55908298671766
 20
8.268703600222568
 30
0.0
  0
POINT
  5
1A84
330
F8D
100
AcDbEntity
  8
DEFPOINTS
 62
     0
100
AcDbPoint
 10
17.55908298671766
 20
8.356203600222574
 30
0.0
  0
POINT
  5
1A85
330
F8D
100
AcDbEntity
  8
DEFPOINTS
 62
     0
100
AcDbPoint
 10
15.28585763424765
 20
8.356203600222574
 30
0.0
  0
ENDBLK
  5
F9A
330
F8D
100
AcDbEntity
  8
0
100
AcDbBlockEnd
  0
BLOCK
  5
FA7
330
F9B
100
AcDbEntity
  8
0
100
AcDbBlockBegin
  2
*D40
 70
     1
 10
0.0
 20
0.0
 30
0.0
  3
*D40
  1

  0
LINE
  5
1AAE
330
F9B
100
AcDbEntity
  8
DIM
 62
     0
370
    -2
100
AcDbLine
 10
19.24620798671765
 20
6.245328600222562
 30
0.0
 11
19.69438667954092
 21
6.245328600222562
 31
0.0
  0
LINE
  5
1AAF
330
F9B
100
AcDbEntity
  8
DIM
 62
     0
370
    -2
100
AcDbLine
 10
19.24620798671765
 20
6.417203600222566
 30
0.0
 11
19.69438667954092
 21
6.417203600222566
 31
0.0
  0
LINE
  5
1AB0
330
F9B
100
AcDbEntity
  8
DIM
 62
     0
370
    -2
100
AcDbLine
 10
19.46188667954092
 20
5.795328600222562
 30
0.0
 11
19.46188667954092
 21
5.345328600222562
 31
0.0
  0
LINE
  5
1AB1
330
F9B
100
AcDbEntity
  8
DIM
 62
     0
370
    -2
100
AcDbLine
 10
19.46188667954092
 20
6.867203600222566
 30
0.0
 11
19.46188667954092
 21
7.317203600222566
 31
0.0
  0
LINE
  5
1AB2
330
F9B
100
AcDbEntity
  8
DIM
 62
     0
370
    -2
100
AcDbLine
 10
19.46188667954092
 20
7.317203600222566
 30
0.0
 11
19.91188667954092
 21
7.317203600222566
 31
0.0
  0
SOLID
  5
1AB3
330
F9B
100
AcDbEntity
  8
DIM
 62
     0
100
AcDbTrace
 10
19.38688667954092
 20
5.795328600222562
 30
0.0
 11
19.53688667954092
 21
5.795328600222562
 31
0.0
 12
19.46188667954092
 22
6.245328600222562
 32
0.0
 13
19.46188667954092
 23
6.245328600222562
 33
0.0
  0
SOLID
  5
1AB4
330
F9B
100
AcDbEntity
  8
DIM
 62
     0
100
AcDbTrace
 10
19.38688667954092
 20
6.867203600222566
 30
0.0
 11
19.53688667954092
 21
6.867203600222566
 31
0.0
 12
19.46188667954092
 22
6.417203600222566
 32
0.0
 13
19.46188667954092
 23
6.417203600222566
 33
0.0
  0
MTEXT
  5
1AB5
330
F9B
100
AcDbEntity
  8
DIM
 62
     0
100
AcDbMText
 10
21.01579292954092
 20
7.31720360022257
 30
0.0
 40
0.3125
 41
0.0
 71
     5
 72
     1
  1
\A1;0.172 DIA.
 73
     1
 44
1.0
  0
POINT
  5
1AB6
330
F9B
100
AcDbEntity
  8
DEFPOINTS
 62
     0
100
AcDbPoint
 10
19.08870798671765
 20
6.245328600222562
 30
0.0
  0
POINT
  5
1AB7
330
F9B
100
AcDbEntity
  8
DEFPOINTS
 62
     0
100
AcDbPoint
 10
19.08870798671765
 20
6.417203600222566
 30
0.0
  0
POINT
  5
1AB8
330
F9B
100
AcDbEntity
  8
DEFPOINTS
 62
     0
100
AcDbPoint
 10
19.46188667954092
 20
6.417203600222566
 30
0.0
  0
ENDBLK
  5
FA8
330
F9B
100
AcDbEntity
  8
0
100
AcDbBlockEnd
  0
BLOCK
  5
FB5
330
FA9
100
AcDbEntity
  8
0
100
AcDbBlockBegin
  2
*D41
 70
     1
 10
0.0
 20
0.0
 30
0.0
  3
*D41
  1

  0
LINE
  5
1BE0
330
FA9
100
AcDbEntity
  8
DIM
 62
     0
370
    -2
100
AcDbLine
 10
19.24620798671764
 20
14.44245360022257
 30
0.0
 11
20.57997920192955
 21
14.44245360022257
 31
0.0
  0
LINE
  5
1BE1
330
FA9
100
AcDbEntity
  8
DIM
 62
     0
370
    -2
100
AcDbLine
 10
19.24620798671764
 20
14.75745360022258
 30
0.0
 11
20.57997920192955
 21
14.75745360022257
 31
0.0
  0
LINE
  5
1BE2
330
FA9
100
AcDbEntity
  8
DIM
 62
     0
370
    -2
100
AcDbLine
 10
20.34747920192955
 20
13.99245360022257
 30
0.0
 11
20.34747920192955
 21
13.54245360022257
 31
0.0
  0
LINE
  5
1BE3
330
FA9
100
AcDbEntity
  8
DIM
 62
     0
370
    -2
100
AcDbLine
 10
20.34747920192955
 20
15.20745360022257
 30
0.0
 11
20.34747920192955
 21
15.65745360022257
 31
0.0
  0
LINE
  5
1BE4
330
FA9
100
AcDbEntity
  8
DIM
 62
     0
370
    -2
100
AcDbLine
 10
20.34747920192955
 20
15.65745360022257
 30
0.0
 11
20.79747920192955
 21
15.65745360022257
 31
0.0
  0
SOLID
  5
1BE5
330
FA9
100
AcDbEntity
  8
DIM
 62
     0
100
AcDbTrace
 10
20.27247920192956
 20
13.99245360022257
 30
0.0
 11
20.42247920192955
 21
13.99245360022257
 31
0.0
 12
20.34747920192955
 22
14.44245360022257
 32
0.0
 13
20.34747920192955
 23
14.44245360022257
 33
0.0
  0
SOLID
  5
1BE6
330
FA9
100
AcDbEntity
  8
DIM
 62
     0
100
AcDbTrace
 10
20.27247920192956
 20
15.20745360022257
 30
0.0
 11
20.42247920192955
 21
15.20745360022257
 31
0.0
 12
20.34747920192955
 22
14.75745360022257
 32
0.0
 13
20.34747920192955
 23
14.75745360022257
 33
0.0
  0
MTEXT
  5
1BE7
330
FA9
100
AcDbEntity
  8
DIM
 62
     0
100
AcDbMText
 10
21.90138545192955
 20
15.65745360022258
 30
0.0
 40
0.3125
 41
0.0
 71
     5
 72
     1
  1
\A1;0.313 DIA.
 73
     1
 44
1.0
  0
POINT
  5
1BE8
330
FA9
100
AcDbEntity
  8
DEFPOINTS
 62
     0
100
AcDbPoint
 10
19.08870798671764
 20
14.44245360022257
 30
0.0
  0
POINT
  5
1BE9
330
FA9
100
AcDbEntity
  8
DEFPOINTS
 62
     0
100
AcDbPoint
 10
19.08870798671764
 20
14.75745360022258
 30
0.0
  0
POINT
  5
1BEA
330
FA9
100
AcDbEntity
  8
DEFPOINTS
 62
     0
100
AcDbPoint
 10
20.34747920192955
 20
14.75745360022257
 30
0.0
  0
ENDBLK
  5
FB6
330
FA9
100
AcDbEntity
  8
0
100
AcDbBlockEnd
  0
BLOCK
  5
FD2
330
FC6
100
AcDbEntity
  8
0
100
AcDbBlockBegin
  2
*D42
 70
     1
 10
0.0
 20
0.0
 30
0.0
  3
*D42
  1

  0
LINE
  5
190D
330
FC6
100
AcDbEntity
  8
DIM
 62
     0
370
    -2
100
AcDbLine
 10
28.20206140191384
 20
21.16067110068729
 30
0.0
 11
25.88712695562833
 21
21.16067110068729
 31
0.0
  0
LINE
  5
190E
330
FC6
100
AcDbEntity
  8
DIM
 62
     0
370
    -2
100
AcDbLine
 10
28.20206140191384
 20
20.84067110068728
 30
0.0
 11
25.88712695562833
 21
20.84067110068728
 31
0.0
  0
LINE
  5
190F
330
FC6
100
AcDbEntity
  8
DIM
 62
     0
370
    -2
100
AcDbLine
 10
26.11962695562833
 20
21.61067110068729
 30
0.0
 11
26.11962695562833
 21
22.06067110068729
 31
0.0
  0
LINE
  5
1910
330
FC6
100
AcDbEntity
  8
DIM
 62
     0
370
    -2
100
AcDbLine
 10
26.11962695562833
 20
20.39067110068728
 30
0.0
 11
26.11962695562833
 21
19.94067110068728
 31
0.0
  0
LINE
  5
1911
330
FC6
100
AcDbEntity
  8
DIM
 62
     0
370
    -2
100
AcDbLine
 10
26.11962695562833
 20
19.94067110068728
 30
0.0
 11
25.66962695562833
 21
19.94067110068728
 31
0.0
  0
SOLID
  5
1912
330
FC6
100
AcDbEntity
  8
DIM
 62
     0
100
AcDbTrace
 10
26.04462695562833
 20
21.61067110068729
 30
0.0
 11
26.19462695562833
 21
21.61067110068729
 31
0.0
 12
26.11962695562833
 22
21.16067110068729
 32
0.0
 13
26.11962695562833
 23
21.16067110068729
 33
0.0
  0
SOLID
  5
1913
330
FC6
100
AcDbEntity
  8
DIM
 62
     0
100
AcDbTrace
 10
26.04462695562833
 20
20.39067110068728
 30
0.0
 11
26.19462695562833
 21
20.39067110068728
 31
0.0
 12
26.11962695562833
 22
20.84067110068728
 32
0.0
 13
26.11962695562833
 23
20.84067110068728
 33
0.0
  0
MTEXT
  5
1914
330
FC6
100
AcDbEntity
  8
DIM
 62
     0
100
AcDbMText
 10
25.03447070562833
 20
19.94067110068729
 30
0.0
 40
0.3125
 41
0.0
 71
     5
 72
     1
  1
\A1;0.080
 73
     1
 44
1.0
  0
POINT
  5
1915
330
FC6
100
AcDbEntity
  8
DEFPOINTS
 62
     0
100
AcDbPoint
 10
28.35956140191384
 20
21.16067110068729
 30
0.0
  0
POINT
  5
1916
330
FC6
100
AcDbEntity
  8
DEFPOINTS
 62
     0
100
AcDbPoint
 10
28.35956140191384
 20
20.84067110068728
 30
0.0
  0
POINT
  5
1917
330
FC6
100
AcDbEntity
  8
DEFPOINTS
 62
     0
100
AcDbPoint
 10
26.11962695562833
 20
20.84067110068728
 30
0.0
  0
ENDBLK
  5
FD3
330
FC6
100
AcDbEntity
  8
0
100
AcDbBlockEnd
  0
BLOCK
  5
FDF
330
FD4
100
AcDbEntity
  8
0
100
AcDbBlockBegin
  2
*D43
 70
     1
 10
0.0
 20
0.0
 30
0.0
  3
*D43
  1

  0
LINE
  5
195E
330
FD4
100
AcDbEntity
  8
DIM
 62
     0
370
    -2
100
AcDbLine
 10
28.35956140191383
 20
22.83068741121328
 30
0.0
 11
28.35956140191383
 21
23.514058206416
 31
0.0
  0
LINE
  5
195F
330
FD4
100
AcDbEntity
  8
DIM
 62
     0
370
    -2
100
AcDbLine
 10
28.81956140191388
 20
21.31817110068726
 30
0.0
 11
28.81956140191388
 21
23.514058206416
 31
0.0
  0
LINE
  5
1960
330
FD4
100
AcDbEntity
  8
DIM
 62
     0
370
    -2
100
AcDbLine
 10
27.90956140191383
 20
23.281558206416
 30
0.0
 11
27.45956140191383
 21
23.281558206416
 31
0.0
  0
LINE
  5
1961
330
FD4
100
AcDbEntity
  8
DIM
 62
     0
370
    -2
100
AcDbLine
 10
29.26956140191388
 20
23.281558206416
 30
0.0
 11
29.71956140191388
 21
23.281558206416
 31
0.0
  0
SOLID
  5
1962
330
FD4
100
AcDbEntity
  8
DIM
 62
     0
100
AcDbTrace
 10
27.90956140191383
 20
23.356558206416
 30
0.0
 11
27.90956140191383
 21
23.206558206416
 31
0.0
 12
28.35956140191383
 22
23.281558206416
 32
0.0
 13
28.35956140191383
 23
23.281558206416
 33
0.0
  0
SOLID
  5
1963
330
FD4
100
AcDbEntity
  8
DIM
 62
     0
100
AcDbTrace
 10
29.26956140191388
 20
23.356558206416
 30
0.0
 11
29.26956140191388
 21
23.206558206416
 31
0.0
 12
28.81956140191388
 22
23.281558206416
 32
0.0
 13
28.81956140191388
 23
23.281558206416
 33
0.0
  0
MTEXT
  5
1964
330
FD4
100
AcDbEntity
  8
DIM
 62
     0
100
AcDbMText
 10
30.31565515191388
 20
23.281558206416
 30
0.0
 40
0.3125
 41
0.0
 71
     5
 72
     1
  1
\A1;0.115
 73
     1
 44
1.0
  0
POINT
  5
1965
330
FD4
100
AcDbEntity
  8
DEFPOINTS
 62
     0
100
AcDbPoint
 10
28.35956140191383
 20
22.67318741121328
 30
0.0
  0
POINT
  5
1966
330
FD4
100
AcDbEntity
  8
DEFPOINTS
 62
     0
100
AcDbPoint
 10
28.81956140191388
 20
21.16067110068726
 30
0.0
  0
POINT
  5
1967
330
FD4
100
AcDbEntity
  8
DEFPOINTS
 62
     0
100
AcDbPoint
 10
28.81956140191388
 20
23.281558206416
 30
0.0
  0
ENDBLK
  5
FE0
330
FD4
100
AcDbEntity
  8
0
100
AcDbBlockEnd
  0
BLOCK
  5
FEC
330
FE1
100
AcDbEntity
  8
0
100
AcDbBlockBegin
  2
*D44
 70
     1
 10
0.0
 20
0.0
 30
0.0
  3
*D44
  1

  0
LINE
  5
1918
330
FE1
100
AcDbEntity
  8
DIM
 62
     0
370
    -2
100
AcDbLine
 10
28.20206140191384
 20
20.43092110068724
 30
0.0
 11
27.05362695562833
 21
20.43092110068724
 31
0.0
  0
LINE
  5
1919
330
FE1
100
AcDbEntity
  8
DIM
 62
     0
370
    -2
100
AcDbLine
 10
28.20206140191384
 20
19.74342110068724
 30
0.0
 11
27.05362695562833
 21
19.74342110068724
 31
0.0
  0
LINE
  5
191A
330
FE1
100
AcDbEntity
  8
DIM
 62
     0
370
    -2
100
AcDbLine
 10
27.28612695562833
 20
20.88092110068724
 30
0.0
 11
27.28612695562833
 21
21.33092110068724
 31
0.0
  0
LINE
  5
191B
330
FE1
100
AcDbEntity
  8
DIM
 62
     0
370
    -2
100
AcDbLine
 10
27.28612695562833
 20
19.29342110068724
 30
0.0
 11
27.28612695562833
 21
18.84342110068724
 31
0.0
  0
SOLID
  5
191C
330
FE1
100
AcDbEntity
  8
DIM
 62
     0
100
AcDbTrace
 10
27.21112695562833
 20
20.88092110068724
 30
0.0
 11
27.36112695562833
 21
20.88092110068724
 31
0.0
 12
27.28612695562833
 22
20.43092110068724
 32
0.0
 13
27.28612695562833
 23
20.43092110068724
 33
0.0
  0
SOLID
  5
191D
330
FE1
100
AcDbEntity
  8
DIM
 62
     0
100
AcDbTrace
 10
27.21112695562833
 20
19.29342110068724
 30
0.0
 11
27.36112695562833
 21
19.29342110068724
 31
0.0
 12
27.28612695562833
 22
19.74342110068724
 32
0.0
 13
27.28612695562833
 23
19.74342110068724
 33
0.0
  0
MTEXT
  5
191E
330
FE1
100
AcDbEntity
  8
DIM
 62
     0
100
AcDbMText
 10
27.28612695562833
 20
20.08717110068725
 30
0.0
 40
0.3125
 41
0.0
 71
     5
 72
     1
  1
\A1;0.172 DIA.
 73
     1
 44
1.0
  0
POINT
  5
191F
330
FE1
100
AcDbEntity
  8
DEFPOINTS
 62
     0
100
AcDbPoint
 10
28.35956140191384
 20
20.43092110068724
 30
0.0
  0
POINT
  5
1920
330
FE1
100
AcDbEntity
  8
DEFPOINTS
 62
     0
100
AcDbPoint
 10
28.35956140191384
 20
19.74342110068724
 30
0.0
  0
POINT
  5
1921
330
FE1
100
AcDbEntity
  8
DEFPOINTS
 62
     0
100
AcDbPoint
 10
27.28612695562833
 20
19.74342110068724
 30
0.0
  0
ENDBLK
  5
FED
330
FE1
100
AcDbEntity
  8
0
100
AcDbBlockEnd
  0
BLOCK
  5
FF9
330
FEE
100
AcDbEntity
  8
0
100
AcDbBlockBegin
  2
*D45
 70
     1
 10
0.0
 20
0.0
 30
0.0
  3
*D45
  1

  0
LINE
  5
1922
330
FEE
100
AcDbEntity
  8
DIM
 62
     0
370
    -2
100
AcDbLine
 10
34.03706140191388
 20
19.46217110068724
 30
0.0
 11
35.3784084912895
 21
19.46217110068724
 31
0.0
  0
LINE
  5
1923
330
FEE
100
AcDbEntity
  8
DIM
 62
     0
370
    -2
100
AcDbLine
 10
34.03706140191388
 20
20.71217110068724
 30
0.0
 11
35.3784084912895
 21
20.71217110068724
 31
0.0
  0
LINE
  5
1924
330
FEE
100
AcDbEntity
  8
DIM
 62
     0
370
    -2
100
AcDbLine
 10
35.1459084912895
 20
19.01217110068724
 30
0.0
 11
35.1459084912895
 21
18.56217110068724
 31
0.0
  0
LINE
  5
1925
330
FEE
100
AcDbEntity
  8
DIM
 62
     0
370
    -2
100
AcDbLine
 10
35.1459084912895
 20
21.16217110068724
 30
0.0
 11
35.1459084912895
 21
21.61217110068724
 31
0.0
  0
SOLID
  5
1926
330
FEE
100
AcDbEntity
  8
DIM
 62
     0
100
AcDbTrace
 10
35.0709084912895
 20
19.01217110068724
 30
0.0
 11
35.2209084912895
 21
19.01217110068724
 31
0.0
 12
35.1459084912895
 22
19.46217110068724
 32
0.0
 13
35.1459084912895
 23
19.46217110068724
 33
0.0
  0
SOLID
  5
1927
330
FEE
100
AcDbEntity
  8
DIM
 62
     0
100
AcDbTrace
 10
35.0709084912895
 20
21.16217110068724
 30
0.0
 11
35.2209084912895
 21
21.16217110068724
 31
0.0
 12
35.1459084912895
 22
20.71217110068724
 32
0.0
 13
35.1459084912895
 23
20.71217110068724
 33
0.0
  0
MTEXT
  5
1928
330
FEE
100
AcDbEntity
  8
DIM
 62
     0
100
AcDbMText
 10
35.14590849128949
 20
20.08717110068724
 30
0.0
 40
0.3125
 41
0.0
 71
     5
 72
     1
  1
\A1;0.313 DIA.\PC'BORE
 73
     1
 44
1.0
  0
POINT
  5
1929
330
FEE
100
AcDbEntity
  8
DEFPOINTS
 62
     0
100
AcDbPoint
 10
33.87956140191388
 20
19.46217110068724
 30
0.0
  0
POINT
  5
192A
330
FEE
100
AcDbEntity
  8
DEFPOINTS
 62
     0
100
AcDbPoint
 10
33.87956140191388
 20
20.71217110068724
 30
0.0
  0
POINT
  5
192B
330
FEE
100
AcDbEntity
  8
DEFPOINTS
 62
     0
100
AcDbPoint
 10
35.1459084912895
 20
20.71217110068724
 30
0.0
  0
ENDBLK
  5
FFA
330
FEE
100
AcDbEntity
  8
0
100
AcDbBlockEnd
  0
BLOCK
  5
1006
330
FFB
100
AcDbEntity
  8
0
100
AcDbBlockBegin
  2
*D46
 70
     1
 10
0.0
 20
0.0
 30
0.0
  3
*D46
  1

  0
LINE
  5
1A3E
330
FFB
100
AcDbEntity
  8
DIM
 62
     0
370
    -2
100
AcDbLine
 10
33.87545041211374
 20
14.87548521434183
 30
0.0
 11
33.87545041211374
 21
15.56099453660761
 31
0.0
  0
LINE
  5
1A3F
330
FFB
100
AcDbEntity
  8
DIM
 62
     0
370
    -2
100
AcDbLine
 10
32.49545041211373
 20
14.93798521434183
 30
0.0
 11
32.49545041211373
 21
15.56099453660761
 31
0.0
  0
LINE
  5
1A40
330
FFB
100
AcDbEntity
  8
DIM
 62
     0
370
    -2
100
AcDbLine
 10
34.32545041211374
 20
15.32849453660761
 30
0.0
 11
34.77545041211374
 21
15.32849453660761
 31
0.0
  0
LINE
  5
1A41
330
FFB
100
AcDbEntity
  8
DIM
 62
     0
370
    -2
100
AcDbLine
 10
32.04545041211373
 20
15.32849453660761
 30
0.0
 11
31.59545041211373
 21
15.32849453660761
 31
0.0
  0
SOLID
  5
1A42
330
FFB
100
AcDbEntity
  8
DIM
 62
     0
100
AcDbTrace
 10
34.32545041211374
 20
15.40349453660762
 30
0.0
 11
34.32545041211374
 21
15.25349453660762
 31
0.0
 12
33.87545041211374
 22
15.32849453660761
 32
0.0
 13
33.87545041211374
 23
15.32849453660761
 33
0.0
  0
SOLID
  5
1A43
330
FFB
100
AcDbEntity
  8
DIM
 62
     0
100
AcDbTrace
 10
32.04545041211373
 20
15.40349453660762
 30
0.0
 11
32.04545041211373
 21
15.25349453660762
 31
0.0
 12
32.49545041211373
 22
15.32849453660761
 32
0.0
 13
32.49545041211373
 23
15.32849453660761
 33
0.0
  0
MTEXT
  5
1A44
330
FFB
100
AcDbEntity
  8
DIM
 62
     0
100
AcDbMText
 10
33.18545041211374
 20
15.32849453660761
 30
0.0
 40
0.3125
 41
0.0
 71
     5
 72
     1
  1
\A1;1.380
 73
     1
 44
1.0
  0
POINT
  5
1A45
330
FFB
100
AcDbEntity
  8
DEFPOINTS
 62
     0
100
AcDbPoint
 10
33.87545041211374
 20
14.71798521434183
 30
0.0
  0
POINT
  5
1A46
330
FFB
100
AcDbEntity
  8
DEFPOINTS
 62
     0
100
AcDbPoint
 10
32.49545041211373
 20
14.78048521434183
 30
0.0
  0
POINT
  5
1A47
330
FFB
100
AcDbEntity
  8
DEFPOINTS
 62
     0
100
AcDbPoint
 10
32.49545041211373
 20
15.32849453660761
 30
0.0
  0
ENDBLK
  5
1007
330
FFB
100
AcDbEntity
  8
0
100
AcDbBlockEnd
  0
BLOCK
  5
1013
330
1008
100
AcDbEntity
  8
0
100
AcDbBlockBegin
  2
*D47
 70
     1
 10
0.0
 20
0.0
 30
0.0
  3
*D47
  1

  0
LINE
  5
1AA4
330
1008
100
AcDbEntity
  8
DIM
 62
     0
370
    -2
100
AcDbLine
 10
11.6400346117969
 20
6.10470360022257
 30
0.0
 11
14.53457002123219
 21
6.104703600222569
 31
0.0
  0
LINE
  5
1AA5
330
1008
100
AcDbEntity
  8
DIM
 62
     0
370
    -2
100
AcDbLine
 10
11.2682846117969
 20
6.902203600222565
 30
0.0
 11
14.53457002123219
 21
6.902203600222565
 31
0.0
  0
LINE
  5
1AA6
330
1008
100
AcDbEntity
  8
DIM
 62
     0
370
    -2
100
AcDbLine
 10
14.30207002123219
 20
5.654703600222569
 30
0.0
 11
14.30207002123219
 21
5.204703600222568
 31
0.0
  0
LINE
  5
1AA7
330
1008
100
AcDbEntity
  8
DIM
 62
     0
370
    -2
100
AcDbLine
 10
14.30207002123219
 20
7.352203600222565
 30
0.0
 11
14.30207002123219
 21
7.802203600222565
 31
0.0
  0
SOLID
  5
1AA8
330
1008
100
AcDbEntity
  8
DIM
 62
     0
100
AcDbTrace
 10
14.22707002123219
 20
5.654703600222569
 30
0.0
 11
14.37707002123219
 21
5.654703600222569
 31
0.0
 12
14.30207002123219
 22
6.104703600222569
 32
0.0
 13
14.30207002123219
 23
6.104703600222569
 33
0.0
  0
SOLID
  5
1AA9
330
1008
100
AcDbEntity
  8
DIM
 62
     0
100
AcDbTrace
 10
14.22707002123219
 20
7.352203600222565
 30
0.0
 11
14.37707002123219
 21
7.352203600222565
 31
0.0
 12
14.30207002123219
 22
6.902203600222565
 32
0.0
 13
14.30207002123219
 23
6.902203600222565
 33
0.0
  0
MTEXT
  5
1AAA
330
1008
100
AcDbEntity
  8
DIM
 62
     0
100
AcDbMText
 10
14.30207002123219
 20
6.503453600222569
 30
0.0
 40
0.3125
 41
0.0
 71
     5
 72
     1
  1
\A1;0.798
 73
     1
 44
1.0
  0
POINT
  5
1AAB
330
1008
100
AcDbEntity
  8
DEFPOINTS
 62
     0
100
AcDbPoint
 10
11.4825346117969
 20
6.10470360022257
 30
0.0
  0
POINT
  5
1AAC
330
1008
100
AcDbEntity
  8
DEFPOINTS
 62
     0
100
AcDbPoint
 10
11.1107846117969
 20
6.902203600222565
 30
0.0
  0
POINT
  5
1AAD
330
1008
100
AcDbEntity
  8
DEFPOINTS
 62
     0
100
AcDbPoint
 10
14.30207002123219
 20
6.902203600222565
 30
0.0
  0
ENDBLK
  5
1014
330
1008
100
AcDbEntity
  8
0
100
AcDbBlockEnd
  0
BLOCK
  5
1020
330
1015
100
AcDbEntity
  8
0
100
AcDbBlockBegin
  2
*D48
 70
     1
 10
0.0
 20
0.0
 30
0.0
  3
*D48
  1

  0
LINE
  5
1B48
330
1015
100
AcDbEntity
  8
DIM
 62
     0
370
    -2
100
AcDbLine
 10
7.383534611796907
 20
5.885974259638542
 30
0.0
 11
7.383534611796907
 21
4.362325547209871
 31
0.0
  0
LINE
  5
1B49
330
1015
100
AcDbEntity
  8
DIM
 62
     0
370
    -2
100
AcDbLine
 10
8.831284611796908
 20
5.885974259638542
 30
0.0
 11
8.831284611796908
 21
4.362325547209871
 31
0.0
  0
LINE
  5
1B4A
330
1015
100
AcDbEntity
  8
DIM
 62
     0
370
    -2
100
AcDbLine
 10
6.933534611796907
 20
4.594825547209871
 30
0.0
 11
6.483534611796907
 21
4.594825547209871
 31
0.0
  0
LINE
  5
1B4B
330
1015
100
AcDbEntity
  8
DIM
 62
     0
370
    -2
100
AcDbLine
 10
9.281284611796907
 20
4.594825547209871
 30
0.0
 11
9.731284611796908
 21
4.594825547209871
 31
0.0
  0
SOLID
  5
1B4C
330
1015
100
AcDbEntity
  8
DIM
 62
     0
100
AcDbTrace
 10
6.933534611796907
 20
4.669825547209871
 30
0.0
 11
6.933534611796907
 21
4.519825547209871
 31
0.0
 12
7.383534611796907
 22
4.594825547209871
 32
0.0
 13
7.383534611796907
 23
4.594825547209871
 33
0.0
  0
SOLID
  5
1B4D
330
1015
100
AcDbEntity
  8
DIM
 62
     0
100
AcDbTrace
 10
9.281284611796907
 20
4.669825547209871
 30
0.0
 11
9.281284611796907
 21
4.519825547209871
 31
0.0
 12
8.831284611796908
 22
4.594825547209871
 32
0.0
 13
8.831284611796908
 23
4.594825547209871
 33
0.0
  0
MTEXT
  5
1B4E
330
1015
100
AcDbEntity
  8
DIM
 62
     0
100
AcDbMText
 10
8.107409611796907
 20
4.594825547209871
 30
0.0
 40
0.3125
 41
0.0
 71
     5
 72
     1
  1
\A1;1.448
 73
     1
 44
1.0
  0
POINT
  5
1B4F
330
1015
100
AcDbEntity
  8
DEFPOINTS
 62
     0
100
AcDbPoint
 10
7.383534611796907
 20
6.043474259638542
 30
0.0
  0
POINT
  5
1B50
330
1015
100
AcDbEntity
  8
DEFPOINTS
 62
     0
100
AcDbPoint
 10
8.831284611796908
 20
6.043474259638542
 30
0.0
  0
POINT
  5
1B51
330
1015
100
AcDbEntity
  8
DEFPOINTS
 62
     0
100
AcDbPoint
 10
8.831284611796908
 20
4.594825547209871
 30
0.0
  0
ENDBLK
  5
1021
330
1015
100
AcDbEntity
  8
0
100
AcDbBlockEnd
  0
BLOCK
  5
102D
330
1022
100
AcDbEntity
  8
0
100
AcDbBlockBegin
  2
*D49
 70
     1
 10
0.0
 20
0.0
 30
0.0
  3
*D49
  1

  0
LINE
  5
1B3E
330
1022
100
AcDbEntity
  8
DIM
 62
     0
370
    -2
100
AcDbLine
 10
8.831284611796908
 20
5.885974259638542
 30
0.0
 11
8.831284611796908
 21
3.649429529942525
 31
0.0
  0
LINE
  5
1B3F
330
1022
100
AcDbEntity
  8
DIM
 62
     0
370
    -2
100
AcDbLine
 10
10.2790346117969
 20
5.885974259638542
 30
0.0
 11
10.2790346117969
 21
3.649429529942525
 31
0.0
  0
LINE
  5
1B40
330
1022
100
AcDbEntity
  8
DIM
 62
     0
370
    -2
100
AcDbLine
 10
8.381284611796909
 20
3.881929529942524
 30
0.0
 11
7.931284611796908
 21
3.881929529942524
 31
0.0
  0
LINE
  5
1B41
330
1022
100
AcDbEntity
  8
DIM
 62
     0
370
    -2
100
AcDbLine
 10
10.7290346117969
 20
3.881929529942524
 30
0.0
 11
11.1790346117969
 21
3.881929529942524
 31
0.0
  0
SOLID
  5
1B42
330
1022
100
AcDbEntity
  8
DIM
 62
     0
100
AcDbTrace
 10
8.381284611796909
 20
3.956929529942525
 30
0.0
 11
8.381284611796909
 21
3.806929529942524
 31
0.0
 12
8.831284611796908
 22
3.881929529942524
 32
0.0
 13
8.831284611796908
 23
3.881929529942524
 33
0.0
  0
SOLID
  5
1B43
330
1022
100
AcDbEntity
  8
DIM
 62
     0
100
AcDbTrace
 10
10.7290346117969
 20
3.956929529942525
 30
0.0
 11
10.7290346117969
 21
3.806929529942524
 31
0.0
 12
10.2790346117969
 22
3.881929529942524
 32
0.0
 13
10.2790346117969
 23
3.881929529942524
 33
0.0
  0
MTEXT
  5
1B44
330
1022
100
AcDbEntity
  8
DIM
 62
     0
100
AcDbMText
 10
9.555159611796907
 20
3.881929529942524
 30
0.0
 40
0.3125
 41
0.0
 71
     5
 72
     1
  1
\A1;1.448
 73
     1
 44
1.0
  0
POINT
  5
1B45
330
1022
100
AcDbEntity
  8
DEFPOINTS
 62
     0
100
AcDbPoint
 10
8.831284611796908
 20
6.043474259638542
 30
0.0
  0
POINT
  5
1B46
330
1022
100
AcDbEntity
  8
DEFPOINTS
 62
     0
100
AcDbPoint
 10
10.2790346117969
 20
6.043474259638542
 30
0.0
  0
POINT
  5
1B47
330
1022
100
AcDbEntity
  8
DEFPOINTS
 62
     0
100
AcDbPoint
 10
10.2790346117969
 20
3.881929529942524
 30
0.0
  0
ENDBLK
  5
102E
330
1022
100
AcDbEntity
  8
0
100
AcDbBlockEnd
  0
BLOCK
  5
103A
330
102F
100
AcDbEntity
  8
0
100
AcDbBlockBegin
  2
*D50
 70
     1
 10
0.0
 20
0.0
 30
0.0
  3
*D50
  1

  0
LINE
  5
1DF6
330
102F
100
AcDbEntity
  8
DIM
 62
     0
370
    -2
100
AcDbLine
 10
8.063784611796908
 20
13.89970360022257
 30
0.0
 11
8.063784611796908
 21
16.52669490408745
 31
0.0
  0
LINE
  5
1DF7
330
102F
100
AcDbEntity
  8
DIM
 62
     0
370
    -2
100
AcDbLine
 10
9.598784611796906
 20
14.47263273347959
 30
0.0
 11
9.598784611796906
 21
16.52669490408745
 31
0.0
  0
LINE
  5
1DF8
330
102F
100
AcDbEntity
  8
DIM
 62
     0
370
    -2
100
AcDbLine
 10
7.613784611796908
 20
16.29419490408746
 30
0.0
 11
7.163784611796907
 21
16.29419490408746
 31
0.0
  0
LINE
  5
1DF9
330
102F
100
AcDbEntity
  8
DIM
 62
     0
370
    -2
100
AcDbLine
 10
10.0487846117969
 20
16.29419490408746
 30
0.0
 11
10.4987846117969
 21
16.29419490408746
 31
0.0
  0
SOLID
  5
1DFA
330
102F
100
AcDbEntity
  8
DIM
 62
     0
100
AcDbTrace
 10
7.613784611796908
 20
16.36919490408745
 30
0.0
 11
7.613784611796908
 21
16.21919490408745
 31
0.0
 12
8.063784611796908
 22
16.29419490408746
 32
0.0
 13
8.063784611796908
 23
16.29419490408746
 33
0.0
  0
SOLID
  5
1DFB
330
102F
100
AcDbEntity
  8
DIM
 62
     0
100
AcDbTrace
 10
10.0487846117969
 20
16.36919490408745
 30
0.0
 11
10.0487846117969
 21
16.21919490408745
 31
0.0
 12
9.598784611796906
 22
16.29419490408746
 32
0.0
 13
9.598784611796906
 23
16.29419490408746
 33
0.0
  0
MTEXT
  5
1DFC
330
102F
100
AcDbEntity
  8
DIM
 62
     0
100
AcDbMText
 10
8.831284611796906
 20
16.29419490408746
 30
0.0
 40
0.3125
 41
0.0
 71
     5
 72
     1
  1
\A1;1.535
 73
     1
 44
1.0
  0
POINT
  5
1DFD
330
102F
100
AcDbEntity
  8
DEFPOINTS
 62
     0
100
AcDbPoint
 10
8.063784611796908
 20
13.74220360022256
 30
0.0
  0
POINT
  5
1DFE
330
102F
100
AcDbEntity
  8
DEFPOINTS
 62
     0
100
AcDbPoint
 10
9.598784611796906
 20
14.31513273347959
 30
0.0
  0
POINT
  5
1DFF
330
102F
100
AcDbEntity
  8
DEFPOINTS
 62
     0
100
AcDbPoint
 10
9.598784611796906
 20
16.29419490408746
 30
0.0
  0
ENDBLK
  5
103B
330
102F
100
AcDbEntity
  8
0
100
AcDbBlockEnd
  0
BLOCK
  5
1047
330
103C
100
AcDbEntity
  8
0
100
AcDbBlockBegin
  2
*D51
 70
     1
 10
0.0
 20
0.0
 30
0.0
  3
*D51
  1

  0
LINE
  5
19CE
330
103C
100
AcDbEntity
  8
DIM
 62
     0
370
    -2
100
AcDbLine
 10
36.70512445496827
 20
14.85812843406757
 30
0.0
 11
36.70512445496827
 21
17.03021292248834
 31
0.0
  0
LINE
  5
19CF
330
103C
100
AcDbEntity
  8
DIM
 62
     0
370
    -2
100
AcDbLine
 10
39.66512445496825
 20
14.85812843406759
 30
0.0
 11
39.66512445496825
 21
17.03021292248834
 31
0.0
  0
LINE
  5
19D0
330
103C
100
AcDbEntity
  8
DIM
 62
     0
370
    -2
100
AcDbLine
 10
37.15512445496827
 20
16.79771292248834
 30
0.0
 11
37.51090570496826
 21
16.79771292248834
 31
0.0
  0
LINE
  5
19D1
330
103C
100
AcDbEntity
  8
DIM
 62
     0
370
    -2
100
AcDbLine
 10
39.21512445496825
 20
16.79771292248834
 30
0.0
 11
38.85934320496826
 21
16.79771292248834
 31
0.0
  0
SOLID
  5
19D2
330
103C
100
AcDbEntity
  8
DIM
 62
     0
100
AcDbTrace
 10
37.15512445496827
 20
16.87271292248834
 30
0.0
 11
37.15512445496827
 21
16.72271292248835
 31
0.0
 12
36.70512445496827
 22
16.79771292248834
 32
0.0
 13
36.70512445496827
 23
16.79771292248834
 33
0.0
  0
SOLID
  5
19D3
330
103C
100
AcDbEntity
  8
DIM
 62
     0
100
AcDbTrace
 10
39.21512445496825
 20
16.87271292248834
 30
0.0
 11
39.21512445496825
 21
16.72271292248835
 31
0.0
 12
39.66512445496825
 22
16.79771292248834
 32
0.0
 13
39.66512445496825
 23
16.79771292248834
 33
0.0
  0
MTEXT
  5
19D4
330
103C
100
AcDbEntity
  8
DIM
 62
     0
100
AcDbMText
 10
38.18512445496826
 20
16.79771292248834
 30
0.0
 40
0.3125
 41
0.0
 71
     5
 72
     1
  1
\A1;2.960
 73
     1
 44
1.0
  0
POINT
  5
19D5
330
103C
100
AcDbEntity
  8
DEFPOINTS
 62
     0
100
AcDbPoint
 10
36.70512445496827
 20
14.70062843406758
 30
0.0
  0
POINT
  5
19D6
330
103C
100
AcDbEntity
  8
DEFPOINTS
 62
     0
100
AcDbPoint
 10
39.66512445496825
 20
14.70062843406759
 30
0.0
  0
POINT
  5
19D7
330
103C
100
AcDbEntity
  8
DEFPOINTS
 62
     0
100
AcDbPoint
 10
39.66512445496825
 20
16.79771292248834
 30
0.0
  0
ENDBLK
  5
1048
330
103C
100
AcDbEntity
  8
0
100
AcDbBlockEnd
  0
BLOCK
  5
1054
330
1049
100
AcDbEntity
  8
0
100
AcDbBlockBegin
  2
*D52
 70
     1
 10
0.0
 20
0.0
 30
0.0
  3
*D52
  1

  0
LINE
  5
1B67
330
1049
100
AcDbEntity
  8
DIM
 62
     0
370
    -2
100
AcDbLine
 10
6.022534611796907
 20
6.104703600222566
 30
0.0
 11
2.269019338849252
 21
6.104703600222567
 31
0.0
  0
LINE
  5
1B68
330
1049
100
AcDbEntity
  8
DIM
 62
     0
370
    -2
100
AcDbLine
 10
6.021784611796907
 20
6.595828600222563
 30
0.0
 11
2.269019338849252
 21
6.595828600222564
 31
0.0
  0
LINE
  5
1B69
330
1049
100
AcDbEntity
  8
DIM
 62
     0
370
    -2
100
AcDbLine
 10
2.501519338849252
 20
5.654703600222567
 30
0.0
 11
2.501519338849252
 21
5.204703600222567
 31
0.0
  0
LINE
  5
1B6A
330
1049
100
AcDbEntity
  8
DIM
 62
     0
370
    -2
100
AcDbLine
 10
2.501519338849253
 20
7.045828600222564
 30
0.0
 11
2.501519338849253
 21
7.495828600222563
 31
0.0
  0
SOLID
  5
1B6B
330
1049
100
AcDbEntity
  8
DIM
 62
     0
100
AcDbTrace
 10
2.426519338849252
 20
5.654703600222567
 30
0.0
 11
2.576519338849252
 21
5.654703600222567
 31
0.0
 12
2.501519338849252
 22
6.104703600222567
 32
0.0
 13
2.501519338849252
 23
6.104703600222567
 33
0.0
  0
SOLID
  5
1B6C
330
1049
100
AcDbEntity
  8
DIM
 62
     0
100
AcDbTrace
 10
2.426519338849252
 20
7.045828600222564
 30
0.0
 11
2.576519338849253
 21
7.045828600222564
 31
0.0
 12
2.501519338849252
 22
6.595828600222564
 32
0.0
 13
2.501519338849252
 23
6.595828600222564
 33
0.0
  0
MTEXT
  5
1B6D
330
1049
100
AcDbEntity
  8
DIM
 62
     0
100
AcDbMText
 10
2.501519338849251
 20
6.350266100222566
 30
0.0
 40
0.3125
 41
0.0
 71
     5
 72
     1
  1
\A1;0.491
 73
     1
 44
1.0
  0
POINT
  5
1B6E
330
1049
100
AcDbEntity
  8
DEFPOINTS
 62
     0
100
AcDbPoint
 10
6.180034611796907
 20
6.104703600222566
 30
0.0
  0
POINT
  5
1B6F
330
1049
100
AcDbEntity
  8
DEFPOINTS
 62
     0
100
AcDbPoint
 10
6.179284611796907
 20
6.595828600222563
 30
0.0
  0
POINT
  5
1B70
330
1049
100
AcDbEntity
  8
DEFPOINTS
 62
     0
100
AcDbPoint
 10
2.501519338849252
 20
6.595828600222564
 30
0.0
  0
ENDBLK
  5
1055
330
1049
100
AcDbEntity
  8
0
100
AcDbBlockEnd
  0
BLOCK
  5
1061
330
1056
100
AcDbEntity
  8
0
100
AcDbBlockBegin
  2
*D53
 70
     1
 10
0.0
 20
0.0
 30
0.0
  3
*D53
  1

  0
LINE
  5
1AD8
330
1056
100
AcDbEntity
  8
DIM
 62
     0
370
    -2
100
AcDbLine
 10
19.08870798671765
 20
14.93970360022256
 30
0.0
 11
19.08870798671765
 21
16.47695808183281
 31
0.0
  0
LINE
  5
1AD9
330
1056
100
AcDbEntity
  8
DIM
 62
     0
370
    -2
100
AcDbLine
 10
17.44870798671765
 20
14.91170360022255
 30
0.0
 11
17.44870798671765
 21
16.47695808183281
 31
0.0
  0
LINE
  5
1ADA
330
1056
100
AcDbEntity
  8
DIM
 62
     0
370
    -2
100
AcDbLine
 10
19.53870798671765
 20
16.24445808183281
 30
0.0
 11
19.98870798671765
 21
16.24445808183281
 31
0.0
  0
LINE
  5
1ADB
330
1056
100
AcDbEntity
  8
DIM
 62
     0
370
    -2
100
AcDbLine
 10
16.99870798671765
 20
16.24445808183281
 30
0.0
 11
16.54870798671765
 21
16.24445808183281
 31
0.0
  0
SOLID
  5
1ADC
330
1056
100
AcDbEntity
  8
DIM
 62
     0
100
AcDbTrace
 10
19.53870798671765
 20
16.31945808183281
 30
0.0
 11
19.53870798671765
 21
16.16945808183281
 31
0.0
 12
19.08870798671765
 22
16.24445808183281
 32
0.0
 13
19.08870798671765
 23
16.24445808183281
 33
0.0
  0
SOLID
  5
1ADD
330
1056
100
AcDbEntity
  8
DIM
 62
     0
100
AcDbTrace
 10
16.99870798671765
 20
16.31945808183281
 30
0.0
 11
16.99870798671765
 21
16.16945808183281
 31
0.0
 12
17.44870798671765
 22
16.24445808183281
 32
0.0
 13
17.44870798671765
 23
16.24445808183281
 33
0.0
  0
MTEXT
  5
1ADE
330
1056
100
AcDbEntity
  8
DIM
 62
     0
100
AcDbMText
 10
18.26870798671765
 20
16.24445808183281
 30
0.0
 40
0.3125
 41
0.0
 71
     5
 72
     1
  1
\A1;1.640
 73
     1
 44
1.0
  0
POINT
  5
1ADF
330
1056
100
AcDbEntity
  8
DEFPOINTS
 62
     0
100
AcDbPoint
 10
19.08870798671765
 20
14.78220360022256
 30
0.0
  0
POINT
  5
1AE0
330
1056
100
AcDbEntity
  8
DEFPOINTS
 62
     0
100
AcDbPoint
 10
17.44870798671765
 20
14.75420360022254
 30
0.0
  0
POINT
  5
1AE1
330
1056
100
AcDbEntity
  8
DEFPOINTS
 62
     0
100
AcDbPoint
 10
17.44870798671765
 20
16.24445808183281
 30
0.0
  0
ENDBLK
  5
1062
330
1056
100
AcDbEntity
  8
0
100
AcDbBlockEnd
  0
BLOCK
  5
106E
330
1063
100
AcDbEntity
  8
0
100
AcDbBlockBegin
  2
*D54
 70
     1
 10
0.0
 20
0.0
 30
0.0
  3
*D54
  1

  0
LINE
  5
1ACE
330
1063
100
AcDbEntity
  8
DIM
 62
     0
370
    -2
100
AcDbLine
 10
17.90495798671765
 20
14.91120360022257
 30
0.0
 11
17.90495798671765
 21
15.70261469608186
 31
0.0
  0
LINE
  5
1ACF
330
1063
100
AcDbEntity
  8
DIM
 62
     0
370
    -2
100
AcDbLine
 10
19.08870798671765
 20
14.93970360022256
 30
0.0
 11
19.08870798671765
 21
15.70261469608186
 31
0.0
  0
LINE
  5
1AD0
330
1063
100
AcDbEntity
  8
DIM
 62
     0
370
    -2
100
AcDbLine
 10
17.45495798671765
 20
15.47011469608186
 30
0.0
 11
17.00495798671765
 21
15.47011469608186
 31
0.0
  0
LINE
  5
1AD1
330
1063
100
AcDbEntity
  8
DIM
 62
     0
370
    -2
100
AcDbLine
 10
19.53870798671765
 20
15.47011469608186
 30
0.0
 11
19.98870798671765
 21
15.47011469608186
 31
0.0
  0
SOLID
  5
1AD2
330
1063
100
AcDbEntity
  8
DIM
 62
     0
100
AcDbTrace
 10
17.45495798671765
 20
15.54511469608186
 30
0.0
 11
17.45495798671765
 21
15.39511469608187
 31
0.0
 12
17.90495798671765
 22
15.47011469608186
 32
0.0
 13
17.90495798671765
 23
15.47011469608186
 33
0.0
  0
SOLID
  5
1AD3
330
1063
100
AcDbEntity
  8
DIM
 62
     0
100
AcDbTrace
 10
19.53870798671765
 20
15.54511469608186
 30
0.0
 11
19.53870798671765
 21
15.39511469608187
 31
0.0
 12
19.08870798671765
 22
15.47011469608186
 32
0.0
 13
19.08870798671765
 23
15.47011469608186
 33
0.0
  0
MTEXT
  5
1AD4
330
1063
100
AcDbEntity
  8
DIM
 62
     0
100
AcDbMText
 10
18.49683298671765
 20
15.47011469608186
 30
0.0
 40
0.3125
 41
0.0
 71
     5
 72
     1
  1
\A1;1.184
 73
     1
 44
1.0
  0
POINT
  5
1AD5
330
1063
100
AcDbEntity
  8
DEFPOINTS
 62
     0
100
AcDbPoint
 10
17.90495798671765
 20
14.75370360022257
 30
0.0
  0
POINT
  5
1AD6
330
1063
100
AcDbEntity
  8
DEFPOINTS
 62
     0
100
AcDbPoint
 10
19.08870798671765
 20
14.78220360022256
 30
0.0
  0
POINT
  5
1AD7
330
1063
100
AcDbEntity
  8
DEFPOINTS
 62
     0
100
AcDbPoint
 10
19.08870798671765
 20
15.47011469608186
 30
0.0
  0
ENDBLK
  5
106F
330
1063
100
AcDbEntity
  8
0
100
AcDbBlockEnd
  0
BLOCK
  5
14AF
330
14A4
100
AcDbEntity
  8
0
100
AcDbBlockBegin
  2
*D55
 70
     1
 10
0.0
 20
0.0
 30
0.0
  3
*D55
  1

  0
LINE
  5
192C
330
14A4
100
AcDbEntity
  8
DIM
 62
     0
370
    -2
100
AcDbLine
 10
29.87956140191385
 20
19.30467110068724
 30
0.0
 11
29.87956140191385
 21
18.29840386548533
 31
0.0
  0
LINE
  5
192D
330
14A4
100
AcDbEntity
  8
DIM
 62
     0
370
    -2
100
AcDbLine
 10
33.87946531511607
 20
19.19374043216114
 30
0.0
 11
33.87946531511607
 21
18.29840386548533
 31
0.0
  0
LINE
  5
192E
330
14A4
100
AcDbEntity
  8
DIM
 62
     0
370
    -2
100
AcDbLine
 10
30.32956140191385
 20
18.53090386548533
 30
0.0
 11
31.28341960851496
 21
18.53090386548533
 31
0.0
  0
LINE
  5
192F
330
14A4
100
AcDbEntity
  8
DIM
 62
     0
370
    -2
100
AcDbLine
 10
33.42946531511607
 20
18.53090386548533
 30
0.0
 11
32.47560710851496
 21
18.53090386548533
 31
0.0
  0
SOLID
  5
1930
330
14A4
100
AcDbEntity
  8
DIM
 62
     0
100
AcDbTrace
 10
30.32956140191385
 20
18.60590386548533
 30
0.0
 11
30.32956140191385
 21
18.45590386548533
 31
0.0
 12
29.87956140191385
 22
18.53090386548533
 32
0.0
 13
29.87956140191385
 23
18.53090386548533
 33
0.0
  0
SOLID
  5
1931
330
14A4
100
AcDbEntity
  8
DIM
 62
     0
100
AcDbTrace
 10
33.42946531511607
 20
18.60590386548533
 30
0.0
 11
33.42946531511607
 21
18.45590386548533
 31
0.0
 12
33.87946531511607
 22
18.53090386548533
 32
0.0
 13
33.87946531511607
 23
18.53090386548533
 33
0.0
  0
MTEXT
  5
1932
330
14A4
100
AcDbEntity
  8
DIM
 62
     0
100
AcDbMText
 10
31.87951335851496
 20
18.53090386548533
 30
0.0
 40
0.3125
 41
0.0
 71
     5
 72
     1
  1
\A1;1.000
 73
     1
 44
1.0
  0
POINT
  5
1933
330
14A4
100
AcDbEntity
  8
DEFPOINTS
 62
     0
100
AcDbPoint
 10
29.87956140191385
 20
19.46217110068724
 30
0.0
  0
POINT
  5
1934
330
14A4
100
AcDbEntity
  8
DEFPOINTS
 62
     0
100
AcDbPoint
 10
33.87946531511607
 20
19.35124043216115
 30
0.0
  0
POINT
  5
1935
330
14A4
100
AcDbEntity
  8
DEFPOINTS
 62
     0
100
AcDbPoint
 10
33.87946531511607
 20
18.53090386548533
 30
0.0
  0
ENDBLK
  5
14B0
330
14A4
100
AcDbEntity
  8
0
100
AcDbBlockEnd
  0
BLOCK
  5
14E2
330
14CB
100
AcDbEntity
  8
0
100
AcDbBlockBegin
  2
HBS
 70
     0
 10
0.0
 20
0.0
 30
0.0
  3
HBS
  1

  0
LINE
  5
14CC
330
14CB
100
AcDbEntity
  8
TITLE
100
AcDbLine
 10
0.0620000000000118
 20
10.266
 30
0.0
 11
16.53800000000001
 21
10.266
 31
0.0
  0
LINE
  5
14CD
330
14CB
100
AcDbEntity
  8
TITLE
100
AcDbLine
 10
16.53800000000001
 20
0.0620000000000012
 30
0.0
 11
0.0620000000000118
 21
0.0620000000000012
 31
0.0
  0
LINE
  5
14CE
330
14CB
100
AcDbEntity
  8
TITLE
100
AcDbLine
 10
0.0
 20
10.32799999999999
 30
0.0
 11
16.59999999999999
 21
10.32799999999999
 31
0.0
  0
LINE
  5
14CF
330
14CB
100
AcDbEntity
  8
TITLE
100
AcDbLine
 10
16.59999999999999
 20
0.0
 30
0.0
 11
0.0
 21
0.0
 31
0.0
  0
LINE
  5
14D0
330
14CB
100
AcDbEntity
  8
TITLE
100
AcDbLine
 10
0.0620000000000118
 20
9.848000000000002
 30
0.0
 11
16.53800000000001
 21
9.848000000000006
 31
0.0
  0
LINE
  5
14D1
330
14CB
100
AcDbEntity
  8
TITLE
100
AcDbLine
 10
0.0620000000000118
 20
0.0620000000000012
 30
0.0
 11
0.0620000000000118
 21
10.266
 31
0.0
  0
LINE
  5
14D2
330
14CB
100
AcDbEntity
  8
TITLE
100
AcDbLine
 10
0.0
 20
0.0
 30
0.0
 11
0.0
 21
10.32799999999999
 31
0.0
  0
TEXT
  5
14D3
330
14CB
100
AcDbEntity
  8
TEXT
100
AcDbText
 10
0.2078333333333452
 20
9.888079195640081
 30
0.0
 40
0.125
  1
NAME
 72
     1
 11
0.4370000000000119
 21
9.888079195640081
 31
0.0
100
AcDbText
  0
TEXT
  5
14D4
330
14CB
100
AcDbEntity
  8
TEXT
100
AcDbText
 10
0.2078333333333452
 20
10.09641252897341
 30
0.0
 40
0.125
  1
PART
 72
     1
 11
0.4370000000000119
 21
10.09641252897341
 31
0.0
100
AcDbText
  0
LINE
  5
14D5
330
14CB
100
AcDbEntity
  8
TITLE
100
AcDbLine
 10
0.8120000000000118
 20
9.848000000000002
 30
0.0
 11
0.8120000000000118
 21
10.266
 31
0.0
  0
LINE
  5
14D6
330
14CB
100
AcDbEntity
  8
TITLE
100
AcDbLine
 10
7.0
 20
10.266
 30
0.0
 11
7.0
 21
9.848000000000002
 31
0.0
  0
LINE
  5
14D7
330
14CB
100
AcDbEntity
  8
TITLE
100
AcDbLine
 10
7.062000000000011
 20
10.266
 30
0.0
 11
7.062000000000011
 21
9.848000000000002
 31
0.0
  0
LINE
  5
14D8
330
14CB
100
AcDbEntity
  8
TITLE
100
AcDbLine
 10
7.812000000000011
 20
10.266
 30
0.0
 11
7.812000000000011
 21
9.848000000000002
 31
0.0
  0
TEXT
  5
14D9
330
14CB
100
AcDbEntity
  8
TEXT
100
AcDbText
 10
7.312000000000011
 20
9.888079195640081
 30
0.0
 40
0.125
  1
No.
 72
     1
 11
7.437000000000011
 21
9.888079195640081
 31
0.0
100
AcDbText
  0
TEXT
  5
14DA
330
14CB
100
AcDbEntity
  8
TEXT
100
AcDbText
 10
7.207833333333344
 20
10.09641252897341
 30
0.0
 40
0.125
  1
PART
 72
     1
 11
7.437000000000011
 21
10.09641252897341
 31
0.0
100
AcDbText
  0
LINE
  5
14DB
330
14CB
100
AcDbEntity
  8
TITLE
100
AcDbLine
 10
16.53800000000001
 20
10.266
 30
0.0
 11
16.53800000000001
 21
0.0620000000000012
 31
0.0
  0
LINE
  5
14DC
330
14CB
100
AcDbEntity
  8
TITLE
100
AcDbLine
 10
16.59999999999999
 20
10.32799999999999
 30
0.0
 11
16.59999999999999
 21
0.0
 31
0.0
  0
TEXT
  5
14DD
330
14CB
100
AcDbEntity
  8
TEXT
100
AcDbText
 10
14.22865779971668
 20
10.09641252897341
 30
0.0
 40
0.125
  1
REV.
 72
     1
 11
14.43699113305001
 21
10.09641252897341
 31
0.0
100
AcDbText
  0
TEXT
  5
14DE
330
14CB
100
AcDbEntity
  8
TEXT
100
AcDbText
 10
14.20782446638335
 20
9.888079195640081
 30
0.0
 40
0.125
  1
DATE
 72
     1
 11
14.43699113305001
 21
9.888079195640081
 31
0.0
100
AcDbText
  0
LINE
  5
14DF
330
14CB
100
AcDbEntity
  8
TITLE
100
AcDbLine
 10
14.06199113305001
 20
10.266
 30
0.0
 11
14.06199113305001
 21
9.848000000000002
 31
0.0
  0
LINE
  5
14E0
330
14CB
100
AcDbEntity
  8
TITLE
100
AcDbLine
 10
14.81199113305001
 20
10.266
 30
0.0
 11
14.81199113305001
 21
9.848000000000002
 31
0.0
  0
LINE
  5
14E1
330
14CB
100
AcDbEntity
  8
TITLE
100
AcDbLine
 10
13.99999113305
 20
10.266
 30
0.0
 11
13.99999113305
 21
9.848000000000002
 31
0.0
  0
ENDBLK
  5
14E3
330
14CB
100
AcDbEntity
  8
0
100
AcDbBlockEnd
  0
ENDSEC
  0
SECTION
  2
ENTITIES
  0
LINE
  5
9E8
102
{ACAD_REACTORS
330
1177
102
}
330
1E
100
AcDbEntity
  8
OBJECT
100
AcDbLine
 10
33.87545041211374
 20
6.102985214341849
 30
0.0
 11
33.87545041211374
 21
14.71798521434183
 31
0.0
  0
LINE
  5
9E9
102
{ACAD_REACTORS
330
1177
102
}
330
1E
100
AcDbEntity
  8
OBJECT
100
AcDbLine
 10
32.49545041211373
 20
6.040485214341849
 30
0.0
 11
33.81295041211373
 21
6.040485214341849
 31
0.0
  0
LINE
  5
9EA
102
{ACAD_REACTORS
330
1123
330
112E
330
1134
330
1177
102
}
330
1E
100
AcDbEntity
  8
OBJECT
100
AcDbLine
 10
32.49545041211373
 20
6.040485214341849
 30
0.0
 11
32.49545041211374
 21
14.78048521434183
 31
0.0
  0
ARC
  5
9EB
102
{ACAD_REACTORS
330
1177
102
}
330
1E
100
AcDbEntity
  8
OBJECT
100
AcDbCircle
 10
33.81295041211373
 20
6.102985214341849
 30
0.0
 40
0.0625
100
AcDbArc
 50
270.0
 51
0.0
  0
LINE
  5
9EC
102
{ACAD_REACTORS
330
1177
102
}
330
1E
100
AcDbEntity
  8
OBJECT
100
AcDbLine
 10
33.75545041211373
 20
6.593610214341854
 30
0.0
 11
32.49545041211373
 21
6.593610214341854
 31
0.0
  0
LINE
  5
9ED
102
{ACAD_REACTORS
330
1177
102
}
330
1E
100
AcDbEntity
  8
OBJECT
100
AcDbLine
 10
32.49545041211373
 20
10.72248521434184
 30
0.0
 11
33.75545041211373
 21
10.72248521434184
 31
0.0
  0
LINE
  5
9EE
102
{ACAD_REACTORS
330
1177
102
}
330
1E
100
AcDbEntity
  8
OBJECT
100
AcDbLine
 10
32.49545041211373
 20
10.09848521434184
 30
0.0
 11
33.75545041211373
 21
10.09848521434184
 31
0.0
  0
LINE
  5
9EF
102
{ACAD_REACTORS
330
1177
102
}
330
1E
100
AcDbEntity
  8
OBJECT
100
AcDbLine
 10
32.49545041211373
 20
6.371172714341838
 30
0.0
 11
32.87545041211374
 21
6.371172714341838
 31
0.0
  0
LINE
  5
9F0
102
{ACAD_REACTORS
330
1177
102
}
330
1E
100
AcDbEntity
  8
OBJECT
100
AcDbLine
 10
32.49545041211373
 20
6.199297714341838
 30
0.0
 11
32.87545041211374
 21
6.199297714341838
 31
0.0
  0
LINE
  5
9F1
102
{ACAD_REACTORS
330
1177
102
}
330
1E
100
AcDbEntity
  8
OBJECT
100
AcDbLine
 10
32.87545041211373
 20
6.128985214341838
 30
0.0
 11
33.87545041211374
 21
6.128985214341838
 31
0.0
  0
LINE
  5
9F2
102
{ACAD_REACTORS
330
1177
102
}
330
1E
100
AcDbEntity
  8
OBJECT
100
AcDbLine
 10
32.87545041211375
 20
6.441485214341838
 30
0.0
 11
33.87545041211374
 21
6.441485214341838
 31
0.0
  0
ARC
  5
9F7
102
{ACAD_REACTORS
330
1177
102
}
330
1E
100
AcDbEntity
  8
OBJECT
100
AcDbCircle
 10
33.81295041211373
 20
14.71798521434183
 30
0.0
 40
0.0625
100
AcDbArc
 50
0.0
 51
90.0
  0
LINE
  5
9F8
102
{ACAD_REACTORS
330
1177
102
}
330
1E
100
AcDbEntity
  8
OBJECT
100
AcDbLine
 10
32.49545041211373
 20
14.78048521434183
 30
0.0
 11
33.81295041211373
 21
14.78048521434183
 31
0.0
  0
LINE
  5
9FD
102
{ACAD_REACTORS
330
1177
102
}
330
1E
100
AcDbEntity
  8
OBJECT
100
AcDbLine
 10
32.87545041211375
 20
10.56673521434184
 30
0.0
 11
33.87545041211374
 21
10.56673521434184
 31
0.0
  0
LINE
  5
9FE
102
{ACAD_REACTORS
330
1177
102
}
330
1E
100
AcDbEntity
  8
OBJECT
100
AcDbLine
 10
32.87545041211375
 20
10.25423521434184
 30
0.0
 11
33.87545041211374
 21
10.25423521434184
 31
0.0
  0
LINE
  5
9FF
102
{ACAD_REACTORS
330
1177
102
}
330
1E
100
AcDbEntity
  8
OBJECT
100
AcDbLine
 10
32.49545041211374
 20
10.32454771434184
 30
0.0
 11
32.87545041211373
 21
10.32454771434184
 31
0.0
  0
LINE
  5
A00
102
{ACAD_REACTORS
330
1177
102
}
330
1E
100
AcDbEntity
  8
OBJECT
100
AcDbLine
 10
32.49545041211374
 20
10.49642271434184
 30
0.0
 11
32.87545041211373
 21
10.49642271434184
 31
0.0
  0
LINE
  5
A01
102
{ACAD_REACTORS
330
1177
102
}
330
1E
100
AcDbEntity
  8
OBJECT
100
AcDbLine
 10
32.49545041211374
 20
14.60048521434183
 30
0.0
 11
33.75545041211373
 21
14.60048521434183
 31
0.0
  0
DIMENSION
  5
A02
330
1E
100
AcDbEntity
  8
DIM
100
AcDbDimension
  2
*D46
 10
32.49545041211373
 20
15.32849453660761
 30
0.0
 11
33.18545041211374
 21
15.32849453660761
 31
0.0
 70
    32
 71
     5
 42
1.380000000000009
  3
23NSTDI
100
AcDbAlignedDimension
 13
33.87545041211374
 23
14.71798521434183
 33
0.0
 14
32.49545041211373
 24
14.78048521434183
 34
0.0
100
AcDbRotatedDimension
  0
DIMENSION
  5
A03
330
1E
100
AcDbEntity
  8
DIM
100
AcDbDimension
  2
*D44
 10
27.28612695562833
 20
19.74342110068724
 30
0.0
 11
27.28612695562833
 21
20.08717110068725
 31
0.0
 70
    32
  1
<> DIA.
 71
     5
 42
0.171875
  3
23NSTD4I
100
AcDbAlignedDimension
 13
28.35956140191384
 23
20.43092110068724
 33
0.0
 14
28.35956140191384
 24
19.74342110068724
 34
0.0
 50
90.0
100
AcDbRotatedDimension
  0
DIMENSION
  5
A05
330
1E
100
AcDbEntity
  8
DIM
100
AcDbDimension
  2
*D45
 10
35.1459084912895
 20
20.71217110068724
 30
0.0
 11
35.14590849128949
 21
20.08717110068724
 31
0.0
 70
    32
  1
<> DIA.\PC'BORE
 71
     5
 42
0.3125
  3
23NSTD4I
100
AcDbAlignedDimension
 13
33.87956140191388
 23
19.46217110068724
 33
0.0
 14
33.87956140191388
 24
20.71217110068724
 34
0.0
 50
90.0
100
AcDbRotatedDimension
  0
LINE
  5
A12
102
{ACAD_REACTORS
330
1177
102
}
330
1E
100
AcDbEntity
  8
OBJECT
100
AcDbLine
 10
33.75545041211373
 20
6.593610214341854
 30
0.0
 11
33.75545041211373
 21
10.09848521434184
 31
0.0
  0
LINE
  5
A13
102
{ACAD_REACTORS
330
1177
102
}
330
1E
100
AcDbEntity
  8
OBJECT
100
AcDbLine
 10
33.75545041211373
 20
10.72248521434184
 30
0.0
 11
33.75545041211373
 21
14.60048521434183
 31
0.0
  0
DIMENSION
  5
AB4
330
1E
100
AcDbEntity
  8
DIM
100
AcDbDimension
  2
*D0
 10
33.87545041211374
 20
8.806301878236201
 30
0.0
 11
35.39107541211374
 21
8.806301878236201
 31
0.0
 70
    32
 71
     5
 42
0.1200000000000116
  3
23NSTD
100
AcDbAlignedDimension
 13
33.75545041211373
 23
8.819385521773444
 33
0.0
 14
33.87545041211374
 24
8.819385521773444
 34
0.0
100
AcDbRotatedDimension
  0
DIMENSION
  5
AB5
330
1E
100
AcDbEntity
  8
DIM
100
AcDbDimension
  2
*D42
 10
26.11962695562833
 20
20.84067110068728
 30
0.0
 11
25.03447070562833
 21
19.94067110068729
 31
0.0
 70
    32
 71
     5
 42
0.0800000000000019
  3
23NSTD4
100
AcDbAlignedDimension
 13
28.35956140191384
 23
21.16067110068729
 33
0.0
 14
28.35956140191384
 24
20.84067110068728
 34
0.0
 50
90.0
100
AcDbRotatedDimension
  0
DIMENSION
  5
AB6
330
1E
100
AcDbEntity
  8
DIM
100
AcDbDimension
  2
*D43
 10
28.81956140191388
 20
23.281558206416
 30
0.0
 11
30.31565515191388
 21
23.281558206416
 31
0.0
 70
    32
 71
     5
 42
0.1150000000000144
  3
23NSTD4
100
AcDbAlignedDimension
 13
28.35956140191383
 23
22.67318741121328
 33
0.0
 14
28.81956140191388
 24
21.16067110068726
 34
0.0
100
AcDbRotatedDimension
  0
LINE
  5
ABF
330
1E
100
AcDbEntity
  8
OBJECT
100
AcDbLine
 10
17.44870798671765
 20
14.76670360022255
 30
0.0
 11
17.50870798671765
 21
14.76670360022255
 31
0.0
  0
LINE
  5
AC0
102
{ACAD_REACTORS
330
1E5A
102
}
330
1E
100
AcDbEntity
  8
OBJECT
100
AcDbLine
 10
17.50870798671765
 20
14.82470360022255
 30
0.0
 11
17.54870798671764
 21
14.82470360022255
 31
0.0
  0
LINE
  5
AC1
102
{ACAD_REACTORS
330
1E5A
102
}
330
1E
100
AcDbEntity
  8
OBJECT
100
AcDbLine
 10
17.50870798671765
 20
6.124703600222566
 30
0.0
 11
17.54870798671765
 21
6.124703600222566
 31
0.0
  0
LINE
  5
AC2
102
{ACAD_REACTORS
330
1E5A
102
}
330
1E
100
AcDbEntity
  8
OBJECT
100
AcDbLine
 10
17.54870798671765
 20
6.10470360022257
 30
0.0
 11
17.54870798671765
 21
6.124703600222566
 31
0.0
  0
LINE
  5
AC3
102
{ACAD_REACTORS
330
1E5A
102
}
330
1E
100
AcDbEntity
  8
OBJECT
100
AcDbLine
 10
17.50870798671765
 20
6.124703600222566
 30
0.0
 11
17.50870798671765
 21
6.555828600222556
 31
0.0
  0
ARC
  5
AC4
102
{ACAD_REACTORS
330
1E5A
102
}
330
1E
100
AcDbEntity
  8
OBJECT
100
AcDbCircle
 10
19.02620798671765
 20
14.78220360022256
 30
0.0
 40
0.0625
100
AcDbArc
 50
0.0
 51
90.0
  0
ARC
  5
AC5
102
{ACAD_REACTORS
330
1E5A
102
}
330
1E
100
AcDbEntity
  8
OBJECT
100
AcDbCircle
 10
19.02620798671765
 20
6.167203600222567
 30
0.0
 40
0.0625
100
AcDbArc
 50
270.0
 51
0.0
  0
LINE
  5
AC6
102
{ACAD_REACTORS
330
1E5A
102
}
330
1E
100
AcDbEntity
  8
OBJECT
100
AcDbLine
 10
17.44870798671765
 20
6.555828600222556
 30
0.0
 11
17.44870798671765
 21
14.76670360022255
 31
0.0
  0
LINE
  5
AC7
102
{ACAD_REACTORS
330
1E5A
102
}
330
1E
100
AcDbEntity
  8
OBJECT
100
AcDbLine
 10
17.54870798671765
 20
6.10470360022257
 30
0.0
 11
19.02620798671765
 21
6.104703600222567
 31
0.0
  0
LINE
  5
AC8
102
{ACAD_REACTORS
330
1E5A
102
}
330
1E
100
AcDbEntity
  8
OBJECT
100
AcDbLine
 10
19.08870798671765
 20
6.167203600222567
 30
0.0
 11
19.08870798671765
 21
14.78220360022256
 31
0.0
  0
LINE
  5
AC9
102
{ACAD_REACTORS
330
1E5A
102
}
330
1E
100
AcDbEntity
  8
OBJECT
100
AcDbLine
 10
19.02620798671765
 20
14.84470360022256
 30
0.0
 11
17.54870798671764
 21
14.84470360022256
 31
0.0
  0
LINE
  5
ACA
330
1E
100
AcDbEntity
  8
OBJECT
100
AcDbLine
 10
11.70128461179689
 20
6.323453600222567
 30
0.0
 11
11.7012846117969
 21
14.62595360022256
 31
0.0
  0
LINE
  5
ACB
330
1E
100
AcDbEntity
  8
OBJECT
100
AcDbLine
 10
11.4825346117969
 20
14.84470360022256
 30
0.0
 11
6.180034611796905
 21
14.84470360022256
 31
0.0
  0
LINE
  5
ACC
330
1E
100
AcDbEntity
  8
OBJECT
100
AcDbLine
 10
5.961284611796912
 20
14.62595360022256
 30
0.0
 11
5.961284611796912
 21
6.323453600222567
 31
0.0
  0
LINE
  5
ACD
330
1E
100
AcDbEntity
  8
OBJECT
100
AcDbLine
 10
6.180034611796905
 20
6.104703600222567
 30
0.0
 11
11.4825346117969
 21
6.10470360022257
 31
0.0
  0
LINE
  5
ACE
330
1E
100
AcDbEntity
  8
CENTER
100
AcDbLine
 10
7.383534611796903
 20
6.043474259638543
 30
0.0
 11
7.383534611796903
 21
6.417992098268317
 31
0.0
  0
LINE
  5
AD2
330
1E
100
AcDbEntity
  8
OBJECT
100
AcDbLine
 10
7.477284611796903
 20
6.285703600222568
 30
0.0
 11
7.427284611796906
 21
6.285703600222568
 31
0.0
  0
LINE
  5
AD3
330
1E
100
AcDbEntity
  8
OBJECT
100
AcDbLine
 10
7.427284611796906
 20
6.222703600222565
 30
0.0
 11
7.427284611796906
 21
6.285703600222568
 31
0.0
  0
LINE
  5
AD4
330
1E
100
AcDbEntity
  8
OBJECT
100
AcDbLine
 10
7.339784611796901
 20
6.222703600222565
 30
0.0
 11
7.339784611796901
 21
6.285703600222568
 31
0.0
  0
LINE
  5
AD5
330
1E
100
AcDbEntity
  8
OBJECT
100
AcDbLine
 10
7.289784611796903
 20
6.285703600222568
 30
0.0
 11
7.339784611796901
 21
6.285703600222568
 31
0.0
  0
LINE
  5
AD6
330
1E
100
AcDbEntity
  8
OBJECT
100
AcDbLine
 10
7.289784611796903
 20
6.222703600222565
 30
0.0
 11
7.289784611796903
 21
6.285703600222568
 31
0.0
  0
LINE
  5
AD7
330
1E
100
AcDbEntity
  8
OBJECT
100
AcDbLine
 10
7.477284611796903
 20
6.222703600222565
 30
0.0
 11
7.477284611796903
 21
6.285703600222568
 31
0.0
  0
LINE
  5
AD8
330
1E
100
AcDbEntity
  8
OBJECT
100
AcDbLine
 10
6.180034611796905
 20
6.124703600222566
 30
0.0
 11
11.4825346117969
 21
6.124703600222566
 31
0.0
  0
LINE
  5
AD9
330
1E
100
AcDbEntity
  8
OBJECT
100
AcDbLine
 10
5.981284611796908
 20
6.323453600222567
 30
0.0
 11
5.981284611796908
 21
14.62595360022256
 31
0.0
  0
LINE
  5
ADA
330
1E
100
AcDbEntity
  8
OBJECT
100
AcDbLine
 10
6.945689967491446
 20
6.222703600222565
 30
0.0
 11
10.71687925610236
 21
6.222703600222565
 31
0.0
  0
LINE
  5
ADB
330
1E
100
AcDbEntity
  8
OBJECT
100
AcDbLine
 10
6.945689967491446
 20
6.182703600222566
 30
0.0
 11
10.71687925610236
 21
6.182703600222566
 31
0.0
  0
CIRCLE
  5
ADC
330
1E
100
AcDbEntity
  8
OBJECT
100
AcDbCircle
 10
8.063784611796908
 20
7.207203600222573
 30
0.0
 40
0.1575
  0
CIRCLE
  5
ADD
330
1E
100
AcDbEntity
  8
OBJECT
100
AcDbCircle
 10
9.598784611796908
 20
7.207203600222573
 30
0.0
 40
0.1575
  0
LINE
  5
ADE
330
1E
100
AcDbEntity
  8
OBJECT
100
AcDbLine
 10
8.92503461179691
 20
6.222703600222565
 30
0.0
 11
8.92503461179691
 21
6.285703600222568
 31
0.0
  0
LINE
  5
ADF
330
1E
100
AcDbEntity
  8
OBJECT
100
AcDbLine
 10
8.73753461179691
 20
6.222703600222565
 30
0.0
 11
8.73753461179691
 21
6.285703600222568
 31
0.0
  0
LINE
  5
AE0
330
1E
100
AcDbEntity
  8
OBJECT
100
AcDbLine
 10
8.73753461179691
 20
6.285703600222568
 30
0.0
 11
8.787534611796903
 21
6.285703600222568
 31
0.0
  0
LINE
  5
AE1
330
1E
100
AcDbEntity
  8
OBJECT
100
AcDbLine
 10
8.787534611796903
 20
6.222703600222565
 30
0.0
 11
8.787534611796903
 21
6.285703600222568
 31
0.0
  0
LINE
  5
AE2
330
1E
100
AcDbEntity
  8
OBJECT
100
AcDbLine
 10
8.875034611796905
 20
6.222703600222565
 30
0.0
 11
8.875034611796905
 21
6.285703600222568
 31
0.0
  0
LINE
  5
AE3
330
1E
100
AcDbEntity
  8
OBJECT
100
AcDbLine
 10
8.92503461179691
 20
6.285703600222568
 30
0.0
 11
8.875034611796905
 21
6.285703600222568
 31
0.0
  0
LINE
  5
AE4
330
1E
100
AcDbEntity
  8
CENTER
100
AcDbLine
 10
8.83128461179691
 20
6.043474259638543
 30
0.0
 11
8.83128461179691
 21
6.417992098268317
 31
0.0
  0
LINE
  5
AE5
330
1E
100
AcDbEntity
  8
OBJECT
100
AcDbLine
 10
10.1852846117969
 20
6.222703600222565
 30
0.0
 11
10.1852846117969
 21
6.285703600222568
 31
0.0
  0
LINE
  5
AE6
330
1E
100
AcDbEntity
  8
OBJECT
100
AcDbLine
 10
10.37278461179691
 20
6.222703600222565
 30
0.0
 11
10.37278461179691
 21
6.285703600222568
 31
0.0
  0
LINE
  5
AE7
330
1E
100
AcDbEntity
  8
OBJECT
100
AcDbLine
 10
10.37278461179691
 20
6.285703600222568
 30
0.0
 11
10.32278461179691
 21
6.285703600222568
 31
0.0
  0
LINE
  5
AE8
330
1E
100
AcDbEntity
  8
OBJECT
100
AcDbLine
 10
10.32278461179691
 20
6.222703600222565
 30
0.0
 11
10.32278461179691
 21
6.285703600222568
 31
0.0
  0
LINE
  5
AE9
330
1E
100
AcDbEntity
  8
OBJECT
100
AcDbLine
 10
10.23528461179691
 20
6.222703600222565
 30
0.0
 11
10.23528461179691
 21
6.285703600222568
 31
0.0
  0
LINE
  5
AEA
330
1E
100
AcDbEntity
  8
OBJECT
100
AcDbLine
 10
10.1852846117969
 20
6.285703600222568
 30
0.0
 11
10.23528461179691
 21
6.285703600222568
 31
0.0
  0
LINE
  5
AEE
330
1E
100
AcDbEntity
  8
CENTER
100
AcDbLine
 10
10.2790346117969
 20
6.043474259638543
 30
0.0
 11
10.2790346117969
 21
6.417992098268317
 31
0.0
  0
LINE
  5
AEF
330
1E
100
AcDbEntity
  8
OBJECT
100
AcDbLine
 10
11.6812846117969
 20
6.323453600222567
 30
0.0
 11
11.6812846117969
 21
14.62595360022256
 31
0.0
  0
LINE
  5
AF0
330
1E
100
AcDbEntity
  8
OBJECT
100
AcDbLine
 10
11.6232846117969
 20
6.695828600222565
 30
0.0
 11
11.6232846117969
 21
10.12470360022255
 31
0.0
  0
LINE
  5
AF1
330
1E
100
AcDbEntity
  8
OBJECT
100
AcDbLine
 10
11.5832846117969
 20
6.695828600222565
 30
0.0
 11
11.5832846117969
 21
10.12470360022255
 31
0.0
  0
LINE
  5
AF2
330
1E
100
AcDbEntity
  8
CENTER
100
AcDbLine
 10
10.2790346117969
 20
14.90593294080658
 30
0.0
 11
10.2790346117969
 21
14.53141510217681
 31
0.0
  0
ARC
  5
AF3
330
1E
100
AcDbEntity
  8
OBJECT
100
AcDbCircle
 10
11.4825346117969
 20
14.62595360022256
 30
0.0
 40
0.19875
100
AcDbArc
 50
0.0
 51
90.0
  0
CIRCLE
  5
AF4
330
1E
100
AcDbEntity
  8
OBJECT
100
AcDbCircle
 10
11.1112846117969
 20
14.59214110022258
 30
0.0
 40
0.0859374999999991
  0
LINE
  5
AF8
330
1E
100
AcDbEntity
  8
OBJECT
100
AcDbLine
 10
10.1852846117969
 20
14.66370360022255
 30
0.0
 11
10.23528461179691
 21
14.66370360022255
 31
0.0
  0
LINE
  5
AF9
330
1E
100
AcDbEntity
  8
OBJECT
100
AcDbLine
 10
10.23528461179691
 20
14.72670360022256
 30
0.0
 11
10.23528461179691
 21
14.66370360022255
 31
0.0
  0
LINE
  5
AFA
330
1E
100
AcDbEntity
  8
OBJECT
100
AcDbLine
 10
10.32278461179691
 20
14.72670360022256
 30
0.0
 11
10.32278461179691
 21
14.66370360022255
 31
0.0
  0
LINE
  5
AFB
330
1E
100
AcDbEntity
  8
OBJECT
100
AcDbLine
 10
10.37278461179691
 20
14.66370360022255
 30
0.0
 11
10.32278461179691
 21
14.66370360022255
 31
0.0
  0
LINE
  5
AFC
330
1E
100
AcDbEntity
  8
OBJECT
100
AcDbLine
 10
10.37278461179691
 20
14.72670360022256
 30
0.0
 11
10.37278461179691
 21
14.66370360022255
 31
0.0
  0
LINE
  5
AFD
330
1E
100
AcDbEntity
  8
OBJECT
100
AcDbLine
 10
10.1852846117969
 20
14.72670360022256
 30
0.0
 11
10.1852846117969
 21
14.66370360022255
 31
0.0
  0
CIRCLE
  5
AFE
330
1E
100
AcDbEntity
  8
OBJECT
100
AcDbCircle
 10
11.4652846117969
 20
14.59995360022257
 30
0.0
 40
0.0625
  0
CIRCLE
  5
AFF
330
1E
100
AcDbEntity
  8
OBJECT
100
AcDbCircle
 10
11.4652846117969
 20
14.59995360022257
 30
0.0
 40
0.125
  0
LINE
  5
B00
330
1E
100
AcDbEntity
  8
OBJECT
100
AcDbLine
 10
11.4832846117969
 20
14.35357860022256
 30
0.0
 11
11.09711253124152
 21
14.35357860022256
 31
0.0
  0
ARC
  5
B01
330
1E
100
AcDbEntity
  8
OBJECT
100
AcDbCircle
 10
11.09711253124151
 20
14.60357860022257
 30
0.0
 40
0.2499999999999991
100
AcDbArc
 50
182.125976402828
 51
270.0000000000004
  0
ARC
  5
B02
330
1E
100
AcDbEntity
  8
OBJECT
100
AcDbCircle
 10
10.70987925610236
 20
14.58920360022256
 30
0.0
 40
0.1375
100
AcDbArc
 50
2.125976402827515
 51
90.0
  0
LINE
  5
B03
330
1E
100
AcDbEntity
  8
OBJECT
100
AcDbLine
 10
11.31590623190307
 20
14.77470360022256
 30
0.0
 11
10.78787925610234
 21
14.77470360022256
 31
0.0
  0
LINE
  5
B04
330
1E
100
AcDbEntity
  8
OBJECT
100
AcDbLine
 10
11.33350326920735
 20
14.41157860022256
 30
0.0
 11
11.08511253124152
 21
14.41157860022256
 31
0.0
  0
ARC
  5
B05
330
1E
100
AcDbEntity
  8
OBJECT
100
AcDbCircle
 10
11.08511253124152
 20
14.59157860022256
 30
0.0
 40
0.1800000000000001
100
AcDbArc
 50
182.1259764028274
 51
270.0
  0
ARC
  5
B06
330
1E
100
AcDbEntity
  8
OBJECT
100
AcDbCircle
 10
10.69787925610236
 20
14.57720360022256
 30
0.0
 40
0.2075
100
AcDbArc
 50
2.125976402827515
 51
64.94238458169988
  0
ARC
  5
B07
330
1E
100
AcDbEntity
  8
OBJECT
100
AcDbCircle
 10
10.78787925610234
 20
14.76970360022257
 30
0.0
 40
0.005
100
AcDbArc
 50
90.0
 51
244.9423845817014
  0
ARC
  5
B08
330
1E
100
AcDbEntity
  8
OBJECT
100
AcDbCircle
 10
11.4832846117969
 20
14.25357860022256
 30
0.0
 40
0.1
100
AcDbArc
 50
0.0
 51
90.0
  0
CIRCLE
  5
B09
330
1E
100
AcDbEntity
  8
OBJECT
100
AcDbCircle
 10
11.62128461179689
 20
14.402570260799
 30
0.0
 40
0.03125
  0
CIRCLE
  5
B0A
330
1E
100
AcDbEntity
  8
OBJECT
100
AcDbCircle
 10
11.4652846117969
 20
14.59995360022257
 30
0.0
 40
0.1640625
  0
ARC
  5
B0B
330
1E
100
AcDbEntity
  8
OBJECT
100
AcDbCircle
 10
11.4825346117969
 20
14.62595360022256
 30
0.0
 40
0.21875
100
AcDbArc
 50
0.0
 51
90.0
  0
LINE
  5
B0C
330
1E
100
AcDbEntity
  8
OBJECT
100
AcDbLine
 10
11.4832846117969
 20
14.39357860022257
 30
0.0
 11
11.09711253124152
 21
14.39357860022257
 31
0.0
  0
ARC
  5
B0D
330
1E
100
AcDbEntity
  8
OBJECT
100
AcDbCircle
 10
11.4832846117969
 20
14.25357860022256
 30
0.0
 40
0.14
100
AcDbArc
 50
0.0
 51
90.0
  0
ARC
  5
B0E
330
1E
100
AcDbEntity
  8
OBJECT
100
AcDbCircle
 10
11.09711253124152
 20
14.60357860022256
 30
0.0
 40
0.2100000000000001
100
AcDbArc
 50
182.1259764028274
 51
270.0
  0
ARC
  5
B0F
330
1E
100
AcDbEntity
  8
OBJECT
100
AcDbCircle
 10
10.70987925610236
 20
14.58920360022256
 30
0.0
 40
0.1775
100
AcDbArc
 50
2.125976402827515
 51
90.0
  0
LINE
  5
B10
330
1E
100
AcDbEntity
  8
CENTER
100
AcDbLine
 10
8.83128461179691
 20
14.90593294080658
 30
0.0
 11
8.83128461179691
 21
14.53141510217681
 31
0.0
  0
LINE
  5
B11
330
1E
100
AcDbEntity
  8
OBJECT
100
AcDbLine
 10
8.92503461179691
 20
14.66370360022255
 30
0.0
 11
8.875034611796905
 21
14.66370360022255
 31
0.0
  0
LINE
  5
B12
330
1E
100
AcDbEntity
  8
OBJECT
100
AcDbLine
 10
8.875034611796905
 20
14.72670360022256
 30
0.0
 11
8.875034611796905
 21
14.66370360022255
 31
0.0
  0
LINE
  5
B13
330
1E
100
AcDbEntity
  8
OBJECT
100
AcDbLine
 10
8.787534611796903
 20
14.72670360022256
 30
0.0
 11
8.787534611796903
 21
14.66370360022255
 31
0.0
  0
LINE
  5
B14
330
1E
100
AcDbEntity
  8
OBJECT
100
AcDbLine
 10
8.73753461179691
 20
14.66370360022255
 30
0.0
 11
8.787534611796903
 21
14.66370360022255
 31
0.0
  0
LINE
  5
B15
330
1E
100
AcDbEntity
  8
OBJECT
100
AcDbLine
 10
8.73753461179691
 20
14.72670360022256
 30
0.0
 11
8.73753461179691
 21
14.66370360022255
 31
0.0
  0
LINE
  5
B16
330
1E
100
AcDbEntity
  8
OBJECT
100
AcDbLine
 10
8.92503461179691
 20
14.72670360022256
 30
0.0
 11
8.92503461179691
 21
14.66370360022255
 31
0.0
  0
CIRCLE
  5
B17
330
1E
100
AcDbEntity
  8
OBJECT
100
AcDbCircle
 10
9.598784611796908
 20
13.74220360022256
 30
0.0
 40
0.1575
  0
CIRCLE
  5
B18
330
1E
100
AcDbEntity
  8
OBJECT
100
AcDbCircle
 10
8.063784611796908
 20
13.74220360022256
 30
0.0
 40
0.1575
  0
LINE
  5
B19
330
1E
100
AcDbEntity
  8
OBJECT
100
AcDbLine
 10
6.952689967491451
 20
14.76670360022257
 30
0.0
 11
10.70987925610236
 21
14.76670360022257
 31
0.0
  0
ARC
  5
B1A
330
1E
100
AcDbEntity
  8
OBJECT
100
AcDbCircle
 10
6.952689967491451
 20
14.58920360022256
 30
0.0
 40
0.1775
100
AcDbArc
 50
90.0
 51
177.8740235971723
  0
ARC
  5
B1B
330
1E
100
AcDbEntity
  8
OBJECT
100
AcDbCircle
 10
6.565456692352285
 20
14.60357860022256
 30
0.0
 40
0.2100000000000008
100
AcDbArc
 50
270.0000000000001
 51
357.8740235971725
  0
ARC
  5
B1C
330
1E
100
AcDbEntity
  8
OBJECT
100
AcDbCircle
 10
6.179284611796909
 20
14.25357860022256
 30
0.0
 40
0.14
100
AcDbArc
 50
90.0
 51
180.0
  0
LINE
  5
B1D
330
1E
100
AcDbEntity
  8
OBJECT
100
AcDbLine
 10
6.179284611796909
 20
14.39357860022257
 30
0.0
 11
6.565456692352292
 21
14.39357860022257
 31
0.0
  0
LINE
  5
B1E
330
1E
100
AcDbEntity
  8
OBJECT
100
AcDbLine
 10
6.952689967491451
 20
14.72670360022256
 30
0.0
 11
10.70987925610236
 21
14.72670360022256
 31
0.0
  0
LINE
  5
B1F
330
1E
100
AcDbEntity
  8
OBJECT
100
AcDbLine
 10
6.180034611796905
 20
14.82470360022255
 30
0.0
 11
11.4825346117969
 21
14.82470360022255
 31
0.0
  0
ARC
  5
B20
330
1E
100
AcDbEntity
  8
OBJECT
100
AcDbCircle
 10
6.180034611796905
 20
14.62595360022256
 30
0.0
 40
0.21875
100
AcDbArc
 50
90.0
 51
180.0
  0
CIRCLE
  5
B21
330
1E
100
AcDbEntity
  8
OBJECT
100
AcDbCircle
 10
6.197284611796909
 20
14.59995360022257
 30
0.0
 40
0.1640625
  0
CIRCLE
  5
B22
330
1E
100
AcDbEntity
  8
OBJECT
100
AcDbCircle
 10
6.041284611796911
 20
14.402570260799
 30
0.0
 40
0.03125
  0
ARC
  5
B23
330
1E
100
AcDbEntity
  8
OBJECT
100
AcDbCircle
 10
6.179284611796909
 20
14.25357860022256
 30
0.0
 40
0.1
100
AcDbArc
 50
90.0
 51
180.0
  0
ARC
  5
B24
330
1E
100
AcDbEntity
  8
OBJECT
100
AcDbCircle
 10
6.874689967491462
 20
14.76970360022257
 30
0.0
 40
0.005
100
AcDbArc
 50
295.0576154182984
 51
90.0
  0
ARC
  5
B25
330
1E
100
AcDbEntity
  8
OBJECT
100
AcDbCircle
 10
6.964689967491452
 20
14.57720360022256
 30
0.0
 40
0.2075
100
AcDbArc
 50
115.0576154183
 51
177.8740235971723
  0
ARC
  5
B26
330
1E
100
AcDbEntity
  8
OBJECT
100
AcDbCircle
 10
6.577456692352292
 20
14.59157860022256
 30
0.0
 40
0.1799999999999997
100
AcDbArc
 50
270.0
 51
357.8740235971723
  0
LINE
  5
B27
330
1E
100
AcDbEntity
  8
OBJECT
100
AcDbLine
 10
6.329065954386351
 20
14.41157860022256
 30
0.0
 11
6.577456692352292
 21
14.41157860022256
 31
0.0
  0
LINE
  5
B28
330
1E
100
AcDbEntity
  8
OBJECT
100
AcDbLine
 10
6.346662991690614
 20
14.77470360022256
 30
0.0
 11
6.874689967491462
 21
14.77470360022256
 31
0.0
  0
ARC
  5
B29
330
1E
100
AcDbEntity
  8
OBJECT
100
AcDbCircle
 10
6.952689967491451
 20
14.58920360022256
 30
0.0
 40
0.1375
100
AcDbArc
 50
90.0
 51
177.8740235971723
  0
ARC
  5
B2A
330
1E
100
AcDbEntity
  8
OBJECT
100
AcDbCircle
 10
6.565456692352292
 20
14.60357860022256
 30
0.0
 40
0.2499999999999982
100
AcDbArc
 50
270.0
 51
357.8740235971727
  0
LINE
  5
B2B
330
1E
100
AcDbEntity
  8
OBJECT
100
AcDbLine
 10
6.179284611796909
 20
14.35357860022256
 30
0.0
 11
6.565456692352292
 21
14.35357860022256
 31
0.0
  0
CIRCLE
  5
B2C
330
1E
100
AcDbEntity
  8
OBJECT
100
AcDbCircle
 10
6.197284611796909
 20
14.59995360022257
 30
0.0
 40
0.125
  0
CIRCLE
  5
B2D
330
1E
100
AcDbEntity
  8
OBJECT
100
AcDbCircle
 10
6.197284611796909
 20
14.59995360022257
 30
0.0
 40
0.0625
  0
LINE
  5
B2E
330
1E
100
AcDbEntity
  8
OBJECT
100
AcDbLine
 10
7.477284611796903
 20
14.72670360022256
 30
0.0
 11
7.477284611796903
 21
14.66370360022255
 31
0.0
  0
LINE
  5
B2F
330
1E
100
AcDbEntity
  8
OBJECT
100
AcDbLine
 10
7.289784611796903
 20
14.72670360022256
 30
0.0
 11
7.289784611796903
 21
14.66370360022255
 31
0.0
  0
LINE
  5
B30
330
1E
100
AcDbEntity
  8
OBJECT
100
AcDbLine
 10
7.289784611796903
 20
14.66370360022255
 30
0.0
 11
7.339784611796901
 21
14.66370360022255
 31
0.0
  0
LINE
  5
B31
330
1E
100
AcDbEntity
  8
OBJECT
100
AcDbLine
 10
7.339784611796901
 20
14.72670360022256
 30
0.0
 11
7.339784611796901
 21
14.66370360022255
 31
0.0
  0
LINE
  5
B32
330
1E
100
AcDbEntity
  8
OBJECT
100
AcDbLine
 10
7.427284611796906
 20
14.72670360022256
 30
0.0
 11
7.427284611796906
 21
14.66370360022255
 31
0.0
  0
LINE
  5
B33
330
1E
100
AcDbEntity
  8
OBJECT
100
AcDbLine
 10
7.477284611796903
 20
14.66370360022255
 30
0.0
 11
7.427284611796906
 21
14.66370360022255
 31
0.0
  0
CIRCLE
  5
B37
330
1E
100
AcDbEntity
  8
OBJECT
100
AcDbCircle
 10
6.551284611796909
 20
14.59214110022258
 30
0.0
 40
0.0859374999999991
  0
ARC
  5
B38
330
1E
100
AcDbEntity
  8
OBJECT
100
AcDbCircle
 10
6.180034611796905
 20
14.62595360022256
 30
0.0
 40
0.19875
100
AcDbArc
 50
90.0
 51
180.0
  0
LINE
  5
B39
330
1E
100
AcDbEntity
  8
CENTER
100
AcDbLine
 10
7.383534611796903
 20
14.90593294080658
 30
0.0
 11
7.383534611796903
 21
14.53141510217681
 31
0.0
  0
CIRCLE
  5
B3A
330
1E
100
AcDbEntity
  8
OBJECT
100
AcDbCircle
 10
11.63166506478275
 20
10.28245067522501
 30
0.0
 40
0.03125
  0
LINE
  5
B3B
330
1E
100
AcDbEntity
  8
OBJECT
100
AcDbLine
 10
11.4825346117969
 20
10.72470360022257
 30
0.0
 11
11.4832846117969
 21
10.72470360022257
 31
0.0
  0
LINE
  5
B3C
330
1E
100
AcDbEntity
  8
OBJECT
100
AcDbLine
 10
11.4825346117969
 20
10.68470360022256
 30
0.0
 11
11.4832846117969
 21
10.68470360022256
 31
0.0
  0
ARC
  5
B3D
330
1E
100
AcDbEntity
  8
OBJECT
100
AcDbCircle
 10
11.4832846117969
 20
10.12470360022255
 30
0.0
 40
0.1
100
AcDbArc
 50
0.0
 51
90.0
  0
ARC
  5
B3E
330
1E
100
AcDbEntity
  8
OBJECT
100
AcDbCircle
 10
11.4832846117969
 20
10.12470360022255
 30
0.0
 40
0.14
100
AcDbArc
 50
0.0
 51
90.0
  0
ARC
  5
B3F
330
1E
100
AcDbEntity
  8
OBJECT
100
AcDbCircle
 10
11.4832846117969
 20
10.82470360022256
 30
0.0
 40
0.14
100
AcDbArc
 50
270.0
 51
0.0
  0
ARC
  5
B40
330
1E
100
AcDbEntity
  8
OBJECT
100
AcDbCircle
 10
11.4832846117969
 20
10.82470360022256
 30
0.0
 40
0.1
100
AcDbArc
 50
270.0
 51
0.0
  0
LINE
  5
B41
330
1E
100
AcDbEntity
  8
OBJECT
100
AcDbLine
 10
11.48253461179665
 20
10.26470360022256
 30
0.0
 11
11.4832846117969
 21
10.26470360022256
 31
0.0
  0
LINE
  5
B42
330
1E
100
AcDbEntity
  8
OBJECT
100
AcDbLine
 10
11.4825346117969
 20
10.22470360022256
 30
0.0
 11
11.4832846117969
 21
10.22470360022256
 31
0.0
  0
CIRCLE
  5
B43
330
1E
100
AcDbEntity
  8
OBJECT
100
AcDbCircle
 10
11.63166506478275
 20
10.66695652522011
 30
0.0
 40
0.03125
  0
LINE
  5
B44
330
1E
100
AcDbEntity
  8
OBJECT
100
AcDbLine
 10
11.5832846117969
 20
14.25357860022256
 30
0.0
 11
11.5832846117969
 21
10.82470360022256
 31
0.0
  0
LINE
  5
B45
330
1E
100
AcDbEntity
  8
OBJECT
100
AcDbLine
 10
11.6232846117969
 20
14.25357860022256
 30
0.0
 11
11.6232846117969
 21
10.82470360022256
 31
0.0
  0
CIRCLE
  5
B46
330
1E
100
AcDbEntity
  8
OBJECT
100
AcDbCircle
 10
6.030904158811061
 20
10.66695652522011
 30
0.0
 40
0.03125
  0
LINE
  5
B47
330
1E
100
AcDbEntity
  8
OBJECT
100
AcDbLine
 10
6.180034611796905
 20
10.22470360022256
 30
0.0
 11
6.179284611796909
 21
10.22470360022256
 31
0.0
  0
LINE
  5
B48
330
1E
100
AcDbEntity
  8
OBJECT
100
AcDbLine
 10
6.180034611797154
 20
10.26470360022256
 30
0.0
 11
6.179284611796909
 21
10.26470360022256
 31
0.0
  0
ARC
  5
B49
330
1E
100
AcDbEntity
  8
OBJECT
100
AcDbCircle
 10
6.179284611796909
 20
10.82470360022256
 30
0.0
 40
0.1
100
AcDbArc
 50
180.0
 51
270.0
  0
ARC
  5
B4A
330
1E
100
AcDbEntity
  8
OBJECT
100
AcDbCircle
 10
6.179284611796909
 20
10.82470360022256
 30
0.0
 40
0.14
100
AcDbArc
 50
180.0
 51
270.0
  0
ARC
  5
B4B
330
1E
100
AcDbEntity
  8
OBJECT
100
AcDbCircle
 10
6.179284611796909
 20
10.12470360022255
 30
0.0
 40
0.14
100
AcDbArc
 50
90.0
 51
180.0
  0
ARC
  5
B4C
330
1E
100
AcDbEntity
  8
OBJECT
100
AcDbCircle
 10
6.179284611796909
 20
10.12470360022255
 30
0.0
 40
0.1
100
AcDbArc
 50
90.0
 51
180.0
  0
LINE
  5
B4D
330
1E
100
AcDbEntity
  8
OBJECT
100
AcDbLine
 10
6.180034611796905
 20
10.68470360022256
 30
0.0
 11
6.179284611796909
 21
10.68470360022256
 31
0.0
  0
LINE
  5
B4E
330
1E
100
AcDbEntity
  8
OBJECT
100
AcDbLine
 10
6.180034611796905
 20
10.72470360022257
 30
0.0
 11
6.179284611796909
 21
10.72470360022257
 31
0.0
  0
ARC
  5
B4F
330
1E
100
AcDbEntity
  8
OBJECT
100
AcDbCircle
 10
6.197284611796909
 20
10.47470360022257
 30
0.0
 40
0.21
100
AcDbArc
 50
270.0000000000678
 51
90.0
  0
ARC
  5
B50
330
1E
100
AcDbEntity
  8
OBJECT
100
AcDbCircle
 10
6.197284611796909
 20
10.47470360022257
 30
0.0
 40
0.25
100
AcDbArc
 50
270.0
 51
90.0
  0
CIRCLE
  5
B51
330
1E
100
AcDbEntity
  8
OBJECT
100
AcDbCircle
 10
6.030904158811061
 20
10.28245067522501
 30
0.0
 40
0.03125
  0
CIRCLE
  5
B52
330
1E
100
AcDbEntity
  8
OBJECT
100
AcDbCircle
 10
6.197284611796909
 20
10.47470360022257
 30
0.0
 40
0.1640625
  0
CIRCLE
  5
B53
330
1E
100
AcDbEntity
  8
OBJECT
100
AcDbCircle
 10
6.197284611796909
 20
10.47470360022257
 30
0.0
 40
0.125
  0
CIRCLE
  5
B54
330
1E
100
AcDbEntity
  8
OBJECT
100
AcDbCircle
 10
6.197284611796909
 20
10.47470360022257
 30
0.0
 40
0.0625
  0
LINE
  5
B55
330
1E
100
AcDbEntity
  8
OBJECT
100
AcDbLine
 10
6.079284611796907
 20
14.25357860022256
 30
0.0
 11
6.079284611796907
 21
10.82470360022256
 31
0.0
  0
LINE
  5
B56
330
1E
100
AcDbEntity
  8
OBJECT
100
AcDbLine
 10
6.039284611796908
 20
14.25357860022256
 30
0.0
 11
6.039284611796908
 21
10.82470360022256
 31
0.0
  0
LINE
  5
B57
330
1E
100
AcDbEntity
  8
OBJECT
100
AcDbLine
 10
6.079284611796907
 20
6.695828600222565
 30
0.0
 11
6.079284611796907
 21
10.12470360022255
 31
0.0
  0
LINE
  5
B58
330
1E
100
AcDbEntity
  8
OBJECT
100
AcDbLine
 10
6.039284611796908
 20
6.695828600222565
 30
0.0
 11
6.039284611796908
 21
10.12470360022255
 31
0.0
  0
LINE
  5
B59
330
1E
100
AcDbEntity
  8
OBJECT
100
AcDbLine
 10
6.079284611796907
 20
8.218703600222569
 30
0.0
 11
6.136284611796909
 21
8.218703600222569
 31
0.0
  0
LINE
  5
B5A
330
1E
100
AcDbEntity
  8
OBJECT
100
AcDbLine
 10
6.079284611796907
 20
8.406203600222569
 30
0.0
 11
6.136284611796909
 21
8.406203600222569
 31
0.0
  0
LINE
  5
B5B
330
1E
100
AcDbEntity
  8
OBJECT
100
AcDbLine
 10
6.136284611796909
 20
8.406203600222569
 30
0.0
 11
6.136284611796909
 21
8.356203600222574
 31
0.0
  0
LINE
  5
B5C
330
1E
100
AcDbEntity
  8
OBJECT
100
AcDbLine
 10
6.079284611796907
 20
8.356203600222574
 30
0.0
 11
6.136284611796909
 21
8.356203600222574
 31
0.0
  0
LINE
  5
B5D
330
1E
100
AcDbEntity
  8
OBJECT
100
AcDbLine
 10
6.079284611796907
 20
8.268703600222568
 30
0.0
 11
6.136284611796909
 21
8.268703600222568
 31
0.0
  0
LINE
  5
B5E
330
1E
100
AcDbEntity
  8
OBJECT
100
AcDbLine
 10
6.136284611796909
 20
8.218703600222569
 30
0.0
 11
6.136284611796909
 21
8.268703600222568
 31
0.0
  0
LINE
  5
B5F
330
1E
100
AcDbEntity
  8
CENTER
100
AcDbLine
 10
5.900055271212885
 20
8.312453600222569
 30
0.0
 11
6.274573109842663
 21
8.312453600222569
 31
0.0
  0
LINE
  5
B60
330
1E
100
AcDbEntity
  8
CENTER
100
AcDbLine
 10
11.76251395238092
 20
8.312453600222569
 30
0.0
 11
11.38799611375115
 21
8.312453600222569
 31
0.0
  0
LINE
  5
B61
330
1E
100
AcDbEntity
  8
OBJECT
100
AcDbLine
 10
11.5262846117969
 20
8.218703600222569
 30
0.0
 11
11.5262846117969
 21
8.268703600222568
 31
0.0
  0
LINE
  5
B62
330
1E
100
AcDbEntity
  8
OBJECT
100
AcDbLine
 10
11.5832846117969
 20
8.268703600222568
 30
0.0
 11
11.5262846117969
 21
8.268703600222568
 31
0.0
  0
LINE
  5
B63
330
1E
100
AcDbEntity
  8
OBJECT
100
AcDbLine
 10
11.5832846117969
 20
8.356203600222574
 30
0.0
 11
11.5262846117969
 21
8.356203600222574
 31
0.0
  0
LINE
  5
B64
330
1E
100
AcDbEntity
  8
OBJECT
100
AcDbLine
 10
11.5262846117969
 20
8.406203600222569
 30
0.0
 11
11.5262846117969
 21
8.356203600222574
 31
0.0
  0
LINE
  5
B65
330
1E
100
AcDbEntity
  8
OBJECT
100
AcDbLine
 10
11.5832846117969
 20
8.406203600222569
 30
0.0
 11
11.5262846117969
 21
8.406203600222569
 31
0.0
  0
LINE
  5
B66
330
1E
100
AcDbEntity
  8
OBJECT
100
AcDbLine
 10
11.5832846117969
 20
8.218703600222569
 30
0.0
 11
11.5262846117969
 21
8.218703600222569
 31
0.0
  0
LINE
  5
B67
330
1E
100
AcDbEntity
  8
OBJECT
100
AcDbLine
 10
11.5832846117969
 20
12.73070360022257
 30
0.0
 11
11.5262846117969
 21
12.73070360022257
 31
0.0
  0
LINE
  5
B68
330
1E
100
AcDbEntity
  8
OBJECT
100
AcDbLine
 10
11.5832846117969
 20
12.54320360022256
 30
0.0
 11
11.5262846117969
 21
12.54320360022256
 31
0.0
  0
LINE
  5
B69
330
1E
100
AcDbEntity
  8
OBJECT
100
AcDbLine
 10
11.5262846117969
 20
12.54320360022256
 30
0.0
 11
11.5262846117969
 21
12.59320360022257
 31
0.0
  0
LINE
  5
B6A
330
1E
100
AcDbEntity
  8
OBJECT
100
AcDbLine
 10
11.5832846117969
 20
12.59320360022257
 30
0.0
 11
11.5262846117969
 21
12.59320360022257
 31
0.0
  0
LINE
  5
B6B
330
1E
100
AcDbEntity
  8
OBJECT
100
AcDbLine
 10
11.5832846117969
 20
12.68070360022256
 30
0.0
 11
11.5262846117969
 21
12.68070360022257
 31
0.0
  0
LINE
  5
B6C
330
1E
100
AcDbEntity
  8
OBJECT
100
AcDbLine
 10
11.5262846117969
 20
12.73070360022257
 30
0.0
 11
11.5262846117969
 21
12.68070360022257
 31
0.0
  0
LINE
  5
B6D
330
1E
100
AcDbEntity
  8
CENTER
100
AcDbLine
 10
11.76251395238092
 20
12.63695360022256
 30
0.0
 11
11.38799611375115
 21
12.63695360022256
 31
0.0
  0
LINE
  5
B6E
330
1E
100
AcDbEntity
  8
CENTER
100
AcDbLine
 10
5.900055271212885
 20
12.63695360022256
 30
0.0
 11
6.274573109842663
 21
12.63695360022256
 31
0.0
  0
LINE
  5
B6F
330
1E
100
AcDbEntity
  8
OBJECT
100
AcDbLine
 10
6.136284611796909
 20
12.73070360022257
 30
0.0
 11
6.136284611796909
 21
12.68070360022257
 31
0.0
  0
LINE
  5
B70
330
1E
100
AcDbEntity
  8
OBJECT
100
AcDbLine
 10
6.079284611796907
 20
12.68070360022256
 30
0.0
 11
6.136284611796909
 21
12.68070360022257
 31
0.0
  0
LINE
  5
B71
330
1E
100
AcDbEntity
  8
OBJECT
100
AcDbLine
 10
6.079284611796907
 20
12.59320360022257
 30
0.0
 11
6.136284611796909
 21
12.59320360022257
 31
0.0
  0
LINE
  5
B72
330
1E
100
AcDbEntity
  8
OBJECT
100
AcDbLine
 10
6.136284611796909
 20
12.54320360022256
 30
0.0
 11
6.136284611796909
 21
12.59320360022257
 31
0.0
  0
LINE
  5
B73
330
1E
100
AcDbEntity
  8
OBJECT
100
AcDbLine
 10
6.079284611796907
 20
12.54320360022256
 30
0.0
 11
6.136284611796909
 21
12.54320360022256
 31
0.0
  0
LINE
  5
B74
330
1E
100
AcDbEntity
  8
OBJECT
100
AcDbLine
 10
6.079284611796907
 20
12.73070360022257
 30
0.0
 11
6.136284611796909
 21
12.73070360022257
 31
0.0
  0
CIRCLE
  5
B75
330
1E
100
AcDbEntity
  8
OBJECT
100
AcDbCircle
 10
25.50636335395662
 20
10.33245067522502
 30
0.0
 40
0.03125
  0
CIRCLE
  5
B76
330
1E
100
AcDbEntity
  8
OBJECT
100
AcDbCircle
 10
25.50636335395662
 20
10.61695652522011
 30
0.0
 40
0.03125
  0
LINE
  5
B77
330
1E
100
AcDbEntity
  8
OBJECT
100
AcDbLine
 10
25.43674380694247
 20
14.62595360022256
 30
0.0
 11
25.43674380694247
 21
6.323453600222567
 31
0.0
  0
LINE
  5
B78
330
1E
100
AcDbEntity
  8
OBJECT
100
AcDbLine
 10
31.17674380694247
 20
6.323453600222567
 30
0.0
 11
31.17674380694247
 21
14.62595360022256
 31
0.0
  0
LINE
  5
B79
330
1E
100
AcDbEntity
  8
OBJECT
100
AcDbLine
 10
25.61674380694247
 20
14.25357860022256
 30
0.0
 11
25.61674380694247
 21
10.82470360022256
 31
0.0
  0
ARC
  5
B7A
330
1E
100
AcDbEntity
  8
OBJECT
100
AcDbCircle
 10
25.65474380694247
 20
10.12470360022255
 30
0.0
 40
0.0380000000000006
100
AcDbArc
 50
90.0
 51
180.0
  0
ARC
  5
B7B
330
1E
100
AcDbEntity
  8
OBJECT
100
AcDbCircle
 10
25.67249380694247
 20
10.47470360022257
 30
0.0
 40
0.3119999999999994
100
AcDbArc
 50
270.0
 51
90.0
  0
ARC
  5
B7C
330
1E
100
AcDbEntity
  8
OBJECT
100
AcDbCircle
 10
25.65474380694247
 20
10.82470360022256
 30
0.0
 40
0.0380000000000006
100
AcDbArc
 50
180.0
 51
270.0
  0
LINE
  5
B7D
330
1E
100
AcDbEntity
  8
OBJECT
100
AcDbLine
 10
25.61674380694247
 20
10.12470360022255
 30
0.0
 11
25.61674380694247
 21
6.695828600222565
 31
0.0
  0
CIRCLE
  5
B7E
330
1E
100
AcDbEntity
  8
OBJECT
100
AcDbCircle
 10
25.67299380694247
 20
10.47470360022257
 30
0.0
 40
0.0859375
  0
ARC
  5
B7F
330
1E
100
AcDbEntity
  8
OBJECT
100
AcDbCircle
 10
30.95799380694247
 20
14.62595360022256
 30
0.0
 40
0.21875
100
AcDbArc
 50
0.0
 51
90.0
  0
CIRCLE
  5
B80
330
1E
100
AcDbEntity
  8
OBJECT
100
AcDbCircle
 10
31.09674380694247
 20
14.47208556901137
 30
0.0
 40
0.03125
  0
LINE
  5
B81
330
1E
100
AcDbEntity
  8
OBJECT
100
AcDbLine
 10
30.83189860481328
 20
14.80470360022256
 30
0.0
 11
30.33859733074212
 21
14.80470360022256
 31
0.0
  0
ARC
  5
B82
330
1E
100
AcDbEntity
  8
OBJECT
100
AcDbCircle
 10
30.20133845124793
 20
14.58920360022256
 30
0.0
 40
0.075499999999998
100
AcDbArc
 50
2.125976402827515
 51
90.0
  0
ARC
  5
B83
330
1E
100
AcDbEntity
  8
OBJECT
100
AcDbCircle
 10
30.58857172638709
 20
14.60357860022256
 30
0.0
 40
0.312000000000002
100
AcDbArc
 50
182.1259764028274
 51
270.0
  0
LINE
  5
B84
330
1E
100
AcDbEntity
  8
OBJECT
100
AcDbLine
 10
30.95874380694247
 20
14.29157860022256
 30
0.0
 11
30.58857172638709
 21
14.29157860022256
 31
0.0
  0
ARC
  5
B85
330
1E
100
AcDbEntity
  8
OBJECT
100
AcDbCircle
 10
30.95874380694247
 20
14.25357860022256
 30
0.0
 40
0.037999999999998
100
AcDbArc
 50
0.0
 51
90.0
  0
CIRCLE
  5
B86
330
1E
100
AcDbEntity
  8
OBJECT
100
AcDbCircle
 10
30.94049380694247
 20
14.59995360022255
 30
0.0
 40
0.0859375
  0
CIRCLE
  5
B87
330
1E
100
AcDbEntity
  8
OBJECT
100
AcDbCircle
 10
25.67299380694247
 20
14.59995360022255
 30
0.0
 40
0.0859375
  0
ARC
  5
B88
330
1E
100
AcDbEntity
  8
OBJECT
100
AcDbCircle
 10
25.65474380694247
 20
14.25357860022256
 30
0.0
 40
0.037999999999998
100
AcDbArc
 50
90.0
 51
180.0
  0
LINE
  5
B89
330
1E
100
AcDbEntity
  8
OBJECT
100
AcDbLine
 10
25.65474380694247
 20
14.29157860022256
 30
0.0
 11
26.02491588749785
 21
14.29157860022256
 31
0.0
  0
ARC
  5
B8A
330
1E
100
AcDbEntity
  8
OBJECT
100
AcDbCircle
 10
26.02491588749785
 20
14.60357860022256
 30
0.0
 40
0.312000000000002
100
AcDbArc
 50
270.0
 51
357.8740235971723
  0
ARC
  5
B8B
330
1E
100
AcDbEntity
  8
OBJECT
100
AcDbCircle
 10
26.41214916263701
 20
14.58920360022256
 30
0.0
 40
0.075499999999998
100
AcDbArc
 50
90.0
 51
177.8740235971723
  0
LINE
  5
B8C
330
1E
100
AcDbEntity
  8
OBJECT
100
AcDbLine
 10
26.41214916263701
 20
14.66470360022257
 30
0.0
 11
30.20133845124793
 21
14.66470360022254
 31
0.0
  0
LINE
  5
B8D
330
1E
100
AcDbEntity
  8
OBJECT
100
AcDbLine
 10
25.65549380694247
 20
14.84470360022256
 30
0.0
 11
30.95799380694247
 21
14.84470360022256
 31
0.0
  0
CIRCLE
  5
B8E
330
1E
100
AcDbEntity
  8
OBJECT
100
AcDbCircle
 10
25.51674380694247
 20
14.47208556901137
 30
0.0
 40
0.03125
  0
ARC
  5
B8F
330
1E
100
AcDbEntity
  8
OBJECT
100
AcDbCircle
 10
25.65549380694247
 20
14.62595360022256
 30
0.0
 40
0.21875
100
AcDbArc
 50
90.0
 51
180.0
  0
LINE
  5
B90
330
1E
100
AcDbEntity
  8
OBJECT
100
AcDbLine
 10
30.99674380694248
 20
10.12470360022255
 30
0.0
 11
30.99674380694248
 21
6.695828600222565
 31
0.0
  0
LINE
  5
B91
330
1E
100
AcDbEntity
  8
OBJECT
100
AcDbLine
 10
30.99674380694248
 20
14.25357860022256
 30
0.0
 11
30.99674380694248
 21
10.82470360022256
 31
0.0
  0
LINE
  5
B92
330
1E
100
AcDbEntity
  8
OBJECT
100
AcDbLine
 10
30.74344693469473
 20
14.47157860022256
 30
0.0
 11
30.58857172638709
 21
14.47157860022256
 31
0.0
  0
ARC
  5
B93
330
1E
100
AcDbEntity
  8
OBJECT
100
AcDbCircle
 10
30.58857172638709
 20
14.60357860022256
 30
0.0
 40
0.132000000000002
100
AcDbArc
 50
182.1259764028274
 51
270.0
  0
ARC
  5
B94
330
1E
100
AcDbEntity
  8
OBJECT
100
AcDbCircle
 10
30.20133845124793
 20
14.58920360022256
 30
0.0
 40
0.2554999999999981
100
AcDbArc
 50
2.125976402827515
 51
57.50562883863286
  0
LINE
  5
B95
330
1E
100
AcDbEntity
  8
OBJECT
100
AcDbLine
 10
25.8700406791902
 20
14.47157860022256
 30
0.0
 11
26.02491588749785
 21
14.47157860022256
 31
0.0
  0
LINE
  5
B96
330
1E
100
AcDbEntity
  8
OBJECT
100
AcDbLine
 10
25.78158900907166
 20
14.80470360022256
 30
0.0
 11
26.27489028314282
 21
14.80470360022256
 31
0.0
  0
ARC
  5
B97
330
1E
100
AcDbEntity
  8
OBJECT
100
AcDbCircle
 10
26.41214916263701
 20
14.58920360022256
 30
0.0
 40
0.2554999999999981
100
AcDbArc
 50
122.494371161367
 51
177.8740235971723
  0
ARC
  5
B98
330
1E
100
AcDbEntity
  8
OBJECT
100
AcDbCircle
 10
26.02491588749785
 20
14.60357860022256
 30
0.0
 40
0.132000000000002
100
AcDbArc
 50
270.0
 51
357.8740235971723
  0
LINE
  5
B99
330
1E
100
AcDbEntity
  8
BEND
100
AcDbLine
 10
30.94049380694247
 20
5.597920983514985
 30
0.0
 11
30.22975649566625
 21
5.597920983514985
 31
0.0
  0
LINE
  5
B9A
330
1E
100
AcDbEntity
  8
OBJECT
100
AcDbLine
 10
39.60262445496825
 20
14.76312843406759
 30
0.0
 11
38.12512445496825
 21
14.76312843406759
 31
0.0
  0
LINE
  5
B9B
330
1E
100
AcDbEntity
  8
OBJECT
100
AcDbLine
 10
39.66512445496827
 20
6.085628434067597
 30
0.0
 11
39.66512445496825
 21
14.70062843406759
 31
0.0
  0
LINE
  5
B9C
330
1E
100
AcDbEntity
  8
OBJECT
100
AcDbLine
 10
38.12512445496826
 20
6.023128434067597
 30
0.0
 11
39.60262445496827
 21
6.023128434067597
 31
0.0
  0
ARC
  5
B9D
330
1E
100
AcDbEntity
  8
OBJECT
100
AcDbCircle
 10
39.60262445496827
 20
6.085628434067597
 30
0.0
 40
0.0625
100
AcDbArc
 50
270.0
 51
0.0
  0
ARC
  5
B9E
330
1E
100
AcDbEntity
  8
OBJECT
100
AcDbCircle
 10
39.60262445496825
 20
14.70062843406759
 30
0.0
 40
0.0625
100
AcDbArc
 50
0.0
 51
90.0
  0
LINE
  5
B9F
330
1E
100
AcDbEntity
  8
OBJECT
100
AcDbLine
 10
38.12512445496826
 20
6.023128434067597
 30
0.0
 11
38.12512445496825
 21
14.76312843406759
 31
0.0
  0
LINE
  5
BA0
330
1E
100
AcDbEntity
  8
OBJECT
100
AcDbLine
 10
38.08512445496826
 20
6.043128434067597
 30
0.0
 11
38.12512445496826
 21
6.043128434067597
 31
0.0
  0
LINE
  5
BA1
330
1E
100
AcDbEntity
  8
OBJECT
100
AcDbLine
 10
38.08512445496826
 20
14.74312843406758
 30
0.0
 11
38.12512445496826
 21
14.74312843406758
 31
0.0
  0
LINE
  5
BA2
330
1E
100
AcDbEntity
  8
OBJECT
100
AcDbLine
 10
38.08512445496826
 20
14.76312843406757
 30
0.0
 11
36.76762445496827
 21
14.76312843406757
 31
0.0
  0
ARC
  5
BA3
330
1E
100
AcDbEntity
  8
OBJECT
100
AcDbCircle
 10
36.76762445496827
 20
14.70062843406758
 30
0.0
 40
0.0625
100
AcDbArc
 50
90.0
 51
180.0
  0
LINE
  5
BA4
330
1E
100
AcDbEntity
  8
OBJECT
100
AcDbLine
 10
38.08512445496826
 20
6.023128434067601
 30
0.0
 11
38.08512445496826
 21
14.76312843406757
 31
0.0
  0
LINE
  5
BA5
330
1E
100
AcDbEntity
  8
OBJECT
100
AcDbLine
 10
38.08512445496826
 20
6.023128434067601
 30
0.0
 11
36.76762445496827
 21
6.023128434067601
 31
0.0
  0
LINE
  5
BA6
330
1E
100
AcDbEntity
  8
OBJECT
100
AcDbLine
 10
36.70512445496827
 20
6.085628434067601
 30
0.0
 11
36.70512445496827
 21
14.70062843406758
 31
0.0
  0
ARC
  5
BA7
330
1E
100
AcDbEntity
  8
OBJECT
100
AcDbCircle
 10
36.76762445496827
 20
6.085628434067601
 30
0.0
 40
0.0625
100
AcDbArc
 50
180.0
 51
270.0
  0
DIMENSION
  5
BA8
330
1E
100
AcDbEntity
  8
DIM
100
AcDbDimension
  2
*D47
 10
14.30207002123219
 20
6.902203600222565
 30
0.0
 11
14.30207002123219
 21
6.503453600222569
 31
0.0
 70
    32
 71
     5
 42
0.7974999999999959
  3
23NSTDI
100
AcDbAlignedDimension
 13
11.4825346117969
 23
6.10470360022257
 33
0.0
 14
11.1107846117969
 24
6.902203600222565
 34
0.0
 50
90.0
100
AcDbRotatedDimension
  0
DIMENSION
  5
BA9
330
1E
100
AcDbEntity
  8
DIM
100
AcDbDimension
  2
*D1
 10
3.791937486515148
 20
13.74220360022257
 30
0.0
 11
3.791937486515145
 21
10.47470360022257
 31
0.0
 70
    32
 71
     5
 42
6.534999999999995
  3
23NSTD
100
AcDbAlignedDimension
 13
8.063784611796908
 23
7.207203600222572
 33
0.0
 14
8.063784611796908
 24
13.74220360022256
 34
0.0
 50
90.0
100
AcDbRotatedDimension
  0
DIMENSION
  5
BAA
330
1E
100
AcDbEntity
  8
DIM
100
AcDbDimension
  2
*D2
 10
13.30271857914459
 20
10.47470360022256
 30
0.0
 11
13.30271857914459
 21
8.412078600222567
 31
0.0
 70
    32
 71
     5
 42
4.125250000000009
  3
23NSTD
100
AcDbAlignedDimension
 13
11.4652846117969
 23
6.34945360022256
 33
0.0
 14
11.4825346117969
 24
10.47470360022257
 34
0.0
 50
90.0
100
AcDbRotatedDimension
  0
DIMENSION
  5
BAB
330
1E
100
AcDbEntity
  8
DIM
100
AcDbDimension
  2
*D3
 10
13.30271857914459
 20
14.59995360022257
 30
0.0
 11
13.30271857914459
 21
12.53732860022257
 31
0.0
 70
    32
 71
     5
 42
4.125250000000008
  3
23NSTD
100
AcDbAlignedDimension
 13
11.4825346117969
 23
10.47470360022257
 33
0.0
 14
11.4652846117969
 24
14.59995360022257
 34
0.0
 50
90.0
100
AcDbRotatedDimension
  0
DIMENSION
  5
BAC
330
1E
100
AcDbEntity
  8
DIM
100
AcDbDimension
  2
*D4
 10
14.30207002123219
 20
14.04720360022255
 30
0.0
 11
14.30207002123219
 21
10.47470360022256
 31
0.0
 70
    32
 71
     5
 42
7.144999999999992
  3
23NSTD
100
AcDbAlignedDimension
 13
11.1107846117969
 23
6.902203600222565
 33
0.0
 14
11.1107846117969
 24
14.04720360022255
 34
0.0
 50
90.0
100
AcDbRotatedDimension
  0
DIMENSION
  5
BAD
330
1E
100
AcDbEntity
  8
DIM
100
AcDbDimension
  2
*D48
 10
8.831284611796908
 20
4.594825547209871
 30
0.0
 11
8.107409611796907
 21
4.594825547209871
 31
0.0
 70
    32
 71
     5
 42
1.44775
  3
23NSTDI
100
AcDbAlignedDimension
 13
7.383534611796907
 23
6.043474259638542
 33
0.0
 14
8.831284611796908
 24
6.043474259638542
 34
0.0
100
AcDbRotatedDimension
  0
DIMENSION
  5
BAE
330
1E
100
AcDbEntity
  8
DIM
100
AcDbDimension
  2
*D49
 10
10.2790346117969
 20
3.881929529942524
 30
0.0
 11
9.555159611796907
 21
3.881929529942524
 31
0.0
 70
    32
 71
     5
 42
1.447749999999999
  3
23NSTDI
100
AcDbAlignedDimension
 13
8.831284611796908
 23
6.043474259638542
 33
0.0
 14
10.2790346117969
 24
6.043474259638542
 34
0.0
100
AcDbRotatedDimension
  0
DIMENSION
  5
BAF
330
1E
100
AcDbEntity
  8
DIM
100
AcDbDimension
  2
*D5
 10
5.961284611796909
 20
18.58828667315349
 30
0.0
 11
4.387065861796909
 21
18.58828667315349
 31
0.0
 70
    32
 71
     5
 42
0.2359999999999998
  3
23NSTD
100
AcDbAlignedDimension
 13
6.197284611796908
 23
14.59995360022257
 33
0.0
 14
5.961284611796909
 24
14.62595360022256
 34
0.0
100
AcDbRotatedDimension
  0
DIMENSION
  5
BB0
330
1E
100
AcDbEntity
  8
DIM
100
AcDbDimension
  2
*D6
 10
5.961284611796909
 20
17.81036697271914
 30
0.0
 11
4.406597111796909
 21
17.81036697271914
 31
0.0
 70
    32
 71
     5
 42
0.5899999999999981
  3
23NSTD
100
AcDbAlignedDimension
 13
6.551284611796907
 23
14.59214110022258
 33
0.0
 14
5.961284611796909
 24
14.76770360022256
 34
0.0
100
AcDbRotatedDimension
  0
DIMENSION
  5
BB1
330
1E
100
AcDbEntity
  8
DIM
100
AcDbDimension
  2
*D7
 10
11.4652846117969
 20
18.58828667315349
 30
0.0
 11
8.831284611796908
 21
18.58828667315349
 31
0.0
 70
    32
 71
     5
 42
5.267999999999998
  3
23NSTD
100
AcDbAlignedDimension
 13
6.197284611796908
 23
14.59995360022257
 33
0.0
 14
11.4652846117969
 24
15.2218952562243
 34
0.0
100
AcDbRotatedDimension
  0
DIMENSION
  5
BB2
330
1E
100
AcDbEntity
  8
DIM
100
AcDbDimension
  2
*D8
 10
11.1112846117969
 20
17.81036697271914
 30
0.0
 11
8.831284611796906
 21
17.81036697271914
 31
0.0
 70
    32
 71
     5
 42
4.559999999999998
  3
23NSTD
100
AcDbAlignedDimension
 13
6.551284611796907
 23
14.59214110022258
 33
0.0
 14
11.1112846117969
 24
14.59214110022258
 34
0.0
100
AcDbRotatedDimension
  0
DIMENSION
  5
BB3
330
1E
100
AcDbEntity
  8
DIM
100
AcDbDimension
  2
*D9
 10
11.7012846117969
 20
19.24207828609733
 30
0.0
 11
8.831284611796908
 21
19.24207828609733
 31
0.0
 70
    32
 71
     5
 42
5.739999999999996
  3
23NSTD
100
AcDbAlignedDimension
 13
5.961284611796909
 23
14.62595360022256
 33
0.0
 14
11.7012846117969
 24
14.62595360022256
 34
0.0
100
AcDbRotatedDimension
  0
DIMENSION
  5
BB4
330
1E
100
AcDbEntity
  8
DIM
100
AcDbDimension
  2
*D10
 10
5.961284611796909
 20
11.86956682882465
 30
0.0
 11
4.426128361796909
 21
11.86956682882465
 31
0.0
 70
    32
 71
     5
 42
0.1749999999999998
  3
23NSTD
100
AcDbAlignedDimension
 13
6.136284611796908
 23
12.54320360022256
 33
0.0
 14
5.961284611796909
 24
11.86956682882465
 34
0.0
100
AcDbRotatedDimension
  0
DIMENSION
  5
BB5
330
1E
100
AcDbEntity
  8
DIM
100
AcDbDimension
  2
*D11
 10
6.136284611796908
 20
11.86956682882465
 30
0.0
 11
8.488779535660214
 21
11.86956682882465
 31
0.0
 70
   160
 71
     5
 42
5.389999999999997
  3
23NSTD
100
AcDbAlignedDimension
 13
11.5262846117969
 23
12.54320360022256
 33
0.0
 14
6.136284611796908
 24
12.54320360022256
 34
0.0
100
AcDbRotatedDimension
  0
DIMENSION
  5
BB6
330
1E
100
AcDbEntity
  8
DIM
100
AcDbDimension
  2
*D12
 10
8.063784611796908
 20
15.56474740383213
 30
0.0
 11
7.012534611796908
 21
15.56474740383213
 31
0.0
 70
    32
  1
     
 71
     5
 42
2.102499999999999
  3
23NSTD
100
AcDbAlignedDimension
 13
5.961284611796909
 23
14.90945360022256
 33
0.0
 14
8.063784611796908
 24
13.74220360022256
 34
0.0
100
AcDbRotatedDimension
  0
DIMENSION
  5
BB7
330
1E
100
AcDbEntity
  8
DIM
100
AcDbDimension
  2
*D50
 10
9.598784611796906
 20
16.29419490408746
 30
0.0
 11
8.831284611796906
 21
16.29419490408746
 31
0.0
 70
    32
 71
     5
 42
1.534999999999998
  3
23NSTDI
100
AcDbAlignedDimension
 13
8.063784611796908
 23
13.74220360022256
 33
0.0
 14
9.598784611796906
 24
14.31513273347959
 34
0.0
100
AcDbRotatedDimension
  0
DIMENSION
  5
BB8
330
1E
100
AcDbEntity
  8
DIM
100
AcDbDimension
  2
*D13
 10
12.38024032490987
 20
8.312453600222568
 30
0.0
 11
12.38024032490987
 21
7.208578600222571
 31
0.0
 70
    32
 71
     5
 42
2.207749999999998
  3
23NSTD
100
AcDbAlignedDimension
 13
11.6242846117969
 23
6.10470360022257
 33
0.0
 14
11.76251395238092
 24
8.312453600222569
 34
0.0
 50
90.0
100
AcDbRotatedDimension
  0
DIMENSION
  5
BB9
330
1E
100
AcDbEntity
  8
DIM
100
AcDbDimension
  2
*D14
 10
12.38024032490988
 20
12.63695360022256
 30
0.0
 11
12.38024032490987
 21
10.85595360022256
 31
0.0
 70
   160
 71
     5
 42
4.324499999999998
  3
23NSTD
100
AcDbAlignedDimension
 13
11.76251395238092
 23
8.312453600222569
 33
0.0
 14
11.76251395238092
 24
12.63695360022256
 34
0.0
 50
90.0
100
AcDbRotatedDimension
  0
DIMENSION
  5
BBA
330
1E
100
AcDbEntity
  8
DIM
100
AcDbDimension
  2
*D15
 10
1.254991031203882
 20
14.84470360022256
 30
0.0
 11
1.254991031203879
 21
10.47470360022256
 31
0.0
 70
    32
 71
     5
 42
8.739999999999994
  3
23NSTD
100
AcDbAlignedDimension
 13
6.03828461179691
 23
6.104703600222566
 33
0.0
 14
6.180034611796907
 24
14.84470360022256
 34
0.0
 50
90.0
100
AcDbRotatedDimension
  0
DIMENSION
  5
BBB
330
1E
100
AcDbEntity
  8
DIM
100
AcDbDimension
  2
*D16
 10
9.152018441802869
 20
6.285703600222568
 30
0.0
 11
9.152018441802868
 21
10.47470360022256
 31
0.0
 70
    32
 71
     5
 42
8.377999999999991
  3
23NSTD
100
AcDbAlignedDimension
 13
8.925034611796908
 23
14.66370360022255
 33
0.0
 14
8.925034611796908
 24
6.285703600222568
 34
0.0
 50
90.0
100
AcDbRotatedDimension
  0
DIMENSION
  5
BBC
330
1E
100
AcDbEntity
  8
DIM
100
AcDbDimension
  2
*D17
 10
9.152018441802869
 20
6.10470360022257
 30
0.0
 11
8.105924691802869
 21
5.204703600222571
 31
0.0
 70
    32
 71
     5
 42
0.1809999999999983
  3
23NSTD
100
AcDbAlignedDimension
 13
8.925034611796908
 23
6.285703600222568
 33
0.0
 14
9.180402388087015
 24
6.10470360022257
 34
0.0
 50
90.0
100
AcDbRotatedDimension
  0
LINE
  5
BBD
330
1E
100
AcDbEntity
  8
OBJECT
100
AcDbLine
 10
18.96870798671766
 20
8.218703600222569
 30
0.0
 11
17.55908298671766
 21
8.218703600222569
 31
0.0
  0
LINE
  5
BBE
330
1E
100
AcDbEntity
  8
OBJECT
100
AcDbLine
 10
18.96870798671765
 20
8.406203600222569
 30
0.0
 11
17.55908298671765
 21
8.406203600222569
 31
0.0
  0
LINE
  5
BBF
330
1E
100
AcDbEntity
  8
OBJECT
100
AcDbLine
 10
18.96870798671765
 20
8.356203600222574
 30
0.0
 11
17.55908298671765
 21
8.356203600222574
 31
0.0
  0
LINE
  5
BC0
330
1E
100
AcDbEntity
  8
OBJECT
100
AcDbLine
 10
18.96870798671766
 20
8.268703600222568
 30
0.0
 11
17.55908298671766
 21
8.268703600222568
 31
0.0
  0
LINE
  5
BC4
330
1E
100
AcDbEntity
  8
OBJECT
100
AcDbLine
 10
18.79170798671765
 20
7.364703600222572
 30
0.0
 11
18.96870798671765
 21
7.364703600222572
 31
0.0
  0
LINE
  5
BC5
330
1E
100
AcDbEntity
  8
OBJECT
100
AcDbLine
 10
17.55908298671766
 20
8.356203600222574
 30
0.0
 11
17.55908298671766
 21
8.406203600222569
 31
0.0
  0
LINE
  5
BC6
330
1E
100
AcDbEntity
  8
OBJECT
100
AcDbLine
 10
17.55908298671766
 20
8.218703600222569
 30
0.0
 11
17.55908298671766
 21
8.268703600222568
 31
0.0
  0
LINE
  5
BC7
102
{ACAD_REACTORS
330
14BF
330
1E5A
102
}
330
1E
100
AcDbEntity
  8
OBJECT
100
AcDbLine
 10
17.50870798671765
 20
14.39473465315618
 30
0.0
 11
17.50870798671765
 21
14.82470360022255
 31
0.0
  0
DIMENSION
  5
BC8
330
1E
100
AcDbEntity
  8
DIM
100
AcDbDimension
  2
*D18
 10
17.11253271007704
 20
8.218703600222569
 30
0.0
 11
16.02737646007704
 21
7.318703600222572
 31
0.0
 70
    32
 71
     5
 42
0.0499999999999989
  3
23NSTD
100
AcDbAlignedDimension
 13
17.55908298671766
 23
8.268703600222568
 33
0.0
 14
17.55908298671766
 24
8.218703600222569
 34
0.0
 50
90.0
100
AcDbRotatedDimension
  0
DIMENSION
  5
BC9
330
1E
100
AcDbEntity
  8
DIM
100
AcDbDimension
  2
*D19
 10
17.44870798671765
 20
9.854692411583828
 30
0.0
 11
15.97214548671765
 21
9.854692411583828
 31
0.0
 70
    32
 71
     5
 42
0.1103750000000083
  3
23NSTD
100
AcDbAlignedDimension
 13
17.55908298671766
 23
8.406203600222569
 33
0.0
 14
17.44870798671765
 24
9.854692411583828
 34
0.0
100
AcDbRotatedDimension
  0
LINE
  5
BCA
330
1E
100
AcDbEntity
  8
OBJECT
100
AcDbLine
 10
17.44870798671765
 20
10.72470360022257
 30
0.0
 11
18.96870798671763
 21
10.72470360022257
 31
0.0
  0
LINE
  5
BCB
330
1E
100
AcDbEntity
  8
OBJECT
100
AcDbLine
 10
17.44870798671765
 20
10.22470360022256
 30
0.0
 11
18.96870798671763
 21
10.22470360022256
 31
0.0
  0
DIMENSION
  5
BCC
330
1E
100
AcDbEntity
  8
DIM
100
AcDbDimension
  2
*D20
 10
18.78320798671766
 20
5.068845252547237
 30
0.0
 11
17.20898923671766
 21
5.068845252547237
 31
0.0
 70
    32
  1
0.297
 71
     5
 42
0.3054999999999914
  3
23NSTD
100
AcDbAlignedDimension
 13
19.08870798671765
 23
6.167203600222566
 33
0.0
 14
18.78320798671766
 24
6.735953600222567
 34
0.0
100
AcDbRotatedDimension
  0
LINE
  5
BCD
102
{ACAD_REACTORS
330
1E5A
102
}
330
1E
100
AcDbEntity
  8
OBJECT
100
AcDbLine
 10
17.54870798671764
 20
14.82470360022255
 30
0.0
 11
17.54870798671764
 21
14.84470360022256
 31
0.0
  0
SOLID
  5
BCE
330
1E
100
AcDbEntity
  8
BEND
100
AcDbTrace
 10
29.18975159272346
 20
15.07705636462977
 30
0.0
 11
29.18975159272346
 21
15.21205636462979
 31
0.0
 12
28.78475159272346
 22
15.14455636462979
 32
0.0
 13
28.78475159272346
 23
15.14455636462979
 33
0.0
  0
SOLID
  5
BCF
330
1E
100
AcDbEntity
  8
BEND
100
AcDbTrace
 10
30.63475649566625
 20
5.530420983514986
 30
0.0
 11
30.63475649566625
 21
5.665420983514984
 31
0.0
 12
30.22975649566625
 22
5.597920983514985
 32
0.0
 13
30.22975649566625
 23
5.597920983514985
 33
0.0
  0
TEXT
  5
BD0
330
1E
100
AcDbEntity
  8
BEND
100
AcDbText
 10
29.67616834406318
 20
15.03989646320718
 30
0.0
 40
0.312
  1
B
 41
0.8
  7
SECTION
100
AcDbText
  0
TEXT
  5
BD1
330
1E
100
AcDbEntity
  8
BEND
100
AcDbText
 10
31.07437663644927
 20
5.437561132903752
 30
0.0
 40
0.312
  1
B
 41
0.8
  7
SECTION
100
AcDbText
  0
DIMENSION
  5
BD2
330
1E
100
AcDbEntity
  8
DIM
100
AcDbDimension
  2
*D21
 10
25.43674380694247
 20
15.73749005007241
 30
0.0
 11
23.86252505694247
 21
15.73749005007241
 31
0.0
 70
    32
 71
     5
 42
0.2362499999999983
  3
23NSTD
100
AcDbAlignedDimension
 13
25.67299380694247
 23
14.59995360022255
 33
0.0
 14
25.43674380694247
 24
14.62595360022256
 34
0.0
100
AcDbRotatedDimension
  0
DIMENSION
  5
BD3
330
1E
100
AcDbEntity
  8
DIM
100
AcDbDimension
  2
*D22
 10
25.67299380694247
 20
15.73749005007241
 30
0.0
 11
28.30674380694247
 21
15.73749005007241
 31
0.0
 70
    32
 71
     5
 42
5.267500000000001
  3
23NSTD
100
AcDbAlignedDimension
 13
30.94049380694247
 23
14.59995360022255
 33
0.0
 14
25.67299380694247
 24
14.59995360022255
 34
0.0
100
AcDbRotatedDimension
  0
DIMENSION
  5
BD4
330
1E
100
AcDbEntity
  8
DIM
100
AcDbDimension
  2
*D23
 10
24.59080996469201
 20
6.104703600222566
 30
0.0
 11
23.46659121469201
 21
5.20470360022257
 31
0.0
 70
    32
 71
     5
 42
0.2447499999999971
  3
23NSTD
100
AcDbAlignedDimension
 13
25.65599380694247
 23
6.349453600222563
 33
0.0
 14
25.65549380694247
 24
6.104703600222566
 34
0.0
 50
90.0
100
AcDbRotatedDimension
  0
DIMENSION
  5
BD5
330
1E
100
AcDbEntity
  8
DIM
100
AcDbDimension
  2
*D24
 10
24.59080996469201
 20
6.349453600222563
 30
0.0
 11
24.59080996469201
 21
8.412078600222571
 31
0.0
 70
    32
 71
     5
 42
4.125250000000006
  3
23NSTD
100
AcDbAlignedDimension
 13
25.65599380694247
 23
10.47470360022257
 33
0.0
 14
25.65599380694247
 24
6.349453600222563
 34
0.0
 50
90.0
100
AcDbRotatedDimension
  0
DIMENSION
  5
BD6
330
1E
100
AcDbEntity
  8
DIM
100
AcDbDimension
  2
*D25
 10
24.59080996469201
 20
10.47470360022257
 30
0.0
 11
24.59080996469201
 21
12.53732860022256
 31
0.0
 70
    32
 71
     5
 42
4.125249999999988
  3
23NSTD
100
AcDbAlignedDimension
 13
25.67299380694247
 23
14.59995360022255
 33
0.0
 14
25.65599380694247
 24
10.47470360022257
 34
0.0
 50
90.0
100
AcDbRotatedDimension
  0
DIMENSION
  5
BD7
330
1E
100
AcDbEntity
  8
DIM
100
AcDbDimension
  2
*D51
 10
39.66512445496825
 20
16.79771292248834
 30
0.0
 11
38.18512445496826
 21
16.79771292248834
 31
0.0
 70
    32
  1
<>
 71
     5
 42
2.959999999999986
  3
23NSTDI
100
AcDbAlignedDimension
 13
36.70512445496827
 23
14.70062843406758
 33
0.0
 14
39.66512445496825
 24
14.70062843406759
 34
0.0
100
AcDbRotatedDimension
  0
DIMENSION
  5
BD8
330
1E
100
AcDbEntity
  8
DIM
100
AcDbDimension
  2
*D26
 10
23.60565049574648
 20
14.84470360022256
 30
0.0
 11
23.60565049574648
 21
10.47470360022256
 31
0.0
 70
    32
 71
     5
 42
8.739999999999994
  3
23NSTD
100
AcDbAlignedDimension
 13
25.65549380694247
 23
6.104703600222566
 33
0.0
 14
25.65549380694247
 24
14.84470360022256
 34
0.0
 50
90.0
100
AcDbRotatedDimension
  0
DIMENSION
  5
BD9
330
1E
100
AcDbEntity
  8
DIM
100
AcDbDimension
  2
*D27
 10
31.17674380694247
 20
16.38357812386277
 30
0.0
 11
28.30674380694247
 21
16.38357812386277
 31
0.0
 70
    32
 71
     5
 42
5.739999999999998
  3
23NSTD
100
AcDbAlignedDimension
 13
25.43674380694247
 23
14.62595360022256
 33
0.0
 14
31.17674380694247
 24
14.62595360022256
 34
0.0
100
AcDbRotatedDimension
  0
TEXT
  5
BDA
330
1E
100
AcDbEntity
  8
TEXT
100
AcDbText
 10
17.34633492276223
 20
4.164988624824619
 30
0.0
 40
0.312499875
  1
%%USECTION "A-A"
 41
0.8
  7
SECTION
100
AcDbText
  0
SOLID
  5
BDB
330
1E
100
AcDbEntity
  8
BEND
100
AcDbTrace
 10
6.276197831511794
 20
5.711774211590352
 30
0.0
 11
6.276197831511794
 21
5.84677421159035
 31
0.0
 12
5.871197831511793
 22
5.779274211590347
 32
0.0
 13
5.871197831511793
 23
5.779274211590347
 33
0.0
  0
SOLID
  5
BDC
330
1E
100
AcDbEntity
  8
BEND
100
AcDbTrace
 10
10.9823846099701
 20
15.1543952562243
 30
0.0
 11
10.9823846099701
 21
15.2893952562243
 31
0.0
 12
10.5773846099701
 22
15.2218952562243
 32
0.0
 13
10.5773846099701
 23
15.2218952562243
 33
0.0
  0
TEXT
  5
BDD
330
1E
100
AcDbEntity
  8
BEND
100
AcDbText
 10
11.22832953527328
 20
15.35733883494443
 30
0.0
 40
0.3125
  1
A
 41
0.8
  7
SECTION
100
AcDbText
  0
TEXT
  5
BDE
330
1E
100
AcDbEntity
  8
BEND
100
AcDbText
 10
6.714817073800318
 20
5.62153510904228
 30
0.0
 40
0.3125
  1
A
 41
0.8
  7
SECTION
100
AcDbText
  0
LINE
  5
BDF
102
{ACAD_REACTORS
330
1E5A
102
}
330
1E
100
AcDbEntity
  8
OBJECT
100
AcDbLine
 10
18.79170805276148
 20
13.90095360022256
 30
0.0
 11
18.96870798671765
 21
13.90095360022256
 31
0.0
  0
LINE
  5
BE1
102
{ACAD_REACTORS
330
1E5A
102
}
330
1E
100
AcDbEntity
  8
OBJECT
100
AcDbLine
 10
18.79170805276148
 20
13.58470360022256
 30
0.0
 11
18.96870798671765
 21
13.58470360022256
 31
0.0
  0
LINE
  5
BE2
102
{ACAD_REACTORS
330
1E5A
102
}
330
1E
100
AcDbEntity
  8
OBJECT
100
AcDbLine
 10
18.79170805276148
 20
13.58470360022256
 30
0.0
 11
18.79170805276148
 21
13.90095360022256
 31
0.0
  0
LINE
  5
BE3
102
{ACAD_REACTORS
330
1E5A
102
}
330
1E
100
AcDbEntity
  8
OBJECT
100
AcDbLine
 10
18.79170805276148
 20
13.78720360022257
 30
0.0
 11
18.98170805276148
 21
13.78720360022257
 31
0.0
  0
LINE
  5
BE4
102
{ACAD_REACTORS
330
1E5A
102
}
330
1E
100
AcDbEntity
  8
OBJECT
100
AcDbLine
 10
18.79170805276148
 20
13.69720360022256
 30
0.0
 11
18.98170805276148
 21
13.69720360022256
 31
0.0
  0
LINE
  5
BE5
102
{ACAD_REACTORS
330
1E5A
102
}
330
1E
100
AcDbEntity
  8
OBJECT
100
AcDbLine
 10
18.98170805276148
 20
13.69720360022256
 30
0.0
 11
18.98170805276148
 21
13.78720360022257
 31
0.0
  0
LINE
  5
BE6
102
{ACAD_REACTORS
330
1E5A
102
}
330
1E
100
AcDbEntity
  8
OBJECT
100
AcDbLine
 10
17.50870798671765
 20
6.174703600222564
 30
0.0
 11
19.02620798671765
 21
6.174703600222564
 31
0.0
  0
LINE
  5
BE7
330
1E
100
AcDbEntity
  8
OBJECT
100
AcDbLine
 10
18.79170798671765
 20
6.964703600222565
 30
0.0
 11
18.97920798671765
 21
6.964703600222558
 31
0.0
  0
LINE
  5
BE8
102
{ACAD_REACTORS
330
1E5A
102
}
330
1E
100
AcDbEntity
  8
OBJECT
100
AcDbLine
 10
18.79170798671765
 20
6.995953600222565
 30
0.0
 11
18.97920798671765
 21
6.995953600222565
 31
0.0
  0
LINE
  5
BE9
330
1E
100
AcDbEntity
  8
OBJECT
100
AcDbLine
 10
18.79170798671765
 20
6.839703600222565
 30
0.0
 11
18.97920798671765
 21
6.839703600222565
 31
0.0
  0
LINE
  5
BEA
102
{ACAD_REACTORS
330
1E5A
102
}
330
1E
100
AcDbEntity
  8
OBJECT
100
AcDbLine
 10
18.79170798671765
 20
6.808453600222565
 30
0.0
 11
18.97920798671765
 21
6.808453600222565
 31
0.0
  0
LINE
  5
BEB
330
1E
100
AcDbEntity
  8
OBJECT
100
AcDbLine
 10
18.97920798671765
 20
6.808453600222565
 30
0.0
 11
18.97920798671765
 21
6.995953600222565
 31
0.0
  0
LINE
  5
BEC
102
{ACAD_REACTORS
330
1E5A
102
}
330
1E
100
AcDbEntity
  8
OBJECT
100
AcDbLine
 10
17.44870798671765
 20
6.595828600222564
 30
0.0
 11
18.96870798671765
 21
6.595828600222564
 31
0.0
  0
LINE
  5
BED
102
{ACAD_REACTORS
330
1E5A
102
}
330
1E
100
AcDbEntity
  8
OBJECT
100
AcDbLine
 10
17.50870798671765
 20
6.537828600222571
 30
0.0
 11
19.02620798671765
 21
6.537828600222571
 31
0.0
  0
LINE
  5
BEE
102
{ACAD_REACTORS
330
1E5A
102
}
330
1E
100
AcDbEntity
  8
OBJECT
100
AcDbLine
 10
17.44870798671765
 20
6.555828600222556
 30
0.0
 11
17.50870798671765
 21
6.555828600222556
 31
0.0
  0
LINE
  5
BEF
102
{ACAD_REACTORS
330
1E5A
102
}
330
1E
100
AcDbEntity
  8
OBJECT
100
AcDbLine
 10
19.02620798671765
 20
6.174703600222564
 30
0.0
 11
19.02620798671765
 21
6.537828600222571
 31
0.0
  0
LINE
  5
BF0
102
{ACAD_REACTORS
330
1E5A
102
}
330
1E
100
AcDbEntity
  8
OBJECT
100
AcDbLine
 10
19.02620798671765
 20
6.417203600222567
 30
0.0
 11
19.08870798671765
 21
6.417203600222567
 31
0.0
  0
LINE
  5
BF1
102
{ACAD_REACTORS
330
1E5A
102
}
330
1E
100
AcDbEntity
  8
OBJECT
100
AcDbLine
 10
19.02620798671765
 20
6.245328600222563
 30
0.0
 11
19.08870798671765
 21
6.245328600222563
 31
0.0
  0
LINE
  5
BF2
102
{ACAD_REACTORS
330
1E5A
102
}
330
1E
100
AcDbEntity
  8
OBJECT
100
AcDbLine
 10
18.97920798671765
 20
6.808453600222565
 30
0.0
 11
18.97920798671765
 21
6.995953600222565
 31
0.0
  0
TEXT
  5
BF4
330
1E
100
AcDbEntity
  8
TEXT
100
AcDbText
 10
10.28762790200232
 20
2.268118961489221
 30
0.0
 40
0.4499998200000002
  1
%%UBODY
 41
0.75
 72
     1
 11
10.91200265225232
 21
2.268118961489221
 31
0.0
100
AcDbText
  0
TEXT
  5
BF5
330
1E
100
AcDbEntity
  8
TEXT
100
AcDbText
 10
29.24578438697665
 20
3.847890914506294
 30
0.0
 40
0.4499998200000002
  1
%%UCOVER
 41
0.75
 72
     1
 11
30.09515904722665
 21
3.847890914506294
 31
0.0
100
AcDbText
  0
DIMENSION
  5
BF6
330
1E
100
AcDbEntity
  8
DIM
100
AcDbDimension
  2
*D28
 10
36.70512445496827
 20
16.09521292248833
 30
0.0
 11
34.66215570496827
 21
16.09521292248833
 31
0.0
 70
    32
  1
<> REF.
 71
     5
 42
1.379999999999995
  3
23NSTD
100
AcDbAlignedDimension
 13
38.08512445496826
 23
14.76312843406757
 33
0.0
 14
36.70512445496827
 24
14.70062843406758
 34
0.0
100
AcDbRotatedDimension
  0
DIMENSION
  5
BF7
330
1E
100
AcDbEntity
  8
DIM
100
AcDbDimension
  2
*D29
 10
19.08870798671765
 20
11.65711913122882
 30
0.0
 11
20.60433298671765
 21
11.65711913122882
 31
0.0
 70
    32
  1
<>
 71
     5
 42
0.1200000000000116
  3
23NSTD
100
AcDbAlignedDimension
 13
18.96870798671764
 23
11.65711913122882
 33
0.0
 14
19.08870798671765
 24
11.65711913122882
 34
0.0
100
AcDbRotatedDimension
  0
DIMENSION
  5
BF8
330
1E
100
AcDbEntity
  8
DIM
100
AcDbDimension
  2
*D52
 10
2.501519338849252
 20
6.595828600222564
 30
0.0
 11
2.501519338849251
 21
6.350266100222566
 31
0.0
 70
    32
  1
<>
 71
     5
 42
0.4911249999999967
  3
23NSTDI
100
AcDbAlignedDimension
 13
6.180034611796907
 23
6.104703600222566
 33
0.0
 14
6.179284611796907
 24
6.595828600222563
 34
0.0
 50
90.0
100
AcDbRotatedDimension
  0
DIMENSION
  5
BF9
330
1E
100
AcDbEntity
  8
DIM
100
AcDbDimension
  2
*D30
 10
6.079284611796907
 20
13.0558384832073
 30
0.0
 11
8.083190861796907
 21
13.0558384832073
 31
0.0
 70
    32
  1
<> TYP.
 71
     5
 42
0.1179999999999985
  3
23NSTD
100
AcDbAlignedDimension
 13
5.961284611796909
 23
13.0558384832073
 33
0.0
 14
6.079284611796907
 24
13.0558384832073
 34
0.0
100
AcDbRotatedDimension
  0
DIMENSION
  5
BFA
330
1E
100
AcDbEntity
  8
DIM
100
AcDbDimension
  2
*D31
 10
6.447284611796908
 20
9.690153191889478
 30
0.0
 11
8.534413568584014
 21
9.690153191889478
 31
0.0
 70
   160
  1
<>
 71
     5
 42
4.767999999999987
  3
23NSTD
100
AcDbAlignedDimension
 13
11.21528461179689
 23
10.47470360022257
 33
0.0
 14
6.447284611796908
 24
10.47470360022257
 34
0.0
100
AcDbRotatedDimension
  0
DIMENSION
  5
BFB
330
1E
100
AcDbEntity
  8
DIM
100
AcDbDimension
  2
*D32
 10
2.501519338849252
 20
14.35357860022256
 30
0.0
 11
2.50151933884925
 21
10.47470360022256
 31
0.0
 70
    32
 71
     5
 42
7.757749999999997
  3
23NSTD
100
AcDbAlignedDimension
 13
6.037534611796907
 23
6.595828600222563
 33
0.0
 14
6.179284611796907
 24
14.35357860022256
 34
0.0
 50
90.0
100
AcDbRotatedDimension
  0
DIMENSION
  5
BFC
330
1E
100
AcDbEntity
  8
DIM
100
AcDbDimension
  2
*D33
 10
8.831284611796908
 20
3.881929529942524
 30
0.0
 11
7.396284611796909
 21
3.881929529942524
 31
0.0
 70
    32
 71
     5
 42
2.869999999999999
  3
23NSTD
100
AcDbAlignedDimension
 13
5.961284611796909
 23
6.323453600222566
 33
0.0
 14
8.831284611796908
 24
6.043474259638542
 34
0.0
100
AcDbRotatedDimension
  0
DIMENSION
  5
BFD
330
1E
100
AcDbEntity
  8
DIM
100
AcDbDimension
  2
*D34
 10
5.12717029648292
 20
6.104703600222567
 30
0.0
 11
4.081076546482918
 21
5.204703600222567
 31
0.0
 70
   160
 71
     5
 42
1.102500000000006
  3
23NSTD
100
AcDbAlignedDimension
 13
8.063784611796908
 23
7.207203600222572
 33
0.0
 14
6.180034611796907
 24
6.104703600222566
 34
0.0
 50
90.0
100
AcDbRotatedDimension
  0
DIMENSION
  5
BFE
330
1E
100
AcDbEntity
  8
DIM
100
AcDbDimension
  2
*D35
 10
5.96128461179691
 20
17.05910986788841
 30
0.0
 11
4.38706586179691
 21
17.05910986788841
 31
0.0
 70
    32
  1
<>
 71
     5
 42
0.8539999999999965
  3
23NSTD
100
AcDbAlignedDimension
 13
6.815284611796907
 23
14.59430440667417
 33
0.0
 14
5.96128461179691
 24
15.05120360022256
 34
0.0
100
AcDbRotatedDimension
  0
DIMENSION
  5
BFF
330
1E
100
AcDbEntity
  8
DIM
100
AcDbDimension
  2
*D36
 10
6.815284611796907
 20
17.05910986788841
 30
0.0
 11
8.831284611796906
 21
17.05910986788841
 31
0.0
 70
    32
 71
     5
 42
4.031999999999999
  3
23NSTD
100
AcDbAlignedDimension
 13
10.8472846117969
 23
14.59430440667417
 33
0.0
 14
6.815284611796907
 24
14.59430440667417
 34
0.0
100
AcDbRotatedDimension
  0
TEXT
  5
C00
330
1E
100
AcDbEntity
  8
DIM
100
AcDbText
 10
6.918618615757679
 20
15.40690764187959
 30
0.0
 40
0.3125
  1
2.107
 41
0.75
 72
     2
 11
7.738931115757679
 21
15.56315764187959
 31
0.0
100
AcDbText
 73
     2
  0
LINE
  5
C01
330
1E
100
AcDbEntity
  8
OBJECT
100
AcDbLine
 10
18.96870798671764
 20
12.73070360022257
 30
0.0
 11
17.55908298671766
 21
12.73070360022257
 31
0.0
  0
LINE
  5
C02
330
1E
100
AcDbEntity
  8
OBJECT
100
AcDbLine
 10
18.96870798671763
 20
12.54320360022256
 30
0.0
 11
17.55908298671765
 21
12.54320360022256
 31
0.0
  0
LINE
  5
C03
330
1E
100
AcDbEntity
  8
OBJECT
100
AcDbLine
 10
18.96870798671763
 20
12.59320360022257
 30
0.0
 11
17.55908298671765
 21
12.59320360022257
 31
0.0
  0
LINE
  5
C04
330
1E
100
AcDbEntity
  8
OBJECT
100
AcDbLine
 10
18.96870798671764
 20
12.68070360022257
 30
0.0
 11
17.55908298671766
 21
12.68070360022257
 31
0.0
  0
LINE
  5
C05
330
1E
100
AcDbEntity
  8
OBJECT
100
AcDbLine
 10
17.55908298671766
 20
12.59320360022257
 30
0.0
 11
17.55908298671766
 21
12.54320360022256
 31
0.0
  0
LINE
  5
C06
330
1E
100
AcDbEntity
  8
OBJECT
100
AcDbLine
 10
17.55908298671766
 20
12.73070360022257
 30
0.0
 11
17.55908298671766
 21
12.68070360022257
 31
0.0
  0
ARC
  5
C07
330
1E
100
AcDbEntity
  8
OBJECT
100
AcDbCircle
 10
30.93149380694247
 20
14.59995360022255
 30
0.0
 40
0.2276878714098652
100
AcDbArc
 50
115.9393750589924
 51
214.3203974843635
  0
ARC
  5
C08
330
1E
100
AcDbEntity
  8
OBJECT
100
AcDbCircle
 10
25.68199380694247
 20
14.59995360022255
 30
0.0
 40
0.2276878714098652
100
AcDbArc
 50
325.6796025156363
 51
64.06062494100756
  0
ARC
  5
C09
330
1E
100
AcDbEntity
  8
OBJECT
100
AcDbCircle
 10
11.4652846117969
 20
14.59995360022257
 30
0.0
 40
0.2298944603066318
100
AcDbArc
 50
130.5242160279349
 51
235.0245500559581
  0
ARC
  5
C0A
330
1E
100
AcDbEntity
  8
OBJECT
100
AcDbCircle
 10
6.197284611796909
 20
14.59995360022257
 30
0.0
 40
0.2298944603066318
100
AcDbArc
 50
304.9754499440418
 51
49.47578397208911
  0
LWPOLYLINE
  5
C0B
330
1E
100
AcDbEntity
  8
BEND
100
AcDbPolyline
 90
        5
 70
     0
 43
0.0
 10
30.94041380694247
 20
5.597920983514984
 10
30.94049380694247
 20
12.47781743741454
 10
29.51248890399968
 20
12.47781743741454
 10
29.51248890399968
 20
15.14455636462977
 10
28.78475159272346
 20
15.14455636462979
  0
DIMENSION
  5
C12
330
1E
100
AcDbEntity
  8
DIM
100
AcDbDimension
  2
*D37
 10
13.30271857914459
 20
14.84470360022255
 30
0.0
 11
14.42693732914459
 21
15.74470360022256
 31
0.0
 70
    32
 71
     5
 42
0.244749999999982
  3
23NSTD
100
AcDbAlignedDimension
 13
11.4652846117969
 23
14.59995360022257
 33
0.0
 14
11.4825346117969
 24
14.84470360022256
 34
0.0
 50
90.0
100
AcDbRotatedDimension
  0
DIMENSION
  5
C13
330
1E
100
AcDbEntity
  8
DIM
100
AcDbDimension
  2
*D38
 10
28.21281508989063
 20
6.10470360022257
 30
0.0
 11
26.63937758989063
 21
5.204703600222574
 31
0.0
 70
    32
  1
<> TYP.
 71
     5
 42
0.1800000000000006
  3
23NSTD
100
AcDbAlignedDimension
 13
28.2691576580752
 23
6.28470360022257
 33
0.0
 14
28.2691576580752
 24
6.10470360022257
 34
0.0
 50
90.0
100
AcDbRotatedDimension
  0
DIMENSION
  5
C14
330
1E
100
AcDbEntity
  8
DIM
100
AcDbDimension
  2
*D39
 10
15.28585763424765
 20
8.356203600222574
 30
0.0
 11
16.39054513424765
 21
9.256203600222576
 31
0.0
 70
    32
 71
     5
 42
0.0875000000000057
  3
23NSTD
100
AcDbAlignedDimension
 13
17.55908298671766
 23
8.268703600222568
 33
0.0
 14
17.55908298671766
 24
8.356203600222574
 34
0.0
 50
90.0
100
AcDbRotatedDimension
  0
CIRCLE
  5
C31
330
1E
100
AcDbEntity
  8
OBJECT
100
AcDbCircle
 10
8.063784611796908
 20
7.207203600222573
 30
0.0
 40
0.045
  0
CIRCLE
  5
C32
330
1E
100
AcDbEntity
  8
OBJECT
100
AcDbCircle
 10
9.598784611796908
 20
7.207203600222573
 30
0.0
 40
0.045
  0
CIRCLE
  5
C33
330
1E
100
AcDbEntity
  8
OBJECT
100
AcDbCircle
 10
8.063784611796908
 20
13.74220360022256
 30
0.0
 40
0.045
  0
CIRCLE
  5
C34
330
1E
100
AcDbEntity
  8
OBJECT
100
AcDbCircle
 10
9.598784611796908
 20
13.74220360022256
 30
0.0
 40
0.045
  0
DIMENSION
  5
C35
330
1E
100
AcDbEntity
  8
DIM
100
AcDbDimension
  2
*D40
 10
19.46188667954092
 20
6.417203600222566
 30
0.0
 11
21.01579292954092
 21
7.31720360022257
 31
0.0
 70
    32
  1
<> DIA.
 71
     5
 42
0.1718750000000035
  3
23NSTD
100
AcDbAlignedDimension
 13
19.08870798671765
 23
6.245328600222562
 33
0.0
 14
19.08870798671765
 24
6.417203600222566
 34
0.0
 50
90.0
100
AcDbRotatedDimension
  0
LINE
  5
C36
102
{ACAD_REACTORS
330
1E5A
102
}
330
1E
100
AcDbEntity
  8
OBJECT
100
AcDbLine
 10
18.96870798671765
 20
6.595828600222564
 30
0.0
 11
18.96870798671765
 21
6.669288574233664
 31
0.0
  0
LINE
  5
C37
102
{ACAD_REACTORS
330
1E5A
102
}
330
1E
100
AcDbEntity
  8
OBJECT
100
AcDbLine
 10
18.96870798671765
 20
13.90095360022256
 30
0.0
 11
18.96870798671765
 21
14.35357860022256
 31
0.0
  0
LINE
  5
C38
102
{ACAD_REACTORS
330
1E5A
102
}
330
1E
100
AcDbEntity
  8
OBJECT
100
AcDbLine
 10
18.96870798671765
 20
7.135118599592128
 30
0.0
 11
18.96870798671765
 21
13.58470360022256
 31
0.0
  0
LWPOLYLINE
  5
C39
330
1E
100
AcDbEntity
  8
BEND
100
AcDbPolyline
 90
       10
 70
     0
 43
0.0
 10
6.276197831511797
 20
5.779274211590347
 10
6.551784611796907
 20
5.779274211590347
 10
6.551784611796907
 20
7.89431728769529
 10
7.907848704578857
 20
7.89431728769529
 10
7.907848704578857
 20
11.2034316365034
 10
9.598784611796906
 20
11.2034316365034
 10
9.598784611796906
 20
14.31513273347959
 10
11.4652846117969
 20
14.31513273347959
 10
11.4652846117969
 20
15.2218952562243
 10
10.9823846099701
 20
15.2218952562243
  0
DIMENSION
  5
C45
330
1E
100
AcDbEntity
  8
DIM
100
AcDbDimension
  2
*D41
 10
20.34747920192955
 20
14.75745360022257
 30
0.0
 11
21.90138545192955
 21
15.65745360022258
 31
0.0
 70
   160
  1
0.313 DIA.
 71
     5
 42
0.3149999999999995
  3
23NSTD
100
AcDbAlignedDimension
 13
19.08870798671764
 23
14.44245360022257
 33
0.0
 14
19.08870798671764
 24
14.75745360022258
 34
0.0
 50
90.0
100
AcDbRotatedDimension
  0
DIMENSION
  5
C46
330
1E
100
AcDbEntity
  8
DIM
100
AcDbDimension
  2
*D53
 10
17.44870798671765
 20
16.24445808183281
 30
0.0
 11
18.26870798671765
 21
16.24445808183281
 31
0.0
 70
    32
 71
     5
 42
1.639999999999997
  3
23NSTDI
100
AcDbAlignedDimension
 13
19.08870798671765
 23
14.78220360022256
 33
0.0
 14
17.44870798671765
 24
14.75420360022254
 34
0.0
100
AcDbRotatedDimension
  0
DIMENSION
  5
C47
330
1E
100
AcDbEntity
  8
DIM
100
AcDbDimension
  2
*D54
 10
19.08870798671765
 20
15.47011469608186
 30
0.0
 11
18.49683298671765
 21
15.47011469608186
 31
0.0
 70
    32
 71
     5
 42
1.183749999999999
  3
23NSTDI
100
AcDbAlignedDimension
 13
17.90495798671765
 23
14.75370360022257
 33
0.0
 14
19.08870798671765
 24
14.78220360022256
 34
0.0
 50
180.0
100
AcDbRotatedDimension
  0
LINE
  5
C48
102
{ACAD_REACTORS
330
1E5A
102
}
330
1E
100
AcDbEntity
  8
OBJECT
100
AcDbLine
 10
17.90495798671765
 20
14.75745360022258
 30
0.0
 11
19.08870798671764
 21
14.75745360022258
 31
0.0
  0
LINE
  5
C49
102
{ACAD_REACTORS
330
1E5A
102
}
330
1E
100
AcDbEntity
  8
OBJECT
100
AcDbLine
 10
17.44870798671765
 20
14.35357860022256
 30
0.0
 11
18.96870798671765
 21
14.35357860022256
 31
0.0
  0
LINE
  5
C4A
102
{ACAD_REACTORS
330
1E5A
102
}
330
1E
100
AcDbEntity
  8
OBJECT
100
AcDbLine
 10
17.90495798671765
 20
14.44245360022257
 30
0.0
 11
19.08870798671764
 21
14.44245360022257
 31
0.0
  0
LINE
  5
C4B
102
{ACAD_REACTORS
330
14BF
102
}
330
1E
100
AcDbEntity
  8
OBJECT
100
AcDbLine
 10
17.50870798671764
 20
14.66245360022258
 30
0.0
 11
17.84070255419145
 21
14.66245360022258
 31
0.0
  0
LINE
  5
C4C
102
{ACAD_REACTORS
330
14BF
330
1E5A
102
}
330
1E
100
AcDbEntity
  8
OBJECT
100
AcDbLine
 10
17.50870798671764
 20
14.72495360022257
 30
0.0
 11
17.90495798671765
 21
14.72495360022257
 31
0.0
  0
LINE
  5
C4D
102
{ACAD_REACTORS
330
14BF
102
}
330
1E
100
AcDbEntity
  8
OBJECT
100
AcDbLine
 10
17.50870798671764
 20
14.53745360022257
 30
0.0
 11
17.84070255419145
 21
14.53745360022257
 31
0.0
  0
LINE
  5
C4E
102
{ACAD_REACTORS
330
14BF
330
1E5A
102
}
330
1E
100
AcDbEntity
  8
OBJECT
100
AcDbLine
 10
17.50870798671764
 20
14.47495360022258
 30
0.0
 11
17.90495798671765
 21
14.47495360022258
 31
0.0
  0
LINE
  5
C4F
102
{ACAD_REACTORS
330
1E5A
102
}
330
1E
100
AcDbEntity
  8
OBJECT
100
AcDbLine
 10
17.90495798671765
 20
14.44245360022257
 30
0.0
 11
17.90495798671765
 21
14.75745360022258
 31
0.0
  0
LINE
  5
C50
102
{ACAD_REACTORS
330
14BF
102
}
330
1E
100
AcDbEntity
  8
OBJECT
100
AcDbLine
 10
17.84070255419145
 20
14.47495360022258
 30
0.0
 11
17.84070255419145
 21
14.72495360022257
 31
0.0
  0
LINE
  5
C51
102
{ACAD_REACTORS
330
1E5A
102
}
330
1E
100
AcDbEntity
  8
OBJECT
100
AcDbLine
 10
17.44870798671765
 20
14.39473465315618
 30
0.0
 11
17.50870798671765
 21
14.39473465315618
 31
0.0
  0
ARC
  5
C54
330
1E
100
AcDbEntity
  8
OBJECT
100
AcDbCircle
 10
6.565456692352292
 20
6.345828600222567
 30
0.0
 40
0.2499999999999982
100
AcDbArc
 50
2.12597640282726
 51
90.0
  0
ARC
  5
C55
330
1E
100
AcDbEntity
  8
OBJECT
100
AcDbCircle
 10
6.179284611796909
 20
6.695828600222572
 30
0.0
 40
0.1
100
AcDbArc
 50
180.0
 51
270.0
  0
ARC
  5
C56
330
1E
100
AcDbEntity
  8
OBJECT
100
AcDbCircle
 10
6.179284611796909
 20
6.695828600222572
 30
0.0
 40
0.14
100
AcDbArc
 50
180.0
 51
270.0
  0
ARC
  5
C57
330
1E
100
AcDbEntity
  8
OBJECT
100
AcDbCircle
 10
6.197284611796909
 20
6.34945360022256
 30
0.0
 40
0.2298944603066318
100
AcDbArc
 50
310.5242160279108
 51
55.02455005595809
  0
LINE
  5
C58
330
1E
100
AcDbEntity
  8
OBJECT
100
AcDbLine
 10
6.179284611796909
 20
6.595828600222564
 30
0.0
 11
6.565456692352292
 21
6.595828600222564
 31
0.0
  0
LINE
  5
C59
330
1E
100
AcDbEntity
  8
OBJECT
100
AcDbLine
 10
6.329065954386351
 20
6.537828600222571
 30
0.0
 11
6.577456692352292
 21
6.537828600222571
 31
0.0
  0
CIRCLE
  5
C5A
330
1E
100
AcDbEntity
  8
OBJECT
100
AcDbCircle
 10
6.197284611796909
 20
6.34945360022256
 30
0.0
 40
0.1640625
  0
LINE
  5
C5B
330
1E
100
AcDbEntity
  8
OBJECT
100
AcDbLine
 10
6.179284611796909
 20
6.55582860022257
 30
0.0
 11
6.565456692352292
 21
6.55582860022257
 31
0.0
  0
ARC
  5
C5C
330
1E
100
AcDbEntity
  8
OBJECT
100
AcDbCircle
 10
6.180034611796905
 20
6.32345360022257
 30
0.0
 40
0.19875
100
AcDbArc
 50
180.0
 51
270.0
  0
ARC
  5
C5D
330
1E
100
AcDbEntity
  8
OBJECT
100
AcDbCircle
 10
6.180034611796905
 20
6.32345360022257
 30
0.0
 40
0.21875
100
AcDbArc
 50
180.0
 51
270.0
  0
CIRCLE
  5
C5E
330
1E
100
AcDbEntity
  8
OBJECT
100
AcDbCircle
 10
6.197284611796909
 20
6.34945360022256
 30
0.0
 40
0.0625
  0
CIRCLE
  5
C5F
330
1E
100
AcDbEntity
  8
OBJECT
100
AcDbCircle
 10
6.197284611796909
 20
6.34945360022256
 30
0.0
 40
0.125
  0
CIRCLE
  5
C60
330
1E
100
AcDbEntity
  8
OBJECT
100
AcDbCircle
 10
6.041284611796911
 20
6.546836939646116
 30
0.0
 40
0.03125
  0
LINE
  5
C61
330
1E
100
AcDbEntity
  8
OBJECT
100
AcDbLine
 10
6.346662991690614
 20
6.174703600222564
 30
0.0
 11
6.874689967491462
 21
6.174703600222564
 31
0.0
  0
ARC
  5
C62
330
1E
100
AcDbEntity
  8
OBJECT
100
AcDbCircle
 10
6.577456692352292
 20
6.357828600222568
 30
0.0
 40
0.1799999999999997
100
AcDbArc
 50
2.125976402827566
 51
90.0
  0
ARC
  5
C63
330
1E
100
AcDbEntity
  8
OBJECT
100
AcDbCircle
 10
6.964689967491452
 20
6.372203600222569
 30
0.0
 40
0.2075
100
AcDbArc
 50
182.1259764028274
 51
244.9423845816999
  0
ARC
  5
C64
330
1E
100
AcDbEntity
  8
OBJECT
100
AcDbCircle
 10
6.565456692352285
 20
6.345828600222567
 30
0.0
 40
0.2100000000000008
100
AcDbArc
 50
2.125976402827465
 51
89.99999999999976
  0
CIRCLE
  5
C65
330
1E
100
AcDbEntity
  8
OBJECT
100
AcDbCircle
 10
6.551284611796909
 20
6.35726610022256
 30
0.0
 40
0.0859374999999991
  0
ARC
  5
C66
330
1E
100
AcDbEntity
  8
OBJECT
100
AcDbCircle
 10
6.952689967491451
 20
6.360203600222568
 30
0.0
 40
0.1375
100
AcDbArc
 50
182.1259764028274
 51
270.0
  0
ARC
  5
C67
330
1E
100
AcDbEntity
  8
OBJECT
100
AcDbCircle
 10
6.874689967491462
 20
6.179703600222566
 30
0.0
 40
0.005
100
AcDbArc
 50
270.0
 51
64.94238458170146
  0
ARC
  5
C68
330
1E
100
AcDbEntity
  8
OBJECT
100
AcDbCircle
 10
6.952689967491451
 20
6.360203600222568
 30
0.0
 40
0.1775
100
AcDbArc
 50
182.1259764028274
 51
270.0
  0
ARC
  5
C69
330
1E
100
AcDbEntity
  8
OBJECT
100
AcDbCircle
 10
11.09711253124152
 20
6.345828600222567
 30
0.0
 40
0.2100000000000001
100
AcDbArc
 50
90.0
 51
177.8740235971723
  0
ARC
  5
C6A
330
1E
100
AcDbEntity
  8
OBJECT
100
AcDbCircle
 10
11.08511253124152
 20
6.357828600222568
 30
0.0
 40
0.1800000000000001
100
AcDbArc
 50
90.0
 51
177.8740235971723
  0
LINE
  5
C6B
330
1E
100
AcDbEntity
  8
OBJECT
100
AcDbLine
 10
11.31590623190307
 20
6.174703600222564
 30
0.0
 11
10.78787925610234
 21
6.174703600222564
 31
0.0
  0
ARC
  5
C6C
330
1E
100
AcDbEntity
  8
OBJECT
100
AcDbCircle
 10
11.09711253124151
 20
6.345828600222564
 30
0.0
 40
0.2499999999999991
100
AcDbArc
 50
89.9999999999996
 51
177.8740235971718
  0
CIRCLE
  5
C6D
330
1E
100
AcDbEntity
  8
OBJECT
100
AcDbCircle
 10
11.1112846117969
 20
6.35726610022256
 30
0.0
 40
0.0859374999999991
  0
ARC
  5
C6E
330
1E
100
AcDbEntity
  8
OBJECT
100
AcDbCircle
 10
10.70987925610236
 20
6.360203600222568
 30
0.0
 40
0.1775
100
AcDbArc
 50
270.0
 51
357.8740235971725
  0
ARC
  5
C6F
330
1E
100
AcDbEntity
  8
OBJECT
100
AcDbCircle
 10
10.78787925610234
 20
6.179703600222566
 30
0.0
 40
0.005
100
AcDbArc
 50
115.0576154182984
 51
270.0
  0
ARC
  5
C70
330
1E
100
AcDbEntity
  8
OBJECT
100
AcDbCircle
 10
10.69787925610236
 20
6.372203600222569
 30
0.0
 40
0.2075
100
AcDbArc
 50
295.0576154183
 51
357.8740235971725
  0
ARC
  5
C71
330
1E
100
AcDbEntity
  8
OBJECT
100
AcDbCircle
 10
10.70987925610236
 20
6.360203600222568
 30
0.0
 40
0.1375
100
AcDbArc
 50
270.0
 51
357.8740235971725
  0
ARC
  5
C72
330
1E
100
AcDbEntity
  8
OBJECT
100
AcDbCircle
 10
11.4832846117969
 20
6.695828600222572
 30
0.0
 40
0.14
100
AcDbArc
 50
270.0
 51
0.0
  0
ARC
  5
C73
330
1E
100
AcDbEntity
  8
OBJECT
100
AcDbCircle
 10
11.4832846117969
 20
6.695828600222572
 30
0.0
 40
0.1
100
AcDbArc
 50
270.0
 51
0.0
  0
LINE
  5
C74
330
1E
100
AcDbEntity
  8
OBJECT
100
AcDbLine
 10
11.4832846117969
 20
6.55582860022257
 30
0.0
 11
11.09711253124152
 21
6.55582860022257
 31
0.0
  0
CIRCLE
  5
C75
330
1E
100
AcDbEntity
  8
OBJECT
100
AcDbCircle
 10
11.4652846117969
 20
6.34945360022256
 30
0.0
 40
0.1640625
  0
LINE
  5
C76
330
1E
100
AcDbEntity
  8
OBJECT
100
AcDbLine
 10
11.4832846117969
 20
6.595828600222564
 30
0.0
 11
11.09711253124152
 21
6.595828600222564
 31
0.0
  0
CIRCLE
  5
C77
330
1E
100
AcDbEntity
  8
OBJECT
100
AcDbCircle
 10
11.4652846117969
 20
6.34945360022256
 30
0.0
 40
0.125
  0
CIRCLE
  5
C78
330
1E
100
AcDbEntity
  8
OBJECT
100
AcDbCircle
 10
11.4652846117969
 20
6.34945360022256
 30
0.0
 40
0.0625
  0
ARC
  5
C79
330
1E
100
AcDbEntity
  8
OBJECT
100
AcDbCircle
 10
11.4652846117969
 20
6.34945360022256
 30
0.0
 40
0.2298944603066318
100
AcDbArc
 50
124.9754499440419
 51
229.475783972065
  0
LINE
  5
C7A
330
1E
100
AcDbEntity
  8
OBJECT
100
AcDbLine
 10
11.33350326920735
 20
6.537828600222571
 30
0.0
 11
11.08511253124152
 21
6.537828600222571
 31
0.0
  0
ARC
  5
C7B
330
1E
100
AcDbEntity
  8
OBJECT
100
AcDbCircle
 10
11.4825346117969
 20
6.32345360022257
 30
0.0
 40
0.21875
100
AcDbArc
 50
270.0
 51
0.0
  0
CIRCLE
  5
C7C
330
1E
100
AcDbEntity
  8
OBJECT
100
AcDbCircle
 10
11.62128461179689
 20
6.546836939646116
 30
0.0
 40
0.03125
  0
ARC
  5
C7D
330
1E
100
AcDbEntity
  8
OBJECT
100
AcDbCircle
 10
11.4825346117969
 20
6.32345360022257
 30
0.0
 40
0.19875
100
AcDbArc
 50
270.0
 51
0.0
  0
LINE
  5
C7E
330
1E
100
AcDbEntity
  8
OBJECT
100
AcDbLine
 10
6.179284611796909
 20
10.72470360022257
 30
0.0
 11
6.197284611796909
 21
10.72470360022257
 31
0.0
  0
LINE
  5
C7F
330
1E
100
AcDbEntity
  8
OBJECT
100
AcDbLine
 10
6.197284611796909
 20
10.68470360022256
 30
0.0
 11
6.180034611796905
 21
10.68470360022256
 31
0.0
  0
LINE
  5
C80
330
1E
100
AcDbEntity
  8
OBJECT
100
AcDbLine
 10
6.179284611796909
 20
10.26470360022256
 30
0.0
 11
6.197284611797158
 21
10.26470360022256
 31
0.0
  0
LINE
  5
C81
330
1E
100
AcDbEntity
  8
OBJECT
100
AcDbLine
 10
6.197284611796909
 20
10.22470360022256
 30
0.0
 11
6.179284611796909
 21
10.22470360022256
 31
0.0
  0
ARC
  5
C82
330
1E
100
AcDbEntity
  8
OBJECT
100
AcDbCircle
 10
11.46528461179689
 20
10.47470360022257
 30
0.0
 40
0.21
100
AcDbArc
 50
90.0
 51
269.9999999999322
  0
ARC
  5
C83
330
1E
100
AcDbEntity
  8
OBJECT
100
AcDbCircle
 10
11.46528461179689
 20
10.47470360022257
 30
0.0
 40
0.25
100
AcDbArc
 50
90.0
 51
270.0
  0
LINE
  5
C84
330
1E
100
AcDbEntity
  8
OBJECT
100
AcDbLine
 10
11.46528461179689
 20
10.22470360022256
 30
0.0
 11
11.48328461179689
 21
10.22470360022256
 31
0.0
  0
LINE
  5
C85
330
1E
100
AcDbEntity
  8
OBJECT
100
AcDbLine
 10
11.48253461179689
 20
10.22470360022256
 30
0.0
 11
11.48328461179689
 21
10.22470360022256
 31
0.0
  0
LINE
  5
C86
330
1E
100
AcDbEntity
  8
OBJECT
100
AcDbLine
 10
11.48328461179689
 20
10.26470360022256
 30
0.0
 11
11.46528461179665
 21
10.26470360022256
 31
0.0
  0
LINE
  5
C87
330
1E
100
AcDbEntity
  8
OBJECT
100
AcDbLine
 10
11.46528461179689
 20
10.68470360022256
 30
0.0
 11
11.48253461179689
 21
10.68470360022256
 31
0.0
  0
LINE
  5
C88
330
1E
100
AcDbEntity
  8
OBJECT
100
AcDbLine
 10
11.48328461179689
 20
10.72470360022257
 30
0.0
 11
11.46528461179689
 21
10.72470360022257
 31
0.0
  0
CIRCLE
  5
C89
330
1E
100
AcDbEntity
  8
OBJECT
100
AcDbCircle
 10
11.46528461179689
 20
10.47470360022257
 30
0.0
 40
0.0625
  0
LINE
  5
C8A
330
1E
100
AcDbEntity
  8
OBJECT
100
AcDbLine
 10
11.48253461179689
 20
10.72470360022257
 30
0.0
 11
11.48328461179689
 21
10.72470360022257
 31
0.0
  0
LINE
  5
C8B
330
1E
100
AcDbEntity
  8
OBJECT
100
AcDbLine
 10
11.48253461179689
 20
10.68470360022256
 30
0.0
 11
11.48328461179689
 21
10.68470360022256
 31
0.0
  0
LINE
  5
C8C
330
1E
100
AcDbEntity
  8
OBJECT
100
AcDbLine
 10
11.48253461179665
 20
10.26470360022256
 30
0.0
 11
11.48328461179689
 21
10.26470360022256
 31
0.0
  0
CIRCLE
  5
C8D
330
1E
100
AcDbEntity
  8
OBJECT
100
AcDbCircle
 10
11.46528461179689
 20
10.47470360022257
 30
0.0
 40
0.1640625
  0
CIRCLE
  5
C8E
330
1E
100
AcDbEntity
  8
OBJECT
100
AcDbCircle
 10
11.46528461179689
 20
10.47470360022257
 30
0.0
 40
0.125
  0
LINE
  5
C8F
330
1E
100
AcDbEntity
  8
OBJECT
100
AcDbLine
 10
25.65549380694247
 20
6.10470360022257
 30
0.0
 11
30.95799380694247
 21
6.104703600222578
 31
0.0
  0
LINE
  5
C90
330
1E
100
AcDbEntity
  8
OBJECT
100
AcDbLine
 10
26.41214916263701
 20
6.28470360022257
 30
0.0
 11
30.20133845124793
 21
6.284703600222577
 31
0.0
  0
ARC
  5
C91
330
1E
100
AcDbEntity
  8
OBJECT
100
AcDbCircle
 10
26.02491588749785
 20
6.345828600222567
 30
0.0
 40
0.312000000000002
100
AcDbArc
 50
2.125976402827566
 51
90.0
  0
LINE
  5
C92
330
1E
100
AcDbEntity
  8
OBJECT
100
AcDbLine
 10
25.65474380694247
 20
6.657828600222575
 30
0.0
 11
26.02491588749785
 21
6.657828600222575
 31
0.0
  0
ARC
  5
C93
330
1E
100
AcDbEntity
  8
OBJECT
100
AcDbCircle
 10
25.65474380694247
 20
6.695828600222572
 30
0.0
 40
0.037999999999998
100
AcDbArc
 50
180.0
 51
270.0
  0
CIRCLE
  5
C94
330
1E
100
AcDbEntity
  8
OBJECT
100
AcDbCircle
 10
25.67299380694247
 20
6.34945360022257
 30
0.0
 40
0.0859375
  0
ARC
  5
C95
330
1E
100
AcDbEntity
  8
OBJECT
100
AcDbCircle
 10
25.65549380694247
 20
6.32345360022257
 30
0.0
 40
0.21875
100
AcDbArc
 50
180.0
 51
270.0
  0
CIRCLE
  5
C96
330
1E
100
AcDbEntity
  8
OBJECT
100
AcDbCircle
 10
25.51674380694247
 20
6.477321631433756
 30
0.0
 40
0.03125
  0
ARC
  5
C97
330
1E
100
AcDbEntity
  8
OBJECT
100
AcDbCircle
 10
26.02491588749785
 20
6.345828600222567
 30
0.0
 40
0.132000000000002
100
AcDbArc
 50
2.125976402827566
 51
90.0
  0
LINE
  5
C98
330
1E
100
AcDbEntity
  8
OBJECT
100
AcDbLine
 10
25.78158900907166
 20
6.14470360022257
 30
0.0
 11
26.27489028314282
 21
6.14470360022257
 31
0.0
  0
ARC
  5
C99
330
1E
100
AcDbEntity
  8
OBJECT
100
AcDbCircle
 10
25.68199380694247
 20
6.34945360022257
 30
0.0
 40
0.2276878714098652
100
AcDbArc
 50
295.9393750589923
 51
34.32039748436362
  0
LINE
  5
C9A
330
1E
100
AcDbEntity
  8
OBJECT
100
AcDbLine
 10
25.8700406791902
 20
6.477828600222569
 30
0.0
 11
26.02491588749785
 21
6.477828600222569
 31
0.0
  0
ARC
  5
C9B
330
1E
100
AcDbEntity
  8
OBJECT
100
AcDbCircle
 10
26.41214916263701
 20
6.360203600222568
 30
0.0
 40
0.2554999999999981
100
AcDbArc
 50
182.1259764028274
 51
237.5056288386328
  0
ARC
  5
C9C
330
1E
100
AcDbEntity
  8
OBJECT
100
AcDbCircle
 10
26.41214916263701
 20
6.360203600222568
 30
0.0
 40
0.075499999999998
100
AcDbArc
 50
182.1259764028274
 51
270.0
  0
ARC
  5
C9D
330
1E
100
AcDbEntity
  8
OBJECT
100
AcDbCircle
 10
30.95799380694247
 20
6.32345360022257
 30
0.0
 40
0.21875
100
AcDbArc
 50
270.0
 51
0.0
  0
ARC
  5
C9E
330
1E
100
AcDbEntity
  8
OBJECT
100
AcDbCircle
 10
30.58857172638709
 20
6.345828600222567
 30
0.0
 40
0.312000000000002
100
AcDbArc
 50
90.0
 51
177.8740235971723
  0
LINE
  5
C9F
330
1E
100
AcDbEntity
  8
OBJECT
100
AcDbLine
 10
30.95874380694247
 20
6.657828600222575
 30
0.0
 11
30.58857172638709
 21
6.657828600222575
 31
0.0
  0
ARC
  5
CA0
330
1E
100
AcDbEntity
  8
OBJECT
100
AcDbCircle
 10
30.95874380694247
 20
6.695828600222572
 30
0.0
 40
0.037999999999998
100
AcDbArc
 50
270.0
 51
0.0
  0
ARC
  5
CA1
330
1E
100
AcDbEntity
  8
OBJECT
100
AcDbCircle
 10
30.20133845124793
 20
6.360203600222568
 30
0.0
 40
0.2554999999999981
100
AcDbArc
 50
302.4943711613671
 51
357.8740235971725
  0
LINE
  5
CA2
330
1E
100
AcDbEntity
  8
OBJECT
100
AcDbLine
 10
30.83189860481328
 20
6.14470360022257
 30
0.0
 11
30.33859733074212
 21
6.14470360022257
 31
0.0
  0
ARC
  5
CA3
330
1E
100
AcDbEntity
  8
OBJECT
100
AcDbCircle
 10
30.20133845124793
 20
6.360203600222568
 30
0.0
 40
0.075499999999998
100
AcDbArc
 50
270.0
 51
357.8740235971725
  0
ARC
  5
CA4
330
1E
100
AcDbEntity
  8
OBJECT
100
AcDbCircle
 10
30.93149380694247
 20
6.34945360022257
 30
0.0
 40
0.2276878714098652
100
AcDbArc
 50
145.6796025156362
 51
244.0606249410075
  0
ARC
  5
CA5
330
1E
100
AcDbEntity
  8
OBJECT
100
AcDbCircle
 10
30.58857172638709
 20
6.345828600222567
 30
0.0
 40
0.132000000000002
100
AcDbArc
 50
90.0
 51
177.8740235971723
  0
LINE
  5
CA6
330
1E
100
AcDbEntity
  8
OBJECT
100
AcDbLine
 10
30.74344693469473
 20
6.477828600222569
 30
0.0
 11
30.58857172638709
 21
6.477828600222569
 31
0.0
  0
CIRCLE
  5
CA7
330
1E
100
AcDbEntity
  8
OBJECT
100
AcDbCircle
 10
30.94049380694247
 20
6.34945360022257
 30
0.0
 40
0.0859375
  0
CIRCLE
  5
CA8
330
1E
100
AcDbEntity
  8
OBJECT
100
AcDbCircle
 10
31.09674380694247
 20
6.477321631433756
 30
0.0
 40
0.03125
  0
LINE
  5
CA9
330
1E
100
AcDbEntity
  8
OBJECT
100
AcDbLine
 10
25.65474380694247
 20
10.78670360022256
 30
0.0
 11
25.67249380694247
 21
10.78670360022256
 31
0.0
  0
LINE
  5
CAA
330
1E
100
AcDbEntity
  8
OBJECT
100
AcDbLine
 10
25.67249380694247
 20
10.16270360022256
 30
0.0
 11
25.65474380694247
 21
10.16270360022256
 31
0.0
  0
ARC
  5
CAB
330
1E
100
AcDbEntity
  8
OBJECT
100
AcDbCircle
 10
30.94099380694247
 20
10.47470360022257
 30
0.0
 40
0.3119999999999994
100
AcDbArc
 50
90.0
 51
270.0
  0
CIRCLE
  5
CAC
330
1E
100
AcDbEntity
  8
OBJECT
100
AcDbCircle
 10
30.94049380694247
 20
10.47470360022257
 30
0.0
 40
0.0859375
  0
LINE
  5
CAD
330
1E
100
AcDbEntity
  8
OBJECT
100
AcDbLine
 10
30.94099380694247
 20
10.16270360022256
 30
0.0
 11
30.95874380694247
 21
10.16270360022256
 31
0.0
  0
ARC
  5
CAE
330
1E
100
AcDbEntity
  8
OBJECT
100
AcDbCircle
 10
30.95874380694247
 20
10.12470360022255
 30
0.0
 40
0.0380000000000006
100
AcDbArc
 50
0.0
 51
90.0
  0
LINE
  5
CAF
330
1E
100
AcDbEntity
  8
OBJECT
100
AcDbLine
 10
30.95874380694247
 20
10.78670360022256
 30
0.0
 11
30.94099380694247
 21
10.78670360022256
 31
0.0
  0
ARC
  5
CB0
330
1E
100
AcDbEntity
  8
OBJECT
100
AcDbCircle
 10
30.95874380694247
 20
10.82470360022256
 30
0.0
 40
0.0380000000000006
100
AcDbArc
 50
270.0
 51
0.0
  0
CIRCLE
  5
CB1
330
1E
100
AcDbEntity
  8
OBJECT
100
AcDbCircle
 10
31.10712425992831
 20
10.61695652522011
 30
0.0
 40
0.03125
  0
CIRCLE
  5
CB2
330
1E
100
AcDbEntity
  8
OBJECT
100
AcDbCircle
 10
31.10712425992831
 20
10.33245067522502
 30
0.0
 40
0.03125
  0
TEXT
  5
CB8
330
1E
100
AcDbEntity
  8
TEXT
100
AcDbText
 10
31.98114210555867
 20
4.268584150343674
 30
0.0
 40
0.312499875
  1
%%USECTION "B-B"
 41
0.8
  7
SECTION
100
AcDbText
  0
CIRCLE
  5
CC0
102
{ACAD_REACTORS
330
1177
102
}
330
1E
100
AcDbEntity
  8
BEND
100
AcDbCircle
 10
33.14910219885487
 20
6.387786095180171
 30
0.0
 40
0.9707797393703536
  0
TEXT
  5
CC1
330
1E
100
AcDbEntity
  8
TEXT
100
AcDbText
 10
27.65519181818776
 20
17.93947558265184
 30
0.0
 40
0.312499875
  1
%%UDETAIL "C"
 41
0.8
  7
SECTION
100
AcDbText
  0
TEXT
  5
CD8
330
1E
100
AcDbEntity
  8
TEXT
100
AcDbText
 10
22.69956219634135
 20
24.97972347650505
 30
0.0
 40
0.3906247460937891
  1
PN-1329, PN-1329-C AND PN-1329-DG
 41
0.75
 72
     4
 11
27.26498891631251
 21
25.14248378737746
 31
0.0
100
AcDbText
  0
LINE
  5
CD9
330
1E
100
AcDbEntity
  8
TITLE
100
AcDbLine
 10
36.34500324999952
 20
2.754998310000263
 30
0.0
 11
36.34500324999952
 21
0.1550000000000029
 31
0.0
  0
LINE
  5
CDA
330
1E
100
AcDbEntity
  8
TITLE
100
AcDbLine
 10
31.34500649999902
 20
2.754998310000263
 30
0.0
 11
31.34500649999902
 21
0.1550000000000029
 31
0.0
  0
LINE
  5
CDB
330
1E
100
AcDbEntity
  8
TITLE
100
AcDbLine
 10
26.34500974999852
 20
2.754998310000263
 30
0.0
 11
26.34500974999852
 21
0.1550000000000029
 31
0.0
  0
LINE
  5
CDC
330
1E
100
AcDbEntity
  8
TITLE
100
AcDbLine
 10
21.34501299999802
 20
2.754998310000263
 30
0.0
 11
21.34501299999802
 21
0.1550000000000029
 31
0.0
  0
LINE
  5
CDD
330
1E
100
AcDbEntity
  8
TITLE
100
AcDbLine
 10
33.84500487499927
 20
1.194999324000106
 30
0.0
 11
33.84500487499927
 21
0.6749996620000514
 31
0.0
  0
LINE
  5
CDF
330
1E
100
AcDbEntity
  8
TITLE
100
AcDbLine
 10
21.34501299999802
 20
0.6749996620000514
 30
0.0
 11
36.34500324999952
 21
0.6749996620000514
 31
0.0
  0
LINE
  5
CE0
330
1E
100
AcDbEntity
  8
TITLE
100
AcDbLine
 10
21.34501299999802
 20
1.194999324000106
 30
0.0
 11
36.34500324999952
 21
1.194999324000106
 31
0.0
  0
LINE
  5
CE1
330
1E
100
AcDbEntity
  8
TITLE
100
AcDbLine
 10
21.34501299999802
 20
1.714998986000161
 30
0.0
 11
41.34500000000002
 21
1.714998986000161
 31
0.0
  0
LINE
  5
CE2
330
1E
100
AcDbEntity
  8
TITLE
100
AcDbLine
 10
21.34501299999802
 20
2.754998310000263
 30
0.0
 11
41.34500000000002
 21
2.754998310000263
 31
0.0
  0
TEXT
  5
CE3
330
1E
100
AcDbEntity
  8
TEXT
100
AcDbText
 10
22.59501218749814
 20
2.078748749562691
 30
0.0
 40
0.3124997968750312
  1
PART NUMBER
 41
0.75
 72
     4
 11
23.84501137499827
 21
2.234998648000207
 31
0.0
100
AcDbText
  0
TEXT
  5
CE5
330
1E
100
AcDbEntity
  8
TEXT
100
AcDbText
 10
23.10282435742007
 20
1.297082590979284
 30
0.0
 40
0.3124997968750312
  1
PN-1329
 41
0.75
 72
     4
 11
23.84501137499827
 21
1.4533324894168
 31
0.0
100
AcDbText
  0
TEXT
  5
CE6
330
1E
100
AcDbEntity
  8
TEXT
100
AcDbText
 10
22.8684495097638
 20
0.7762495961875655
 30
0.0
 40
0.3124997968750312
  1
PN-1329-C
 41
0.75
 72
     4
 11
23.84501137499827
 21
0.9324994946250811
 31
0.0
100
AcDbText
  0
TEXT
  5
CE7
330
1E
100
AcDbEntity
  8
TEXT
100
AcDbText
 10
22.75126208593567
 20
0.2554166013958465
 30
0.0
 40
0.3124997968750312
  1
PN-1329-DG
 41
0.75
 72
     4
 11
23.84501137499827
 21
0.4116664998333622
 31
0.0
100
AcDbText
  0
TEXT
  5
CE8
330
1E
100
AcDbEntity
  8
TEXT
100
AcDbText
 10
37.47781501367152
 20
2.078748749562691
 30
0.0
 40
0.3124997968750312
  1
HARDWARE KIT
 41
0.75
 72
     4
 11
38.84500162499978
 21
2.234998648000207
 31
0.0
100
AcDbText
  0
TEXT
  5
CEA
330
1E
100
AcDbEntity
  8
TEXT
100
AcDbText
 10
27.98563368359244
 20
2.338748580562722
 30
0.0
 40
0.3124997968750312
  1
MATERIAL
 41
0.75
 72
     4
 11
28.84500812499877
 21
2.494998479000237
 31
0.0
100
AcDbText
  0
TEXT
  5
CEB
330
1E
100
AcDbEntity
  8
TEXT
100
AcDbText
 10
33.25906775585859
 20
2.338748580562722
 30
0.0
 40
0.3124997968750312
  1
FINISH
 41
0.75
 72
     4
 11
33.84500487499927
 21
2.494998479000237
 31
0.0
100
AcDbText
  0
TEXT
  5
CEC
330
1E
100
AcDbEntity
  8
TEXT
100
AcDbText
 10
32.16531846679597
 20
1.818748918562667
 30
0.0
 40
0.3124997968750312
  1
BODY
 41
0.75
 72
     4
 11
32.59500568749913
 21
1.974998817000183
 31
0.0
100
AcDbText
  0
TEXT
  5
CED
330
1E
100
AcDbEntity
  8
TEXT
100
AcDbText
 10
27.36063408984237
 20
1.297915923770948
 30
0.0
 40
0.3124997968750312
  1
POLYCARBONATE
 41
0.75
 72
     4
 11
28.84500812499877
 21
1.454165822208464
 31
0.0
100
AcDbText
  0
TEXT
  5
CEE
330
1E
100
AcDbEntity
  8
TEXT
100
AcDbText
 10
27.36063408984237
 20
0.777082928979233
 30
0.0
 40
0.3124997968750312
  1
POLYCARBONATE
 41
0.75
 72
     4
 11
28.84500812499877
 21
0.9333328274167485
 31
0.0
100
AcDbText
  0
TEXT
  5
CEF
330
1E
100
AcDbEntity
  8
TEXT
100
AcDbText
 10
27.20438419140486
 20
0.2562499341875132
 30
0.0
 40
0.3124997968750312
  1
HIGH-IMPACT ABS
 41
0.75
 72
     4
 11
28.84500812499877
 21
0.4124998326250289
 31
0.0
100
AcDbText
  0
TEXT
  5
CF0
330
1E
100
AcDbEntity
  8
TEXT
100
AcDbText
 10
34.50906694335872
 20
1.818748918562667
 30
0.0
 40
0.3124997968750312
  1
COVER
 41
0.75
 72
     4
 11
35.09500406249939
 21
1.974998817000183
 31
0.0
100
AcDbText
  0
TEXT
  5
CF1
330
1E
100
AcDbEntity
  8
TEXT
100
AcDbText
 10
29.50907019335823
 20
1.818748918562667
 30
0.0
 40
0.3124997968750312
  1
COVER
 41
0.75
 72
     4
 11
30.09500731249891
 21
1.974998817000183
 31
0.0
100
AcDbText
  0
TEXT
  5
CF2
330
1E
100
AcDbEntity
  8
TEXT
100
AcDbText
 10
27.16532171679548
 20
1.818748918562667
 30
0.0
 40
0.3124997968750312
  1
BODY
 41
0.75
 72
     4
 11
27.59500893749865
 21
1.974998817000183
 31
0.0
100
AcDbText
  0
TEXT
  5
CF3
330
1E
100
AcDbEntity
  8
TEXT
100
AcDbText
 10
32.75125558593665
 20
1.297915923770942
 30
0.0
 40
0.3124997968750312
  1
LIGHT GRAY
 41
0.75
 72
     4
 11
33.84500487499926
 21
1.454165822208458
 31
0.0
100
AcDbText
  0
TEXT
  5
CF4
330
1E
100
AcDbEntity
  8
TEXT
100
AcDbText
 10
31.50125639843653
 20
0.777082928979233
 30
0.0
 40
0.3124997968750312
  1
LIGHT GRAY
 41
0.75
 72
     4
 11
32.59500568749913
 21
0.9333328274167485
 31
0.0
100
AcDbText
  0
TEXT
  5
CF5
330
1E
100
AcDbEntity
  8
TEXT
100
AcDbText
 10
32.82938053515541
 20
0.2562499341875106
 30
0.0
 40
0.3124997968750312
  1
DARK GRAY
 41
0.75
 72
     4
 11
33.84500487499926
 21
0.4124998326250262
 31
0.0
100
AcDbText
  0
TEXT
  5
CF6
330
1E
100
AcDbEntity
  8
TEXT
100
AcDbText
 10
34.54812941796809
 20
0.777082928979233
 30
0.0
 40
0.3124997968750312
  1
CLEAR
 41
0.75
 72
     4
 11
35.09500406249939
 21
0.9333328274167485
 31
0.0
100
AcDbText
  0
LINE
  5
CF7
330
1E
100
AcDbEntity
  8
TITLE
100
AcDbLine
 10
33.84500487499927
 20
2.234998648000207
 30
0.0
 11
33.84500487499927
 21
1.714998986000161
 31
0.0
  0
LINE
  5
CF8
330
1E
100
AcDbEntity
  8
TITLE
100
AcDbLine
 10
26.34500974999852
 20
2.234998648000207
 30
0.0
 11
36.34500324999952
 21
2.234998648000207
 31
0.0
  0
LINE
  5
CF9
330
1E
100
AcDbEntity
  8
TITLE
100
AcDbLine
 10
28.84500812499877
 20
2.234998648000207
 30
0.0
 11
28.84500812499877
 21
1.714998986000161
 31
0.0
  0
TEXT
  5
CFA
330
1E
100
AcDbEntity
  8
TEXT
100
AcDbText
 10
37.16531521679647
 20
1.297915923770942
 30
0.0
 40
0.3124997968750312
  1
KIT CONTAINS (6)
 41
0.75
 72
     4
 11
38.84500162499977
 21
1.454165822208458
 31
0.0
100
AcDbText
  0
TEXT
  5
CFB
330
1E
100
AcDbEntity
  8
TEXT
100
AcDbText
 10
36.61844057226517
 20
0.7770829289792265
 30
0.0
 40
0.3124997968750312
  1
M4 x 20mm (0.787") LG.
 41
0.75
 72
     4
 11
38.84500162499977
 21
0.9333328274167421
 31
0.0
100
AcDbText
  0
TEXT
  5
CFC
330
1E
100
AcDbEntity
  8
TEXT
100
AcDbText
 10
36.61844057226517
 20
0.2562499341875106
 30
0.0
 40
0.3124997968750312
  1
SCREWS FOR ASSEMBLY
 41
0.75
 72
     4
 11
38.84500162499977
 21
0.4124998326250262
 31
0.0
100
AcDbText
  0
TEXT
  5
CFD
330
1E
100
AcDbEntity
  8
TEXT
100
AcDbText
 10
21.34501299999802
 20
3.012498142625285
 30
0.0
 40
0.3124997968750312
  1
%%UNOTE%%U:  ALL DIMENSIONS HAVE %%P0.015 TOLERANCE UNLESS OTHERWISE SPECIFIED.
 41
0.75
100
AcDbText
  0
LWPOLYLINE
  5
D09
102
{ACAD_REACTORS
330
111D
102
}
330
1E
100
AcDbEntity
  8
OBJECT
100
AcDbPolyline
 90
       32
 70
     1
 43
0.0
 10
30.39670388425362
 20
14.59645601957739
 42
0.403386964461982
 10
30.20133845124793
 20
14.78470360022256
 10
26.41214916263701
 20
14.78470360022256
 42
0.4033869644619822
 10
26.21678372963132
 20
14.59645601957739
 42
-0.4033869644619819
 10
26.02491588749785
 20
14.41157860022256
 10
25.65474380694247
 20
14.41157860022256
 42
0.4142135623730951
 10
25.49674380694247
 20
14.25357860022256
 10
25.49674380694247
 20
10.82470360022256
 42
0.4142135623730951
 10
25.65474380694247
 20
10.66670360022256
 10
25.67249380694247
 20
10.66670360022256
 42
-0.9999999999994082
 10
25.6724938069427
 20
10.28270360022256
 10
25.65474380694247
 20
10.28270360022256
 42
0.4142135623730951
 10
25.49674380694247
 20
10.12470360022255
 10
25.49674380694247
 20
6.695828600222572
 42
0.4142135623730951
 10
25.65474380694247
 20
6.53782860022257
 10
26.02491588749785
 20
6.53782860022257
 42
-0.4033869644619819
 10
26.21678372963132
 20
6.352951180867728
 42
0.4033869644619822
 10
26.41214916263701
 20
6.164703600222569
 10
30.20133845124793
 20
6.164703600222573
 42
0.403386964461982
 10
30.39670388425362
 20
6.352951180867729
 42
-0.4033869644619819
 10
30.58857172638709
 20
6.537828600222569
 10
30.95874380694247
 20
6.53782860022257
 42
0.4142135623730951
 10
31.11674380694247
 20
6.695828600222572
 10
31.11674380694247
 20
10.12470360022255
 42
0.4142135623730951
 10
30.95874380694247
 20
10.28270360022256
 10
30.94099380694224
 20
10.28270360022256
 42
-0.9999999999994082
 10
30.94099380694247
 20
10.66670360022256
 10
30.95874380694247
 20
10.66670360022256
 42
0.4142135623730951
 10
31.11674380694247
 20
10.82470360022256
 10
31.11674380694247
 20
14.25357860022256
 42
0.4142135623730951
 10
30.95874380694247
 20
14.41157860022256
 10
30.58857172638709
 20
14.41157860022256
 42
-0.4033869644619819
  0
LWPOLYLINE
  5
D2B
102
{ACAD_REACTORS
330
111D
102
}
330
1E
100
AcDbEntity
  8
OBJECT
100
AcDbPolyline
 90
       32
 70
     1
 43
0.0
 10
30.58857172638709
 20
14.33157860022256
 42
-0.4033869644619819
 10
30.31675895003134
 20
14.59348827764191
 42
0.403386964461982
 10
30.20133845124793
 20
14.70470360022256
 10
26.41214916263701
 20
14.70470360022256
 42
0.4033869644619822
 10
26.2967286638536
 20
14.59348827764191
 42
-0.4033869644619819
 10
26.02491588749785
 20
14.33157860022256
 10
25.65474380694247
 20
14.33157860022256
 42
0.4142135623730951
 10
25.57674380694247
 20
14.25357860022256
 10
25.57674380694247
 20
10.82470360022256
 42
0.4142135623730951
 10
25.65474380694247
 20
10.74670360022256
 10
25.67249380694247
 20
10.74670360022256
 42
-1.0
 10
25.67249380694247
 20
10.20270360022256
 10
25.65474380694247
 20
10.20270360022256
 42
0.4142135623730951
 10
25.57674380694247
 20
10.12470360022255
 10
25.57674380694247
 20
6.695828600222572
 42
0.4142135623730951
 10
25.65474380694247
 20
6.617828600222569
 10
26.02491588749785
 20
6.617828600222569
 42
-0.4033869644619819
 10
26.2967286638536
 20
6.355918922803211
 42
0.4033869644619822
 10
26.41214916263701
 20
6.24470360022257
 10
30.20133845124793
 20
6.244703600222574
 42
0.403386964461982
 10
30.31675895003134
 20
6.355918922803213
 42
-0.4033869644619819
 10
30.58857172638709
 20
6.617828600222569
 10
30.95874380694247
 20
6.617828600222569
 42
0.4142135623730951
 10
31.03674380694247
 20
6.695828600222572
 10
31.03674380694247
 20
10.12470360022255
 42
0.4142135623730951
 10
30.95874380694247
 20
10.20270360022256
 10
30.94099380694247
 20
10.20270360022256
 42
-1.0
 10
30.94099380694247
 20
10.74670360022256
 10
30.95874380694247
 20
10.74670360022256
 42
0.4142135623730951
 10
31.03674380694247
 20
10.82470360022256
 10
31.03674380694247
 20
14.25357860022256
 42
0.4142135623730951
 10
30.95874380694247
 20
14.33157860022256
  0
LWPOLYLINE
  5
D4E
102
{ACAD_REACTORS
330
1123
330
1177
102
}
330
1E
100
AcDbEntity
  8
OBJECT
100
AcDbPolyline
 90
        3
 70
     0
 43
0.0
 10
32.61045041211374
 20
6.553610214341846
 10
32.61045041211374
 20
6.473610214341849
 10
32.49545041211374
 20
6.473610214341849
  0
LWPOLYLINE
  5
D53
102
{ACAD_REACTORS
330
1123
330
1177
102
}
330
1E
100
AcDbEntity
  8
OBJECT
100
AcDbPolyline
 90
        2
 70
     0
 43
0.0
 10
32.49545041211374
 20
6.553610214341846
 10
32.61045041211374
 20
6.553610214341846
  0
LWPOLYLINE
  5
D57
102
{ACAD_REACTORS
330
112E
330
1177
102
}
330
1E
100
AcDbEntity
  8
OBJECT
100
AcDbPolyline
 90
        3
 70
     0
 43
0.0
 10
32.61045041211374
 20
10.21848521434184
 10
32.61045041211374
 20
10.13848521434184
 10
32.49545041211374
 20
10.13848521434184
  0
LWPOLYLINE
  5
D5C
102
{ACAD_REACTORS
330
112E
330
1177
102
}
330
1E
100
AcDbEntity
  8
OBJECT
100
AcDbPolyline
 90
        2
 70
     0
 43
0.0
 10
32.49545041211374
 20
10.21848521434184
 10
32.61045041211374
 20
10.21848521434184
  0
LWPOLYLINE
  5
D60
102
{ACAD_REACTORS
330
1177
102
}
330
1E
100
AcDbEntity
  8
OBJECT
100
AcDbPolyline
 90
        3
 70
     0
 43
0.0
 10
32.61045041211374
 20
14.72048521434184
 10
32.61045041211374
 20
14.64048521434184
 10
32.49545041211374
 20
14.64048521434184
  0
LWPOLYLINE
  5
D65
102
{ACAD_REACTORS
330
1177
102
}
330
1E
100
AcDbEntity
  8
OBJECT
100
AcDbPolyline
 90
        2
 70
     0
 43
0.0
 10
32.49545041211374
 20
14.72048521434184
 10
32.61045041211374
 20
14.72048521434184
  0
LWPOLYLINE
  5
D69
102
{ACAD_REACTORS
330
1134
330
1177
102
}
330
1E
100
AcDbEntity
  8
OBJECT
100
AcDbPolyline
 90
        3
 70
     0
 43
0.0
 10
32.61045041211374
 20
10.68248521434185
 10
32.61045041211374
 20
10.60248521434185
 10
32.49545041211374
 20
10.60248521434185
  0
LWPOLYLINE
  5
D6E
102
{ACAD_REACTORS
330
1134
330
1177
102
}
330
1E
100
AcDbEntity
  8
OBJECT
100
AcDbPolyline
 90
        2
 70
     0
 43
0.0
 10
32.49545041211374
 20
10.68248521434185
 10
32.61045041211374
 20
10.68248521434185
  0
TEXT
  5
D73
330
1E
100
AcDbEntity
  8
TEXT
100
AcDbText
 10
0.6695021810844568
 20
23.22737565772513
 30
0.0
 40
0.312499875
  1
 %%UPOLYCARBONATE%%U (LIGHT GRAY AND CLEAR)
 41
0.75
100
AcDbText
  0
TEXT
  5
D74
330
1E
100
AcDbEntity
  8
TEXT
100
AcDbText
 10
0.6695021810844568
 20
21.14437690772514
 30
0.0
 40
0.312499875
  1
 %%UABS%%U (DARK GRAY)
 41
0.75
100
AcDbText
  0
TEXT
  5
D75
330
1E
100
AcDbEntity
  8
TEXT
100
AcDbText
 10
0.6695021810844568
 20
20.10287753272514
 30
0.0
 40
0.312499875
  1
  SERVICE TEMPERATURE RANGE:  -40%%DC TO +80%%DC
 41
0.75
100
AcDbText
  0
TEXT
  5
D76
330
1E
100
AcDbEntity
  8
TEXT
100
AcDbText
 10
0.6695021810844568
 20
20.62354378272514
 30
0.0
 40
0.312499875
  1
  UL94-HB FLAMMABILITY RATING (UL FILE #E56070)
 41
0.75
100
AcDbText
  0
TEXT
  5
D77
330
1E
100
AcDbEntity
  8
TEXT
100
AcDbText
 10
0.6695021810844568
 20
23.74820878272513
 30
0.0
 40
0.39062484375
  1
INDUSTRY STANDARDS:
 41
0.75
100
AcDbText
  0
TEXT
  5
D78
330
1E
100
AcDbEntity
  8
TEXT
100
AcDbText
 10
0.6695021810844568
 20
21.66504315772515
 30
0.0
 40
0.312499875
  1
  SERVICE TEMPERATURE RANGE:  -40%%DC TO +120%%DC
 41
0.75
100
AcDbText
  0
TEXT
  5
D79
330
1E
100
AcDbEntity
  8
TEXT
100
AcDbText
 10
0.6695021810844568
 20
22.18587628272513
 30
0.0
 40
0.312499875
  1
  UV STABILIZED
 41
0.75
100
AcDbText
  0
TEXT
  5
D7A
330
1E
100
AcDbEntity
  8
TEXT
100
AcDbText
 10
0.6695021810844568
 20
22.70654253272514
 30
0.0
 40
0.312499875
  1
  UL94-HB FLAMMABILITY RATING (UL FILE #E41613)
 41
0.75
100
AcDbText
  0
HATCH
  5
111D
330
1E
100
AcDbEntity
  8
OBJECT
 62
   241
100
AcDbHatch
 10
0.0
 20
0.0
 30
0.0
210
0.0
220
0.0
230
1.0
  2
ZIGZAG
 70
     0
 71
     1
 91
        2
 92
        1
 93
       32
 72
     2
 10
30.20133845124793
 20
14.58920360022256
 40
0.1954999999999986
 50
2.125976402827958
 51
90.00000000000104
 73
     1
 72
     1
 10
30.20133845124793
 20
14.78470360022256
 11
26.41214916263701
 21
14.78470360022256
 72
     2
 10
26.41214916263701
 20
14.58920360022256
 40
0.1954999999999991
 50
90.0
 51
177.8740235971725
 73
     1
 72
     2
 10
26.02491588749785
 20
14.60357860022256
 40
0.1919999999999982
 50
2.125976402829144
 51
90.00000000000106
 73
     0
 72
     1
 10
26.02491588749785
 20
14.41157860022256
 11
25.65474380694247
 21
14.41157860022256
 72
     2
 10
25.65474380694247
 20
14.25357860022256
 40
0.1580000000000012
 50
90.0
 51
179.9999999999993
 73
     1
 72
     1
 10
25.49674380694247
 20
14.25357860022256
 11
25.49674380694247
 21
10.82470360022256
 72
     2
 10
25.65474380694247
 20
10.82470360022256
 40
0.1580000000000012
 50
180.0
 51
270.0
 73
     1
 72
     1
 10
25.65474380694247
 20
10.66670360022256
 11
25.67249380694247
 21
10.66670360022256
 72
     2
 10
25.67249380694247
 20
10.47470360022256
 40
0.1920000000000037
 50
270.0
 51
449.9999999999322
 73
     0
 72
     1
 10
25.6724938069427
 20
10.28270360022256
 11
25.65474380694247
 21
10.28270360022256
 72
     2
 10
25.65474380694247
 20
10.12470360022255
 40
0.1580000000000012
 50
90.0
 51
180.0
 73
     1
 72
     1
 10
25.49674380694247
 20
10.12470360022255
 11
25.49674380694247
 21
6.695828600222572
 72
     2
 10
25.65474380694247
 20
6.695828600222572
 40
0.1580000000000012
 50
180.0
 51
270.0
 73
     1
 72
     1
 10
25.65474380694247
 20
6.53782860022257
 11
26.02491588749785
 21
6.53782860022257
 72
     2
 10
26.02491588749785
 20
6.345828600222567
 40
0.1920000000000028
 50
270.0
 51
357.8740235971725
 73
     0
 72
     2
 10
26.41214916263701
 20
6.360203600222567
 40
0.1954999999999986
 50
182.1259764028276
 51
270.0
 73
     1
 72
     1
 10
26.41214916263701
 20
6.164703600222569
 11
30.20133845124793
 21
6.164703600222573
 72
     2
 10
30.20133845124794
 20
6.360203600222572
 40
0.1954999999999991
 50
269.9999999999978
 51
357.8740235971712
 73
     1
 72
     2
 10
30.58857172638709
 20
6.345828600222569
 40
0.191999999999998
 50
182.1259764028273
 51
270.0
 73
     0
 72
     1
 10
30.58857172638709
 20
6.537828600222569
 11
30.95874380694247
 21
6.53782860022257
 72
     2
 10
30.95874380694247
 20
6.695828600222572
 40
0.1580000000000021
 50
270.0
 51
360.0
 73
     1
 72
     1
 10
31.11674380694247
 20
6.695828600222572
 11
31.11674380694247
 21
10.12470360022255
 72
     2
 10
30.95874380694247
 20
10.12470360022255
 40
0.1580000000000012
 50
0.0
 51
90.0
 73
     1
 72
     1
 10
30.95874380694247
 20
10.28270360022256
 11
30.94099380694224
 21
10.28270360022256
 72
     2
 10
30.94099380694247
 20
10.47470360022256
 40
0.1920000000000055
 50
90.0000000000689
 51
270.000000000001
 73
     0
 72
     1
 10
30.94099380694247
 20
10.66670360022256
 11
30.95874380694247
 21
10.66670360022256
 72
     2
 10
30.95874380694247
 20
10.82470360022256
 40
0.1579999999999995
 50
270.0
 51
360.0
 73
     1
 72
     1
 10
31.11674380694247
 20
10.82470360022256
 11
31.11674380694247
 21
14.25357860022256
 72
     2
 10
30.95874380694247
 20
14.25357860022256
 40
0.1580000000000012
 50
0.0000000000006442
 51
90.0
 73
     1
 72
     1
 10
30.95874380694247
 20
14.41157860022256
 11
30.58857172638709
 21
14.41157860022256
 72
     2
 10
30.58857172638708
 20
14.60357860022256
 40
0.1919999999999948
 50
89.99999999999893
 51
177.8740235971713
 73
     0
 97
        1
330
D09
 92
       16
 93
       32
 72
     2
 10
30.58857172638708
 20
14.60357860022256
 40
0.272000000000002
 50
89.99999999999923
 51
177.8740235971724
 73
     0
 72
     2
 10
30.20133845124793
 20
14.58920360022256
 40
0.1154999999999973
 50
2.125976402827478
 51
90.0
 73
     1
 72
     1
 10
30.20133845124793
 20
14.70470360022256
 11
26.41214916263701
 21
14.70470360022256
 72
     2
 10
26.41214916263701
 20
14.58920360022256
 40
0.1154999999999973
 50
90.0
 51
177.8740235971724
 73
     1
 72
     2
 10
26.02491588749785
 20
14.60357860022256
 40
0.2720000000000028
 50
2.125976402827465
 51
90.0
 73
     0
 72
     1
 10
26.02491588749785
 20
14.33157860022256
 11
25.65474380694247
 21
14.33157860022256
 72
     2
 10
25.65474380694247
 20
14.25357860022256
 40
0.0779999999999994
 50
90.0
 51
180.0
 73
     1
 72
     1
 10
25.57674380694247
 20
14.25357860022256
 11
25.57674380694247
 21
10.82470360022256
 72
     2
 10
25.65474380694247
 20
10.82470360022256
 40
0.0779999999999994
 50
180.0
 51
270.0
 73
     1
 72
     1
 10
25.65474380694247
 20
10.74670360022256
 11
25.67249380694247
 21
10.74670360022256
 72
     2
 10
25.67249380694247
 20
10.47470360022256
 40
0.2720000000000038
 50
270.0
 51
450.0
 73
     0
 72
     1
 10
25.67249380694247
 20
10.20270360022256
 11
25.65474380694247
 21
10.20270360022256
 72
     2
 10
25.65474380694247
 20
10.12470360022255
 40
0.0779999999999994
 50
90.00000000000261
 51
180.0000000000013
 73
     1
 72
     1
 10
25.57674380694247
 20
10.12470360022255
 11
25.57674380694247
 21
6.695828600222572
 72
     2
 10
25.65474380694247
 20
6.69582860022257
 40
0.078000000000003
 50
179.9999999999986
 51
269.9999999999973
 73
     1
 72
     1
 10
25.65474380694247
 20
6.617828600222569
 11
26.02491588749785
 21
6.617828600222569
 72
     2
 10
26.02491588749785
 20
6.345828600222566
 40
0.2720000000000029
 50
270.0000000000007
 51
357.8740235971725
 73
     0
 72
     2
 10
26.41214916263701
 20
6.360203600222567
 40
0.1154999999999973
 50
182.1259764028279
 51
270.0
 73
     1
 72
     1
 10
26.41214916263701
 20
6.24470360022257
 11
30.20133845124793
 21
6.244703600222574
 72
     2
 10
30.20133845124793
 20
6.360203600222569
 40
0.1154999999999955
 50
269.9999999999982
 51
357.8740235971715
 73
     1
 72
     2
 10
30.58857172638708
 20
6.345828600222567
 40
0.2719999999999993
 50
182.1259764028276
 51
270.0000000000007
 73
     0
 72
     1
 10
30.58857172638709
 20
6.617828600222569
 11
30.95874380694247
 21
6.617828600222569
 72
     2
 10
30.95874380694247
 20
6.69582860022257
 40
0.0780000000000012
 50
270.0
 51
360.0000000000012
 73
     1
 72
     1
 10
31.03674380694247
 20
6.695828600222572
 11
31.03674380694247
 21
10.12470360022255
 72
     2
 10
30.95874380694247
 20
10.12470360022255
 40
0.0779999999999994
 50
359.9999999999987
 51
450.0
 73
     1
 72
     1
 10
30.95874380694247
 20
10.20270360022256
 11
30.94099380694247
 21
10.20270360022256
 72
     2
 10
30.94099380694247
 20
10.47470360022256
 40
0.2720000000000056
 50
90.0
 51
270.0
 73
     0
 72
     1
 10
30.94099380694247
 20
10.74670360022256
 11
30.95874380694247
 21
10.74670360022256
 72
     2
 10
30.95874380694247
 20
10.82470360022256
 40
0.0779999999999994
 50
269.9999999999973
 51
360.0
 73
     1
 72
     1
 10
31.03674380694247
 20
10.82470360022256
 11
31.03674380694247
 21
14.25357860022256
 72
     2
 10
30.95874380694247
 20
14.25357860022256
 40
0.0779999999999959
 50
0.0
 51
90.00000000000261
 73
     1
 72
     1
 10
30.95874380694247
 20
14.33157860022256
 11
30.58857172638709
 21
14.33157860022256
 97
        1
330
D2B
 75
     0
 76
     1
 52
0.0
 41
0.375
 77
     0
 78
     2
 53
0.0
 43
1.393074517405253
 44
-0.4490158758887617
 45
0.046875
 46
0.046875
 79
     2
 49
0.046875
 49
-0.046875
 53
90.0
 43
1.439949517405253
 44
-0.4490158758887617
 45
-0.046875
 46
0.046875
 79
     2
 49
0.046875
 49
-0.046875
 98
        1
 10
1.393074517405253
 20
-0.4490158758887617
  0
HATCH
  5
1123
330
1E
100
AcDbEntity
  8
OBJECT
 62
   241
100
AcDbHatch
 10
0.0
 20
0.0
 30
0.0
210
0.0
220
0.0
230
1.0
  2
ZIGZAG
 70
     0
 71
     1
 91
        1
 92
        7
 72
     0
 73
     1
 93
        4
 10
32.61045041211374
 20
6.473610214341849
 10
32.61045041211374
 20
6.553610214341846
 10
32.49545041211373
 20
6.553610214341845
 10
32.49545041211374
 20
6.473610214341849
 97
        3
330
D53
330
9EA
330
D4E
 75
     0
 76
     1
 52
0.0
 41
0.375
 77
     0
 78
     2
 53
0.0
 43
1.393074517405253
 44
-0.4490158758887617
 45
0.046875
 46
0.046875
 79
     2
 49
0.046875
 49
-0.046875
 53
90.0
 43
1.439949517405253
 44
-0.4490158758887617
 45
-0.046875
 46
0.046875
 79
     2
 49
0.046875
 49
-0.046875
 47
0.0017036148270829
 98
        1
 10
32.55840871605957
 20
6.49057649769243
  0
HATCH
  5
1129
330
1E
100
AcDbEntity
  8
OBJECT
 62
   241
100
AcDbHatch
 10
0.0
 20
0.0
 30
0.0
210
0.0
220
0.0
230
1.0
  2
ZIGZAG
 70
     0
 71
     0
 91
        1
 92
        7
 72
     0
 73
     1
 93
        5
 10
32.61045041211373
 20
14.72048521434184
 10
32.49545041211374
 20
14.72048521434184
 10
32.49545041211374
 20
14.64048521434184
 10
32.61016903787517
 20
14.64048521434184
 10
32.61045041211373
 20
14.64076658858041
 97
        0
 75
     0
 76
     1
 52
0.0
 41
0.375
 77
     0
 78
     2
 53
0.0
 43
1.393074517405253
 44
-0.4490158758887617
 45
0.046875
 46
0.046875
 79
     2
 49
0.046875
 49
-0.046875
 53
90.0
 43
1.439949517405253
 44
-0.4490158758887617
 45
-0.046875
 46
0.046875
 79
     2
 49
0.046875
 49
-0.046875
 47
0.002120446496587
 98
        1
 10
32.56039206847058
 20
14.68228862913926
  0
HATCH
  5
112E
330
1E
100
AcDbEntity
  8
OBJECT
 62
   241
100
AcDbHatch
 10
0.0
 20
0.0
 30
0.0
210
0.0
220
0.0
230
1.0
  2
ZIGZAG
 70
     0
 71
     1
 91
        1
 92
        7
 72
     0
 73
     1
 93
        4
 10
32.49545041211373
 20
10.21848521434184
 10
32.49545041211373
 20
10.13848521434184
 10
32.61045041211374
 20
10.13848521434184
 10
32.61045041211374
 20
10.21848521434184
 97
        3
330
D5C
330
9EA
330
D57
 75
     0
 76
     1
 52
0.0
 41
0.375
 77
     0
 78
     2
 53
0.0
 43
1.393074517405253
 44
-0.4490158758887617
 45
0.046875
 46
0.046875
 79
     2
 49
0.046875
 49
-0.046875
 53
90.0
 43
1.439949517405253
 44
-0.4490158758887617
 45
-0.046875
 46
0.046875
 79
     2
 49
0.046875
 49
-0.046875
 47
0.0021961767578836
 98
        1
 10
32.56444684001826
 20
10.18516241372916
  0
HATCH
  5
1134
330
1E
100
AcDbEntity
  8
OBJECT
 62
   241
100
AcDbHatch
 10
0.0
 20
0.0
 30
0.0
210
0.0
220
0.0
230
1.0
  2
ZIGZAG
 70
     0
 71
     1
 91
        1
 92
        7
 72
     0
 73
     1
 93
        4
 10
32.49545041211373
 20
10.68248521434185
 10
32.49545041211374
 20
10.60248521434185
 10
32.61045041211374
 20
10.60248521434185
 10
32.61045041211374
 20
10.68248521434184
 97
        3
330
D6E
330
9EA
330
D69
 75
     0
 76
     1
 52
0.0
 41
0.375
 77
     0
 78
     2
 53
0.0
 43
1.393074517405253
 44
-0.4490158758887617
 45
0.046875
 46
0.046875
 79
     2
 49
0.046875
 49
-0.046875
 53
90.0
 43
1.439949517405253
 44
-0.4490158758887617
 45
-0.046875
 46
0.046875
 79
     2
 49
0.046875
 49
-0.046875
 47
0.0021961767578836
 98
        1
 10
32.56444684001826
 20
10.65294807453194
  0
LINE
  5
1135
102
{ACAD_REACTORS
330
1177
102
}
330
1E
100
AcDbEntity
  8
OBJECT
100
AcDbLine
 10
32.87545041211373
 20
6.128985214341838
 30
0.0
 11
32.87545041211374
 21
6.441485214341838
 31
0.0
  0
LINE
  5
1136
102
{ACAD_REACTORS
330
1177
102
}
330
1E
100
AcDbEntity
  8
OBJECT
100
AcDbLine
 10
32.87545041211375
 20
10.25423521434184
 30
0.0
 11
32.87545041211375
 21
10.56673521434184
 31
0.0
  0
HATCH
  5
1177
330
1E
100
AcDbEntity
  8
OBJECT
 62
   151
100
AcDbHatch
 10
0.0
 20
0.0
 30
0.0
210
0.0
220
0.0
230
1.0
  2
ANSI31
 70
     0
 71
     1
 91
        4
 92
        7
 72
     1
 73
     1
 93
        7
 10
32.87545041211373
 20
6.128985214341825
 42
0.0
 10
32.87545041211373
 20
6.199297714341838
 42
0.0
 10
32.49545041211373
 20
6.199297714341838
 42
0.0
 10
32.49545041211373
 20
6.040485214341849
 42
0.0
 10
33.81295041211373
 20
6.040485214341849
 42
0.4142135623731284
 10
33.87545041211374
 20
6.102985214341849
 42
0.0
 10
33.87545041211374
 20
6.128985214341839
 42
0.0
 97
        7
330
9E8
330
9F1
330
1135
330
9F0
330
9EA
330
9E9
330
9EB
 92
        7
 72
     1
 73
     1
 93
       12
 10
32.49545041211373
 20
6.593610214341854
 42
0.0
 10
32.49545041211373
 20
6.553610214341845
 42
0.0
 10
32.61045041211374
 20
6.553610214341846
 42
0.0
 10
32.61045041211374
 20
6.473610214341849
 42
0.0
 10
32.49545041211373
 20
6.473610214341849
 42
0.0
 10
32.49545041211372
 20
6.371172714341837
 42
0.0
 10
32.87545041211374
 20
6.371172714341837
 42
0.0
 10
32.87545041211374
 20
6.441485214341838
 42
0.0
 10
33.87545041211374
 20
6.441485214341838
 42
0.0
 10
33.87545041211374
 20
7.031860295461182
 42
0.0427118315356918
 10
33.75545041211373
 20
7.145912170875874
 42
0.0
 10
33.75545041211373
 20
6.593610214341854
 42
0.0
 97
       10
330
CC0
330
A12
330
9EC
330
9EA
330
D53
330
D4E
330
9EF
330
1135
330
9F2
330
9E8
 92
        7
 72
     1
 73
     1
 93
       12
 10
32.87545041211375
 20
10.25423521434184
 42
0.0
 10
32.87545041211375
 20
10.32454771434184
 42
0.0
 10
32.49545041211374
 20
10.32454771434185
 42
0.0
 10
32.49545041211373
 20
10.21848521434184
 42
0.0
 10
32.61045041211374
 20
10.21848521434184
 42
0.0
 10
32.61045041211374
 20
10.13848521434184
 42
0.0
 10
32.49545041211373
 20
10.13848521434184
 42
0.0
 10
32.49545041211374
 20
10.09848521434184
 42
0.0
 10
33.75545041211373
 20
10.09848521434185
 42
0.0
 10
33.75545041211373
 20
7.145912170875874
 42
-0.0427118315356918
 10
33.87545041211374
 20
7.031860295461182
 42
0.0
 10
33.87545041211373
 20
10.25423521434184
 42
0.0
 97
       10
330
9FE
330
1136
330
9FF
330
9EA
330
D5C
330
D57
330
9EE
330
A12
330
CC0
330
9E8
 92
        7
 72
     1
 73
     1
 93
       19
 10
32.49545041211373
 20
10.72248521434184
 42
0.0
 10
32.49545041211373
 20
10.68248521434185
 42
0.0
 10
32.61045041211374
 20
10.68248521434185
 42
0.0
 10
32.61045041211373
 20
10.60248521434185
 42
0.0
 10
32.49545041211373
 20
10.60248521434184
 42
0.0
 10
32.49545041211373
 20
10.49642271434184
 42
0.0
 10
32.87545041211374
 20
10.49642271434184
 42
0.0
 10
32.87545041211375
 20
10.56673521434184
 42
0.0
 10
33.87545041211374
 20
10.56673521434184
 42
0.0
 10
33.87545041211374
 20
14.71798521434183
 42
0.4142135623731284
 10
33.81295041211373
 20
14.78048521434183
 42
0.0
 10
32.49545041211374
 20
14.78048521434183
 42
0.0
 10
32.49545041211374
 20
14.72048521434184
 42
0.0
 10
32.61045041211374
 20
14.72048521434184
 42
0.0
 10
32.61045041211373
 20
14.64048521434184
 42
0.0
 10
32.49545041211374
 20
14.64048521434184
 42
0.0
 10
32.49545041211372
 20
14.60048521434183
 42
0.0
 10
33.75545041211373
 20
14.60048521434184
 42
0.0
 10
33.75545041211372
 20
10.72248521434184
 42
0.0
 97
       14
330
9F7
330
9F8
330
9EA
330
D65
330
D60
330
A01
330
A13
330
9ED
330
D6E
330
D69
330
A00
330
1136
330
9FD
330
9E8
 75
     0
 76
     1
 52
0.0
 41
1.0
 77
     0
 78
     1
 53
45.0
 43
1.393074517405253
 44
-0.4490158758887617
 45
-0.0883883476483184
 46
0.0883883476483185
 79
     0
 47
0.0177208742782681
 98
        4
 10
32.86151149959397
 20
6.09304144135774
 10
33.02112834500027
 20
6.518342431925951
 10
33.30489156339649
 20
10.20428425096385
 10
33.2339507307507
 20
10.64730611365858
  0
LEADER
  5
11C5
330
1E
100
AcDbEntity
  8
DIM
100
AcDbLeader
  3
23NSTD
 73
     0
 74
     0
 75
     1
 40
0.3125
 41
2.96875
 76
     3
 10
33.80400567830087
 20
5.671186670828257
 30
0.0
 10
34.53590821279441
 20
5.001617290777005
 30
0.0
 10
34.98590821279441
 20
5.001617290777005
 30
0.0
340
11C6
213
0.0
223
-0.15625
233
0.0
1001
ACAD
1000
DSTYLE
1002
{
1070
   147
1040
0.09
1070
    77
1070
     0
1002
}
  0
MTEXT
  5
11C6
102
{ACAD_REACTORS
330
11C5
102
}
330
1E
100
AcDbEntity
  8
DIM
100
AcDbMText
 10
35.21090821279441
 20
5.157867290777005
 30
0.0
 40
0.3125
 41
0.0
 71
     1
 72
     1
  1
\A1;SEE DETAIL "C"
 73
     1
 44
1.0
  0
LINE
  5
1374
102
{ACAD_REACTORS
330
139A
102
}
330
1E
100
AcDbEntity
  8
OBJECT
100
AcDbLine
 10
29.87956140191385
 20
19.46217110068724
 30
0.0
 11
33.87956140191388
 21
19.46217110068724
 31
0.0
  0
LINE
  5
1375
102
{ACAD_REACTORS
330
139A
102
}
330
1E
100
AcDbEntity
  8
OBJECT
100
AcDbLine
 10
28.35956140191384
 20
19.10817110068728
 30
0.0
 11
33.62956140191385
 21
19.10817110068728
 31
0.0
  0
LINE
  5
1376
102
{ACAD_REACTORS
330
139A
102
}
330
1E
100
AcDbEntity
  8
OBJECT
100
AcDbLine
 10
33.39956140191383
 20
21.3206711006873
 30
0.0
 11
28.35956140191384
 21
21.3206711006873
 31
0.0
  0
LINE
  5
1377
102
{ACAD_REACTORS
330
139A
102
}
330
1E
100
AcDbEntity
  8
OBJECT
100
AcDbLine
 10
29.87956140191391
 20
20.71217110068724
 30
0.0
 11
33.87956140191388
 21
20.71217110068724
 31
0.0
  0
LINE
  5
1378
102
{ACAD_REACTORS
330
139A
102
}
330
1E
100
AcDbEntity
  8
OBJECT
100
AcDbLine
 10
29.87956140191385
 20
19.46217110068724
 30
0.0
 11
29.87956140191388
 21
20.71217110068724
 31
0.0
  0
LINE
  5
1379
102
{ACAD_REACTORS
330
139A
102
}
330
1E
100
AcDbEntity
  8
OBJECT
100
AcDbLine
 10
28.35956140191384
 20
19.74342110068724
 30
0.0
 11
29.87956140191388
 21
19.74342110068724
 31
0.0
  0
LINE
  5
137A
102
{ACAD_REACTORS
330
139A
102
}
330
1E
100
AcDbEntity
  8
OBJECT
100
AcDbLine
 10
28.35956140191384
 20
20.43092110068724
 30
0.0
 11
29.87956140191388
 21
20.43092110068724
 31
0.0
  0
LWPOLYLINE
  5
137B
102
{ACAD_REACTORS
330
137D
330
139A
102
}
330
1E
100
AcDbEntity
  8
OBJECT
100
AcDbPolyline
 90
        2
 70
     0
 43
0.0
 10
28.35956140191388
 20
21.16067110068726
 10
28.81956140191388
 20
21.16067110068726
  0
LWPOLYLINE
  5
137C
102
{ACAD_REACTORS
330
137D
330
139A
102
}
330
1E
100
AcDbEntity
  8
OBJECT
100
AcDbPolyline
 90
        3
 70
     0
 43
0.0
 10
28.81956140191388
 20
21.16067110068726
 10
28.81956140191388
 20
20.84067110068728
 10
28.35956140191388
 20
20.84067110068728
  0
HATCH
  5
137D
330
1E
100
AcDbEntity
  8
OBJECT
 62
   241
100
AcDbHatch
 10
0.0
 20
0.0
 30
0.0
210
0.0
220
0.0
230
1.0
  2
ZIGZAG
 70
     0
 71
     1
 91
        1
 92
        7
 72
     0
 73
     1
 93
        4
 10
28.81956140191388
 20
20.84067110068728
 10
28.81956140191389
 20
21.16067110068727
 10
28.35956140191385
 20
21.16067110068726
 10
28.35956140191385
 20
20.84067110068728
 97
        3
330
137B
330
1381
330
137C
 75
     0
 76
     1
 52
0.0
 41
1.0
 77
     0
 78
     2
 53
0.0
 43
0.0
 44
-0.4490158758887617
 45
0.125
 46
0.125
 79
     2
 49
0.125
 49
-0.125
 53
90.0
 43
0.125
 44
-0.4490158758887617
 45
-0.125
 46
0.125
 79
     2
 49
0.125
 49
-0.125
 47
0.0017036148270829
 98
        1
 10
28.61139461769721
 20
20.9085362340896
  0
ARC
  5
137E
102
{ACAD_REACTORS
330
139A
102
}
330
1E
100
AcDbEntity
  8
OBJECT
100
AcDbCircle
 10
33.62956140191385
 20
19.35817110068728
 30
0.0
 40
0.25
100
AcDbArc
 50
270.0
 51
0.0
  0
LINE
  5
1380
102
{ACAD_REACTORS
330
139A
102
}
330
1E
100
AcDbEntity
  8
OBJECT
100
AcDbLine
 10
33.87956140191388
 20
19.35817110068728
 30
0.0
 11
33.87956140191388
 21
22.46789926906747
 31
0.0
  0
LINE
  5
1381
102
{ACAD_REACTORS
330
137D
330
139A
102
}
330
1E
100
AcDbEntity
  8
OBJECT
100
AcDbLine
 10
28.35956140191384
 20
19.10817110068728
 30
0.0
 11
28.35956140191384
 21
22.67318741121329
 31
0.0
  0
LINE
  5
1383
102
{ACAD_REACTORS
330
139A
102
}
330
1E
100
AcDbEntity
  8
OBJECT
100
AcDbLine
 10
33.39956140191383
 20
21.3206711006873
 30
0.0
 11
33.39956140191383
 21
22.68326187888199
 31
0.0
  0
SPLINE
  5
1384
102
{ACAD_REACTORS
330
139A
102
}
330
1E
100
AcDbEntity
  8
OBJECT
100
AcDbSpline
210
0.0
220
0.0
230
1.0
 70
     8
 71
     3
 72
    13
 73
     9
 74
     0
 42
0.0000000001
 43
0.0000000001
 40
0.6879854949196782
 40
0.6879854949196782
 40
0.6879854949196782
 40
0.6879854949196782
 40
1.041854378745477
 40
2.227134538436822
 40
3.742960493093577
 40
4.899051288136569
 40
6.032487754959827
 40
6.728826747257922
 40
6.728826747257922
 40
6.728826747257922
 40
6.728826747257922
 10
28.35956140191383
 20
22.67318741121328
 30
0.0
 10
28.45346899875721
 20
22.73358869548441
 30
0.0
 10
28.86923326303474
 20
22.88252980729276
 30
0.0
 10
29.79008334393443
 20
21.69073135382908
 30
0.0
 10
31.04897197798237
 20
23.18904816191153
 30
0.0
 10
32.19891405812279
 20
21.84687798106783
 30
0.0
 10
33.13297521417895
 20
22.87055029527675
 30
0.0
 10
33.67497021330731
 20
22.61405674417294
 30
0.0
 10
33.87956140191387
 20
22.46789926906747
 30
0.0
  0
HATCH
  5
139A
330
1E
100
AcDbEntity
  8
OBJECT
 62
   151
100
AcDbHatch
 10
0.0
 20
0.0
 30
0.0
210
0.0
220
0.0
230
1.0
  2
ANSI31
 70
     0
 71
     1
 91
        2
 92
        7
 72
     1
 73
     1
 93
        7
 10
33.62956140191385
 20
19.10817110068728
 42
0.4142135623731284
 10
33.87956140191388
 20
19.35817110068728
 42
0.0
 10
33.87956140191388
 20
19.46217110068724
 42
0.0
 10
29.87956140191385
 20
19.46217110068724
 42
0.0
 10
29.87956140191386
 20
19.74342110068724
 42
0.0
 10
28.35956140191384
 20
19.74342110068724
 42
0.0
 10
28.35956140191384
 20
19.10817110068728
 42
0.0
 97
        7
330
1380
330
1374
330
1378
330
1379
330
1381
330
1375
330
137E
 92
        5
 93
       12
 72
     1
 10
29.87956140191387
 20
20.71217110068724
 11
33.87956140191389
 21
20.71217110068724
 72
     1
 10
33.87956140191389
 20
20.71217110068724
 11
33.87956140191388
 21
22.46789926906747
 72
     4
 94
        3
 73
     0
 74
     0
 95
        8
 96
        4
 40
6.189115923566827
 40
6.189115923566827
 40
6.189115923566827
 40
6.189115923566827
 40
6.728826747257922
 40
6.728826747257922
 40
6.728826747257922
 40
6.728826747257922
 10
33.87956140191387
 20
22.46789926906747
 10
33.7209890971254
 20
22.58118140916054
 10
33.56141337591199
 20
22.66530020578419
 10
33.39956140182543
 20
22.6832618788918
 72
     1
 10
33.39956140191383
 20
22.6832618788706
 11
33.39956140191383
 21
21.3206711006873
 72
     1
 10
33.39956140191383
 20
21.3206711006873
 11
28.35956140191384
 21
21.3206711006873
 72
     1
 10
28.35956140191384
 20
21.3206711006873
 11
28.35956140191384
 21
21.16067110068726
 72
     1
 10
28.35956140191384
 20
21.16067110068726
 11
28.81956140191388
 21
21.16067110068726
 72
     1
 10
28.81956140191388
 20
21.16067110068726
 11
28.81956140191389
 21
20.84067110068728
 72
     1
 10
28.81956140191389
 20
20.84067110068728
 11
28.35956140191385
 21
20.84067110068728
 72
     1
 10
28.35956140191385
 20
20.84067110068728
 11
28.35956140191385
 21
20.43092110068724
 72
     1
 10
28.35956140191385
 20
20.43092110068724
 11
29.87956140191387
 21
20.43092110068724
 72
     1
 10
29.87956140191387
 20
20.43092110068724
 11
29.87956140191387
 21
20.71217110068724
 97
       10
330
1384
330
1383
330
1376
330
1381
330
137B
330
137C
330
137A
330
1378
330
1377
330
1380
 75
     0
 76
     1
 52
0.0
 41
3.0
 77
     0
 78
     1
 53
45.0
 43
0.0
 44
-0.4490158758887617
 45
-0.2651650429449553
 46
0.2651650429449553
 79
     0
 47
0.0101478511200849
 98
        2
 10
29.31749359936772
 20
19.30204573155885
 10
29.80498432277402
 20
20.99673689976226
  0
DIMENSION
  5
14A3
330
1E
100
AcDbEntity
  8
DIM
100
AcDbDimension
  2
*D55
 10
33.87946531511607
 20
18.53090386548533
 30
0.0
 11
31.87951335851496
 21
18.53090386548533
 31
0.0
 70
    32
 71
     5
 42
0.9999759783005544
  3
23NSTD4
100
AcDbAlignedDimension
 13
29.87956140191385
 23
19.46217110068724
 33
0.0
 14
33.87946531511607
 24
19.35124043216115
 34
0.0
100
AcDbRotatedDimension
  0
LEADER
  5
14B2
330
1E
100
AcDbEntity
  8
DIM
100
AcDbLeader
  3
23NSTD4
 73
     0
 75
     1
 40
0.8333333333333332
 41
3.28125
 76
     3
 10
28.35956140191384
 20
21.08766673976484
 30
0.0
 10
27.15259036081926
 20
23.08599514972596
 30
0.0
 10
26.70259036081926
 20
23.08599514972596
 30
0.0
340
14B3
213
0.0
223
-0.15625
233
0.0
1001
ACAD
1000
DSTYLE
1002
{
1070
   147
1040
0.09
1070
    77
1070
     0
1002
}
  0
MTEXT
  5
14B3
102
{ACAD_REACTORS
330
14B2
102
}
330
1E
100
AcDbEntity
  8
DIM
100
AcDbMText
 10
26.47759036081926
 20
23.24224514972596
 30
0.0
 40
0.3125
 41
0.0
 71
     3
 72
     1
  1
\A1;SILICONE GASKET\P(CLEAR)
 73
     1
 44
1.0
  0
HATCH
  5
14BF
330
1E
100
AcDbEntity
  8
OBJECT
 62
   241
100
AcDbHatch
 10
0.0
 20
0.0
 30
0.0
210
0.0
220
0.0
230
1.0
  2
ANSI32
 70
     0
 71
     1
 91
        2
 92
        7
 72
     0
 73
     1
 93
        4
 10
17.50870798671765
 20
14.72495360022257
 10
17.50870798671765
 20
14.66245360022258
 10
17.84070255419145
 20
14.66245360022257
 10
17.84070255419145
 20
14.72495360022257
 97
        4
330
C4C
330
BC7
330
C4B
330
C50
 92
        7
 72
     0
 73
     1
 93
        4
 10
17.50870798671765
 20
14.53745360022257
 10
17.50870798671765
 20
14.47495360022258
 10
17.84070255419145
 20
14.47495360022258
 10
17.84070255419145
 20
14.53745360022257
 97
        4
330
C4D
330
BC7
330
C4E
330
C50
 75
     0
 76
     1
 52
90.0
 41
0.25
 77
     0
 78
     2
 53
135.0
 43
0.4044409963581757
 44
-0.4490158758887617
 45
-0.0662912607362388
 46
-0.0662912607362388
 79
     0
 53
135.0
 43
0.4044409963581757
 44
-0.4048217021387617
 45
-0.0662912607362388
 46
-0.0662912607362388
 79
     0
 47
0.0026504326675764
 98
        2
 10
17.68104273598749
 20
14.69459985551727
 10
17.66247464216323
 20
14.51437044201524
  0
HATCH
  5
14CA
330
1E
100
AcDbEntity
  8
OBJECT
 62
   241
100
AcDbHatch
 10
0.0
 20
0.0
 30
0.0
210
0.0
220
0.0
230
1.0
  2
ANSI32
 70
     0
 71
     0
 91
        2
 92
        7
 72
     0
 73
     1
 93
        4
 10
18.97920798671765
 20
6.995953600222565
 10
18.79170798671765
 20
6.995953600222564
 10
18.79170798671765
 20
6.964703600222565
 10
18.97920798671765
 20
6.964703600222557
 97
        0
 92
        7
 72
     0
 73
     1
 93
        4
 10
18.97920798671765
 20
6.839703600222565
 10
18.79170798671765
 20
6.839703600222565
 10
18.79170798671765
 20
6.808453600222565
 10
18.97920798671765
 20
6.808453600222565
 97
        0
 75
     0
 76
     1
 52
90.0
 41
0.25
 77
     0
 78
     2
 53
135.0
 43
0.4129409963581665
 44
-0.4390158758887646
 45
-0.0662912607362388
 46
-0.0662912607362388
 79
     0
 53
135.0
 43
0.4129409963581665
 44
-0.3948217021387645
 45
-0.0662912607362388
 46
-0.0662912607362388
 79
     0
 47
0.0021203461130127
 98
        2
 10
18.93094809163313
 20
6.985214772767746
 10
18.86516411290347
 20
6.81770740889653
  0
INSERT
  5
14EC
330
1E
100
AcDbEntity
  8
OBJECT
100
AcDbBlockReference
  2
HBS
 10
0.0
 20
0.0
 30
0.0
 41
2.5
 42
2.5
 43
2.5
  0
TEXT
  5
14ED
330
1E
100
AcDbEntity
  8
TEXT
100
AcDbText
 10
7.323593750000014
 20
24.9471875
 30
0.0
 40
0.390625
  1
NEMA 4X ENCLOSURE
 41
0.75
 72
     4
 11
9.765000000000014
 21
25.1425
 31
0.0
100
AcDbText
  0
TEXT
  5
14EF
330
1E
100
AcDbEntity
  8
TEXT
100
AcDbText
 10
38.23534047881253
 20
24.94718750000001
 30
0.0
 40
0.390625
  1
11-17-08
 41
0.75
 72
     4
 11
39.18748891631253
 21
25.14250000000001
 31
0.0
100
AcDbText
  0
LEADER
  5
199D
330
1E
100
AcDbEntity
  8
DIM
100
AcDbLeader
  3
23NSTD
 73
     0
 74
     0
 75
     1
 40
2.395833333333333
 41
4.6875
 76
     3
 10
11.19547022590471
 20
6.770893245477845
 30
0.0
 10
11.80953890869682
 20
4.573148281091
 30
0.0
 10
12.25953890869682
 20
4.573148281091
 30
0.0
340
199E
213
0.0
223
-0.15625
233
0.0
1001
ACAD
1000
DSTYLE
1002
{
1070
   147
1040
0.09
1070
    77
1070
     0
1002
}
  0
MTEXT
  5
199E
102
{ACAD_REACTORS
330
199D
102
}
330
1E
100
AcDbEntity
  8
DIM
100
AcDbMText
 10
12.48453890869682
 20
4.729398281091
 30
0.0
 40
0.3125
 41
0.0
 71
     1
 72
     1
  1
\A1;0.315 DIA. BOSS\PWITH M3 x 0.188 LG.\PTHREADED INSERT\P(4) PLACES\P(SCREWS NOT SUPPLIED)
 73
     1
 44
1.0
  0
LEADER
  5
199F
330
1E
100
AcDbEntity
  8
DIM
100
AcDbLeader
  3
23NSTD
 73
     0
 74
     0
 75
     1
 40
1.354166666666666
 41
3.359375
 76
     3
 10
11.54844764735398
 20
14.74137641812401
 30
0.0
 10
12.6460333676069
 20
17.65485034851553
 30
0.0
 10
13.0960333676069
 20
17.65485034851553
 30
0.0
340
19A0
213
0.0
223
-0.15625
233
0.0
1001
ACAD
1000
DSTYLE
1002
{
1070
   147
1040
0.09
1070
    77
1070
     0
1002
}
  0
MTEXT
  5
19A0
102
{ACAD_REACTORS
330
199F
102
}
330
1E
100
AcDbEntity
  8
DIM
100
AcDbMText
 10
13.3210333676069
 20
17.81110034851553
 30
0.0
 40
0.3125
 41
0.0
 71
     1
 72
     1
  1
\A1;M4 x 0.315 LG.\PTHREADED INSERT\P(6) PLACES
 73
     1
 44
1.0
  0
LEADER
  5
19CB
330
1E
100
AcDbEntity
  8
DIM
100
AcDbLeader
  3
23NSTD
 73
     0
 74
     0
 75
     1
 40
2.916666666666666
 41
9.0234375
 76
     3
 10
9.682411865703365
 20
13.87566794903552
 30
0.0
 10
13.24840209519714
 20
21.26614343545186
 30
0.0
 10
13.69840209519714
 20
21.26614343545186
 30
0.0
340
19CC
213
0.0
223
-0.15625
233
0.0
1001
ACAD
1000
DSTYLE
1002
{
1070
   147
1040
0.09
1070
    77
1070
     0
1002
}
  0
MTEXT
  5
19CC
102
{ACAD_REACTORS
330
19CB
102
}
330
1E
100
AcDbEntity
  8
DIM
100
AcDbMText
 10
13.92340209519714
 20
21.42239343545186
 30
0.0
 40
0.3125
 41
0.0
 71
     1
 72
     1
  1
\A1;0.315 DIA. BOSS WITH\P0.090 DIA. HOLE x 0.190 DEEP\P(4) PLACES\PMOUNTING BOSSES USE EITHER M2.5 METRIC\POR #4 STD. SHEET METAL SCREWS x 0.188 LG.\P(NOT SUPPLIED)
 73
     1
 44
1.0
  0
CIRCLE
  5
1CEE
330
1E
100
AcDbEntity
  8
OBJECT
100
AcDbCircle
 10
6.551784611796904
 20
14.04720360022255
 30
0.0
 40
0.09375
  0
LINE
  5
1CEF
330
1E
100
AcDbEntity
  8
OBJECT
100
AcDbLine
 10
6.504784588343449
 20
13.81428864340508
 30
0.0
 11
6.59878471524931
 21
13.81428864340508
 31
0.0
  0
LINE
  5
1CF0
330
1E
100
AcDbEntity
  8
OBJECT
100
AcDbLine
 10
6.598784672205038
 20
13.84928862574896
 30
0.0
 11
6.504784598101916
 21
13.84928862574896
 31
0.0
  0
LINE
  5
1CF1
330
1E
100
AcDbEntity
  8
OBJECT
100
AcDbLine
 10
6.504784598101916
 20
14.24511861308717
 30
0.0
 11
6.598784672205038
 21
14.24511861308717
 31
0.0
  0
LINE
  5
1CF2
330
1E
100
AcDbEntity
  8
OBJECT
100
AcDbLine
 10
6.598784715249276
 20
14.28011859543105
 30
0.0
 11
6.504784588343456
 21
14.28011859543105
 31
0.0
  0
CIRCLE
  5
1CF3
330
1E
100
AcDbEntity
  8
OBJECT
100
AcDbCircle
 10
6.551784611796904
 20
14.04720360022255
 30
0.0
 40
0.0590000000000011
  0
CIRCLE
  5
1CF4
330
1E
100
AcDbEntity
  8
OBJECT
100
AcDbCircle
 10
6.551784611796904
 20
14.04720360022255
 30
0.0
 40
0.1559553444010344
  0
LINE
  5
1CF5
330
1E
100
AcDbEntity
  8
OBJECT
100
AcDbLine
 10
6.504784588343449
 20
13.81428864340508
 30
0.0
 11
6.504784611796904
 21
13.89840744067363
 31
0.0
  0
LINE
  5
1CF6
330
1E
100
AcDbEntity
  8
OBJECT
100
AcDbLine
 10
6.504784611796905
 20
14.19599975977148
 30
0.0
 11
6.504784588343456
 21
14.28011859543105
 31
0.0
  0
LINE
  5
1CF7
330
1E
100
AcDbEntity
  8
OBJECT
100
AcDbLine
 10
6.353869568151886
 20
14.00020365569899
 30
0.0
 11
6.353869568151886
 21
14.09420358313714
 31
0.0
  0
LINE
  5
1CF8
330
1E
100
AcDbEntity
  8
OBJECT
100
AcDbLine
 10
6.318869585808002
 20
14.09420357096282
 30
0.0
 11
6.318869585808002
 21
14.00020369522909
 31
0.0
  0
LINE
  5
1CF9
330
1E
100
AcDbEntity
  8
OBJECT
100
AcDbLine
 10
6.402988452247974
 20
14.00020360022256
 30
0.0
 11
6.318869585808002
 21
14.00020369522909
 31
0.0
  0
LINE
  5
1CFA
330
1E
100
AcDbEntity
  8
OBJECT
100
AcDbLine
 10
6.318869585808002
 20
14.09420357096282
 30
0.0
 11
6.402988452247975
 21
14.09420360022256
 31
0.0
  0
LINE
  5
1CFB
330
1E
100
AcDbEntity
  8
OBJECT
100
AcDbLine
 10
18.79170805276148
 20
14.20315894462359
 30
0.0
 11
18.79170805276148
 21
13.90095360022256
 31
0.0
  0
LINE
  5
1CFE
330
1E
100
AcDbEntity
  8
OBJECT
100
AcDbLine
 10
6.598784611796904
 20
13.89840744067363
 30
0.0
 11
6.59878471524931
 21
13.81428864340508
 31
0.0
  0
LINE
  5
1D01
330
1E
100
AcDbEntity
  8
OBJECT
100
AcDbLine
 10
18.96870798671765
 20
14.28011859959211
 30
0.0
 11
18.80170806258169
 21
14.24511861724823
 31
0.0
  0
LINE
  5
1D04
330
1E
100
AcDbEntity
  8
OBJECT
100
AcDbLine
 10
18.80170806258169
 20
14.19599978467318
 30
0.0
 11
18.96870798671765
 21
14.19599975977148
 31
0.0
  0
LINE
  5
1D05
330
1E
100
AcDbEntity
  8
OBJECT
100
AcDbLine
 10
18.80170806258169
 20
14.09420366063069
 30
0.0
 11
18.96870798671765
 21
14.09420370367496
 31
0.0
  0
LINE
  5
1D06
330
1E
100
AcDbEntity
  8
OBJECT
100
AcDbLine
 10
18.80170806258169
 20
14.00020358652757
 30
0.0
 11
18.96870798671765
 21
14.0002035767691
 31
0.0
  0
LINE
  5
1D09
330
1E
100
AcDbEntity
  8
OBJECT
100
AcDbLine
 10
18.80170806258169
 20
14.24511861724823
 30
0.0
 11
18.80170806258169
 21
14.19599978467318
 31
0.0
  0
LINE
  5
1D0A
330
1E
100
AcDbEntity
  8
OBJECT
100
AcDbLine
 10
6.598784715249276
 20
14.28011859543105
 30
0.0
 11
6.598784611796904
 21
14.19599975977148
 31
0.0
  0
LINE
  5
1D0B
330
1E
100
AcDbEntity
  8
OBJECT
100
AcDbLine
 10
6.700580771345833
 20
14.09420360022255
 30
0.0
 11
6.784699611166465
 21
14.09420357096282
 31
0.0
  0
LINE
  5
1D0C
330
1E
100
AcDbEntity
  8
OBJECT
100
AcDbLine
 10
6.784699611166466
 20
14.00020369522911
 30
0.0
 11
6.700580771345832
 21
14.00020360022256
 31
0.0
  0
LINE
  5
1D0D
330
1E
100
AcDbEntity
  8
OBJECT
100
AcDbLine
 10
6.749699628822581
 20
14.09420358313714
 30
0.0
 11
6.749699628822581
 21
14.00020365569899
 31
0.0
  0
LINE
  5
1D0E
330
1E
100
AcDbEntity
  8
OBJECT
100
AcDbLine
 10
18.80170806258169
 20
14.09420366063069
 30
0.0
 11
18.80170806258169
 21
14.00020358652757
 31
0.0
  0
LINE
  5
1D0F
330
1E
100
AcDbEntity
  8
OBJECT
100
AcDbLine
 10
6.784699611166466
 20
14.00020369522911
 30
0.0
 11
6.784699611166465
 21
14.09420357096282
 31
0.0
  0
LINE
  5
1D10
330
1E
100
AcDbEntity
  8
OBJECT
100
AcDbLine
 10
18.80170806258169
 20
14.20324620762855
 30
0.0
 11
18.79170805276148
 21
14.20315894462359
 31
0.0
  0
CIRCLE
  5
1D3A
330
1E
100
AcDbEntity
  8
OBJECT
100
AcDbCircle
 10
6.551784611796907
 20
6.902203600222566
 30
0.0
 40
0.09375
  0
LINE
  5
1D3B
330
1E
100
AcDbEntity
  8
OBJECT
100
AcDbLine
 10
6.504784588343452
 20
6.66928864340509
 30
0.0
 11
6.598784715249314
 21
6.66928864340509
 31
0.0
  0
LINE
  5
1D3C
330
1E
100
AcDbEntity
  8
OBJECT
100
AcDbLine
 10
6.598784672205042
 20
6.704288625748974
 30
0.0
 11
6.504784598101919
 21
6.704288625748974
 31
0.0
  0
LINE
  5
1D3D
330
1E
100
AcDbEntity
  8
OBJECT
100
AcDbLine
 10
6.504784598101919
 20
7.100118613087182
 30
0.0
 11
6.598784672205042
 21
7.100118613087182
 31
0.0
  0
LINE
  5
1D3E
330
1E
100
AcDbEntity
  8
OBJECT
100
AcDbLine
 10
6.59878471524928
 20
7.135118595431067
 30
0.0
 11
6.50478458834346
 21
7.135118595431067
 31
0.0
  0
CIRCLE
  5
1D3F
330
1E
100
AcDbEntity
  8
OBJECT
100
AcDbCircle
 10
6.551784611796907
 20
6.902203600222566
 30
0.0
 40
0.0590000000000011
  0
CIRCLE
  5
1D40
330
1E
100
AcDbEntity
  8
OBJECT
100
AcDbCircle
 10
6.551784611796907
 20
6.902203600222566
 30
0.0
 40
0.1559553444010344
  0
LINE
  5
1D41
330
1E
100
AcDbEntity
  8
OBJECT
100
AcDbLine
 10
6.504784588343452
 20
6.66928864340509
 30
0.0
 11
6.504784611796908
 21
6.753407440673639
 31
0.0
  0
LINE
  5
1D42
330
1E
100
AcDbEntity
  8
OBJECT
100
AcDbLine
 10
6.504784611796909
 20
7.050999759771496
 30
0.0
 11
6.50478458834346
 21
7.135118595431067
 31
0.0
  0
LINE
  5
1D43
330
1E
100
AcDbEntity
  8
OBJECT
100
AcDbLine
 10
6.35386956815189
 20
6.855203655699003
 30
0.0
 11
6.35386956815189
 21
6.949203583137153
 31
0.0
  0
LINE
  5
1D44
330
1E
100
AcDbEntity
  8
OBJECT
100
AcDbLine
 10
6.318869585808005
 20
6.94920357096283
 30
0.0
 11
6.318869585808005
 21
6.8552036952291
 31
0.0
  0
LINE
  5
1D45
330
1E
100
AcDbEntity
  8
OBJECT
100
AcDbLine
 10
6.402988452247978
 20
6.855203600222568
 30
0.0
 11
6.318869585808005
 21
6.8552036952291
 31
0.0
  0
LINE
  5
1D46
330
1E
100
AcDbEntity
  8
OBJECT
100
AcDbLine
 10
6.318869585808005
 20
6.94920357096283
 30
0.0
 11
6.402988452247979
 21
6.949203600222567
 31
0.0
  0
LINE
  5
1D47
102
{ACAD_REACTORS
330
1E5A
102
}
330
1E
100
AcDbEntity
  8
OBJECT
100
AcDbLine
 10
18.79170805276148
 20
7.058158944623602
 30
0.0
 11
18.79170805276148
 21
6.746248255821531
 31
0.0
  0
LINE
  5
1D48
102
{ACAD_REACTORS
330
1E5A
102
}
330
1E
100
AcDbEntity
  8
OBJECT
100
AcDbLine
 10
18.96870798671765
 20
6.669288574233664
 30
0.0
 11
18.80170806258169
 21
6.704288556577549
 31
0.0
  0
LINE
  5
1D4A
330
1E
100
AcDbEntity
  8
OBJECT
100
AcDbLine
 10
6.598784611796907
 20
6.753407440673639
 30
0.0
 11
6.598784715249314
 21
6.66928864340509
 31
0.0
  0
LINE
  5
1D4B
102
{ACAD_REACTORS
330
1E5A
102
}
330
1E
100
AcDbEntity
  8
OBJECT
100
AcDbLine
 10
18.80170806258169
 20
6.746160966197233
 30
0.0
 11
18.80170806258169
 21
6.704288556577549
 31
0.0
  0
LINE
  5
1D4C
102
{ACAD_REACTORS
330
1E5A
102
}
330
1E
100
AcDbEntity
  8
OBJECT
100
AcDbLine
 10
18.79170805276148
 20
6.746248255821531
 30
0.0
 11
18.80170806258169
 21
6.746160966197233
 31
0.0
  0
LINE
  5
1D4D
102
{ACAD_REACTORS
330
1E5A
102
}
330
1E
100
AcDbEntity
  8
OBJECT
100
AcDbLine
 10
18.96870798671765
 20
7.135118599592128
 30
0.0
 11
18.80170806258169
 21
7.100118617248243
 31
0.0
  0
LINE
  5
1D55
102
{ACAD_REACTORS
330
1E5A
102
}
330
1E
100
AcDbEntity
  8
OBJECT
100
AcDbLine
 10
18.80170806258169
 20
7.100118617248243
 30
0.0
 11
18.80170806258169
 21
7.05824620762856
 31
0.0
  0
LINE
  5
1D56
330
1E
100
AcDbEntity
  8
OBJECT
100
AcDbLine
 10
6.59878471524928
 20
7.135118595431067
 30
0.0
 11
6.598784611796908
 21
7.050999759771495
 31
0.0
  0
LINE
  5
1D57
330
1E
100
AcDbEntity
  8
OBJECT
100
AcDbLine
 10
6.700580771345837
 20
6.949203600222565
 30
0.0
 11
6.784699611166469
 21
6.949203570962825
 31
0.0
  0
LINE
  5
1D58
330
1E
100
AcDbEntity
  8
OBJECT
100
AcDbLine
 10
6.78469961116647
 20
6.855203695229124
 30
0.0
 11
6.700580771345835
 21
6.855203600222566
 31
0.0
  0
LINE
  5
1D59
330
1E
100
AcDbEntity
  8
OBJECT
100
AcDbLine
 10
6.749699628822584
 20
6.949203583137153
 30
0.0
 11
6.749699628822584
 21
6.855203655699003
 31
0.0
  0
LINE
  5
1D5B
330
1E
100
AcDbEntity
  8
OBJECT
100
AcDbLine
 10
6.78469961116647
 20
6.855203695229124
 30
0.0
 11
6.784699611166469
 21
6.949203570962825
 31
0.0
  0
LINE
  5
1D5C
102
{ACAD_REACTORS
330
1E5A
102
}
330
1E
100
AcDbEntity
  8
OBJECT
100
AcDbLine
 10
18.80170806258169
 20
7.05824620762856
 30
0.0
 11
18.79170805276148
 21
7.058158944623602
 31
0.0
  0
CIRCLE
  5
1D86
330
1E
100
AcDbEntity
  8
OBJECT
100
AcDbCircle
 10
11.1107846117969
 20
6.902203600222565
 30
0.0
 40
0.09375
  0
LINE
  5
1D87
330
1E
100
AcDbEntity
  8
OBJECT
100
AcDbLine
 10
11.06378458834345
 20
6.669288643405089
 30
0.0
 11
11.15778471524931
 21
6.669288643405089
 31
0.0
  0
LINE
  5
1D88
330
1E
100
AcDbEntity
  8
OBJECT
100
AcDbLine
 10
11.15778467220504
 20
6.704288625748973
 30
0.0
 11
11.06378459810191
 21
6.704288625748973
 31
0.0
  0
LINE
  5
1D89
330
1E
100
AcDbEntity
  8
OBJECT
100
AcDbLine
 10
11.06378459810191
 20
7.100118613087182
 30
0.0
 11
11.15778467220504
 21
7.100118613087182
 31
0.0
  0
LINE
  5
1D8A
330
1E
100
AcDbEntity
  8
OBJECT
100
AcDbLine
 10
11.15778471524927
 20
7.135118595431066
 30
0.0
 11
11.06378458834345
 21
7.135118595431066
 31
0.0
  0
CIRCLE
  5
1D8B
330
1E
100
AcDbEntity
  8
OBJECT
100
AcDbCircle
 10
11.1107846117969
 20
6.902203600222565
 30
0.0
 40
0.0590000000000011
  0
CIRCLE
  5
1D8C
330
1E
100
AcDbEntity
  8
OBJECT
100
AcDbCircle
 10
11.1107846117969
 20
6.902203600222565
 30
0.0
 40
0.1559553444010344
  0
LINE
  5
1D8D
330
1E
100
AcDbEntity
  8
OBJECT
100
AcDbLine
 10
11.06378458834345
 20
6.669288643405089
 30
0.0
 11
11.0637846117969
 21
6.753407440673637
 31
0.0
  0
LINE
  5
1D8E
330
1E
100
AcDbEntity
  8
OBJECT
100
AcDbLine
 10
11.0637846117969
 20
7.050999759771496
 30
0.0
 11
11.06378458834345
 21
7.135118595431066
 31
0.0
  0
LINE
  5
1D8F
330
1E
100
AcDbEntity
  8
OBJECT
100
AcDbLine
 10
10.91286956815189
 20
6.855203655699003
 30
0.0
 11
10.91286956815189
 21
6.949203583137153
 31
0.0
  0
LINE
  5
1D90
330
1E
100
AcDbEntity
  8
OBJECT
100
AcDbLine
 10
10.877869585808
 20
6.949203570962829
 30
0.0
 11
10.877869585808
 21
6.855203695229099
 31
0.0
  0
LINE
  5
1D91
330
1E
100
AcDbEntity
  8
OBJECT
100
AcDbLine
 10
10.96198845224797
 20
6.855203600222568
 30
0.0
 11
10.877869585808
 21
6.855203695229099
 31
0.0
  0
LINE
  5
1D92
330
1E
100
AcDbEntity
  8
OBJECT
100
AcDbLine
 10
10.877869585808
 20
6.949203570962829
 30
0.0
 11
10.96198845224797
 21
6.949203600222567
 31
0.0
  0
LINE
  5
1D96
330
1E
100
AcDbEntity
  8
OBJECT
100
AcDbLine
 10
11.1577846117969
 20
6.753407440673637
 30
0.0
 11
11.15778471524931
 21
6.669288643405089
 31
0.0
  0
LINE
  5
1DA2
330
1E
100
AcDbEntity
  8
OBJECT
100
AcDbLine
 10
11.15778471524927
 20
7.135118595431066
 30
0.0
 11
11.1577846117969
 21
7.050999759771494
 31
0.0
  0
LINE
  5
1DA3
330
1E
100
AcDbEntity
  8
OBJECT
100
AcDbLine
 10
11.25958077134583
 20
6.949203600222564
 30
0.0
 11
11.34369961116646
 21
6.949203570962824
 31
0.0
  0
LINE
  5
1DA4
330
1E
100
AcDbEntity
  8
OBJECT
100
AcDbLine
 10
11.34369961116646
 20
6.855203695229123
 30
0.0
 11
11.25958077134583
 21
6.855203600222565
 31
0.0
  0
LINE
  5
1DA5
330
1E
100
AcDbEntity
  8
OBJECT
100
AcDbLine
 10
11.30869962882258
 20
6.949203583137153
 30
0.0
 11
11.30869962882258
 21
6.855203655699003
 31
0.0
  0
LINE
  5
1DA7
330
1E
100
AcDbEntity
  8
OBJECT
100
AcDbLine
 10
11.34369961116646
 20
6.855203695229123
 30
0.0
 11
11.34369961116646
 21
6.949203570962824
 31
0.0
  0
CIRCLE
  5
1DD2
330
1E
100
AcDbEntity
  8
OBJECT
100
AcDbCircle
 10
11.1107846117969
 20
14.04720360022255
 30
0.0
 40
0.09375
  0
LINE
  5
1DD3
330
1E
100
AcDbEntity
  8
OBJECT
100
AcDbLine
 10
11.06378458834345
 20
13.81428864340508
 30
0.0
 11
11.15778471524931
 21
13.81428864340508
 31
0.0
  0
LINE
  5
1DD4
330
1E
100
AcDbEntity
  8
OBJECT
100
AcDbLine
 10
11.15778467220504
 20
13.84928862574896
 30
0.0
 11
11.06378459810191
 21
13.84928862574896
 31
0.0
  0
LINE
  5
1DD5
330
1E
100
AcDbEntity
  8
OBJECT
100
AcDbLine
 10
11.06378459810191
 20
14.24511861308717
 30
0.0
 11
11.15778467220504
 21
14.24511861308717
 31
0.0
  0
LINE
  5
1DD6
330
1E
100
AcDbEntity
  8
OBJECT
100
AcDbLine
 10
11.15778471524927
 20
14.28011859543105
 30
0.0
 11
11.06378458834345
 21
14.28011859543105
 31
0.0
  0
CIRCLE
  5
1DD7
330
1E
100
AcDbEntity
  8
OBJECT
100
AcDbCircle
 10
11.1107846117969
 20
14.04720360022255
 30
0.0
 40
0.0590000000000011
  0
CIRCLE
  5
1DD8
330
1E
100
AcDbEntity
  8
OBJECT
100
AcDbCircle
 10
11.1107846117969
 20
14.04720360022255
 30
0.0
 40
0.1559553444010344
  0
LINE
  5
1DD9
330
1E
100
AcDbEntity
  8
OBJECT
100
AcDbLine
 10
11.06378458834345
 20
13.81428864340508
 30
0.0
 11
11.0637846117969
 21
13.89840744067363
 31
0.0
  0
LINE
  5
1DDA
330
1E
100
AcDbEntity
  8
OBJECT
100
AcDbLine
 10
11.0637846117969
 20
14.19599975977148
 30
0.0
 11
11.06378458834345
 21
14.28011859543105
 31
0.0
  0
LINE
  5
1DDB
330
1E
100
AcDbEntity
  8
OBJECT
100
AcDbLine
 10
10.91286956815189
 20
14.00020365569899
 30
0.0
 11
10.91286956815189
 21
14.09420358313714
 31
0.0
  0
LINE
  5
1DDC
330
1E
100
AcDbEntity
  8
OBJECT
100
AcDbLine
 10
10.877869585808
 20
14.09420357096282
 30
0.0
 11
10.877869585808
 21
14.00020369522909
 31
0.0
  0
LINE
  5
1DDD
330
1E
100
AcDbEntity
  8
OBJECT
100
AcDbLine
 10
10.96198845224797
 20
14.00020360022256
 30
0.0
 11
10.877869585808
 21
14.00020369522909
 31
0.0
  0
LINE
  5
1DDE
330
1E
100
AcDbEntity
  8
OBJECT
100
AcDbLine
 10
10.877869585808
 20
14.09420357096282
 30
0.0
 11
10.96198845224797
 21
14.09420360022256
 31
0.0
  0
LINE
  5
1DE2
330
1E
100
AcDbEntity
  8
OBJECT
100
AcDbLine
 10
11.1577846117969
 20
13.89840744067363
 30
0.0
 11
11.15778471524931
 21
13.81428864340508
 31
0.0
  0
LINE
  5
1DEE
330
1E
100
AcDbEntity
  8
OBJECT
100
AcDbLine
 10
11.15778471524927
 20
14.28011859543105
 30
0.0
 11
11.1577846117969
 21
14.19599975977148
 31
0.0
  0
LINE
  5
1DEF
330
1E
100
AcDbEntity
  8
OBJECT
100
AcDbLine
 10
11.25958077134583
 20
14.09420360022255
 30
0.0
 11
11.34369961116646
 21
14.09420357096282
 31
0.0
  0
LINE
  5
1DF0
330
1E
100
AcDbEntity
  8
OBJECT
100
AcDbLine
 10
11.34369961116646
 20
14.00020369522911
 30
0.0
 11
11.25958077134583
 21
14.00020360022256
 31
0.0
  0
LINE
  5
1DF1
330
1E
100
AcDbEntity
  8
OBJECT
100
AcDbLine
 10
11.30869962882258
 20
14.09420358313714
 30
0.0
 11
11.30869962882258
 21
14.00020365569899
 31
0.0
  0
LINE
  5
1DF3
330
1E
100
AcDbEntity
  8
OBJECT
100
AcDbLine
 10
11.34369961116646
 20
14.00020369522911
 30
0.0
 11
11.34369961116646
 21
14.09420357096282
 31
0.0
  0
HATCH
  5
1E5A
330
1E
100
AcDbEntity
  8
OBJECT
 62
   151
100
AcDbHatch
 10
0.0
 20
0.0
 30
0.0
210
0.0
220
0.0
230
1.0
  2
ANSI31
 70
     0
 71
     1
 91
        3
 92
        7
 72
     1
 73
     1
 93
        9
 10
19.02620798671765
 20
14.84470360022256
 42
0.0
 10
17.54870798671764
 20
14.84470360022256
 42
0.0
 10
17.54870798671764
 20
14.82470360022255
 42
0.0
 10
17.50870798671765
 20
14.82470360022255
 42
0.0
 10
17.50870798671765
 20
14.72495360022257
 42
0.0
 10
17.90495798671765
 20
14.72495360022257
 42
0.0
 10
17.90495798671765
 20
14.75745360022258
 42
0.0
 10
19.08870798671765
 20
14.75745360022258
 42
0.0
 10
19.08870798671765
 20
14.78220360022255
 42
0.4142135623731201
 97
        9
330
AC9
330
BCD
330
AC0
330
BC7
330
C4C
330
C4F
330
C48
330
AC8
330
AC4
 92
        7
 72
     0
 73
     1
 93
       36
 10
19.08870798671764
 20
14.44245360022258
 10
17.90495798671765
 20
14.44245360022257
 10
17.90495798671765
 20
14.47495360022257
 10
17.50870798671765
 20
14.47495360022258
 10
17.50870798671765
 20
14.39473465315618
 10
17.44870798671765
 20
14.39473465315618
 10
17.44870798671765
 20
14.35357860022256
 10
18.96870798671766
 20
14.35357860022256
 10
18.96870798671765
 20
13.90095360022256
 10
18.79170805276148
 20
13.90095360022256
 10
18.79170805276147
 20
13.78720360022257
 10
18.98170805276148
 20
13.78720360022257
 10
18.98170805276148
 20
13.69720360022257
 10
18.79170805276147
 20
13.69720360022256
 10
18.79170805276148
 20
13.58470360022257
 10
18.96870798671766
 20
13.58470360022257
 10
18.96870798671766
 20
7.135118599592127
 10
18.80170806258169
 20
7.100118617248244
 10
18.80170806258169
 20
7.058246207628561
 10
18.79170805276148
 20
7.058158944623602
 10
18.79170805276148
 20
6.995953600222565
 10
18.97920798671765
 20
6.995953600222565
 10
18.97920798671765
 20
6.808453600222565
 10
18.79170805276148
 20
6.808453600222565
 10
18.79170805276147
 20
6.74624825582153
 10
18.80170806258169
 20
6.746160966197233
 10
18.80170806258169
 20
6.704288556577549
 10
18.96870798671765
 20
6.669288574233664
 10
18.96870798671765
 20
6.595828600222563
 10
17.44870798671765
 20
6.595828600222563
 10
17.44870798671766
 20
6.555828600222557
 10
17.50870798671765
 20
6.555828600222555
 10
17.50870798671765
 20
6.537828600222572
 10
19.02620798671765
 20
6.537828600222571
 10
19.02620798671765
 20
6.417203600222567
 10
19.08870798671765
 20
6.417203600222567
 97
       33
330
C4A
330
C4F
330
C4E
330
BC7
330
C51
330
AC6
330
C49
330
C37
330
BDF
330
BE2
330
BE3
330
BE5
330
BE4
330
BE1
330
C38
330
1D4D
330
1D55
330
1D5C
330
1D47
330
BE8
330
BF2
330
BEA
330
1D4C
330
1D4B
330
1D48
330
C36
330
BEC
330
BEE
330
AC3
330
BED
330
BEF
330
BF0
330
AC8
 92
        7
 72
     1
 73
     1
 93
        9
 10
19.08870798671765
 20
6.167203600222567
 42
0.0
 10
19.08870798671765
 20
6.245328600222563
 42
0.0
 10
19.02620798671765
 20
6.245328600222563
 42
0.0
 10
19.02620798671765
 20
6.174703600222563
 42
0.0
 10
17.50870798671765
 20
6.174703600222564
 42
0.0
 10
17.50870798671765
 20
6.124703600222567
 42
0.0
 10
17.54870798671765
 20
6.124703600222566
 42
0.0
 10
17.54870798671765
 20
6.10470360022257
 42
0.0
 10
19.02620798671765
 20
6.104703600222567
 42
0.4142135623730951
 97
        9
330
AC8
330
BF1
330
BEF
330
BE6
330
AC3
330
AC1
330
AC2
330
AC7
330
AC5
 75
     0
 76
     1
 52
0.0
 41
1.0
 77
     0
 78
     1
 53
45.0
 43
0.0
 44
0.0
 45
-0.0883883476483184
 46
0.0883883476483185
 79
     0
 47
0.0161526984437075
 98
        3
 10
18.30794308097988
 20
14.78795194279995
 10
18.13011977789422
 20
14.40028717879183
 10
18.22711429644371
 20
6.146258242587933
  0
LINE
  5
1E5C
330
1E
100
AcDbEntity
  8
OBJECT
100
AcDbLine
 10
18.79170805276148
 20
7.058158944623602
 30
0.0
 11
18.79170798671765
 21
7.364703600222572
 31
0.0
  0
ENDSEC
  0
SECTION
  2
OBJECTS
  0
DICTIONARY
  5
C
330
0
100
AcDbDictionary
281
     1
  3
ACAD_GROUP
350
D
  3
ACAD_LAYOUT
350
19
  3
ACAD_MLINESTYLE
350
16
  3
ACAD_PLOTSETTINGS
350
18
  3
ACAD_PLOTSTYLENAME
350
E
  3
AcadDim
350
199C
  3
AcDbVariableDictionary
350
111B
  0
DICTIONARY
  5
D
102
{ACAD_REACTORS
330
C
102
}
330
C
100
AcDbDictionary
281
     1
  0
DICTIONARY
  5
19
102
{ACAD_REACTORS
330
C
102
}
330
C
100
AcDbDictionary
281
     1
  3
Layout1
350
1D
  3
Model
350
21
  0
DICTIONARY
  5
16
102
{ACAD_REACTORS
330
C
102
}
330
C
100
AcDbDictionary
281
     1
  3
Standard
350
17
  0
DICTIONARY
  5
18
102
{ACAD_REACTORS
330
C
102
}
330
C
100
AcDbDictionary
281
     1
  0
ACDBDICTIONARYWDFLT
  5
E
102
{ACAD_REACTORS
330
C
102
}
330
C
100
AcDbDictionary
281
     1
  3
Normal
350
F
100
AcDbDictionaryWithDefault
340
F
  0
XRECORD
  5
199C
102
{ACAD_REACTORS
330
C
102
}
330
C
100
AcDbXrecord
280
     1
 90
   990106
  3

 60
     0
 61
     0
 62
     1
 63
     1
 64
     0
 65
     0
 66
     0
 67
     3
 68
     1
 69
     0
 70
     0
 71
     0
 72
     0
 40
0.0
170
     2
340
19CC
  0
DICTIONARY
  5
111B
102
{ACAD_REACTORS
330
C
102
}
330
C
100
AcDbDictionary
281
     1
  3
SORTENTS
350
111C
  0
LAYOUT
  5
1D
102
{ACAD_REACTORS
330
19
102
}
330
19
100
AcDbPlotSettings
  1

  2
HP DesignJet 430 (D/A1) by HP
  4

  6

 40
0.0
 41
0.0
 42
0.0
 43
0.0
 44
0.0
 45
0.0
 46
0.0
 47
0.0
 48
0.0
 49
0.0
140
0.0
141
0.0
142
1.0
143
1.0
 70
   688
 72
     0
 73
     0
 74
     5
  7
monochrome.ctb
 75
    16
147
1.0
148
0.0
149
0.0
100
AcDbLayout
  1
Layout1
 70
     1
 71
     1
 10
0.0
 20
0.0
 11
12.0
 21
9.0
 12
0.0
 22
0.0
 32
0.0
 14
1.000000000000000E+20
 24
1.000000000000000E+20
 34
1.000000000000000E+20
 15
-1.000000000000000E+20
 25
-1.000000000000000E+20
 35
-1.000000000000000E+20
146
0.0
 13
0.0
 23
0.0
 33
0.0
 16
1.0
 26
0.0
 36
0.0
 17
0.0
 27
1.0
 37
0.0
 76
     0
330
1A
  0
LAYOUT
  5
21
102
{ACAD_REACTORS
330
19
102
}
330
19
100
AcDbPlotSettings
  1

  2
Acrobat PDFWriter
  4
Tabloid
  6

 40
3.174999952316284
 41
3.174999952316284
 42
3.17498779296875
 43
3.17498779296875
 44
431.8000183105469
 45
279.3999938964843
 46
0.0
 47
4.064
 48
0.0
 49
0.0
140
0.0
141
0.0
142
1.0
143
2.477802079906513
 70
 11956
 72
     0
 73
     0
 74
     1
  7
monochrome.ctb
 75
     0
147
0.4035834855856323
148
0.0390711238364531
149
0.040016932711427
100
AcDbLayout
  1
Model
 70
     1
 71
     0
 10
0.0
 20
0.0
 11
12.0
 21
9.0
 12
0.0
 22
0.0
 32
0.0
 14
0.0
 24
0.0
 34
0.0
 15
0.0
 25
0.0
 35
0.0
146
0.0
 13
0.0
 23
0.0
 33
0.0
 16
1.0
 26
0.0
 36
0.0
 17
0.0
 27
1.0
 37
0.0
 76
     0
330
1E
  0
MLINESTYLE
  5
17
102
{ACAD_REACTORS
330
16
102
}
330
16
100
AcDbMlineStyle
  2
STANDARD
 70
     0
  3

 62
   256
 51
90.0
 52
90.0
 71
     2
 49
0.5
 62
   256
  6
BYLAYER
 49
-0.5
 62
   256
  6
BYLAYER
  0
ACDBPLACEHOLDER
  5
F
102
{ACAD_REACTORS
330
E
102
}
330
E
  0
DICTIONARYVAR
  5
111C
102
{ACAD_REACTORS
330
111B
102
}
330
111B
100
DictionaryVariables
280
     0
  1
96
  0
ENDSEC
  0
EOF
