  0
SECTION
  2
HEADER
  9
$ACADVER
  1
AC1015
  9
$ACADMAINTVER
 70
     6
  9
$DWGCODEPAGE
  3
ANSI_1252
  9
$INSBASE
 10
0.0
 20
0.0
 30
0.0
  9
$EXTMIN
 10
0.0
 20
0.0
 30
-0.00000001
  9
$EXTMAX
 10
24.89999999999999
 20
15.49199999999999
 30
0.00000001
  9
$LIMMIN
 10
0.0
 20
0.0
  9
$LIMMAX
 10
23.25
 20
15.17999999999999
  9
$ORTHOMODE
 70
     1
  9
$REGENMODE
 70
     1
  9
$FILLMODE
 70
     1
  9
$QTEXTMODE
 70
     0
  9
$MIRRTEXT
 70
     0
  9
$LTSCALE
 40
0.312
  9
$ATTMODE
 70
     1
  9
$TEXTSIZE
 40
0.2
  9
$TRACEWID
 40
0.05
  9
$TEXTSTYLE
  7
TXT
  9
$CLAYER
  8
OBJECT
  9
$CELTYPE
  6
ByLayer
  9
$CECOLOR
 62
   256
  9
$CELTSCALE
 40
1.0
  9
$DISPSILH
 70
     0
  9
$DIMSCALE
 40
1.5
  9
$DIMASZ
 40
0.18
  9
$DIMEXO
 40
0.063
  9
$DIMDLI
 40
0.281
  9
$DIMRND
 40
0.0
  9
$DIMDLE
 40
0.0
  9
$DIMEXE
 40
0.093
  9
$DIMTP
 40
0.0
  9
$DIMTM
 40
0.0
  9
$DIMTXT
 40
0.125
  9
$DIMCEN
 40
0.09
  9
$DIMTSZ
 40
0.0
  9
$DIMTOL
 70
     0
  9
$DIMLIM
 70
     0
  9
$DIMTIH
 70
     1
  9
$DIMTOH
 70
     1
  9
$DIMSE1
 70
     0
  9
$DIMSE2
 70
     0
  9
$DIMTAD
 70
     0
  9
$DIMZIN
 70
     0
  9
$DIMBLK
  1

  9
$DIMASO
 70
     1
  9
$DIMSHO
 70
     1
  9
$DIMPOST
  1

  9
$DIMAPOST
  1

  9
$DIMALT
 70
     0
  9
$DIMALTD
 70
     2
  9
$DIMALTF
 40
25.4
  9
$DIMLFAC
 40
1.0
  9
$DIMTOFL
 70
     0
  9
$DIMTVP
 40
0.0
  9
$DIMTIX
 70
     0
  9
$DIMSOXD
 70
     0
  9
$DIMSAH
 70
     0
  9
$DIMBLK1
  1

  9
$DIMBLK2
  1

  9
$DIMSTYLE
  2
23NSTD
  9
$DIMCLRD
 70
     0
  9
$DIMCLRE
 70
     0
  9
$DIMCLRT
 70
     0
  9
$DIMTFAC
 40
1.0
  9
$DIMGAP
 40
0.09
  9
$DIMJUST
 70
     0
  9
$DIMSD1
 70
     0
  9
$DIMSD2
 70
     0
  9
$DIMTOLJ
 70
     1
  9
$DIMTZIN
 70
     0
  9
$DIMALTZ
 70
     0
  9
$DIMALTTZ
 70
     0
  9
$DIMUPT
 70
     0
  9
$DIMDEC
 70
     3
  9
$DIMTDEC
 70
     3
  9
$DIMALTU
 70
     2
  9
$DIMALTTD
 70
     2
  9
$DIMTXSTY
  7
TXT
  9
$DIMAUNIT
 70
     0
  9
$DIMADEC
 70
     0
  9
$DIMALTRND
 40
0.0
  9
$DIMAZIN
 70
     0
  9
$DIMDSEP
 70
    46
  9
$DIMATFIT
 70
     1
  9
$DIMFRAC
 70
     0
  9
$DIMLDRBLK
  1

  9
$DIMLUNIT
 70
     2
  9
$DIMLWD
 70
    -2
  9
$DIMLWE
 70
    -2
  9
$DIMTMOVE
 70
     0
  9
$LUNITS
 70
     2
  9
$LUPREC
 70
     3
  9
$SKETCHINC
 40
0.1
  9
$FILLETRAD
 40
0.0
  9
$AUNITS
 70
     0
  9
$AUPREC
 70
     0
  9
$MENU
  1
acad
  9
$ELEVATION
 40
0.0
  9
$PELEVATION
 40
0.0
  9
$THICKNESS
 40
0.0
  9
$LIMCHECK
 70
     0
  9
$CHAMFERA
 40
0.0
  9
$CHAMFERB
 40
0.0
  9
$CHAMFERC
 40
0.0
  9
$CHAMFERD
 40
0.0
  9
$SKPOLY
 70
     0
  9
$TDCREATE
 40
2450112.619548032
  9
$TDUCREATE
 40
2450112.827881365
  9
$TDUPDATE
 40
2454788.496708437
  9
$TDUUPDATE
 40
2454788.705041770
  9
$TDINDWG
 40
0.2289497338
  9
$TDUSRTIMER
 40
0.2289497338
  9
$USRTIMER
 70
     1
  9
$ANGBASE
 50
0.0
  9
$ANGDIR
 70
     0
  9
$PDMODE
 70
     0
  9
$PDSIZE
 40
0.0
  9
$PLINEWID
 40
0.0
  9
$SPLFRAME
 70
     0
  9
$SPLINETYPE
 70
     6
  9
$SPLINESEGS
 70
     8
  9
$HANDSEED
  5
F17
  9
$SURFTAB1
 70
     6
  9
$SURFTAB2
 70
     6
  9
$SURFTYPE
 70
     6
  9
$SURFU
 70
     6
  9
$SURFV
 70
     6
  9
$UCSBASE
  2

  9
$UCSNAME
  2

  9
$UCSORG
 10
0.0
 20
0.0
 30
0.0
  9
$UCSXDIR
 10
1.0
 20
0.0
 30
0.0
  9
$UCSYDIR
 10
0.0
 20
1.0
 30
0.0
  9
$UCSORTHOREF
  2

  9
$UCSORTHOVIEW
 70
     0
  9
$UCSORGTOP
 10
0.0
 20
0.0
 30
0.0
  9
$UCSORGBOTTOM
 10
0.0
 20
0.0
 30
0.0
  9
$UCSORGLEFT
 10
0.0
 20
0.0
 30
0.0
  9
$UCSORGRIGHT
 10
0.0
 20
0.0
 30
0.0
  9
$UCSORGFRONT
 10
0.0
 20
0.0
 30
0.0
  9
$UCSORGBACK
 10
0.0
 20
0.0
 30
0.0
  9
$PUCSBASE
  2

  9
$PUCSNAME
  2

  9
$PUCSORG
 10
0.0
 20
0.0
 30
0.0
  9
$PUCSXDIR
 10
1.0
 20
0.0
 30
0.0
  9
$PUCSYDIR
 10
0.0
 20
1.0
 30
0.0
  9
$PUCSORTHOREF
  2

  9
$PUCSORTHOVIEW
 70
     0
  9
$PUCSORGTOP
 10
0.0
 20
0.0
 30
0.0
  9
$PUCSORGBOTTOM
 10
0.0
 20
0.0
 30
0.0
  9
$PUCSORGLEFT
 10
0.0
 20
0.0
 30
0.0
  9
$PUCSORGRIGHT
 10
0.0
 20
0.0
 30
0.0
  9
$PUCSORGFRONT
 10
0.0
 20
0.0
 30
0.0
  9
$PUCSORGBACK
 10
0.0
 20
0.0
 30
0.0
  9
$USERI1
 70
     0
  9
$USERI2
 70
     0
  9
$USERI3
 70
     0
  9
$USERI4
 70
     0
  9
$USERI5
 70
     0
  9
$USERR1
 40
0.0
  9
$USERR2
 40
0.0
  9
$USERR3
 40
0.0
  9
$USERR4
 40
0.0
  9
$USERR5
 40
0.0
  9
$WORLDVIEW
 70
     1
  9
$SHADEDGE
 70
     3
  9
$SHADEDIF
 70
    70
  9
$TILEMODE
 70
     1
  9
$MAXACTVP
 70
    16
  9
$PINSBASE
 10
0.0
 20
0.0
 30
0.0
  9
$PLIMCHECK
 70
     0
  9
$PEXTMIN
 10
1.000000000000000E+20
 20
1.000000000000000E+20
 30
1.000000000000000E+20
  9
$PEXTMAX
 10
-1.000000000000000E+20
 20
-1.000000000000000E+20
 30
-1.000000000000000E+20
  9
$PLIMMIN
 10
0.0
 20
0.0
  9
$PLIMMAX
 10
12.0
 20
9.0
  9
$UNITMODE
 70
     0
  9
$VISRETAIN
 70
     0
  9
$PLINEGEN
 70
     0
  9
$PSLTSCALE
 70
     1
  9
$TREEDEPTH
 70
  3020
  9
$CMLSTYLE
  2
Standard
  9
$CMLJUST
 70
     0
  9
$CMLSCALE
 40
1.0
  9
$PROXYGRAPHICS
 70
     1
  9
$MEASUREMENT
 70
     0
  9
$CELWEIGHT
370
    -1
  9
$ENDCAPS
280
     0
  9
$JOINSTYLE
280
     0
  9
$LWDISPLAY
290
     0
  9
$INSUNITS
 70
     0
  9
$HYPERLINKBASE
  1

  9
$STYLESHEET
  1
monochrome.ctb
  9
$XEDIT
290
     1
  9
$CEPSNTYPE
380
     0
  9
$PSTYLEMODE
290
     1
  9
$FINGERPRINTGUID
  2
{D41B3345-4E1B-4200-B2A9-F34E60F438E0}
  9
$VERSIONGUID
  2
{0BCB278B-C30B-4D10-842E-4794F2CCBD95}
  9
$EXTNAMES
290
     1
  9
$PSVPSCALE
 40
0.0
  9
$OLESTARTUP
290
     0
  0
ENDSEC
  0
SECTION
  2
CLASSES
  0
CLASS
  1
ACDBDICTIONARYWDFLT
  2
AcDbDictionaryWithDefault
  3
AutoCAD 2000
 90
        0
280
     0
281
     0
  0
CLASS
  1
ACDBPLACEHOLDER
  2
AcDbPlaceHolder
  3
AutoCAD 2000
 90
        0
280
     0
281
     0
  0
CLASS
  1
LAYOUT
  2
AcDbLayout
  3
AutoCAD 2000
 90
        0
280
     0
281
     0
  0
CLASS
  1
DICTIONARYVAR
  2
AcDbDictionaryVar
  3
AutoCAD 2000
 90
        0
280
     0
281
     0
  0
ENDSEC
  0
SECTION
  2
TABLES
  0
TABLE
  2
VPORT
  5
8
330
0
100
AcDbSymbolTable
 70
     2
  0
VPORT
  5
F16
330
8
100
AcDbSymbolTableRecord
100
AcDbViewportTableRecord
  2
*Active
 70
     0
 10
0.0
 20
0.0
 11
1.0
 21
1.0
 12
12.45000005797482
 22
7.746000036070125
 13
0.0
 23
0.0
 14
1.0
 24
1.0
 15
0.25
 25
0.25
 16
0.0
 26
0.0
 36
1.0
 17
0.0
 27
0.0
 37
0.0
 40
15.65076728139628
 41
1.796327212020033
 42
50.0
 43
0.0
 44
0.0
 50
0.0
 51
0.0
 71
     0
 72
   500
 73
     1
 74
     0
 75
     0
 76
     0
 77
     0
 78
     0
281
     0
 65
     1
110
0.0
120
0.0
130
0.0
111
1.0
121
0.0
131
0.0
112
0.0
122
1.0
132
0.0
 79
     0
146
0.0
  0
ENDTAB
  0
TABLE
  2
LTYPE
  5
5
330
0
100
AcDbSymbolTable
 70
     4
  0
LTYPE
  5
13
330
5
100
AcDbSymbolTableRecord
100
AcDbLinetypeTableRecord
  2
ByBlock
 70
     0
  3

 72
    65
 73
     0
 40
0.0
  0
LTYPE
  5
14
330
5
100
AcDbSymbolTableRecord
100
AcDbLinetypeTableRecord
  2
ByLayer
 70
     0
  3

 72
    65
 73
     0
 40
0.0
  0
LTYPE
  5
15
330
5
100
AcDbSymbolTableRecord
100
AcDbLinetypeTableRecord
  2
CONTINUOUS
 70
     0
  3
Solid line
 72
    65
 73
     0
 40
0.0
  0
LTYPE
  5
25
330
5
100
AcDbSymbolTableRecord
100
AcDbLinetypeTableRecord
  2
HIDDEN
 70
     0
  3
_ _ _ _ _ _ _ _ _ _ _ _ _ _ _ _ _ _ _ _ _ _ _
 72
    65
 73
     2
 40
0.375
 49
0.25
 74
     0
 49
-0.125
 74
     0
  0
LTYPE
  5
26
330
5
100
AcDbSymbolTableRecord
100
AcDbLinetypeTableRecord
  2
PHANTOM
 70
     0
  3
_____ _ _ _____ _ _ _____ _ _ _____ _ _ ____
 72
    65
 73
     6
 40
2.5
 49
1.25
 74
     0
 49
-0.25
 74
     0
 49
0.25
 74
     0
 49
-0.25
 74
     0
 49
0.25
 74
     0
 49
-0.25
 74
     0
  0
LTYPE
  5
27
330
5
100
AcDbSymbolTableRecord
100
AcDbLinetypeTableRecord
  2
PHANTOM2
 70
     0
  3
___ _ _ ___ _ _ ___ _ _ ___ _ _ ___ _ _ ___ _ _
 72
    65
 73
     6
 40
1.25
 49
0.625
 74
     0
 49
-0.125
 74
     0
 49
0.125
 74
     0
 49
-0.125
 74
     0
 49
0.125
 74
     0
 49
-0.125
 74
     0
  0
ENDTAB
  0
TABLE
  2
LAYER
  5
2
330
0
100
AcDbSymbolTable
 70
     8
  0
LAYER
  5
10
330
2
100
AcDbSymbolTableRecord
100
AcDbLayerTableRecord
  2
0
 70
     0
 62
     7
  6
CONTINUOUS
370
    -3
390
F
  0
LAYER
  5
22
330
2
100
AcDbSymbolTableRecord
100
AcDbLayerTableRecord
  2
OBJECT
 70
     0
 62
     7
  6
CONTINUOUS
370
    -3
390
F
  0
LAYER
  5
28
330
2
100
AcDbSymbolTableRecord
100
AcDbLayerTableRecord
  2
DIM
 70
     0
 62
     2
  6
CONTINUOUS
370
    -3
390
F
  0
LAYER
  5
29
330
2
100
AcDbSymbolTableRecord
100
AcDbLayerTableRecord
  2
HIDDEN
 70
     0
 62
     6
  6
HIDDEN
370
    -3
390
F
  0
LAYER
  5
2A
330
2
100
AcDbSymbolTableRecord
100
AcDbLayerTableRecord
  2
BEND
 70
     0
 62
     4
  6
PHANTOM
370
    -3
390
F
  0
LAYER
  5
2B
330
2
100
AcDbSymbolTableRecord
100
AcDbLayerTableRecord
  2
TEXT
 70
     0
 62
     1
  6
CONTINUOUS
370
    -3
390
F
  0
LAYER
  5
2C
330
2
100
AcDbSymbolTableRecord
100
AcDbLayerTableRecord
  2
TITLE
 70
     0
 62
     8
  6
CONTINUOUS
370
    -3
390
F
  0
LAYER
  5
2D
330
2
100
AcDbSymbolTableRecord
100
AcDbLayerTableRecord
  2
DEFPOINTS
 70
     0
 62
     7
  6
CONTINUOUS
290
     0
370
    -3
390
F
  0
ENDTAB
  0
TABLE
  2
STYLE
  5
3
330
0
100
AcDbSymbolTable
 70
     2
  0
STYLE
  5
11
330
3
100
AcDbSymbolTableRecord
100
AcDbTextStyleTableRecord
  2
TXT
 70
     0
 40
0.0
 41
0.75
 50
0.0
 71
     0
 42
0.2
  3
txt.shx
  4

  0
STYLE
  5
2E
330
3
100
AcDbSymbolTableRecord
100
AcDbTextStyleTableRecord
  2
SECTION
 70
     0
 40
0.0
 41
0.8
 50
0.0
 71
     0
 42
0.2
  3
ROMANT.SHX
  4

  0
ENDTAB
  0
TABLE
  2
VIEW
  5
6
330
0
100
AcDbSymbolTable
 70
     0
  0
ENDTAB
  0
TABLE
  2
UCS
  5
7
330
0
100
AcDbSymbolTable
 70
     0
  0
ENDTAB
  0
TABLE
  2
APPID
  5
9
330
0
100
AcDbSymbolTable
 70
     1
  0
APPID
  5
12
330
9
100
AcDbSymbolTableRecord
100
AcDbRegAppTableRecord
  2
ACAD
 70
     0
  0
ENDTAB
  0
TABLE
  2
DIMSTYLE
  5
A
330
0
100
AcDbSymbolTable
 70
     4
100
AcDbDimStyleTable
 71
     4
340
30
340
2F
340
32
340
31
  0
DIMSTYLE
105
2F
102
{ACAD_REACTORS
330
484
330
4EE
330
5C6
330
604
330
63C
330
656
330
664
330
672
330
70A
330
726
330
742
330
750
330
75E
330
77A
330
788
330
796
330
7A4
330
7B2
330
7C0
330
7CE
330
806
330
814
102
}
330
A
100
AcDbSymbolTableRecord
100
AcDbDimStyleTableRecord
  2
23NSTD
 70
     0
 40
1.5
 42
0.063
 43
0.281
 44
0.093
140
0.125
271
     3
272
     3
289
     1
340
11
  0
DIMSTYLE
105
30
102
{ACAD_REACTORS
330
5AA
330
5B8
330
5DA
330
5E8
330
5F6
330
612
330
620
330
62E
330
6EE
330
6FC
330
718
330
76C
102
}
330
A
100
AcDbSymbolTableRecord
100
AcDbDimStyleTableRecord
  2
23NSTDI
 70
     0
 40
1.5
 42
0.063
 43
0.281
 44
0.093
140
0.125
174
     1
271
     3
272
     3
340
11
  0
DIMSTYLE
105
31
102
{ACAD_REACTORS
330
4AE
330
4BC
330
4CA
330
870
330
8AE
102
}
330
A
100
AcDbSymbolTableRecord
100
AcDbDimStyleTableRecord
  2
23NSTD4
 70
     0
 40
1.5
 42
0.063
 43
0.281
 44
0.093
140
0.125
144
0.25
271
     3
272
     3
289
     1
340
11
  0
DIMSTYLE
105
32
102
{ACAD_REACTORS
330
4D8
330
862
330
892
330
8A0
102
}
330
A
100
AcDbSymbolTableRecord
100
AcDbDimStyleTableRecord
  2
23NSTD4I
 70
     0
 40
1.5
 42
0.063
 43
0.281
 44
0.093
140
0.125
144
0.25
174
     1
271
     3
272
     3
340
11
  0
ENDTAB
  0
TABLE
  2
BLOCK_RECORD
  5
1
330
0
100
AcDbSymbolTable
 70
    45
  0
BLOCK_RECORD
  5
1E
330
1
100
AcDbSymbolTableRecord
100
AcDbBlockTableRecord
  2
*Model_Space
340
21
  0
BLOCK_RECORD
  5
1A
330
1
100
AcDbSymbolTableRecord
100
AcDbBlockTableRecord
  2
*Paper_Space
340
1D
  0
BLOCK_RECORD
  5
35
330
1
100
AcDbSymbolTableRecord
100
AcDbBlockTableRecord
  2
SECTION
340
0
102
{BLKREFS
331
58E
331
591
331
6EB
331
7F4
102
}
  0
BLOCK_RECORD
  5
485
330
1
100
AcDbSymbolTableRecord
100
AcDbBlockTableRecord
  2
*D1
340
0
  0
BLOCK_RECORD
  5
4AF
330
1
100
AcDbSymbolTableRecord
100
AcDbBlockTableRecord
  2
*D2
340
0
  0
BLOCK_RECORD
  5
4BD
330
1
100
AcDbSymbolTableRecord
100
AcDbBlockTableRecord
  2
*D3
340
0
  0
BLOCK_RECORD
  5
4CB
330
1
100
AcDbSymbolTableRecord
100
AcDbBlockTableRecord
  2
*D4
340
0
  0
BLOCK_RECORD
  5
4D9
330
1
100
AcDbSymbolTableRecord
100
AcDbBlockTableRecord
  2
*D5
340
0
  0
BLOCK_RECORD
  5
4EF
330
1
100
AcDbSymbolTableRecord
100
AcDbBlockTableRecord
  2
*D6
340
0
  0
BLOCK_RECORD
  5
5AB
330
1
100
AcDbSymbolTableRecord
100
AcDbBlockTableRecord
  2
*D7
340
0
  0
BLOCK_RECORD
  5
5B9
330
1
100
AcDbSymbolTableRecord
100
AcDbBlockTableRecord
  2
*D8
340
0
  0
BLOCK_RECORD
  5
5C7
330
1
100
AcDbSymbolTableRecord
100
AcDbBlockTableRecord
  2
*D9
340
0
  0
BLOCK_RECORD
  5
5DB
330
1
100
AcDbSymbolTableRecord
100
AcDbBlockTableRecord
  2
*D10
340
0
  0
BLOCK_RECORD
  5
5E9
330
1
100
AcDbSymbolTableRecord
100
AcDbBlockTableRecord
  2
*D11
340
0
  0
BLOCK_RECORD
  5
5F7
330
1
100
AcDbSymbolTableRecord
100
AcDbBlockTableRecord
  2
*D12
340
0
  0
BLOCK_RECORD
  5
605
330
1
100
AcDbSymbolTableRecord
100
AcDbBlockTableRecord
  2
*D13
340
0
  0
BLOCK_RECORD
  5
613
330
1
100
AcDbSymbolTableRecord
100
AcDbBlockTableRecord
  2
*D14
340
0
  0
BLOCK_RECORD
  5
621
330
1
100
AcDbSymbolTableRecord
100
AcDbBlockTableRecord
  2
*D15
340
0
  0
BLOCK_RECORD
  5
62F
330
1
100
AcDbSymbolTableRecord
100
AcDbBlockTableRecord
  2
*D16
340
0
  0
BLOCK_RECORD
  5
63D
330
1
100
AcDbSymbolTableRecord
100
AcDbBlockTableRecord
  2
*D17
340
0
  0
BLOCK_RECORD
  5
657
330
1
100
AcDbSymbolTableRecord
100
AcDbBlockTableRecord
  2
*D18
340
0
  0
BLOCK_RECORD
  5
665
330
1
100
AcDbSymbolTableRecord
100
AcDbBlockTableRecord
  2
*D19
340
0
  0
BLOCK_RECORD
  5
673
330
1
100
AcDbSymbolTableRecord
100
AcDbBlockTableRecord
  2
*D20
340
0
  0
BLOCK_RECORD
  5
6EF
330
1
100
AcDbSymbolTableRecord
100
AcDbBlockTableRecord
  2
*D21
340
0
  0
BLOCK_RECORD
  5
6FD
330
1
100
AcDbSymbolTableRecord
100
AcDbBlockTableRecord
  2
*D22
340
0
  0
BLOCK_RECORD
  5
70B
330
1
100
AcDbSymbolTableRecord
100
AcDbBlockTableRecord
  2
*D23
340
0
  0
BLOCK_RECORD
  5
719
330
1
100
AcDbSymbolTableRecord
100
AcDbBlockTableRecord
  2
*D24
340
0
  0
BLOCK_RECORD
  5
727
330
1
100
AcDbSymbolTableRecord
100
AcDbBlockTableRecord
  2
*D25
340
0
  0
BLOCK_RECORD
  5
743
330
1
100
AcDbSymbolTableRecord
100
AcDbBlockTableRecord
  2
*D26
340
0
  0
BLOCK_RECORD
  5
751
330
1
100
AcDbSymbolTableRecord
100
AcDbBlockTableRecord
  2
*D27
340
0
  0
BLOCK_RECORD
  5
75F
330
1
100
AcDbSymbolTableRecord
100
AcDbBlockTableRecord
  2
*D28
340
0
  0
BLOCK_RECORD
  5
76D
330
1
100
AcDbSymbolTableRecord
100
AcDbBlockTableRecord
  2
*D29
340
0
  0
BLOCK_RECORD
  5
77B
330
1
100
AcDbSymbolTableRecord
100
AcDbBlockTableRecord
  2
*D30
340
0
  0
BLOCK_RECORD
  5
789
330
1
100
AcDbSymbolTableRecord
100
AcDbBlockTableRecord
  2
*D31
340
0
  0
BLOCK_RECORD
  5
797
330
1
100
AcDbSymbolTableRecord
100
AcDbBlockTableRecord
  2
*D32
340
0
  0
BLOCK_RECORD
  5
7A5
330
1
100
AcDbSymbolTableRecord
100
AcDbBlockTableRecord
  2
*D33
340
0
  0
BLOCK_RECORD
  5
7B3
330
1
100
AcDbSymbolTableRecord
100
AcDbBlockTableRecord
  2
*D34
340
0
  0
BLOCK_RECORD
  5
7C1
330
1
100
AcDbSymbolTableRecord
100
AcDbBlockTableRecord
  2
*D35
340
0
  0
BLOCK_RECORD
  5
7CF
330
1
100
AcDbSymbolTableRecord
100
AcDbBlockTableRecord
  2
*D36
340
0
  0
BLOCK_RECORD
  5
807
330
1
100
AcDbSymbolTableRecord
100
AcDbBlockTableRecord
  2
*D37
340
0
  0
BLOCK_RECORD
  5
815
330
1
100
AcDbSymbolTableRecord
100
AcDbBlockTableRecord
  2
*D38
340
0
  0
BLOCK_RECORD
  5
863
330
1
100
AcDbSymbolTableRecord
100
AcDbBlockTableRecord
  2
*D39
340
0
  0
BLOCK_RECORD
  5
871
330
1
100
AcDbSymbolTableRecord
100
AcDbBlockTableRecord
  2
*D40
340
0
  0
BLOCK_RECORD
  5
893
330
1
100
AcDbSymbolTableRecord
100
AcDbBlockTableRecord
  2
*D41
340
0
  0
BLOCK_RECORD
  5
8A1
330
1
100
AcDbSymbolTableRecord
100
AcDbBlockTableRecord
  2
*D42
340
0
  0
BLOCK_RECORD
  5
8AF
330
1
100
AcDbSymbolTableRecord
100
AcDbBlockTableRecord
  2
*D43
340
0
  0
BLOCK_RECORD
  5
E5E
330
1
100
AcDbSymbolTableRecord
100
AcDbBlockTableRecord
  2
HBS
340
0
102
{BLKREFS
331
E7F
102
}
  0
ENDTAB
  0
ENDSEC
  0
SECTION
  2
BLOCKS
  0
BLOCK
  5
1F
330
1E
100
AcDbEntity
  8
0
100
AcDbBlockBegin
  2
*Model_Space
 70
     0
 10
0.0
 20
0.0
 30
0.0
  3
*Model_Space
  1

  0
ENDBLK
  5
20
330
1E
100
AcDbEntity
  8
0
100
AcDbBlockEnd
  0
BLOCK
  5
1B
330
1A
100
AcDbEntity
 67
     1
  8
0
100
AcDbBlockBegin
  2
*Paper_Space
 70
     0
 10
0.0
 20
0.0
 30
0.0
  3
*Paper_Space
  1

  0
ENDBLK
  5
1C
330
1A
100
AcDbEntity
 67
     1
  8
0
100
AcDbBlockEnd
  0
BLOCK
  5
36
330
35
100
AcDbEntity
  8
0
100
AcDbBlockBegin
  2
SECTION
 70
     2
 10
0.0
 20
0.0
 30
0.0
  3
SECTION
  1

  0
ATTDEF
  5
37
330
35
100
AcDbEntity
  8
0
100
AcDbText
 10
0.0
 20
0.0
 30
0.0
 40
0.25
  1

 50
270.0
 41
0.8
  7
SECTION
 72
     4
 11
0.0
 21
0.0
 31
0.0
100
AcDbAttributeDefinition
  3
Enter section
  2
SECTION
 70
     0
  0
ENDBLK
  5
38
330
35
100
AcDbEntity
  8
0
100
AcDbBlockEnd
  0
BLOCK
  5
490
330
485
100
AcDbEntity
  8
0
100
AcDbBlockBegin
  2
*D1
 70
     1
 10
0.0
 20
0.0
 30
0.0
  3
*D1
  1

  0
LINE
  5
B94
330
485
100
AcDbEntity
  8
DIM
 62
     0
370
    -2
100
AcDbLine
 10
4.175894999999999
 20
4.516072
 30
0.0
 11
2.200137
 21
4.516072
 31
0.0
  0
LINE
  5
B95
330
485
100
AcDbEntity
  8
DIM
 62
     0
370
    -2
100
AcDbLine
 10
4.175894999999999
 20
6.485071999999999
 30
0.0
 11
2.200137
 21
6.485071999999999
 31
0.0
  0
LINE
  5
B96
330
485
100
AcDbEntity
  8
DIM
 62
     0
370
    -2
100
AcDbLine
 10
2.339637
 20
4.786071999999999
 30
0.0
 11
2.339637
 21
5.432763999999999
 31
0.0
  0
LINE
  5
B97
330
485
100
AcDbEntity
  8
DIM
 62
     0
370
    -2
100
AcDbLine
 10
2.339637
 20
6.215072
 30
0.0
 11
2.339637
 21
5.890263999999999
 31
0.0
  0
SOLID
  5
B98
330
485
100
AcDbEntity
  8
DIM
 62
     0
100
AcDbTrace
 10
2.294637
 20
4.786071999999999
 30
0.0
 11
2.384637
 21
4.786071999999999
 31
0.0
 12
2.339637
 22
4.516072
 32
0.0
 13
2.339637
 23
4.516072
 33
0.0
  0
SOLID
  5
B99
330
485
100
AcDbEntity
  8
DIM
 62
     0
100
AcDbTrace
 10
2.294637
 20
6.215072
 30
0.0
 11
2.384637
 21
6.215072
 31
0.0
 12
2.339637
 22
6.485071999999999
 32
0.0
 13
2.339637
 23
6.485071999999999
 33
0.0
  0
MTEXT
  5
B9A
330
485
100
AcDbEntity
  8
DIM
 62
     0
100
AcDbMText
 10
2.339636999999999
 20
5.661514
 30
0.0
 40
0.1875
 41
0.0
 71
     5
 72
     1
  1
\A1;1.969
 73
     1
 44
1.0
  0
POINT
  5
B9B
330
485
100
AcDbEntity
  8
DEFPOINTS
 62
     0
100
AcDbPoint
 10
4.270394999999999
 20
4.516072
 30
0.0
  0
POINT
  5
B9C
330
485
100
AcDbEntity
  8
DEFPOINTS
 62
     0
100
AcDbPoint
 10
4.270394999999999
 20
6.485071999999999
 30
0.0
  0
POINT
  5
B9D
330
485
100
AcDbEntity
  8
DEFPOINTS
 62
     0
100
AcDbPoint
 10
2.339637
 20
6.485071999999999
 30
0.0
  0
ENDBLK
  5
491
330
485
100
AcDbEntity
  8
0
100
AcDbBlockEnd
  0
BLOCK
  5
4BA
330
4AF
100
AcDbEntity
  8
0
100
AcDbBlockBegin
  2
*D2
 70
     1
 10
0.0
 20
0.0
 30
0.0
  3
*D2
  1

  0
LINE
  5
EF4
330
4AF
100
AcDbEntity
  8
DIM
 62
     0
370
    -2
100
AcDbLine
 10
8.70305231393436
 20
12.71374
 30
0.0
 11
8.70305231393436
 21
13.19083
 31
0.0
  0
LINE
  5
EF5
330
4AF
100
AcDbEntity
  8
DIM
 62
     0
370
    -2
100
AcDbLine
 10
9.01505231393436
 20
12.71374
 30
0.0
 11
9.01505231393436
 21
13.19083
 31
0.0
  0
LINE
  5
EF6
330
4AF
100
AcDbEntity
  8
DIM
 62
     0
370
    -2
100
AcDbLine
 10
8.433052313934361
 20
13.05133
 30
0.0
 11
8.163052313934361
 21
13.05133
 31
0.0
  0
LINE
  5
EF7
330
4AF
100
AcDbEntity
  8
DIM
 62
     0
370
    -2
100
AcDbLine
 10
9.285052313934359
 20
13.05133
 30
0.0
 11
9.555052313934361
 21
13.05133
 31
0.0
  0
SOLID
  5
EF8
330
4AF
100
AcDbEntity
  8
DIM
 62
     0
100
AcDbTrace
 10
8.433052313934361
 20
13.09633
 30
0.0
 11
8.433052313934361
 21
13.00633
 31
0.0
 12
8.70305231393436
 22
13.05133
 32
0.0
 13
8.70305231393436
 23
13.05133
 33
0.0
  0
SOLID
  5
EF9
330
4AF
100
AcDbEntity
  8
DIM
 62
     0
100
AcDbTrace
 10
9.285052313934359
 20
13.09633
 30
0.0
 11
9.285052313934359
 21
13.00633
 31
0.0
 12
9.01505231393436
 22
13.05133
 32
0.0
 13
9.01505231393436
 23
13.05133
 33
0.0
  0
MTEXT
  5
EFA
330
4AF
100
AcDbEntity
  8
DIM
 62
     0
100
AcDbMText
 10
9.94786481393436
 20
13.05133
 30
0.0
 40
0.1875
 41
0.0
 71
     5
 72
     1
  1
\A1;0.078
 73
     1
 44
1.0
  0
POINT
  5
EFB
330
4AF
100
AcDbEntity
  8
DEFPOINTS
 62
     0
100
AcDbPoint
 10
8.70305231393436
 20
12.61924
 30
0.0
  0
POINT
  5
EFC
330
4AF
100
AcDbEntity
  8
DEFPOINTS
 62
     0
100
AcDbPoint
 10
9.01505231393436
 20
12.61924
 30
0.0
  0
POINT
  5
EFD
330
4AF
100
AcDbEntity
  8
DEFPOINTS
 62
     0
100
AcDbPoint
 10
9.01505231393436
 20
13.05133
 30
0.0
  0
ENDBLK
  5
4BB
330
4AF
100
AcDbEntity
  8
0
100
AcDbBlockEnd
  0
BLOCK
  5
4C8
330
4BD
100
AcDbEntity
  8
0
100
AcDbBlockBegin
  2
*D3
 70
     1
 10
0.0
 20
0.0
 30
0.0
  3
*D3
  1

  0
LINE
  5
ED6
330
4BD
100
AcDbEntity
  8
DIM
 62
     0
370
    -2
100
AcDbLine
 10
8.764552313934359
 20
10.09924
 30
0.0
 11
7.20990331393436
 21
10.09924
 31
0.0
  0
LINE
  5
ED7
330
4BD
100
AcDbEntity
  8
DIM
 62
     0
370
    -2
100
AcDbLine
 10
8.764552313934359
 20
12.77524
 30
0.0
 11
7.20990331393436
 21
12.77524
 31
0.0
  0
LINE
  5
ED8
330
4BD
100
AcDbEntity
  8
DIM
 62
     0
370
    -2
100
AcDbLine
 10
7.349403313934359
 20
10.36923999999999
 30
0.0
 11
7.349403313934359
 21
11.20849
 31
0.0
  0
LINE
  5
ED9
330
4BD
100
AcDbEntity
  8
DIM
 62
     0
370
    -2
100
AcDbLine
 10
7.349403313934359
 20
12.50524
 30
0.0
 11
7.349403313934359
 21
11.66599
 31
0.0
  0
SOLID
  5
EDA
330
4BD
100
AcDbEntity
  8
DIM
 62
     0
100
AcDbTrace
 10
7.30440331393436
 20
10.36923999999999
 30
0.0
 11
7.394403313934359
 21
10.36923999999999
 31
0.0
 12
7.349403313934359
 22
10.09924
 32
0.0
 13
7.349403313934359
 23
10.09924
 33
0.0
  0
SOLID
  5
EDB
330
4BD
100
AcDbEntity
  8
DIM
 62
     0
100
AcDbTrace
 10
7.30440331393436
 20
12.50524
 30
0.0
 11
7.394403313934359
 21
12.50524
 31
0.0
 12
7.349403313934359
 22
12.77524
 32
0.0
 13
7.349403313934359
 23
12.77524
 33
0.0
  0
MTEXT
  5
EDC
330
4BD
100
AcDbEntity
  8
DIM
 62
     0
100
AcDbMText
 10
7.349403313934358
 20
11.43724
 30
0.0
 40
0.1875
 41
0.0
 71
     5
 72
     1
  1
\A1;0.669
 73
     1
 44
1.0
  0
POINT
  5
EDD
330
4BD
100
AcDbEntity
  8
DEFPOINTS
 62
     0
100
AcDbPoint
 10
8.859052313934359
 20
10.09924
 30
0.0
  0
POINT
  5
EDE
330
4BD
100
AcDbEntity
  8
DEFPOINTS
 62
     0
100
AcDbPoint
 10
8.859052313934359
 20
12.77524
 30
0.0
  0
POINT
  5
EDF
330
4BD
100
AcDbEntity
  8
DEFPOINTS
 62
     0
100
AcDbPoint
 10
7.349403313934359
 20
12.77524
 30
0.0
  0
ENDBLK
  5
4C9
330
4BD
100
AcDbEntity
  8
0
100
AcDbBlockEnd
  0
BLOCK
  5
4D6
330
4CB
100
AcDbEntity
  8
0
100
AcDbBlockBegin
  2
*D4
 70
     1
 10
0.0
 20
0.0
 30
0.0
  3
*D4
  1

  0
LINE
  5
EEA
330
4CB
100
AcDbEntity
  8
DIM
 62
     0
370
    -2
100
AcDbLine
 10
8.764552313934359
 20
11.43723999999999
 30
0.0
 11
7.770903313934359
 21
11.43723999999999
 31
0.0
  0
LINE
  5
EEB
330
4CB
100
AcDbEntity
  8
DIM
 62
     0
370
    -2
100
AcDbLine
 10
8.764552313934359
 20
10.09924
 30
0.0
 11
7.770903313934359
 21
10.09924
 31
0.0
  0
LINE
  5
EEC
330
4CB
100
AcDbEntity
  8
DIM
 62
     0
370
    -2
100
AcDbLine
 10
7.910403313934359
 20
11.16724
 30
0.0
 11
7.910403313934359
 21
10.99698999999999
 31
0.0
  0
LINE
  5
EED
330
4CB
100
AcDbEntity
  8
DIM
 62
     0
370
    -2
100
AcDbLine
 10
7.910403313934359
 20
10.36923999999999
 30
0.0
 11
7.910403313934359
 21
10.53949
 31
0.0
  0
SOLID
  5
EEE
330
4CB
100
AcDbEntity
  8
DIM
 62
     0
100
AcDbTrace
 10
7.865403313934359
 20
11.16724
 30
0.0
 11
7.955403313934359
 21
11.16724
 31
0.0
 12
7.910403313934359
 22
11.43723999999999
 32
0.0
 13
7.910403313934359
 23
11.43723999999999
 33
0.0
  0
SOLID
  5
EEF
330
4CB
100
AcDbEntity
  8
DIM
 62
     0
100
AcDbTrace
 10
7.865403313934359
 20
10.36923999999999
 30
0.0
 11
7.955403313934359
 21
10.36923999999999
 31
0.0
 12
7.910403313934359
 22
10.09924
 32
0.0
 13
7.910403313934359
 23
10.09924
 33
0.0
  0
MTEXT
  5
EF0
330
4CB
100
AcDbEntity
  8
DIM
 62
     0
100
AcDbMText
 10
7.910403313934358
 20
10.76824
 30
0.0
 40
0.1875
 41
0.0
 71
     5
 72
     1
  1
\A1;0.335
 73
     1
 44
1.0
  0
POINT
  5
EF1
330
4CB
100
AcDbEntity
  8
DEFPOINTS
 62
     0
100
AcDbPoint
 10
8.859052313934359
 20
11.43723999999999
 30
0.0
  0
POINT
  5
EF2
330
4CB
100
AcDbEntity
  8
DEFPOINTS
 62
     0
100
AcDbPoint
 10
8.859052313934359
 20
10.09924
 30
0.0
  0
POINT
  5
EF3
330
4CB
100
AcDbEntity
  8
DEFPOINTS
 62
     0
100
AcDbPoint
 10
7.910403313934359
 20
10.09924
 30
0.0
  0
ENDBLK
  5
4D7
330
4CB
100
AcDbEntity
  8
0
100
AcDbBlockEnd
  0
BLOCK
  5
4E4
330
4D9
100
AcDbEntity
  8
0
100
AcDbBlockBegin
  2
*D5
 70
     1
 10
0.0
 20
0.0
 30
0.0
  3
*D5
  1

  0
LINE
  5
EE0
330
4D9
100
AcDbEntity
  8
DIM
 62
     0
370
    -2
100
AcDbLine
 10
8.339052313934359
 20
11.34274
 30
0.0
 11
8.339052313934359
 21
9.616232999999999
 31
0.0
  0
LINE
  5
EE1
330
4D9
100
AcDbEntity
  8
DIM
 62
     0
370
    -2
100
AcDbLine
 10
9.379052313934359
 20
11.34274
 30
0.0
 11
9.379052313934359
 21
9.616232999999999
 31
0.0
  0
LINE
  5
EE2
330
4D9
100
AcDbEntity
  8
DIM
 62
     0
370
    -2
100
AcDbLine
 10
8.06905231393436
 20
9.755732999999999
 30
0.0
 11
7.799052313934359
 21
9.755732999999999
 31
0.0
  0
LINE
  5
EE3
330
4D9
100
AcDbEntity
  8
DIM
 62
     0
370
    -2
100
AcDbLine
 10
9.649052313934358
 20
9.755732999999999
 30
0.0
 11
9.919052313934358
 21
9.755732999999999
 31
0.0
  0
SOLID
  5
EE4
330
4D9
100
AcDbEntity
  8
DIM
 62
     0
100
AcDbTrace
 10
8.06905231393436
 20
9.800732999999999
 30
0.0
 11
8.06905231393436
 21
9.710732999999999
 31
0.0
 12
8.339052313934359
 22
9.755732999999999
 32
0.0
 13
8.339052313934359
 23
9.755732999999999
 33
0.0
  0
SOLID
  5
EE5
330
4D9
100
AcDbEntity
  8
DIM
 62
     0
100
AcDbTrace
 10
9.649052313934358
 20
9.800732999999999
 30
0.0
 11
9.649052313934358
 21
9.710732999999999
 31
0.0
 12
9.379052313934359
 22
9.755732999999999
 32
0.0
 13
9.379052313934359
 23
9.755732999999999
 33
0.0
  0
MTEXT
  5
EE6
330
4D9
100
AcDbEntity
  8
DIM
 62
     0
100
AcDbMText
 10
8.859052313934359
 20
9.755732999999999
 30
0.0
 40
0.1875
 41
0.0
 71
     5
 72
     1
  1
\A1;0.260
 73
     1
 44
1.0
  0
POINT
  5
EE7
330
4D9
100
AcDbEntity
  8
DEFPOINTS
 62
     0
100
AcDbPoint
 10
8.339052313934359
 20
11.43723999999999
 30
0.0
  0
POINT
  5
EE8
330
4D9
100
AcDbEntity
  8
DEFPOINTS
 62
     0
100
AcDbPoint
 10
9.379052313934359
 20
11.43723999999999
 30
0.0
  0
POINT
  5
EE9
330
4D9
100
AcDbEntity
  8
DEFPOINTS
 62
     0
100
AcDbPoint
 10
9.379052313934359
 20
9.755732999999999
 30
0.0
  0
ENDBLK
  5
4E5
330
4D9
100
AcDbEntity
  8
0
100
AcDbBlockEnd
  0
BLOCK
  5
4FA
330
4EF
100
AcDbEntity
  8
0
100
AcDbBlockBegin
  2
*D6
 70
     1
 10
0.0
 20
0.0
 30
0.0
  3
*D6
  1

  0
LINE
  5
B4E
330
4EF
100
AcDbEntity
  8
DIM
 62
     0
370
    -2
100
AcDbLine
 10
4.051644999999999
 20
6.360821999999999
 30
0.0
 11
4.051644999999999
 21
8.460175999999998
 31
0.0
  0
LINE
  5
B4F
330
4EF
100
AcDbEntity
  8
DIM
 62
     0
370
    -2
100
AcDbLine
 10
6.098644999999999
 20
6.360821999999999
 30
0.0
 11
6.098644999999999
 21
8.460175999999998
 31
0.0
  0
LINE
  5
B50
330
4EF
100
AcDbEntity
  8
DIM
 62
     0
370
    -2
100
AcDbLine
 10
4.321645
 20
8.320675999999998
 30
0.0
 11
4.67061375
 21
8.320675999999998
 31
0.0
  0
LINE
  5
B51
330
4EF
100
AcDbEntity
  8
DIM
 62
     0
370
    -2
100
AcDbLine
 10
5.828644999999999
 20
8.320675999999998
 30
0.0
 11
5.479676249999999
 21
8.320675999999998
 31
0.0
  0
SOLID
  5
B52
330
4EF
100
AcDbEntity
  8
DIM
 62
     0
100
AcDbTrace
 10
4.321645
 20
8.365675999999998
 30
0.0
 11
4.321645
 21
8.275675999999998
 31
0.0
 12
4.051644999999999
 22
8.320675999999998
 32
0.0
 13
4.051644999999999
 23
8.320675999999998
 33
0.0
  0
SOLID
  5
B53
330
4EF
100
AcDbEntity
  8
DIM
 62
     0
100
AcDbTrace
 10
5.828644999999999
 20
8.365675999999998
 30
0.0
 11
5.828644999999999
 21
8.275675999999998
 31
0.0
 12
6.098644999999999
 22
8.320675999999998
 32
0.0
 13
6.098644999999999
 23
8.320675999999998
 33
0.0
  0
MTEXT
  5
B54
330
4EF
100
AcDbEntity
  8
DIM
 62
     0
100
AcDbMText
 10
5.075145
 20
8.320675999999998
 30
0.0
 40
0.1875
 41
0.0
 71
     5
 72
     1
  1
\A1;2.047
 73
     1
 44
1.0
  0
POINT
  5
B55
330
4EF
100
AcDbEntity
  8
DEFPOINTS
 62
     0
100
AcDbPoint
 10
4.051644999999999
 20
6.266321999999999
 30
0.0
  0
POINT
  5
B56
330
4EF
100
AcDbEntity
  8
DEFPOINTS
 62
     0
100
AcDbPoint
 10
6.098644999999999
 20
6.266321999999999
 30
0.0
  0
POINT
  5
B57
330
4EF
100
AcDbEntity
  8
DEFPOINTS
 62
     0
100
AcDbPoint
 10
6.098644999999999
 20
8.320675999999998
 30
0.0
  0
ENDBLK
  5
4FB
330
4EF
100
AcDbEntity
  8
0
100
AcDbBlockEnd
  0
BLOCK
  5
5B6
330
5AB
100
AcDbEntity
  8
0
100
AcDbBlockBegin
  2
*D7
 70
     1
 10
0.0
 20
0.0
 30
0.0
  3
*D7
  1

  0
LINE
  5
C19
330
5AB
100
AcDbEntity
  8
DIM
 62
     0
370
    -2
100
AcDbLine
 10
9.237861999999999
 20
6.517071999999999
 30
0.0
 11
9.237861999999999
 21
7.370224999999999
 31
0.0
  0
LINE
  5
C1A
330
5AB
100
AcDbEntity
  8
DIM
 62
     0
370
    -2
100
AcDbLine
 10
8.567861999999999
 20
6.499821999999999
 30
0.0
 11
8.567861999999999
 21
7.370224999999999
 31
0.0
  0
LINE
  5
C1B
330
5AB
100
AcDbEntity
  8
DIM
 62
     0
370
    -2
100
AcDbLine
 10
9.507861999999999
 20
7.230724999999999
 30
0.0
 11
9.777861999999998
 21
7.230724999999999
 31
0.0
  0
LINE
  5
C1C
330
5AB
100
AcDbEntity
  8
DIM
 62
     0
370
    -2
100
AcDbLine
 10
8.297862
 20
7.230724999999999
 30
0.0
 11
8.027861999999998
 21
7.230724999999999
 31
0.0
  0
SOLID
  5
C1D
330
5AB
100
AcDbEntity
  8
DIM
 62
     0
100
AcDbTrace
 10
9.507861999999999
 20
7.275724999999999
 30
0.0
 11
9.507861999999999
 21
7.185724999999999
 31
0.0
 12
9.237861999999999
 22
7.230724999999999
 32
0.0
 13
9.237861999999999
 23
7.230724999999999
 33
0.0
  0
SOLID
  5
C1E
330
5AB
100
AcDbEntity
  8
DIM
 62
     0
100
AcDbTrace
 10
8.297862
 20
7.275724999999999
 30
0.0
 11
8.297862
 21
7.185724999999999
 31
0.0
 12
8.567861999999999
 22
7.230724999999999
 32
0.0
 13
8.567861999999999
 23
7.230724999999999
 33
0.0
  0
MTEXT
  5
C1F
330
5AB
100
AcDbEntity
  8
DIM
 62
     0
100
AcDbMText
 10
8.902861999999998
 20
7.230724999999999
 30
0.0
 40
0.1875
 41
0.0
 71
     5
 72
     1
  1
\A1;0.670
 73
     1
 44
1.0
  0
POINT
  5
C20
330
5AB
100
AcDbEntity
  8
DEFPOINTS
 62
     0
100
AcDbPoint
 10
9.237861999999999
 20
6.422571999999999
 30
0.0
  0
POINT
  5
C21
330
5AB
100
AcDbEntity
  8
DEFPOINTS
 62
     0
100
AcDbPoint
 10
8.567861999999999
 20
6.405321999999999
 30
0.0
  0
POINT
  5
C22
330
5AB
100
AcDbEntity
  8
DEFPOINTS
 62
     0
100
AcDbPoint
 10
8.567861999999999
 20
7.230724999999999
 30
0.0
  0
ENDBLK
  5
5B7
330
5AB
100
AcDbEntity
  8
0
100
AcDbBlockEnd
  0
BLOCK
  5
5C4
330
5B9
100
AcDbEntity
  8
0
100
AcDbBlockBegin
  2
*D8
 70
     1
 10
0.0
 20
0.0
 30
0.0
  3
*D8
  1

  0
LINE
  5
B44
330
5B9
100
AcDbEntity
  8
DIM
 62
     0
370
    -2
100
AcDbLine
 10
9.237861999999999
 20
6.517071999999999
 30
0.0
 11
9.237861999999999
 21
7.791724999999999
 31
0.0
  0
LINE
  5
B45
330
5B9
100
AcDbEntity
  8
DIM
 62
     0
370
    -2
100
AcDbLine
 10
8.192861999999999
 20
6.501572
 30
0.0
 11
8.192861999999999
 21
7.791724999999999
 31
0.0
  0
LINE
  5
B46
330
5B9
100
AcDbEntity
  8
DIM
 62
     0
370
    -2
100
AcDbLine
 10
9.507861999999999
 20
7.652224999999999
 30
0.0
 11
9.777861999999998
 21
7.652224999999999
 31
0.0
  0
LINE
  5
B47
330
5B9
100
AcDbEntity
  8
DIM
 62
     0
370
    -2
100
AcDbLine
 10
7.922862
 20
7.652224999999999
 30
0.0
 11
7.652861999999999
 21
7.652224999999999
 31
0.0
  0
SOLID
  5
B48
330
5B9
100
AcDbEntity
  8
DIM
 62
     0
100
AcDbTrace
 10
9.507861999999999
 20
7.697224999999999
 30
0.0
 11
9.507861999999999
 21
7.607224999999999
 31
0.0
 12
9.237861999999999
 22
7.652224999999999
 32
0.0
 13
9.237861999999999
 23
7.652224999999999
 33
0.0
  0
SOLID
  5
B49
330
5B9
100
AcDbEntity
  8
DIM
 62
     0
100
AcDbTrace
 10
7.922862
 20
7.697224999999999
 30
0.0
 11
7.922862
 21
7.607224999999999
 31
0.0
 12
8.192861999999999
 22
7.652224999999999
 32
0.0
 13
8.192861999999999
 23
7.652224999999999
 33
0.0
  0
MTEXT
  5
B4A
330
5B9
100
AcDbEntity
  8
DIM
 62
     0
100
AcDbMText
 10
8.715361999999998
 20
7.652224999999999
 30
0.0
 40
0.1875
 41
0.0
 71
     5
 72
     1
  1
\A1;1.045
 73
     1
 44
1.0
  0
POINT
  5
B4B
330
5B9
100
AcDbEntity
  8
DEFPOINTS
 62
     0
100
AcDbPoint
 10
9.237861999999999
 20
6.422571999999999
 30
0.0
  0
POINT
  5
B4C
330
5B9
100
AcDbEntity
  8
DEFPOINTS
 62
     0
100
AcDbPoint
 10
8.192861999999999
 20
6.407072
 30
0.0
  0
POINT
  5
B4D
330
5B9
100
AcDbEntity
  8
DEFPOINTS
 62
     0
100
AcDbPoint
 10
8.192861999999999
 20
7.652224999999999
 30
0.0
  0
ENDBLK
  5
5C5
330
5B9
100
AcDbEntity
  8
0
100
AcDbBlockEnd
  0
BLOCK
  5
5D2
330
5C7
100
AcDbEntity
  8
0
100
AcDbBlockBegin
  2
*D9
 70
     1
 10
0.0
 20
0.0
 30
0.0
  3
*D9
  1

  0
LINE
  5
BB3
330
5C7
100
AcDbEntity
  8
DIM
 62
     0
370
    -2
100
AcDbLine
 10
9.237861999999999
 20
4.484072
 30
0.0
 11
9.237861999999999
 21
4.033501999999999
 31
0.0
  0
LINE
  5
BB4
330
5C7
100
AcDbEntity
  8
DIM
 62
     0
370
    -2
100
AcDbLine
 10
9.119861999999999
 20
4.486571999999999
 30
0.0
 11
9.119861999999999
 21
4.033501999999999
 31
0.0
  0
LINE
  5
BB5
330
5C7
100
AcDbEntity
  8
DIM
 62
     0
370
    -2
100
AcDbLine
 10
9.507861999999999
 20
4.173001999999999
 30
0.0
 11
9.777861999999998
 21
4.173001999999999
 31
0.0
  0
LINE
  5
BB6
330
5C7
100
AcDbEntity
  8
DIM
 62
     0
370
    -2
100
AcDbLine
 10
8.849861999999999
 20
4.173001999999999
 30
0.0
 11
8.579861999999998
 21
4.173001999999999
 31
0.0
  0
SOLID
  5
BB7
330
5C7
100
AcDbEntity
  8
DIM
 62
     0
100
AcDbTrace
 10
9.507861999999999
 20
4.218001999999999
 30
0.0
 11
9.507861999999999
 21
4.128001999999999
 31
0.0
 12
9.237861999999999
 22
4.173001999999999
 32
0.0
 13
9.237861999999999
 23
4.173001999999999
 33
0.0
  0
SOLID
  5
BB8
330
5C7
100
AcDbEntity
  8
DIM
 62
     0
100
AcDbTrace
 10
8.849861999999999
 20
4.218001999999999
 30
0.0
 11
8.849861999999999
 21
4.128001999999999
 31
0.0
 12
9.119861999999999
 22
4.173001999999999
 32
0.0
 13
9.119861999999999
 23
4.173001999999999
 33
0.0
  0
MTEXT
  5
BB9
330
5C7
100
AcDbEntity
  8
DIM
 62
     0
100
AcDbMText
 10
8.222205749999998
 20
4.173001999999999
 30
0.0
 40
0.1875
 41
0.0
 71
     5
 72
     1
  1
\A1;0.118
 73
     1
 44
1.0
  0
POINT
  5
BBA
330
5C7
100
AcDbEntity
  8
DEFPOINTS
 62
     0
100
AcDbPoint
 10
9.237861999999999
 20
4.578572
 30
0.0
  0
POINT
  5
BBB
330
5C7
100
AcDbEntity
  8
DEFPOINTS
 62
     0
100
AcDbPoint
 10
9.119861999999999
 20
4.581071999999999
 30
0.0
  0
POINT
  5
BBC
330
5C7
100
AcDbEntity
  8
DEFPOINTS
 62
     0
100
AcDbPoint
 10
9.119861999999999
 20
4.173001999999999
 30
0.0
  0
ENDBLK
  5
5D3
330
5C7
100
AcDbEntity
  8
0
100
AcDbBlockEnd
  0
BLOCK
  5
5E6
330
5DB
100
AcDbEntity
  8
0
100
AcDbBlockBegin
  2
*D10
 70
     1
 10
0.0
 20
0.0
 30
0.0
  3
*D10
  1

  0
LINE
  5
BC7
330
5DB
100
AcDbEntity
  8
DIM
 62
     0
370
    -2
100
AcDbLine
 10
5.985145
 20
6.033133999999999
 30
0.0
 11
7.214332000000001
 21
6.033133999999998
 31
0.0
  0
LINE
  5
BC8
330
5DB
100
AcDbEntity
  8
DIM
 62
     0
370
    -2
100
AcDbLine
 10
5.985145
 20
4.968008999999999
 30
0.0
 11
7.214332
 21
4.968008999999998
 31
0.0
  0
LINE
  5
BC9
330
5DB
100
AcDbEntity
  8
DIM
 62
     0
370
    -2
100
AcDbLine
 10
7.074832000000001
 20
6.303133999999998
 30
0.0
 11
7.074832000000001
 21
6.573133999999998
 31
0.0
  0
LINE
  5
BCA
330
5DB
100
AcDbEntity
  8
DIM
 62
     0
370
    -2
100
AcDbLine
 10
7.074832
 20
4.698008999999998
 30
0.0
 11
7.074832
 21
4.428008999999998
 31
0.0
  0
SOLID
  5
BCB
330
5DB
100
AcDbEntity
  8
DIM
 62
     0
100
AcDbTrace
 10
7.029832000000001
 20
6.303133999999998
 30
0.0
 11
7.119832000000001
 21
6.303133999999998
 31
0.0
 12
7.074832000000001
 22
6.033133999999998
 32
0.0
 13
7.074832000000001
 23
6.033133999999998
 33
0.0
  0
SOLID
  5
BCC
330
5DB
100
AcDbEntity
  8
DIM
 62
     0
100
AcDbTrace
 10
7.029832
 20
4.698008999999998
 30
0.0
 11
7.119832
 21
4.698008999999998
 31
0.0
 12
7.074832
 22
4.968008999999998
 32
0.0
 13
7.074832
 23
4.968008999999998
 33
0.0
  0
MTEXT
  5
BCD
330
5DB
100
AcDbEntity
  8
DIM
 62
     0
100
AcDbMText
 10
7.074831999999999
 20
5.5005715
 30
0.0
 40
0.1875
 41
0.0
 71
     5
 72
     1
  1
\A1;1.065
 73
     1
 44
1.0
  0
POINT
  5
BCE
330
5DB
100
AcDbEntity
  8
DEFPOINTS
 62
     0
100
AcDbPoint
 10
5.890645
 20
6.033133999999999
 30
0.0
  0
POINT
  5
BCF
330
5DB
100
AcDbEntity
  8
DEFPOINTS
 62
     0
100
AcDbPoint
 10
5.890645
 20
4.968008999999999
 30
0.0
  0
POINT
  5
BD0
330
5DB
100
AcDbEntity
  8
DEFPOINTS
 62
     0
100
AcDbPoint
 10
7.074832
 20
4.968008999999998
 30
0.0
  0
ENDBLK
  5
5E7
330
5DB
100
AcDbEntity
  8
0
100
AcDbBlockEnd
  0
BLOCK
  5
5F4
330
5E9
100
AcDbEntity
  8
0
100
AcDbBlockBegin
  2
*D11
 70
     1
 10
0.0
 20
0.0
 30
0.0
  3
*D11
  1

  0
LINE
  5
BBD
330
5E9
100
AcDbEntity
  8
DIM
 62
     0
370
    -2
100
AcDbLine
 10
5.985145
 20
4.968008999999999
 30
0.0
 11
6.786171999999999
 21
4.968008999999998
 31
0.0
  0
LINE
  5
BBE
330
5E9
100
AcDbEntity
  8
DIM
 62
     0
370
    -2
100
AcDbLine
 10
5.974394999999999
 20
4.516072
 30
0.0
 11
6.786171999999999
 21
4.516071999999999
 31
0.0
  0
LINE
  5
BBF
330
5E9
100
AcDbEntity
  8
DIM
 62
     0
370
    -2
100
AcDbLine
 10
6.646671999999999
 20
5.238008999999998
 30
0.0
 11
6.646671999999999
 21
5.508008999999998
 31
0.0
  0
LINE
  5
BC0
330
5E9
100
AcDbEntity
  8
DIM
 62
     0
370
    -2
100
AcDbLine
 10
6.646671999999999
 20
4.246071999999999
 30
0.0
 11
6.646671999999999
 21
3.976071999999999
 31
0.0
  0
SOLID
  5
BC1
330
5E9
100
AcDbEntity
  8
DIM
 62
     0
100
AcDbTrace
 10
6.601671999999999
 20
5.238008999999998
 30
0.0
 11
6.691671999999999
 21
5.238008999999998
 31
0.0
 12
6.646671999999999
 22
4.968008999999998
 32
0.0
 13
6.646671999999999
 23
4.968008999999998
 33
0.0
  0
SOLID
  5
BC2
330
5E9
100
AcDbEntity
  8
DIM
 62
     0
100
AcDbTrace
 10
6.601671999999999
 20
4.246071999999999
 30
0.0
 11
6.691671999999999
 21
4.246071999999999
 31
0.0
 12
6.646671999999999
 22
4.516071999999999
 32
0.0
 13
6.646671999999999
 23
4.516071999999999
 33
0.0
  0
MTEXT
  5
BC3
330
5E9
100
AcDbEntity
  8
DIM
 62
     0
100
AcDbMText
 10
6.646671999999998
 20
4.7420405
 30
0.0
 40
0.1875
 41
0.0
 71
     5
 72
     1
  1
\A1;0.452
 73
     1
 44
1.0
  0
POINT
  5
BC4
330
5E9
100
AcDbEntity
  8
DEFPOINTS
 62
     0
100
AcDbPoint
 10
5.890645
 20
4.968008999999999
 30
0.0
  0
POINT
  5
BC5
330
5E9
100
AcDbEntity
  8
DEFPOINTS
 62
     0
100
AcDbPoint
 10
5.879894999999999
 20
4.516072
 30
0.0
  0
POINT
  5
BC6
330
5E9
100
AcDbEntity
  8
DEFPOINTS
 62
     0
100
AcDbPoint
 10
6.646671999999999
 20
4.516071999999999
 30
0.0
  0
ENDBLK
  5
5F5
330
5E9
100
AcDbEntity
  8
0
100
AcDbBlockEnd
  0
BLOCK
  5
602
330
5F7
100
AcDbEntity
  8
0
100
AcDbBlockBegin
  2
*D12
 70
     1
 10
0.0
 20
0.0
 30
0.0
  3
*D12
  1

  0
LINE
  5
B8A
330
5F7
100
AcDbEntity
  8
DIM
 62
     0
370
    -2
100
AcDbLine
 10
5.646958
 20
4.629572
 30
0.0
 11
5.646958
 21
2.915331999999999
 31
0.0
  0
LINE
  5
B8B
330
5F7
100
AcDbEntity
  8
DIM
 62
     0
370
    -2
100
AcDbLine
 10
4.503333
 20
4.629572
 30
0.0
 11
4.503333
 21
2.915331999999999
 31
0.0
  0
LINE
  5
B8C
330
5F7
100
AcDbEntity
  8
DIM
 62
     0
370
    -2
100
AcDbLine
 10
5.916958000000001
 20
3.054831999999999
 30
0.0
 11
6.186958
 21
3.054831999999999
 31
0.0
  0
LINE
  5
B8D
330
5F7
100
AcDbEntity
  8
DIM
 62
     0
370
    -2
100
AcDbLine
 10
4.233333
 20
3.054831999999999
 30
0.0
 11
3.963333
 21
3.054831999999999
 31
0.0
  0
SOLID
  5
B8E
330
5F7
100
AcDbEntity
  8
DIM
 62
     0
100
AcDbTrace
 10
5.916958000000001
 20
3.099831999999999
 30
0.0
 11
5.916958000000001
 21
3.009831999999999
 31
0.0
 12
5.646958
 22
3.054831999999999
 32
0.0
 13
5.646958
 23
3.054831999999999
 33
0.0
  0
SOLID
  5
B8F
330
5F7
100
AcDbEntity
  8
DIM
 62
     0
100
AcDbTrace
 10
4.233333
 20
3.099831999999999
 30
0.0
 11
4.233333
 21
3.009831999999999
 31
0.0
 12
4.503333
 22
3.054831999999999
 32
0.0
 13
4.503333
 23
3.054831999999999
 33
0.0
  0
MTEXT
  5
B90
330
5F7
100
AcDbEntity
  8
DIM
 62
     0
100
AcDbMText
 10
5.0751455
 20
3.054831999999999
 30
0.0
 40
0.1875
 41
0.0
 71
     5
 72
     1
  1
\A1;1.144
 73
     1
 44
1.0
  0
POINT
  5
B91
330
5F7
100
AcDbEntity
  8
DEFPOINTS
 62
     0
100
AcDbPoint
 10
5.646958
 20
4.724072
 30
0.0
  0
POINT
  5
B92
330
5F7
100
AcDbEntity
  8
DEFPOINTS
 62
     0
100
AcDbPoint
 10
4.503333
 20
4.724072
 30
0.0
  0
POINT
  5
B93
330
5F7
100
AcDbEntity
  8
DEFPOINTS
 62
     0
100
AcDbPoint
 10
4.503333
 20
3.054831999999999
 30
0.0
  0
ENDBLK
  5
603
330
5F7
100
AcDbEntity
  8
0
100
AcDbBlockEnd
  0
BLOCK
  5
610
330
605
100
AcDbEntity
  8
0
100
AcDbBlockBegin
  2
*D13
 70
     1
 10
0.0
 20
0.0
 30
0.0
  3
*D13
  1

  0
LINE
  5
BA9
330
605
100
AcDbEntity
  8
DIM
 62
     0
370
    -2
100
AcDbLine
 10
5.646958
 20
4.629572
 30
0.0
 11
5.646958
 21
2.493831999999999
 31
0.0
  0
LINE
  5
BAA
330
605
100
AcDbEntity
  8
DIM
 62
     0
370
    -2
100
AcDbLine
 10
6.098644999999999
 20
4.640322
 30
0.0
 11
6.098644999999999
 21
2.493831999999999
 31
0.0
  0
LINE
  5
BAB
330
605
100
AcDbEntity
  8
DIM
 62
     0
370
    -2
100
AcDbLine
 10
5.376958
 20
2.633331999999999
 30
0.0
 11
5.106958
 21
2.633331999999999
 31
0.0
  0
LINE
  5
BAC
330
605
100
AcDbEntity
  8
DIM
 62
     0
370
    -2
100
AcDbLine
 10
6.368644999999999
 20
2.633331999999999
 30
0.0
 11
6.638644999999999
 21
2.633331999999999
 31
0.0
  0
SOLID
  5
BAD
330
605
100
AcDbEntity
  8
DIM
 62
     0
100
AcDbTrace
 10
5.376958
 20
2.678331999999999
 30
0.0
 11
5.376958
 21
2.588331999999999
 31
0.0
 12
5.646958
 22
2.633331999999999
 32
0.0
 13
5.646958
 23
2.633331999999999
 33
0.0
  0
SOLID
  5
BAE
330
605
100
AcDbEntity
  8
DIM
 62
     0
100
AcDbTrace
 10
6.368644999999999
 20
2.678331999999999
 30
0.0
 11
6.368644999999999
 21
2.588331999999999
 31
0.0
 12
6.098644999999999
 22
2.633331999999999
 32
0.0
 13
6.098644999999999
 23
2.633331999999999
 33
0.0
  0
MTEXT
  5
BAF
330
605
100
AcDbEntity
  8
DIM
 62
     0
100
AcDbMText
 10
7.043176249999999
 20
2.633331999999999
 30
0.0
 40
0.1875
 41
0.0
 71
     5
 72
     1
  1
\A1;0.452
 73
     1
 44
1.0
  0
POINT
  5
BB0
330
605
100
AcDbEntity
  8
DEFPOINTS
 62
     0
100
AcDbPoint
 10
5.646958
 20
4.724072
 30
0.0
  0
POINT
  5
BB1
330
605
100
AcDbEntity
  8
DEFPOINTS
 62
     0
100
AcDbPoint
 10
6.098644999999999
 20
4.734822
 30
0.0
  0
POINT
  5
BB2
330
605
100
AcDbEntity
  8
DEFPOINTS
 62
     0
100
AcDbPoint
 10
6.098644999999999
 20
2.633331999999999
 30
0.0
  0
ENDBLK
  5
611
330
605
100
AcDbEntity
  8
0
100
AcDbBlockEnd
  0
BLOCK
  5
61E
330
613
100
AcDbEntity
  8
0
100
AcDbBlockBegin
  2
*D14
 70
     1
 10
0.0
 20
0.0
 30
0.0
  3
*D14
  1

  0
LINE
  5
B80
330
613
100
AcDbEntity
  8
DIM
 62
     0
370
    -2
100
AcDbLine
 10
5.398144999999999
 20
5.993077999999999
 30
0.0
 11
5.398144999999999
 21
7.195675999999999
 31
0.0
  0
LINE
  5
B81
330
613
100
AcDbEntity
  8
DIM
 62
     0
370
    -2
100
AcDbLine
 10
4.752144999999999
 20
5.890572
 30
0.0
 11
4.752144999999999
 21
7.195675999999999
 31
0.0
  0
LINE
  5
B82
330
613
100
AcDbEntity
  8
DIM
 62
     0
370
    -2
100
AcDbLine
 10
5.668144999999999
 20
7.056175999999999
 30
0.0
 11
5.938144999999999
 21
7.056175999999999
 31
0.0
  0
LINE
  5
B83
330
613
100
AcDbEntity
  8
DIM
 62
     0
370
    -2
100
AcDbLine
 10
4.482144999999999
 20
7.056175999999999
 30
0.0
 11
4.212144999999999
 21
7.056175999999999
 31
0.0
  0
SOLID
  5
B84
330
613
100
AcDbEntity
  8
DIM
 62
     0
100
AcDbTrace
 10
5.668144999999999
 20
7.101175999999999
 30
0.0
 11
5.668144999999999
 21
7.011175999999999
 31
0.0
 12
5.398144999999999
 22
7.056175999999999
 32
0.0
 13
5.398144999999999
 23
7.056175999999999
 33
0.0
  0
SOLID
  5
B85
330
613
100
AcDbEntity
  8
DIM
 62
     0
100
AcDbTrace
 10
4.482144999999999
 20
7.101175999999999
 30
0.0
 11
4.482144999999999
 21
7.011175999999999
 31
0.0
 12
4.752144999999999
 22
7.056175999999999
 32
0.0
 13
4.752144999999999
 23
7.056175999999999
 33
0.0
  0
MTEXT
  5
B86
330
613
100
AcDbEntity
  8
DIM
 62
     0
100
AcDbMText
 10
5.075144999999999
 20
7.056175999999999
 30
0.0
 40
0.1875
 41
0.0
 71
     5
 72
     1
  1
\A1;0.646
 73
     1
 44
1.0
  0
POINT
  5
B87
330
613
100
AcDbEntity
  8
DEFPOINTS
 62
     0
100
AcDbPoint
 10
5.398144999999999
 20
5.898577999999999
 30
0.0
  0
POINT
  5
B88
330
613
100
AcDbEntity
  8
DEFPOINTS
 62
     0
100
AcDbPoint
 10
4.752144999999999
 20
5.796072
 30
0.0
  0
POINT
  5
B89
330
613
100
AcDbEntity
  8
DEFPOINTS
 62
     0
100
AcDbPoint
 10
4.752144999999999
 20
7.056175999999999
 30
0.0
  0
ENDBLK
  5
61F
330
613
100
AcDbEntity
  8
0
100
AcDbBlockEnd
  0
BLOCK
  5
62C
330
621
100
AcDbEntity
  8
0
100
AcDbBlockBegin
  2
*D15
 70
     1
 10
0.0
 20
0.0
 30
0.0
  3
*D15
  1

  0
LINE
  5
B3A
330
621
100
AcDbEntity
  8
DIM
 62
     0
370
    -2
100
AcDbLine
 10
4.752144999999999
 20
5.890572
 30
0.0
 11
4.752144999999999
 21
8.038675999999998
 31
0.0
  0
LINE
  5
B3B
330
621
100
AcDbEntity
  8
DIM
 62
     0
370
    -2
100
AcDbLine
 10
4.051644999999999
 20
6.360821999999999
 30
0.0
 11
4.051644999999999
 21
8.038675999999998
 31
0.0
  0
LINE
  5
B3C
330
621
100
AcDbEntity
  8
DIM
 62
     0
370
    -2
100
AcDbLine
 10
5.022145
 20
7.899175999999999
 30
0.0
 11
5.292144999999999
 21
7.899175999999999
 31
0.0
  0
LINE
  5
B3D
330
621
100
AcDbEntity
  8
DIM
 62
     0
370
    -2
100
AcDbLine
 10
3.781644999999999
 20
7.899175999999999
 30
0.0
 11
3.511644999999999
 21
7.899175999999999
 31
0.0
  0
SOLID
  5
B3E
330
621
100
AcDbEntity
  8
DIM
 62
     0
100
AcDbTrace
 10
5.022145
 20
7.944175999999999
 30
0.0
 11
5.022145
 21
7.854175999999999
 31
0.0
 12
4.752144999999999
 22
7.899175999999999
 32
0.0
 13
4.752144999999999
 23
7.899175999999999
 33
0.0
  0
SOLID
  5
B3F
330
621
100
AcDbEntity
  8
DIM
 62
     0
100
AcDbTrace
 10
3.781644999999999
 20
7.944175999999999
 30
0.0
 11
3.781644999999999
 21
7.854175999999999
 31
0.0
 12
4.051644999999999
 22
7.899175999999999
 32
0.0
 13
4.051644999999999
 23
7.899175999999999
 33
0.0
  0
MTEXT
  5
B40
330
621
100
AcDbEntity
  8
DIM
 62
     0
100
AcDbMText
 10
4.401894999999999
 20
7.899175999999999
 30
0.0
 40
0.1875
 41
0.0
 71
     5
 72
     1
  1
\A1;0.701
 73
     1
 44
1.0
  0
POINT
  5
B41
330
621
100
AcDbEntity
  8
DEFPOINTS
 62
     0
100
AcDbPoint
 10
4.752144999999999
 20
5.796072
 30
0.0
  0
POINT
  5
B42
330
621
100
AcDbEntity
  8
DEFPOINTS
 62
     0
100
AcDbPoint
 10
4.051644999999999
 20
6.266321999999999
 30
0.0
  0
POINT
  5
B43
330
621
100
AcDbEntity
  8
DEFPOINTS
 62
     0
100
AcDbPoint
 10
4.051644999999999
 20
7.899175999999999
 30
0.0
  0
ENDBLK
  5
62D
330
621
100
AcDbEntity
  8
0
100
AcDbBlockEnd
  0
BLOCK
  5
63A
330
62F
100
AcDbEntity
  8
0
100
AcDbBlockBegin
  2
*D16
 70
     1
 10
0.0
 20
0.0
 30
0.0
  3
*D16
  1

  0
LINE
  5
B76
330
62F
100
AcDbEntity
  8
DIM
 62
     0
370
    -2
100
AcDbLine
 10
4.175894999999999
 20
4.516072
 30
0.0
 11
3.420823999999999
 21
4.516072
 31
0.0
  0
LINE
  5
B77
330
62F
100
AcDbEntity
  8
DIM
 62
     0
370
    -2
100
AcDbLine
 10
4.657644999999999
 20
5.500572
 30
0.0
 11
3.420823999999999
 21
5.500572
 31
0.0
  0
LINE
  5
B78
330
62F
100
AcDbEntity
  8
DIM
 62
     0
370
    -2
100
AcDbLine
 10
3.560323999999999
 20
4.246072
 30
0.0
 11
3.560323999999999
 21
3.976072
 31
0.0
  0
LINE
  5
B79
330
62F
100
AcDbEntity
  8
DIM
 62
     0
370
    -2
100
AcDbLine
 10
3.560323999999999
 20
5.770572
 30
0.0
 11
3.560323999999999
 21
6.040572
 31
0.0
  0
SOLID
  5
B7A
330
62F
100
AcDbEntity
  8
DIM
 62
     0
100
AcDbTrace
 10
3.515323999999999
 20
4.246072
 30
0.0
 11
3.605323999999999
 21
4.246072
 31
0.0
 12
3.560323999999999
 22
4.516072
 32
0.0
 13
3.560323999999999
 23
4.516072
 33
0.0
  0
SOLID
  5
B7B
330
62F
100
AcDbEntity
  8
DIM
 62
     0
100
AcDbTrace
 10
3.515323999999999
 20
5.770572
 30
0.0
 11
3.605323999999999
 21
5.770572
 31
0.0
 12
3.560323999999999
 22
5.500572
 32
0.0
 13
3.560323999999999
 23
5.500572
 33
0.0
  0
MTEXT
  5
B7C
330
62F
100
AcDbEntity
  8
DIM
 62
     0
100
AcDbMText
 10
3.560323999999998
 20
5.008322000000001
 30
0.0
 40
0.1875
 41
0.0
 71
     5
 72
     1
  1
\A1;0.985
 73
     1
 44
1.0
  0
POINT
  5
B7D
330
62F
100
AcDbEntity
  8
DEFPOINTS
 62
     0
100
AcDbPoint
 10
4.270394999999999
 20
4.516072
 30
0.0
  0
POINT
  5
B7E
330
62F
100
AcDbEntity
  8
DEFPOINTS
 62
     0
100
AcDbPoint
 10
4.752144999999999
 20
5.500572
 30
0.0
  0
POINT
  5
B7F
330
62F
100
AcDbEntity
  8
DEFPOINTS
 62
     0
100
AcDbPoint
 10
3.560323999999999
 20
5.500572
 30
0.0
  0
ENDBLK
  5
63B
330
62F
100
AcDbEntity
  8
0
100
AcDbBlockEnd
  0
BLOCK
  5
648
330
63D
100
AcDbEntity
  8
0
100
AcDbBlockBegin
  2
*D17
 70
     1
 10
0.0
 20
0.0
 30
0.0
  3
*D17
  1

  0
LINE
  5
B6C
330
63D
100
AcDbEntity
  8
DIM
 62
     0
370
    -2
100
AcDbLine
 10
4.161645
 20
4.971508999999999
 30
0.0
 11
4.161645
 21
3.336831999999999
 31
0.0
  0
LINE
  5
B6D
330
63D
100
AcDbEntity
  8
DIM
 62
     0
370
    -2
100
AcDbLine
 10
5.988644999999999
 20
4.971508999999999
 30
0.0
 11
5.988644999999999
 21
3.336831999999999
 31
0.0
  0
LINE
  5
B6E
330
63D
100
AcDbEntity
  8
DIM
 62
     0
370
    -2
100
AcDbLine
 10
4.431644999999999
 20
3.476331999999999
 30
0.0
 11
4.6823325
 21
3.476331999999999
 31
0.0
  0
LINE
  5
B6F
330
63D
100
AcDbEntity
  8
DIM
 62
     0
370
    -2
100
AcDbLine
 10
5.718645
 20
3.476331999999999
 30
0.0
 11
5.467957499999999
 21
3.476331999999999
 31
0.0
  0
SOLID
  5
B70
330
63D
100
AcDbEntity
  8
DIM
 62
     0
100
AcDbTrace
 10
4.431644999999999
 20
3.521331999999999
 30
0.0
 11
4.431644999999999
 21
3.431331999999999
 31
0.0
 12
4.161645
 22
3.476331999999999
 32
0.0
 13
4.161645
 23
3.476331999999999
 33
0.0
  0
SOLID
  5
B71
330
63D
100
AcDbEntity
  8
DIM
 62
     0
100
AcDbTrace
 10
5.718645
 20
3.521331999999999
 30
0.0
 11
5.718645
 21
3.431331999999999
 31
0.0
 12
5.988644999999999
 22
3.476331999999999
 32
0.0
 13
5.988644999999999
 23
3.476331999999999
 33
0.0
  0
MTEXT
  5
B72
330
63D
100
AcDbEntity
  8
DIM
 62
     0
100
AcDbMText
 10
5.075145
 20
3.476331999999999
 30
0.0
 40
0.1875
 41
0.0
 71
     5
 72
     1
  1
\A1;1.827
 73
     1
 44
1.0
  0
POINT
  5
B73
330
63D
100
AcDbEntity
  8
DEFPOINTS
 62
     0
100
AcDbPoint
 10
4.161645
 20
5.066008999999999
 30
0.0
  0
POINT
  5
B74
330
63D
100
AcDbEntity
  8
DEFPOINTS
 62
     0
100
AcDbPoint
 10
5.988644999999999
 20
5.066008999999999
 30
0.0
  0
POINT
  5
B75
330
63D
100
AcDbEntity
  8
DEFPOINTS
 62
     0
100
AcDbPoint
 10
5.988644999999999
 20
3.476331999999999
 30
0.0
  0
ENDBLK
  5
649
330
63D
100
AcDbEntity
  8
0
100
AcDbBlockEnd
  0
BLOCK
  5
662
330
657
100
AcDbEntity
  8
0
100
AcDbBlockBegin
  2
*D18
 70
     1
 10
0.0
 20
0.0
 30
0.0
  3
*D18
  1

  0
LINE
  5
C88
330
657
100
AcDbEntity
  8
DIM
 62
     0
370
    -2
100
AcDbLine
 10
14.206795
 20
6.343571999999999
 30
0.0
 11
14.206795
 21
7.329103999999999
 31
0.0
  0
LINE
  5
C89
330
657
100
AcDbEntity
  8
DIM
 62
     0
370
    -2
100
AcDbLine
 10
13.970795
 20
6.360821999999999
 30
0.0
 11
13.970795
 21
7.329103999999999
 31
0.0
  0
LINE
  5
C8A
330
657
100
AcDbEntity
  8
DIM
 62
     0
370
    -2
100
AcDbLine
 10
14.476795
 20
7.189603999999999
 30
0.0
 11
14.746795
 21
7.189603999999999
 31
0.0
  0
LINE
  5
C8B
330
657
100
AcDbEntity
  8
DIM
 62
     0
370
    -2
100
AcDbLine
 10
13.700795
 20
7.189603999999999
 30
0.0
 11
13.43079499999999
 21
7.189603999999999
 31
0.0
  0
SOLID
  5
C8C
330
657
100
AcDbEntity
  8
DIM
 62
     0
100
AcDbTrace
 10
14.476795
 20
7.234603999999999
 30
0.0
 11
14.476795
 21
7.144603999999999
 31
0.0
 12
14.206795
 22
7.189603999999999
 32
0.0
 13
14.206795
 23
7.189603999999999
 33
0.0
  0
SOLID
  5
C8D
330
657
100
AcDbEntity
  8
DIM
 62
     0
100
AcDbTrace
 10
13.700795
 20
7.234603999999999
 30
0.0
 11
13.700795
 21
7.144603999999999
 31
0.0
 12
13.970795
 22
7.189603999999999
 32
0.0
 13
13.970795
 23
7.189603999999999
 33
0.0
  0
MTEXT
  5
C8E
330
657
100
AcDbEntity
  8
DIM
 62
     0
100
AcDbMText
 10
13.02626375
 20
7.189603999999999
 30
0.0
 40
0.1875
 41
0.0
 71
     5
 72
     1
  1
\A1;0.236
 73
     1
 44
1.0
  0
POINT
  5
C8F
330
657
100
AcDbEntity
  8
DEFPOINTS
 62
     0
100
AcDbPoint
 10
14.206795
 20
6.249071999999999
 30
0.0
  0
POINT
  5
C90
330
657
100
AcDbEntity
  8
DEFPOINTS
 62
     0
100
AcDbPoint
 10
13.970795
 20
6.266321999999999
 30
0.0
  0
POINT
  5
C91
330
657
100
AcDbEntity
  8
DEFPOINTS
 62
     0
100
AcDbPoint
 10
13.970795
 20
7.189603999999999
 30
0.0
  0
ENDBLK
  5
663
330
657
100
AcDbEntity
  8
0
100
AcDbBlockEnd
  0
BLOCK
  5
670
330
665
100
AcDbEntity
  8
0
100
AcDbBlockBegin
  2
*D19
 70
     1
 10
0.0
 20
0.0
 30
0.0
  3
*D19
  1

  0
LINE
  5
C4B
330
665
100
AcDbEntity
  8
DIM
 62
     0
370
    -2
100
AcDbLine
 10
16.017795
 20
6.360821999999999
 30
0.0
 11
16.017795
 21
7.750603999999999
 31
0.0
  0
LINE
  5
C4C
330
665
100
AcDbEntity
  8
DIM
 62
     0
370
    -2
100
AcDbLine
 10
13.970795
 20
6.360821999999999
 30
0.0
 11
13.970795
 21
7.750603999999999
 31
0.0
  0
LINE
  5
C4D
330
665
100
AcDbEntity
  8
DIM
 62
     0
370
    -2
100
AcDbLine
 10
15.74779499999999
 20
7.611103999999999
 30
0.0
 11
15.39882625
 21
7.611103999999999
 31
0.0
  0
LINE
  5
C4E
330
665
100
AcDbEntity
  8
DIM
 62
     0
370
    -2
100
AcDbLine
 10
14.240795
 20
7.611103999999999
 30
0.0
 11
14.58976375
 21
7.611103999999999
 31
0.0
  0
SOLID
  5
C4F
330
665
100
AcDbEntity
  8
DIM
 62
     0
100
AcDbTrace
 10
15.74779499999999
 20
7.656103999999999
 30
0.0
 11
15.74779499999999
 21
7.566103999999999
 31
0.0
 12
16.017795
 22
7.611103999999999
 32
0.0
 13
16.017795
 23
7.611103999999999
 33
0.0
  0
SOLID
  5
C50
330
665
100
AcDbEntity
  8
DIM
 62
     0
100
AcDbTrace
 10
14.240795
 20
7.656103999999999
 30
0.0
 11
14.240795
 21
7.566103999999999
 31
0.0
 12
13.970795
 22
7.611103999999999
 32
0.0
 13
13.970795
 23
7.611103999999999
 33
0.0
  0
MTEXT
  5
C51
330
665
100
AcDbEntity
  8
DIM
 62
     0
100
AcDbMText
 10
14.994295
 20
7.611103999999999
 30
0.0
 40
0.1875
 41
0.0
 71
     5
 72
     1
  1
\A1;2.047
 73
     1
 44
1.0
  0
POINT
  5
C52
330
665
100
AcDbEntity
  8
DEFPOINTS
 62
     0
100
AcDbPoint
 10
16.017795
 20
6.266321999999999
 30
0.0
  0
POINT
  5
C53
330
665
100
AcDbEntity
  8
DEFPOINTS
 62
     0
100
AcDbPoint
 10
13.970795
 20
6.266321999999999
 30
0.0
  0
POINT
  5
C54
330
665
100
AcDbEntity
  8
DEFPOINTS
 62
     0
100
AcDbPoint
 10
13.970795
 20
7.611103999999999
 30
0.0
  0
ENDBLK
  5
671
330
665
100
AcDbEntity
  8
0
100
AcDbBlockEnd
  0
BLOCK
  5
67E
330
673
100
AcDbEntity
  8
0
100
AcDbBlockBegin
  2
*D20
 70
     1
 10
0.0
 20
0.0
 30
0.0
  3
*D20
  1

  0
LINE
  5
C69
330
673
100
AcDbEntity
  8
DIM
 62
     0
370
    -2
100
AcDbLine
 10
14.095045
 20
4.516072
 30
0.0
 11
12.953825
 21
4.516072000000001
 31
0.0
  0
LINE
  5
C6A
330
673
100
AcDbEntity
  8
DIM
 62
     0
370
    -2
100
AcDbLine
 10
14.095045
 20
6.485071999999999
 30
0.0
 11
12.953825
 21
6.485072
 31
0.0
  0
LINE
  5
C6B
330
673
100
AcDbEntity
  8
DIM
 62
     0
370
    -2
100
AcDbLine
 10
13.093325
 20
4.786072000000001
 30
0.0
 11
13.093325
 21
5.271822000000001
 31
0.0
  0
LINE
  5
C6C
330
673
100
AcDbEntity
  8
DIM
 62
     0
370
    -2
100
AcDbLine
 10
13.093325
 20
6.215072
 30
0.0
 11
13.093325
 21
5.729322
 31
0.0
  0
SOLID
  5
C6D
330
673
100
AcDbEntity
  8
DIM
 62
     0
100
AcDbTrace
 10
13.048325
 20
4.786072000000001
 30
0.0
 11
13.138325
 21
4.786072000000001
 31
0.0
 12
13.093325
 22
4.516072000000001
 32
0.0
 13
13.093325
 23
4.516072000000001
 33
0.0
  0
SOLID
  5
C6E
330
673
100
AcDbEntity
  8
DIM
 62
     0
100
AcDbTrace
 10
13.048325
 20
6.215072
 30
0.0
 11
13.138325
 21
6.215072
 31
0.0
 12
13.093325
 22
6.485072
 32
0.0
 13
13.093325
 23
6.485072
 33
0.0
  0
MTEXT
  5
C6F
330
673
100
AcDbEntity
  8
DIM
 62
     0
100
AcDbMText
 10
13.093325
 20
5.500572000000002
 30
0.0
 40
0.1875
 41
0.0
 71
     5
 72
     1
  1
\A1;1.969
 73
     1
 44
1.0
  0
POINT
  5
C70
330
673
100
AcDbEntity
  8
DEFPOINTS
 62
     0
100
AcDbPoint
 10
14.189545
 20
4.516072
 30
0.0
  0
POINT
  5
C71
330
673
100
AcDbEntity
  8
DEFPOINTS
 62
     0
100
AcDbPoint
 10
14.189545
 20
6.485071999999999
 30
0.0
  0
POINT
  5
C72
330
673
100
AcDbEntity
  8
DEFPOINTS
 62
     0
100
AcDbPoint
 10
13.093325
 20
6.485072
 30
0.0
  0
ENDBLK
  5
67F
330
673
100
AcDbEntity
  8
0
100
AcDbBlockEnd
  0
BLOCK
  5
6FA
330
6EF
100
AcDbEntity
  8
0
100
AcDbBlockBegin
  2
*D21
 70
     1
 10
0.0
 20
0.0
 30
0.0
  3
*D21
  1

  0
LINE
  5
C7E
330
6EF
100
AcDbEntity
  8
DIM
 62
     0
370
    -2
100
AcDbLine
 10
14.112045
 20
6.249071999999999
 30
0.0
 11
13.467325
 21
6.249072
 31
0.0
  0
LINE
  5
C7F
330
6EF
100
AcDbEntity
  8
DIM
 62
     0
370
    -2
100
AcDbLine
 10
14.095045
 20
6.485071999999999
 30
0.0
 11
13.467325
 21
6.485072
 31
0.0
  0
LINE
  5
C80
330
6EF
100
AcDbEntity
  8
DIM
 62
     0
370
    -2
100
AcDbLine
 10
13.606825
 20
5.979072000000001
 30
0.0
 11
13.606825
 21
5.709072
 31
0.0
  0
LINE
  5
C81
330
6EF
100
AcDbEntity
  8
DIM
 62
     0
370
    -2
100
AcDbLine
 10
13.606825
 20
6.755072000000001
 30
0.0
 11
13.606825
 21
7.025072
 31
0.0
  0
SOLID
  5
C82
330
6EF
100
AcDbEntity
  8
DIM
 62
     0
100
AcDbTrace
 10
13.561825
 20
5.979072000000001
 30
0.0
 11
13.651825
 21
5.979072000000001
 31
0.0
 12
13.606825
 22
6.249072
 32
0.0
 13
13.606825
 23
6.249072
 33
0.0
  0
SOLID
  5
C83
330
6EF
100
AcDbEntity
  8
DIM
 62
     0
100
AcDbTrace
 10
13.561825
 20
6.755072000000001
 30
0.0
 11
13.651825
 21
6.755072000000001
 31
0.0
 12
13.606825
 22
6.485072
 32
0.0
 13
13.606825
 23
6.485072
 33
0.0
  0
MTEXT
  5
C84
330
6EF
100
AcDbEntity
  8
DIM
 62
     0
100
AcDbMText
 10
13.606825
 20
6.367072000000002
 30
0.0
 40
0.1875
 41
0.0
 71
     5
 72
     1
  1
\A1;0.236
 73
     1
 44
1.0
  0
POINT
  5
C85
330
6EF
100
AcDbEntity
  8
DEFPOINTS
 62
     0
100
AcDbPoint
 10
14.206545
 20
6.249071999999999
 30
0.0
  0
POINT
  5
C86
330
6EF
100
AcDbEntity
  8
DEFPOINTS
 62
     0
100
AcDbPoint
 10
14.189545
 20
6.485071999999999
 30
0.0
  0
POINT
  5
C87
330
6EF
100
AcDbEntity
  8
DEFPOINTS
 62
     0
100
AcDbPoint
 10
13.606825
 20
6.485072
 30
0.0
  0
ENDBLK
  5
6FB
330
6EF
100
AcDbEntity
  8
0
100
AcDbBlockEnd
  0
BLOCK
  5
708
330
6FD
100
AcDbEntity
  8
0
100
AcDbBlockBegin
  2
*D22
 70
     1
 10
0.0
 20
0.0
 30
0.0
  3
*D22
  1

  0
LINE
  5
C92
330
6FD
100
AcDbEntity
  8
DIM
 62
     0
370
    -2
100
AcDbLine
 10
15.876545
 20
4.752072
 30
0.0
 11
16.58614699999999
 21
4.752072
 31
0.0
  0
LINE
  5
C93
330
6FD
100
AcDbEntity
  8
DIM
 62
     0
370
    -2
100
AcDbLine
 10
15.893545
 20
4.516072
 30
0.0
 11
16.58614699999999
 21
4.516072
 31
0.0
  0
LINE
  5
C94
330
6FD
100
AcDbEntity
  8
DIM
 62
     0
370
    -2
100
AcDbLine
 10
16.44664699999999
 20
5.022071999999999
 30
0.0
 11
16.44664699999999
 21
5.292072
 31
0.0
  0
LINE
  5
C95
330
6FD
100
AcDbEntity
  8
DIM
 62
     0
370
    -2
100
AcDbLine
 10
16.44664699999999
 20
4.246071999999999
 30
0.0
 11
16.44664699999999
 21
3.976072
 31
0.0
  0
SOLID
  5
C96
330
6FD
100
AcDbEntity
  8
DIM
 62
     0
100
AcDbTrace
 10
16.40164699999999
 20
5.022071999999999
 30
0.0
 11
16.491647
 21
5.022071999999999
 31
0.0
 12
16.44664699999999
 22
4.752072
 32
0.0
 13
16.44664699999999
 23
4.752072
 33
0.0
  0
SOLID
  5
C97
330
6FD
100
AcDbEntity
  8
DIM
 62
     0
100
AcDbTrace
 10
16.40164699999999
 20
4.246071999999999
 30
0.0
 11
16.491647
 21
4.246071999999999
 31
0.0
 12
16.44664699999999
 22
4.516072
 32
0.0
 13
16.44664699999999
 23
4.516072
 33
0.0
  0
MTEXT
  5
C98
330
6FD
100
AcDbEntity
  8
DIM
 62
     0
100
AcDbMText
 10
16.44664699999999
 20
4.634072000000002
 30
0.0
 40
0.1875
 41
0.0
 71
     5
 72
     1
  1
\A1;0.236
 73
     1
 44
1.0
  0
POINT
  5
C99
330
6FD
100
AcDbEntity
  8
DEFPOINTS
 62
     0
100
AcDbPoint
 10
15.782045
 20
4.752072
 30
0.0
  0
POINT
  5
C9A
330
6FD
100
AcDbEntity
  8
DEFPOINTS
 62
     0
100
AcDbPoint
 10
15.799045
 20
4.516072
 30
0.0
  0
POINT
  5
C9B
330
6FD
100
AcDbEntity
  8
DEFPOINTS
 62
     0
100
AcDbPoint
 10
16.44664699999999
 20
4.516072
 30
0.0
  0
ENDBLK
  5
709
330
6FD
100
AcDbEntity
  8
0
100
AcDbBlockEnd
  0
BLOCK
  5
716
330
70B
100
AcDbEntity
  8
0
100
AcDbBlockBegin
  2
*D23
 70
     1
 10
0.0
 20
0.0
 30
0.0
  3
*D23
  1

  0
LINE
  5
C5F
330
70B
100
AcDbEntity
  8
DIM
 62
     0
370
    -2
100
AcDbLine
 10
16.017795
 20
4.640322
 30
0.0
 11
16.017795
 21
3.599401
 31
0.0
  0
LINE
  5
C60
330
70B
100
AcDbEntity
  8
DIM
 62
     0
370
    -2
100
AcDbLine
 10
15.782045
 20
4.220355
 30
0.0
 11
15.782045
 21
3.599401
 31
0.0
  0
LINE
  5
C61
330
70B
100
AcDbEntity
  8
DIM
 62
     0
370
    -2
100
AcDbLine
 10
16.287795
 20
3.738901
 30
0.0
 11
16.55779499999999
 21
3.738901
 31
0.0
  0
LINE
  5
C62
330
70B
100
AcDbEntity
  8
DIM
 62
     0
370
    -2
100
AcDbLine
 10
15.512045
 20
3.738901
 30
0.0
 11
15.242045
 21
3.738901
 31
0.0
  0
SOLID
  5
C63
330
70B
100
AcDbEntity
  8
DIM
 62
     0
100
AcDbTrace
 10
16.287795
 20
3.783901
 30
0.0
 11
16.287795
 21
3.693901
 31
0.0
 12
16.017795
 22
3.738901
 32
0.0
 13
16.017795
 23
3.738901
 33
0.0
  0
SOLID
  5
C64
330
70B
100
AcDbEntity
  8
DIM
 62
     0
100
AcDbTrace
 10
15.512045
 20
3.783901
 30
0.0
 11
15.512045
 21
3.693901
 31
0.0
 12
15.782045
 22
3.738901
 32
0.0
 13
15.782045
 23
3.738901
 33
0.0
  0
MTEXT
  5
C65
330
70B
100
AcDbEntity
  8
DIM
 62
     0
100
AcDbMText
 10
14.83751375
 20
3.738901
 30
0.0
 40
0.1875
 41
0.0
 71
     5
 72
     1
  1
\A1;0.236
 73
     1
 44
1.0
  0
POINT
  5
C66
330
70B
100
AcDbEntity
  8
DEFPOINTS
 62
     0
100
AcDbPoint
 10
16.017795
 20
4.734822
 30
0.0
  0
POINT
  5
C67
330
70B
100
AcDbEntity
  8
DEFPOINTS
 62
     0
100
AcDbPoint
 10
15.782045
 20
4.314855
 30
0.0
  0
POINT
  5
C68
330
70B
100
AcDbEntity
  8
DEFPOINTS
 62
     0
100
AcDbPoint
 10
15.782045
 20
3.738901
 30
0.0
  0
ENDBLK
  5
717
330
70B
100
AcDbEntity
  8
0
100
AcDbBlockEnd
  0
BLOCK
  5
724
330
719
100
AcDbEntity
  8
0
100
AcDbBlockBegin
  2
*D24
 70
     1
 10
0.0
 20
0.0
 30
0.0
  3
*D24
  1

  0
LINE
  5
C0F
330
719
100
AcDbEntity
  8
DIM
 62
     0
370
    -2
100
AcDbLine
 10
9.332361999999999
 20
6.092821999999999
 30
0.0
 11
10.927685
 21
6.092821999999999
 31
0.0
  0
LINE
  5
C10
330
719
100
AcDbEntity
  8
DIM
 62
     0
370
    -2
100
AcDbLine
 10
9.332361999999999
 20
6.405321999999999
 30
0.0
 11
10.927685
 21
6.405321999999999
 31
0.0
  0
LINE
  5
C11
330
719
100
AcDbEntity
  8
DIM
 62
     0
370
    -2
100
AcDbLine
 10
10.788185
 20
5.822821999999999
 30
0.0
 11
10.788185
 21
5.552821999999999
 31
0.0
  0
LINE
  5
C12
330
719
100
AcDbEntity
  8
DIM
 62
     0
370
    -2
100
AcDbLine
 10
10.788185
 20
6.675321999999998
 30
0.0
 11
10.788185
 21
6.945321999999999
 31
0.0
  0
SOLID
  5
C13
330
719
100
AcDbEntity
  8
DIM
 62
     0
100
AcDbTrace
 10
10.743185
 20
5.822821999999999
 30
0.0
 11
10.833185
 21
5.822821999999999
 31
0.0
 12
10.788185
 22
6.092821999999999
 32
0.0
 13
10.788185
 23
6.092821999999999
 33
0.0
  0
SOLID
  5
C14
330
719
100
AcDbEntity
  8
DIM
 62
     0
100
AcDbTrace
 10
10.743185
 20
6.675321999999998
 30
0.0
 11
10.833185
 21
6.675321999999998
 31
0.0
 12
10.788185
 22
6.405321999999999
 32
0.0
 13
10.788185
 23
6.405321999999999
 33
0.0
  0
MTEXT
  5
C15
330
719
100
AcDbEntity
  8
DIM
 62
     0
100
AcDbMText
 10
10.78818499999999
 20
6.249072
 30
0.0
 40
0.1875
 41
0.0
 71
     5
 72
     1
  1
\A1;0.313 DIA.
 73
     1
 44
1.0
  0
POINT
  5
C16
330
719
100
AcDbEntity
  8
DEFPOINTS
 62
     0
100
AcDbPoint
 10
9.237861999999999
 20
6.092821999999999
 30
0.0
  0
POINT
  5
C17
330
719
100
AcDbEntity
  8
DEFPOINTS
 62
     0
100
AcDbPoint
 10
9.237861999999999
 20
6.405321999999999
 30
0.0
  0
POINT
  5
C18
330
719
100
AcDbEntity
  8
DEFPOINTS
 62
     0
100
AcDbPoint
 10
10.788185
 20
6.405321999999999
 30
0.0
  0
ENDBLK
  5
725
330
719
100
AcDbEntity
  8
0
100
AcDbBlockEnd
  0
BLOCK
  5
732
330
727
100
AcDbEntity
  8
0
100
AcDbBlockBegin
  2
*D25
 70
     1
 10
0.0
 20
0.0
 30
0.0
  3
*D25
  1

  0
LINE
  5
BF0
330
727
100
AcDbEntity
  8
DIM
 62
     0
370
    -2
100
AcDbLine
 10
9.332361999999999
 20
4.666133999999999
 30
0.0
 11
10.012002
 21
4.666133999999998
 31
0.0
  0
LINE
  5
BF1
330
727
100
AcDbEntity
  8
DIM
 62
     0
370
    -2
100
AcDbLine
 10
9.332361999999999
 20
4.838008999999999
 30
0.0
 11
10.012002
 21
4.838008999999998
 31
0.0
  0
LINE
  5
BF2
330
727
100
AcDbEntity
  8
DIM
 62
     0
370
    -2
100
AcDbLine
 10
9.872502
 20
4.396133999999999
 30
0.0
 11
9.872502
 21
4.126133999999999
 31
0.0
  0
LINE
  5
BF3
330
727
100
AcDbEntity
  8
DIM
 62
     0
370
    -2
100
AcDbLine
 10
9.872502
 20
5.108008999999999
 30
0.0
 11
9.872502
 21
5.378008999999999
 31
0.0
  0
LINE
  5
BF4
330
727
100
AcDbEntity
  8
DIM
 62
     0
370
    -2
100
AcDbLine
 10
9.872502
 20
5.378008999999999
 30
0.0
 11
10.14250199999999
 21
5.378008999999998
 31
0.0
  0
SOLID
  5
BF5
330
727
100
AcDbEntity
  8
DIM
 62
     0
100
AcDbTrace
 10
9.827502
 20
4.396133999999999
 30
0.0
 11
9.917502
 21
4.396133999999999
 31
0.0
 12
9.872502
 22
4.666133999999999
 32
0.0
 13
9.872502
 23
4.666133999999999
 33
0.0
  0
SOLID
  5
BF6
330
727
100
AcDbEntity
  8
DIM
 62
     0
100
AcDbTrace
 10
9.827502
 20
5.108008999999999
 30
0.0
 11
9.917502
 21
5.108008999999999
 31
0.0
 12
9.872502
 22
4.838008999999999
 32
0.0
 13
9.872502
 23
4.838008999999999
 33
0.0
  0
MTEXT
  5
BF7
330
727
100
AcDbEntity
  8
DIM
 62
     0
100
AcDbMText
 10
10.80484574999999
 20
5.378009
 30
0.0
 40
0.1875
 41
0.0
 71
     5
 72
     1
  1
\A1;0.172 DIA.
 73
     1
 44
1.0
  0
POINT
  5
BF8
330
727
100
AcDbEntity
  8
DEFPOINTS
 62
     0
100
AcDbPoint
 10
9.237861999999999
 20
4.666133999999999
 30
0.0
  0
POINT
  5
BF9
330
727
100
AcDbEntity
  8
DEFPOINTS
 62
     0
100
AcDbPoint
 10
9.237861999999999
 20
4.838008999999999
 30
0.0
  0
POINT
  5
BFA
330
727
100
AcDbEntity
  8
DEFPOINTS
 62
     0
100
AcDbPoint
 10
9.872502
 20
4.838008999999999
 30
0.0
  0
ENDBLK
  5
733
330
727
100
AcDbEntity
  8
0
100
AcDbBlockEnd
  0
BLOCK
  5
74E
330
743
100
AcDbEntity
  8
0
100
AcDbBlockBegin
  2
*D26
 70
     1
 10
0.0
 20
0.0
 30
0.0
  3
*D26
  1

  0
LINE
  5
B62
330
743
100
AcDbEntity
  8
DIM
 62
     0
370
    -2
100
AcDbLine
 10
4.287644999999999
 20
6.343571999999999
 30
0.0
 11
4.287644999999999
 21
7.617175999999999
 31
0.0
  0
LINE
  5
B63
330
743
100
AcDbEntity
  8
DIM
 62
     0
370
    -2
100
AcDbLine
 10
4.051644999999999
 20
6.360821999999999
 30
0.0
 11
4.051644999999999
 21
7.617175999999999
 31
0.0
  0
LINE
  5
B64
330
743
100
AcDbEntity
  8
DIM
 62
     0
370
    -2
100
AcDbLine
 10
4.557644999999999
 20
7.477675999999999
 30
0.0
 11
4.827644999999999
 21
7.477675999999999
 31
0.0
  0
LINE
  5
B65
330
743
100
AcDbEntity
  8
DIM
 62
     0
370
    -2
100
AcDbLine
 10
3.781644999999999
 20
7.477675999999999
 30
0.0
 11
3.511644999999999
 21
7.477675999999999
 31
0.0
  0
SOLID
  5
B66
330
743
100
AcDbEntity
  8
DIM
 62
     0
100
AcDbTrace
 10
4.557644999999999
 20
7.522675999999999
 30
0.0
 11
4.557644999999999
 21
7.432675999999999
 31
0.0
 12
4.287644999999999
 22
7.477675999999999
 32
0.0
 13
4.287644999999999
 23
7.477675999999999
 33
0.0
  0
SOLID
  5
B67
330
743
100
AcDbEntity
  8
DIM
 62
     0
100
AcDbTrace
 10
3.781644999999999
 20
7.522675999999999
 30
0.0
 11
3.781644999999999
 21
7.432675999999999
 31
0.0
 12
4.051644999999999
 22
7.477675999999999
 32
0.0
 13
4.051644999999999
 23
7.477675999999999
 33
0.0
  0
MTEXT
  5
B68
330
743
100
AcDbEntity
  8
DIM
 62
     0
100
AcDbMText
 10
3.107113749999999
 20
7.477675999999999
 30
0.0
 40
0.1875
 41
0.0
 71
     5
 72
     1
  1
\A1;0.236
 73
     1
 44
1.0
  0
POINT
  5
B69
330
743
100
AcDbEntity
  8
DEFPOINTS
 62
     0
100
AcDbPoint
 10
4.287644999999999
 20
6.249071999999999
 30
0.0
  0
POINT
  5
B6A
330
743
100
AcDbEntity
  8
DEFPOINTS
 62
     0
100
AcDbPoint
 10
4.051644999999999
 20
6.266321999999999
 30
0.0
  0
POINT
  5
B6B
330
743
100
AcDbEntity
  8
DEFPOINTS
 62
     0
100
AcDbPoint
 10
4.051644999999999
 20
7.477675999999999
 30
0.0
  0
ENDBLK
  5
74F
330
743
100
AcDbEntity
  8
0
100
AcDbBlockEnd
  0
BLOCK
  5
75C
330
751
100
AcDbEntity
  8
0
100
AcDbBlockBegin
  2
*D27
 70
     1
 10
0.0
 20
0.0
 30
0.0
  3
*D27
  1

  0
LINE
  5
B9E
330
751
100
AcDbEntity
  8
DIM
 62
     0
370
    -2
100
AcDbLine
 10
4.193144999999999
 20
4.752072
 30
0.0
 11
2.999324
 21
4.752072
 31
0.0
  0
LINE
  5
B9F
330
751
100
AcDbEntity
  8
DIM
 62
     0
370
    -2
100
AcDbLine
 10
4.175894999999999
 20
4.516072
 30
0.0
 11
2.999324
 21
4.516072
 31
0.0
  0
LINE
  5
BA0
330
751
100
AcDbEntity
  8
DIM
 62
     0
370
    -2
100
AcDbLine
 10
3.138824
 20
5.022072
 30
0.0
 11
3.138824
 21
5.292072
 31
0.0
  0
LINE
  5
BA1
330
751
100
AcDbEntity
  8
DIM
 62
     0
370
    -2
100
AcDbLine
 10
3.138824
 20
4.246072
 30
0.0
 11
3.138824
 21
3.976072
 31
0.0
  0
LINE
  5
BA2
330
751
100
AcDbEntity
  8
DIM
 62
     0
370
    -2
100
AcDbLine
 10
3.138824
 20
3.976072
 30
0.0
 11
2.868824
 21
3.976072
 31
0.0
  0
SOLID
  5
BA3
330
751
100
AcDbEntity
  8
DIM
 62
     0
100
AcDbTrace
 10
3.093824
 20
5.022072
 30
0.0
 11
3.183824
 21
5.022072
 31
0.0
 12
3.138824
 22
4.752072
 32
0.0
 13
3.138824
 23
4.752072
 33
0.0
  0
SOLID
  5
BA4
330
751
100
AcDbEntity
  8
DIM
 62
     0
100
AcDbTrace
 10
3.093824
 20
4.246072
 30
0.0
 11
3.183823999999999
 21
4.246072
 31
0.0
 12
3.138824
 22
4.516072
 32
0.0
 13
3.138824
 23
4.516072
 33
0.0
  0
MTEXT
  5
BA5
330
751
100
AcDbEntity
  8
DIM
 62
     0
100
AcDbMText
 10
2.464292749999999
 20
3.976072000000001
 30
0.0
 40
0.1875
 41
0.0
 71
     5
 72
     1
  1
\A1;0.236
 73
     1
 44
1.0
  0
POINT
  5
BA6
330
751
100
AcDbEntity
  8
DEFPOINTS
 62
     0
100
AcDbPoint
 10
4.287644999999999
 20
4.752072
 30
0.0
  0
POINT
  5
BA7
330
751
100
AcDbEntity
  8
DEFPOINTS
 62
     0
100
AcDbPoint
 10
4.270394999999999
 20
4.516072
 30
0.0
  0
POINT
  5
BA8
330
751
100
AcDbEntity
  8
DEFPOINTS
 62
     0
100
AcDbPoint
 10
3.138824
 20
4.516072
 30
0.0
  0
ENDBLK
  5
75D
330
751
100
AcDbEntity
  8
0
100
AcDbBlockEnd
  0
BLOCK
  5
76A
330
75F
100
AcDbEntity
  8
0
100
AcDbBlockBegin
  2
*D28
 70
     1
 10
0.0
 20
0.0
 30
0.0
  3
*D28
  1

  0
LINE
  5
CB0
330
75F
100
AcDbEntity
  8
DIM
 62
     0
370
    -2
100
AcDbLine
 10
21.427676
 20
6.579571999999999
 30
0.0
 11
21.427676
 21
6.956794999999999
 31
0.0
  0
LINE
  5
CB1
330
75F
100
AcDbEntity
  8
DIM
 62
     0
370
    -2
100
AcDbLine
 10
21.03367599999999
 20
6.517071999999999
 30
0.0
 11
21.03367599999999
 21
6.956794999999999
 31
0.0
  0
LINE
  5
CB2
330
75F
100
AcDbEntity
  8
DIM
 62
     0
370
    -2
100
AcDbLine
 10
21.697676
 20
6.817294999999999
 30
0.0
 11
21.967676
 21
6.817294999999999
 31
0.0
  0
LINE
  5
CB3
330
75F
100
AcDbEntity
  8
DIM
 62
     0
370
    -2
100
AcDbLine
 10
20.763676
 20
6.817294999999999
 30
0.0
 11
20.493676
 21
6.817294999999999
 31
0.0
  0
SOLID
  5
CB4
330
75F
100
AcDbEntity
  8
DIM
 62
     0
100
AcDbTrace
 10
21.697676
 20
6.862294999999999
 30
0.0
 11
21.697676
 21
6.772294999999999
 31
0.0
 12
21.427676
 22
6.817294999999999
 32
0.0
 13
21.427676
 23
6.817294999999999
 33
0.0
  0
SOLID
  5
CB5
330
75F
100
AcDbEntity
  8
DIM
 62
     0
100
AcDbTrace
 10
20.763676
 20
6.862294999999999
 30
0.0
 11
20.763676
 21
6.772294999999999
 31
0.0
 12
21.03367599999999
 22
6.817294999999999
 32
0.0
 13
21.03367599999999
 23
6.817294999999999
 33
0.0
  0
MTEXT
  5
CB6
330
75F
100
AcDbEntity
  8
DIM
 62
     0
100
AcDbMText
 10
19.78445725
 20
6.817294999999999
 30
0.0
 40
0.1875
 41
0.0
 71
     5
 72
     1
  1
\A1;0.394 REF.
 73
     1
 44
1.0
  0
POINT
  5
CB7
330
75F
100
AcDbEntity
  8
DEFPOINTS
 62
     0
100
AcDbPoint
 10
21.427676
 20
6.485071999999999
 30
0.0
  0
POINT
  5
CB8
330
75F
100
AcDbEntity
  8
DEFPOINTS
 62
     0
100
AcDbPoint
 10
21.03367599999999
 20
6.422571999999999
 30
0.0
  0
POINT
  5
CB9
330
75F
100
AcDbEntity
  8
DEFPOINTS
 62
     0
100
AcDbPoint
 10
21.03367599999999
 20
6.817294999999999
 30
0.0
  0
ENDBLK
  5
76B
330
75F
100
AcDbEntity
  8
0
100
AcDbBlockEnd
  0
BLOCK
  5
778
330
76D
100
AcDbEntity
  8
0
100
AcDbBlockBegin
  2
*D29
 70
     1
 10
0.0
 20
0.0
 30
0.0
  3
*D29
  1

  0
LINE
  5
CA6
330
76D
100
AcDbEntity
  8
DIM
 62
     0
370
    -2
100
AcDbLine
 10
21.03367599999999
 20
6.517071999999999
 30
0.0
 11
21.03367599999999
 21
7.378294999999999
 31
0.0
  0
LINE
  5
CA7
330
76D
100
AcDbEntity
  8
DIM
 62
     0
370
    -2
100
AcDbLine
 10
22.412676
 20
6.517071999999999
 30
0.0
 11
22.412676
 21
7.378294999999999
 31
0.0
  0
LINE
  5
CA8
330
76D
100
AcDbEntity
  8
DIM
 62
     0
370
    -2
100
AcDbLine
 10
20.763676
 20
7.238794999999999
 30
0.0
 11
20.493676
 21
7.238794999999999
 31
0.0
  0
LINE
  5
CA9
330
76D
100
AcDbEntity
  8
DIM
 62
     0
370
    -2
100
AcDbLine
 10
22.682676
 20
7.238794999999999
 30
0.0
 11
22.952676
 21
7.238794999999999
 31
0.0
  0
SOLID
  5
CAA
330
76D
100
AcDbEntity
  8
DIM
 62
     0
100
AcDbTrace
 10
20.763676
 20
7.283794999999999
 30
0.0
 11
20.763676
 21
7.193794999999999
 31
0.0
 12
21.03367599999999
 22
7.238794999999999
 32
0.0
 13
21.03367599999999
 23
7.238794999999999
 33
0.0
  0
SOLID
  5
CAB
330
76D
100
AcDbEntity
  8
DIM
 62
     0
100
AcDbTrace
 10
22.682676
 20
7.283794999999999
 30
0.0
 11
22.682676
 21
7.193794999999999
 31
0.0
 12
22.412676
 22
7.238794999999999
 32
0.0
 13
22.412676
 23
7.238794999999999
 33
0.0
  0
MTEXT
  5
CAC
330
76D
100
AcDbEntity
  8
DIM
 62
     0
100
AcDbMText
 10
21.723176
 20
7.238794999999999
 30
0.0
 40
0.1875
 41
0.0
 71
     5
 72
     1
  1
\A1;1.379
 73
     1
 44
1.0
  0
POINT
  5
CAD
330
76D
100
AcDbEntity
  8
DEFPOINTS
 62
     0
100
AcDbPoint
 10
21.03367599999999
 20
6.422571999999999
 30
0.0
  0
POINT
  5
CAE
330
76D
100
AcDbEntity
  8
DEFPOINTS
 62
     0
100
AcDbPoint
 10
22.412676
 20
6.422571999999999
 30
0.0
  0
POINT
  5
CAF
330
76D
100
AcDbEntity
  8
DEFPOINTS
 62
     0
100
AcDbPoint
 10
22.412676
 20
7.238794999999999
 30
0.0
  0
ENDBLK
  5
779
330
76D
100
AcDbEntity
  8
0
100
AcDbBlockEnd
  0
BLOCK
  5
786
330
77B
100
AcDbEntity
  8
0
100
AcDbBlockBegin
  2
*D30
 70
     1
 10
0.0
 20
0.0
 30
0.0
  3
*D30
  1

  0
LINE
  5
C73
330
77B
100
AcDbEntity
  8
DIM
 62
     0
370
    -2
100
AcDbLine
 10
14.61498299999999
 20
4.686072
 30
0.0
 11
14.854693
 21
4.686072
 31
0.0
  0
LINE
  5
C74
330
77B
100
AcDbEntity
  8
DIM
 62
     0
370
    -2
100
AcDbLine
 10
14.61498299999999
 20
4.516072
 30
0.0
 11
14.854693
 21
4.516072
 31
0.0
  0
LINE
  5
C75
330
77B
100
AcDbEntity
  8
DIM
 62
     0
370
    -2
100
AcDbLine
 10
14.71519299999999
 20
4.956072
 30
0.0
 11
14.71519299999999
 21
5.226072
 31
0.0
  0
LINE
  5
C76
330
77B
100
AcDbEntity
  8
DIM
 62
     0
370
    -2
100
AcDbLine
 10
14.71519299999999
 20
4.246071999999999
 30
0.0
 11
14.71519299999999
 21
3.976072
 31
0.0
  0
LINE
  5
C77
330
77B
100
AcDbEntity
  8
DIM
 62
     0
370
    -2
100
AcDbLine
 10
14.71519299999999
 20
3.976072
 30
0.0
 11
14.44519299999999
 21
3.976072
 31
0.0
  0
SOLID
  5
C78
330
77B
100
AcDbEntity
  8
DIM
 62
     0
100
AcDbTrace
 10
14.670193
 20
4.956072
 30
0.0
 11
14.76019299999999
 21
4.956072
 31
0.0
 12
14.71519299999999
 22
4.686072
 32
0.0
 13
14.71519299999999
 23
4.686072
 33
0.0
  0
SOLID
  5
C79
330
77B
100
AcDbEntity
  8
DIM
 62
     0
100
AcDbTrace
 10
14.670193
 20
4.246071999999999
 30
0.0
 11
14.76019299999999
 21
4.246071999999999
 31
0.0
 12
14.71519299999999
 22
4.516072
 32
0.0
 13
14.71519299999999
 23
4.516072
 33
0.0
  0
MTEXT
  5
C7A
330
77B
100
AcDbEntity
  8
DIM
 62
     0
100
AcDbMText
 10
13.77113049999999
 20
3.976072000000002
 30
0.0
 40
0.1875
 41
0.0
 71
     5
 72
     1
  1
\A1;0.170 TYP.
 73
     1
 44
1.0
  0
POINT
  5
C7B
330
77B
100
AcDbEntity
  8
DEFPOINTS
 62
     0
100
AcDbPoint
 10
14.52048299999999
 20
4.686072
 30
0.0
  0
POINT
  5
C7C
330
77B
100
AcDbEntity
  8
DEFPOINTS
 62
     0
100
AcDbPoint
 10
14.52048299999999
 20
4.516072
 30
0.0
  0
POINT
  5
C7D
330
77B
100
AcDbEntity
  8
DEFPOINTS
 62
     0
100
AcDbPoint
 10
14.71519299999999
 20
4.516072
 30
0.0
  0
ENDBLK
  5
787
330
77B
100
AcDbEntity
  8
0
100
AcDbBlockEnd
  0
BLOCK
  5
794
330
789
100
AcDbEntity
  8
0
100
AcDbBlockBegin
  2
*D31
 70
     1
 10
0.0
 20
0.0
 30
0.0
  3
*D31
  1

  0
LINE
  5
BE6
330
789
100
AcDbEntity
  8
DIM
 62
     0
370
    -2
100
AcDbLine
 10
5.862644999999999
 20
6.784966999999999
 30
0.0
 11
5.862644999999999
 21
7.617175999999999
 31
0.0
  0
LINE
  5
BE7
330
789
100
AcDbEntity
  8
DIM
 62
     0
370
    -2
100
AcDbLine
 10
6.098644999999999
 20
6.360821999999999
 30
0.0
 11
6.098644999999999
 21
7.617175999999999
 31
0.0
  0
LINE
  5
BE8
330
789
100
AcDbEntity
  8
DIM
 62
     0
370
    -2
100
AcDbLine
 10
5.592644999999999
 20
7.477675999999999
 30
0.0
 11
5.322644999999999
 21
7.477675999999999
 31
0.0
  0
LINE
  5
BE9
330
789
100
AcDbEntity
  8
DIM
 62
     0
370
    -2
100
AcDbLine
 10
6.368644999999999
 20
7.477675999999999
 30
0.0
 11
6.638644999999999
 21
7.477675999999999
 31
0.0
  0
SOLID
  5
BEA
330
789
100
AcDbEntity
  8
DIM
 62
     0
100
AcDbTrace
 10
5.592644999999999
 20
7.522675999999999
 30
0.0
 11
5.592644999999999
 21
7.432675999999999
 31
0.0
 12
5.862644999999999
 22
7.477675999999999
 32
0.0
 13
5.862644999999999
 23
7.477675999999999
 33
0.0
  0
SOLID
  5
BEB
330
789
100
AcDbEntity
  8
DIM
 62
     0
100
AcDbTrace
 10
6.368644999999999
 20
7.522675999999999
 30
0.0
 11
6.368644999999999
 21
7.432675999999999
 31
0.0
 12
6.098644999999999
 22
7.477675999999999
 32
0.0
 13
6.098644999999999
 23
7.477675999999999
 33
0.0
  0
MTEXT
  5
BEC
330
789
100
AcDbEntity
  8
DIM
 62
     0
100
AcDbMText
 10
7.043176249999999
 20
7.477675999999999
 30
0.0
 40
0.1875
 41
0.0
 71
     5
 72
     1
  1
\A1;0.236
 73
     1
 44
1.0
  0
POINT
  5
BED
330
789
100
AcDbEntity
  8
DEFPOINTS
 62
     0
100
AcDbPoint
 10
5.862644999999999
 20
6.690466999999999
 30
0.0
  0
POINT
  5
BEE
330
789
100
AcDbEntity
  8
DEFPOINTS
 62
     0
100
AcDbPoint
 10
6.098644999999999
 20
6.266321999999999
 30
0.0
  0
POINT
  5
BEF
330
789
100
AcDbEntity
  8
DEFPOINTS
 62
     0
100
AcDbPoint
 10
6.098644999999999
 20
7.477675999999999
 30
0.0
  0
ENDBLK
  5
795
330
789
100
AcDbEntity
  8
0
100
AcDbBlockEnd
  0
BLOCK
  5
7A2
330
797
100
AcDbEntity
  8
0
100
AcDbBlockBegin
  2
*D32
 70
     1
 10
0.0
 20
0.0
 30
0.0
  3
*D32
  1

  0
LINE
  5
C05
330
797
100
AcDbEntity
  8
DIM
 62
     0
370
    -2
100
AcDbLine
 10
9.020861999999999
 20
5.929572
 30
0.0
 11
9.020861999999999
 21
6.948724999999999
 31
0.0
  0
LINE
  5
C06
330
797
100
AcDbEntity
  8
DIM
 62
     0
370
    -2
100
AcDbLine
 10
9.148861999999999
 20
6.127883999999999
 30
0.0
 11
9.148861999999999
 21
6.948724999999999
 31
0.0
  0
LINE
  5
C07
330
797
100
AcDbEntity
  8
DIM
 62
     0
370
    -2
100
AcDbLine
 10
8.750861999999999
 20
6.809224999999999
 30
0.0
 11
8.480861999999998
 21
6.809224999999999
 31
0.0
  0
LINE
  5
C08
330
797
100
AcDbEntity
  8
DIM
 62
     0
370
    -2
100
AcDbLine
 10
9.418861999999998
 20
6.809224999999999
 30
0.0
 11
9.688862
 21
6.809224999999999
 31
0.0
  0
SOLID
  5
C09
330
797
100
AcDbEntity
  8
DIM
 62
     0
100
AcDbTrace
 10
8.750861999999999
 20
6.854224999999999
 30
0.0
 11
8.750861999999999
 21
6.764224999999999
 31
0.0
 12
9.020861999999999
 22
6.809224999999999
 32
0.0
 13
9.020861999999999
 23
6.809224999999999
 33
0.0
  0
SOLID
  5
C0A
330
797
100
AcDbEntity
  8
DIM
 62
     0
100
AcDbTrace
 10
9.418861999999998
 20
6.854224999999999
 30
0.0
 11
9.418861999999998
 21
6.764224999999999
 31
0.0
 12
9.148861999999999
 22
6.809224999999999
 32
0.0
 13
9.148861999999999
 23
6.809224999999999
 33
0.0
  0
MTEXT
  5
C0B
330
797
100
AcDbEntity
  8
DIM
 62
     0
100
AcDbMText
 10
10.06995575
 20
6.809224999999999
 30
0.0
 40
0.1875
 41
0.0
 71
     5
 72
     1
  1
\A1;0.128
 73
     1
 44
1.0
  0
POINT
  5
C0C
330
797
100
AcDbEntity
  8
DEFPOINTS
 62
     0
100
AcDbPoint
 10
9.020861999999999
 20
5.835072
 30
0.0
  0
POINT
  5
C0D
330
797
100
AcDbEntity
  8
DEFPOINTS
 62
     0
100
AcDbPoint
 10
9.148861999999999
 20
6.033383999999999
 30
0.0
  0
POINT
  5
C0E
330
797
100
AcDbEntity
  8
DEFPOINTS
 62
     0
100
AcDbPoint
 10
9.148861999999999
 20
6.809224999999999
 30
0.0
  0
ENDBLK
  5
7A3
330
797
100
AcDbEntity
  8
0
100
AcDbBlockEnd
  0
BLOCK
  5
7B0
330
7A5
100
AcDbEntity
  8
0
100
AcDbBlockBegin
  2
*D33
 70
     1
 10
0.0
 20
0.0
 30
0.0
  3
*D33
  1

  0
LINE
  5
BFB
330
7A5
100
AcDbEntity
  8
DIM
 62
     0
370
    -2
100
AcDbLine
 10
9.148861999999999
 20
5.929572
 30
0.0
 11
9.148861999999999
 21
6.028249999999999
 31
0.0
  0
LINE
  5
BFC
330
7A5
100
AcDbEntity
  8
DIM
 62
     0
370
    -2
100
AcDbLine
 10
9.237861999999999
 20
5.929572
 30
0.0
 11
9.237861999999999
 21
6.028249999999999
 31
0.0
  0
LINE
  5
BFD
330
7A5
100
AcDbEntity
  8
DIM
 62
     0
370
    -2
100
AcDbLine
 10
8.878861999999999
 20
5.888749999999999
 30
0.0
 11
8.608861999999998
 21
5.888749999999999
 31
0.0
  0
LINE
  5
BFE
330
7A5
100
AcDbEntity
  8
DIM
 62
     0
370
    -2
100
AcDbLine
 10
9.507861999999999
 20
5.888749999999999
 30
0.0
 11
9.777862
 21
5.888749999999999
 31
0.0
  0
SOLID
  5
BFF
330
7A5
100
AcDbEntity
  8
DIM
 62
     0
100
AcDbTrace
 10
8.878861999999999
 20
5.933749999999999
 30
0.0
 11
8.878861999999999
 21
5.84375
 31
0.0
 12
9.148861999999999
 22
5.888749999999999
 32
0.0
 13
9.148861999999999
 23
5.888749999999999
 33
0.0
  0
SOLID
  5
C00
330
7A5
100
AcDbEntity
  8
DIM
 62
     0
100
AcDbTrace
 10
9.507861999999999
 20
5.933749999999999
 30
0.0
 11
9.507861999999999
 21
5.84375
 31
0.0
 12
9.237861999999999
 22
5.888749999999999
 32
0.0
 13
9.237861999999999
 23
5.888749999999999
 33
0.0
  0
MTEXT
  5
C01
330
7A5
100
AcDbEntity
  8
DIM
 62
     0
100
AcDbMText
 10
10.1706745
 20
5.888749999999999
 30
0.0
 40
0.1875
 41
0.0
 71
     5
 72
     1
  1
\A1;0.089
 73
     1
 44
1.0
  0
POINT
  5
C02
330
7A5
100
AcDbEntity
  8
DEFPOINTS
 62
     0
100
AcDbPoint
 10
9.148861999999999
 20
5.835072
 30
0.0
  0
POINT
  5
C03
330
7A5
100
AcDbEntity
  8
DEFPOINTS
 62
     0
100
AcDbPoint
 10
9.237861999999999
 20
5.835072
 30
0.0
  0
POINT
  5
C04
330
7A5
100
AcDbEntity
  8
DEFPOINTS
 62
     0
100
AcDbPoint
 10
9.237861999999999
 20
5.888749999999999
 30
0.0
  0
ENDBLK
  5
7B1
330
7A5
100
AcDbEntity
  8
0
100
AcDbBlockEnd
  0
BLOCK
  5
7BE
330
7B3
100
AcDbEntity
  8
0
100
AcDbBlockBegin
  2
*D34
 70
     1
 10
0.0
 20
0.0
 30
0.0
  3
*D34
  1

  0
LINE
  5
BD1
330
7B3
100
AcDbEntity
  8
DIM
 62
     0
370
    -2
100
AcDbLine
 10
5.988644999999999
 20
4.971508999999999
 30
0.0
 11
5.988644999999999
 21
3.336831999999999
 31
0.0
  0
LINE
  5
BD2
330
7B3
100
AcDbEntity
  8
DIM
 62
     0
370
    -2
100
AcDbLine
 10
6.098644999999999
 20
4.640322
 30
0.0
 11
6.098644999999999
 21
3.336831999999999
 31
0.0
  0
LINE
  5
BD3
330
7B3
100
AcDbEntity
  8
DIM
 62
     0
370
    -2
100
AcDbLine
 10
5.718645
 20
3.476331999999999
 30
0.0
 11
5.448644999999999
 21
3.476331999999999
 31
0.0
  0
LINE
  5
BD4
330
7B3
100
AcDbEntity
  8
DIM
 62
     0
370
    -2
100
AcDbLine
 10
6.368644999999999
 20
3.476331999999999
 30
0.0
 11
6.638644999999999
 21
3.476331999999999
 31
0.0
  0
SOLID
  5
BD5
330
7B3
100
AcDbEntity
  8
DIM
 62
     0
100
AcDbTrace
 10
5.718645
 20
3.521331999999999
 30
0.0
 11
5.718645
 21
3.431331999999999
 31
0.0
 12
5.988644999999999
 22
3.476331999999999
 32
0.0
 13
5.988644999999999
 23
3.476331999999999
 33
0.0
  0
SOLID
  5
BD6
330
7B3
100
AcDbEntity
  8
DIM
 62
     0
100
AcDbTrace
 10
6.368644999999999
 20
3.521331999999999
 30
0.0
 11
6.368644999999999
 21
3.431331999999999
 31
0.0
 12
6.098644999999999
 22
3.476331999999999
 32
0.0
 13
6.098644999999999
 23
3.476331999999999
 33
0.0
  0
MTEXT
  5
BD7
330
7B3
100
AcDbEntity
  8
DIM
 62
     0
100
AcDbMText
 10
7.289269999999999
 20
3.476331999999999
 30
0.0
 40
0.1875
 41
0.0
 71
     5
 72
     1
  1
\A1;0.110 TYP.
 73
     1
 44
1.0
  0
POINT
  5
BD8
330
7B3
100
AcDbEntity
  8
DEFPOINTS
 62
     0
100
AcDbPoint
 10
5.988644999999999
 20
5.066008999999999
 30
0.0
  0
POINT
  5
BD9
330
7B3
100
AcDbEntity
  8
DEFPOINTS
 62
     0
100
AcDbPoint
 10
6.098644999999999
 20
4.734822
 30
0.0
  0
POINT
  5
BDA
330
7B3
100
AcDbEntity
  8
DEFPOINTS
 62
     0
100
AcDbPoint
 10
6.098644999999999
 20
3.476331999999999
 30
0.0
  0
ENDBLK
  5
7BF
330
7B3
100
AcDbEntity
  8
0
100
AcDbBlockEnd
  0
BLOCK
  5
7CC
330
7C1
100
AcDbEntity
  8
0
100
AcDbBlockBegin
  2
*D35
 70
     1
 10
0.0
 20
0.0
 30
0.0
  3
*D35
  1

  0
LINE
  5
BDB
330
7C1
100
AcDbEntity
  8
DIM
 62
     0
370
    -2
100
AcDbLine
 10
5.957144999999999
 20
6.249071999999999
 30
0.0
 11
6.685652999999999
 21
6.249071999999999
 31
0.0
  0
LINE
  5
BDC
330
7C1
100
AcDbEntity
  8
DIM
 62
     0
370
    -2
100
AcDbLine
 10
5.974394999999999
 20
6.485071999999999
 30
0.0
 11
6.685652999999999
 21
6.485071999999998
 31
0.0
  0
LINE
  5
BDD
330
7C1
100
AcDbEntity
  8
DIM
 62
     0
370
    -2
100
AcDbLine
 10
6.546152999999998
 20
5.979071999999998
 30
0.0
 11
6.546152999999998
 21
5.709071999999999
 31
0.0
  0
LINE
  5
BDE
330
7C1
100
AcDbEntity
  8
DIM
 62
     0
370
    -2
100
AcDbLine
 10
6.546152999999999
 20
6.755071999999998
 30
0.0
 11
6.546152999999999
 21
7.025071999999998
 31
0.0
  0
LINE
  5
BDF
330
7C1
100
AcDbEntity
  8
DIM
 62
     0
370
    -2
100
AcDbLine
 10
6.546152999999999
 20
7.025071999999998
 30
0.0
 11
6.816152999999999
 21
7.025071999999998
 31
0.0
  0
SOLID
  5
BE0
330
7C1
100
AcDbEntity
  8
DIM
 62
     0
100
AcDbTrace
 10
6.501152999999998
 20
5.979071999999998
 30
0.0
 11
6.591152999999998
 21
5.979071999999998
 31
0.0
 12
6.546152999999999
 22
6.249071999999999
 32
0.0
 13
6.546152999999999
 23
6.249071999999999
 33
0.0
  0
SOLID
  5
BE1
330
7C1
100
AcDbEntity
  8
DIM
 62
     0
100
AcDbTrace
 10
6.501152999999999
 20
6.755071999999998
 30
0.0
 11
6.591152999999999
 21
6.755071999999998
 31
0.0
 12
6.546152999999999
 22
6.485071999999998
 32
0.0
 13
6.546152999999999
 23
6.485071999999998
 33
0.0
  0
MTEXT
  5
BE2
330
7C1
100
AcDbEntity
  8
DIM
 62
     0
100
AcDbMText
 10
7.220684249999997
 20
7.025072
 30
0.0
 40
0.1875
 41
0.0
 71
     5
 72
     1
  1
\A1;0.236
 73
     1
 44
1.0
  0
POINT
  5
BE3
330
7C1
100
AcDbEntity
  8
DEFPOINTS
 62
     0
100
AcDbPoint
 10
5.862644999999999
 20
6.249071999999999
 30
0.0
  0
POINT
  5
BE4
330
7C1
100
AcDbEntity
  8
DEFPOINTS
 62
     0
100
AcDbPoint
 10
5.879894999999999
 20
6.485071999999999
 30
0.0
  0
POINT
  5
BE5
330
7C1
100
AcDbEntity
  8
DEFPOINTS
 62
     0
100
AcDbPoint
 10
6.546152999999999
 20
6.485071999999998
 30
0.0
  0
ENDBLK
  5
7CD
330
7C1
100
AcDbEntity
  8
0
100
AcDbBlockEnd
  0
BLOCK
  5
7DA
330
7CF
100
AcDbEntity
  8
0
100
AcDbBlockBegin
  2
*D36
 70
     1
 10
0.0
 20
0.0
 30
0.0
  3
*D36
  1

  0
LINE
  5
B58
330
7CF
100
AcDbEntity
  8
DIM
 62
     0
370
    -2
100
AcDbLine
 10
4.506833
 20
6.375072
 30
0.0
 11
2.621637
 21
6.375072
 31
0.0
  0
LINE
  5
B59
330
7CF
100
AcDbEntity
  8
DIM
 62
     0
370
    -2
100
AcDbLine
 10
4.506833
 20
4.626071999999999
 30
0.0
 11
2.621637
 21
4.626071999999999
 31
0.0
  0
LINE
  5
B5A
330
7CF
100
AcDbEntity
  8
DIM
 62
     0
370
    -2
100
AcDbLine
 10
2.761137
 20
6.105072
 30
0.0
 11
2.761137
 21
5.575850999999999
 31
0.0
  0
LINE
  5
B5B
330
7CF
100
AcDbEntity
  8
DIM
 62
     0
370
    -2
100
AcDbLine
 10
2.761137
 20
4.896071999999999
 30
0.0
 11
2.761137
 21
5.118350999999999
 31
0.0
  0
SOLID
  5
B5C
330
7CF
100
AcDbEntity
  8
DIM
 62
     0
100
AcDbTrace
 10
2.716137
 20
6.105072
 30
0.0
 11
2.806137
 21
6.105072
 31
0.0
 12
2.761137
 22
6.375072
 32
0.0
 13
2.761137
 23
6.375072
 33
0.0
  0
SOLID
  5
B5D
330
7CF
100
AcDbEntity
  8
DIM
 62
     0
100
AcDbTrace
 10
2.716137
 20
4.896071999999999
 30
0.0
 11
2.806137
 21
4.896071999999999
 31
0.0
 12
2.761137
 22
4.626071999999999
 32
0.0
 13
2.761137
 23
4.626071999999999
 33
0.0
  0
MTEXT
  5
B5E
330
7CF
100
AcDbEntity
  8
DIM
 62
     0
100
AcDbMText
 10
2.761136999999999
 20
5.347101
 30
0.0
 40
0.1875
 41
0.0
 71
     5
 72
     1
  1
\A1;1.749
 73
     1
 44
1.0
  0
POINT
  5
B5F
330
7CF
100
AcDbEntity
  8
DEFPOINTS
 62
     0
100
AcDbPoint
 10
4.601333
 20
6.375072
 30
0.0
  0
POINT
  5
B60
330
7CF
100
AcDbEntity
  8
DEFPOINTS
 62
     0
100
AcDbPoint
 10
4.601333
 20
4.626071999999999
 30
0.0
  0
POINT
  5
B61
330
7CF
100
AcDbEntity
  8
DEFPOINTS
 62
     0
100
AcDbPoint
 10
2.761137
 20
4.626071999999999
 30
0.0
  0
ENDBLK
  5
7DB
330
7CF
100
AcDbEntity
  8
0
100
AcDbBlockEnd
  0
BLOCK
  5
812
330
807
100
AcDbEntity
  8
0
100
AcDbBlockBegin
  2
*D37
 70
     1
 10
0.0
 20
0.0
 30
0.0
  3
*D37
  1

  0
LINE
  5
C9C
330
807
100
AcDbEntity
  8
DIM
 62
     0
370
    -2
100
AcDbLine
 10
17.99107099999999
 20
6.517071999999999
 30
0.0
 11
17.99107099999999
 21
6.917745
 31
0.0
  0
LINE
  5
C9D
330
807
100
AcDbEntity
  8
DIM
 62
     0
370
    -2
100
AcDbLine
 10
17.59707099999999
 20
6.579571999999999
 30
0.0
 11
17.59707099999999
 21
6.917745
 31
0.0
  0
LINE
  5
C9E
330
807
100
AcDbEntity
  8
DIM
 62
     0
370
    -2
100
AcDbLine
 10
18.26107099999999
 20
6.778245
 30
0.0
 11
18.53107099999999
 21
6.778245
 31
0.0
  0
LINE
  5
C9F
330
807
100
AcDbEntity
  8
DIM
 62
     0
370
    -2
100
AcDbLine
 10
17.327071
 20
6.778245
 30
0.0
 11
17.057071
 21
6.778245
 31
0.0
  0
SOLID
  5
CA0
330
807
100
AcDbEntity
  8
DIM
 62
     0
100
AcDbTrace
 10
18.26107099999999
 20
6.823245
 30
0.0
 11
18.26107099999999
 21
6.733245
 31
0.0
 12
17.99107099999999
 22
6.778245
 32
0.0
 13
17.99107099999999
 23
6.778245
 33
0.0
  0
SOLID
  5
CA1
330
807
100
AcDbEntity
  8
DIM
 62
     0
100
AcDbTrace
 10
17.327071
 20
6.823245
 30
0.0
 11
17.327071
 21
6.733245
 31
0.0
 12
17.59707099999999
 22
6.778245
 32
0.0
 13
17.59707099999999
 23
6.778245
 33
0.0
  0
MTEXT
  5
CA2
330
807
100
AcDbEntity
  8
DIM
 62
     0
100
AcDbMText
 10
16.65253974999999
 20
6.778245
 30
0.0
 40
0.1875
 41
0.0
 71
     5
 72
     1
  1
\A1;0.394
 73
     1
 44
1.0
  0
POINT
  5
CA3
330
807
100
AcDbEntity
  8
DEFPOINTS
 62
     0
100
AcDbPoint
 10
17.99107099999999
 20
6.422571999999999
 30
0.0
  0
POINT
  5
CA4
330
807
100
AcDbEntity
  8
DEFPOINTS
 62
     0
100
AcDbPoint
 10
17.59707099999999
 20
6.485071999999999
 30
0.0
  0
POINT
  5
CA5
330
807
100
AcDbEntity
  8
DEFPOINTS
 62
     0
100
AcDbPoint
 10
17.59707099999999
 20
6.778245
 30
0.0
  0
ENDBLK
  5
813
330
807
100
AcDbEntity
  8
0
100
AcDbBlockEnd
  0
BLOCK
  5
820
330
815
100
AcDbEntity
  8
0
100
AcDbBlockBegin
  2
*D38
 70
     1
 10
0.0
 20
0.0
 30
0.0
  3
*D38
  1

  0
LINE
  5
C55
330
815
100
AcDbEntity
  8
DIM
 62
     0
370
    -2
100
AcDbLine
 10
17.873071
 20
5.902751
 30
0.0
 11
17.873071
 21
5.953426
 31
0.0
  0
LINE
  5
C56
330
815
100
AcDbEntity
  8
DIM
 62
     0
370
    -2
100
AcDbLine
 10
17.99107099999999
 20
5.902751
 30
0.0
 11
17.99107099999999
 21
5.953426
 31
0.0
  0
LINE
  5
C57
330
815
100
AcDbEntity
  8
DIM
 62
     0
370
    -2
100
AcDbLine
 10
17.603071
 20
5.813926
 30
0.0
 11
17.333071
 21
5.813926
 31
0.0
  0
LINE
  5
C58
330
815
100
AcDbEntity
  8
DIM
 62
     0
370
    -2
100
AcDbLine
 10
18.26107099999999
 20
5.813926
 30
0.0
 11
18.53107099999999
 21
5.813926
 31
0.0
  0
SOLID
  5
C59
330
815
100
AcDbEntity
  8
DIM
 62
     0
100
AcDbTrace
 10
17.603071
 20
5.858926
 30
0.0
 11
17.603071
 21
5.768926
 31
0.0
 12
17.873071
 22
5.813926
 32
0.0
 13
17.873071
 23
5.813926
 33
0.0
  0
SOLID
  5
C5A
330
815
100
AcDbEntity
  8
DIM
 62
     0
100
AcDbTrace
 10
18.26107099999999
 20
5.858926
 30
0.0
 11
18.26107099999999
 21
5.768926
 31
0.0
 12
17.99107099999999
 22
5.813926
 32
0.0
 13
17.99107099999999
 23
5.813926
 33
0.0
  0
MTEXT
  5
C5B
330
815
100
AcDbEntity
  8
DIM
 62
     0
100
AcDbMText
 10
18.88872724999999
 20
5.813926
 30
0.0
 40
0.1875
 41
0.0
 71
     5
 72
     1
  1
\A1;0.100
 73
     1
 44
1.0
  0
POINT
  5
C5C
330
815
100
AcDbEntity
  8
DEFPOINTS
 62
     0
100
AcDbPoint
 10
17.873071
 20
5.808251
 30
0.0
  0
POINT
  5
C5D
330
815
100
AcDbEntity
  8
DEFPOINTS
 62
     0
100
AcDbPoint
 10
17.99107099999999
 20
5.808251
 30
0.0
  0
POINT
  5
C5E
330
815
100
AcDbEntity
  8
DEFPOINTS
 62
     0
100
AcDbPoint
 10
17.99107099999999
 20
5.813926
 30
0.0
  0
ENDBLK
  5
821
330
815
100
AcDbEntity
  8
0
100
AcDbBlockEnd
  0
BLOCK
  5
86E
330
863
100
AcDbEntity
  8
0
100
AcDbBlockBegin
  2
*D39
 70
     1
 10
0.0
 20
0.0
 30
0.0
  3
*D39
  1

  0
LINE
  5
EC2
330
863
100
AcDbEntity
  8
DIM
 62
     0
370
    -2
100
AcDbLine
 10
20.00840494062497
 20
12.051449
 30
0.0
 11
18.92745294062497
 21
12.051449
 31
0.0
  0
LINE
  5
EC3
330
863
100
AcDbEntity
  8
DIM
 62
     0
370
    -2
100
AcDbLine
 10
20.00840494062497
 20
11.731449
 30
0.0
 11
18.92745294062497
 21
11.731449
 31
0.0
  0
LINE
  5
EC4
330
863
100
AcDbEntity
  8
DIM
 62
     0
370
    -2
100
AcDbLine
 10
19.06695294062497
 20
12.321449
 30
0.0
 11
19.06695294062497
 21
12.591449
 31
0.0
  0
LINE
  5
EC5
330
863
100
AcDbEntity
  8
DIM
 62
     0
370
    -2
100
AcDbLine
 10
19.06695294062497
 20
11.461449
 30
0.0
 11
19.06695294062497
 21
11.191449
 31
0.0
  0
SOLID
  5
EC6
330
863
100
AcDbEntity
  8
DIM
 62
     0
100
AcDbTrace
 10
19.02195294062496
 20
12.321449
 30
0.0
 11
19.11195294062497
 21
12.321449
 31
0.0
 12
19.06695294062497
 22
12.051449
 32
0.0
 13
19.06695294062497
 23
12.051449
 33
0.0
  0
SOLID
  5
EC7
330
863
100
AcDbEntity
  8
DIM
 62
     0
100
AcDbTrace
 10
19.02195294062496
 20
11.461449
 30
0.0
 11
19.11195294062497
 21
11.461449
 31
0.0
 12
19.06695294062497
 22
11.731449
 32
0.0
 13
19.06695294062497
 23
11.731449
 33
0.0
  0
MTEXT
  5
EC8
330
863
100
AcDbEntity
  8
DIM
 62
     0
100
AcDbMText
 10
19.06695294062496
 20
11.891449
 30
0.0
 40
0.1875
 41
0.0
 71
     5
 72
     1
  1
\A1;0.080
 73
     1
 44
1.0
  0
POINT
  5
EC9
330
863
100
AcDbEntity
  8
DEFPOINTS
 62
     0
100
AcDbPoint
 10
20.10290494062497
 20
12.051449
 30
0.0
  0
POINT
  5
ECA
330
863
100
AcDbEntity
  8
DEFPOINTS
 62
     0
100
AcDbPoint
 10
20.10290494062497
 20
11.731449
 30
0.0
  0
POINT
  5
ECB
330
863
100
AcDbEntity
  8
DEFPOINTS
 62
     0
100
AcDbPoint
 10
19.06695294062497
 20
11.731449
 30
0.0
  0
ENDBLK
  5
86F
330
863
100
AcDbEntity
  8
0
100
AcDbBlockEnd
  0
BLOCK
  5
87C
330
871
100
AcDbEntity
  8
0
100
AcDbBlockBegin
  2
*D40
 70
     1
 10
0.0
 20
0.0
 30
0.0
  3
*D40
  1

  0
LINE
  5
EB8
330
871
100
AcDbEntity
  8
DIM
 62
     0
370
    -2
100
AcDbLine
 10
20.56290494062497
 20
12.145949
 30
0.0
 11
20.56290494062497
 21
13.726045
 31
0.0
  0
LINE
  5
EB9
330
871
100
AcDbEntity
  8
DIM
 62
     0
370
    -2
100
AcDbLine
 10
20.10290494062497
 20
13.177626
 30
0.0
 11
20.10290494062497
 21
13.726045
 31
0.0
  0
LINE
  5
EBA
330
871
100
AcDbEntity
  8
DIM
 62
     0
370
    -2
100
AcDbLine
 10
20.83290494062497
 20
13.586545
 30
0.0
 11
21.10290494062497
 21
13.586545
 31
0.0
  0
LINE
  5
EBB
330
871
100
AcDbEntity
  8
DIM
 62
     0
370
    -2
100
AcDbLine
 10
19.83290494062497
 20
13.586545
 30
0.0
 11
19.56290494062497
 21
13.586545
 31
0.0
  0
SOLID
  5
EBC
330
871
100
AcDbEntity
  8
DIM
 62
     0
100
AcDbTrace
 10
20.83290494062497
 20
13.631545
 30
0.0
 11
20.83290494062497
 21
13.541545
 31
0.0
 12
20.56290494062497
 22
13.586545
 32
0.0
 13
20.56290494062497
 23
13.586545
 33
0.0
  0
SOLID
  5
EBD
330
871
100
AcDbEntity
  8
DIM
 62
     0
100
AcDbTrace
 10
19.83290494062497
 20
13.631545
 30
0.0
 11
19.83290494062497
 21
13.541545
 31
0.0
 12
20.10290494062497
 22
13.586545
 32
0.0
 13
20.10290494062497
 23
13.586545
 33
0.0
  0
MTEXT
  5
EBE
330
871
100
AcDbEntity
  8
DIM
 62
     0
100
AcDbMText
 10
19.20524869062496
 20
13.586545
 30
0.0
 40
0.1875
 41
0.0
 71
     5
 72
     1
  1
\A1;0.115
 73
     1
 44
1.0
  0
POINT
  5
EBF
330
871
100
AcDbEntity
  8
DEFPOINTS
 62
     0
100
AcDbPoint
 10
20.56290494062497
 20
12.051449
 30
0.0
  0
POINT
  5
EC0
330
871
100
AcDbEntity
  8
DEFPOINTS
 62
     0
100
AcDbPoint
 10
20.10290494062497
 20
13.083126
 30
0.0
  0
POINT
  5
EC1
330
871
100
AcDbEntity
  8
DEFPOINTS
 62
     0
100
AcDbPoint
 10
20.10290494062497
 20
13.586545
 30
0.0
  0
ENDBLK
  5
87D
330
871
100
AcDbEntity
  8
0
100
AcDbBlockEnd
  0
BLOCK
  5
89E
330
893
100
AcDbEntity
  8
0
100
AcDbBlockBegin
  2
*D41
 70
     1
 10
0.0
 20
0.0
 30
0.0
  3
*D41
  1

  0
LINE
  5
EAE
330
893
100
AcDbEntity
  8
DIM
 62
     0
370
    -2
100
AcDbLine
 10
21.77340494062497
 20
10.25394899999999
 30
0.0
 11
22.52496894062497
 21
10.25394899999999
 31
0.0
  0
LINE
  5
EAF
330
893
100
AcDbEntity
  8
DIM
 62
     0
370
    -2
100
AcDbLine
 10
21.77340494062497
 20
11.493949
 30
0.0
 11
22.52496894062497
 21
11.493949
 31
0.0
  0
LINE
  5
EB0
330
893
100
AcDbEntity
  8
DIM
 62
     0
370
    -2
100
AcDbLine
 10
22.38546894062496
 20
9.983949
 30
0.0
 11
22.38546894062496
 21
9.713949000000001
 31
0.0
  0
LINE
  5
EB1
330
893
100
AcDbEntity
  8
DIM
 62
     0
370
    -2
100
AcDbLine
 10
22.38546894062496
 20
11.763949
 30
0.0
 11
22.38546894062496
 21
12.033949
 31
0.0
  0
SOLID
  5
EB2
330
893
100
AcDbEntity
  8
DIM
 62
     0
100
AcDbTrace
 10
22.34046894062496
 20
9.983949
 30
0.0
 11
22.43046894062497
 21
9.983949
 31
0.0
 12
22.38546894062496
 22
10.25394899999999
 32
0.0
 13
22.38546894062496
 23
10.25394899999999
 33
0.0
  0
SOLID
  5
EB3
330
893
100
AcDbEntity
  8
DIM
 62
     0
100
AcDbTrace
 10
22.34046894062496
 20
11.763949
 30
0.0
 11
22.43046894062497
 21
11.763949
 31
0.0
 12
22.38546894062496
 22
11.493949
 32
0.0
 13
22.38546894062496
 23
11.493949
 33
0.0
  0
MTEXT
  5
EB4
330
893
100
AcDbEntity
  8
DIM
 62
     0
100
AcDbMText
 10
22.38546894062496
 20
10.873949
 30
0.0
 40
0.1875
 41
0.0
 71
     5
 72
     1
  1
\A1;0.310 DIA.\PC'BORE
 73
     1
 44
1.0
  0
POINT
  5
EB5
330
893
100
AcDbEntity
  8
DEFPOINTS
 62
     0
100
AcDbPoint
 10
21.67890494062497
 20
10.25394899999999
 30
0.0
  0
POINT
  5
EB6
330
893
100
AcDbEntity
  8
DEFPOINTS
 62
     0
100
AcDbPoint
 10
21.67890494062497
 20
11.493949
 30
0.0
  0
POINT
  5
EB7
330
893
100
AcDbEntity
  8
DEFPOINTS
 62
     0
100
AcDbPoint
 10
22.38546894062496
 20
11.493949
 30
0.0
  0
ENDBLK
  5
89F
330
893
100
AcDbEntity
  8
0
100
AcDbBlockEnd
  0
BLOCK
  5
8AC
330
8A1
100
AcDbEntity
  8
0
100
AcDbBlockBegin
  2
*D42
 70
     1
 10
0.0
 20
0.0
 30
0.0
  3
*D42
  1

  0
LINE
  5
ECC
330
8A1
100
AcDbEntity
  8
DIM
 62
     0
370
    -2
100
AcDbLine
 10
20.00840494062497
 20
11.217699
 30
0.0
 11
19.34795294062496
 21
11.217699
 31
0.0
  0
LINE
  5
ECD
330
8A1
100
AcDbEntity
  8
DIM
 62
     0
370
    -2
100
AcDbLine
 10
20.00840494062497
 20
10.530199
 30
0.0
 11
19.34795294062496
 21
10.530199
 31
0.0
  0
LINE
  5
ECE
330
8A1
100
AcDbEntity
  8
DIM
 62
     0
370
    -2
100
AcDbLine
 10
19.48745294062496
 20
11.487699
 30
0.0
 11
19.48745294062496
 21
11.757699
 31
0.0
  0
LINE
  5
ECF
330
8A1
100
AcDbEntity
  8
DIM
 62
     0
370
    -2
100
AcDbLine
 10
19.48745294062496
 20
10.260199
 30
0.0
 11
19.48745294062496
 21
9.990199
 31
0.0
  0
SOLID
  5
ED0
330
8A1
100
AcDbEntity
  8
DIM
 62
     0
100
AcDbTrace
 10
19.44245294062496
 20
11.487699
 30
0.0
 11
19.53245294062497
 21
11.487699
 31
0.0
 12
19.48745294062496
 22
11.217699
 32
0.0
 13
19.48745294062496
 23
11.217699
 33
0.0
  0
SOLID
  5
ED1
330
8A1
100
AcDbEntity
  8
DIM
 62
     0
100
AcDbTrace
 10
19.44245294062496
 20
10.260199
 30
0.0
 11
19.53245294062497
 21
10.260199
 31
0.0
 12
19.48745294062496
 22
10.530199
 32
0.0
 13
19.48745294062496
 23
10.530199
 33
0.0
  0
MTEXT
  5
ED2
330
8A1
100
AcDbEntity
  8
DIM
 62
     0
100
AcDbMText
 10
19.48745294062496
 20
10.873949
 30
0.0
 40
0.1875
 41
0.0
 71
     5
 72
     1
  1
\A1;0.172 DIA.
 73
     1
 44
1.0
  0
POINT
  5
ED3
330
8A1
100
AcDbEntity
  8
DEFPOINTS
 62
     0
100
AcDbPoint
 10
20.10290494062497
 20
11.217699
 30
0.0
  0
POINT
  5
ED4
330
8A1
100
AcDbEntity
  8
DEFPOINTS
 62
     0
100
AcDbPoint
 10
20.10290494062497
 20
10.530199
 30
0.0
  0
POINT
  5
ED5
330
8A1
100
AcDbEntity
  8
DEFPOINTS
 62
     0
100
AcDbPoint
 10
19.48745294062496
 20
10.530199
 30
0.0
  0
ENDBLK
  5
8AD
330
8A1
100
AcDbEntity
  8
0
100
AcDbBlockEnd
  0
BLOCK
  5
8BA
330
8AF
100
AcDbEntity
  8
0
100
AcDbBlockBegin
  2
*D43
 70
     1
 10
0.0
 20
0.0
 30
0.0
  3
*D43
  1

  0
LINE
  5
EA4
330
8AF
100
AcDbEntity
  8
DIM
 62
     0
370
    -2
100
AcDbLine
 10
21.67890494062497
 20
10.159449
 30
0.0
 11
21.67890494062497
 21
9.486817537830246
 31
0.0
  0
LINE
  5
EA5
330
8AF
100
AcDbEntity
  8
DIM
 62
     0
370
    -2
100
AcDbLine
 10
21.19890494062497
 20
10.159449
 30
0.0
 11
21.19890494062497
 21
9.486817537830246
 31
0.0
  0
LINE
  5
EA6
330
8AF
100
AcDbEntity
  8
DIM
 62
     0
370
    -2
100
AcDbLine
 10
21.94890494062497
 20
9.626317537830246
 30
0.0
 11
22.21890494062497
 21
9.626317537830246
 31
0.0
  0
LINE
  5
EA7
330
8AF
100
AcDbEntity
  8
DIM
 62
     0
370
    -2
100
AcDbLine
 10
20.92890494062497
 20
9.626317537830246
 30
0.0
 11
20.65890494062497
 21
9.626317537830246
 31
0.0
  0
SOLID
  5
EA8
330
8AF
100
AcDbEntity
  8
DIM
 62
     0
100
AcDbTrace
 10
21.94890494062497
 20
9.671317537830246
 30
0.0
 11
21.94890494062497
 21
9.581317537830246
 31
0.0
 12
21.67890494062497
 22
9.626317537830246
 32
0.0
 13
21.67890494062497
 23
9.626317537830246
 33
0.0
  0
SOLID
  5
EA9
330
8AF
100
AcDbEntity
  8
DIM
 62
     0
100
AcDbTrace
 10
20.92890494062497
 20
9.671317537830246
 30
0.0
 11
20.92890494062497
 21
9.581317537830246
 31
0.0
 12
21.19890494062497
 22
9.626317537830246
 32
0.0
 13
21.19890494062497
 23
9.626317537830246
 33
0.0
  0
MTEXT
  5
EAA
330
8AF
100
AcDbEntity
  8
DIM
 62
     0
100
AcDbMText
 10
20.28952994062497
 20
9.626317537830246
 30
0.0
 40
0.1875
 41
0.0
 71
     5
 72
     1
  1
\A1;0.120
 73
     1
 44
1.0
  0
POINT
  5
EAB
330
8AF
100
AcDbEntity
  8
DEFPOINTS
 62
     0
100
AcDbPoint
 10
21.67890494062497
 20
10.25394899999999
 30
0.0
  0
POINT
  5
EAC
330
8AF
100
AcDbEntity
  8
DEFPOINTS
 62
     0
100
AcDbPoint
 10
21.19890494062497
 20
10.253949
 30
0.0
  0
POINT
  5
EAD
330
8AF
100
AcDbEntity
  8
DEFPOINTS
 62
     0
100
AcDbPoint
 10
21.19890494062497
 20
9.626317537830246
 30
0.0
  0
ENDBLK
  5
8BB
330
8AF
100
AcDbEntity
  8
0
100
AcDbBlockEnd
  0
BLOCK
  5
E75
330
E5E
100
AcDbEntity
  8
0
100
AcDbBlockBegin
  2
HBS
 70
     0
 10
0.0
 20
0.0
 30
0.0
  3
HBS
  1

  0
LINE
  5
E5F
330
E5E
100
AcDbEntity
  8
TITLE
100
AcDbLine
 10
0.0620000000000118
 20
10.266
 30
0.0
 11
16.53800000000001
 21
10.266
 31
0.0
  0
LINE
  5
E60
330
E5E
100
AcDbEntity
  8
TITLE
100
AcDbLine
 10
16.53800000000001
 20
0.0620000000000012
 30
0.0
 11
0.0620000000000118
 21
0.0620000000000012
 31
0.0
  0
LINE
  5
E61
330
E5E
100
AcDbEntity
  8
TITLE
100
AcDbLine
 10
0.0
 20
10.32799999999999
 30
0.0
 11
16.59999999999999
 21
10.32799999999999
 31
0.0
  0
LINE
  5
E62
330
E5E
100
AcDbEntity
  8
TITLE
100
AcDbLine
 10
16.59999999999999
 20
0.0
 30
0.0
 11
0.0
 21
0.0
 31
0.0
  0
LINE
  5
E63
330
E5E
100
AcDbEntity
  8
TITLE
100
AcDbLine
 10
0.0620000000000118
 20
9.848000000000002
 30
0.0
 11
16.53800000000001
 21
9.848000000000006
 31
0.0
  0
LINE
  5
E64
330
E5E
100
AcDbEntity
  8
TITLE
100
AcDbLine
 10
0.0620000000000118
 20
0.0620000000000012
 30
0.0
 11
0.0620000000000118
 21
10.266
 31
0.0
  0
LINE
  5
E65
330
E5E
100
AcDbEntity
  8
TITLE
100
AcDbLine
 10
0.0
 20
0.0
 30
0.0
 11
0.0
 21
10.32799999999999
 31
0.0
  0
TEXT
  5
E66
330
E5E
100
AcDbEntity
  8
TEXT
100
AcDbText
 10
0.2078333333333452
 20
9.888079195640081
 30
0.0
 40
0.125
  1
NAME
 72
     1
 11
0.4370000000000119
 21
9.888079195640081
 31
0.0
100
AcDbText
  0
TEXT
  5
E67
330
E5E
100
AcDbEntity
  8
TEXT
100
AcDbText
 10
0.2078333333333452
 20
10.09641252897341
 30
0.0
 40
0.125
  1
PART
 72
     1
 11
0.4370000000000119
 21
10.09641252897341
 31
0.0
100
AcDbText
  0
LINE
  5
E68
330
E5E
100
AcDbEntity
  8
TITLE
100
AcDbLine
 10
0.8120000000000118
 20
9.848000000000002
 30
0.0
 11
0.8120000000000118
 21
10.266
 31
0.0
  0
LINE
  5
E69
330
E5E
100
AcDbEntity
  8
TITLE
100
AcDbLine
 10
7.0
 20
10.266
 30
0.0
 11
7.0
 21
9.848000000000002
 31
0.0
  0
LINE
  5
E6A
330
E5E
100
AcDbEntity
  8
TITLE
100
AcDbLine
 10
7.062000000000011
 20
10.266
 30
0.0
 11
7.062000000000011
 21
9.848000000000002
 31
0.0
  0
LINE
  5
E6B
330
E5E
100
AcDbEntity
  8
TITLE
100
AcDbLine
 10
7.812000000000011
 20
10.266
 30
0.0
 11
7.812000000000011
 21
9.848000000000002
 31
0.0
  0
TEXT
  5
E6C
330
E5E
100
AcDbEntity
  8
TEXT
100
AcDbText
 10
7.312000000000011
 20
9.888079195640081
 30
0.0
 40
0.125
  1
No.
 72
     1
 11
7.437000000000011
 21
9.888079195640081
 31
0.0
100
AcDbText
  0
TEXT
  5
E6D
330
E5E
100
AcDbEntity
  8
TEXT
100
AcDbText
 10
7.207833333333344
 20
10.09641252897341
 30
0.0
 40
0.125
  1
PART
 72
     1
 11
7.437000000000011
 21
10.09641252897341
 31
0.0
100
AcDbText
  0
LINE
  5
E6E
330
E5E
100
AcDbEntity
  8
TITLE
100
AcDbLine
 10
16.53800000000001
 20
10.266
 30
0.0
 11
16.53800000000001
 21
0.0620000000000012
 31
0.0
  0
LINE
  5
E6F
330
E5E
100
AcDbEntity
  8
TITLE
100
AcDbLine
 10
16.59999999999999
 20
10.32799999999999
 30
0.0
 11
16.59999999999999
 21
0.0
 31
0.0
  0
TEXT
  5
E70
330
E5E
100
AcDbEntity
  8
TEXT
100
AcDbText
 10
14.22865779971668
 20
10.09641252897341
 30
0.0
 40
0.125
  1
REV.
 72
     1
 11
14.43699113305001
 21
10.09641252897341
 31
0.0
100
AcDbText
  0
TEXT
  5
E71
330
E5E
100
AcDbEntity
  8
TEXT
100
AcDbText
 10
14.20782446638335
 20
9.888079195640081
 30
0.0
 40
0.125
  1
DATE
 72
     1
 11
14.43699113305001
 21
9.888079195640081
 31
0.0
100
AcDbText
  0
LINE
  5
E72
330
E5E
100
AcDbEntity
  8
TITLE
100
AcDbLine
 10
14.06199113305001
 20
10.266
 30
0.0
 11
14.06199113305001
 21
9.848000000000002
 31
0.0
  0
LINE
  5
E73
330
E5E
100
AcDbEntity
  8
TITLE
100
AcDbLine
 10
14.81199113305001
 20
10.266
 30
0.0
 11
14.81199113305001
 21
9.848000000000002
 31
0.0
  0
LINE
  5
E74
330
E5E
100
AcDbEntity
  8
TITLE
100
AcDbLine
 10
13.99999113305
 20
10.266
 30
0.0
 11
13.99999113305
 21
9.848000000000002
 31
0.0
  0
ENDBLK
  5
E76
330
E5E
100
AcDbEntity
  8
0
100
AcDbBlockEnd
  0
ENDSEC
  0
SECTION
  2
ENTITIES
  0
LINE
  5
46F
330
1E
100
AcDbEntity
  8
OBJECT
100
AcDbLine
 10
5.879894999999999
 20
6.485071999999999
 30
0.0
 11
4.270394999999999
 21
6.485071999999999
 31
0.0
  0
LINE
  5
470
330
1E
100
AcDbEntity
  8
OBJECT
100
AcDbLine
 10
4.051644999999999
 20
6.266321999999999
 30
0.0
 11
4.051644999999999
 21
4.734822
 31
0.0
  0
LINE
  5
471
330
1E
100
AcDbEntity
  8
OBJECT
100
AcDbLine
 10
4.071644999999999
 20
4.734822
 30
0.0
 11
4.071644999999999
 21
6.266321999999999
 31
0.0
  0
LINE
  5
472
330
1E
100
AcDbEntity
  8
OBJECT
100
AcDbLine
 10
4.270394999999999
 20
6.465072
 30
0.0
 11
5.879894999999999
 21
6.465072
 31
0.0
  0
LINE
  5
473
330
1E
100
AcDbEntity
  8
OBJECT
100
AcDbLine
 10
6.098644999999999
 20
6.266321999999999
 30
0.0
 11
6.098644999999999
 21
4.734822
 31
0.0
  0
LINE
  5
474
330
1E
100
AcDbEntity
  8
OBJECT
100
AcDbLine
 10
5.879894999999999
 20
4.516072
 30
0.0
 11
4.270394999999999
 21
4.516072
 31
0.0
  0
ARC
  5
475
330
1E
100
AcDbEntity
  8
OBJECT
100
AcDbCircle
 10
5.879894999999999
 20
6.266321999999999
 30
0.0
 40
0.19875
100
AcDbArc
 50
0.0
 51
90.0
  0
CIRCLE
  5
476
330
1E
100
AcDbEntity
  8
OBJECT
100
AcDbCircle
 10
5.862644999999999
 20
6.249071999999999
 30
0.0
 40
0.0625
  0
CIRCLE
  5
477
330
1E
100
AcDbEntity
  8
OBJECT
100
AcDbCircle
 10
5.862644999999999
 20
6.249071999999999
 30
0.0
 40
0.125
  0
ARC
  5
478
330
1E
100
AcDbEntity
  8
OBJECT
100
AcDbCircle
 10
5.879894999999999
 20
6.266321999999999
 30
0.0
 40
0.21875
100
AcDbArc
 50
0.0
 51
90.0
  0
ARC
  5
479
330
1E
100
AcDbEntity
  8
OBJECT
100
AcDbCircle
 10
4.270394999999999
 20
4.734822
 30
0.0
 40
0.19875
100
AcDbArc
 50
180.0
 51
270.0
  0
CIRCLE
  5
47A
330
1E
100
AcDbEntity
  8
OBJECT
100
AcDbCircle
 10
4.287644999999999
 20
4.752072
 30
0.0
 40
0.0625
  0
CIRCLE
  5
47B
330
1E
100
AcDbEntity
  8
OBJECT
100
AcDbCircle
 10
4.287644999999999
 20
4.752072
 30
0.0
 40
0.125
  0
ARC
  5
47C
330
1E
100
AcDbEntity
  8
OBJECT
100
AcDbCircle
 10
4.270394999999999
 20
4.734822
 30
0.0
 40
0.21875
100
AcDbArc
 50
180.0
 51
270.0
  0
LINE
  5
47D
330
1E
100
AcDbEntity
  8
OBJECT
100
AcDbLine
 10
5.879894999999999
 20
4.536071999999999
 30
0.0
 11
4.270394999999999
 21
4.536071999999999
 31
0.0
  0
LINE
  5
47E
330
1E
100
AcDbEntity
  8
OBJECT
100
AcDbLine
 10
6.078644999999999
 20
6.266321999999999
 30
0.0
 11
6.078644999999999
 21
4.734822
 31
0.0
  0
ARC
  5
47F
330
1E
100
AcDbEntity
  8
OBJECT
100
AcDbCircle
 10
5.879894999999999
 20
4.734822
 30
0.0
 40
0.21875
100
AcDbArc
 50
270.0
 51
0.0
  0
ARC
  5
480
330
1E
100
AcDbEntity
  8
OBJECT
100
AcDbCircle
 10
5.879894999999999
 20
4.734822
 30
0.0
 40
0.19875
100
AcDbArc
 50
270.0
 51
0.0
  0
ARC
  5
481
330
1E
100
AcDbEntity
  8
OBJECT
100
AcDbCircle
 10
4.270394999999999
 20
6.266321999999999
 30
0.0
 40
0.21875
100
AcDbArc
 50
90.0
 51
180.0
  0
ARC
  5
482
330
1E
100
AcDbEntity
  8
OBJECT
100
AcDbCircle
 10
4.270394999999999
 20
6.266321999999999
 30
0.0
 40
0.19875
100
AcDbArc
 50
90.0
 51
180.0
  0
CIRCLE
  5
483
330
1E
100
AcDbEntity
  8
OBJECT
100
AcDbCircle
 10
4.752144999999999
 20
5.500572
 30
0.0
 40
0.0435
  0
DIMENSION
  5
484
330
1E
100
AcDbEntity
  8
DIM
100
AcDbDimension
  2
*D1
 10
2.339637
 20
6.485071999999999
 30
0.0
 11
2.339636999999999
 21
5.661514
 31
0.0
 70
   160
 71
     5
 42
1.968999999999999
  3
23NSTD
100
AcDbAlignedDimension
 13
4.270394999999999
 23
4.516072
 33
0.0
 14
4.270394999999999
 24
6.485071999999999
 34
0.0
 50
90.0
100
AcDbRotatedDimension
  0
TEXT
  5
492
330
1E
100
AcDbEntity
  8
TEXT
100
AcDbText
 10
8.264766313934359
 20
9.059058
 30
0.0
 40
0.1875
  1
%%UDETAIL "C"
 41
0.8
  7
SECTION
100
AcDbText
  0
TEXT
  5
493
330
1E
100
AcDbEntity
  8
TEXT
100
AcDbText
 10
8.136388
 20
3.553101999999999
 30
0.0
 40
0.1875
  1
%%USECTION "A-A"
 41
0.8
  7
SECTION
100
AcDbText
  0
ARC
  5
494
330
1E
100
AcDbEntity
  8
OBJECT
100
AcDbCircle
 10
4.752144999999999
 20
5.500572
 30
0.0
 40
0.13
100
AcDbArc
 50
107.457603
 51
252.5423969999999
  0
LINE
  5
495
330
1E
100
AcDbEntity
  8
OBJECT
100
AcDbLine
 10
4.713144999999999
 20
5.624583999999999
 30
0.0
 11
4.713144999999999
 21
5.796072
 31
0.0
  0
LINE
  5
496
330
1E
100
AcDbEntity
  8
OBJECT
100
AcDbLine
 10
4.791144999999999
 20
5.624583999999999
 30
0.0
 11
4.791144999999999
 21
5.796072
 31
0.0
  0
ARC
  5
497
330
1E
100
AcDbEntity
  8
OBJECT
100
AcDbCircle
 10
4.752144999999999
 20
5.796072
 30
0.0
 40
0.039
100
AcDbArc
 50
0.0
 51
180.0
  0
ARC
  5
498
330
1E
100
AcDbEntity
  8
OBJECT
100
AcDbCircle
 10
4.752144999999999
 20
5.205072
 30
0.0
 40
0.039
100
AcDbArc
 50
180.0
 51
0.0
  0
LINE
  5
499
330
1E
100
AcDbEntity
  8
OBJECT
100
AcDbLine
 10
4.713144999999999
 20
5.376559999999999
 30
0.0
 11
4.713144999999999
 21
5.205072
 31
0.0
  0
LINE
  5
49A
330
1E
100
AcDbEntity
  8
OBJECT
100
AcDbLine
 10
4.791144999999999
 20
5.376559999999999
 30
0.0
 11
4.791144999999999
 21
5.205072
 31
0.0
  0
ARC
  5
49B
330
1E
100
AcDbEntity
  8
OBJECT
100
AcDbCircle
 10
4.752144999999999
 20
5.500572
 30
0.0
 40
0.13
100
AcDbArc
 50
287.457603
 51
72.54239699999999
  0
LINE
  5
49C
330
1E
100
AcDbEntity
  8
OBJECT
100
AcDbLine
 10
5.437145
 20
5.376559999999999
 30
0.0
 11
5.437145
 21
5.205072
 31
0.0
  0
LINE
  5
49D
330
1E
100
AcDbEntity
  8
OBJECT
100
AcDbLine
 10
5.359144999999999
 20
5.376559999999999
 30
0.0
 11
5.359144999999999
 21
5.205072
 31
0.0
  0
ARC
  5
49E
330
1E
100
AcDbEntity
  8
OBJECT
100
AcDbCircle
 10
5.398144999999999
 20
5.205072
 30
0.0
 40
0.039
100
AcDbArc
 50
180.0
 51
0.0
  0
CIRCLE
  5
49F
330
1E
100
AcDbEntity
  8
OBJECT
100
AcDbCircle
 10
5.398144999999999
 20
5.500572
 30
0.0
 40
0.0435
  0
ARC
  5
4A0
330
1E
100
AcDbEntity
  8
OBJECT
100
AcDbCircle
 10
5.398144999999999
 20
5.796072
 30
0.0
 40
0.039
100
AcDbArc
 50
0.0
 51
180.0
  0
LINE
  5
4A1
330
1E
100
AcDbEntity
  8
OBJECT
100
AcDbLine
 10
5.359144999999999
 20
5.624583999999999
 30
0.0
 11
5.359144999999999
 21
5.796072
 31
0.0
  0
LINE
  5
4A2
330
1E
100
AcDbEntity
  8
OBJECT
100
AcDbLine
 10
5.437145
 20
5.624583999999999
 30
0.0
 11
5.437145
 21
5.796072
 31
0.0
  0
ARC
  5
4A3
330
1E
100
AcDbEntity
  8
OBJECT
100
AcDbCircle
 10
5.398144999999999
 20
5.500572
 30
0.0
 40
0.13
100
AcDbArc
 50
287.457603
 51
72.54239699999999
  0
ARC
  5
4A4
330
1E
100
AcDbEntity
  8
OBJECT
100
AcDbCircle
 10
5.398144999999999
 20
5.500572
 30
0.0
 40
0.13
100
AcDbArc
 50
107.457603
 51
252.5423969999999
  0
ARC
  5
4A5
330
1E
100
AcDbEntity
  8
OBJECT
100
AcDbCircle
 10
8.859052313934359
 20
11.43723999999999
 30
0.0
 40
0.5200000000000001
100
AcDbArc
 50
107.457603
 51
252.5423969999999
  0
ARC
  5
4A6
330
1E
100
AcDbEntity
  8
OBJECT
100
AcDbCircle
 10
8.859052313934359
 20
11.43723999999999
 30
0.0
 40
0.5200000000000001
100
AcDbArc
 50
287.457603
 51
72.54239699999999
  0
LINE
  5
4A7
330
1E
100
AcDbEntity
  8
OBJECT
100
AcDbLine
 10
8.70305231393436
 20
10.94119199999999
 30
0.0
 11
8.70305231393436
 21
10.25523999999999
 31
0.0
  0
LINE
  5
4A8
330
1E
100
AcDbEntity
  8
OBJECT
100
AcDbLine
 10
9.01505231393436
 20
10.94119199999999
 30
0.0
 11
9.01505231393436
 21
10.25523999999999
 31
0.0
  0
ARC
  5
4A9
330
1E
100
AcDbEntity
  8
OBJECT
100
AcDbCircle
 10
8.859052313934359
 20
10.25523999999999
 30
0.0
 40
0.156
100
AcDbArc
 50
180.0
 51
0.0
  0
CIRCLE
  5
4AA
330
1E
100
AcDbEntity
  8
OBJECT
100
AcDbCircle
 10
8.859052313934359
 20
11.43723999999999
 30
0.0
 40
0.174
  0
LINE
  5
4AB
330
1E
100
AcDbEntity
  8
OBJECT
100
AcDbLine
 10
9.01505231393436
 20
11.933288
 30
0.0
 11
9.01505231393436
 21
12.61924
 31
0.0
  0
LINE
  5
4AC
330
1E
100
AcDbEntity
  8
OBJECT
100
AcDbLine
 10
8.70305231393436
 20
11.933288
 30
0.0
 11
8.70305231393436
 21
12.61924
 31
0.0
  0
ARC
  5
4AD
330
1E
100
AcDbEntity
  8
OBJECT
100
AcDbCircle
 10
8.859052313934359
 20
12.61924
 30
0.0
 40
0.156
100
AcDbArc
 50
0.0
 51
180.0
  0
DIMENSION
  5
4AE
330
1E
100
AcDbEntity
  8
DIM
100
AcDbDimension
  2
*D2
 10
9.01505231393436
 20
13.05133
 30
0.0
 11
9.94786481393436
 21
13.05133
 31
0.0
 70
    32
 71
     5
 42
0.0779999999999999
  3
23NSTD4
100
AcDbAlignedDimension
 13
8.70305231393436
 23
12.61924
 33
0.0
 14
9.01505231393436
 24
12.61924
 34
0.0
100
AcDbRotatedDimension
  0
DIMENSION
  5
4BC
330
1E
100
AcDbEntity
  8
DIM
100
AcDbDimension
  2
*D3
 10
7.349403313934359
 20
12.77524
 30
0.0
 11
7.349403313934358
 21
11.43724
 31
0.0
 70
    32
 71
     5
 42
0.6690000000000001
  3
23NSTD4
100
AcDbAlignedDimension
 13
8.859052313934359
 23
10.09924
 33
0.0
 14
8.859052313934359
 24
12.77524
 34
0.0
 50
90.0
100
AcDbRotatedDimension
  0
DIMENSION
  5
4CA
330
1E
100
AcDbEntity
  8
DIM
100
AcDbDimension
  2
*D4
 10
7.910403313934359
 20
10.09924
 30
0.0
 11
7.910403313934358
 21
10.76824
 31
0.0
 70
    32
 71
     5
 42
0.3344999999999998
  3
23NSTD4
100
AcDbAlignedDimension
 13
8.859052313934359
 23
11.43723999999999
 33
0.0
 14
8.859052313934359
 24
10.09924
 34
0.0
 50
90.0
100
AcDbRotatedDimension
  0
DIMENSION
  5
4D8
330
1E
100
AcDbEntity
  8
DIM
100
AcDbDimension
  2
*D5
 10
9.379052313934359
 20
9.755732999999999
 30
0.0
 11
8.859052313934359
 21
9.755732999999999
 31
0.0
 70
    32
 71
     5
 42
0.2599999999999998
  3
23NSTD4I
100
AcDbAlignedDimension
 13
8.339052313934359
 23
11.43723999999999
 33
0.0
 14
9.379052313934359
 24
11.43723999999999
 34
0.0
100
AcDbRotatedDimension
  0
DIMENSION
  5
4EE
330
1E
100
AcDbEntity
  8
DIM
100
AcDbDimension
  2
*D6
 10
6.098644999999999
 20
8.320675999999998
 30
0.0
 11
5.075145
 21
8.320675999999998
 31
0.0
 70
    32
 71
     5
 42
2.046999999999999
  3
23NSTD
100
AcDbAlignedDimension
 13
4.051644999999999
 23
6.266321999999999
 33
0.0
 14
6.098644999999999
 24
6.266321999999999
 34
0.0
 50
180.0
100
AcDbRotatedDimension
  0
TEXT
  5
50C
330
1E
100
AcDbEntity
  8
TEXT
100
AcDbText
 10
8.264766313934359
 20
8.746558
 30
0.0
 40
0.1875
  1
(2 PLACES)
 41
0.75
100
AcDbText
  0
CIRCLE
  5
50D
330
1E
100
AcDbEntity
  8
OBJECT
100
AcDbCircle
 10
5.862644999999999
 20
4.752072
 30
0.0
 40
0.086
  0
CIRCLE
  5
50E
330
1E
100
AcDbEntity
  8
OBJECT
100
AcDbCircle
 10
4.287644999999999
 20
6.249071999999999
 30
0.0
 40
0.086
  0
LWPOLYLINE
  5
50F
330
1E
100
AcDbEntity
  8
OBJECT
100
AcDbPolyline
 90
       24
 70
     1
 43
0.0
 10
4.601333
 20
4.586071999999999
 10
5.548957999999999
 20
4.586071999999999
 42
0.4142140000000001
 10
5.686957999999999
 20
4.724072
 10
5.686957999999999
 20
4.752072
 42
-0.4142140000000001
 10
5.862894999999999
 20
4.928008999999999
 10
5.890645
 20
4.928008999999999
 42
0.4142140000000001
 10
6.028645
 20
5.066008999999999
 10
6.028645
 20
5.935133999999999
 42
0.4142140000000001
 10
5.890645
 20
6.073133999999999
 10
5.862894999999999
 20
6.073133999999999
 42
-0.4142140000000001
 10
5.686957999999999
 20
6.249071999999999
 10
5.686957999999999
 20
6.277072
 42
0.4142140000000001
 10
5.548957999999999
 20
6.415072
 10
4.601333
 20
6.415072
 42
0.4142140000000001
 10
4.463333
 20
6.277072
 10
4.463333
 20
6.249071999999999
 42
-0.4142140000000001
 10
4.287395
 20
6.073133999999999
 10
4.259644999999999
 20
6.073133999999999
 42
0.4142140000000001
 10
4.121645
 20
5.935133999999999
 10
4.121645
 20
5.066008999999999
 42
0.4142140000000001
 10
4.259644999999999
 20
4.928008999999999
 10
4.287395
 20
4.928008999999999
 42
-0.4142140000000001
 10
4.463333
 20
4.752072
 10
4.463333
 20
4.724072
 42
0.4142140000000001
  0
LWPOLYLINE
  5
529
330
1E
100
AcDbEntity
  8
OBJECT
100
AcDbPolyline
 90
       24
 70
     1
 43
0.0
 10
4.161645
 20
5.935133999999999
 42
-0.4142140000000001
 10
4.259644999999999
 20
6.033133999999999
 10
4.287395
 20
6.033133999999999
 42
0.4142140000000001
 10
4.503333
 20
6.249071999999999
 10
4.503333
 20
6.277072
 42
-0.4142140000000001
 10
4.601333
 20
6.375072
 10
5.548957999999999
 20
6.375072
 42
-0.4142140000000001
 10
5.646958
 20
6.277072
 10
5.646958
 20
6.249071999999999
 42
0.4142140000000001
 10
5.862894999999999
 20
6.033133999999999
 10
5.890645
 20
6.033133999999999
 42
-0.4142140000000001
 10
5.988644999999999
 20
5.935133999999999
 10
5.988644999999999
 20
5.066008999999999
 42
-0.4142140000000001
 10
5.890645
 20
4.968008999999999
 10
5.862894999999999
 20
4.968008999999999
 42
0.4142140000000001
 10
5.646958
 20
4.752072
 10
5.646958
 20
4.724072
 42
-0.4142140000000001
 10
5.548957999999999
 20
4.626071999999999
 10
4.601333
 20
4.626071999999999
 42
-0.4142140000000001
 10
4.503333
 20
4.724072
 10
4.503333
 20
4.752072
 42
0.4142140000000001
 10
4.287395
 20
4.968008999999999
 10
4.259644999999999
 20
4.968008999999999
 42
-0.4142140000000001
 10
4.161645
 20
5.066008999999999
  0
CIRCLE
  5
543
330
1E
100
AcDbEntity
  8
OBJECT
100
AcDbCircle
 10
4.133226
 20
4.883643
 30
0.0
 40
0.03125
  0
CIRCLE
  5
544
330
1E
100
AcDbEntity
  8
OBJECT
100
AcDbCircle
 10
4.411209999999999
 20
4.591174999999999
 30
0.0
 40
0.03125
  0
CIRCLE
  5
545
330
1E
100
AcDbEntity
  8
OBJECT
100
AcDbCircle
 10
5.73908
 20
6.409969
 30
0.0
 40
0.03125
  0
CIRCLE
  5
546
330
1E
100
AcDbEntity
  8
OBJECT
100
AcDbCircle
 10
6.017063999999999
 20
6.117500999999999
 30
0.0
 40
0.03125
  0
LINE
  5
547
102
{ACAD_REACTORS
330
DD4
102
}
330
1E
100
AcDbEntity
  8
OBJECT
100
AcDbLine
 10
9.148861999999999
 20
6.033383999999999
 30
0.0
 11
9.148861999999999
 21
5.835072
 31
0.0
  0
LINE
  5
548
102
{ACAD_REACTORS
330
DD4
102
}
330
1E
100
AcDbEntity
  8
OBJECT
100
AcDbLine
 10
8.192861999999999
 20
6.407072
 30
0.0
 11
8.192861999999999
 21
4.594071999999999
 31
0.0
  0
LINE
  5
549
102
{ACAD_REACTORS
330
DD4
102
}
330
1E
100
AcDbEntity
  8
OBJECT
100
AcDbLine
 10
9.237861999999999
 20
6.422571999999999
 30
0.0
 11
9.237861999999999
 21
4.578572
 31
0.0
  0
LINE
  5
54A
102
{ACAD_REACTORS
330
DD4
102
}
330
1E
100
AcDbEntity
  8
OBJECT
100
AcDbLine
 10
8.292861999999999
 20
6.485071999999999
 30
0.0
 11
8.292861999999999
 21
6.465072
 31
0.0
  0
LINE
  5
54B
102
{ACAD_REACTORS
330
DD4
330
DE2
102
}
330
1E
100
AcDbEntity
  8
OBJECT
100
AcDbLine
 10
8.252862
 20
6.465072
 30
0.0
 11
8.252862
 21
6.072333
 31
0.0
  0
LINE
  5
54C
102
{ACAD_REACTORS
330
DD4
102
}
330
1E
100
AcDbEntity
  8
OBJECT
100
AcDbLine
 10
8.192861999999999
 20
4.967759
 30
0.0
 11
9.148861999999999
 21
4.967759
 31
0.0
  0
LINE
  5
54D
102
{ACAD_REACTORS
330
DD4
102
}
330
1E
100
AcDbEntity
  8
OBJECT
100
AcDbLine
 10
8.252862
 20
4.581071999999999
 30
0.0
 11
9.119861999999999
 21
4.581071999999999
 31
0.0
  0
LINE
  5
54E
102
{ACAD_REACTORS
330
DD4
102
}
330
1E
100
AcDbEntity
  8
OBJECT
100
AcDbLine
 10
9.175361999999999
 20
4.516072
 30
0.0
 11
8.292861999999999
 21
4.516072
 31
0.0
  0
LINE
  5
54F
102
{ACAD_REACTORS
330
DD4
102
}
330
1E
100
AcDbEntity
  8
OBJECT
100
AcDbLine
 10
9.119861999999999
 20
4.838008999999999
 30
0.0
 11
9.237861999999999
 21
4.838008999999999
 31
0.0
  0
LINE
  5
550
102
{ACAD_REACTORS
330
DD4
102
}
330
1E
100
AcDbEntity
  8
OBJECT
100
AcDbLine
 10
9.119861999999999
 20
4.666133999999999
 30
0.0
 11
9.237861999999999
 21
4.666133999999999
 31
0.0
  0
LINE
  5
551
102
{ACAD_REACTORS
330
DD4
102
}
330
1E
100
AcDbEntity
  8
OBJECT
100
AcDbLine
 10
9.119861999999999
 20
4.581071999999999
 30
0.0
 11
9.119861999999999
 21
4.928008999999999
 31
0.0
  0
ARC
  5
552
102
{ACAD_REACTORS
330
DD4
102
}
330
1E
100
AcDbEntity
  8
OBJECT
100
AcDbCircle
 10
9.175361999999999
 20
4.578572
 30
0.0
 40
0.0625
100
AcDbArc
 50
270.0
 51
0.0
  0
LINE
  5
553
330
1E
100
AcDbEntity
  8
OBJECT
100
AcDbLine
 10
8.192861999999999
 20
4.594071999999999
 30
0.0
 11
8.252862
 21
4.594071999999999
 31
0.0
  0
LINE
  5
554
102
{ACAD_REACTORS
330
DD4
102
}
330
1E
100
AcDbEntity
  8
OBJECT
100
AcDbLine
 10
8.252862
 20
4.536071999999999
 30
0.0
 11
8.292861999999999
 21
4.536071999999999
 31
0.0
  0
LINE
  5
555
102
{ACAD_REACTORS
330
DD4
102
}
330
1E
100
AcDbEntity
  8
OBJECT
100
AcDbLine
 10
8.567861999999999
 20
6.092821999999999
 30
0.0
 11
9.237861999999999
 21
6.092821999999999
 31
0.0
  0
LINE
  5
556
102
{ACAD_REACTORS
330
DD4
102
}
330
1E
100
AcDbEntity
  8
OBJECT
100
AcDbLine
 10
8.567861999999999
 20
6.405321999999999
 30
0.0
 11
9.237861999999999
 21
6.405321999999999
 31
0.0
  0
LINE
  5
557
102
{ACAD_REACTORS
330
DD4
102
}
330
1E
100
AcDbEntity
  8
OBJECT
100
AcDbLine
 10
8.192861999999999
 20
6.033383999999999
 30
0.0
 11
9.148861999999999
 21
6.033383999999999
 31
0.0
  0
LINE
  5
558
102
{ACAD_REACTORS
330
DD4
102
}
330
1E
100
AcDbEntity
  8
OBJECT
100
AcDbLine
 10
8.192861999999999
 20
6.072333
 30
0.0
 11
8.252862
 21
6.072333
 31
0.0
  0
LINE
  5
559
102
{ACAD_REACTORS
330
DD4
102
}
330
1E
100
AcDbEntity
  8
OBJECT
100
AcDbLine
 10
8.292861999999999
 20
6.485071999999999
 30
0.0
 11
9.175361999999999
 21
6.485071999999999
 31
0.0
  0
LINE
  5
55A
102
{ACAD_REACTORS
330
DD4
102
}
330
1E
100
AcDbEntity
  8
OBJECT
100
AcDbLine
 10
9.020861999999999
 20
5.835072
 30
0.0
 11
9.020861999999999
 21
5.166071999999999
 31
0.0
  0
ARC
  5
55B
102
{ACAD_REACTORS
330
DD4
102
}
330
1E
100
AcDbEntity
  8
OBJECT
100
AcDbCircle
 10
9.175361999999999
 20
6.422571999999999
 30
0.0
 40
0.0625
100
AcDbArc
 50
0.0
 51
90.0
  0
LINE
  5
55C
102
{ACAD_REACTORS
330
DD4
330
DE2
102
}
330
1E
100
AcDbEntity
  8
OBJECT
100
AcDbLine
 10
8.567861999999999
 20
6.092821999999999
 30
0.0
 11
8.567861999999999
 21
6.405321999999999
 31
0.0
  0
LINE
  5
55D
102
{ACAD_REACTORS
330
DD4
330
DE2
102
}
330
1E
100
AcDbEntity
  8
OBJECT
100
AcDbLine
 10
8.252862
 20
6.374071999999999
 30
0.0
 11
8.567861999999999
 21
6.374071999999999
 31
0.0
  0
LINE
  5
55E
102
{ACAD_REACTORS
330
DD4
330
DE2
102
}
330
1E
100
AcDbEntity
  8
OBJECT
100
AcDbLine
 10
8.252862
 20
6.124071999999999
 30
0.0
 11
8.567861999999999
 21
6.124071999999999
 31
0.0
  0
LINE
  5
55F
102
{ACAD_REACTORS
330
DE2
102
}
330
1E
100
AcDbEntity
  8
OBJECT
100
AcDbLine
 10
8.252862
 20
6.186571999999999
 30
0.0
 11
8.567861999999999
 21
6.186571999999999
 31
0.0
  0
LINE
  5
560
102
{ACAD_REACTORS
330
DE2
102
}
330
1E
100
AcDbEntity
  8
OBJECT
100
AcDbLine
 10
8.252862
 20
6.311571999999999
 30
0.0
 11
8.567861999999999
 21
6.311571999999999
 31
0.0
  0
LINE
  5
561
330
1E
100
AcDbEntity
  8
OBJECT
100
AcDbLine
 10
8.192861999999999
 20
6.407072
 30
0.0
 11
8.252862
 21
6.407072
 31
0.0
  0
LINE
  5
562
102
{ACAD_REACTORS
330
DD4
102
}
330
1E
100
AcDbEntity
  8
OBJECT
100
AcDbLine
 10
8.252862
 20
6.465072
 30
0.0
 11
8.292861999999999
 21
6.465072
 31
0.0
  0
LINE
  5
563
102
{ACAD_REACTORS
330
DD4
102
}
330
1E
100
AcDbEntity
  8
OBJECT
100
AcDbLine
 10
9.020861999999999
 20
5.835072
 30
0.0
 11
9.148861999999999
 21
5.835072
 31
0.0
  0
LINE
  5
564
102
{ACAD_REACTORS
330
DD4
102
}
330
1E
100
AcDbEntity
  8
OBJECT
100
AcDbLine
 10
9.020861999999999
 20
5.166071999999999
 30
0.0
 11
9.148861999999999
 21
5.166071999999999
 31
0.0
  0
LINE
  5
565
102
{ACAD_REACTORS
330
DD4
102
}
330
1E
100
AcDbEntity
  8
OBJECT
100
AcDbLine
 10
9.020861999999999
 20
5.544071999999999
 30
0.0
 11
9.176861999999999
 21
5.544071999999999
 31
0.0
  0
LINE
  5
566
102
{ACAD_REACTORS
330
DD4
102
}
330
1E
100
AcDbEntity
  8
OBJECT
100
AcDbLine
 10
9.020861999999999
 20
5.457072
 30
0.0
 11
9.176861999999999
 21
5.457072
 31
0.0
  0
LINE
  5
567
102
{ACAD_REACTORS
330
DD4
102
}
330
1E
100
AcDbEntity
  8
OBJECT
100
AcDbLine
 10
9.176861999999999
 20
5.544071999999999
 30
0.0
 11
9.176861999999999
 21
5.457072
 31
0.0
  0
LINE
  5
568
330
1E
100
AcDbEntity
  8
HIDDEN
100
AcDbLine
 10
1.573652
 20
6.462925
 30
0.0
 11
0.7066520000000001
 21
6.462925
 31
0.0
  0
LINE
  5
569
330
1E
100
AcDbEntity
  8
HIDDEN
100
AcDbLine
 10
1.573652
 20
6.115187
 30
0.0
 11
0.7066520000000001
 21
6.115187
 31
0.0
  0
LINE
  5
56A
330
1E
100
AcDbEntity
  8
OBJECT
100
AcDbLine
 10
1.533652
 20
6.527924999999999
 30
0.0
 11
0.6511520000000001
 21
6.527924999999999
 31
0.0
  0
LINE
  5
56B
330
1E
100
AcDbEntity
  8
HIDDEN
100
AcDbLine
 10
1.258652
 20
4.638675
 30
0.0
 11
0.5886520000000001
 21
4.638675
 31
0.0
  0
LINE
  5
56C
330
1E
100
AcDbEntity
  8
OBJECT
100
AcDbLine
 10
0.6511520000000001
 20
4.558925
 30
0.0
 11
1.533652
 21
4.558925
 31
0.0
  0
LINE
  5
56D
330
1E
100
AcDbEntity
  8
OBJECT
100
AcDbLine
 10
1.633652
 20
4.971663999999999
 30
0.0
 11
1.573652
 21
4.971663999999999
 31
0.0
  0
LINE
  5
56E
330
1E
100
AcDbEntity
  8
HIDDEN
100
AcDbLine
 10
1.258652
 20
4.951175
 30
0.0
 11
0.5886520000000001
 21
4.951175
 31
0.0
  0
LINE
  5
56F
330
1E
100
AcDbEntity
  8
HIDDEN
100
AcDbLine
 10
1.633652
 20
6.076238
 30
0.0
 11
0.6776520000000001
 21
6.076238
 31
0.0
  0
LINE
  5
570
330
1E
100
AcDbEntity
  8
HIDDEN
100
AcDbLine
 10
1.633652
 20
6.417925
 30
0.0
 11
0.6776520000000001
 21
6.417925
 31
0.0
  0
LINE
  5
571
330
1E
100
AcDbEntity
  8
HIDDEN
100
AcDbLine
 10
1.633652
 20
4.668924999999999
 30
0.0
 11
0.6776520000000001
 21
4.668924999999999
 31
0.0
  0
LINE
  5
572
330
1E
100
AcDbEntity
  8
HIDDEN
100
AcDbLine
 10
1.633652
 20
5.010612999999999
 30
0.0
 11
0.6776520000000001
 21
5.010612999999999
 31
0.0
  0
LINE
  5
573
330
1E
100
AcDbEntity
  8
OBJECT
100
AcDbLine
 10
1.533652
 20
6.527924999999999
 30
0.0
 11
1.533652
 21
4.558925
 31
0.0
  0
LINE
  5
574
330
1E
100
AcDbEntity
  8
OBJECT
100
AcDbLine
 10
1.573652
 20
6.507925
 30
0.0
 11
1.573652
 21
4.578924999999999
 31
0.0
  0
LINE
  5
575
330
1E
100
AcDbEntity
  8
OBJECT
100
AcDbLine
 10
1.633652
 20
6.449925
 30
0.0
 11
1.633652
 21
4.636924999999999
 31
0.0
  0
LINE
  5
576
330
1E
100
AcDbEntity
  8
HIDDEN
100
AcDbLine
 10
1.573652
 20
4.732425
 30
0.0
 11
1.258652
 21
4.732425
 31
0.0
  0
LINE
  5
577
330
1E
100
AcDbEntity
  8
HIDDEN
100
AcDbLine
 10
1.573652
 20
4.669925
 30
0.0
 11
1.258652
 21
4.669925
 31
0.0
  0
LINE
  5
578
330
1E
100
AcDbEntity
  8
OBJECT
100
AcDbLine
 10
1.573652
 20
4.578924999999999
 30
0.0
 11
1.533652
 21
4.578924999999999
 31
0.0
  0
LINE
  5
579
330
1E
100
AcDbEntity
  8
HIDDEN
100
AcDbLine
 10
1.573652
 20
4.857425
 30
0.0
 11
1.258652
 21
4.857425
 31
0.0
  0
LINE
  5
57A
330
1E
100
AcDbEntity
  8
HIDDEN
100
AcDbLine
 10
1.573652
 20
4.919925
 30
0.0
 11
1.258652
 21
4.919925
 31
0.0
  0
LINE
  5
57B
330
1E
100
AcDbEntity
  8
OBJECT
100
AcDbLine
 10
1.633652
 20
4.636924999999999
 30
0.0
 11
1.573652
 21
4.636924999999999
 31
0.0
  0
LINE
  5
57C
330
1E
100
AcDbEntity
  8
HIDDEN
100
AcDbLine
 10
1.258652
 20
4.951175
 30
0.0
 11
1.258652
 21
4.638675
 31
0.0
  0
LINE
  5
57D
330
1E
100
AcDbEntity
  8
OBJECT
100
AcDbLine
 10
1.573652
 20
6.507925
 30
0.0
 11
1.533652
 21
6.507925
 31
0.0
  0
LINE
  5
57E
330
1E
100
AcDbEntity
  8
OBJECT
100
AcDbLine
 10
1.633652
 20
6.449925
 30
0.0
 11
1.573652
 21
6.449925
 31
0.0
  0
LINE
  5
57F
330
1E
100
AcDbEntity
  8
HIDDEN
100
AcDbLine
 10
0.6776520000000001
 20
6.417925
 30
0.0
 11
0.6776520000000001
 21
4.668924999999999
 31
0.0
  0
LINE
  5
580
330
1E
100
AcDbEntity
  8
OBJECT
100
AcDbLine
 10
0.5886520000000001
 20
6.465424999999999
 30
0.0
 11
0.5886520000000001
 21
4.621425
 31
0.0
  0
ARC
  5
581
330
1E
100
AcDbEntity
  8
OBJECT
100
AcDbCircle
 10
0.6511520000000001
 20
4.621425
 30
0.0
 40
0.0625
100
AcDbArc
 50
180.0
 51
270.0
  0
LINE
  5
582
330
1E
100
AcDbEntity
  8
HIDDEN
100
AcDbLine
 10
0.805652
 20
5.419412999999999
 30
0.0
 11
0.6776520000000001
 21
5.419412999999999
 31
0.0
  0
LINE
  5
583
330
1E
100
AcDbEntity
  8
HIDDEN
100
AcDbLine
 10
0.805652
 20
5.667437999999999
 30
0.0
 11
0.6776520000000001
 21
5.667437999999999
 31
0.0
  0
LINE
  5
584
330
1E
100
AcDbEntity
  8
HIDDEN
100
AcDbLine
 10
0.805652
 20
5.877925
 30
0.0
 11
0.6776520000000001
 21
5.877925
 31
0.0
  0
LINE
  5
585
330
1E
100
AcDbEntity
  8
HIDDEN
100
AcDbLine
 10
0.805652
 20
5.877925
 30
0.0
 11
0.805652
 21
5.208924999999999
 31
0.0
  0
LINE
  5
586
330
1E
100
AcDbEntity
  8
HIDDEN
100
AcDbLine
 10
0.805652
 20
5.208924999999999
 30
0.0
 11
0.6776520000000001
 21
5.208924999999999
 31
0.0
  0
LINE
  5
587
330
1E
100
AcDbEntity
  8
HIDDEN
100
AcDbLine
 10
0.6496520000000001
 20
5.586924999999999
 30
0.0
 11
0.6496520000000001
 21
5.499925
 31
0.0
  0
LINE
  5
588
330
1E
100
AcDbEntity
  8
HIDDEN
100
AcDbLine
 10
0.805652
 20
5.586924999999999
 30
0.0
 11
0.6496520000000001
 21
5.586924999999999
 31
0.0
  0
LINE
  5
589
330
1E
100
AcDbEntity
  8
HIDDEN
100
AcDbLine
 10
0.805652
 20
5.499925
 30
0.0
 11
0.6496520000000001
 21
5.499925
 31
0.0
  0
LINE
  5
58A
330
1E
100
AcDbEntity
  8
HIDDEN
100
AcDbLine
 10
0.7066520000000001
 20
6.462925
 30
0.0
 11
0.7066520000000001
 21
6.115187
 31
0.0
  0
LINE
  5
58B
330
1E
100
AcDbEntity
  8
HIDDEN
100
AcDbLine
 10
0.7066520000000001
 20
6.377862999999999
 30
0.0
 11
0.5886520000000001
 21
6.377862999999999
 31
0.0
  0
LINE
  5
58C
330
1E
100
AcDbEntity
  8
HIDDEN
100
AcDbLine
 10
0.7066520000000001
 20
6.205987999999999
 30
0.0
 11
0.5886520000000001
 21
6.205987999999999
 31
0.0
  0
ARC
  5
58D
330
1E
100
AcDbEntity
  8
OBJECT
100
AcDbCircle
 10
0.6511520000000001
 20
6.465424999999999
 30
0.0
 40
0.0625
100
AcDbArc
 50
90.0
 51
180.0
  0
INSERT
  5
58E
330
1E
100
AcDbEntity
  8
BEND
100
AcDbBlockReference
 66
     1
  2
SECTION
 10
5.836326
 20
4.117245999999999
 30
0.0
 41
0.9404999999999999
 42
0.9404999999999999
 43
0.9404999999999999
 50
90.0
  0
ATTRIB
  5
58F
330
58E
100
AcDbEntity
  8
0
100
AcDbText
 10
5.764706952380953
 20
4.023245999999999
 30
0.0
 40
0.188
  1
A
 41
0.8
  7
SECTION
 72
     4
 11
5.836326
 21
4.117245999999999
 31
0.0
100
AcDbAttribute
  2
SECTION
 70
     0
  0
SEQEND
  5
590
330
58E
100
AcDbEntity
  8
BEND
 62
     7
  0
INSERT
  5
591
330
1E
100
AcDbEntity
  8
BEND
100
AcDbBlockReference
 66
     1
  2
SECTION
 10
5.988355
 20
6.717138
 30
0.0
 41
0.9404999999999999
 42
0.9404999999999999
 43
0.9404999999999999
 50
90.0
  0
ATTRIB
  5
592
330
591
100
AcDbEntity
  8
0
100
AcDbText
 10
5.916735952380952
 20
6.623137999999999
 30
0.0
 40
0.188
  1
A
 41
0.8
  7
SECTION
 72
     4
 11
5.988355
 21
6.717138
 31
0.0
100
AcDbAttribute
  2
SECTION
 70
     0
  0
SEQEND
  5
593
330
591
100
AcDbEntity
  8
BEND
 62
     7
  0
LINE
  5
594
102
{ACAD_REACTORS
330
DD4
102
}
330
1E
100
AcDbEntity
  8
OBJECT
100
AcDbLine
 10
8.292861999999999
 20
4.536071999999999
 30
0.0
 11
8.292861999999999
 21
4.516072
 31
0.0
  0
LWPOLYLINE
  5
595
330
1E
100
AcDbEntity
  8
OBJECT
100
AcDbPolyline
 90
        6
 70
     0
 43
0.0
 10
5.597958
 20
4.595063999999999
 10
5.597958
 20
4.581071999999999
 10
5.879894999999999
 20
4.581071999999999
 42
0.4142140000000001
 10
6.033644999999999
 20
4.734822
 10
6.033644999999999
 20
5.017008999999999
 10
6.019652999999999
 20
5.017008999999999
  0
LWPOLYLINE
  5
59D
330
1E
100
AcDbEntity
  8
OBJECT
100
AcDbPolyline
 90
        6
 70
     0
 43
0.0
 10
4.552332999999999
 20
6.40608
 10
4.552332999999999
 20
6.420072
 10
4.270394999999999
 20
6.420072
 42
0.4142140000000001
 10
4.116645
 20
6.266321999999999
 10
4.116645
 20
5.984134
 10
4.130637
 20
5.984134
  0
LINE
  5
5A5
102
{ACAD_REACTORS
330
DD4
102
}
330
1E
100
AcDbEntity
  8
OBJECT
100
AcDbLine
 10
8.192861999999999
 20
4.928008999999999
 30
0.0
 11
9.119861999999999
 21
4.928008999999999
 31
0.0
  0
LINE
  5
5A6
102
{ACAD_REACTORS
330
DD4
102
}
330
1E
100
AcDbEntity
  8
OBJECT
100
AcDbLine
 10
8.252862
 20
4.594071999999999
 30
0.0
 11
8.252862
 21
4.536071999999999
 31
0.0
  0
LINE
  5
5A7
102
{ACAD_REACTORS
330
DD4
102
}
330
1E
100
AcDbEntity
  8
OBJECT
100
AcDbLine
 10
9.148861999999999
 20
5.166071999999999
 30
0.0
 11
9.148861999999999
 21
4.967759
 31
0.0
  0
LINE
  5
5A9
330
1E
100
AcDbEntity
  8
OBJECT
100
AcDbLine
 10
1.633652
 20
6.115187
 30
0.0
 11
1.573652
 21
6.115187
 31
0.0
  0
DIMENSION
  5
5AA
330
1E
100
AcDbEntity
  8
DIM
100
AcDbDimension
  2
*D7
 10
8.567861999999999
 20
7.230724999999999
 30
0.0
 11
8.902861999999998
 21
7.230724999999999
 31
0.0
 70
    32
 71
     5
 42
0.67
  3
23NSTDI
100
AcDbAlignedDimension
 13
9.237861999999999
 23
6.422571999999999
 33
0.0
 14
8.567861999999999
 24
6.405321999999999
 34
0.0
100
AcDbRotatedDimension
  0
DIMENSION
  5
5B8
330
1E
100
AcDbEntity
  8
DIM
100
AcDbDimension
  2
*D8
 10
8.192861999999999
 20
7.652224999999999
 30
0.0
 11
8.715361999999998
 21
7.652224999999999
 31
0.0
 70
    32
 71
     5
 42
1.044999999999999
  3
23NSTDI
100
AcDbAlignedDimension
 13
9.237861999999999
 23
6.422571999999999
 33
0.0
 14
8.192861999999999
 24
6.407072
 34
0.0
100
AcDbRotatedDimension
  0
DIMENSION
  5
5C6
330
1E
100
AcDbEntity
  8
DIM
100
AcDbDimension
  2
*D9
 10
9.119861999999999
 20
4.173001999999999
 30
0.0
 11
8.222205749999998
 21
4.173001999999999
 31
0.0
 70
    32
 71
     5
 42
0.1180000000000003
  3
23NSTD
100
AcDbAlignedDimension
 13
9.237861999999999
 23
4.578572
 33
0.0
 14
9.119861999999999
 24
4.581071999999999
 34
0.0
100
AcDbRotatedDimension
  0
LWPOLYLINE
  5
5D4
330
1E
100
AcDbEntity
  8
BEND
  6
PHANTOM2
100
AcDbPolyline
 90
        4
 70
     1
 43
0.0
 10
4.911226
 20
5.753491999999999
 10
4.911226
 20
5.247651999999999
 42
-1.0
 10
4.593064
 20
5.247651999999999
 10
4.593064
 20
5.753491999999999
 42
-1.0
  0
DIMENSION
  5
5DA
330
1E
100
AcDbEntity
  8
DIM
100
AcDbDimension
  2
*D10
 10
7.074832
 20
4.968008999999998
 30
0.0
 11
7.074831999999999
 21
5.5005715
 31
0.0
 70
    32
 71
     5
 42
1.065125
  3
23NSTDI
100
AcDbAlignedDimension
 13
5.890645
 23
6.033133999999999
 33
0.0
 14
5.890645
 24
4.968008999999999
 34
0.0
 50
270.0
100
AcDbRotatedDimension
  0
DIMENSION
  5
5E8
330
1E
100
AcDbEntity
  8
DIM
100
AcDbDimension
  2
*D11
 10
6.646671999999999
 20
4.516071999999999
 30
0.0
 11
6.646671999999998
 21
4.7420405
 31
0.0
 70
    32
 71
     5
 42
0.4519369999999992
  3
23NSTDI
100
AcDbAlignedDimension
 13
5.890645
 23
4.968008999999999
 33
0.0
 14
5.879894999999999
 24
4.516072
 34
0.0
 50
270.0
100
AcDbRotatedDimension
  0
DIMENSION
  5
5F6
330
1E
100
AcDbEntity
  8
DIM
100
AcDbDimension
  2
*D12
 10
4.503333
 20
3.054831999999999
 30
0.0
 11
5.0751455
 21
3.054831999999999
 31
0.0
 70
    32
 71
     5
 42
1.143625
  3
23NSTDI
100
AcDbAlignedDimension
 13
5.646958
 23
4.724072
 33
0.0
 14
4.503333
 24
4.724072
 34
0.0
100
AcDbRotatedDimension
  0
DIMENSION
  5
604
330
1E
100
AcDbEntity
  8
DIM
100
AcDbDimension
  2
*D13
 10
6.098644999999999
 20
2.633331999999999
 30
0.0
 11
7.043176249999999
 21
2.633331999999999
 31
0.0
 70
    32
 71
     5
 42
0.4516869999999989
  3
23NSTD
100
AcDbAlignedDimension
 13
5.646958
 23
4.724072
 33
0.0
 14
6.098644999999999
 24
4.734822
 34
0.0
100
AcDbRotatedDimension
  0
DIMENSION
  5
612
330
1E
100
AcDbEntity
  8
DIM
100
AcDbDimension
  2
*D14
 10
4.752144999999999
 20
7.056175999999999
 30
0.0
 11
5.075144999999999
 21
7.056175999999999
 31
0.0
 70
    32
 71
     5
 42
0.6459999999999999
  3
23NSTDI
100
AcDbAlignedDimension
 13
5.398144999999999
 23
5.898577999999999
 33
0.0
 14
4.752144999999999
 24
5.796072
 34
0.0
100
AcDbRotatedDimension
  0
DIMENSION
  5
620
330
1E
100
AcDbEntity
  8
DIM
100
AcDbDimension
  2
*D15
 10
4.051644999999999
 20
7.899175999999999
 30
0.0
 11
4.401894999999999
 21
7.899175999999999
 31
0.0
 70
    32
 71
     5
 42
0.7004999999999999
  3
23NSTDI
100
AcDbAlignedDimension
 13
4.752144999999999
 23
5.796072
 33
0.0
 14
4.051644999999999
 24
6.266321999999999
 34
0.0
100
AcDbRotatedDimension
  0
DIMENSION
  5
62E
330
1E
100
AcDbEntity
  8
DIM
100
AcDbDimension
  2
*D16
 10
3.560323999999999
 20
5.500572
 30
0.0
 11
3.560323999999998
 21
5.008322000000001
 31
0.0
 70
    32
 71
     5
 42
0.9844999999999997
  3
23NSTDI
100
AcDbAlignedDimension
 13
4.270394999999999
 23
4.516072
 33
0.0
 14
4.752144999999999
 24
5.500572
 34
0.0
 50
270.0
100
AcDbRotatedDimension
  0
DIMENSION
  5
63C
330
1E
100
AcDbEntity
  8
DIM
100
AcDbDimension
  2
*D17
 10
5.988644999999999
 20
3.476331999999999
 30
0.0
 11
5.075145
 21
3.476331999999999
 31
0.0
 70
    32
 71
     5
 42
1.826999999999999
  3
23NSTD
100
AcDbAlignedDimension
 13
4.161645
 23
5.066008999999999
 33
0.0
 14
5.988644999999999
 24
5.066008999999999
 34
0.0
100
AcDbRotatedDimension
  0
CIRCLE
  5
64A
102
{ACAD_REACTORS
330
D9D
102
}
330
1E
100
AcDbEntity
  8
BEND
  6
PHANTOM
100
AcDbCircle
 10
17.803745
 20
4.795001
 30
0.0
 40
0.493761
  0
ARC
  5
64B
330
1E
100
AcDbEntity
  8
OBJECT
100
AcDbCircle
 10
15.799045
 20
6.266321999999999
 30
0.0
 40
0.21875
100
AcDbArc
 50
0.0
 51
90.0
  0
ARC
  5
64C
330
1E
100
AcDbEntity
  8
OBJECT
100
AcDbCircle
 10
14.189545
 20
6.266321999999999
 30
0.0
 40
0.21875
100
AcDbArc
 50
90.0
 51
180.0
  0
LINE
  5
64D
330
1E
100
AcDbEntity
  8
OBJECT
100
AcDbLine
 10
15.799045
 20
6.485071999999999
 30
0.0
 11
14.189545
 21
6.485071999999999
 31
0.0
  0
LINE
  5
64E
330
1E
100
AcDbEntity
  8
OBJECT
100
AcDbLine
 10
16.017795
 20
4.734822
 30
0.0
 11
16.017795
 21
6.266321999999999
 31
0.0
  0
LINE
  5
64F
330
1E
100
AcDbEntity
  8
OBJECT
100
AcDbLine
 10
13.970795
 20
4.734822
 30
0.0
 11
13.970795
 21
6.266321999999999
 31
0.0
  0
LINE
  5
650
330
1E
100
AcDbEntity
  8
OBJECT
100
AcDbLine
 10
15.799045
 20
4.516072
 30
0.0
 11
14.189545
 21
4.516072
 31
0.0
  0
CIRCLE
  5
651
330
1E
100
AcDbEntity
  8
OBJECT
100
AcDbCircle
 10
14.206545
 20
6.249071999999999
 30
0.0
 40
0.085938
  0
CIRCLE
  5
652
330
1E
100
AcDbEntity
  8
OBJECT
100
AcDbCircle
 10
15.782045
 20
4.752072
 30
0.0
 40
0.085938
  0
ARC
  5
653
330
1E
100
AcDbEntity
  8
OBJECT
100
AcDbCircle
 10
15.799045
 20
4.734822
 30
0.0
 40
0.21875
100
AcDbArc
 50
270.0
 51
0.0
  0
ARC
  5
654
330
1E
100
AcDbEntity
  8
OBJECT
100
AcDbCircle
 10
14.189545
 20
4.734822
 30
0.0
 40
0.21875
100
AcDbArc
 50
180.0
 51
270.0
  0
TEXT
  5
655
330
1E
100
AcDbEntity
  8
TEXT
100
AcDbText
 10
19.82624200396843
 20
9.063560446411365
 30
0.0
 40
0.1875
  1
%%UDETAIL "D"
 41
0.8
  7
SECTION
100
AcDbText
  0
DIMENSION
  5
656
330
1E
100
AcDbEntity
  8
DIM
100
AcDbDimension
  2
*D18
 10
13.970795
 20
7.189603999999999
 30
0.0
 11
13.02626375
 21
7.189603999999999
 31
0.0
 70
    32
 71
     5
 42
0.2360000000000006
  3
23NSTD
100
AcDbAlignedDimension
 13
14.206795
 23
6.249071999999999
 33
0.0
 14
13.970795
 24
6.266321999999999
 34
0.0
100
AcDbRotatedDimension
  0
DIMENSION
  5
664
330
1E
100
AcDbEntity
  8
DIM
100
AcDbDimension
  2
*D19
 10
13.970795
 20
7.611103999999999
 30
0.0
 11
14.994295
 21
7.611103999999999
 31
0.0
 70
    32
 71
     5
 42
2.046999999999998
  3
23NSTD
100
AcDbAlignedDimension
 13
16.017795
 23
6.266321999999999
 33
0.0
 14
13.970795
 24
6.266321999999999
 34
0.0
100
AcDbRotatedDimension
  0
DIMENSION
  5
672
330
1E
100
AcDbEntity
  8
DIM
100
AcDbDimension
  2
*D20
 10
13.093325
 20
6.485072
 30
0.0
 11
13.093325
 21
5.500572000000002
 31
0.0
 70
    32
 71
     5
 42
1.968999999999999
  3
23NSTD
100
AcDbAlignedDimension
 13
14.189545
 23
4.516072
 33
0.0
 14
14.189545
 24
6.485071999999999
 34
0.0
 50
270.0
100
AcDbRotatedDimension
  0
TEXT
  5
680
330
1E
100
AcDbEntity
  8
TEXT
100
AcDbText
 10
17.023768
 20
3.773474999999999
 30
0.0
 40
0.1875
  1
%%USECTION "B-B"
 41
0.8
  7
SECTION
100
AcDbText
  0
CIRCLE
  5
688
330
1E
100
AcDbEntity
  8
OBJECT
100
AcDbCircle
 10
15.90559
 20
4.840305999999999
 30
0.0
 40
0.03125
  0
CIRCLE
  5
689
330
1E
100
AcDbEntity
  8
OBJECT
100
AcDbCircle
 10
15.693811
 20
4.628527
 30
0.0
 40
0.03125
  0
CIRCLE
  5
68A
330
1E
100
AcDbEntity
  8
OBJECT
100
AcDbCircle
 10
14.294779
 20
6.372616
 30
0.0
 40
0.03125
  0
CIRCLE
  5
68B
330
1E
100
AcDbEntity
  8
OBJECT
100
AcDbCircle
 10
14.083
 20
6.160838
 30
0.0
 40
0.03125
  0
LINE
  5
68C
330
1E
100
AcDbEntity
  8
OBJECT
100
AcDbLine
 10
14.140795
 20
5.066008999999999
 30
0.0
 11
14.140795
 21
5.935133999999999
 31
0.0
  0
LINE
  5
68D
330
1E
100
AcDbEntity
  8
OBJECT
100
AcDbLine
 10
15.468108
 20
6.315071999999999
 30
0.0
 11
14.52048299999999
 21
6.315071999999999
 31
0.0
  0
LWPOLYLINE
  5
68E
330
1E
100
AcDbEntity
  8
OBJECT
100
AcDbPolyline
 90
        6
 70
     0
 43
0.0
 10
14.52048299999999
 20
6.315071999999999
 42
0.4142140000000001
 10
14.48248299999999
 20
6.277072
 10
14.48248299999999
 20
6.249071999999999
 42
-0.4142140000000001
 10
14.206545
 20
5.973133999999999
 10
14.178795
 20
5.973133999999999
 42
0.4142140000000001
 10
14.140795
 20
5.935133999999999
 42
0.4142140000000001
  0
LWPOLYLINE
  5
696
330
1E
100
AcDbEntity
  8
OBJECT
100
AcDbPolyline
 90
        6
 70
     0
 43
0.0
 10
15.468108
 20
6.315071999999999
 42
-0.4142140000000001
 10
15.506108
 20
6.277072
 10
15.506108
 20
6.249071999999999
 42
0.4142140000000001
 10
15.782045
 20
5.973133999999999
 10
15.809795
 20
5.973133999999999
 42
-0.4142140000000001
 10
15.847795
 20
5.935133999999999
 42
-0.4142140000000001
  0
LWPOLYLINE
  5
69E
330
1E
100
AcDbEntity
  8
OBJECT
100
AcDbPolyline
 90
        6
 70
     0
 43
0.0
 10
15.468108
 20
4.686072
 42
0.4142140000000001
 10
15.506108
 20
4.724072
 10
15.506108
 20
4.752072
 42
-0.4142140000000001
 10
15.782045
 20
5.028008999999999
 10
15.809795
 20
5.028008999999999
 42
0.4142140000000001
 10
15.847795
 20
5.066008999999999
 42
0.4142140000000001
  0
LWPOLYLINE
  5
6A6
330
1E
100
AcDbEntity
  8
OBJECT
100
AcDbPolyline
 90
        6
 70
     0
 43
0.0
 10
14.52048299999999
 20
4.686072
 42
-0.4142140000000001
 10
14.48248299999999
 20
4.724072
 10
14.48248299999999
 20
4.752072
 42
0.4142140000000001
 10
14.206545
 20
5.028008999999999
 10
14.178795
 20
5.028008999999999
 42
-0.4142140000000001
 10
14.140795
 20
5.066008999999999
 42
-0.4142140000000001
  0
LINE
  5
6AE
330
1E
100
AcDbEntity
  8
OBJECT
100
AcDbLine
 10
15.847795
 20
5.066008999999999
 30
0.0
 11
15.847795
 21
5.935133999999999
 31
0.0
  0
LINE
  5
6AF
330
1E
100
AcDbEntity
  8
OBJECT
100
AcDbLine
 10
15.468108
 20
4.686072
 30
0.0
 11
14.52048299999999
 21
4.686072
 31
0.0
  0
LWPOLYLINE
  5
6B0
330
1E
100
AcDbEntity
  8
OBJECT
100
AcDbPolyline
 90
        8
 70
     1
 43
0.0
 10
15.60505599999999
 20
6.420072
 42
-0.204535
 10
15.666108
 20
6.277072
 10
15.666108
 20
6.249071999999999
 42
0.4142140000000001
 10
15.782045
 20
6.133134
 10
15.809795
 20
6.133134
 42
-0.204535
 10
15.952795
 20
6.072083
 10
15.952795
 20
6.266321999999999
 42
0.4142140000000001
 10
15.799045
 20
6.420072
  0
LWPOLYLINE
  5
6BA
330
1E
100
AcDbEntity
  8
OBJECT
100
AcDbPolyline
 90
        8
 70
     1
 43
0.0
 10
14.189545
 20
4.581071999999999
 42
-0.4142140000000001
 10
14.035795
 20
4.734822
 10
14.035795
 20
4.929060999999999
 42
0.204535
 10
14.178795
 20
4.868008999999999
 10
14.206545
 20
4.868008999999999
 42
-0.4142140000000001
 10
14.32248299999999
 20
4.752072
 10
14.32248299999999
 20
4.724072
 42
0.204535
 10
14.383534
 20
4.581071999999999
  0
LINE
  5
6C4
330
1E
100
AcDbEntity
  8
HIDDEN
100
AcDbLine
 10
12.27861199999999
 20
4.686072
 30
0.0
 11
12.27861199999999
 21
6.315071999999999
 31
0.0
  0
LINE
  5
6C5
330
1E
100
AcDbEntity
  8
OBJECT
100
AcDbLine
 10
12.554612
 20
4.516072
 30
0.0
 11
12.554612
 21
6.485071999999999
 31
0.0
  0
LINE
  5
6C6
330
1E
100
AcDbEntity
  8
OBJECT
100
AcDbLine
 10
12.160612
 20
4.578572
 30
0.0
 11
12.160612
 21
6.422571999999999
 31
0.0
  0
LINE
  5
6C7
330
1E
100
AcDbEntity
  8
HIDDEN
100
AcDbLine
 10
12.554612
 20
4.838008999999999
 30
0.0
 11
12.28061199999999
 21
4.838008999999999
 31
0.0
  0
LINE
  5
6C8
330
1E
100
AcDbEntity
  8
HIDDEN
100
AcDbLine
 10
12.554612
 20
4.666133999999999
 30
0.0
 11
12.28061199999999
 21
4.666133999999999
 31
0.0
  0
LINE
  5
6C9
330
1E
100
AcDbEntity
  8
OBJECT
100
AcDbLine
 10
12.554612
 20
4.516072
 30
0.0
 11
12.223112
 21
4.516072
 31
0.0
  0
LINE
  5
6CA
330
1E
100
AcDbEntity
  8
HIDDEN
100
AcDbLine
 10
12.27861199999999
 20
5.028008999999999
 30
0.0
 11
12.554612
 21
5.028008999999999
 31
0.0
  0
LINE
  5
6CB
330
1E
100
AcDbEntity
  8
HIDDEN
100
AcDbLine
 10
12.454612
 20
4.988008999999999
 30
0.0
 11
12.554612
 21
4.988008999999999
 31
0.0
  0
LINE
  5
6CC
330
1E
100
AcDbEntity
  8
HIDDEN
100
AcDbLine
 10
12.454612
 20
4.908008999999999
 30
0.0
 11
12.554612
 21
4.908008999999999
 31
0.0
  0
LINE
  5
6CD
330
1E
100
AcDbEntity
  8
HIDDEN
100
AcDbLine
 10
12.454612
 20
4.908008999999999
 30
0.0
 11
12.454612
 21
4.988008999999999
 31
0.0
  0
ARC
  5
6D2
330
1E
100
AcDbEntity
  8
OBJECT
100
AcDbCircle
 10
12.223112
 20
4.578572
 30
0.0
 40
0.0625
100
AcDbArc
 50
180.0
 51
270.0
  0
LINE
  5
6D5
330
1E
100
AcDbEntity
  8
OBJECT
100
AcDbLine
 10
12.554612
 20
6.485071999999999
 30
0.0
 11
12.223112
 21
6.485071999999999
 31
0.0
  0
LINE
  5
6D6
330
1E
100
AcDbEntity
  8
HIDDEN
100
AcDbLine
 10
12.454612
 20
6.355071999999999
 30
0.0
 11
12.454612
 21
6.435071999999999
 31
0.0
  0
LINE
  5
6D7
330
1E
100
AcDbEntity
  8
HIDDEN
100
AcDbLine
 10
12.554612
 20
6.315071999999999
 30
0.0
 11
12.27861199999999
 21
6.315071999999999
 31
0.0
  0
LINE
  5
6D8
330
1E
100
AcDbEntity
  8
HIDDEN
100
AcDbLine
 10
12.554612
 20
6.355071999999999
 30
0.0
 11
12.454612
 21
6.355071999999999
 31
0.0
  0
LINE
  5
6D9
330
1E
100
AcDbEntity
  8
HIDDEN
100
AcDbLine
 10
12.554612
 20
6.435071999999999
 30
0.0
 11
12.454612
 21
6.435071999999999
 31
0.0
  0
ARC
  5
6DA
330
1E
100
AcDbEntity
  8
OBJECT
100
AcDbCircle
 10
12.223112
 20
6.422571999999999
 30
0.0
 40
0.0625
100
AcDbArc
 50
90.0
 51
180.0
  0
LINE
  5
6DB
330
1E
100
AcDbEntity
  8
HIDDEN
100
AcDbLine
 10
12.554612
 20
4.686072
 30
0.0
 11
12.27861199999999
 21
4.686072
 31
0.0
  0
LINE
  5
6DC
330
1E
100
AcDbEntity
  8
HIDDEN
100
AcDbLine
 10
12.454612
 20
4.646072
 30
0.0
 11
12.454612
 21
4.566072
 31
0.0
  0
LINE
  5
6DD
330
1E
100
AcDbEntity
  8
HIDDEN
100
AcDbLine
 10
12.554612
 20
4.646072
 30
0.0
 11
12.454612
 21
4.646072
 31
0.0
  0
LINE
  5
6DE
330
1E
100
AcDbEntity
  8
HIDDEN
100
AcDbLine
 10
12.554612
 20
4.566072
 30
0.0
 11
12.454612
 21
4.566072
 31
0.0
  0
LINE
  5
6DF
330
1E
100
AcDbEntity
  8
HIDDEN
100
AcDbLine
 10
12.454612
 20
6.013133999999999
 30
0.0
 11
12.554612
 21
6.013133999999999
 31
0.0
  0
LINE
  5
6E0
330
1E
100
AcDbEntity
  8
HIDDEN
100
AcDbLine
 10
12.454612
 20
6.093134
 30
0.0
 11
12.554612
 21
6.093134
 31
0.0
  0
LINE
  5
6E1
330
1E
100
AcDbEntity
  8
HIDDEN
100
AcDbLine
 10
12.454612
 20
6.093134
 30
0.0
 11
12.454612
 21
6.013133999999999
 31
0.0
  0
LINE
  5
6E4
330
1E
100
AcDbEntity
  8
HIDDEN
100
AcDbLine
 10
12.554612
 20
6.163133999999999
 30
0.0
 11
12.28061199999999
 21
6.163133999999999
 31
0.0
  0
LINE
  5
6E5
330
1E
100
AcDbEntity
  8
HIDDEN
100
AcDbLine
 10
12.554612
 20
6.335008999999999
 30
0.0
 11
12.28061199999999
 21
6.335008999999998
 31
0.0
  0
LINE
  5
6EA
330
1E
100
AcDbEntity
  8
HIDDEN
100
AcDbLine
 10
12.27861199999999
 20
5.973133999999999
 30
0.0
 11
12.554612
 21
5.973133999999999
 31
0.0
  0
INSERT
  5
6EB
330
1E
100
AcDbEntity
  8
BEND
100
AcDbBlockReference
 66
     1
  2
SECTION
 10
15.913493
 20
4.314855
 30
0.0
 41
0.627
 42
0.627
 43
0.627
 50
90.0
  0
ATTRIB
  5
6EC
330
6EB
100
AcDbEntity
  8
0
100
AcDbText
 10
15.83829299999999
 20
4.220855
 30
0.0
 40
0.188
  1
B
 41
0.8
  7
SECTION
 72
     4
 11
15.913493
 21
4.314855
 31
0.0
100
AcDbAttribute
  2
SECTION
 70
     0
  0
SEQEND
  5
6ED
330
6EB
100
AcDbEntity
  8
BEND
 62
     7
  0
DIMENSION
  5
6EE
330
1E
100
AcDbEntity
  8
DIM
100
AcDbDimension
  2
*D21
 10
13.606825
 20
6.485072
 30
0.0
 11
13.606825
 21
6.367072000000002
 31
0.0
 70
    32
 71
     5
 42
0.2359999999999998
  3
23NSTDI
100
AcDbAlignedDimension
 13
14.206545
 23
6.249071999999999
 33
0.0
 14
14.189545
 24
6.485071999999999
 34
0.0
 50
90.0
100
AcDbRotatedDimension
  0
DIMENSION
  5
6FC
330
1E
100
AcDbEntity
  8
DIM
100
AcDbDimension
  2
*D22
 10
16.44664699999999
 20
4.516072
 30
0.0
 11
16.44664699999999
 21
4.634072000000002
 31
0.0
 70
    32
 71
     5
 42
0.2359999999999998
  3
23NSTDI
100
AcDbAlignedDimension
 13
15.782045
 23
4.752072
 33
0.0
 14
15.799045
 24
4.516072
 34
0.0
 50
90.0
100
AcDbRotatedDimension
  0
DIMENSION
  5
70A
330
1E
100
AcDbEntity
  8
DIM
100
AcDbDimension
  2
*D23
 10
15.782045
 20
3.738901
 30
0.0
 11
14.83751375
 21
3.738901
 31
0.0
 70
    32
 71
     5
 42
0.2357499999999977
  3
23NSTD
100
AcDbAlignedDimension
 13
16.017795
 23
4.734822
 33
0.0
 14
15.782045
 24
4.314855
 34
0.0
100
AcDbRotatedDimension
  0
DIMENSION
  5
718
330
1E
100
AcDbEntity
  8
DIM
100
AcDbDimension
  2
*D24
 10
10.788185
 20
6.405321999999999
 30
0.0
 11
10.78818499999999
 21
6.249072
 31
0.0
 70
    32
  1
<> DIA.
 71
     5
 42
0.3125
  3
23NSTDI
100
AcDbAlignedDimension
 13
9.237861999999999
 23
6.092821999999999
 33
0.0
 14
9.237861999999999
 24
6.405321999999999
 34
0.0
 50
90.0
100
AcDbRotatedDimension
  0
DIMENSION
  5
726
330
1E
100
AcDbEntity
  8
DIM
100
AcDbDimension
  2
*D25
 10
9.872502
 20
4.838008999999999
 30
0.0
 11
10.80484574999999
 21
5.378009
 31
0.0
 70
    32
  1
<> DIA.
 71
     5
 42
0.171875
  3
23NSTD
100
AcDbAlignedDimension
 13
9.237861999999999
 23
4.666133999999999
 33
0.0
 14
9.237861999999999
 24
4.838008999999999
 34
0.0
 50
90.0
100
AcDbRotatedDimension
  0
LINE
  5
734
330
1E
100
AcDbEntity
  8
OBJECT
100
AcDbLine
 10
22.412676
 20
6.422571999999999
 30
0.0
 11
22.412676
 21
4.578572
 31
0.0
  0
LINE
  5
735
330
1E
100
AcDbEntity
  8
OBJECT
100
AcDbLine
 10
21.46767599999999
 20
6.485071999999999
 30
0.0
 11
21.46767599999999
 21
4.516072
 31
0.0
  0
LINE
  5
736
330
1E
100
AcDbEntity
  8
OBJECT
100
AcDbLine
 10
22.350176
 20
4.516072
 30
0.0
 11
21.46767599999999
 21
4.516072
 31
0.0
  0
ARC
  5
737
330
1E
100
AcDbEntity
  8
OBJECT
100
AcDbCircle
 10
22.350176
 20
4.578572
 30
0.0
 40
0.0625
100
AcDbArc
 50
270.0
 51
0.0
  0
LINE
  5
738
330
1E
100
AcDbEntity
  8
OBJECT
100
AcDbLine
 10
21.427676
 20
4.536071999999999
 30
0.0
 11
21.46767599999999
 21
4.536071999999999
 31
0.0
  0
LINE
  5
739
330
1E
100
AcDbEntity
  8
OBJECT
100
AcDbLine
 10
21.46767599999999
 20
6.485071999999999
 30
0.0
 11
22.350176
 21
6.485071999999999
 31
0.0
  0
ARC
  5
73A
330
1E
100
AcDbEntity
  8
OBJECT
100
AcDbCircle
 10
22.350176
 20
6.422571999999999
 30
0.0
 40
0.0625
100
AcDbArc
 50
0.0
 51
90.0
  0
LINE
  5
73B
330
1E
100
AcDbEntity
  8
OBJECT
100
AcDbLine
 10
21.427676
 20
6.465072
 30
0.0
 11
21.46767599999999
 21
6.465072
 31
0.0
  0
LINE
  5
73C
330
1E
100
AcDbEntity
  8
OBJECT
100
AcDbLine
 10
21.03367599999999
 20
6.422571999999999
 30
0.0
 11
21.03367599999999
 21
4.578572
 31
0.0
  0
LINE
  5
73D
330
1E
100
AcDbEntity
  8
OBJECT
100
AcDbLine
 10
21.427676
 20
6.485071999999999
 30
0.0
 11
21.427676
 21
4.516072
 31
0.0
  0
ARC
  5
73E
330
1E
100
AcDbEntity
  8
OBJECT
100
AcDbCircle
 10
21.09617599999999
 20
6.422571999999999
 30
0.0
 40
0.0625
100
AcDbArc
 50
90.0
 51
180.0
  0
LINE
  5
73F
330
1E
100
AcDbEntity
  8
OBJECT
100
AcDbLine
 10
21.427676
 20
6.485071999999999
 30
0.0
 11
21.09617599999999
 21
6.485071999999999
 31
0.0
  0
ARC
  5
740
330
1E
100
AcDbEntity
  8
OBJECT
100
AcDbCircle
 10
21.09617599999999
 20
4.578572
 30
0.0
 40
0.0625
100
AcDbArc
 50
180.0
 51
270.0
  0
LINE
  5
741
330
1E
100
AcDbEntity
  8
OBJECT
100
AcDbLine
 10
21.427676
 20
4.516072
 30
0.0
 11
21.09617599999999
 21
4.516072
 31
0.0
  0
DIMENSION
  5
742
330
1E
100
AcDbEntity
  8
DIM
100
AcDbDimension
  2
*D26
 10
4.051644999999999
 20
7.477675999999999
 30
0.0
 11
3.107113749999999
 21
7.477675999999999
 31
0.0
 70
    32
 71
     5
 42
0.2359999999999998
  3
23NSTD
100
AcDbAlignedDimension
 13
4.287644999999999
 23
6.249071999999999
 33
0.0
 14
4.051644999999999
 24
6.266321999999999
 34
0.0
 50
180.0
100
AcDbRotatedDimension
  0
DIMENSION
  5
750
330
1E
100
AcDbEntity
  8
DIM
100
AcDbDimension
  2
*D27
 10
3.138824
 20
4.516072
 30
0.0
 11
2.464292749999999
 21
3.976072000000001
 31
0.0
 70
    32
 71
     5
 42
0.2359999999999998
  3
23NSTD
100
AcDbAlignedDimension
 13
4.287644999999999
 23
4.752072
 33
0.0
 14
4.270394999999999
 24
4.516072
 34
0.0
 50
270.0
100
AcDbRotatedDimension
  0
DIMENSION
  5
75E
330
1E
100
AcDbEntity
  8
DIM
100
AcDbDimension
  2
*D28
 10
21.03367599999999
 20
6.817294999999999
 30
0.0
 11
19.78445725
 21
6.817294999999999
 31
0.0
 70
    32
  1
<> REF.
 71
     5
 42
0.3940000000000019
  3
23NSTD
100
AcDbAlignedDimension
 13
21.427676
 23
6.485071999999999
 33
0.0
 14
21.03367599999999
 24
6.422571999999999
 34
0.0
100
AcDbRotatedDimension
  0
DIMENSION
  5
76C
330
1E
100
AcDbEntity
  8
DIM
100
AcDbDimension
  2
*D29
 10
22.412676
 20
7.238794999999999
 30
0.0
 11
21.723176
 21
7.238794999999999
 31
0.0
 70
    32
 71
     5
 42
1.379000000000001
  3
23NSTDI
100
AcDbAlignedDimension
 13
21.03367599999999
 23
6.422571999999999
 33
0.0
 14
22.412676
 24
6.422571999999999
 34
0.0
100
AcDbRotatedDimension
  0
DIMENSION
  5
77A
330
1E
100
AcDbEntity
  8
DIM
100
AcDbDimension
  2
*D30
 10
14.71519299999999
 20
4.516072
 30
0.0
 11
13.77113049999999
 21
3.976072000000002
 31
0.0
 70
    32
  1
<> TYP.
 71
     5
 42
0.1699999999999999
  3
23NSTD
100
AcDbAlignedDimension
 13
14.52048299999999
 23
4.686072
 33
0.0
 14
14.52048299999999
 24
4.516072
 34
0.0
 50
90.0
100
AcDbRotatedDimension
  0
DIMENSION
  5
788
330
1E
100
AcDbEntity
  8
DIM
100
AcDbDimension
  2
*D31
 10
6.098644999999999
 20
7.477675999999999
 30
0.0
 11
7.043176249999999
 21
7.477675999999999
 31
0.0
 70
    32
 71
     5
 42
0.2359999999999998
  3
23NSTD
100
AcDbAlignedDimension
 13
5.862644999999999
 23
6.690466999999999
 33
0.0
 14
6.098644999999999
 24
6.266321999999999
 34
0.0
100
AcDbRotatedDimension
  0
DIMENSION
  5
796
330
1E
100
AcDbEntity
  8
DIM
100
AcDbDimension
  2
*D32
 10
9.148861999999999
 20
6.809224999999999
 30
0.0
 11
10.06995575
 21
6.809224999999999
 31
0.0
 70
    32
 71
     5
 42
0.1280000000000001
  3
23NSTD
100
AcDbAlignedDimension
 13
9.020861999999999
 23
5.835072
 33
0.0
 14
9.148861999999999
 24
6.033383999999999
 34
0.0
100
AcDbRotatedDimension
  0
DIMENSION
  5
7A4
330
1E
100
AcDbEntity
  8
DIM
100
AcDbDimension
  2
*D33
 10
9.237861999999999
 20
5.888749999999999
 30
0.0
 11
10.1706745
 21
5.888749999999999
 31
0.0
 70
    32
 71
     5
 42
0.0890000000000004
  3
23NSTD
100
AcDbAlignedDimension
 13
9.148861999999999
 23
5.835072
 33
0.0
 14
9.237861999999999
 24
5.835072
 34
0.0
 50
180.0
100
AcDbRotatedDimension
  0
DIMENSION
  5
7B2
330
1E
100
AcDbEntity
  8
DIM
100
AcDbDimension
  2
*D34
 10
6.098644999999999
 20
3.476331999999999
 30
0.0
 11
7.289269999999999
 21
3.476331999999999
 31
0.0
 70
    32
  1
<> TYP.
 71
     5
 42
0.1099999999999994
  3
23NSTD
100
AcDbAlignedDimension
 13
5.988644999999999
 23
5.066008999999999
 33
0.0
 14
6.098644999999999
 24
4.734822
 34
0.0
100
AcDbRotatedDimension
  0
DIMENSION
  5
7C0
330
1E
100
AcDbEntity
  8
DIM
100
AcDbDimension
  2
*D35
 10
6.546152999999999
 20
6.485071999999998
 30
0.0
 11
7.220684249999997
 21
7.025072
 31
0.0
 70
    32
 71
     5
 42
0.2359999999999998
  3
23NSTD
100
AcDbAlignedDimension
 13
5.862644999999999
 23
6.249071999999999
 33
0.0
 14
5.879894999999999
 24
6.485071999999999
 34
0.0
 50
90.0
100
AcDbRotatedDimension
  0
DIMENSION
  5
7CE
330
1E
100
AcDbEntity
  8
DIM
100
AcDbDimension
  2
*D36
 10
2.761137
 20
4.626071999999999
 30
0.0
 11
2.761136999999999
 21
5.347101
 31
0.0
 70
   160
 71
     5
 42
1.749
  3
23NSTD
100
AcDbAlignedDimension
 13
4.601333
 23
6.375072
 33
0.0
 14
4.601333
 24
4.626071999999999
 34
0.0
 50
90.0
100
AcDbRotatedDimension
  0
TEXT
  5
7DC
330
1E
100
AcDbEntity
  8
TEXT
100
AcDbText
 10
4.615270499999999
 20
1.826408
 30
0.0
 40
0.281
  1
%%UBODY
 41
0.75
 72
     1
 11
5.005157999999999
 21
1.826408
 31
0.0
100
AcDbText
  0
TEXT
  5
7DD
330
1E
100
AcDbEntity
  8
TEXT
100
AcDbText
 10
14.4561615
 20
2.932047
 30
0.0
 40
0.281
  1
%%UCOVER
 41
0.75
 72
     1
 11
14.986549
 21
2.932047
 31
0.0
100
AcDbText
  0
LWPOLYLINE
  5
7DE
102
{ACAD_REACTORS
330
D48
102
}
330
1E
100
AcDbEntity
  8
BEND
100
AcDbPolyline
 90
        8
 70
     0
 10
15.47833999999999
 20
4.314855
 40
0.0
 41
0.078375
 10
15.63508999999999
 20
4.314855
 40
0.0
 41
0.0
 10
15.782045
 20
4.314855
 40
0.0
 41
0.0
 10
15.782045
 20
5.444030999999999
 40
0.0
 41
0.0
 10
15.190229
 20
5.444030999999999
 40
0.0
 41
0.0
 10
15.190229
 20
6.663574
 40
0.0
 41
0.0
 10
15.06033599999999
 20
6.663574
 40
0.078375
 41
0.0
 10
14.90358599999999
 20
6.663574
 40
0.0
 41
0.0
  0
LWPOLYLINE
  5
7E8
330
1E
100
AcDbEntity
  8
BEND
  6
PHANTOM2
100
AcDbPolyline
 90
       10
 70
     0
 10
5.530083
 20
4.300869999999999
 40
0.0
 41
0.078414
 10
5.686912
 20
4.300869999999999
 40
0.0
 41
0.0
 10
5.862644999999999
 20
4.300869999999999
 40
0.0
 41
0.0
 10
5.862644999999999
 20
5.109285999999999
 40
0.0
 41
0.0
 10
5.398144999999999
 20
5.109285999999999
 40
0.0
 41
0.0
 10
5.398144999999999
 20
5.898577999999999
 40
0.0
 41
0.0
 10
5.862644999999999
 20
5.898577999999999
 40
0.0
 41
0.0
 10
5.862644999999999
 20
6.673896
 40
0.0
 41
0.0
 10
5.686912
 20
6.673896
 40
0.078414
 41
0.0
 10
5.530083
 20
6.673896
 40
0.0
 41
0.0
  0
INSERT
  5
7F4
330
1E
100
AcDbEntity
  8
BEND
100
AcDbBlockReference
 66
     1
  2
SECTION
 10
15.321677
 20
6.663574
 30
0.0
 41
0.627
 42
0.627
 43
0.627
 50
90.0
  0
ATTRIB
  5
7F5
330
7F4
100
AcDbEntity
  8
0
100
AcDbText
 10
15.246477
 20
6.569574
 30
0.0
 40
0.188
  1
B
 41
0.8
  7
SECTION
 72
     4
 11
15.321677
 21
6.663574
 31
0.0
100
AcDbAttribute
  2
SECTION
 70
     0
  0
SEQEND
  5
7F6
330
7F4
100
AcDbEntity
  8
BEND
 62
     7
  0
LINE
  5
7FA
102
{ACAD_REACTORS
330
D9D
102
}
330
1E
100
AcDbEntity
  8
OBJECT
100
AcDbLine
 10
17.59707099999999
 20
6.315071999999999
 30
0.0
 11
17.873071
 21
6.315071999999999
 31
0.0
  0
LINE
  5
7FB
102
{ACAD_REACTORS
330
D9D
102
}
330
1E
100
AcDbEntity
  8
OBJECT
100
AcDbLine
 10
17.59707099999999
 20
6.485071999999999
 30
0.0
 11
17.92857099999999
 21
6.485071999999999
 31
0.0
  0
ARC
  5
7FC
102
{ACAD_REACTORS
330
D9D
102
}
330
1E
100
AcDbEntity
  8
OBJECT
100
AcDbCircle
 10
17.92857099999999
 20
6.422571999999999
 30
0.0
 40
0.0625
100
AcDbArc
 50
0.0
 51
90.0
  0
LINE
  5
7FD
102
{ACAD_REACTORS
330
D9D
102
}
330
1E
100
AcDbEntity
  8
OBJECT
100
AcDbLine
 10
17.873071
 20
5.028008999999999
 30
0.0
 11
17.873071
 21
6.315071999999999
 31
0.0
  0
LINE
  5
7FF
102
{ACAD_REACTORS
330
D9D
102
}
330
1E
100
AcDbEntity
  8
OBJECT
100
AcDbLine
 10
17.59707099999999
 20
4.666133999999999
 30
0.0
 11
17.87107099999999
 21
4.666133999999999
 31
0.0
  0
LINE
  5
800
102
{ACAD_REACTORS
330
D9D
102
}
330
1E
100
AcDbEntity
  8
OBJECT
100
AcDbLine
 10
17.59707099999999
 20
4.838008999999999
 30
0.0
 11
17.87107099999999
 21
4.838008999999999
 31
0.0
  0
LINE
  5
801
102
{ACAD_REACTORS
330
D9D
102
}
330
1E
100
AcDbEntity
  8
OBJECT
100
AcDbLine
 10
17.873071
 20
5.028008999999999
 30
0.0
 11
17.59707099999999
 21
5.028008999999999
 31
0.0
  0
ARC
  5
802
102
{ACAD_REACTORS
330
D9D
102
}
330
1E
100
AcDbEntity
  8
OBJECT
100
AcDbCircle
 10
17.92857099999999
 20
4.578572
 30
0.0
 40
0.0625
100
AcDbArc
 50
270.0
 51
0.0
  0
LINE
  5
803
102
{ACAD_REACTORS
330
D58
330
D68
330
D9D
102
}
330
1E
100
AcDbEntity
  8
OBJECT
100
AcDbLine
 10
17.59707099999999
 20
4.516072
 30
0.0
 11
17.59707099999999
 21
6.485071999999999
 31
0.0
  0
LINE
  5
804
102
{ACAD_REACTORS
330
D9D
102
}
330
1E
100
AcDbEntity
  8
OBJECT
100
AcDbLine
 10
17.59707099999999
 20
4.516072
 30
0.0
 11
17.92857099999999
 21
4.516072
 31
0.0
  0
LINE
  5
805
102
{ACAD_REACTORS
330
D9D
102
}
330
1E
100
AcDbEntity
  8
OBJECT
100
AcDbLine
 10
17.99107099999999
 20
4.578572
 30
0.0
 11
17.99107099999999
 21
6.422571999999999
 31
0.0
  0
DIMENSION
  5
806
330
1E
100
AcDbEntity
  8
DIM
100
AcDbDimension
  2
*D37
 10
17.59707099999999
 20
6.778245
 30
0.0
 11
16.65253974999999
 21
6.778245
 31
0.0
 70
    32
 71
     5
 42
0.3939999999999983
  3
23NSTD
100
AcDbAlignedDimension
 13
17.99107099999999
 23
6.422571999999999
 33
0.0
 14
17.59707099999999
 24
6.485071999999999
 34
0.0
100
AcDbRotatedDimension
  0
DIMENSION
  5
814
330
1E
100
AcDbEntity
  8
DIM
100
AcDbDimension
  2
*D38
 10
17.99107099999999
 20
5.813926
 30
0.0
 11
18.88872724999999
 21
5.813926
 31
0.0
 70
    32
  1
0.100
 71
     5
 42
0.1179999999999985
  3
23NSTD
100
AcDbAlignedDimension
 13
17.873071
 23
5.808251
 33
0.0
 14
17.99107099999999
 24
5.808251
 34
0.0
100
AcDbRotatedDimension
  0
LINE
  5
823
102
{ACAD_REACTORS
330
D9D
102
}
330
1E
100
AcDbEntity
  8
OBJECT
100
AcDbLine
 10
17.87107099999999
 20
4.907072
 30
0.0
 11
17.99107099999999
 21
4.907072
 31
0.0
  0
LINE
  5
824
102
{ACAD_REACTORS
330
D9D
102
}
330
1E
100
AcDbEntity
  8
OBJECT
100
AcDbLine
 10
17.87107099999999
 20
4.597071999999998
 30
0.0
 11
17.99107099999999
 21
4.597071999999999
 31
0.0
  0
LINE
  5
827
102
{ACAD_REACTORS
330
D74
102
}
330
1E
100
AcDbEntity
  8
OBJECT
100
AcDbLine
 10
20.10290494062497
 20
9.998948999999999
 30
0.0
 11
20.10290494062497
 21
13.083126
 31
0.0
  0
LINE
  5
828
330
1E
100
AcDbEntity
  8
OBJECT
100
AcDbLine
 10
21.67890494062497
 20
10.248949
 30
0.0
 11
21.67890494062497
 21
13.08743012674259
 31
0.0
  0
LINE
  5
829
330
1E
100
AcDbEntity
  8
OBJECT
100
AcDbLine
 10
21.20690494062496
 20
12.211449
 30
0.0
 11
21.20690494062496
 21
13.19863028037979
 31
0.0
  0
LINE
  5
82A
330
1E
100
AcDbEntity
  8
OBJECT
100
AcDbLine
 10
20.10290494062497
 20
9.998948999999999
 30
0.0
 11
21.42890494062497
 21
9.998948999999999
 31
0.0
  0
LINE
  5
82B
330
1E
100
AcDbEntity
  8
OBJECT
100
AcDbLine
 10
20.10290494062497
 20
10.530199
 30
0.0
 11
21.19890494062497
 21
10.530199
 31
0.0
  0
LINE
  5
82C
330
1E
100
AcDbEntity
  8
OBJECT
100
AcDbLine
 10
20.10290494062497
 20
11.217699
 30
0.0
 11
21.19890494062496
 21
11.217699
 31
0.0
  0
LINE
  5
82D
330
1E
100
AcDbEntity
  8
OBJECT
100
AcDbLine
 10
21.20690494062496
 20
12.211449
 30
0.0
 11
20.10290494062497
 21
12.211449
 31
0.0
  0
ARC
  5
82E
330
1E
100
AcDbEntity
  8
OBJECT
100
AcDbCircle
 10
21.42890494062497
 20
10.248949
 30
0.0
 40
0.25
100
AcDbArc
 50
270.0
 51
0.0
  0
DIMENSION
  5
862
330
1E
100
AcDbEntity
  8
DIM
100
AcDbDimension
  2
*D39
 10
19.06695294062497
 20
11.731449
 30
0.0
 11
19.06695294062496
 21
11.891449
 31
0.0
 70
    32
 71
     5
 42
0.0799999999999996
  3
23NSTD4I
100
AcDbAlignedDimension
 13
20.10290494062497
 23
12.051449
 33
0.0
 14
20.10290494062497
 24
11.731449
 34
0.0
 50
90.0
100
AcDbRotatedDimension
  0
DIMENSION
  5
870
330
1E
100
AcDbEntity
  8
DIM
100
AcDbDimension
  2
*D40
 10
20.10290494062497
 20
13.586545
 30
0.0
 11
19.20524869062496
 21
13.586545
 31
0.0
 70
    32
 71
     5
 42
0.1150000000000002
  3
23NSTD4
100
AcDbAlignedDimension
 13
20.56290494062497
 23
12.051449
 33
0.0
 14
20.10290494062497
 24
13.083126
 34
0.0
100
AcDbRotatedDimension
  0
LINE
  5
882
330
1E
100
AcDbEntity
  8
OBJECT
100
AcDbLine
 10
21.19890494062497
 20
10.253949
 30
0.0
 11
21.67890494062497
 21
10.25394899999999
 31
0.0
  0
LINE
  5
883
330
1E
100
AcDbEntity
  8
OBJECT
100
AcDbLine
 10
21.19890494062496
 20
11.49394899999999
 30
0.0
 11
21.67890494062497
 21
11.493949
 31
0.0
  0
DIMENSION
  5
892
330
1E
100
AcDbEntity
  8
DIM
100
AcDbDimension
  2
*D41
 10
22.38546894062496
 20
11.493949
 30
0.0
 11
22.38546894062496
 21
10.873949
 31
0.0
 70
   160
  1
<> DIA.\PC'BORE
 71
     5
 42
0.31
  3
23NSTD4I
100
AcDbAlignedDimension
 13
21.67890494062497
 23
10.25394899999999
 33
0.0
 14
21.67890494062497
 24
11.493949
 34
0.0
 50
90.0
100
AcDbRotatedDimension
  0
DIMENSION
  5
8A0
330
1E
100
AcDbEntity
  8
DIM
100
AcDbDimension
  2
*D42
 10
19.48745294062496
 20
10.530199
 30
0.0
 11
19.48745294062496
 21
10.873949
 31
0.0
 70
    32
  1
<> DIA.
 71
     5
 42
0.171875
  3
23NSTD4I
100
AcDbAlignedDimension
 13
20.10290494062497
 23
11.217699
 33
0.0
 14
20.10290494062497
 24
10.530199
 34
0.0
 50
90.0
100
AcDbRotatedDimension
  0
DIMENSION
  5
8AE
330
1E
100
AcDbEntity
  8
DIM
100
AcDbDimension
  2
*D43
 10
21.19890494062497
 20
9.626317537830246
 30
0.0
 11
20.28952994062497
 21
9.626317537830246
 31
0.0
 70
    32
 71
     5
 42
0.1199999999999992
  3
23NSTD4
100
AcDbAlignedDimension
 13
21.67890494062497
 23
10.25394899999999
 33
0.0
 14
21.19890494062497
 24
10.253949
 34
0.0
100
AcDbRotatedDimension
  0
TEXT
  5
8EB
330
1E
100
AcDbEntity
  8
TEXT
100
AcDbText
 10
13.66368084978751
 20
14.98783975
 30
0.0
 40
0.234375
  1
PN-1330, PN-1330-C AND PN-1330-DG
 41
0.75
 72
     4
 11
16.35899334978751
 21
15.085496
 31
0.0
100
AcDbText
  0
LINE
  5
8EC
330
1E
100
AcDbEntity
  8
TITLE
100
AcDbLine
 10
21.80700100000001
 20
1.653000000000001
 30
0.0
 11
21.80700100000001
 21
0.0930000000000018
 31
0.0
  0
LINE
  5
8ED
330
1E
100
AcDbEntity
  8
TITLE
100
AcDbLine
 10
18.80700200000001
 20
1.653000000000001
 30
0.0
 11
18.80700200000001
 21
0.0930000000000018
 31
0.0
  0
LINE
  5
8EE
330
1E
100
AcDbEntity
  8
TITLE
100
AcDbLine
 10
15.80700200000001
 20
1.653000000000001
 30
0.0
 11
15.80700200000001
 21
0.0930000000000018
 31
0.0
  0
LINE
  5
8EF
330
1E
100
AcDbEntity
  8
TITLE
100
AcDbLine
 10
12.80700300000001
 20
1.653000000000001
 30
0.0
 11
12.80700300000001
 21
0.0930000000000018
 31
0.0
  0
LINE
  5
8F0
330
1E
100
AcDbEntity
  8
TITLE
100
AcDbLine
 10
20.30700100000002
 20
0.7170000000000019
 30
0.0
 11
20.30700100000002
 21
0.4050000000000019
 31
0.0
  0
LINE
  5
8F2
330
1E
100
AcDbEntity
  8
TITLE
100
AcDbLine
 10
12.80700300000001
 20
0.4050000000000019
 30
0.0
 11
21.80700100000001
 21
0.4050000000000019
 31
0.0
  0
LINE
  5
8F3
330
1E
100
AcDbEntity
  8
TITLE
100
AcDbLine
 10
12.80700300000001
 20
0.7170000000000019
 30
0.0
 11
21.80700100000001
 21
0.7170000000000019
 31
0.0
  0
LINE
  5
8F4
330
1E
100
AcDbEntity
  8
TITLE
100
AcDbLine
 10
12.80700300000001
 20
1.029000000000001
 30
0.0
 11
24.80700000000001
 21
1.029000000000001
 31
0.0
  0
LINE
  5
8F5
330
1E
100
AcDbEntity
  8
TITLE
100
AcDbLine
 10
12.80700300000001
 20
1.653000000000001
 30
0.0
 11
24.80700000000001
 21
1.653000000000001
 31
0.0
  0
TEXT
  5
8F6
330
1E
100
AcDbEntity
  8
TEXT
100
AcDbText
 10
13.55700300000001
 20
1.247250000000001
 30
0.0
 40
0.1875
  1
PART NUMBER
 41
0.75
 72
     4
 11
14.30700300000001
 21
1.341000000000001
 31
0.0
100
AcDbText
  0
TEXT
  5
8F8
330
1E
100
AcDbEntity
  8
TEXT
100
AcDbText
 10
13.87340925000001
 20
0.7782500000000019
 30
0.0
 40
0.1875
  1
PN-1330
 41
0.75
 72
     4
 11
14.30700300000001
 21
0.8720000000000018
 31
0.0
100
AcDbText
  0
TEXT
  5
8F9
330
1E
100
AcDbEntity
  8
TEXT
100
AcDbText
 10
13.73278425000001
 20
0.4657500000000017
 30
0.0
 40
0.1875
  1
PN-1330-C
 41
0.75
 72
     4
 11
14.30700300000001
 21
0.5595000000000017
 31
0.0
100
AcDbText
  0
TEXT
  5
8FA
330
1E
100
AcDbEntity
  8
TEXT
100
AcDbText
 10
13.66247175000001
 20
0.1532500000000017
 30
0.0
 40
0.1875
  1
PN-1330-DG
 41
0.75
 72
     4
 11
14.30700300000001
 21
0.2470000000000017
 31
0.0
100
AcDbText
  0
TEXT
  5
8FB
330
1E
100
AcDbEntity
  8
TEXT
100
AcDbText
 10
22.48668850000001
 20
1.247250000000001
 30
0.0
 40
0.1875
  1
HARDWARE KIT
 41
0.75
 72
     4
 11
23.30700100000001
 21
1.341000000000001
 31
0.0
100
AcDbText
  0
TEXT
  5
8FD
330
1E
100
AcDbEntity
  8
TEXT
100
AcDbText
 10
16.79137700000001
 20
1.403250000000001
 30
0.0
 40
0.1875
  1
MATERIAL
 41
0.75
 72
     4
 11
17.30700200000001
 21
1.497000000000001
 31
0.0
100
AcDbText
  0
TEXT
  5
8FE
330
1E
100
AcDbEntity
  8
TEXT
100
AcDbText
 10
19.95543850000001
 20
1.403250000000001
 30
0.0
 40
0.1875
  1
FINISH
 41
0.75
 72
     4
 11
20.30700100000002
 21
1.497000000000001
 31
0.0
100
AcDbText
  0
TEXT
  5
8FF
330
1E
100
AcDbEntity
  8
TEXT
100
AcDbText
 10
19.29918950000001
 20
1.091250000000001
 30
0.0
 40
0.1875
  1
BODY
 41
0.75
 72
     4
 11
19.55700200000001
 21
1.185000000000001
 31
0.0
100
AcDbText
  0
TEXT
  5
900
330
1E
100
AcDbEntity
  8
TEXT
100
AcDbText
 10
16.41637700000001
 20
0.7787500000000019
 30
0.0
 40
0.1875
  1
POLYCARBONATE
 41
0.75
 72
     4
 11
17.30700200000001
 21
0.8725000000000019
 31
0.0
100
AcDbText
  0
TEXT
  5
901
330
1E
100
AcDbEntity
  8
TEXT
100
AcDbText
 10
16.41637700000001
 20
0.4662500000000019
 30
0.0
 40
0.1875
  1
POLYCARBONATE
 41
0.75
 72
     4
 11
17.30700200000001
 21
0.5600000000000019
 31
0.0
100
AcDbText
  0
TEXT
  5
902
330
1E
100
AcDbEntity
  8
TEXT
100
AcDbText
 10
16.32262700000001
 20
0.1537500000000018
 30
0.0
 40
0.1875
  1
HIGH-IMPACT ABS
 41
0.75
 72
     4
 11
17.30700200000001
 21
0.2475000000000018
 31
0.0
100
AcDbText
  0
TEXT
  5
903
330
1E
100
AcDbEntity
  8
TEXT
100
AcDbText
 10
20.70543850000001
 20
1.091250000000001
 30
0.0
 40
0.1875
  1
COVER
 41
0.75
 72
     4
 11
21.05700100000001
 21
1.185000000000001
 31
0.0
100
AcDbText
  0
TEXT
  5
904
330
1E
100
AcDbEntity
  8
TEXT
100
AcDbText
 10
17.70543950000001
 20
1.091250000000001
 30
0.0
 40
0.1875
  1
COVER
 41
0.75
 72
     4
 11
18.05700200000001
 21
1.185000000000001
 31
0.0
100
AcDbText
  0
TEXT
  5
905
330
1E
100
AcDbEntity
  8
TEXT
100
AcDbText
 10
16.29918950000001
 20
1.091250000000001
 30
0.0
 40
0.1875
  1
BODY
 41
0.75
 72
     4
 11
16.55700200000001
 21
1.185000000000001
 31
0.0
100
AcDbText
  0
TEXT
  5
906
330
1E
100
AcDbEntity
  8
TEXT
100
AcDbText
 10
19.65075100000001
 20
0.7787500000000019
 30
0.0
 40
0.1875
  1
LIGHT GRAY
 41
0.75
 72
     4
 11
20.30700100000002
 21
0.8725000000000019
 31
0.0
100
AcDbText
  0
TEXT
  5
907
330
1E
100
AcDbEntity
  8
TEXT
100
AcDbText
 10
18.90075200000001
 20
0.4662500000000019
 30
0.0
 40
0.1875
  1
LIGHT GRAY
 41
0.75
 72
     4
 11
19.55700200000001
 21
0.5600000000000019
 31
0.0
100
AcDbText
  0
TEXT
  5
908
330
1E
100
AcDbEntity
  8
TEXT
100
AcDbText
 10
19.69762600000001
 20
0.1537500000000018
 30
0.0
 40
0.1875
  1
DARK GRAY
 41
0.75
 72
     4
 11
20.30700100000002
 21
0.2475000000000018
 31
0.0
100
AcDbText
  0
TEXT
  5
909
330
1E
100
AcDbEntity
  8
TEXT
100
AcDbText
 10
20.72887600000001
 20
0.4662500000000019
 30
0.0
 40
0.1875
  1
CLEAR
 41
0.75
 72
     4
 11
21.05700100000001
 21
0.5600000000000019
 31
0.0
100
AcDbText
  0
LINE
  5
90A
330
1E
100
AcDbEntity
  8
TITLE
100
AcDbLine
 10
20.30700100000002
 20
1.341000000000001
 30
0.0
 11
20.30700100000002
 21
1.029000000000001
 31
0.0
  0
LINE
  5
90B
330
1E
100
AcDbEntity
  8
TITLE
100
AcDbLine
 10
15.80700200000001
 20
1.341000000000001
 30
0.0
 11
21.80700100000001
 21
1.341000000000001
 31
0.0
  0
LINE
  5
90C
330
1E
100
AcDbEntity
  8
TITLE
100
AcDbLine
 10
17.30700200000001
 20
1.341000000000001
 30
0.0
 11
17.30700200000001
 21
1.029000000000001
 31
0.0
  0
TEXT
  5
90D
330
1E
100
AcDbEntity
  8
TEXT
100
AcDbText
 10
22.29918850000002
 20
0.7787500000000019
 30
0.0
 40
0.1875
  1
KIT CONTAINS (2)
 41
0.75
 72
     4
 11
23.30700100000001
 21
0.8725000000000019
 31
0.0
100
AcDbText
  0
TEXT
  5
90E
330
1E
100
AcDbEntity
  8
TEXT
100
AcDbText
 10
21.97106350000001
 20
0.4662500000000019
 30
0.0
 40
0.1875
  1
M4 x 20mm (0.787") LG.
 41
0.75
 72
     4
 11
23.30700100000001
 21
0.5600000000000019
 31
0.0
100
AcDbText
  0
TEXT
  5
90F
330
1E
100
AcDbEntity
  8
TEXT
100
AcDbText
 10
21.97106350000001
 20
0.1537500000000018
 30
0.0
 40
0.1875
  1
SCREWS FOR ASSEMBLY
 41
0.75
 72
     4
 11
23.30700100000001
 21
0.2475000000000018
 31
0.0
100
AcDbText
  0
TEXT
  5
910
330
1E
100
AcDbEntity
  8
TEXT
100
AcDbText
 10
12.80700300000001
 20
1.807500000000001
 30
0.0
 40
0.1875
  1
%%UNOTE%%U:  ALL DIMENSIONS HAVE %%P0.015 TOLERANCE UNLESS OTHERWISE SPECIFIED.
 41
0.75
100
AcDbText
  0
LWPOLYLINE
  5
912
102
{ACAD_REACTORS
330
D74
102
}
330
1E
100
AcDbEntity
  8
OBJECT
100
AcDbPolyline
 90
        3
 70
     0
 43
0.0
 10
20.56290494062497
 20
12.051449
 10
20.56290494062497
 20
11.731449
 10
20.10290494062497
 20
11.731449
  0
LWPOLYLINE
  5
917
102
{ACAD_REACTORS
330
D74
102
}
330
1E
100
AcDbEntity
  8
OBJECT
100
AcDbPolyline
 90
        2
 70
     0
 43
0.0
 10
20.10290494062497
 20
12.051449
 10
20.56290494062497
 20
12.051449
  0
LWPOLYLINE
  5
91C
102
{ACAD_REACTORS
330
D68
330
D9D
102
}
330
1E
100
AcDbEntity
  8
OBJECT
100
AcDbPolyline
 90
        3
 70
     0
 43
0.0
 10
17.71207099999999
 20
6.435071999999999
 10
17.71207099999999
 20
6.355071999999999
 10
17.59707099999999
 20
6.355071999999999
  0
LWPOLYLINE
  5
921
102
{ACAD_REACTORS
330
D68
330
D9D
102
}
330
1E
100
AcDbEntity
  8
OBJECT
100
AcDbPolyline
 90
        2
 70
     0
 43
0.0
 10
17.59707099999999
 20
6.435071999999999
 10
17.71207099999999
 20
6.435071999999999
  0
LWPOLYLINE
  5
925
102
{ACAD_REACTORS
330
D58
330
D9D
102
}
330
1E
100
AcDbEntity
  8
OBJECT
100
AcDbPolyline
 90
        3
 70
     0
 43
0.0
 10
17.71207099999999
 20
4.988008999999999
 10
17.71207099999999
 20
4.908008999999999
 10
17.59707099999999
 20
4.908008999999999
  0
LWPOLYLINE
  5
92A
102
{ACAD_REACTORS
330
D58
330
D9D
102
}
330
1E
100
AcDbEntity
  8
OBJECT
100
AcDbPolyline
 90
        2
 70
     0
 43
0.0
 10
17.59707099999999
 20
4.988008999999999
 10
17.71207099999999
 20
4.988008999999999
  0
LWPOLYLINE
  5
92E
102
{ACAD_REACTORS
330
D48
102
}
330
1E
100
AcDbEntity
  8
OBJECT
100
AcDbPolyline
 90
       24
 70
     1
 43
0.0
 10
15.468108
 20
6.435071999999999
 42
-0.4142140000000001
 10
15.62610799999999
 20
6.277072
 10
15.62610799999999
 20
6.249071999999999
 42
0.4142140000000001
 10
15.782045
 20
6.093134
 10
15.809795
 20
6.093134
 42
-0.4142140000000001
 10
15.967795
 20
5.935133999999999
 10
15.967795
 20
5.066008999999999
 42
-0.4142140000000001
 10
15.809795
 20
4.908008999999999
 10
15.782045
 20
4.908008999999999
 42
0.4142140000000001
 10
15.62610799999999
 20
4.752072
 10
15.62610799999999
 20
4.724072
 42
-0.4142140000000001
 10
15.468108
 20
4.566072
 10
14.52048299999999
 20
4.566072
 42
-0.4142140000000001
 10
14.36248299999999
 20
4.724072
 10
14.36248299999999
 20
4.752072
 42
0.4142140000000001
 10
14.206545
 20
4.908008999999999
 10
14.178795
 20
4.908008999999999
 42
-0.4142140000000001
 10
14.020795
 20
5.066008999999999
 10
14.020795
 20
5.935133999999999
 42
-0.4142140000000001
 10
14.178795
 20
6.093134
 10
14.206545
 20
6.093134
 42
0.4142140000000001
 10
14.36248299999999
 20
6.249071999999999
 10
14.36248299999999
 20
6.277072
 42
-0.4142140000000001
 10
14.52048299999999
 20
6.435071999999999
  0
LWPOLYLINE
  5
948
102
{ACAD_REACTORS
330
D48
102
}
330
1E
100
AcDbEntity
  8
OBJECT
100
AcDbPolyline
 90
       24
 70
     1
 43
0.0
 10
15.468108
 20
6.355071999999999
 42
-0.4142140000000001
 10
15.54610799999999
 20
6.277072
 10
15.54610799999999
 20
6.249071999999999
 42
0.4142140000000001
 10
15.782045
 20
6.013133999999999
 10
15.809795
 20
6.013133999999999
 42
-0.4142140000000001
 10
15.887795
 20
5.935133999999999
 10
15.887795
 20
5.066008999999999
 42
-0.4142140000000001
 10
15.809795
 20
4.988008999999999
 10
15.782045
 20
4.988008999999999
 42
0.4142140000000001
 10
15.54610799999999
 20
4.752072
 10
15.54610799999999
 20
4.724072
 42
-0.4142140000000001
 10
15.468108
 20
4.646072
 10
14.52048299999999
 20
4.646072
 42
-0.4142140000000001
 10
14.44248299999999
 20
4.724072
 10
14.44248299999999
 20
4.752072
 42
0.4142140000000001
 10
14.206545
 20
4.988008999999999
 10
14.178795
 20
4.988008999999999
 42
-0.4142140000000001
 10
14.100795
 20
5.066008999999999
 10
14.100795
 20
5.935133999999999
 42
-0.4142140000000001
 10
14.178795
 20
6.013133999999999
 10
14.206545
 20
6.013133999999999
 42
0.4142140000000001
 10
14.44248299999999
 20
6.249071999999999
 10
14.44248299999999
 20
6.277072
 42
-0.4142140000000001
 10
14.52048299999999
 20
6.355071999999999
  0
TEXT
  5
965
330
1E
100
AcDbEntity
  8
TEXT
100
AcDbText
 10
0.401701
 20
13.936431
 30
0.0
 40
0.1875
  1
 %%UPOLYCARBONATE%%U (LIGHT GRAY AND CLEAR)
 41
0.75
100
AcDbText
  0
TEXT
  5
966
330
1E
100
AcDbEntity
  8
TEXT
100
AcDbText
 10
0.401701
 20
12.686431
 30
0.0
 40
0.1875
  1
 %%UABS%%U (DARK GRAY)
 41
0.75
100
AcDbText
  0
TEXT
  5
967
330
1E
100
AcDbEntity
  8
TEXT
100
AcDbText
 10
0.401701
 20
12.061431
 30
0.0
 40
0.1875
  1
  SERVICE TEMPERATURE RANGE: -40%%DC TO +80%%DC
 41
0.75
100
AcDbText
  0
TEXT
  5
968
330
1E
100
AcDbEntity
  8
TEXT
100
AcDbText
 10
0.401701
 20
12.373931
 30
0.0
 40
0.1875
  1
  UL94-HB FLAMMABILITY RATING (UL FILE #E56070)
 41
0.75
100
AcDbText
  0
TEXT
  5
969
330
1E
100
AcDbEntity
  8
TEXT
100
AcDbText
 10
0.401701
 20
11.436431
 30
0.0
 40
0.1875
  1

 41
0.75
100
AcDbText
  0
TEXT
  5
96A
330
1E
100
AcDbEntity
  8
TEXT
100
AcDbText
 10
0.401701
 20
12.373931
 30
0.0
 40
0.1875
  1

 41
0.75
100
AcDbText
  0
TEXT
  5
96B
330
1E
100
AcDbEntity
  8
TEXT
100
AcDbText
 10
0.401701
 20
10.811431
 30
0.0
 40
0.1875
  1

 41
0.75
100
AcDbText
  0
TEXT
  5
96C
330
1E
100
AcDbEntity
  8
TEXT
100
AcDbText
 10
0.401701
 20
14.248931
 30
0.0
 40
0.234375
  1
INDUSTRY STANDARDS:
 41
0.75
100
AcDbText
  0
TEXT
  5
96D
330
1E
100
AcDbEntity
  8
TEXT
100
AcDbText
 10
0.401701
 20
12.998931
 30
0.0
 40
0.1875
  1
  SERVICE TEMPERATURE RANGE: -40%%DC TO +120%%DC
 41
0.75
100
AcDbText
  0
TEXT
  5
96E
330
1E
100
AcDbEntity
  8
TEXT
100
AcDbText
 10
0.401701
 20
13.311431
 30
0.0
 40
0.1875
  1
  UV STABILIZED
 41
0.75
100
AcDbText
  0
TEXT
  5
96F
330
1E
100
AcDbEntity
  8
TEXT
100
AcDbText
 10
0.401701
 20
13.623931
 30
0.0
 40
0.1875
  1
  UL94-HB FLAMMABILITY RATING (UL FILE #E41613)
 41
0.75
100
AcDbText
  0
TEXT
  5
970
330
1E
100
AcDbEntity
  8
TEXT
100
AcDbText
 10
0.401701
 20
13.311431
 30
0.0
 40
0.1875
  1

 41
0.75
100
AcDbText
  0
HATCH
  5
D48
330
1E
100
AcDbEntity
  8
OBJECT
 62
   221
100
AcDbHatch
 10
0.0
 20
0.0
 30
0.0
210
0.0
220
0.0
230
1.0
  2
ZIGZAG
 70
     0
 71
     1
 91
        2
 92
        7
 72
     1
 73
     1
 93
       20
 10
15.54610799999999
 20
6.277072058271864
 42
0.0
 10
15.54610799999999
 20
6.249071323737323
 42
0.41421356237282
 10
15.78204532373754
 20
6.013133999999999
 42
0.0
 10
15.80979505827186
 20
6.013133999999999
 42
-0.4142135623730157
 10
15.887795
 20
5.935134058271842
 42
0.0
 10
15.887795
 20
5.066008941728135
 42
-0.4142135623730158
 10
15.80979505827184
 20
4.988008999999999
 42
0.0
 10
15.782045
 20
4.988008999999999
 42
0.0
 10
15.782045
 20
4.908008999999999
 42
0.0
 10
15.80979511803788
 20
4.908008999999999
 42
0.4142135623730105
 10
15.967795
 20
5.066008881962163
 42
0.0
 10
15.967795
 20
5.935134118037879
 42
0.4142135623730105
 10
15.80979511803783
 20
6.093134
 42
0.0
 10
15.78204538350258
 20
6.093134
 42
-0.4142135623708059
 10
15.62610799999999
 20
6.24907138350381
 42
0.0
 10
15.62610799999999
 20
6.277072118037879
 42
0.4142135623730154
 10
15.46810811803783
 20
6.435071999999999
 42
0.0
 10
15.190229
 20
6.435072
 42
0.0
 10
15.190229
 20
6.355071999999999
 42
0.0
 10
15.46810805827186
 20
6.355071999999999
 42
-0.4142135623729357
 97
        3
330
92E
330
7DE
330
948
 92
        7
 72
     1
 73
     1
 93
       35
 10
14.52048288196212
 20
6.435071999999999
 42
0.4142135623730105
 10
14.36248299999999
 20
6.277072118037835
 42
0.0
 10
14.36248299999999
 20
6.249071883502589
 42
-0.4142135623730118
 10
14.20654511649736
 20
6.093134
 42
0.0
 10
14.17879488196212
 20
6.093134
 42
0.4142135623730105
 10
14.020795
 20
5.935134118037835
 42
0.0
 10
14.020795
 20
5.06600888196212
 42
0.4142135623730122
 10
14.17879488196216
 20
4.908008999999999
 42
0.0
 10
14.20654561649666
 20
4.908008999999999
 42
-0.4142135623722091
 10
14.36248299999999
 20
4.752071616496192
 42
0.0
 10
14.36248299999999
 20
4.724071881962121
 42
0.4142135623730121
 10
14.52048288196216
 20
4.566072
 42
0.0
 10
15.46810811803787
 20
4.566072
 42
0.414213562373014
 10
15.62610799999999
 20
4.724071881962164
 42
0.0
 10
15.62610799999999
 20
4.752072116496661
 42
-0.4142135623730114
 10
15.78204488350338
 20
4.908008999999999
 42
0.0
 10
15.782045
 20
4.908008999999999
 42
0.0
 10
15.782045
 20
4.988008999999999
 42
0.4142137811864515
 10
15.54610799999999
 20
4.752072176262675
 42
0.0
 10
15.54610799999999
 20
4.724071941728135
 42
-0.4142135623730124
 10
15.46810805827184
 20
4.646072
 42
0.0
 10
14.52048294172813
 20
4.646072
 42
-0.4142135623730124
 10
14.44248299999999
 20
4.724071941728157
 42
0.0
 10
14.44248299999999
 20
4.752071676263426
 42
0.4142135623718914
 10
14.20654567626245
 20
4.988008999999999
 42
0.0
 10
14.17879494172813
 20
4.988008999999999
 42
-0.4142135623730158
 10
14.100795
 20
5.066008941728156
 42
0.0
 10
14.100795
 20
5.935134058271864
 42
-0.4142135623730124
 10
14.17879494172815
 20
6.013133999999999
 42
0.0
 10
14.20654517626342
 20
6.013133999999999
 42
0.414213562373014
 10
14.44248299999999
 20
6.24907182373664
 42
0.0
 10
14.44248299999999
 20
6.277072058271864
 42
-0.4142135623730158
 10
14.52048294172815
 20
6.355071999999999
 42
0.0
 10
15.190229
 20
6.355072
 42
0.0
 10
15.19022899999999
 20
6.435071999999999
 42
0.0
 97
        3
330
92E
330
7DE
330
948
 75
     0
 76
     1
 52
0.0
 41
0.375
 77
     0
 78
     2
 53
0.0
 43
0.0
 44
0.0
 45
0.046875
 46
0.046875
 79
     2
 49
0.046875
 49
-0.046875
 53
90.0
 43
0.046875
 44
0.0
 45
-0.046875
 46
0.046875
 79
     2
 49
0.046875
 49
-0.046875
 47
0.0044986690352553
 98
        2
 10
15.49711975429568
 20
6.389348758656176
 10
15.00186603016848
 20
6.39834611378864
  0
HATCH
  5
D58
330
1E
100
AcDbEntity
  8
OBJECT
 62
   221
100
AcDbHatch
 10
0.0
 20
0.0
 30
0.0
210
0.0
220
0.0
230
1.0
  2
ZIGZAG
 70
     0
 71
     1
 91
        1
 92
        7
 72
     0
 73
     1
 93
        4
 10
17.59707099999999
 20
4.908008999999999
 10
17.71207099999999
 20
4.908008999999998
 10
17.71207099999999
 20
4.988008999999999
 10
17.59707099999999
 20
4.988009
 97
        3
330
92A
330
803
330
925
 75
     0
 76
     1
 52
0.0
 41
0.375
 77
     0
 78
     2
 53
0.0
 43
0.0
 44
0.0
 45
0.046875
 46
0.046875
 79
     2
 49
0.046875
 49
-0.046875
 53
90.0
 43
0.046875
 44
0.0
 45
-0.046875
 46
0.046875
 79
     2
 49
0.046875
 49
-0.046875
 47
0.0044986690352553
 98
        1
 10
17.63121289855588
 20
4.949774634379679
  0
HATCH
  5
D68
330
1E
100
AcDbEntity
  8
OBJECT
 62
   221
100
AcDbHatch
 10
0.0
 20
0.0
 30
0.0
210
0.0
220
0.0
230
1.0
  2
ZIGZAG
 70
     0
 71
     1
 91
        1
 92
        7
 72
     0
 73
     1
 93
        4
 10
17.71207099999999
 20
6.355071999999999
 10
17.71207099999999
 20
6.435071999999999
 10
17.59707099999999
 20
6.435071999999999
 10
17.59707099999999
 20
6.355071999999999
 97
        3
330
921
330
803
330
91C
 75
     0
 76
     1
 52
0.0
 41
0.375
 77
     0
 78
     2
 53
0.0
 43
0.0
 44
0.0
 45
0.046875
 46
0.046875
 79
     2
 49
0.046875
 49
-0.046875
 53
90.0
 43
0.046875
 44
0.0
 45
-0.046875
 46
0.046875
 79
     2
 49
0.046875
 49
-0.046875
 47
0.0044986690352553
 98
        1
 10
17.66272903464694
 20
6.389348758656176
  0
HATCH
  5
D74
330
1E
100
AcDbEntity
  8
OBJECT
 62
   221
100
AcDbHatch
 10
0.0
 20
0.0
 30
0.0
210
0.0
220
0.0
230
1.0
  2
ZIGZAG
 70
     0
 71
     1
 91
        1
 92
        7
 72
     0
 73
     1
 93
        4
 10
20.56290494062497
 20
11.731449
 10
20.56290494062497
 20
12.051449
 10
20.10290494062496
 20
12.05144899999999
 10
20.10290494062496
 20
11.731449
 97
        3
330
917
330
827
330
912
 75
     0
 76
     1
 52
0.0
 41
1.0
 77
     0
 78
     2
 53
0.0
 43
1.503744940624969
 44
0.0
 45
0.125
 46
0.125
 79
     2
 49
0.125
 49
-0.125
 53
90.0
 43
1.628744940624969
 44
0.0
 45
-0.125
 46
0.125
 79
     2
 49
0.125
 49
-0.125
 47
0.00431690459114
 98
        1
 10
20.30758115957929
 20
11.87686155164608
  0
LINE
  5
D75
102
{ACAD_REACTORS
330
D9D
102
}
330
1E
100
AcDbEntity
  8
OBJECT
100
AcDbLine
 10
17.87107099999999
 20
4.597071999999998
 30
0.0
 11
17.87107099999999
 21
4.907072
 31
0.0
  0
HATCH
  5
D9D
330
1E
100
AcDbEntity
  8
OBJECT
 62
   151
100
AcDbHatch
 10
0.0
 20
0.0
 30
0.0
210
0.0
220
0.0
230
1.0
  2
ANSI31
 70
     0
 71
     1
 91
        3
 92
        7
 72
     1
 73
     1
 93
        7
 10
17.92857099999999
 20
4.516072
 42
0.4142135623730951
 10
17.99107099999999
 20
4.578572
 42
0.0
 10
17.99107099999999
 20
4.597072
 42
0.0
 10
17.871071
 20
4.597071999999998
 42
0.0
 10
17.87107099999999
 20
4.666133999999999
 42
0.0
 10
17.597071
 20
4.666134
 42
0.0
 10
17.597071
 20
4.516072
 42
0.0
 97
        7
330
805
330
824
330
D75
330
7FF
330
803
330
804
330
802
 92
        7
 72
     1
 73
     1
 93
       12
 10
17.87107099999998
 20
4.907072
 42
0.0
 10
17.99107099999999
 20
4.907072
 42
0.0
 10
17.99107099999999
 20
5.25184768636754
 42
0.0621456100336742
 10
17.873071
 20
5.283870952896474
 42
0.0
 10
17.873071
 20
5.028008999999999
 42
0.0
 10
17.59707099999999
 20
5.028008999999999
 42
0.0
 10
17.59707099999999
 20
4.988008999999999
 42
0.0
 10
17.71207099999999
 20
4.988008999999999
 42
0.0
 10
17.71207099999999
 20
4.908008999999998
 42
0.0
 10
17.59707099999999
 20
4.908008999999998
 42
0.0
 10
17.59707099999999
 20
4.838008999999998
 42
0.0
 10
17.87107099999999
 20
4.838008999999999
 42
0.0
 97
       10
330
64A
330
7FD
330
801
330
803
330
92A
330
925
330
800
330
D75
330
823
330
805
 92
        7
 72
     1
 73
     1
 93
       11
 10
17.873071
 20
5.283870952896473
 42
-0.0621456100336723
 10
17.99107099999999
 20
5.25184768636754
 42
0.0
 10
17.99107099999999
 20
6.422571999999999
 42
0.4142135623730951
 10
17.92857099999999
 20
6.485071999999999
 42
0.0
 10
17.59707099999999
 20
6.485071999999999
 42
0.0
 10
17.59707099999999
 20
6.435071999999999
 42
0.0
 10
17.71207099999999
 20
6.435071999999999
 42
0.0
 10
17.71207099999999
 20
6.355071999999999
 42
0.0
 10
17.59707099999999
 20
6.355071999999999
 42
0.0
 10
17.597071
 20
6.315071999999999
 42
0.0
 10
17.873071
 20
6.315071999999998
 42
0.0
 97
        9
330
7FC
330
7FB
330
803
330
921
330
91C
330
7FA
330
7FD
330
64A
330
805
 75
     0
 76
     1
 52
0.0
 41
0.625
 77
     0
 78
     1
 53
45.0
 43
0.0
 44
0.0
 45
-0.055242717280199
 46
0.055242717280199
 79
     0
 47
0.0049526078995165
 98
        3
 10
17.74737088220963
 20
4.570295521322307
 10
17.86632955386358
 20
4.956598929769079
 10
17.93076550100946
 20
5.437001918666901
  0
HATCH
  5
DD4
330
1E
100
AcDbEntity
  8
OBJECT
 62
   151
100
AcDbHatch
 10
0.0
 20
0.0
 30
0.0
210
0.0
220
0.0
230
1.0
  2
ANSI31
 70
     0
 71
     1
 91
        3
 92
        7
 72
     1
 73
     1
 93
        9
 10
9.237861999999999
 20
6.405321999999999
 42
0.0
 10
9.237861999999999
 20
6.422571999999999
 42
0.4142135623730951
 10
9.175361999999999
 20
6.485071999999999
 42
0.0
 10
8.292862000000001
 20
6.485072
 42
0.0
 10
8.292861999999999
 20
6.465071999999999
 42
0.0
 10
8.252862
 20
6.465072000000001
 42
0.0
 10
8.252861999999998
 20
6.374071999999999
 42
0.0
 10
8.567861999999999
 20
6.374071999999999
 42
0.0
 10
8.567861999999999
 20
6.405321999999999
 42
0.0
 97
        9
330
559
330
54A
330
562
330
54B
330
55D
330
55C
330
556
330
549
330
55B
 92
        7
 72
     0
 73
     1
 93
       22
 10
9.148861999999999
 20
6.033383999999999
 10
9.148861999999999
 20
5.835072
 10
9.020861999999999
 20
5.835072
 10
9.020861999999999
 20
5.544071999999999
 10
9.176861999999999
 20
5.544071999999999
 10
9.176861999999999
 20
5.457072000000001
 10
9.020861999999999
 20
5.457072
 10
9.020861999999999
 20
5.166071999999999
 10
9.148861999999999
 20
5.166071999999998
 10
9.148861999999999
 20
4.967759
 10
8.192861999999998
 20
4.967759
 10
8.192861999999998
 20
4.928008999999999
 10
9.119861999999999
 20
4.928008999999999
 10
9.119861999999999
 20
4.838008999999999
 10
9.237862000000001
 20
4.838009
 10
9.237861999999999
 20
6.092821999999999
 10
8.567861999999999
 20
6.092822
 10
8.567861999999999
 20
6.124071999999999
 10
8.252862000000002
 20
6.124071999999999
 10
8.252862
 20
6.072332999999999
 10
8.192861999999999
 20
6.072333000000001
 10
8.192861999999999
 20
6.033383999999998
 97
       20
330
555
330
55C
330
55E
330
54B
330
558
330
548
330
557
330
547
330
563
330
55A
330
565
330
567
330
566
330
564
330
5A7
330
54C
330
5A5
330
551
330
54F
330
549
 92
        7
 72
     1
 73
     1
 93
        9
 10
9.175361999999999
 20
4.516072
 42
0.4142135623730951
 10
9.237861999999999
 20
4.578572
 42
0.0
 10
9.237862000000001
 20
4.666133999999999
 42
0.0
 10
9.119861999999999
 20
4.666133999999999
 42
0.0
 10
9.119861999999999
 20
4.581071999999999
 42
0.0
 10
8.252861999999998
 20
4.581071999999999
 42
0.0
 10
8.252862
 20
4.536071999999998
 42
0.0
 10
8.292861999999999
 20
4.536071999999999
 42
0.0
 10
8.292862000000001
 20
4.516072
 42
0.0
 97
        9
330
549
330
550
330
551
330
54D
330
5A6
330
554
330
594
330
54E
330
552
 75
     0
 76
     1
 52
0.0
 41
0.625
 77
     0
 78
     1
 53
45.0
 43
0.0
 44
0.0
 45
-0.055242717280199
 46
0.055242717280199
 79
     0
 47
0.0052252285650282
 98
        3
 10
8.760191998905824
 20
6.443017422957552
 10
8.64514401597448
 20
6.051125271924007
 10
8.681750207970736
 20
4.546259423617541
  0
HATCH
  5
DE2
330
1E
100
AcDbEntity
  8
OBJECT
 62
   221
100
AcDbHatch
 10
0.0
 20
0.0
 30
0.0
210
0.0
220
0.0
230
1.0
  2
ANSI32
 70
     0
 71
     1
 91
        2
 92
        7
 72
     0
 73
     1
 93
        4
 10
8.567861999999999
 20
6.311571999999999
 10
8.567862000000001
 20
6.374072
 10
8.252862
 20
6.374071999999999
 10
8.252862
 20
6.311572
 97
        4
330
55D
330
54B
330
560
330
55C
 92
        7
 72
     0
 73
     1
 93
        4
 10
8.567861999999999
 20
6.124071999999999
 10
8.567861999999999
 20
6.186572
 10
8.252862000000002
 20
6.186572
 10
8.252862000000002
 20
6.124071999999999
 97
        4
330
55F
330
54B
330
55E
330
55C
 75
     0
 76
     1
 52
89.99998127603165
 41
0.25
 77
     0
 78
     2
 53
134.9999812760316
 43
0.0
 44
0.0
 45
-0.066291282399881
 46
-0.0662912390725896
 79
     0
 53
134.9999812760316
 43
0.0000000144424304
 44
0.0441941737499977
 45
-0.066291282399881
 46
-0.0662912390725896
 79
     0
 47
0.0015738640603757
 98
        2
 10
8.346403619222144
 20
6.331934111969751
 10
8.384206897754197
 20
6.149365860328735
  0
LINE
  5
DE5
330
1E
100
AcDbEntity
  8
OBJECT
100
AcDbLine
 10
21.19890494062497
 20
10.253949
 30
0.0
 11
21.19890494062496
 21
11.49394899999999
 31
0.0
  0
LEADER
  5
E37
330
1E
100
AcDbEntity
  8
DIM
100
AcDbLeader
  3
23NSTD
 73
     0
 75
     1
 40
0.5
 41
1.96875
 76
     3
 10
20.10290494062497
 20
12.0
 30
0.0
 10
19.48650885253286
 20
13.14118423676564
 30
0.0
 10
19.21650885253286
 20
13.14118423676564
 30
0.0
340
E38
213
0.0
223
-0.09375
233
0.0
1001
ACAD
1000
DSTYLE
1002
{
1070
   147
1040
0.09
1070
    77
1070
     0
1002
}
  0
MTEXT
  5
E38
102
{ACAD_REACTORS
330
E37
102
}
330
1E
100
AcDbEntity
  8
DIM
100
AcDbMText
 10
19.08150885253286
 20
13.23493423676564
 30
0.0
 40
0.1875
 41
0.0
 71
     3
 72
     1
  1
\A1;SILICONE GASKET\P(CLEAR)
 73
     1
 44
1.0
  0
SPLINE
  5
E39
330
1E
100
AcDbEntity
  8
OBJECT
100
AcDbSpline
210
0.0
220
0.0
230
1.0
 70
     8
 71
     3
 72
    12
 73
     8
 74
     0
 42
0.0000000001
 43
0.0000000001
 40
0.0
 40
0.0
 40
0.0
 40
0.0
 40
0.358032713119948
 40
0.6795383723797968
 40
1.146951837486475
 40
1.505149255794773
 40
1.703784790804564
 40
1.703784790804564
 40
1.703784790804564
 40
1.703784790804564
 10
20.10290494062497
 20
13.083126
 30
0.0
 10
20.21327568250024
 20
13.16618617321773
 30
0.0
 10
20.4227569716224
 20
13.32383259168635
 30
0.0
 10
20.75510017661282
 20
12.95284654211653
 30
0.0
 10
21.14684521324453
 20
13.34148466949986
 30
0.0
 10
21.44863829001059
 20
13.01819688939721
 30
0.0
 10
21.618090258055
 20
13.0583691466765
 30
0.0
 10
21.67890494062497
 20
13.08743012674259
 30
0.0
  0
HATCH
  5
E53
330
1E
100
AcDbEntity
  8
OBJECT
 62
   151
100
AcDbHatch
 10
0.0
 20
0.0
 30
0.0
210
0.0
220
0.0
230
1.0
  2
ANSI31
 70
     0
 71
     0
 91
        2
 92
        7
 72
     1
 73
     1
 93
        7
 10
21.67890494062497
 20
10.248949
 42
0.0
 10
21.67890494062497
 20
10.253949
 42
0.0
 10
21.19890494062497
 20
10.253949
 42
0.0
 10
21.19890494062497
 20
10.530199
 42
0.0
 10
20.10290494062497
 20
10.530199
 42
0.0
 10
20.10290494062497
 20
9.998948999999999
 42
0.0
 10
21.42890494062497
 20
9.998948999999999
 42
0.4142135623731014
 97
        0
 92
        5
 93
       12
 72
     4
 94
        3
 73
     0
 74
     0
 95
        9
 96
        5
 40
1.184403082592629
 40
1.184403082592629
 40
1.184403082592629
 40
1.184403082592629
 40
1.38303861760242
 40
1.703784790804564
 40
1.703784790804564
 40
1.703784790804564
 40
1.703784790804564
 10
21.67890494062497
 20
13.08743012674259
 10
21.618090258055
 20
13.0583691466765
 10
21.4600352218034
 20
13.02089877879666
 10
21.30666235575685
 20
13.17128766794749
 10
21.20690494062472
 20
13.19863028036567
 72
     1
 10
21.20690494062496
 20
13.19863028036558
 11
21.20690494062497
 21
12.211449
 72
     1
 10
21.20690494062497
 20
12.211449
 11
20.10290494062497
 21
12.211449
 72
     1
 10
20.10290494062497
 20
12.211449
 11
20.10290494062496
 21
12.05144899999999
 72
     1
 10
20.10290494062496
 20
12.05144899999999
 11
20.56290494062497
 21
12.051449
 72
     1
 10
20.56290494062497
 20
12.051449
 11
20.56290494062497
 21
11.731449
 72
     1
 10
20.56290494062497
 20
11.731449
 11
20.10290494062497
 21
11.731449
 72
     1
 10
20.10290494062497
 20
11.731449
 11
20.10290494062496
 21
11.217699
 72
     1
 10
20.10290494062496
 20
11.217699
 11
21.19890494062496
 21
11.217699
 72
     1
 10
21.19890494062496
 20
11.217699
 11
21.19890494062496
 21
11.493949
 72
     1
 10
21.19890494062496
 20
11.493949
 11
21.67890494062497
 21
11.493949
 72
     1
 10
21.67890494062497
 20
11.493949
 11
21.67890494062497
 21
13.08743012674258
 97
        0
 75
     0
 76
     1
 52
0.0
 41
1.5
 77
     0
 78
     1
 53
45.0
 43
1.503744940624969
 44
0.0
 45
-0.1325825214724776
 46
0.1325825214724777
 79
     0
 47
0.0074061935127552
 98
        2
 10
20.66771568117857
 20
10.16877008177466
 10
20.86043239675198
 20
11.58335307144022
  0
LEADER
  5
E54
330
1E
100
AcDbEntity
  8
DIM
100
AcDbLeader
  3
23NSTD
 73
     0
 74
     0
 75
     1
 40
0.1875
 41
1.78125
 76
     3
 10
18.28252578803024
 20
4.674299375594439
 30
0.0
 10
18.76036036155438
 20
4.1876043062706
 30
0.0
 10
19.03036036155438
 20
4.1876043062706
 30
0.0
340
E55
213
0.0
223
-0.09375
233
0.0
1001
ACAD
1000
DSTYLE
1002
{
1070
   147
1040
0.09
1070
    77
1070
     0
1002
}
  0
MTEXT
  5
E55
102
{ACAD_REACTORS
330
E54
102
}
330
1E
100
AcDbEntity
  8
DIM
100
AcDbMText
 10
19.16536036155438
 20
4.2813543062706
 30
0.0
 40
0.1875
 41
0.0
 71
     1
 72
     1
  1
\A1;SEE DETAIL "D"
 73
     1
 44
1.0
  0
LEADER
  5
E56
330
1E
100
AcDbEntity
  8
DIM
100
AcDbLeader
  3
23NSTD
 73
     0
 75
     1
 40
0.8125000000000001
 41
2.015625
 76
     3
 10
4.220508999999999
 20
4.649763
 30
0.0
 10
3.478639205055741
 20
3.406986661080281
 30
0.0
 10
3.208639205055741
 20
3.406986661080281
 30
0.0
340
E57
213
0.0
223
-0.09375
233
0.0
1001
ACAD
1000
DSTYLE
1002
{
1070
   147
1040
0.09
1070
    77
1070
     0
1002
}
  0
MTEXT
  5
E57
102
{ACAD_REACTORS
330
E56
102
}
330
1E
100
AcDbEntity
  8
DIM
100
AcDbMText
 10
3.073639205055741
 20
3.500736661080281
 30
0.0
 40
0.1875
 41
0.0
 71
     3
 72
     1
  1
\A1;M4 x 0.315 LG.\PTHREADED INSERT\P(2) PLACES
 73
     1
 44
1.0
  0
LEADER
  5
E59
330
1E
100
AcDbEntity
  8
DIM
100
AcDbLeader
  3
23NSTD
 73
     0
 74
     0
 75
     1
 40
1.125
 41
5.4140625
 76
     3
 10
9.008403313934358
 20
11.526517
 30
0.0
 10
9.835845004850897
 20
11.87514634995942
 30
0.0
 10
10.10584500485089
 20
11.87514634995942
 30
0.0
340
E5A
213
0.0
223
-0.09375
233
0.0
1001
ACAD
1000
DSTYLE
1002
{
1070
   147
1040
0.09
1070
    77
1070
     0
1002
}
  0
MTEXT
  5
E5A
102
{ACAD_REACTORS
330
E59
102
}
330
1E
100
AcDbEntity
  8
DIM
100
AcDbMText
 10
10.24084500485089
 20
11.96889634995943
 30
0.0
 40
0.1875
 41
0.0
 71
     1
 72
     1
  1
\A1;0.090 DIA. HOLE x 0.156 DEEP\PMOUNTING BOSSES USE EITHER M2.5 METRIC\POR #4 STD. SHEET METAL SCREWS x 0.188 LG.\P(NOT SUPPLIED)
 73
     1
 44
1.0
  0
LEADER
  5
E5B
330
1E
100
AcDbEntity
  8
DIM
100
AcDbLeader
  3
23NSTD
 73
     0
 75
     1
 40
0.1875
 41
1.78125
 76
     3
 10
4.593063999999999
 20
5.753491999999999
 30
0.0
 10
3.396128675548598
 20
7.004283922209054
 30
0.0
 10
3.126128675548598
 20
7.004283922209054
 30
0.0
340
E5C
213
0.0
223
-0.09375
233
0.0
1001
ACAD
1000
DSTYLE
1002
{
1070
   147
1040
0.09
1070
    77
1070
     0
1002
}
  0
MTEXT
  5
E5C
102
{ACAD_REACTORS
330
E5B
102
}
330
1E
100
AcDbEntity
  8
DIM
100
AcDbMText
 10
2.991128675548598
 20
7.098033922209054
 30
0.0
 40
0.1875
 41
0.0
 71
     3
 72
     1
  1
\A1;SEE DETAIL "C"
 73
     1
 44
1.0
  0
INSERT
  5
E7F
330
1E
100
AcDbEntity
  8
TEXT
100
AcDbBlockReference
  2
HBS
 10
0.0
 20
0.0
 30
0.0
 41
1.5
 42
1.5
 43
1.5
  0
TEXT
  5
E80
330
1E
100
AcDbEntity
  8
TEXT
100
AcDbText
 10
4.394156250000008
 20
14.9683125
 30
0.0
 40
0.234375
  1
NEMA 4X ENCLOSURE
 41
0.75
 72
     4
 11
5.859000000000008
 21
15.0855
 31
0.0
100
AcDbText
  0
TEXT
  5
E82
330
1E
100
AcDbEntity
  8
TEXT
100
AcDbText
 10
22.94120428728751
 20
14.96831250000001
 30
0.0
 40
0.234375
  1
11-17-08
 41
0.75
 72
     4
 11
23.51249334978751
 21
15.08550000000001
 31
0.0
100
AcDbText
  0
LWPOLYLINE
  5
E8C
330
1E
100
AcDbEntity
  8
HIDDEN
100
AcDbPolyline
 90
        4
 70
     0
 43
0.0
 10
12.160612
 20
6.404072
 10
12.28061199999999
 20
6.404072
 10
12.28061199999999
 20
6.094071999999999
 10
12.160612
 20
6.094071999999999
  0
LWPOLYLINE
  5
E8D
330
1E
100
AcDbEntity
  8
HIDDEN
100
AcDbPolyline
 90
        4
 70
     0
 43
0.0
 10
12.160612
 20
4.597071999999999
 10
12.28061199999999
 20
4.597071999999999
 10
12.28061199999999
 20
4.907072
 10
12.160612
 20
4.907072
  0
ENDSEC
  0
SECTION
  2
OBJECTS
  0
DICTIONARY
  5
C
330
0
100
AcDbDictionary
281
     1
  3
ACAD_GROUP
350
D
  3
ACAD_LAYOUT
350
19
  3
ACAD_MLINESTYLE
350
16
  3
ACAD_PLOTSETTINGS
350
18
  3
ACAD_PLOTSTYLENAME
350
E
  3
AcadDim
350
E36
  3
AcDbVariableDictionary
350
D04
  0
DICTIONARY
  5
D
102
{ACAD_REACTORS
330
C
102
}
330
C
100
AcDbDictionary
281
     1
  0
DICTIONARY
  5
19
102
{ACAD_REACTORS
330
C
102
}
330
C
100
AcDbDictionary
281
     1
  3
Layout1
350
1D
  3
Model
350
21
  0
DICTIONARY
  5
16
102
{ACAD_REACTORS
330
C
102
}
330
C
100
AcDbDictionary
281
     1
  3
Standard
350
17
  0
DICTIONARY
  5
18
102
{ACAD_REACTORS
330
C
102
}
330
C
100
AcDbDictionary
281
     1
  0
ACDBDICTIONARYWDFLT
  5
E
102
{ACAD_REACTORS
330
C
102
}
330
C
100
AcDbDictionary
281
     1
  3
Normal
350
F
100
AcDbDictionaryWithDefault
340
F
  0
XRECORD
  5
E36
102
{ACAD_REACTORS
330
C
102
}
330
C
100
AcDbXrecord
280
     1
 90
   990106
  3

 60
     0
 61
     0
 62
     1
 63
     1
 64
     0
 65
     0
 66
     0
 67
     3
 68
     1
 69
     0
 70
     0
 71
     0
 72
     0
 40
0.0
170
     2
340
E5C
  0
DICTIONARY
  5
D04
102
{ACAD_REACTORS
330
C
102
}
330
C
100
AcDbDictionary
281
     1
  3
SORTENTS
350
D05
  0
LAYOUT
  5
1D
102
{ACAD_REACTORS
330
19
102
}
330
19
100
AcDbPlotSettings
  1

  2
C:\Program Files\ACAD2000\plotters\RICOH Aficio 1060 RPCS.pc3
  4

  6

 40
0.0
 41
0.0
 42
0.0
 43
0.0
 44
0.0
 45
0.0
 46
0.0
 47
0.0
 48
0.0
 49
0.0
140
0.0
141
0.0
142
1.0
143
1.0
 70
   688
 72
     0
 73
     0
 74
     5
  7
monochrome.ctb
 75
    16
147
1.0
148
0.0
149
0.0
100
AcDbLayout
  1
Layout1
 70
     1
 71
     1
 10
0.0
 20
0.0
 11
12.0
 21
9.0
 12
0.0
 22
0.0
 32
0.0
 14
1.000000000000000E+20
 24
1.000000000000000E+20
 34
1.000000000000000E+20
 15
-1.000000000000000E+20
 25
-1.000000000000000E+20
 35
-1.000000000000000E+20
146
0.0
 13
0.0
 23
0.0
 33
0.0
 16
1.0
 26
0.0
 36
0.0
 17
0.0
 27
1.0
 37
0.0
 76
     0
330
1A
  0
LAYOUT
  5
21
102
{ACAD_REACTORS
330
19
102
}
330
19
100
AcDbPlotSettings
  1

  2
Acrobat PDFWriter
  4
Tabloid
  6

 40
3.174999952316284
 41
3.174999952316284
 42
3.17498779296875
 43
3.17498779296875
 44
431.8000183105469
 45
279.3999938964843
 46
0.0
 47
4.064
 48
0.0
 49
0.0
140
0.0
141
0.0
142
1.0
143
1.486657790233592
 70
 11956
 72
     0
 73
     0
 74
     1
  7
monochrome.ctb
 75
     0
147
0.6726497560967776
148
0.0192996749227362
149
0.0120076531687794
100
AcDbLayout
  1
Model
 70
     1
 71
     0
 10
0.0
 20
0.0
 11
12.0
 21
9.0
 12
0.0
 22
0.0
 32
0.0
 14
0.0
 24
0.0
 34
0.0
 15
0.0
 25
0.0
 35
0.0
146
0.0
 13
0.0
 23
0.0
 33
0.0
 16
1.0
 26
0.0
 36
0.0
 17
0.0
 27
1.0
 37
0.0
 76
     0
330
1E
  0
MLINESTYLE
  5
17
102
{ACAD_REACTORS
330
16
102
}
330
16
100
AcDbMlineStyle
  2
STANDARD
 70
     0
  3

 62
   256
 51
90.0
 52
90.0
 71
     2
 49
0.5
 62
   256
  6
BYLAYER
 49
-0.5
 62
   256
  6
BYLAYER
  0
ACDBPLACEHOLDER
  5
F
102
{ACAD_REACTORS
330
E
102
}
330
E
  0
DICTIONARYVAR
  5
D05
102
{ACAD_REACTORS
330
D04
102
}
330
D04
100
DictionaryVariables
280
     0
  1
96
  0
ENDSEC
  0
EOF
