  0
SECTION
  2
HEADER
  9
$ACADVER
  1
AC1015
  9
$ACADMAINTVER
 70
     6
  9
$DWGCODEPAGE
  3
ANSI_1252
  9
$INSBASE
 10
0.0
 20
0.0
 30
0.0
  9
$EXTMIN
 10
0.0
 20
0.0
 30
0.0
  9
$EXTMAX
 10
34.0
 20
22.0
 30
0.0
  9
$LIMMIN
 10
0.0
 20
0.0
  9
$LIMMAX
 10
34.0
 20
22.0
  9
$ORTHOMODE
 70
     0
  9
$REGENMODE
 70
     1
  9
$FILLMODE
 70
     1
  9
$QTEXTMODE
 70
     0
  9
$MIRRTEXT
 70
     1
  9
$LTSCALE
 40
2.0
  9
$ATTMODE
 70
     1
  9
$TEXTSIZE
 40
0.25
  9
$TRACEWID
 40
0.05
  9
$TEXTSTYLE
  7
Standard
  9
$CLAYER
  8
0
  9
$CELTYPE
  6
ByLayer
  9
$CECOLOR
 62
   256
  9
$CELTSCALE
 40
1.0
  9
$DISPSILH
 70
     0
  9
$DIMSCALE
 40
1.0
  9
$DIMASZ
 40
0.26
  9
$DIMEXO
 40
0.1
  9
$DIMDLI
 40
0.38
  9
$DIMRND
 40
0.0
  9
$DIMDLE
 40
0.0
  9
$DIMEXE
 40
0.25
  9
$DIMTP
 40
0.0
  9
$DIMTM
 40
0.0
  9
$DIMTXT
 40
0.25
  9
$DIMCEN
 40
0.09
  9
$DIMTSZ
 40
0.0
  9
$DIMTOL
 70
     0
  9
$DIMLIM
 70
     0
  9
$DIMTIH
 70
     1
  9
$DIMTOH
 70
     1
  9
$DIMSE1
 70
     0
  9
$DIMSE2
 70
     0
  9
$DIMTAD
 70
     1
  9
$DIMZIN
 70
     0
  9
$DIMBLK
  1

  9
$DIMASO
 70
     1
  9
$DIMSHO
 70
     1
  9
$DIMPOST
  1

  9
$DIMAPOST
  1

  9
$DIMALT
 70
     0
  9
$DIMALTD
 70
     2
  9
$DIMALTF
 40
25.4
  9
$DIMLFAC
 40
1.0
  9
$DIMTOFL
 70
     0
  9
$DIMTVP
 40
0.0
  9
$DIMTIX
 70
     0
  9
$DIMSOXD
 70
     0
  9
$DIMSAH
 70
     0
  9
$DIMBLK1
  1

  9
$DIMBLK2
  1

  9
$DIMSTYLE
  2
Standard
  9
$DIMCLRD
 70
     0
  9
$DIMCLRE
 70
     0
  9
$DIMCLRT
 70
     0
  9
$DIMTFAC
 40
1.0
  9
$DIMGAP
 40
0.12
  9
$DIMJUST
 70
     0
  9
$DIMSD1
 70
     0
  9
$DIMSD2
 70
     0
  9
$DIMTOLJ
 70
     1
  9
$DIMTZIN
 70
     0
  9
$DIMALTZ
 70
     0
  9
$DIMALTTZ
 70
     0
  9
$DIMUPT
 70
     0
  9
$DIMDEC
 70
     2
  9
$DIMTDEC
 70
     2
  9
$DIMALTU
 70
     2
  9
$DIMALTTD
 70
     2
  9
$DIMTXSTY
  7
Standard
  9
$DIMAUNIT
 70
     0
  9
$DIMADEC
 70
     2
  9
$DIMALTRND
 40
0.0
  9
$DIMAZIN
 70
     0
  9
$DIMDSEP
 70
    46
  9
$DIMATFIT
 70
     3
  9
$DIMFRAC
 70
     0
  9
$DIMLDRBLK
  1

  9
$DIMLUNIT
 70
     2
  9
$DIMLWD
 70
    -2
  9
$DIMLWE
 70
    -2
  9
$DIMTMOVE
 70
     0
  9
$LUNITS
 70
     2
  9
$LUPREC
 70
     2
  9
$SKETCHINC
 40
0.1
  9
$FILLETRAD
 40
0.5
  9
$AUNITS
 70
     0
  9
$AUPREC
 70
     2
  9
$MENU
  1
.
  9
$ELEVATION
 40
0.0
  9
$PELEVATION
 40
0.0
  9
$THICKNESS
 40
0.0
  9
$LIMCHECK
 70
     0
  9
$CHAMFERA
 40
0.5
  9
$CHAMFERB
 40
0.5
  9
$CHAMFERC
 40
1.0
  9
$CHAMFERD
 40
0.0
  9
$SKPOLY
 70
     0
  9
$TDCREATE
 40
2455761.376729421
  9
$TDUCREATE
 40
2455761.543396088
  9
$TDUPDATE
 40
2455761.376729433
  9
$TDUUPDATE
 40
2455761.543396099
  9
$TDINDWG
 40
0.0000000116
  9
$TDUSRTIMER
 40
0.0000000116
  9
$USRTIMER
 70
     1
  9
$ANGBASE
 50
0.0
  9
$ANGDIR
 70
     0
  9
$PDMODE
 70
     0
  9
$PDSIZE
 40
-1.0
  9
$PLINEWID
 40
0.0
  9
$SPLFRAME
 70
     0
  9
$SPLINETYPE
 70
     6
  9
$SPLINESEGS
 70
     8
  9
$HANDSEED
  5
387
  9
$SURFTAB1
 70
     6
  9
$SURFTAB2
 70
     6
  9
$SURFTYPE
 70
     6
  9
$SURFU
 70
     6
  9
$SURFV
 70
     6
  9
$UCSBASE
  2

  9
$UCSNAME
  2

  9
$UCSORG
 10
0.0
 20
0.0
 30
0.0
  9
$UCSXDIR
 10
1.0
 20
0.0
 30
0.0
  9
$UCSYDIR
 10
0.0
 20
1.0
 30
0.0
  9
$UCSORTHOREF
  2

  9
$UCSORTHOVIEW
 70
     0
  9
$UCSORGTOP
 10
0.0
 20
0.0
 30
0.0
  9
$UCSORGBOTTOM
 10
0.0
 20
0.0
 30
0.0
  9
$UCSORGLEFT
 10
0.0
 20
0.0
 30
0.0
  9
$UCSORGRIGHT
 10
0.0
 20
0.0
 30
0.0
  9
$UCSORGFRONT
 10
0.0
 20
0.0
 30
0.0
  9
$UCSORGBACK
 10
0.0
 20
0.0
 30
0.0
  9
$PUCSBASE
  2

  9
$PUCSNAME
  2

  9
$PUCSORG
 10
0.0
 20
0.0
 30
0.0
  9
$PUCSXDIR
 10
1.0
 20
0.0
 30
0.0
  9
$PUCSYDIR
 10
0.0
 20
1.0
 30
0.0
  9
$PUCSORTHOREF
  2

  9
$PUCSORTHOVIEW
 70
     0
  9
$PUCSORGTOP
 10
0.0
 20
0.0
 30
0.0
  9
$PUCSORGBOTTOM
 10
0.0
 20
0.0
 30
0.0
  9
$PUCSORGLEFT
 10
0.0
 20
0.0
 30
0.0
  9
$PUCSORGRIGHT
 10
0.0
 20
0.0
 30
0.0
  9
$PUCSORGFRONT
 10
0.0
 20
0.0
 30
0.0
  9
$PUCSORGBACK
 10
0.0
 20
0.0
 30
0.0
  9
$USERI1
 70
     0
  9
$USERI2
 70
     0
  9
$USERI3
 70
     0
  9
$USERI4
 70
     0
  9
$USERI5
 70
     0
  9
$USERR1
 40
0.0
  9
$USERR2
 40
0.0
  9
$USERR3
 40
0.0
  9
$USERR4
 40
0.0
  9
$USERR5
 40
0.0
  9
$WORLDVIEW
 70
     1
  9
$SHADEDGE
 70
     3
  9
$SHADEDIF
 70
    70
  9
$TILEMODE
 70
     1
  9
$MAXACTVP
 70
    64
  9
$PINSBASE
 10
0.0
 20
0.0
 30
0.0
  9
$PLIMCHECK
 70
     0
  9
$PEXTMIN
 10
1.0000000000E+20
 20
1.0000000000E+20
 30
1.0000000000E+20
  9
$PEXTMAX
 10
-1.0000000000E+20
 20
-1.0000000000E+20
 30
-1.0000000000E+20
  9
$PLIMMIN
 10
0.0
 20
0.0
  9
$PLIMMAX
 10
12.0
 20
9.0
  9
$UNITMODE
 70
     0
  9
$VISRETAIN
 70
     1
  9
$PLINEGEN
 70
     0
  9
$PSLTSCALE
 70
     1
  9
$TREEDEPTH
 70
  3020
  9
$CMLSTYLE
  2
Standard
  9
$CMLJUST
 70
     0
  9
$CMLSCALE
 40
1.0
  9
$PROXYGRAPHICS
 70
     1
  9
$MEASUREMENT
 70
     0
  9
$CELWEIGHT
370
    -1
  9
$ENDCAPS
280
     0
  9
$JOINSTYLE
280
     0
  9
$LWDISPLAY
290
     1
  9
$INSUNITS
 70
     1
  9
$HYPERLINKBASE
  1

  9
$STYLESHEET
  1

  9
$XEDIT
290
     1
  9
$CEPSNTYPE
380
     0
  9
$PSTYLEMODE
290
     1
  9
$FINGERPRINTGUID
  2
{BD30106B-7633-4109-AFA1-E0D22D7F9671}
  9
$VERSIONGUID
  2
{FAEB1C32-E019-11D5-929B-00C0DF256EC4}
  9
$EXTNAMES
290
     1
  9
$PSVPSCALE
 40
0.0
  9
$OLESTARTUP
290
     0
  0
ENDSEC
  0
SECTION
  2
CLASSES
  0
CLASS
  1
ACDBDICTIONARYWDFLT
  2
AcDbDictionaryWithDefault
  3
ObjectDBX Classes
 90
        0
280
     0
281
     0
  0
CLASS
  1
VISUALSTYLE
  2
AcDbVisualStyle
  3
ObjectDBX Classes
 90
     4095
280
     0
281
     0
  0
CLASS
  1
MATERIAL
  2
AcDbMaterial
  3
ObjectDBX Classes
 90
     1153
280
     0
281
     0
  0
CLASS
  1
SCALE
  2
AcDbScale
  3
ObjectDBX Classes
 90
     1153
280
     0
281
     0
  0
CLASS
  1
DICTIONARYVAR
  2
AcDbDictionaryVar
  3
ObjectDBX Classes
 90
        0
280
     0
281
     0
  0
CLASS
  1
ACDBPLACEHOLDER
  2
AcDbPlaceHolder
  3
ObjectDBX Classes
 90
        0
280
     0
281
     0
  0
CLASS
  1
LAYOUT
  2
AcDbLayout
  3
ObjectDBX Classes
 90
        0
280
     0
281
     0
  0
ENDSEC
  0
SECTION
  2
TABLES
  0
TABLE
  2
VPORT
  5
8
330
0
100
AcDbSymbolTable
 70
     1
  0
VPORT
  5
29
330
8
100
AcDbSymbolTableRecord
100
AcDbViewportTableRecord
  2
*Active
 70
     0
 10
0.0
 20
0.0
 11
1.0
 21
1.0
 12
17.0
 22
11.0
 13
0.0
 23
0.0
 14
0.5
 24
0.5
 15
0.5
 25
0.5
 16
0.0
 26
0.0
 36
1.0
 17
0.0
 27
0.0
 37
0.0
 40
22.0
 41
1.5454545455
 42
50.0
 43
0.0
 44
0.0
 50
0.0
 51
0.0
 71
     0
 72
  2000
 73
     1
 74
     3
 75
     0
 76
     0
 77
     0
 78
     0
281
     0
 65
     1
110
0.0
120
0.0
130
0.0
111
1.0
121
0.0
131
0.0
112
0.0
122
1.0
132
0.0
 79
     0
146
0.0
  0
ENDTAB
  0
TABLE
  2
LTYPE
  5
5
330
0
100
AcDbSymbolTable
 70
     6
  0
LTYPE
  5
14
330
5
100
AcDbSymbolTableRecord
100
AcDbLinetypeTableRecord
  2
ByBlock
 70
     0
  3

 72
    65
 73
     0
 40
0.0
  0
LTYPE
  5
15
330
5
100
AcDbSymbolTableRecord
100
AcDbLinetypeTableRecord
  2
ByLayer
 70
     0
  3

 72
    65
 73
     0
 40
0.0
  0
LTYPE
  5
16
330
5
100
AcDbSymbolTableRecord
100
AcDbLinetypeTableRecord
  2
Continuous
 70
     0
  3
Solid line
 72
    65
 73
     0
 40
0.0
  0
LTYPE
  5
3F
330
5
100
AcDbSymbolTableRecord
100
AcDbLinetypeTableRecord
  2
HIDDEN
 70
     0
  3
Hidden __ __ __ __ __ __ __ __ __ __ __ __ __ __
 72
    65
 73
     2
 40
0.075
 49
0.05
 74
     0
 49
-0.025
 74
     0
  0
LTYPE
  5
40
330
5
100
AcDbSymbolTableRecord
100
AcDbLinetypeTableRecord
  2
PHANTOM
 70
     0
  3
Phantom ______  __  __  ______  __  __  ______
 72
    65
 73
     6
 40
0.5
 49
0.25
 74
     0
 49
-0.05
 74
     0
 49
0.05
 74
     0
 49
-0.05
 74
     0
 49
0.05
 74
     0
 49
-0.05
 74
     0
  0
LTYPE
  5
41
330
5
100
AcDbSymbolTableRecord
100
AcDbLinetypeTableRecord
  2
CENTER
 70
     0
  3
Center ____ _ ____ _ ____ _ ____ _ ____ _ ____
 72
    65
 73
     4
 40
0.4
 49
0.25
 74
     0
 49
-0.05
 74
     0
 49
0.05
 74
     0
 49
-0.05
 74
     0
  0
LTYPE
  5
42
330
5
100
AcDbSymbolTableRecord
100
AcDbLinetypeTableRecord
  2
CENTERX2
 70
     0
  3
Center (2x) ________  __  ________  __  _____
 72
    65
 73
     4
 40
0.8
 49
0.5
 74
     0
 49
-0.1
 74
     0
 49
0.1
 74
     0
 49
-0.1
 74
     0
  0
LTYPE
  5
43
330
5
100
AcDbSymbolTableRecord
100
AcDbLinetypeTableRecord
  2
DOT2
 70
     0
  3
Dot (.5x) ........................................
 72
    65
 73
     2
 40
0.025
 49
0.0
 74
     0
 49
-0.025
 74
     0
  0
ENDTAB
  0
TABLE
  2
LAYER
  5
2
330
0
100
AcDbSymbolTable
 70
     1
  0
LAYER
  5
10
330
2
100
AcDbSymbolTableRecord
100
AcDbLayerTableRecord
  2
0
 70
     0
 62
     7
  6
Continuous
370
    -3
390
F
  0
ENDTAB
  0
TABLE
  2
STYLE
  5
3
330
0
100
AcDbSymbolTable
 70
     2
  0
STYLE
  5
11
330
3
100
AcDbSymbolTableRecord
100
AcDbTextStyleTableRecord
  2
Standard
 70
     0
 40
0.0
 41
1.0
 50
0.0
 71
     0
 42
0.2
  3
txt
  4

  0
STYLE
  5
57
330
3
100
AcDbSymbolTableRecord
100
AcDbTextStyleTableRecord
  2
SLDTEXTSTYLE0
 70
     0
 40
0.0
 41
0.75
 50
0.0
 71
     0
 42
0.2
  3
TXT
  4

  0
ENDTAB
  0
TABLE
  2
VIEW
  5
6
330
0
100
AcDbSymbolTable
 70
     0
  0
ENDTAB
  0
TABLE
  2
UCS
  5
7
330
0
100
AcDbSymbolTable
 70
     0
  0
ENDTAB
  0
TABLE
  2
APPID
  5
9
330
0
100
AcDbSymbolTable
 70
     1
  0
APPID
  5
12
330
9
100
AcDbSymbolTableRecord
100
AcDbRegAppTableRecord
  2
ACAD
 70
     0
  0
ENDTAB
  0
TABLE
  2
DIMSTYLE
  5
A
330
0
100
AcDbSymbolTable
 70
     5
100
AcDbDimStyleTable
  0
DIMSTYLE
105
27
330
A
100
AcDbSymbolTableRecord
100
AcDbDimStyleTableRecord
  2
Standard
 70
     0
340
11
  0
DIMSTYLE
105
B7
102
{ACAD_REACTORS
330
B6
330
C9
330
130
330
228
330
23A
330
25D
102
}
330
A
100
AcDbSymbolTableRecord
100
AcDbDimStyleTableRecord
  2
SLDDIMSTYLE0
 70
     0
 41
0.26
 44
0.0
 45
0.000000001
 78
     4
140
0.25
147
0.0625
148
0.000000001
170
     1
173
     1
271
     2
272
     2
284
    12
340
57
  0
DIMSTYLE
105
E4
330
A
100
AcDbSymbolTableRecord
100
AcDbDimStyleTableRecord
  2
SLDDIMSTYLE1
 70
     0
 41
0.26
 44
0.0
 45
0.000000001
140
0.0
146
0.26
147
0.0
173
     1
271
     0
272
     0
340
11
  0
DIMSTYLE
105
24D
102
{ACAD_REACTORS
330
24C
102
}
330
A
100
AcDbSymbolTableRecord
100
AcDbDimStyleTableRecord
  2
SLDDIMSTYLE2
 70
     0
 41
0.26
 44
0.0
 45
0.000000001
 78
    12
140
0.25
147
0.0625
148
0.000000001
170
     1
172
     1
173
     1
271
     3
272
     3
284
    12
340
57
  0
DIMSTYLE
105
343
102
{ACAD_REACTORS
330
342
102
}
330
A
100
AcDbSymbolTableRecord
100
AcDbDimStyleTableRecord
  2
SLDDIMSTYLE3
 70
     0
 41
0.26
 44
0.0
 45
0.000000001
 78
     4
140
0.25
147
0.0625
148
0.000000001
170
     1
173
     1
271
     2
272
     2
284
    12
340
57
  0
ENDTAB
  0
TABLE
  2
BLOCK_RECORD
  5
1
330
0
100
AcDbSymbolTable
 70
    15
  0
BLOCK_RECORD
  5
1F
330
1
100
AcDbSymbolTableRecord
100
AcDbBlockTableRecord
  2
*Model_Space
340
22
  0
BLOCK_RECORD
  5
1B
330
1
100
AcDbSymbolTableRecord
100
AcDbBlockTableRecord
  2
*Paper_Space
340
1E
  0
BLOCK_RECORD
  5
23
330
1
100
AcDbSymbolTableRecord
100
AcDbBlockTableRecord
  2
*Paper_Space0
340
26
  0
BLOCK_RECORD
  5
54
330
1
100
AcDbSymbolTableRecord
100
AcDbBlockTableRecord
  2
SW_NOTE_0
340
0
102
{BLKREFS
331
7C
102
}
  0
BLOCK_RECORD
  5
80
330
1
100
AcDbSymbolTableRecord
100
AcDbBlockTableRecord
  2
SW_NOTE_1
340
0
102
{BLKREFS
331
85
102
}
  0
BLOCK_RECORD
  5
86
330
1
100
AcDbSymbolTableRecord
100
AcDbBlockTableRecord
  2
SW_NOTE_2
340
0
102
{BLKREFS
331
8B
102
}
  0
BLOCK_RECORD
  5
8C
330
1
100
AcDbSymbolTableRecord
100
AcDbBlockTableRecord
  2
SW_NOTE_3
340
0
102
{BLKREFS
331
91
102
}
  0
BLOCK_RECORD
  5
B8
330
1
100
AcDbSymbolTableRecord
100
AcDbBlockTableRecord
  2
*D5
340
0
  0
BLOCK_RECORD
  5
CA
330
1
100
AcDbSymbolTableRecord
100
AcDbBlockTableRecord
  2
*D6
340
0
  0
BLOCK_RECORD
  5
DB
330
1
100
AcDbSymbolTableRecord
100
AcDbBlockTableRecord
  2
SW_NOTE_4
340
0
102
{BLKREFS
331
E3
102
}
  0
BLOCK_RECORD
  5
131
330
1
100
AcDbSymbolTableRecord
100
AcDbBlockTableRecord
  2
*D8
340
0
  0
BLOCK_RECORD
  5
229
330
1
100
AcDbSymbolTableRecord
100
AcDbBlockTableRecord
  2
*D9
340
0
  0
BLOCK_RECORD
  5
23B
330
1
100
AcDbSymbolTableRecord
100
AcDbBlockTableRecord
  2
*D10
340
0
  0
BLOCK_RECORD
  5
24E
330
1
100
AcDbSymbolTableRecord
100
AcDbBlockTableRecord
  2
*D11
340
0
  0
BLOCK_RECORD
  5
25E
330
1
100
AcDbSymbolTableRecord
100
AcDbBlockTableRecord
  2
*D12
340
0
  0
BLOCK_RECORD
  5
344
330
1
100
AcDbSymbolTableRecord
100
AcDbBlockTableRecord
  2
*D13
340
0
  0
BLOCK_RECORD
  5
353
330
1
100
AcDbSymbolTableRecord
100
AcDbBlockTableRecord
  2
SW_NOTE_5
340
0
102
{BLKREFS
331
358
102
}
  0
ENDTAB
  0
ENDSEC
  0
SECTION
  2
BLOCKS
  0
BLOCK
  5
20
330
1F
100
AcDbEntity
  8
0
100
AcDbBlockBegin
  2
*Model_Space
 70
     0
 10
0.0
 20
0.0
 30
0.0
  3
*Model_Space
  1

  0
ENDBLK
  5
21
330
1F
100
AcDbEntity
  8
0
100
AcDbBlockEnd
  0
BLOCK
  5
1C
330
1B
100
AcDbEntity
 67
     1
  8
0
100
AcDbBlockBegin
  2
*Paper_Space
 70
     0
 10
0.0
 20
0.0
 30
0.0
  3
*Paper_Space
  1

  0
ENDBLK
  5
1D
330
1B
100
AcDbEntity
 67
     1
  8
0
100
AcDbBlockEnd
  0
BLOCK
  5
24
330
23
100
AcDbEntity
  8
0
100
AcDbBlockBegin
  2
*Paper_Space0
 70
     0
 10
0.0
 20
0.0
 30
0.0
  3
*Paper_Space0
  1

  0
ENDBLK
  5
25
330
23
100
AcDbEntity
  8
0
100
AcDbBlockEnd
  0
BLOCK
  5
55
330
54
100
AcDbEntity
  8
0
100
AcDbBlockBegin
  2
SW_NOTE_0
 70
     0
 10
0.0
 20
0.0
 30
0.0
  3
SW_NOTE_0
  1

  0
MTEXT
  5
7A
330
54
100
AcDbEntity
  8
0
  6
Continuous
 62
     0
 48
2.0
370
     0
100
AcDbMText
 10
0.0
 20
0.3222669349
 30
0.0
 40
0.25
 41
0.0
 71
     1
 72
     1
  1
MATERIAL - 16 GA. [1.5mm] STEEL
  7
SLDTEXTSTYLE0
 73
     1
 44
1.0
  0
MTEXT
  5
7B
330
54
100
AcDbEntity
  8
0
  6
Continuous
 62
     0
 48
2.0
370
     0
100
AcDbMText
 10
0.0
 20
-0.3352133631
 30
0.0
 40
0.25
 41
0.0
 71
     1
 72
     1
  1
FINISH - SMOOTH GRAY POWDERCOAT
  7
SLDTEXTSTYLE0
 73
     1
 44
1.0
  0
ENDBLK
  5
56
330
54
100
AcDbEntity
  8
0
100
AcDbBlockEnd
  0
BLOCK
  5
81
330
80
100
AcDbEntity
  8
0
100
AcDbBlockBegin
  2
SW_NOTE_1
 70
     0
 10
0.0
 20
0.0
 30
0.0
  3
SW_NOTE_1
  1

  0
MTEXT
  5
83
330
80
100
AcDbEntity
  8
0
  6
Continuous
 62
     0
 48
2.0
370
     0
100
AcDbMText
 10
0.0
 20
0.3222669349
 30
0.0
 40
0.25
 41
0.0
 71
     1
 72
     1
  1
PART
  7
SLDTEXTSTYLE0
 73
     1
 44
1.0
  0
MTEXT
  5
84
330
80
100
AcDbEntity
  8
0
  6
Continuous
 62
     0
 48
2.0
370
     0
100
AcDbMText
 10
-0.0932074599
 20
-0.0064732141
 30
0.0
 40
0.25
 41
0.0
 71
     1
 72
     1
  1
NAME
  7
SLDTEXTSTYLE0
 73
     1
 44
1.0
  0
ENDBLK
  5
82
330
80
100
AcDbEntity
  8
0
100
AcDbBlockEnd
  0
BLOCK
  5
87
330
86
100
AcDbEntity
  8
0
100
AcDbBlockBegin
  2
SW_NOTE_2
 70
     0
 10
0.0
 20
0.0
 30
0.0
  3
SW_NOTE_2
  1

  0
MTEXT
  5
89
330
86
100
AcDbEntity
  8
0
  6
Continuous
 62
     0
 48
2.0
370
     0
100
AcDbMText
 10
0.0
 20
0.3222669349
 30
0.0
 40
0.25
 41
0.0
 71
     1
 72
     1
  1
PART
  7
SLDTEXTSTYLE0
 73
     1
 44
1.0
  0
MTEXT
  5
8A
330
86
100
AcDbEntity
  8
0
  6
Continuous
 62
     0
 48
2.0
370
     0
100
AcDbMText
 10
0.1167534763
 20
-0.0064732141
 30
0.0
 40
0.25
 41
0.0
 71
     1
 72
     1
  1
No.
  7
SLDTEXTSTYLE0
 73
     1
 44
1.0
  0
ENDBLK
  5
88
330
86
100
AcDbEntity
  8
0
100
AcDbBlockEnd
  0
BLOCK
  5
8D
330
8C
100
AcDbEntity
  8
0
100
AcDbBlockBegin
  2
SW_NOTE_3
 70
     0
 10
0.0
 20
0.0
 30
0.0
  3
SW_NOTE_3
  1

  0
MTEXT
  5
8F
330
8C
100
AcDbEntity
  8
0
  6
Continuous
 62
     0
 48
2.0
370
     0
100
AcDbMText
 10
0.0
 20
0.3222669349
 30
0.0
 40
0.25
 41
0.0
 71
     1
 72
     1
  1
REVISION
  7
SLDTEXTSTYLE0
 73
     1
 44
1.0
  0
MTEXT
  5
90
330
8C
100
AcDbEntity
  8
0
  6
Continuous
 62
     0
 48
2.0
370
     0
100
AcDbMText
 10
0.3124565971
 20
-0.0064732141
 30
0.0
 40
0.25
 41
0.0
 71
     1
 72
     1
  1
DATE
  7
SLDTEXTSTYLE0
 73
     1
 44
1.0
  0
ENDBLK
  5
8E
330
8C
100
AcDbEntity
  8
0
100
AcDbBlockEnd
  0
BLOCK
  5
B9
330
B8
100
AcDbEntity
  8
0
100
AcDbBlockBegin
  2
*D5
 70
     1
 10
0.0
 20
0.0
 30
0.0
  3
*D5
  1

  0
SOLID
  5
BB
330
B8
100
AcDbEntity
  8
0
  6
Continuous
 62
     7
 48
2.0
370
     0
100
AcDbTrace
 10
8.0356233387
 20
14.0017267502
 30
0.0
 11
8.2956233387
 21
13.9617267502
 31
0.0
 12
8.2956233387
 22
14.0417267502
 32
0.0
 13
8.2956233387
 23
14.0417267502
 33
0.0
  0
SOLID
  5
BC
330
B8
100
AcDbEntity
  8
0
  6
Continuous
 62
     7
 48
2.0
370
     0
100
AcDbTrace
 10
12.0356233387
 20
14.0017267502
 30
0.0
 11
11.7756233387
 21
14.0417267502
 31
0.0
 12
11.7756233387
 22
13.9617267502
 32
0.0
 13
11.7756233387
 23
13.9617267502
 33
0.0
  0
LINE
  5
BD
330
B8
100
AcDbEntity
  8
0
  6
Continuous
 62
     7
 48
2.0
370
     0
100
AcDbLine
 10
9.5185784562
 20
13.9719700481
 30
0.0
 11
9.5185784562
 21
13.6347274249
 31
0.0
  0
LINE
  5
BE
330
B8
100
AcDbEntity
  8
0
  6
Continuous
 62
     7
 48
2.0
370
     0
100
AcDbLine
 10
9.5185784562
 20
13.6347274249
 30
0.0
 11
9.5693232628
 21
13.6347274249
 31
0.0
  0
LINE
  5
BF
330
B8
100
AcDbEntity
  8
0
  6
Continuous
 62
     7
 48
2.0
370
     0
100
AcDbLine
 10
9.5185784562
 20
13.9719700481
 30
0.0
 11
9.5693232628
 21
13.9719700481
 31
0.0
  0
LINE
  5
C0
330
B8
100
AcDbEntity
  8
0
  6
Continuous
 62
     7
 48
2.0
370
     0
100
AcDbLine
 10
10.5526682211
 20
13.9719700481
 30
0.0
 11
10.5526682211
 21
13.6347274249
 31
0.0
  0
LINE
  5
C1
330
B8
100
AcDbEntity
  8
0
  6
Continuous
 62
     7
 48
2.0
370
     0
100
AcDbLine
 10
10.5526682211
 20
13.6347274249
 30
0.0
 11
10.5019234145
 21
13.6347274249
 31
0.0
  0
LINE
  5
C2
330
B8
100
AcDbEntity
  8
0
  6
Continuous
 62
     7
 48
2.0
370
     0
100
AcDbLine
 10
10.5526682211
 20
13.9719700481
 30
0.0
 11
10.5019234145
 21
13.9719700481
 31
0.0
  0
LINE
  5
C3
330
B8
100
AcDbEntity
  8
0
  6
Continuous
 62
     7
 48
2.0
370
     0
100
AcDbLine
 10
8.0356233387
 20
13.400643409
 30
0.0
 11
8.0356233387
 21
14.2517267502
 31
0.0
  0
LINE
  5
C4
330
B8
100
AcDbEntity
  8
0
  6
Continuous
 62
     7
 48
2.0
370
     0
100
AcDbLine
 10
12.0356233387
 20
13.400643409
 30
0.0
 11
12.0356233387
 21
14.2517267502
 31
0.0
  0
LINE
  5
C5
330
B8
100
AcDbEntity
  8
0
  6
Continuous
 62
     7
 48
2.0
370
     0
100
AcDbLine
 10
8.0356233387
 20
14.0017267502
 30
0.0
 11
9.2414097678
 21
14.0017267502
 31
0.0
  0
LINE
  5
C6
330
B8
100
AcDbEntity
  8
0
  6
Continuous
 62
     7
 48
2.0
370
     0
100
AcDbLine
 10
12.0356233387
 20
14.0017267502
 30
0.0
 11
10.8298369095
 21
14.0017267502
 31
0.0
  0
MTEXT
  5
C7
330
B8
100
AcDbEntity
  8
0
  6
Continuous
 62
     7
 48
2.0
370
     0
100
AcDbMText
 10
9.71248672
 20
14.3239936714
 30
0.0
 40
0.25
 41
0.0
 71
     1
 72
     1
  1
4.00
  7
SLDTEXTSTYLE0
 73
     1
 44
1.0
  0
MTEXT
  5
C8
330
B8
100
AcDbEntity
  8
0
  6
Continuous
 62
     7
 48
2.0
370
     0
100
AcDbMText
 10
9.6200680695
 20
13.9272376441
 30
0.0
 40
0.25
 41
0.0
 71
     1
 72
     1
  1
101.6
  7
SLDTEXTSTYLE0
 73
     1
 44
1.0
  0
ENDBLK
  5
BA
330
B8
100
AcDbEntity
  8
0
100
AcDbBlockEnd
  0
BLOCK
  5
CB
330
CA
100
AcDbEntity
  8
0
100
AcDbBlockBegin
  2
*D6
 70
     1
 10
0.0
 20
0.0
 30
0.0
  3
*D6
  1

  0
SOLID
  5
CD
330
CA
100
AcDbEntity
  8
0
  6
Continuous
 62
     7
 48
2.0
370
     0
100
AcDbTrace
 10
12.8367682919
 20
13.300643409
 30
0.0
 11
12.7967682919
 21
13.040643409
 31
0.0
 12
12.8767682919
 22
13.040643409
 32
0.0
 13
12.8767682919
 23
13.040643409
 33
0.0
  0
SOLID
  5
CE
330
CA
100
AcDbEntity
  8
0
  6
Continuous
 62
     7
 48
2.0
370
     0
100
AcDbTrace
 10
12.8367682919
 20
7.300643409
 30
0.0
 11
12.8767682919
 21
7.560643409
 31
0.0
 12
12.7967682919
 22
7.560643409
 32
0.0
 13
12.7967682919
 23
7.560643409
 33
0.0
  0
LINE
  5
CF
330
CA
100
AcDbEntity
  8
0
  6
Continuous
 62
     7
 48
2.0
370
     0
100
AcDbLine
 10
12.3197234094
 20
10.2708867069
 30
0.0
 11
12.3197234094
 21
9.9336440837
 31
0.0
  0
LINE
  5
D0
330
CA
100
AcDbEntity
  8
0
  6
Continuous
 62
     7
 48
2.0
370
     0
100
AcDbLine
 10
12.3197234094
 20
9.9336440837
 30
0.0
 11
12.3704682161
 21
9.9336440837
 31
0.0
  0
LINE
  5
D1
330
CA
100
AcDbEntity
  8
0
  6
Continuous
 62
     7
 48
2.0
370
     0
100
AcDbLine
 10
12.3197234094
 20
10.2708867069
 30
0.0
 11
12.3704682161
 21
10.2708867069
 31
0.0
  0
LINE
  5
D2
330
CA
100
AcDbEntity
  8
0
  6
Continuous
 62
     7
 48
2.0
370
     0
100
AcDbLine
 10
13.3538131744
 20
10.2708867069
 30
0.0
 11
13.3538131744
 21
9.9336440837
 31
0.0
  0
LINE
  5
D3
330
CA
100
AcDbEntity
  8
0
  6
Continuous
 62
     7
 48
2.0
370
     0
100
AcDbLine
 10
13.3538131744
 20
9.9336440837
 30
0.0
 11
13.3030683677
 21
9.9336440837
 31
0.0
  0
LINE
  5
D4
330
CA
100
AcDbEntity
  8
0
  6
Continuous
 62
     7
 48
2.0
370
     0
100
AcDbLine
 10
13.3538131744
 20
10.2708867069
 30
0.0
 11
13.3030683677
 21
10.2708867069
 31
0.0
  0
LINE
  5
D5
330
CA
100
AcDbEntity
  8
0
  6
Continuous
 62
     7
 48
2.0
370
     0
100
AcDbLine
 10
12.1356233387
 20
13.300643409
 30
0.0
 11
13.0867682919
 21
13.300643409
 31
0.0
  0
LINE
  5
D6
330
CA
100
AcDbEntity
  8
0
  6
Continuous
 62
     7
 48
2.0
370
     0
100
AcDbLine
 10
12.1356233387
 20
7.300643409
 30
0.0
 11
13.0867682919
 21
7.300643409
 31
0.0
  0
LINE
  5
D7
330
CA
100
AcDbEntity
  8
0
  6
Continuous
 62
     7
 48
2.0
370
     0
100
AcDbLine
 10
12.8367682919
 20
13.300643409
 30
0.0
 11
12.8367682919
 21
10.6973994363
 31
0.0
  0
LINE
  5
D8
330
CA
100
AcDbEntity
  8
0
  6
Continuous
 62
     7
 48
2.0
370
     0
100
AcDbLine
 10
12.8367682919
 20
7.300643409
 30
0.0
 11
12.8367682919
 21
9.9038873817
 31
0.0
  0
MTEXT
  5
D9
330
CA
100
AcDbEntity
  8
0
  6
Continuous
 62
     7
 48
2.0
370
     0
100
AcDbMText
 10
12.5136316732
 20
10.6229103302
 30
0.0
 40
0.25
 41
0.0
 71
     1
 72
     1
  1
6.00
  7
SLDTEXTSTYLE0
 73
     1
 44
1.0
  0
MTEXT
  5
DA
330
CA
100
AcDbEntity
  8
0
  6
Continuous
 62
     7
 48
2.0
370
     0
100
AcDbMText
 10
12.4212130227
 20
10.2261543029
 30
0.0
 40
0.25
 41
0.0
 71
     1
 72
     1
  1
152.4
  7
SLDTEXTSTYLE0
 73
     1
 44
1.0
  0
ENDBLK
  5
CC
330
CA
100
AcDbEntity
  8
0
100
AcDbBlockEnd
  0
BLOCK
  5
DC
330
DB
100
AcDbEntity
  8
0
100
AcDbBlockBegin
  2
SW_NOTE_4
 70
     0
 10
0.0
 20
0.0
 30
0.0
  3
SW_NOTE_4
  1

  0
MTEXT
  5
DE
330
DB
100
AcDbEntity
  8
0
  6
Continuous
 62
     0
 48
2.0
370
     0
100
AcDbMText
 10
0.0394291716
 20
0.1211789303
 30
0.0
 40
0.25
 41
0.0
 71
     1
 72
     1
  1
SCREWS: #10-32 x .31"[8mm] LG.
  7
SLDTEXTSTYLE0
 73
     1
 44
1.0
  0
MTEXT
  5
DF
330
DB
100
AcDbEntity
  8
0
  6
Continuous
 62
     0
 48
2.0
370
     0
100
AcDbMText
 10
0.0394291716
 20
-0.2075612187
 30
0.0
 40
0.25
 41
0.0
 71
     1
 72
     1
  1
MACHINE, PAN HEAD, SLOTTED/SQUARE
  7
SLDTEXTSTYLE0
 73
     1
 44
1.0
  0
MTEXT
  5
E0
330
DB
100
AcDbEntity
  8
0
  6
Continuous
 62
     0
 48
2.0
370
     0
100
AcDbMText
 10
0.0394291716
 20
-0.5363013678
 30
0.0
 40
0.25
 41
0.0
 71
     1
 72
     1
  1
COMBINATION STYLE DRIVE, STEEL, ZINC PLATED.
  7
SLDTEXTSTYLE0
 73
     1
 44
1.0
  0
MTEXT
  5
E1
330
DB
100
AcDbEntity
  8
0
  6
Continuous
 62
     0
 48
2.0
370
     0
100
AcDbMText
 10
0.0394291716
 20
-0.8650415168
 30
0.0
 40
0.25
 41
0.0
 71
     1
 72
     1
  1
(SUPPLIED FOR COVER MOUNTING AND
  7
SLDTEXTSTYLE0
 73
     1
 44
1.0
  0
MTEXT
  5
E2
330
DB
100
AcDbEntity
  8
0
  6
Continuous
 62
     0
 48
2.0
370
     0
100
AcDbMText
 10
0.0394291716
 20
-1.1937816658
 30
0.0
 40
0.25
 41
0.0
 71
     1
 72
     1
  1
FOR GROUND POINT).
  7
SLDTEXTSTYLE0
 73
     1
 44
1.0
  0
ENDBLK
  5
DD
330
DB
100
AcDbEntity
  8
0
100
AcDbBlockEnd
  0
BLOCK
  5
132
330
131
100
AcDbEntity
  8
0
100
AcDbBlockBegin
  2
*D8
 70
     1
 10
0.0
 20
0.0
 30
0.0
  3
*D8
  1

  0
SOLID
  5
134
330
131
100
AcDbEntity
  8
0
  6
Continuous
 62
     7
 48
2.0
370
     0
100
AcDbTrace
 10
12.8367682919
 20
18.6713282675
 30
0.0
 11
12.7967682919
 21
18.4113282675
 31
0.0
 12
12.8767682919
 22
18.4113282675
 32
0.0
 13
12.8767682919
 23
18.4113282675
 33
0.0
  0
SOLID
  5
135
330
131
100
AcDbEntity
  8
0
  6
Continuous
 62
     7
 48
2.0
370
     0
100
AcDbTrace
 10
12.8367682919
 20
15.1713282675
 30
0.0
 11
12.8767682919
 21
15.4313282675
 31
0.0
 12
12.7967682919
 22
15.4313282675
 32
0.0
 13
12.7967682919
 23
15.4313282675
 33
0.0
  0
LINE
  5
136
330
131
100
AcDbEntity
  8
0
  6
Continuous
 62
     7
 48
2.0
370
     0
100
AcDbLine
 10
12.4121420599
 20
16.8915715654
 30
0.0
 11
12.4121420599
 21
16.5543289422
 31
0.0
  0
LINE
  5
137
330
131
100
AcDbEntity
  8
0
  6
Continuous
 62
     7
 48
2.0
370
     0
100
AcDbLine
 10
12.4121420599
 20
16.5543289422
 30
0.0
 11
12.4628868666
 21
16.5543289422
 31
0.0
  0
LINE
  5
138
330
131
100
AcDbEntity
  8
0
  6
Continuous
 62
     7
 48
2.0
370
     0
100
AcDbLine
 10
12.4121420599
 20
16.8915715654
 30
0.0
 11
12.4628868666
 21
16.8915715654
 31
0.0
  0
LINE
  5
139
330
131
100
AcDbEntity
  8
0
  6
Continuous
 62
     7
 48
2.0
370
     0
100
AcDbLine
 10
13.2613945239
 20
16.8915715654
 30
0.0
 11
13.2613945239
 21
16.5543289422
 31
0.0
  0
LINE
  5
13A
330
131
100
AcDbEntity
  8
0
  6
Continuous
 62
     7
 48
2.0
370
     0
100
AcDbLine
 10
13.2613945239
 20
16.5543289422
 30
0.0
 11
13.2106497172
 21
16.5543289422
 31
0.0
  0
LINE
  5
13B
330
131
100
AcDbEntity
  8
0
  6
Continuous
 62
     7
 48
2.0
370
     0
100
AcDbLine
 10
13.2613945239
 20
16.8915715654
 30
0.0
 11
13.2106497172
 21
16.8915715654
 31
0.0
  0
LINE
  5
13C
330
131
100
AcDbEntity
  8
0
  6
Continuous
 62
     7
 48
2.0
370
     0
100
AcDbLine
 10
12.0586233387
 20
18.6713282675
 30
0.0
 11
13.0867682919
 21
18.6713282675
 31
0.0
  0
LINE
  5
13D
330
131
100
AcDbEntity
  8
0
  6
Continuous
 62
     7
 48
2.0
370
     0
100
AcDbLine
 10
12.1356233387
 20
15.1713282675
 30
0.0
 11
13.0867682919
 21
15.1713282675
 31
0.0
  0
LINE
  5
13E
330
131
100
AcDbEntity
  8
0
  6
Continuous
 62
     7
 48
2.0
370
     0
100
AcDbLine
 10
12.8367682919
 20
18.6713282675
 30
0.0
 11
12.8367682919
 21
17.3180842948
 31
0.0
  0
LINE
  5
13F
330
131
100
AcDbEntity
  8
0
  6
Continuous
 62
     7
 48
2.0
370
     0
100
AcDbLine
 10
12.8367682919
 20
15.1713282675
 30
0.0
 11
12.8367682919
 21
16.5245722402
 31
0.0
  0
MTEXT
  5
140
330
131
100
AcDbEntity
  8
0
  6
Continuous
 62
     7
 48
2.0
370
     0
100
AcDbMText
 10
12.5136316732
 20
17.2435951887
 30
0.0
 40
0.25
 41
0.0
 71
     1
 72
     1
  1
3.50
  7
SLDTEXTSTYLE0
 73
     1
 44
1.0
  0
MTEXT
  5
141
330
131
100
AcDbEntity
  8
0
  6
Continuous
 62
     7
 48
2.0
370
     0
100
AcDbMText
 10
12.5136316732
 20
16.8468391614
 30
0.0
 40
0.25
 41
0.0
 71
     1
 72
     1
  1
88.9
  7
SLDTEXTSTYLE0
 73
     1
 44
1.0
  0
ENDBLK
  5
133
330
131
100
AcDbEntity
  8
0
100
AcDbBlockEnd
  0
BLOCK
  5
22A
330
229
100
AcDbEntity
  8
0
100
AcDbBlockBegin
  2
*D9
 70
     1
 10
0.0
 20
0.0
 30
0.0
  3
*D9
  1

  0
SOLID
  5
22C
330
229
100
AcDbEntity
  8
0
  6
Continuous
 62
     7
 48
2.0
370
     0
100
AcDbTrace
 10
26.3770523959
 20
11.800643409
 30
0.0
 11
26.3370523959
 21
11.540643409
 31
0.0
 12
26.4170523959
 22
11.540643409
 32
0.0
 13
26.4170523959
 23
11.540643409
 33
0.0
  0
SOLID
  5
22D
330
229
100
AcDbEntity
  8
0
  6
Continuous
 62
     7
 48
2.0
370
     0
100
AcDbTrace
 10
26.3770523959
 20
8.800643409
 30
0.0
 11
26.4170523959
 21
9.060643409
 31
0.0
 12
26.3370523959
 22
9.060643409
 32
0.0
 13
26.3370523959
 23
9.060643409
 33
0.0
  0
LINE
  5
22E
330
229
100
AcDbEntity
  8
0
  6
Continuous
 62
     7
 48
2.0
370
     0
100
AcDbLine
 10
25.9524261639
 20
10.2708867069
 30
0.0
 11
25.9524261639
 21
9.9336440837
 31
0.0
  0
LINE
  5
22F
330
229
100
AcDbEntity
  8
0
  6
Continuous
 62
     7
 48
2.0
370
     0
100
AcDbLine
 10
25.9524261639
 20
9.9336440837
 30
0.0
 11
26.0031709706
 21
9.9336440837
 31
0.0
  0
LINE
  5
230
330
229
100
AcDbEntity
  8
0
  6
Continuous
 62
     7
 48
2.0
370
     0
100
AcDbLine
 10
25.9524261639
 20
10.2708867069
 30
0.0
 11
26.0031709706
 21
10.2708867069
 31
0.0
  0
LINE
  5
231
330
229
100
AcDbEntity
  8
0
  6
Continuous
 62
     7
 48
2.0
370
     0
100
AcDbLine
 10
26.8016786279
 20
10.2708867069
 30
0.0
 11
26.8016786279
 21
9.9336440837
 31
0.0
  0
LINE
  5
232
330
229
100
AcDbEntity
  8
0
  6
Continuous
 62
     7
 48
2.0
370
     0
100
AcDbLine
 10
26.8016786279
 20
9.9336440837
 30
0.0
 11
26.7509338212
 21
9.9336440837
 31
0.0
  0
LINE
  5
233
330
229
100
AcDbEntity
  8
0
  6
Continuous
 62
     7
 48
2.0
370
     0
100
AcDbLine
 10
26.8016786279
 20
10.2708867069
 30
0.0
 11
26.7509338212
 21
10.2708867069
 31
0.0
  0
LINE
  5
234
330
229
100
AcDbEntity
  8
0
  6
Continuous
 62
     7
 48
2.0
370
     0
100
AcDbLine
 10
27.4542841768
 20
11.800643409
 30
0.0
 11
26.1270523959
 21
11.800643409
 31
0.0
  0
LINE
  5
235
330
229
100
AcDbEntity
  8
0
  6
Continuous
 62
     7
 48
2.0
370
     0
100
AcDbLine
 10
27.4542841768
 20
8.800643409
 30
0.0
 11
26.1270523959
 21
8.800643409
 31
0.0
  0
LINE
  5
236
330
229
100
AcDbEntity
  8
0
  6
Continuous
 62
     7
 48
2.0
370
     0
100
AcDbLine
 10
26.3770523959
 20
11.800643409
 30
0.0
 11
26.3770523959
 21
10.6973994363
 31
0.0
  0
LINE
  5
237
330
229
100
AcDbEntity
  8
0
  6
Continuous
 62
     7
 48
2.0
370
     0
100
AcDbLine
 10
26.3770523959
 20
8.800643409
 30
0.0
 11
26.3770523959
 21
9.9038873817
 31
0.0
  0
MTEXT
  5
238
330
229
100
AcDbEntity
  8
0
  6
Continuous
 62
     7
 48
2.0
370
     0
100
AcDbMText
 10
26.0539157773
 20
10.6229103302
 30
0.0
 40
0.25
 41
0.0
 71
     1
 72
     1
  1
3.00
  7
SLDTEXTSTYLE0
 73
     1
 44
1.0
  0
MTEXT
  5
239
330
229
100
AcDbEntity
  8
0
  6
Continuous
 62
     7
 48
2.0
370
     0
100
AcDbMText
 10
26.0539157773
 20
10.2261543029
 30
0.0
 40
0.25
 41
0.0
 71
     1
 72
     1
  1
76.2
  7
SLDTEXTSTYLE0
 73
     1
 44
1.0
  0
ENDBLK
  5
22B
330
229
100
AcDbEntity
  8
0
100
AcDbBlockEnd
  0
BLOCK
  5
23C
330
23B
100
AcDbEntity
  8
0
100
AcDbBlockBegin
  2
*D10
 70
     1
 10
0.0
 20
0.0
 30
0.0
  3
*D10
  1

  0
SOLID
  5
23E
330
23B
100
AcDbEntity
  8
0
  6
Continuous
 62
     7
 48
2.0
370
     0
100
AcDbTrace
 10
27.5542841768
 20
6.5132398657
 30
0.0
 11
27.8142841768
 21
6.4732398657
 31
0.0
 12
27.8142841768
 22
6.5532398657
 32
0.0
 13
27.8142841768
 23
6.5532398657
 33
0.0
  0
SOLID
  5
23F
330
23B
100
AcDbEntity
  8
0
  6
Continuous
 62
     7
 48
2.0
370
     0
100
AcDbTrace
 10
30.5542841768
 20
6.5132398657
 30
0.0
 11
30.2942841768
 21
6.5532398657
 31
0.0
 12
30.2942841768
 22
6.4732398657
 32
0.0
 13
30.2942841768
 23
6.4732398657
 33
0.0
  0
LINE
  5
240
330
23B
100
AcDbEntity
  8
0
  6
Continuous
 62
     7
 48
2.0
370
     0
100
AcDbLine
 10
28.6296579448
 20
6.4834831636
 30
0.0
 11
28.6296579448
 21
6.1462405404
 31
0.0
  0
LINE
  5
241
330
23B
100
AcDbEntity
  8
0
  6
Continuous
 62
     7
 48
2.0
370
     0
100
AcDbLine
 10
28.6296579448
 20
6.1462405404
 30
0.0
 11
28.6804027515
 21
6.1462405404
 31
0.0
  0
LINE
  5
242
330
23B
100
AcDbEntity
  8
0
  6
Continuous
 62
     7
 48
2.0
370
     0
100
AcDbLine
 10
28.6296579448
 20
6.4834831636
 30
0.0
 11
28.6804027515
 21
6.4834831636
 31
0.0
  0
LINE
  5
243
330
23B
100
AcDbEntity
  8
0
  6
Continuous
 62
     7
 48
2.0
370
     0
100
AcDbLine
 10
29.4789104088
 20
6.4834831636
 30
0.0
 11
29.4789104088
 21
6.1462405404
 31
0.0
  0
LINE
  5
244
330
23B
100
AcDbEntity
  8
0
  6
Continuous
 62
     7
 48
2.0
370
     0
100
AcDbLine
 10
29.4789104088
 20
6.1462405404
 30
0.0
 11
29.4281656021
 21
6.1462405404
 31
0.0
  0
LINE
  5
245
330
23B
100
AcDbEntity
  8
0
  6
Continuous
 62
     7
 48
2.0
370
     0
100
AcDbLine
 10
29.4789104088
 20
6.4834831636
 30
0.0
 11
29.4281656021
 21
6.4834831636
 31
0.0
  0
LINE
  5
246
330
23B
100
AcDbEntity
  8
0
  6
Continuous
 62
     7
 48
2.0
370
     0
100
AcDbLine
 10
27.5542841768
 20
8.700643409
 30
0.0
 11
27.5542841768
 21
6.2632398657
 31
0.0
  0
LINE
  5
247
330
23B
100
AcDbEntity
  8
0
  6
Continuous
 62
     7
 48
2.0
370
     0
100
AcDbLine
 10
30.5542841768
 20
8.700643409
 30
0.0
 11
30.5542841768
 21
6.2632398657
 31
0.0
  0
LINE
  5
248
330
23B
100
AcDbEntity
  8
0
  6
Continuous
 62
     7
 48
2.0
370
     0
100
AcDbLine
 10
27.5542841768
 20
6.5132398657
 30
0.0
 11
28.3524892564
 21
6.5132398657
 31
0.0
  0
LINE
  5
249
330
23B
100
AcDbEntity
  8
0
  6
Continuous
 62
     7
 48
2.0
370
     0
100
AcDbLine
 10
30.5542841768
 20
6.5132398657
 30
0.0
 11
29.7560790972
 21
6.5132398657
 31
0.0
  0
MTEXT
  5
24A
330
23B
100
AcDbEntity
  8
0
  6
Continuous
 62
     7
 48
2.0
370
     0
100
AcDbMText
 10
28.7311475581
 20
6.8355067869
 30
0.0
 40
0.25
 41
0.0
 71
     1
 72
     1
  1
3.00
  7
SLDTEXTSTYLE0
 73
     1
 44
1.0
  0
MTEXT
  5
24B
330
23B
100
AcDbEntity
  8
0
  6
Continuous
 62
     7
 48
2.0
370
     0
100
AcDbMText
 10
28.7311475581
 20
6.4387507596
 30
0.0
 40
0.25
 41
0.0
 71
     1
 72
     1
  1
76.2
  7
SLDTEXTSTYLE0
 73
     1
 44
1.0
  0
ENDBLK
  5
23D
330
23B
100
AcDbEntity
  8
0
100
AcDbBlockEnd
  0
BLOCK
  5
24F
330
24E
100
AcDbEntity
  8
0
100
AcDbBlockBegin
  2
*D11
 70
     1
 10
0.0
 20
0.0
 30
0.0
  3
*D11
  1

  0
SOLID
  5
251
330
24E
100
AcDbEntity
  8
0
  6
Continuous
 62
     7
 48
2.0
370
     0
100
AcDbTrace
 10
30.6244428194
 20
8.6789141403
 30
0.0
 11
30.71961774
 21
8.4336760223
 31
0.0
 12
30.7889297792
 22
8.4736240039
 32
0.0
 13
30.7889297792
 23
8.4736240039
 33
0.0
  0
LINE
  5
252
330
24E
100
AcDbEntity
  8
0
  6
Continuous
 62
     7
 48
2.0
370
     0
100
AcDbLine
 10
31.9885183892
 20
7.1433593363
 30
0.0
 11
31.9885183892
 21
6.8061167131
 31
0.0
  0
LINE
  5
253
330
24E
100
AcDbEntity
  8
0
  6
Continuous
 62
     7
 48
2.0
370
     0
100
AcDbLine
 10
31.9885183892
 20
6.8061167131
 30
0.0
 11
32.0392631959
 21
6.8061167131
 31
0.0
  0
LINE
  5
254
330
24E
100
AcDbEntity
  8
0
  6
Continuous
 62
     7
 48
2.0
370
     0
100
AcDbLine
 10
31.9885183892
 20
7.1433593363
 30
0.0
 11
32.0392631959
 21
7.1433593363
 31
0.0
  0
LINE
  5
255
330
24E
100
AcDbEntity
  8
0
  6
Continuous
 62
     7
 48
2.0
370
     0
100
AcDbLine
 10
32.8377708532
 20
7.1433593363
 30
0.0
 11
32.8377708532
 21
6.8061167131
 31
0.0
  0
LINE
  5
256
330
24E
100
AcDbEntity
  8
0
  6
Continuous
 62
     7
 48
2.0
370
     0
100
AcDbLine
 10
32.8377708532
 20
6.8061167131
 30
0.0
 11
32.7870260465
 21
6.8061167131
 31
0.0
  0
LINE
  5
257
330
24E
100
AcDbEntity
  8
0
  6
Continuous
 62
     7
 48
2.0
370
     0
100
AcDbLine
 10
32.8377708532
 20
7.1433593363
 30
0.0
 11
32.7870260465
 21
7.1433593363
 31
0.0
  0
LINE
  5
258
330
24E
100
AcDbEntity
  8
0
  6
Continuous
 62
     7
 48
2.0
370
     0
100
AcDbLine
 10
30.6244428194
 20
8.6789141403
 30
0.0
 11
31.4923092914
 21
7.1731160383
 31
0.0
  0
LINE
  5
259
330
24E
100
AcDbEntity
  8
0
  6
Continuous
 62
     7
 48
2.0
370
     0
100
AcDbLine
 10
31.4923092914
 20
7.1731160383
 30
0.0
 11
31.7423092914
 21
7.1731160383
 31
0.0
  0
MTEXT
  5
25A
330
24E
100
AcDbEntity
  8
0
  6
Continuous
 62
     7
 48
2.0
370
     0
100
AcDbMText
 10
31.9114677903
 20
7.4953829641
 30
0.0
 40
0.25
 41
0.0
 71
     1
 72
     1
  1
%%c
  7
SLDTEXTSTYLE0
 73
     1
 44
1.0
  0
MTEXT
  5
25B
330
24E
100
AcDbEntity
  8
0
  6
Continuous
 62
     7
 48
2.0
370
     0
100
AcDbMText
 10
32.2685482148
 20
7.4953829595
 30
0.0
 40
0.25
 41
0.0
 71
     1
 72
     1
  1
.281
  7
SLDTEXTSTYLE0
 73
     1
 44
1.0
  0
MTEXT
  5
25C
330
24E
100
AcDbEntity
  8
0
  6
Continuous
 62
     7
 48
2.0
370
     0
100
AcDbMText
 10
32.0900080025
 20
7.0986269322
 30
0.0
 40
0.25
 41
0.0
 71
     1
 72
     1
  1
7.14
  7
SLDTEXTSTYLE0
 73
     1
 44
1.0
  0
ENDBLK
  5
250
330
24E
100
AcDbEntity
  8
0
100
AcDbBlockEnd
  0
BLOCK
  5
25F
330
25E
100
AcDbEntity
  8
0
100
AcDbBlockBegin
  2
*D12
 70
     1
 10
0.0
 20
0.0
 30
0.0
  3
*D12
  1

  0
SOLID
  5
261
330
25E
100
AcDbEntity
  8
0
  6
Continuous
 62
     7
 48
2.0
370
     0
100
AcDbTrace
 10
31.9379918334
 20
11.300643409
 30
0.0
 11
31.9779918334
 21
11.560643409
 31
0.0
 12
31.8979918334
 22
11.560643409
 32
0.0
 13
31.8979918334
 23
11.560643409
 33
0.0
  0
SOLID
  5
262
330
25E
100
AcDbEntity
  8
0
  6
Continuous
 62
     7
 48
2.0
370
     0
100
AcDbTrace
 10
31.9379918334
 20
13.300643409
 30
0.0
 11
31.8979918334
 21
13.040643409
 31
0.0
 12
31.9779918334
 22
13.040643409
 32
0.0
 13
31.9779918334
 23
13.040643409
 33
0.0
  0
LINE
  5
263
330
25E
100
AcDbEntity
  8
0
  6
Continuous
 62
     7
 48
2.0
370
     0
100
AcDbLine
 10
31.5133656014
 20
12.2708867069
 30
0.0
 11
31.5133656014
 21
11.9336440837
 31
0.0
  0
LINE
  5
264
330
25E
100
AcDbEntity
  8
0
  6
Continuous
 62
     7
 48
2.0
370
     0
100
AcDbLine
 10
31.5133656014
 20
11.9336440837
 30
0.0
 11
31.5641104081
 21
11.9336440837
 31
0.0
  0
LINE
  5
265
330
25E
100
AcDbEntity
  8
0
  6
Continuous
 62
     7
 48
2.0
370
     0
100
AcDbLine
 10
31.5133656014
 20
12.2708867069
 30
0.0
 11
31.5641104081
 21
12.2708867069
 31
0.0
  0
LINE
  5
266
330
25E
100
AcDbEntity
  8
0
  6
Continuous
 62
     7
 48
2.0
370
     0
100
AcDbLine
 10
32.3626180654
 20
12.2708867069
 30
0.0
 11
32.3626180654
 21
11.9336440837
 31
0.0
  0
LINE
  5
267
330
25E
100
AcDbEntity
  8
0
  6
Continuous
 62
     7
 48
2.0
370
     0
100
AcDbLine
 10
32.3626180654
 20
11.9336440837
 30
0.0
 11
32.3118732587
 21
11.9336440837
 31
0.0
  0
LINE
  5
268
330
25E
100
AcDbEntity
  8
0
  6
Continuous
 62
     7
 48
2.0
370
     0
100
AcDbLine
 10
32.3626180654
 20
12.2708867069
 30
0.0
 11
32.3118732587
 21
12.2708867069
 31
0.0
  0
LINE
  5
269
330
25E
100
AcDbEntity
  8
0
  6
Continuous
 62
     7
 48
2.0
370
     0
100
AcDbLine
 10
29.1542841768
 20
11.300643409
 30
0.0
 11
32.1879918334
 21
11.300643409
 31
0.0
  0
LINE
  5
26A
330
25E
100
AcDbEntity
  8
0
  6
Continuous
 62
     7
 48
2.0
370
     0
100
AcDbLine
 10
31.1542841768
 20
13.300643409
 30
0.0
 11
32.1879918334
 21
13.300643409
 31
0.0
  0
LINE
  5
26B
330
25E
100
AcDbEntity
  8
0
  6
Continuous
 62
     7
 48
2.0
370
     0
100
AcDbLine
 10
31.9379918334
 20
11.300643409
 30
0.0
 11
31.9379918334
 21
11.9038873817
 31
0.0
  0
LINE
  5
26C
330
25E
100
AcDbEntity
  8
0
  6
Continuous
 62
     7
 48
2.0
370
     0
100
AcDbLine
 10
31.9379918334
 20
13.300643409
 30
0.0
 11
31.9379918334
 21
12.6973994363
 31
0.0
  0
MTEXT
  5
26D
330
25E
100
AcDbEntity
  8
0
  6
Continuous
 62
     7
 48
2.0
370
     0
100
AcDbMText
 10
31.6148552147
 20
12.6229103302
 30
0.0
 40
0.25
 41
0.0
 71
     1
 72
     1
  1
2.00
  7
SLDTEXTSTYLE0
 73
     1
 44
1.0
  0
MTEXT
  5
26E
330
25E
100
AcDbEntity
  8
0
  6
Continuous
 62
     7
 48
2.0
370
     0
100
AcDbMText
 10
31.6148552147
 20
12.2261543029
 30
0.0
 40
0.25
 41
0.0
 71
     1
 72
     1
  1
50.8
  7
SLDTEXTSTYLE0
 73
     1
 44
1.0
  0
ENDBLK
  5
260
330
25E
100
AcDbEntity
  8
0
100
AcDbBlockEnd
  0
BLOCK
  5
345
330
344
100
AcDbEntity
  8
0
100
AcDbBlockBegin
  2
*D13
 70
     1
 10
0.0
 20
0.0
 30
0.0
  3
*D13
  1

  0
SOLID
  5
347
330
344
100
AcDbEntity
  8
0
  6
Continuous
 62
     7
 48
2.0
370
     0
100
AcDbTrace
 10
18.4831687147
 20
12.2781466502
 30
0.0
 11
18.2231687147
 21
12.3181466502
 31
0.0
 12
18.2231687147
 22
12.2381466502
 32
0.0
 13
18.2231687147
 23
12.2381466502
 33
0.0
  0
SOLID
  5
348
330
344
100
AcDbEntity
  8
0
  6
Continuous
 62
     7
 48
2.0
370
     0
100
AcDbTrace
 10
18.9831687147
 20
12.2781466502
 30
0.0
 11
19.2431687147
 21
12.2381466502
 31
0.0
 12
19.2431687147
 22
12.3181466502
 32
0.0
 13
19.2431687147
 23
12.3181466502
 33
0.0
  0
LINE
  5
349
330
344
100
AcDbEntity
  8
0
  6
Continuous
 62
     7
 48
2.0
370
     0
100
AcDbLine
 10
19.8321283808
 20
12.2483899481
 30
0.0
 11
19.8321283808
 21
11.9111473249
 31
0.0
  0
LINE
  5
34A
330
344
100
AcDbEntity
  8
0
  6
Continuous
 62
     7
 48
2.0
370
     0
100
AcDbLine
 10
19.8321283808
 20
11.9111473249
 30
0.0
 11
19.8828731875
 21
11.9111473249
 31
0.0
  0
LINE
  5
34B
330
344
100
AcDbEntity
  8
0
  6
Continuous
 62
     7
 48
2.0
370
     0
100
AcDbLine
 10
19.8321283808
 20
12.2483899481
 30
0.0
 11
19.8828731875
 21
12.2483899481
 31
0.0
  0
LINE
  5
34C
330
344
100
AcDbEntity
  8
0
  6
Continuous
 62
     7
 48
2.0
370
     0
100
AcDbLine
 10
20.6813808448
 20
12.2483899481
 30
0.0
 11
20.6813808448
 21
11.9111473249
 31
0.0
  0
LINE
  5
34D
330
344
100
AcDbEntity
  8
0
  6
Continuous
 62
     7
 48
2.0
370
     0
100
AcDbLine
 10
20.6813808448
 20
11.9111473249
 30
0.0
 11
20.6306360382
 21
11.9111473249
 31
0.0
  0
LINE
  5
34E
330
344
100
AcDbEntity
  8
0
  6
Continuous
 62
     7
 48
2.0
370
     0
100
AcDbLine
 10
20.6813808448
 20
12.2483899481
 30
0.0
 11
20.6306360382
 21
12.2483899481
 31
0.0
  0
LINE
  5
34F
330
344
100
AcDbEntity
  8
0
  6
Continuous
 62
     7
 48
2.0
370
     0
100
AcDbLine
 10
18.4831687147
 20
12.2781466502
 30
0.0
 11
17.9831687147
 21
12.2781466502
 31
0.0
  0
LINE
  5
350
330
344
100
AcDbEntity
  8
0
  6
Continuous
 62
     7
 48
2.0
370
     0
100
AcDbLine
 10
18.9831687147
 20
12.2781466502
 30
0.0
 11
19.5549596924
 21
12.2781466502
 31
0.0
  0
MTEXT
  5
351
330
344
100
AcDbEntity
  8
0
  6
Continuous
 62
     7
 48
2.0
370
     0
100
AcDbMText
 10
20.0259051815
 20
12.6004135714
 30
0.0
 40
0.25
 41
0.0
 71
     1
 72
     1
  1
.50
  7
SLDTEXTSTYLE0
 73
     1
 44
1.0
  0
MTEXT
  5
352
330
344
100
AcDbEntity
  8
0
  6
Continuous
 62
     7
 48
2.0
370
     0
100
AcDbMText
 10
19.9336179942
 20
12.2036575441
 30
0.0
 40
0.25
 41
0.0
 71
     1
 72
     1
  1
12.7
  7
SLDTEXTSTYLE0
 73
     1
 44
1.0
  0
ENDBLK
  5
346
330
344
100
AcDbEntity
  8
0
100
AcDbBlockEnd
  0
BLOCK
  5
354
330
353
100
AcDbEntity
  8
0
100
AcDbBlockBegin
  2
SW_NOTE_5
 70
     0
 10
0.0
 20
0.0
 30
0.0
  3
SW_NOTE_5
  1

  0
MTEXT
  5
356
330
353
100
AcDbEntity
  8
0
  6
Continuous
 62
     0
 48
2.0
370
     0
100
AcDbMText
 10
0.0393875812
 20
0.1213033116
 30
0.0
 40
0.25
 41
0.0
 71
     1
 72
     1
  1
GROUNDING
  7
SLDTEXTSTYLE0
 73
     1
 44
1.0
  0
MTEXT
  5
357
330
353
100
AcDbEntity
  8
0
  6
Continuous
 62
     0
 48
2.0
370
     0
100
AcDbMText
 10
0.0393875812
 20
-0.2074368375
 30
0.0
 40
0.25
 41
0.0
 71
     1
 72
     1
  1
EMBOSS
  7
SLDTEXTSTYLE0
 73
     1
 44
1.0
  0
ENDBLK
  5
355
330
353
100
AcDbEntity
  8
0
100
AcDbBlockEnd
  0
ENDSEC
  0
SECTION
  2
ENTITIES
  0
LINE
  5
44
330
1F
100
AcDbEntity
  8
0
  6
Continuous
 62
     7
 48
2.0
370
     0
100
AcDbLine
 10
0.6265032092
 20
21.4101463415
 30
0.0
 11
33.3785032092
 21
21.4101463415
 31
0.0
  0
LINE
  5
45
330
1F
100
AcDbEntity
  8
0
  6
Continuous
 62
     7
 48
2.0
370
     0
100
AcDbLine
 10
33.3785032092
 20
0.6581463415
 30
0.0
 11
33.3785032092
 21
21.4101463415
 31
0.0
  0
LINE
  5
46
330
1F
100
AcDbEntity
  8
0
  6
Continuous
 62
     7
 48
2.0
370
     0
100
AcDbLine
 10
33.3785032092
 20
0.6581463415
 30
0.0
 11
0.6265032092
 21
0.6581463415
 31
0.0
  0
LINE
  5
47
330
1F
100
AcDbEntity
  8
0
  6
Continuous
 62
     7
 48
2.0
370
     0
100
AcDbLine
 10
0.6265032092
 20
21.4101463415
 30
0.0
 11
0.6265032092
 21
0.6581463415
 31
0.0
  0
LINE
  5
48
330
1F
100
AcDbEntity
  8
0
  6
Continuous
 62
     7
 48
2.0
370
     0
100
AcDbLine
 10
0.5025032092
 20
21.5341463415
 30
0.0
 11
33.5025032092
 21
21.5341463415
 31
0.0
  0
LINE
  5
49
330
1F
100
AcDbEntity
  8
0
  6
Continuous
 62
     7
 48
2.0
370
     0
100
AcDbLine
 10
33.5025032092
 20
0.5341463415
 30
0.0
 11
0.5025032092
 21
0.5341463415
 31
0.0
  0
LINE
  5
4A
330
1F
100
AcDbEntity
  8
0
  6
Continuous
 62
     7
 48
2.0
370
     0
100
AcDbLine
 10
0.5025032092
 20
21.5341463415
 30
0.0
 11
0.5025032092
 21
0.5341463415
 31
0.0
  0
LINE
  5
4B
330
1F
100
AcDbEntity
  8
0
  6
Continuous
 62
     7
 48
2.0
370
     0
100
AcDbLine
 10
33.5025032092
 20
0.5341463415
 30
0.0
 11
33.5025032092
 21
21.5341463415
 31
0.0
  0
LINE
  5
4C
330
1F
100
AcDbEntity
  8
0
  6
Continuous
 62
     7
 48
2.0
370
     0
100
AcDbLine
 10
0.6265032092
 20
20.5981463415
 30
0.0
 11
33.3785032092
 21
20.5981463415
 31
0.0
  0
LINE
  5
4D
330
1F
100
AcDbEntity
  8
0
  6
Continuous
 62
     7
 48
2.0
370
     0
100
AcDbLine
 10
2.1265032092
 20
21.4101463415
 30
0.0
 11
2.1265032092
 21
20.5981463415
 31
0.0
  0
LINE
  5
4E
330
1F
100
AcDbEntity
  8
0
  6
Continuous
 62
     7
 48
2.0
370
     0
100
AcDbLine
 10
14.8785032092
 20
20.5981463415
 30
0.0
 11
14.8785032092
 21
21.4101463415
 31
0.0
  0
LINE
  5
4F
330
1F
100
AcDbEntity
  8
0
  6
Continuous
 62
     7
 48
2.0
370
     0
100
AcDbLine
 10
15.0025032092
 20
20.5981463415
 30
0.0
 11
15.0025032092
 21
21.4101463415
 31
0.0
  0
LINE
  5
50
330
1F
100
AcDbEntity
  8
0
  6
Continuous
 62
     7
 48
2.0
370
     0
100
AcDbLine
 10
30.8785032092
 20
20.5981463415
 30
0.0
 11
30.8785032092
 21
21.4101463415
 31
0.0
  0
LINE
  5
51
330
1F
100
AcDbEntity
  8
0
  6
Continuous
 62
     7
 48
2.0
370
     0
100
AcDbLine
 10
16.5025032092
 20
20.5981463415
 30
0.0
 11
16.5025032092
 21
21.4101463415
 31
0.0
  0
LINE
  5
52
330
1F
100
AcDbEntity
  8
0
  6
Continuous
 62
     7
 48
2.0
370
     0
100
AcDbLine
 10
29.3785032092
 20
20.5981463415
 30
0.0
 11
29.3785032092
 21
21.4101463415
 31
0.0
  0
LINE
  5
53
330
1F
100
AcDbEntity
  8
0
  6
Continuous
 62
     7
 48
2.0
370
     0
100
AcDbLine
 10
29.2545032092
 20
20.5981463415
 30
0.0
 11
29.2545032092
 21
21.4101463415
 31
0.0
  0
INSERT
  5
7C
330
1F
100
AcDbEntity
  8
0
  6
Continuous
 62
     7
 48
2.0
370
     0
100
AcDbBlockReference
  2
SW_NOTE_0
 10
17.6803804058
 20
17.8852312002
 30
0.0
  0
MTEXT
  5
7D
330
1F
100
AcDbEntity
  8
0
  6
Continuous
 62
     7
 48
2.0
370
     0
100
AcDbMText
 10
31.3179688312
 20
21.2186326882
 30
0.0
 40
0.375
 41
0.0
 71
     1
 72
     1
  1
7-18-11
  7
SLDTEXTSTYLE0
 73
     1
 44
1.0
  0
MTEXT
  5
7E
330
1F
100
AcDbEntity
  8
0
  6
Continuous
 62
     7
 48
2.0
370
     0
100
AcDbMText
 10
6.3502390316
 20
21.1732368766
 30
0.0
 40
0.375
 41
0.0
 71
     1
 72
     1
  1
JUNCTION BOX
  7
SLDTEXTSTYLE0
 73
     1
 44
1.0
  0
MTEXT
  5
7F
330
1F
100
AcDbEntity
  8
0
  6
Continuous
 62
     7
 48
2.0
370
     0
100
AcDbMText
 10
22.0177082138
 20
21.2229734649
 30
0.0
 40
0.375
 41
0.0
 71
     1
 72
     1
  1
JB-3944
  7
SLDTEXTSTYLE0
 73
     1
 44
1.0
  0
INSERT
  5
85
330
1F
100
AcDbEntity
  8
0
  6
Continuous
 62
     7
 48
2.0
370
     0
100
AcDbBlockReference
  2
SW_NOTE_1
 10
0.9752783738
 20
21.009520053
 30
0.0
  0
INSERT
  5
8B
330
1F
100
AcDbEntity
  8
0
  6
Continuous
 62
     7
 48
2.0
370
     0
100
AcDbBlockReference
  2
SW_NOTE_2
 10
15.3702297796
 20
21.0003964794
 30
0.0
  0
INSERT
  5
91
330
1F
100
AcDbEntity
  8
0
  6
Continuous
 62
     7
 48
2.0
370
     0
100
AcDbBlockReference
  2
SW_NOTE_3
 10
29.4172772548
 20
21.0067670545
 30
0.0
  0
ARC
  5
92
330
1F
100
AcDbEntity
  8
0
  6
Continuous
 62
     7
 48
4.0
370
    15
100
AcDbCircle
 10
11.7856233387
 20
10.028643409
 30
0.0
 40
0.2030000000000005
100
AcDbArc
 50
133.2687098488
 51
46.7312901512
  0
LINE
  5
93
330
1F
100
AcDbEntity
  8
0
  6
Continuous
 62
     7
 48
2.0
370
    15
100
AcDbLine
 10
8.0356233628
 20
13.300643446
 30
0.0
 11
8.0356233628
 21
7.3006433719
 31
0.0
  0
ARC
  5
94
330
1F
100
AcDbEntity
  8
0
  6
Continuous
 62
     7
 48
4.0
370
    15
100
AcDbCircle
 10
8.2856233387
 20
10.028643409
 30
0.0
 40
0.2029999999999993
100
AcDbArc
 50
133.2687098488
 51
46.7312901512
  0
LINE
  5
95
330
1F
100
AcDbEntity
  8
0
  6
Continuous
 62
     7
 48
2.0
370
    15
100
AcDbLine
 10
8.0356233628
 20
7.3006433719
 30
0.0
 11
12.0356233145
 21
7.3006433719
 31
0.0
  0
LINE
  5
96
330
1F
100
AcDbEntity
  8
0
  6
Continuous
 62
     7
 48
2.0
370
    15
100
AcDbLine
 10
12.0356233145
 20
7.3006433719
 30
0.0
 11
12.0356233145
 21
13.300643446
 31
0.0
  0
LINE
  5
97
330
1F
100
AcDbEntity
  8
0
  6
Continuous
 62
     7
 48
2.0
370
    15
100
AcDbLine
 10
12.0356233145
 20
13.300643446
 30
0.0
 11
8.0356233628
 21
13.300643446
 31
0.0
  0
LWPOLYLINE
  5
98
330
1F
100
AcDbEntity
  8
0
  6
Continuous
 62
     7
 48
2.0
370
    15
100
AcDbPolyline
 90
        9
 70
   128
 43
0.0
 10
8.2446444149
 20
10.2820334057
 10
8.2337389942
 20
10.2712905781
 10
8.2230232113
 20
10.2607346875
 10
8.2125467857
 20
10.2504145838
 10
8.2023581167
 20
10.2403780202
 10
8.1925045772
 20
10.2306714481
 10
8.1830314866
 20
10.2213397884
 10
8.1739829912
 20
10.2124262156
 10
8.165400597
 20
10.2039719882
  0
ARC
  5
99
330
1F
100
AcDbEntity
  8
0
  6
Continuous
 62
     7
 48
4.0
370
    15
100
AcDbCircle
 10
8.2856233387
 20
10.300643409
 30
0.0
 40
0.1542687964746305
100
AcDbArc
 50
218.802861523
 51
230.3357915391
  0
LWPOLYLINE
  5
9A
330
1F
100
AcDbEntity
  8
0
  6
Continuous
 62
     7
 48
2.0
370
    15
100
AcDbPolyline
 90
        9
 70
   128
 43
0.0
 10
8.187155559
 20
10.1818875342
 10
8.1957378065
 20
10.1903417615
 10
8.2047864486
 20
10.1992553252
 10
8.2142593925
 20
10.2085869941
 10
8.2241130787
 20
10.2182935661
 10
8.234301601
 20
10.2283301252
 10
8.2447780267
 20
10.2386502289
 10
8.2554938095
 20
10.249206124
 10
8.2663993769
 20
10.2599489482
  0
LINE
  5
9B
330
1F
100
AcDbEntity
  8
0
  6
Continuous
 62
     7
 48
2.0
370
    15
100
AcDbLine
 10
8.2663993769
 20
10.2599489482
 30
0.0
 11
8.3261530333
 21
10.2594997913
 31
0.0
  0
LWPOLYLINE
  5
9C
330
1F
100
AcDbEntity
  8
0
  6
Continuous
 62
     7
 48
2.0
370
    15
100
AcDbPolyline
 90
        9
 70
   128
 43
0.0
 10
8.3261530333
 20
10.2594997913
 10
8.3262086193
 20
10.2668985075
 10
8.3262644987
 20
10.2743335989
 10
8.3263206713
 20
10.2817969749
 10
8.326376844
 20
10.2892805185
 10
8.3264331634
 20
10.2967760894
 10
8.3264896294
 20
10.3042755329
 10
8.3265459487
 20
10.3117706914
 10
8.3266021214
 20
10.3192534122
  0
LWPOLYLINE
  5
9D
330
1F
100
AcDbEntity
  8
0
  6
Continuous
 62
     7
 48
2.0
370
    15
100
AcDbPolyline
 90
        9
 70
   128
 43
0.0
 10
8.3266021214
 20
10.3192534122
 10
8.3375076888
 20
10.3299962399
 10
8.3482234716
 20
10.3405521304
 10
8.3586998973
 20
10.3508722341
 10
8.3688885663
 20
10.3609087978
 10
8.3787421058
 20
10.3706153698
 10
8.3882151963
 20
10.3799470295
 10
8.3972636918
 20
10.3888606024
 10
8.405846086
 20
10.3973148297
  0
ARC
  5
9E
330
1F
100
AcDbEntity
  8
0
  6
Continuous
 62
     7
 48
4.0
370
    15
100
AcDbCircle
 10
8.2856233387
 20
10.300643409
 30
0.0
 40
0.1542687964746279
100
AcDbArc
 50
38.802861523
 51
50.3357915391
  0
LWPOLYLINE
  5
9F
330
1F
100
AcDbEntity
  8
0
  6
Continuous
 62
     7
 48
2.0
370
    15
100
AcDbPolyline
 90
        9
 70
   128
 43
0.0
 10
8.384091124
 20
10.4193992838
 10
8.3755088764
 20
10.4109450564
 10
8.3664602343
 20
10.4020314927
 10
8.3569872904
 20
10.3926998239
 10
8.3471336042
 20
10.3829932518
 10
8.3369450819
 20
10.3729566928
 10
8.3264686563
 20
10.3626365891
 10
8.3157528734
 20
10.3520806939
 10
8.3048473061
 20
10.3413378697
  0
LINE
  5
A0
330
1F
100
AcDbEntity
  8
0
  6
Continuous
 62
     7
 48
2.0
370
    15
100
AcDbLine
 10
8.3048473061
 20
10.3413378697
 30
0.0
 11
8.2450936497
 21
10.3417870266
 31
0.0
  0
LWPOLYLINE
  5
A1
330
1F
100
AcDbEntity
  8
0
  6
Continuous
 62
     7
 48
2.0
370
    15
100
AcDbPolyline
 90
        9
 70
   128
 43
0.0
 10
8.2450936497
 20
10.3417870266
 10
8.2450380637
 20
10.3343883104
 10
8.2449821843
 20
10.326953219
 10
8.2449260116
 20
10.319489843
 10
8.2448698389
 20
10.3120062995
 10
8.2448133729
 20
10.3045107285
 10
8.2447570536
 20
10.297011285
 10
8.2447007342
 20
10.2895161266
 10
8.2446444149
 20
10.2820334057
  0
LINE
  5
A2
330
1F
100
AcDbEntity
  8
0
  6
Continuous
 62
     7
 48
2.0
370
    15
100
AcDbLine
 10
8.3266021214
 20
10.3192534122
 30
0.0
 11
8.3267669728
 21
10.3411731008
 31
0.0
  0
LINE
  5
A3
330
1F
100
AcDbEntity
  8
0
  6
Continuous
 62
     7
 48
2.0
370
    15
100
AcDbLine
 10
8.3267669728
 20
10.3411731008
 30
0.0
 11
8.3048473061
 21
10.3413378697
 31
0.0
  0
LINE
  5
A4
330
1F
100
AcDbEntity
  8
0
  6
Continuous
 62
     7
 48
2.0
370
    15
100
AcDbLine
 10
8.2444797101
 20
10.2601137172
 30
0.0
 11
8.2663993769
 21
10.2599489482
 31
0.0
  0
LINE
  5
A5
330
1F
100
AcDbEntity
  8
0
  6
Continuous
 62
     7
 48
2.0
370
    15
100
AcDbLine
 10
8.2446444149
 20
10.2820334057
 30
0.0
 11
8.2444797101
 21
10.2601137172
 31
0.0
  0
CIRCLE
  5
A6
330
1F
100
AcDbEntity
  8
0
  6
Continuous
 62
     7
 48
4.0
370
    15
100
AcDbCircle
 10
8.2856233387
 20
10.300643409
 30
0.0
 40
0.1865000000000017
  0
LWPOLYLINE
  5
A7
330
1F
100
AcDbEntity
  8
0
  6
Continuous
 62
     7
 48
2.0
370
    15
100
AcDbPolyline
 90
        9
 70
   128
 43
0.0
 10
11.7663993713
 20
10.3413378697
 10
11.7554938039
 20
10.3520806939
 10
11.744778021
 20
10.3626365891
 10
11.7343015954
 20
10.3729566928
 10
11.7241130731
 20
10.3829932518
 10
11.7142593869
 20
10.3926998239
 10
11.704786443
 20
10.4020314927
 10
11.6957378009
 20
10.4109450564
 10
11.6871555534
 20
10.4193992838
  0
ARC
  5
A8
330
1F
100
AcDbEntity
  8
0
  6
Continuous
 62
     7
 48
4.0
370
    15
100
AcDbCircle
 10
11.7856233387
 20
10.300643409
 30
0.0
 40
0.154268796474629
100
AcDbArc
 50
129.6642084609
 51
141.197138477
  0
LWPOLYLINE
  5
A9
330
1F
100
AcDbEntity
  8
0
  6
Continuous
 62
     7
 48
2.0
370
    15
100
AcDbPolyline
 90
        9
 70
   128
 43
0.0
 10
11.6654005913
 20
10.3973148297
 10
11.6739829855
 20
10.3888606024
 10
11.683031481
 20
10.3799470295
 10
11.6925045716
 20
10.3706153698
 10
11.7023581111
 20
10.3609087978
 10
11.71254678
 20
10.3508722341
 10
11.7230232057
 20
10.3405521304
 10
11.7337389886
 20
10.3299962399
 10
11.7446445559
 20
10.3192534122
  0
LWPOLYLINE
  5
AA
330
1F
100
AcDbEntity
  8
0
  6
Continuous
 62
     7
 48
2.0
370
    15
100
AcDbPolyline
 90
        9
 70
   128
 43
0.0
 10
11.8048473004
 20
10.2599489482
 10
11.8157528678
 20
10.249206124
 10
11.8264686507
 20
10.2386502289
 10
11.8369450763
 20
10.2283301252
 10
11.8471335986
 20
10.2182935661
 10
11.8569872848
 20
10.2085869941
 10
11.8664602287
 20
10.1992553252
 10
11.8755088708
 20
10.1903417615
 10
11.8840911183
 20
10.1818875342
  0
ARC
  5
AB
330
1F
100
AcDbEntity
  8
0
  6
Continuous
 62
     7
 48
4.0
370
    15
100
AcDbCircle
 10
11.7856233387
 20
10.300643409
 30
0.0
 40
0.1542687964746305
100
AcDbArc
 50
309.6642084609
 51
321.197138477
  0
LWPOLYLINE
  5
AC
330
1F
100
AcDbEntity
  8
0
  6
Continuous
 62
     7
 48
2.0
370
    15
100
AcDbPolyline
 90
        9
 70
   128
 43
0.0
 10
11.9058460804
 20
10.2039719882
 10
11.8972636862
 20
10.2124262156
 10
11.8882151907
 20
10.2213397884
 10
11.8787421001
 20
10.2306714481
 10
11.8688885606
 20
10.2403780202
 10
11.8586998917
 20
10.2504145838
 10
11.848223466
 20
10.2607346875
 10
11.8375076831
 20
10.2712905781
 10
11.8266022625
 20
10.2820334057
  0
LWPOLYLINE
  5
AD
330
1F
100
AcDbEntity
  8
0
  6
Continuous
 62
     7
 48
2.0
370
    15
100
AcDbPolyline
 90
        9
 70
   128
 43
0.0
 10
11.8266022625
 20
10.2820334057
 10
11.8265459431
 20
10.2895161266
 10
11.8264896238
 20
10.297011285
 10
11.8264333044
 20
10.3045107285
 10
11.8263768384
 20
10.3120062995
 10
11.8263206657
 20
10.319489843
 10
11.826264493
 20
10.326953219
 10
11.8262086137
 20
10.3343883104
 10
11.8261530276
 20
10.3417870266
  0
LINE
  5
AE
330
1F
100
AcDbEntity
  8
0
  6
Continuous
 62
     7
 48
2.0
370
    15
100
AcDbLine
 10
11.8261530276
 20
10.3417870266
 30
0.0
 11
11.7663993713
 21
10.3413378697
 31
0.0
  0
LINE
  5
AF
330
1F
100
AcDbEntity
  8
0
  6
Continuous
 62
     7
 48
2.0
370
    15
100
AcDbLine
 10
11.745093644
 20
10.2594997913
 30
0.0
 11
11.8048473004
 21
10.2599489482
 31
0.0
  0
LWPOLYLINE
  5
B0
330
1F
100
AcDbEntity
  8
0
  6
Continuous
 62
     7
 48
2.0
370
    15
100
AcDbPolyline
 90
        9
 70
   128
 43
0.0
 10
11.7446445559
 20
10.3192534122
 10
11.7447007286
 20
10.3117706914
 10
11.7447570479
 20
10.3042755329
 10
11.744813514
 20
10.2967760894
 10
11.7448698333
 20
10.2892805185
 10
11.744926006
 20
10.2817969749
 10
11.7449821787
 20
10.2743335989
 10
11.745038058
 20
10.2668985075
 10
11.745093644
 20
10.2594997913
  0
LINE
  5
B1
330
1F
100
AcDbEntity
  8
0
  6
Continuous
 62
     7
 48
2.0
370
    15
100
AcDbLine
 10
11.8267669672
 20
10.2601137172
 30
0.0
 11
11.8266022625
 21
10.2820334057
 31
0.0
  0
LINE
  5
B2
330
1F
100
AcDbEntity
  8
0
  6
Continuous
 62
     7
 48
2.0
370
    15
100
AcDbLine
 10
11.8048473004
 20
10.2599489482
 30
0.0
 11
11.8267669672
 21
10.2601137172
 31
0.0
  0
LINE
  5
B3
330
1F
100
AcDbEntity
  8
0
  6
Continuous
 62
     7
 48
2.0
370
    15
100
AcDbLine
 10
11.7663993713
 20
10.3413378697
 30
0.0
 11
11.7444797045
 21
10.3411731008
 31
0.0
  0
LINE
  5
B4
330
1F
100
AcDbEntity
  8
0
  6
Continuous
 62
     7
 48
2.0
370
    15
100
AcDbLine
 10
11.7444797045
 20
10.3411731008
 30
0.0
 11
11.7446445559
 21
10.3192534122
 31
0.0
  0
CIRCLE
  5
B5
330
1F
100
AcDbEntity
  8
0
  6
Continuous
 62
     7
 48
4.0
370
    15
100
AcDbCircle
 10
11.7856233387
 20
10.300643409
 30
0.0
 40
0.1864999999999979
  0
DIMENSION
  5
B6
330
1F
100
AcDbEntity
  8
0
  6
Continuous
 62
     7
 48
2.0
370
     0
100
AcDbDimension
  2
*D5
 10
12.0356233387
 20
14.0017267502
 30
0.0
 11
10.0356233387
 21
14.0017267502
 31
0.0
 70
   160
 71
     2
 42
-1.0
  3
SLDDIMSTYLE0
100
AcDbAlignedDimension
 13
8.0356233387
 23
13.300643409
 33
0.0
 14
12.0356233387
 24
13.300643409
 34
0.0
100
AcDbRotatedDimension
  0
DIMENSION
  5
C9
330
1F
100
AcDbEntity
  8
0
  6
Continuous
 62
     7
 48
2.0
370
     0
100
AcDbDimension
  2
*D6
 10
12.8367682919
 20
7.300643409
 30
0.0
 11
12.8367682919
 21
10.300643409
 31
0.0
 70
   160
 71
     2
 42
-1.0
  3
SLDDIMSTYLE0
100
AcDbAlignedDimension
 13
12.0356233387
 23
13.300643409
 33
0.0
 14
12.0356233387
 24
7.300643409
 34
0.0
 50
90.0
100
AcDbRotatedDimension
  0
INSERT
  5
E3
102
{ACAD_REACTORS
330
E5
102
}
330
1F
100
AcDbEntity
  8
0
  6
Continuous
 62
     7
 48
2.0
370
     0
100
AcDbBlockReference
  2
SW_NOTE_4
 10
13.3590632799
 20
5.69370326
 30
0.0
  0
LEADER
  5
E5
330
1F
100
AcDbEntity
  8
0
  6
Continuous
 62
     7
 48
2.0
370
     0
100
AcDbLeader
  3
SLDDIMSTYLE1
 73
     2
 76
     3
 10
11.8405935288
 20
10.1224285718
 30
0.0
 10
12.8590632799
 20
5.69370326
 30
0.0
 10
13.3590632799
 20
5.69370326
 30
0.0
340
E3
  0
LINE
  5
E6
330
1F
100
AcDbEntity
  8
0
  6
Continuous
 62
     7
 48
2.0
370
    15
100
AcDbLine
 10
8.4721234003
 20
15.0759969211
 30
0.0
 11
8.4721234003
 21
15.109328296
 31
0.0
  0
LINE
  5
E7
330
1F
100
AcDbEntity
  8
0
  6
Continuous
 62
     7
 48
2.0
370
    15
100
AcDbLine
 10
8.0991232826
 20
15.109328296
 30
0.0
 11
8.0991232826
 21
15.0759969211
 31
0.0
  0
ARC
  5
E8
330
1F
100
AcDbEntity
  8
0
  6
Continuous
 62
     7
 48
4.0
370
    15
100
AcDbCircle
 10
8.4571233387
 20
15.0759969556
 30
0.0
 40
0.0150000000000016
100
AcDbArc
 50
322.550643686
 51
0.0
  0
ARC
  5
E9
330
1F
100
AcDbEntity
  8
0
  6
Continuous
 62
     7
 48
4.0
370
    15
100
AcDbCircle
 10
8.1141233387
 20
15.0759969556
 30
0.0
 40
0.0150000000000002
100
AcDbArc
 50
180.0
 51
217.449356314
  0
ARC
  5
EA
330
1F
100
AcDbEntity
  8
0
  6
Continuous
 62
     7
 48
4.0
370
    15
100
AcDbCircle
 10
8.2856233387
 20
15.2073528545
 30
0.0
 40
0.2310245869783038
100
AcDbArc
 50
280.1818657166
 51
322.550643686
  0
ARC
  5
EB
330
1F
100
AcDbEntity
  8
0
  6
Continuous
 62
     7
 48
4.0
370
    15
100
AcDbCircle
 10
8.2856233387
 20
15.2073528545
 30
0.0
 40
0.2310245869783038
100
AcDbArc
 50
217.449356314
 51
259.8181342834
  0
LINE
  5
EC
330
1F
100
AcDbEntity
  8
0
  6
Continuous
 62
     7
 48
2.0
370
    15
100
AcDbLine
 10
8.3546233444
 20
15.2333282502
 30
0.0
 11
8.3546233444
 21
15.3103282407
 31
0.0
  0
LINE
  5
ED
330
1F
100
AcDbEntity
  8
0
  6
Continuous
 62
     7
 48
2.0
370
    15
100
AcDbLine
 10
8.2166233386
 20
15.3103282407
 30
0.0
 11
8.2166233386
 21
15.2333282502
 31
0.0
  0
LINE
  5
EE
330
1F
100
AcDbEntity
  8
0
  6
Continuous
 62
     7
 48
2.0
370
    15
100
AcDbLine
 10
11.9721233947
 20
15.0759969211
 30
0.0
 11
11.9721233947
 21
15.109328296
 31
0.0
  0
LINE
  5
EF
330
1F
100
AcDbEntity
  8
0
  6
Continuous
 62
     7
 48
2.0
370
    15
100
AcDbLine
 10
11.599123277
 20
15.109328296
 30
0.0
 11
11.599123277
 21
15.0759969211
 31
0.0
  0
ARC
  5
F0
330
1F
100
AcDbEntity
  8
0
  6
Continuous
 62
     7
 48
4.0
370
    15
100
AcDbCircle
 10
11.9571233387
 20
15.0759969556
 30
0.0
 40
0.0150000000000002
100
AcDbArc
 50
322.550643686
 51
0.0
  0
ARC
  5
F1
330
1F
100
AcDbEntity
  8
0
  6
Continuous
 62
     7
 48
4.0
370
    15
100
AcDbCircle
 10
11.6141233387
 20
15.0759969556
 30
0.0
 40
0.0150000000000016
100
AcDbArc
 50
180.0
 51
217.449356314
  0
ARC
  5
F2
330
1F
100
AcDbEntity
  8
0
  6
Continuous
 62
     7
 48
4.0
370
    15
100
AcDbCircle
 10
11.7856233387
 20
15.2073528545
 30
0.0
 40
0.2310245869783052
100
AcDbArc
 50
280.1818657166
 51
322.550643686
  0
ARC
  5
F3
330
1F
100
AcDbEntity
  8
0
  6
Continuous
 62
     7
 48
4.0
370
    15
100
AcDbCircle
 10
11.7856233387
 20
15.2073528545
 30
0.0
 40
0.2310245869783038
100
AcDbArc
 50
217.449356314
 51
259.8181342834
  0
LINE
  5
F4
330
1F
100
AcDbEntity
  8
0
  6
Continuous
 62
     7
 48
2.0
370
    15
100
AcDbLine
 10
11.8546233388
 20
15.2333282502
 30
0.0
 11
11.8546233388
 21
15.3103282407
 31
0.0
  0
LINE
  5
F5
330
1F
100
AcDbEntity
  8
0
  6
Continuous
 62
     7
 48
2.0
370
    15
100
AcDbLine
 10
11.7166233329
 20
15.3103282407
 30
0.0
 11
11.7166233329
 21
15.2333282502
 31
0.0
  0
LINE
  5
F6
330
1F
100
AcDbEntity
  8
0
  6
Continuous
 62
     7
 48
2.0
370
    15
100
AcDbLine
 10
8.0356233628
 20
15.1713282731
 30
0.0
 11
8.0356233628
 21
15.109328296
 31
0.0
  0
LINE
  5
F7
330
1F
100
AcDbEntity
  8
0
  6
Continuous
 62
     7
 48
2.0
370
    15
100
AcDbLine
 10
12.0356233145
 20
15.1713282731
 30
0.0
 11
8.0356233628
 21
15.1713282731
 31
0.0
  0
LINE
  5
F8
330
1F
100
AcDbEntity
  8
0
  6
Continuous
 62
     7
 48
2.0
370
    15
100
AcDbLine
 10
12.0356233145
 20
15.1713282731
 30
0.0
 11
12.0356233145
 21
15.109328296
 31
0.0
  0
LINE
  5
F9
330
1F
100
AcDbEntity
  8
0
  6
Continuous
 62
     7
 48
2.0
370
    15
100
AcDbLine
 10
12.0356233145
 20
15.109328296
 30
0.0
 11
8.0356233628
 21
15.109328296
 31
0.0
  0
LINE
  5
FA
330
1F
100
AcDbEntity
  8
0
  6
Continuous
 62
     7
 48
2.0
370
    15
100
AcDbLine
 10
11.5046233686
 20
15.3103282407
 30
0.0
 11
11.8966233469
 21
15.3103282407
 31
0.0
  0
LINE
  5
FB
330
1F
100
AcDbEntity
  8
0
  6
Continuous
 62
     7
 48
2.0
370
    15
100
AcDbLine
 10
11.5046233686
 20
15.2483282636
 30
0.0
 11
11.5046233686
 21
15.3103282407
 31
0.0
  0
LINE
  5
FC
330
1F
100
AcDbEntity
  8
0
  6
Continuous
 62
     7
 48
2.0
370
    15
100
AcDbLine
 10
8.5666233087
 20
15.2483282636
 30
0.0
 11
8.5666233087
 21
15.3103282407
 31
0.0
  0
LINE
  5
FD
330
1F
100
AcDbEntity
  8
0
  6
Continuous
 62
     7
 48
2.0
370
    15
100
AcDbLine
 10
8.5666233087
 20
15.3103282407
 30
0.0
 11
8.1746233304
 21
15.3103282407
 31
0.0
  0
LINE
  5
FE
330
1F
100
AcDbEntity
  8
0
  6
Continuous
 62
     7
 48
2.0
370
    15
100
AcDbLine
 10
11.8966233469
 20
18.5323282632
 30
0.0
 11
11.9736233374
 21
18.5323282632
 31
0.0
  0
LINE
  5
FF
330
1F
100
AcDbEntity
  8
0
  6
Continuous
 62
     7
 48
2.0
370
    15
100
AcDbLine
 10
11.9736233374
 20
15.3103282407
 30
0.0
 11
11.8966233469
 21
15.3103282407
 31
0.0
  0
LINE
  5
100
330
1F
100
AcDbEntity
  8
0
  6
Continuous
 62
     7
 48
2.0
370
    15
100
AcDbLine
 10
8.0976233399
 20
15.3103282407
 30
0.0
 11
8.1746233304
 21
15.3103282407
 31
0.0
  0
LINE
  5
101
330
1F
100
AcDbEntity
  8
0
  6
Continuous
 62
     7
 48
2.0
370
    15
100
AcDbLine
 10
8.1746233304
 20
18.5323282632
 30
0.0
 11
8.0976233399
 21
18.5323282632
 31
0.0
  0
LINE
  5
102
330
1F
100
AcDbEntity
  8
0
  6
Continuous
 62
     7
 48
2.0
370
    15
100
AcDbLine
 10
11.8966233469
 20
18.6093282675
 30
0.0
 11
11.8966233469
 21
18.5323282632
 31
0.0
  0
LINE
  5
103
330
1F
100
AcDbEntity
  8
0
  6
Continuous
 62
     7
 48
2.0
370
    15
100
AcDbLine
 10
8.1746233304
 20
18.6093282675
 30
0.0
 11
8.1746233304
 21
18.5323282632
 31
0.0
  0
LINE
  5
104
330
1F
100
AcDbEntity
  8
0
  6
Continuous
 62
     7
 48
2.0
370
    15
100
AcDbLine
 10
11.5046233686
 20
15.2483282636
 30
0.0
 11
11.5046233686
 21
15.1713282731
 31
0.0
  0
LINE
  5
105
330
1F
100
AcDbEntity
  8
0
  6
Continuous
 62
     7
 48
2.0
370
    15
100
AcDbLine
 10
8.5666233087
 20
15.2483282636
 30
0.0
 11
8.5666233087
 21
15.1713282731
 31
0.0
  0
ARC
  5
106
330
1F
100
AcDbEntity
  8
0
  6
Continuous
 62
     7
 48
4.0
370
    15
100
AcDbCircle
 10
11.9586233387
 20
18.5943282675
 30
0.0
 40
0.0150000000000006
100
AcDbArc
 50
0.0
 51
90.0
  0
ARC
  5
107
330
1F
100
AcDbEntity
  8
0
  6
Continuous
 62
     7
 48
4.0
370
    15
100
AcDbCircle
 10
11.9586233387
 20
18.5943282675
 30
0.0
 40
0.0769999999999982
100
AcDbArc
 50
0.0
 51
90.0
  0
LINE
  5
108
330
1F
100
AcDbEntity
  8
0
  6
Continuous
 62
     7
 48
2.0
370
    15
100
AcDbLine
 10
8.0976233399
 20
18.5943282678
 30
0.0
 11
8.0976233399
 21
15.2483282636
 31
0.0
  0
LINE
  5
109
330
1F
100
AcDbEntity
  8
0
  6
Continuous
 62
     7
 48
2.0
370
    15
100
AcDbLine
 10
8.0356233628
 20
18.5943282678
 30
0.0
 11
8.0356233628
 21
15.2483282636
 31
0.0
  0
LINE
  5
10A
330
1F
100
AcDbEntity
  8
0
  6
Continuous
 62
     7
 48
2.0
370
    15
100
AcDbLine
 10
11.9736233374
 20
15.2483282636
 30
0.0
 11
11.9736233374
 21
18.5943282678
 31
0.0
  0
LINE
  5
10B
330
1F
100
AcDbEntity
  8
0
  6
Continuous
 62
     7
 48
2.0
370
    15
100
AcDbLine
 10
12.0356233145
 20
15.2483282636
 30
0.0
 11
12.0356233145
 21
18.5943282678
 31
0.0
  0
LINE
  5
10C
330
1F
100
AcDbEntity
  8
0
  6
Continuous
 62
     7
 48
2.0
370
    15
100
AcDbLine
 10
11.958623324
 20
18.6713282675
 30
0.0
 11
8.1126233533
 21
18.6713282675
 31
0.0
  0
LINE
  5
10D
330
1F
100
AcDbEntity
  8
0
  6
Continuous
 62
     7
 48
2.0
370
    15
100
AcDbLine
 10
11.958623324
 20
18.6093282675
 30
0.0
 11
8.1126233533
 21
18.6093282675
 31
0.0
  0
ARC
  5
10E
330
1F
100
AcDbEntity
  8
0
  6
Continuous
 62
     7
 48
4.0
370
    15
100
AcDbCircle
 10
8.1126233387
 20
18.5943282675
 30
0.0
 40
0.077
100
AcDbArc
 50
90.0
 51
180.0
  0
ARC
  5
10F
330
1F
100
AcDbEntity
  8
0
  6
Continuous
 62
     7
 48
4.0
370
    15
100
AcDbCircle
 10
8.1126233387
 20
18.5943282675
 30
0.0
 40
0.0150000000000006
100
AcDbArc
 50
90.0
 51
180.0
  0
LINE
  5
110
330
1F
100
AcDbEntity
  8
0
  6
Continuous
 62
     7
 48
2.0
370
    15
100
AcDbLine
 10
8.1126233533
 20
15.1713282731
 30
0.0
 11
8.5356233201
 21
15.1713282731
 31
0.0
  0
LINE
  5
111
330
1F
100
AcDbEntity
  8
0
  6
Continuous
 62
     7
 48
2.0
370
    15
100
AcDbLine
 10
8.5356233201
 20
15.2333282502
 30
0.0
 11
8.5356233201
 21
15.1713282731
 31
0.0
  0
LINE
  5
112
330
1F
100
AcDbEntity
  8
0
  6
Continuous
 62
     7
 48
2.0
370
    15
100
AcDbLine
 10
8.1126233533
 20
15.2333282502
 30
0.0
 11
8.5356233201
 21
15.2333282502
 31
0.0
  0
LINE
  5
113
330
1F
100
AcDbEntity
  8
0
  6
Continuous
 62
     7
 48
2.0
370
    15
100
AcDbLine
 10
11.5356233572
 20
15.1713282731
 30
0.0
 11
11.5356233572
 21
15.2333282502
 31
0.0
  0
LINE
  5
114
330
1F
100
AcDbEntity
  8
0
  6
Continuous
 62
     7
 48
2.0
370
    15
100
AcDbLine
 10
11.5356233572
 20
15.2333282502
 30
0.0
 11
11.958623324
 21
15.2333282502
 31
0.0
  0
LINE
  5
115
330
1F
100
AcDbEntity
  8
0
  6
Continuous
 62
     7
 48
2.0
370
    15
100
AcDbLine
 10
11.5356233572
 20
15.1713282731
 30
0.0
 11
11.958623324
 21
15.1713282731
 31
0.0
  0
ARC
  5
116
330
1F
100
AcDbEntity
  8
0
  6
Continuous
 62
     7
 48
4.0
370
    15
100
AcDbCircle
 10
11.9586233387
 20
15.2483282675
 30
0.0
 40
0.0150000000000006
100
AcDbArc
 50
270.0
 51
0.0
  0
ARC
  5
117
330
1F
100
AcDbEntity
  8
0
  6
Continuous
 62
     7
 48
4.0
370
    15
100
AcDbCircle
 10
11.9586233387
 20
15.2483282675
 30
0.0
 40
0.077
100
AcDbArc
 50
270.0
 51
0.0
  0
ARC
  5
118
330
1F
100
AcDbEntity
  8
0
  6
Continuous
 62
     7
 48
4.0
370
    15
100
AcDbCircle
 10
8.1126233387
 20
15.2483282675
 30
0.0
 40
0.077
100
AcDbArc
 50
180.0
 51
270.0
  0
ARC
  5
119
330
1F
100
AcDbEntity
  8
0
  6
Continuous
 62
     7
 48
4.0
370
    15
100
AcDbCircle
 10
8.1126233387
 20
15.2483282675
 30
0.0
 40
0.0149999999999988
100
AcDbArc
 50
180.0
 51
270.0
  0
ARC
  5
11A
330
1F
100
AcDbEntity
  8
0
  6
Continuous
 62
     7
 48
4.0
370
    15
100
AcDbCircle
 10
8.2853227648
 20
15.2074440482
 30
0.0
 40
0.2274777714182758
100
AcDbArc
 50
265.2281724848
 51
270.0910011767
  0
ARC
  5
11B
330
1F
100
AcDbEntity
  8
0
  6
Continuous
 62
     7
 48
4.0
370
    15
100
AcDbCircle
 10
8.2853137291
 20
15.207378284
 30
0.0
 40
0.2274119557834262
100
AcDbArc
 50
275.0022380023
 51
280.3454673196
  0
LWPOLYLINE
  5
11C
330
1F
100
AcDbEntity
  8
0
  6
Continuous
 62
     7
 48
2.0
370
    15
100
AcDbPolyline
 90
        9
 70
   128
 43
0.0
 10
8.3261530333
 20
14.983663401
 10
8.3262086193
 20
14.9824384552
 10
8.3262644987
 20
14.9814581465
 10
8.3263206713
 20
14.980723355
 10
8.326376844
 20
14.980235254
 10
8.3264331634
 20
14.9799941368
 10
8.3264896294
 20
14.98000059
 10
8.3265459487
 20
14.9802540271
 10
8.3266021214
 20
14.9807547413
  0
ARC
  5
11D
330
1F
100
AcDbEntity
  8
0
  6
Continuous
 62
     7
 48
4.0
370
    15
100
AcDbCircle
 10
8.2840112983
 20
15.127326519
 30
0.0
 40
0.1526344136162122
100
AcDbArc
 50
286.2028063915
 51
322.9598026953
  0
LINE
  5
11E
330
1F
100
AcDbEntity
  8
0
  6
Continuous
 62
     7
 48
2.0
370
    15
100
AcDbLine
 10
8.384091124
 20
15.0353833369
 30
0.0
 11
8.405846086
 21
15.0353833369
 31
0.0
  0
ARC
  5
11F
330
1F
100
AcDbEntity
  8
0
  6
Continuous
 62
     7
 48
4.0
370
    15
100
AcDbCircle
 10
8.2622562911
 20
15.1273264701
 30
0.0
 40
0.1526344202281684
100
AcDbArc
 50
286.202880652
 51
322.9598275424
  0
ARC
  5
120
330
1F
100
AcDbEntity
  8
0
  6
Continuous
 62
     7
 48
4.0
370
    15
100
AcDbCircle
 10
8.285929839
 20
15.2073512197
 30
0.0
 40
0.2273847721380727
100
AcDbArc
 50
259.6540801121
 51
274.7722865836
  0
ARC
  5
121
330
1F
100
AcDbEntity
  8
0
  6
Continuous
 62
     7
 48
4.0
370
    15
100
AcDbCircle
 10
8.2286653458
 20
14.9831766073
 30
0.0
 40
0.0164355144731343
100
AcDbArc
 50
348.7370837821
 51
1.6972576963
  0
LINE
  5
122
330
1F
100
AcDbEntity
  8
0
  6
Continuous
 62
     7
 48
2.0
370
    15
100
AcDbLine
 10
8.3266021214
 20
14.9886438502
 30
0.0
 11
8.3266021214
 21
14.9807547413
 31
0.0
  0
LINE
  5
123
330
1F
100
AcDbEntity
  8
0
  6
Continuous
 62
     7
 48
2.0
370
    15
100
AcDbLine
 10
8.3261530333
 20
14.9884349993
 30
0.0
 11
8.3261530333
 21
14.983663401
 31
0.0
  0
LINE
  5
124
330
1F
100
AcDbEntity
  8
0
  6
Continuous
 62
     7
 48
2.0
370
    15
100
AcDbLine
 10
8.2663993769
 20
14.9807547413
 30
0.0
 11
8.2663993769
 21
14.9808066607
 31
0.0
  0
ARC
  5
125
330
1F
100
AcDbEntity
  8
0
  6
Continuous
 62
     7
 48
4.0
370
    15
100
AcDbCircle
 10
11.8089903862
 20
15.1273264701
 30
0.0
 40
0.1526344202281769
100
AcDbArc
 50
217.0401724576
 51
253.797119348
  0
LINE
  5
126
330
1F
100
AcDbEntity
  8
0
  6
Continuous
 62
     7
 48
2.0
370
    15
100
AcDbLine
 10
11.6654005913
 20
15.0353833369
 30
0.0
 11
11.6871555534
 21
15.0353833369
 31
0.0
  0
ARC
  5
127
330
1F
100
AcDbEntity
  8
0
  6
Continuous
 62
     7
 48
4.0
370
    15
100
AcDbCircle
 10
11.787235379
 20
15.127326519
 30
0.0
 40
0.1526344136162026
100
AcDbArc
 50
217.0401973047
 51
253.7971936085
  0
LWPOLYLINE
  5
128
330
1F
100
AcDbEntity
  8
0
  6
Continuous
 62
     7
 48
2.0
370
    15
100
AcDbPolyline
 90
        9
 70
   128
 43
0.0
 10
11.7446445559
 20
14.9807547413
 10
11.7447007286
 20
14.9802540271
 10
11.7447570479
 20
14.98000059
 10
11.744813514
 20
14.9799941368
 10
11.7448698333
 20
14.980235254
 10
11.744926006
 20
14.980723355
 10
11.7449821787
 20
14.9814581465
 10
11.745038058
 20
14.9824384552
 10
11.745093644
 20
14.983663401
  0
ARC
  5
129
330
1F
100
AcDbEntity
  8
0
  6
Continuous
 62
     7
 48
4.0
370
    15
100
AcDbCircle
 10
11.7859329483
 20
15.207378284
 30
0.0
 40
0.2274119557833836
100
AcDbArc
 50
259.6545326804
 51
264.9977619977
  0
ARC
  5
12A
330
1F
100
AcDbEntity
  8
0
  6
Continuous
 62
     7
 48
4.0
370
    15
100
AcDbCircle
 10
11.7859280397
 20
15.2073688239
 30
0.0
 40
0.2274024645152311
100
AcDbArc
 50
269.9231905782
 51
274.7723679474
  0
ARC
  5
12B
330
1F
100
AcDbEntity
  8
0
  6
Continuous
 62
     7
 48
4.0
370
    15
100
AcDbCircle
 10
11.8425813315
 20
14.9831766073
 30
0.0
 40
0.0164355144728722
100
AcDbArc
 50
178.3027423036
 51
191.2629162181
  0
ARC
  5
12C
330
1F
100
AcDbEntity
  8
0
  6
Continuous
 62
     7
 48
4.0
370
    15
100
AcDbCircle
 10
11.7853168383
 20
15.2073512197
 30
0.0
 40
0.2273847721380692
100
AcDbArc
 50
265.2277134164
 51
280.3459198879
  0
LINE
  5
12D
330
1F
100
AcDbEntity
  8
0
  6
Continuous
 62
     7
 48
2.0
370
    15
100
AcDbLine
 10
11.7446445559
 20
14.9807547413
 30
0.0
 11
11.7446445559
 21
14.9886438502
 31
0.0
  0
LINE
  5
12E
330
1F
100
AcDbEntity
  8
0
  6
Continuous
 62
     7
 48
2.0
370
    15
100
AcDbLine
 10
11.745093644
 20
14.9884349993
 30
0.0
 11
11.745093644
 21
14.983663401
 31
0.0
  0
LINE
  5
12F
330
1F
100
AcDbEntity
  8
0
  6
Continuous
 62
     7
 48
2.0
370
    15
100
AcDbLine
 10
11.8048473004
 20
14.9808066607
 30
0.0
 11
11.8048473004
 21
14.9807547413
 31
0.0
  0
DIMENSION
  5
130
330
1F
100
AcDbEntity
  8
0
  6
Continuous
 62
     7
 48
2.0
370
     0
100
AcDbDimension
  2
*D8
 10
12.8367682919
 20
15.1713282675
 30
0.0
 11
12.8367682919
 21
16.9213282675
 31
0.0
 70
   160
 71
     2
 42
-1.0
  3
SLDDIMSTYLE0
100
AcDbAlignedDimension
 13
11.9586233387
 23
18.6713282675
 33
0.0
 14
12.0356233387
 24
15.1713282675
 34
0.0
 50
90.0
100
AcDbRotatedDimension
  0
LINE
  5
142
330
1F
100
AcDbEntity
  8
0
  6
Continuous
 62
     7
 48
2.0
370
    15
100
AcDbLine
 10
21.0785061857
 20
10.1141434051
 30
0.0
 11
21.1118375606
 21
10.1141434051
 31
0.0
  0
LINE
  5
143
330
1F
100
AcDbEntity
  8
0
  6
Continuous
 62
     7
 48
2.0
370
    15
100
AcDbLine
 10
21.1118375606
 20
10.4871434128
 30
0.0
 11
21.0785061857
 21
10.4871434128
 31
0.0
  0
ARC
  5
144
330
1F
100
AcDbEntity
  8
0
  6
Continuous
 62
     7
 48
4.0
370
    15
100
AcDbCircle
 10
21.0785062201
 20
10.129143409
 30
0.0
 40
0.0150000000000005
100
AcDbArc
 50
232.550643686
 51
270.0
  0
ARC
  5
145
330
1F
100
AcDbEntity
  8
0
  6
Continuous
 62
     7
 48
4.0
370
    15
100
AcDbCircle
 10
21.0785062201
 20
10.472143409
 30
0.0
 40
0.0150000000000006
100
AcDbArc
 50
90.0
 51
127.449356314
  0
ARC
  5
146
330
1F
100
AcDbEntity
  8
0
  6
Continuous
 62
     7
 48
4.0
370
    15
100
AcDbCircle
 10
21.2098621191
 20
10.300643409
 30
0.0
 40
0.2310245869783057
100
AcDbArc
 50
190.1818657166
 51
232.550643686
  0
ARC
  5
147
330
1F
100
AcDbEntity
  8
0
  6
Continuous
 62
     7
 48
4.0
370
    15
100
AcDbCircle
 10
21.2098621191
 20
10.300643409
 30
0.0
 40
0.2310245869783054
100
AcDbArc
 50
127.449356314
 51
169.8181342834
  0
LINE
  5
148
330
1F
100
AcDbEntity
  8
0
  6
Continuous
 62
     7
 48
2.0
370
    15
100
AcDbLine
 10
21.1118375606
 20
7.3006433719
 30
0.0
 11
21.1118375606
 21
13.300643446
 31
0.0
  0
LINE
  5
149
330
1F
100
AcDbEntity
  8
0
  6
Continuous
 62
     7
 48
2.0
370
    15
100
AcDbLine
 10
21.1738375377
 20
13.300643446
 30
0.0
 11
21.1118375606
 21
13.300643446
 31
0.0
  0
LINE
  5
14A
330
1F
100
AcDbEntity
  8
0
  6
Continuous
 62
     7
 48
2.0
370
    15
100
AcDbLine
 10
21.1738375377
 20
7.3006433719
 30
0.0
 11
21.1118375606
 21
7.3006433719
 31
0.0
  0
LINE
  5
14B
330
1F
100
AcDbEntity
  8
0
  6
Continuous
 62
     7
 48
2.0
370
    15
100
AcDbLine
 10
21.1738375377
 20
7.3006433719
 30
0.0
 11
21.1738375377
 21
13.300643446
 31
0.0
  0
LINE
  5
14C
330
1F
100
AcDbEntity
  8
0
  6
Continuous
 62
     7
 48
2.0
370
    15
100
AcDbLine
 10
21.2508375282
 20
7.3006433719
 30
0.0
 11
24.5968375324
 21
7.3006433719
 31
0.0
  0
LINE
  5
14D
330
1F
100
AcDbEntity
  8
0
  6
Continuous
 62
     7
 48
2.0
370
    15
100
AcDbLine
 10
21.2508375282
 20
13.300643446
 30
0.0
 11
24.5968375324
 21
13.300643446
 31
0.0
  0
LINE
  5
14E
330
1F
100
AcDbEntity
  8
0
  6
Continuous
 62
     7
 48
2.0
370
    15
100
AcDbLine
 10
24.6738375321
 20
13.300643446
 30
0.0
 11
24.6738375321
 21
7.3006433719
 31
0.0
  0
LINE
  5
14F
330
1F
100
AcDbEntity
  8
0
  6
Continuous
 62
     7
 48
2.0
370
    15
100
AcDbLine
 10
24.5968375324
 20
7.3006433719
 30
0.0
 11
24.6738375321
 21
7.3006433719
 31
0.0
  0
LINE
  5
150
330
1F
100
AcDbEntity
  8
0
  6
Continuous
 62
     7
 48
2.0
370
    15
100
AcDbLine
 10
24.5968375324
 20
13.300643446
 30
0.0
 11
24.6738375321
 21
13.300643446
 31
0.0
  0
LINE
  5
151
330
1F
100
AcDbEntity
  8
0
  6
Continuous
 62
     7
 48
2.0
370
    15
100
AcDbLine
 10
21.1738375377
 20
7.3006433719
 30
0.0
 11
21.2508375282
 21
7.3006433719
 31
0.0
  0
LINE
  5
152
330
1F
100
AcDbEntity
  8
0
  6
Continuous
 62
     7
 48
2.0
370
    15
100
AcDbLine
 10
21.1738375377
 20
13.300643446
 30
0.0
 11
21.2508375282
 21
13.300643446
 31
0.0
  0
ARC
  5
153
330
1F
100
AcDbEntity
  8
0
  6
Continuous
 62
     7
 48
4.0
370
    15
100
AcDbCircle
 10
21.2098662215
 20
10.3003375001
 30
0.0
 40
0.227390688859246
100
AcDbArc
 50
179.9075941826
 51
190.3460368955
  0
ARC
  5
154
330
1F
100
AcDbEntity
  8
0
  6
Continuous
 62
     7
 48
4.0
370
    15
100
AcDbCircle
 10
20.9831140905
 20
10.2585448654
 30
0.0
 40
0.0014120635210541
100
AcDbArc
 50
83.9055569895
 51
116.8725024733
  0
ARC
  5
155
330
1F
100
AcDbEntity
  8
0
  6
Continuous
 62
     7
 48
4.0
370
    15
100
AcDbCircle
 10
21.1273927962
 20
10.3026668458
 30
0.0
 40
0.150326068827193
100
AcDbArc
 50
196.5091379652
 51
233.4607198069
  0
LINE
  5
156
330
1F
100
AcDbEntity
  8
0
  6
Continuous
 62
     7
 48
2.0
370
    15
100
AcDbLine
 10
21.0378926015
 20
10.2039719882
 30
0.0
 11
21.0378926015
 21
10.1818875342
 31
0.0
  0
ARC
  5
157
330
1F
100
AcDbEntity
  8
0
  6
Continuous
 62
     7
 48
4.0
370
    15
100
AcDbCircle
 10
21.1273928469
 20
10.3247513334
 30
0.0
 40
0.1503261259982982
100
AcDbArc
 50
196.5091434949
 51
233.4607119068
  0
ARC
  5
158
330
1F
100
AcDbEntity
  8
0
  6
Continuous
 62
     7
 48
4.0
370
    15
100
AcDbCircle
 10
21.2098600526
 20
10.3009508695
 30
0.0
 40
0.2273843416051153
100
AcDbArc
 50
169.6540685711
 51
184.7722948167
  0
LWPOLYLINE
  5
159
330
1F
100
AcDbEntity
  8
0
  6
Continuous
 62
     7
 48
2.0
370
    15
100
AcDbPolyline
 90
        9
 70
   128
 43
0.0
 10
20.9861726656
 20
10.3417870266
 10
20.9849477198
 20
10.3417314131
 10
20.9839674111
 20
10.3416755245
 10
20.9832326196
 20
10.3416194206
 10
20.9827445186
 20
10.34156317
 10
20.9825034013
 20
10.3415068277
 10
20.9825098546
 20
10.3414504534
 10
20.9827632917
 20
10.3413941157
 10
20.9832640059
 20
10.3413378697
  0
LINE
  5
15A
330
1F
100
AcDbEntity
  8
0
  6
Continuous
 62
     7
 48
2.0
370
    15
100
AcDbLine
 10
20.9914655112
 20
10.2599489482
 30
0.0
 11
20.9832640059
 21
10.2599489482
 31
0.0
  0
LINE
  5
15B
330
1F
100
AcDbEntity
  8
0
  6
Continuous
 62
     7
 48
2.0
370
    15
100
AcDbLine
 10
20.9860914132
 20
10.3413378697
 30
0.0
 11
20.9832640059
 21
10.3413378697
 31
0.0
  0
LINE
  5
15C
330
1F
100
AcDbEntity
  8
0
  6
HIDDEN
 62
     7
 48
2.0
370
     0
100
AcDbLine
 10
21.1738375377
 20
10.188593405
 30
0.0
 11
21.1118375606
 21
10.188593405
 31
0.0
  0
LINE
  5
15D
330
1F
100
AcDbEntity
  8
0
  6
HIDDEN
 62
     7
 48
2.0
370
     0
100
AcDbLine
 10
24.5348375278
 20
12.8626434659
 30
0.0
 11
21.3128375053
 21
12.8626434659
 31
0.0
  0
LINE
  5
15E
330
1F
100
AcDbEntity
  8
0
  6
HIDDEN
 62
     7
 48
2.0
370
     0
100
AcDbLine
 10
21.3128375053
 20
12.8626434659
 30
0.0
 11
21.3128375053
 21
13.2236434556
 31
0.0
  0
LINE
  5
15F
330
1F
100
AcDbEntity
  8
0
  6
HIDDEN
 62
     7
 48
2.0
370
     0
100
AcDbLine
 10
24.5348375278
 20
13.2236434556
 30
0.0
 11
24.5348375278
 21
12.8626434659
 31
0.0
  0
LINE
  5
160
330
1F
100
AcDbEntity
  8
0
  6
HIDDEN
 62
     7
 48
2.0
370
     0
100
AcDbLine
 10
21.3128375053
 20
13.2236434556
 30
0.0
 11
21.3128375053
 21
13.300643446
 31
0.0
  0
LINE
  5
161
330
1F
100
AcDbEntity
  8
0
  6
HIDDEN
 62
     7
 48
2.0
370
     0
100
AcDbLine
 10
24.5348375278
 20
13.300643446
 30
0.0
 11
24.5348375278
 21
13.2236434556
 31
0.0
  0
LINE
  5
162
330
1F
100
AcDbEntity
  8
0
  6
HIDDEN
 62
     7
 48
2.0
370
     0
100
AcDbLine
 10
21.3128375053
 20
13.2386434689
 30
0.0
 11
24.5348375278
 21
13.2386434689
 31
0.0
  0
ARC
  5
163
330
1F
100
AcDbEntity
  8
0
  6
HIDDEN
 62
     7
 48
4.0
370
     0
100
AcDbCircle
 10
24.5348375321
 20
13.223643409
 30
0.0
 40
0.077
100
AcDbArc
 50
0.0
 51
90.0
  0
ARC
  5
164
330
1F
100
AcDbEntity
  8
0
  6
HIDDEN
 62
     7
 48
4.0
370
     0
100
AcDbCircle
 10
24.5348375321
 20
13.223643409
 30
0.0
 40
0.0150000000000006
100
AcDbArc
 50
0.0
 51
90.0
  0
LINE
  5
165
330
1F
100
AcDbEntity
  8
0
  6
HIDDEN
 62
     7
 48
2.0
370
     0
100
AcDbLine
 10
24.6118375321
 20
12.8626434659
 30
0.0
 11
24.549837532
 21
12.8626434659
 31
0.0
  0
LINE
  5
166
330
1F
100
AcDbEntity
  8
0
  6
HIDDEN
 62
     7
 48
2.0
370
     0
100
AcDbLine
 10
24.549837532
 20
12.8626434659
 30
0.0
 11
24.549837532
 21
13.2236434556
 31
0.0
  0
LINE
  5
167
330
1F
100
AcDbEntity
  8
0
  6
HIDDEN
 62
     7
 48
2.0
370
     0
100
AcDbLine
 10
21.2508375282
 20
13.2386434689
 30
0.0
 11
21.3128375053
 21
13.2386434689
 31
0.0
  0
ARC
  5
168
330
1F
100
AcDbEntity
  8
0
  6
HIDDEN
 62
     7
 48
4.0
370
     0
100
AcDbCircle
 10
21.2508375321
 20
13.223643409
 30
0.0
 40
0.077
100
AcDbArc
 50
90.0
 51
180.0
  0
ARC
  5
169
330
1F
100
AcDbEntity
  8
0
  6
HIDDEN
 62
     7
 48
4.0
370
     0
100
AcDbCircle
 10
21.2508375321
 20
13.223643409
 30
0.0
 40
0.0150000000000006
100
AcDbArc
 50
90.0
 51
180.0
  0
LINE
  5
16A
330
1F
100
AcDbEntity
  8
0
  6
HIDDEN
 62
     7
 48
2.0
370
     0
100
AcDbLine
 10
21.1738375377
 20
12.8006434888
 30
0.0
 11
21.2358375148
 21
12.8006434888
 31
0.0
  0
LINE
  5
16B
330
1F
100
AcDbEntity
  8
0
  6
HIDDEN
 62
     7
 48
2.0
370
     0
100
AcDbLine
 10
21.3128375053
 20
7.7386433521
 30
0.0
 11
21.3128375053
 21
7.3776433624
 31
0.0
  0
LINE
  5
16C
330
1F
100
AcDbEntity
  8
0
  6
HIDDEN
 62
     7
 48
2.0
370
     0
100
AcDbLine
 10
24.5348375278
 20
7.7386433521
 30
0.0
 11
21.3128375053
 21
7.7386433521
 31
0.0
  0
LINE
  5
16D
330
1F
100
AcDbEntity
  8
0
  6
HIDDEN
 62
     7
 48
2.0
370
     0
100
AcDbLine
 10
24.5348375278
 20
7.3776433624
 30
0.0
 11
24.5348375278
 21
7.7386433521
 31
0.0
  0
LINE
  5
16E
330
1F
100
AcDbEntity
  8
0
  6
HIDDEN
 62
     7
 48
2.0
370
     0
100
AcDbLine
 10
21.3128375053
 20
7.3776433624
 30
0.0
 11
21.3128375053
 21
7.3006433719
 31
0.0
  0
LINE
  5
16F
330
1F
100
AcDbEntity
  8
0
  6
HIDDEN
 62
     7
 48
2.0
370
     0
100
AcDbLine
 10
24.5348375278
 20
7.3006433719
 30
0.0
 11
24.5348375278
 21
7.3776433624
 31
0.0
  0
LINE
  5
170
330
1F
100
AcDbEntity
  8
0
  6
HIDDEN
 62
     7
 48
2.0
370
     0
100
AcDbLine
 10
21.3128375053
 20
7.362643349
 30
0.0
 11
24.5348375278
 21
7.362643349
 31
0.0
  0
LINE
  5
171
330
1F
100
AcDbEntity
  8
0
  6
HIDDEN
 62
     7
 48
2.0
370
     0
100
AcDbLine
 10
24.549837532
 20
7.7386433521
 30
0.0
 11
24.549837532
 21
7.3776433624
 31
0.0
  0
LINE
  5
172
330
1F
100
AcDbEntity
  8
0
  6
HIDDEN
 62
     7
 48
2.0
370
     0
100
AcDbLine
 10
24.6118375321
 20
7.7386433521
 30
0.0
 11
24.549837532
 21
7.7386433521
 31
0.0
  0
ARC
  5
173
330
1F
100
AcDbEntity
  8
0
  6
HIDDEN
 62
     7
 48
4.0
370
     0
100
AcDbCircle
 10
24.5348375321
 20
7.377643409
 30
0.0
 40
0.0770000000000017
100
AcDbArc
 50
270.0
 51
0.0
  0
ARC
  5
174
330
1F
100
AcDbEntity
  8
0
  6
HIDDEN
 62
     7
 48
4.0
370
     0
100
AcDbCircle
 10
24.5348375321
 20
7.377643409
 30
0.0
 40
0.0150000000000006
100
AcDbArc
 50
270.0
 51
0.0
  0
LINE
  5
175
330
1F
100
AcDbEntity
  8
0
  6
HIDDEN
 62
     7
 48
2.0
370
     0
100
AcDbLine
 10
21.2508375282
 20
7.362643349
 30
0.0
 11
21.3128375053
 21
7.362643349
 31
0.0
  0
ARC
  5
176
330
1F
100
AcDbEntity
  8
0
  6
HIDDEN
 62
     7
 48
4.0
370
     0
100
AcDbCircle
 10
21.2508375321
 20
7.377643409
 30
0.0
 40
0.0149999999999997
100
AcDbArc
 50
180.0
 51
270.0
  0
ARC
  5
177
330
1F
100
AcDbEntity
  8
0
  6
HIDDEN
 62
     7
 48
4.0
370
     0
100
AcDbCircle
 10
21.2508375321
 20
7.377643409
 30
0.0
 40
0.077
100
AcDbArc
 50
180.0
 51
270.0
  0
LINE
  5
178
330
1F
100
AcDbEntity
  8
0
  6
HIDDEN
 62
     7
 48
2.0
370
     0
100
AcDbLine
 10
21.1738375377
 20
7.8006433292
 30
0.0
 11
21.2358375148
 21
7.8006433292
 31
0.0
  0
LINE
  5
179
330
1F
100
AcDbEntity
  8
0
  6
HIDDEN
 62
     7
 48
2.0
370
     0
100
AcDbLine
 10
24.6118375321
 20
13.300643446
 30
0.0
 11
24.6118375321
 21
7.3006433719
 31
0.0
  0
LINE
  5
17A
330
1F
100
AcDbEntity
  8
0
  6
HIDDEN
 62
     7
 48
2.0
370
     0
100
AcDbLine
 10
21.2358375148
 20
13.300643446
 30
0.0
 11
21.2358375148
 21
7.3006433719
 31
0.0
  0
LINE
  5
17B
330
1F
100
AcDbEntity
  8
0
  6
HIDDEN
 62
     7
 48
2.0
370
     0
100
AcDbLine
 10
24.4418375255
 20
11.3006433969
 30
0.0
 11
24.4418375255
 21
11.5977010519
 31
0.0
  0
LINE
  5
17C
330
1F
100
AcDbEntity
  8
0
  6
HIDDEN
 62
     7
 48
2.0
370
     0
100
AcDbLine
 10
24.4418375255
 20
11.0035856685
 30
0.0
 11
24.4418375255
 21
11.3006433969
 31
0.0
  0
LINE
  5
17D
330
1F
100
AcDbEntity
  8
0
  6
HIDDEN
 62
     7
 48
2.0
370
     0
100
AcDbLine
 10
24.5038375393
 20
11.0035856685
 30
0.0
 11
24.5038375393
 21
11.5977010519
 31
0.0
  0
LINE
  5
17E
330
1F
100
AcDbEntity
  8
0
  6
HIDDEN
 62
     7
 48
2.0
370
     0
100
AcDbLine
 10
24.569790284
 20
11.3006433969
 30
0.0
 11
24.569790284
 21
11.4476434254
 31
0.0
  0
LINE
  5
17F
330
1F
100
AcDbEntity
  8
0
  6
HIDDEN
 62
     7
 48
2.0
370
     0
100
AcDbLine
 10
24.569790284
 20
11.1536434417
 30
0.0
 11
24.569790284
 21
11.3006433969
 31
0.0
  0
ARC
  5
180
330
1F
100
AcDbEntity
  8
0
  6
HIDDEN
 62
     7
 48
4.0
370
     0
100
AcDbCircle
 10
21.1273927962
 20
10.2986199721
 30
0.0
 40
0.1503260688271928
100
AcDbArc
 50
126.5392801931
 51
163.4908620348
  0
ARC
  5
181
330
1F
100
AcDbEntity
  8
0
  6
HIDDEN
 62
     7
 48
4.0
370
     0
100
AcDbCircle
 10
21.1273928469
 20
10.2765354845
 30
0.0
 40
0.1503261259982837
100
AcDbArc
 50
126.5392880932
 51
163.4908565051
  0
ARC
  5
182
330
1F
100
AcDbEntity
  8
0
  6
HIDDEN
 62
     7
 48
4.0
370
     0
100
AcDbCircle
 10
21.209986194
 20
10.3003283712
 30
0.0
 40
0.227510676140365
100
AcDbArc
 50
175.2284464566
 51
179.905343901
  0
ARC
  5
183
330
1F
100
AcDbEntity
  8
0
  6
HIDDEN
 62
     7
 48
4.0
370
     0
100
AcDbCircle
 10
20.9857261359
 20
10.2766633329
 30
0.0
 40
0.0171693490536251
100
AcDbArc
 50
259.0875550473
 51
271.4902808947
  0
LINE
  5
184
330
1F
100
AcDbEntity
  8
0
  6
HIDDEN
 62
     7
 48
2.0
370
     0
100
AcDbLine
 10
21.0378926015
 20
10.2820334057
 30
0.0
 11
21.0378926015
 21
10.2039719882
 31
0.0
  0
LINE
  5
185
330
1F
100
AcDbEntity
  8
0
  6
HIDDEN
 62
     7
 48
2.0
370
     0
100
AcDbLine
 10
21.0378926015
 20
10.2599489482
 30
0.0
 11
20.9914655112
 21
10.2599489482
 31
0.0
  0
LINE
  5
186
330
1F
100
AcDbEntity
  8
0
  6
HIDDEN
 62
     7
 48
2.0
370
     0
100
AcDbLine
 10
21.3864172686
 20
10.2316434106
 30
0.0
 11
21.3864172686
 21
10.3696434073
 31
0.0
  0
LINE
  5
187
330
1F
100
AcDbEntity
  8
0
  6
HIDDEN
 62
     7
 48
2.0
370
     0
100
AcDbLine
 10
21.423837663
 20
10.2471434095
 30
0.0
 11
21.423837663
 21
10.3541434084
 31
0.0
  0
LINE
  5
188
330
1F
100
AcDbEntity
  8
0
  6
HIDDEN
 62
     7
 48
2.0
370
     0
100
AcDbLine
 10
21.0388374172
 20
10.3417870266
 30
0.0
 11
21.0388374172
 21
10.2601137172
 31
0.0
  0
LINE
  5
189
330
1F
100
AcDbEntity
  8
0
  6
HIDDEN
 62
     7
 48
2.0
370
     0
100
AcDbLine
 10
20.9832640059
 20
10.2820334057
 30
0.0
 11
21.0378926015
 21
10.2820334057
 31
0.0
  0
LINE
  5
18A
330
1F
100
AcDbEntity
  8
0
  6
HIDDEN
 62
     7
 48
2.0
370
     0
100
AcDbLine
 10
21.0388374172
 20
10.2601137172
 30
0.0
 11
21.0378926015
 21
10.2601137172
 31
0.0
  0
LINE
  5
18B
330
1F
100
AcDbEntity
  8
0
  6
HIDDEN
 62
     7
 48
2.0
370
     0
100
AcDbLine
 10
21.0388374172
 20
10.2601137172
 30
0.0
 11
21.0388374172
 21
10.2594997913
 31
0.0
  0
LINE
  5
18C
330
1F
100
AcDbEntity
  8
0
  6
HIDDEN
 62
     7
 48
2.0
370
     0
100
AcDbLine
 10
21.0388374172
 20
10.3411731008
 30
0.0
 11
21.0378926015
 21
10.3411731008
 31
0.0
  0
LINE
  5
18D
330
1F
100
AcDbEntity
  8
0
  6
HIDDEN
 62
     7
 48
2.0
370
     0
100
AcDbLine
 10
21.0378926015
 20
10.3413378697
 30
0.0
 11
21.0378926015
 21
10.3411731008
 31
0.0
  0
LINE
  5
18E
330
1F
100
AcDbEntity
  8
0
  6
HIDDEN
 62
     7
 48
2.0
370
     0
100
AcDbLine
 10
21.0378926015
 20
10.3413378697
 30
0.0
 11
20.9860914132
 21
10.3413378697
 31
0.0
  0
LINE
  5
18F
330
1F
100
AcDbEntity
  8
0
  6
HIDDEN
 62
     7
 48
2.0
370
     0
100
AcDbLine
 10
21.0388374172
 20
10.3417870266
 30
0.0
 11
20.9861726656
 21
10.3417870266
 31
0.0
  0
LINE
  5
190
330
1F
100
AcDbEntity
  8
0
  6
HIDDEN
 62
     7
 48
2.0
370
     0
100
AcDbLine
 10
20.9832640059
 20
10.3192534122
 30
0.0
 11
21.0378926015
 21
10.3192534122
 31
0.0
  0
LINE
  5
191
330
1F
100
AcDbEntity
  8
0
  6
HIDDEN
 62
     7
 48
2.0
370
     0
100
AcDbLine
 10
21.0378926015
 20
10.3411731008
 30
0.0
 11
21.0378926015
 21
10.3192534122
 31
0.0
  0
LINE
  5
192
330
1F
100
AcDbEntity
  8
0
  6
HIDDEN
 62
     7
 48
2.0
370
     0
100
AcDbLine
 10
21.0388374172
 20
10.2594997913
 30
0.0
 11
20.9861726656
 21
10.2594997913
 31
0.0
  0
LINE
  5
193
330
1F
100
AcDbEntity
  8
0
  6
HIDDEN
 62
     7
 48
2.0
370
     0
100
AcDbLine
 10
21.0378926015
 20
10.4193992838
 30
0.0
 11
21.0378926015
 21
10.3413378697
 31
0.0
  0
LINE
  5
194
330
1F
100
AcDbEntity
  8
0
  6
HIDDEN
 62
     7
 48
2.0
370
     0
100
AcDbLine
 10
21.1118375606
 20
9.8256434129
 30
0.0
 11
21.1738375377
 21
9.8256434129
 31
0.0
  0
LINE
  5
195
330
1F
100
AcDbEntity
  8
0
  6
HIDDEN
 62
     7
 48
2.0
370
     0
100
AcDbLine
 10
21.1738375377
 20
10.4256434075
 30
0.0
 11
21.1118375606
 21
10.4256434075
 31
0.0
  0
LINE
  5
196
330
1F
100
AcDbEntity
  8
0
  6
HIDDEN
 62
     7
 48
2.0
370
     0
100
AcDbLine
 10
21.1738375377
 20
10.2156434126
 30
0.0
 11
21.2358375148
 21
10.2156434126
 31
0.0
  0
LINE
  5
197
330
1F
100
AcDbEntity
  8
0
  6
HIDDEN
 62
     7
 48
2.0
370
     0
100
AcDbLine
 10
21.2358375148
 20
10.3856434054
 30
0.0
 11
21.1738375377
 21
10.3856434054
 31
0.0
  0
LINE
  5
198
330
1F
100
AcDbEntity
  8
0
  6
HIDDEN
 62
     7
 48
2.0
370
     0
100
AcDbLine
 10
24.6738375321
 20
8.9411434474
 30
0.0
 11
24.6118375321
 21
8.9411434474
 31
0.0
  0
LINE
  5
199
330
1F
100
AcDbEntity
  8
0
  6
HIDDEN
 62
     7
 48
2.0
370
     0
100
AcDbLine
 10
24.6118375321
 20
8.6601434802
 30
0.0
 11
24.6738375321
 21
8.6601434802
 31
0.0
  0
LINE
  5
19A
330
1F
100
AcDbEntity
  8
0
  6
HIDDEN
 62
     7
 48
2.0
370
     0
100
AcDbLine
 10
24.6738375321
 20
11.9411433378
 30
0.0
 11
24.6118375321
 21
11.9411433378
 31
0.0
  0
LINE
  5
19B
330
1F
100
AcDbEntity
  8
0
  6
HIDDEN
 62
     7
 48
2.0
370
     0
100
AcDbLine
 10
24.6118375321
 20
11.6601433706
 30
0.0
 11
24.6738375321
 21
11.6601433706
 31
0.0
  0
LINE
  5
19C
330
1F
100
AcDbEntity
  8
0
  6
HIDDEN
 62
     7
 48
2.0
370
     0
100
AcDbLine
 10
24.6118375321
 20
11.9422562316
 30
0.0
 11
24.4668907811
 21
11.6912011451
 31
0.0
  0
LINE
  5
19D
330
1F
100
AcDbEntity
  8
0
  6
HIDDEN
 62
     7
 48
2.0
370
     0
100
AcDbLine
 10
24.4668907811
 20
10.9100856853
 30
0.0
 11
24.6118375321
 21
10.6590305622
 31
0.0
  0
LINE
  5
19E
330
1F
100
AcDbEntity
  8
0
  6
HIDDEN
 62
     7
 48
2.0
370
     0
100
AcDbLine
 10
24.6738375321
 20
11.9256433435
 30
0.0
 11
24.52058436
 21
11.6602011566
 31
0.0
  0
LINE
  5
19F
330
1F
100
AcDbEntity
  8
0
  6
HIDDEN
 62
     7
 48
2.0
370
     0
100
AcDbLine
 10
24.52058436
 20
10.9410857105
 30
0.0
 11
24.6738375321
 21
10.6756434136
 31
0.0
  0
ARC
  5
1A0
330
1F
100
AcDbEntity
  8
0
  6
HIDDEN
 62
     7
 48
4.0
370
     0
100
AcDbCircle
 10
24.6288375321
 20
11.0035856953
 30
0.0
 40
0.1870000000000006
100
AcDbArc
 50
180.0
 51
210.0
  0
ARC
  5
1A1
330
1F
100
AcDbEntity
  8
0
  6
HIDDEN
 62
     7
 48
4.0
370
     0
100
AcDbCircle
 10
24.6288375321
 20
11.5977011226
 30
0.0
 40
0.1869999999999989
100
AcDbArc
 50
150.0
 51
180.0
  0
ARC
  5
1A2
330
1F
100
AcDbEntity
  8
0
  6
HIDDEN
 62
     7
 48
4.0
370
     0
100
AcDbCircle
 10
24.6288375321
 20
11.0035856953
 30
0.0
 40
0.125
100
AcDbArc
 50
180.0
 51
210.0
  0
ARC
  5
1A3
330
1F
100
AcDbEntity
  8
0
  6
HIDDEN
 62
     7
 48
4.0
370
     0
100
AcDbCircle
 10
24.6288375321
 20
11.5977011226
 30
0.0
 40
0.125
100
AcDbArc
 50
150.0
 51
180.0
  0
ARC
  5
1A4
330
1F
100
AcDbEntity
  8
0
  6
HIDDEN
 62
     7
 48
4.0
370
     0
100
AcDbCircle
 10
24.5205776896
 20
11.4643835664
 30
0.0
 40
0.0167401574803172
100
AcDbArc
 50
180.0
 51
270.0
  0
ARC
  5
1A5
330
1F
100
AcDbEntity
  8
0
  6
HIDDEN
 62
     7
 48
4.0
370
     0
100
AcDbCircle
 10
24.5205776896
 20
11.1369032515
 30
0.0
 40
0.0167401574803172
100
AcDbArc
 50
90.0
 51
180.0
  0
ARC
  5
1A6
330
1F
100
AcDbEntity
  8
0
  6
HIDDEN
 62
     7
 48
4.0
370
     0
100
AcDbCircle
 10
24.5205776896
 20
11.4643835664
 30
0.0
 40
0.0787401574803166
100
AcDbArc
 50
180.0
 51
270.0
  0
ARC
  5
1A7
330
1F
100
AcDbEntity
  8
0
  6
HIDDEN
 62
     7
 48
4.0
370
     0
100
AcDbCircle
 10
24.5205776896
 20
11.1369032515
 30
0.0
 40
0.0787401574803148
100
AcDbArc
 50
90.0
 51
180.0
  0
LINE
  5
1A8
330
1F
100
AcDbEntity
  8
0
  6
HIDDEN
 62
     7
 48
2.0
370
     0
100
AcDbLine
 10
24.5205776867
 20
11.1536434417
 30
0.0
 11
24.569790284
 21
11.1536434417
 31
0.0
  0
LINE
  5
1A9
330
1F
100
AcDbEntity
  8
0
  6
HIDDEN
 62
     7
 48
2.0
370
     0
100
AcDbLine
 10
24.569790284
 20
11.4476434254
 30
0.0
 11
24.5205776867
 21
11.4476434254
 31
0.0
  0
LINE
  5
1AA
330
1F
100
AcDbEntity
  8
0
  6
HIDDEN
 62
     7
 48
2.0
370
     0
100
AcDbLine
 10
24.5205776867
 20
11.2156434188
 30
0.0
 11
24.569790284
 21
11.2156434188
 31
0.0
  0
LINE
  5
1AB
330
1F
100
AcDbEntity
  8
0
  6
HIDDEN
 62
     7
 48
2.0
370
     0
100
AcDbLine
 10
24.569790284
 20
11.385643375
 30
0.0
 11
24.5205776867
 21
11.385643375
 31
0.0
  0
LINE
  5
1AC
330
1F
100
AcDbEntity
  8
0
  6
HIDDEN
 62
     7
 48
2.0
370
     0
100
AcDbLine
 10
21.1118375606
 20
10.2316434106
 30
0.0
 11
21.3864172686
 21
10.2316434106
 31
0.0
  0
LINE
  5
1AD
330
1F
100
AcDbEntity
  8
0
  6
HIDDEN
 62
     7
 48
2.0
370
     0
100
AcDbLine
 10
21.3864172686
 20
10.3696434073
 30
0.0
 11
21.1118375606
 21
10.3696434073
 31
0.0
  0
LINE
  5
1AE
330
1F
100
AcDbEntity
  8
0
  6
HIDDEN
 62
     7
 48
2.0
370
     0
100
AcDbLine
 10
21.3864172686
 20
10.2316434106
 30
0.0
 11
21.423837663
 21
10.2471434095
 31
0.0
  0
LINE
  5
1AF
330
1F
100
AcDbEntity
  8
0
  6
HIDDEN
 62
     7
 48
2.0
370
     0
100
AcDbLine
 10
21.423837663
 20
10.3541434084
 30
0.0
 11
21.3864172686
 21
10.3696434073
 31
0.0
  0
LINE
  5
1B0
330
1F
100
AcDbEntity
  8
0
  6
Continuous
 62
     7
 48
2.0
370
    15
100
AcDbLine
 10
6.2983740135
 20
10.4871434128
 30
0.0
 11
6.2650426385
 21
10.4871434128
 31
0.0
  0
LINE
  5
1B1
330
1F
100
AcDbEntity
  8
0
  6
Continuous
 62
     7
 48
2.0
370
    15
100
AcDbLine
 10
6.2650426385
 20
10.1141434051
 30
0.0
 11
6.2983740135
 21
10.1141434051
 31
0.0
  0
ARC
  5
1B2
330
1F
100
AcDbEntity
  8
0
  6
Continuous
 62
     7
 48
4.0
370
    15
100
AcDbCircle
 10
6.298373979
 20
10.472143409
 30
0.0
 40
0.0150000000000006
100
AcDbArc
 50
52.550643686
 51
90.0
  0
ARC
  5
1B3
330
1F
100
AcDbEntity
  8
0
  6
Continuous
 62
     7
 48
4.0
370
    15
100
AcDbCircle
 10
6.298373979
 20
10.129143409
 30
0.0
 40
0.0149999999999988
100
AcDbArc
 50
270.0
 51
307.449356314
  0
ARC
  5
1B4
330
1F
100
AcDbEntity
  8
0
  6
Continuous
 62
     7
 48
4.0
370
    15
100
AcDbCircle
 10
6.1670180801
 20
10.300643409
 30
0.0
 40
0.2310245869783036
100
AcDbArc
 50
10.1818657166
 51
52.550643686
  0
ARC
  5
1B5
330
1F
100
AcDbEntity
  8
0
  6
Continuous
 62
     7
 48
4.0
370
    15
100
AcDbCircle
 10
6.1670180801
 20
10.300643409
 30
0.0
 40
0.2310245869783036
100
AcDbArc
 50
307.449356314
 51
349.8181342834
  0
LINE
  5
1B6
330
1F
100
AcDbEntity
  8
0
  6
Continuous
 62
     7
 48
2.0
370
    15
100
AcDbLine
 10
6.2030426614
 20
13.300643446
 30
0.0
 11
6.2030426614
 21
7.3006433719
 31
0.0
  0
LINE
  5
1B7
330
1F
100
AcDbEntity
  8
0
  6
Continuous
 62
     7
 48
2.0
370
    15
100
AcDbLine
 10
6.2650426385
 20
13.300643446
 30
0.0
 11
6.2650426385
 21
7.3006433719
 31
0.0
  0
LINE
  5
1B8
330
1F
100
AcDbEntity
  8
0
  6
Continuous
 62
     7
 48
2.0
370
    15
100
AcDbLine
 10
6.2030426614
 20
7.3006433719
 30
0.0
 11
6.2650426385
 21
7.3006433719
 31
0.0
  0
LINE
  5
1B9
330
1F
100
AcDbEntity
  8
0
  6
Continuous
 62
     7
 48
2.0
370
    15
100
AcDbLine
 10
6.2030426614
 20
13.300643446
 30
0.0
 11
6.2650426385
 21
13.300643446
 31
0.0
  0
LINE
  5
1BA
330
1F
100
AcDbEntity
  8
0
  6
Continuous
 62
     7
 48
2.0
370
    15
100
AcDbLine
 10
2.703042667
 20
13.300643446
 30
0.0
 11
2.703042667
 21
7.3006433719
 31
0.0
  0
LINE
  5
1BB
330
1F
100
AcDbEntity
  8
0
  6
Continuous
 62
     7
 48
2.0
370
    15
100
AcDbLine
 10
2.703042667
 20
7.3006433719
 30
0.0
 11
2.7800426667
 21
7.3006433719
 31
0.0
  0
LINE
  5
1BC
330
1F
100
AcDbEntity
  8
0
  6
Continuous
 62
     7
 48
2.0
370
    15
100
AcDbLine
 10
2.703042667
 20
13.300643446
 30
0.0
 11
2.7800426667
 21
13.300643446
 31
0.0
  0
LINE
  5
1BD
330
1F
100
AcDbEntity
  8
0
  6
Continuous
 62
     7
 48
2.0
370
    15
100
AcDbLine
 10
2.7800426667
 20
7.3006433719
 30
0.0
 11
6.1260426709
 21
7.3006433719
 31
0.0
  0
LINE
  5
1BE
330
1F
100
AcDbEntity
  8
0
  6
Continuous
 62
     7
 48
2.0
370
    15
100
AcDbLine
 10
2.7800426667
 20
13.300643446
 30
0.0
 11
6.1260426709
 21
13.300643446
 31
0.0
  0
LINE
  5
1BF
330
1F
100
AcDbEntity
  8
0
  6
Continuous
 62
     7
 48
2.0
370
    15
100
AcDbLine
 10
6.1260426709
 20
13.300643446
 30
0.0
 11
6.2030426614
 21
13.300643446
 31
0.0
  0
LINE
  5
1C0
330
1F
100
AcDbEntity
  8
0
  6
Continuous
 62
     7
 48
2.0
370
    15
100
AcDbLine
 10
6.1260426709
 20
7.3006433719
 30
0.0
 11
6.2030426614
 21
7.3006433719
 31
0.0
  0
ARC
  5
1C1
330
1F
100
AcDbEntity
  8
0
  6
Continuous
 62
     7
 48
4.0
370
    15
100
AcDbCircle
 10
6.2494873522
 20
10.3247513334
 30
0.0
 40
0.1503261259982943
100
AcDbArc
 50
306.5392880932
 51
343.4908565051
  0
LINE
  5
1C2
330
1F
100
AcDbEntity
  8
0
  6
Continuous
 62
     7
 48
2.0
370
    15
100
AcDbLine
 10
6.3389875976
 20
10.1818875342
 30
0.0
 11
6.3389875976
 21
10.2039719882
 31
0.0
  0
ARC
  5
1C3
330
1F
100
AcDbEntity
  8
0
  6
Continuous
 62
     7
 48
4.0
370
    15
100
AcDbCircle
 10
6.2494874029
 20
10.3026668458
 30
0.0
 40
0.1503260688271848
100
AcDbArc
 50
306.5392801931
 51
343.4908620348
  0
ARC
  5
1C4
330
1F
100
AcDbEntity
  8
0
  6
Continuous
 62
     7
 48
4.0
370
    15
100
AcDbCircle
 10
6.3937661087
 20
10.2585448654
 30
0.0
 40
0.0014120635209883
100
AcDbArc
 50
63.1274975259
 51
96.0944430113
  0
ARC
  5
1C5
330
1F
100
AcDbEntity
  8
0
  6
Continuous
 62
     7
 48
4.0
370
    15
100
AcDbCircle
 10
6.1670141247
 20
10.300337484
 30
0.0
 40
0.227390541268928
100
AcDbArc
 50
349.6539604387
 51
0.0923277563
  0
LWPOLYLINE
  5
1C6
330
1F
100
AcDbEntity
  8
0
  6
Continuous
 62
     7
 48
2.0
370
    15
100
AcDbPolyline
 90
        9
 70
   128
 43
0.0
 10
6.3936161932
 20
10.3413378697
 10
6.3941169074
 20
10.3413941157
 10
6.3943703445
 20
10.3414504534
 10
6.3943767978
 20
10.3415068277
 10
6.3941356805
 20
10.34156317
 10
6.3936475795
 20
10.3416194206
 10
6.392912788
 20
10.3416755245
 10
6.3919324793
 20
10.3417314131
 10
6.3907075335
 20
10.3417870266
  0
ARC
  5
1C7
330
1F
100
AcDbEntity
  8
0
  6
Continuous
 62
     7
 48
4.0
370
    15
100
AcDbCircle
 10
6.1670201465
 20
10.3009508695
 30
0.0
 40
0.2273843416050284
100
AcDbArc
 50
355.2277051833
 51
10.3459314289
  0
LINE
  5
1C8
330
1F
100
AcDbEntity
  8
0
  6
Continuous
 62
     7
 48
2.0
370
    15
100
AcDbLine
 10
6.3936161932
 20
10.2599489482
 30
0.0
 11
6.385414688
 21
10.2599489482
 31
0.0
  0
LINE
  5
1C9
330
1F
100
AcDbEntity
  8
0
  6
Continuous
 62
     7
 48
2.0
370
    15
100
AcDbLine
 10
6.3936161932
 20
10.3413378697
 30
0.0
 11
6.3907887859
 21
10.3413378697
 31
0.0
  0
LINE
  5
1CA
330
1F
100
AcDbEntity
  8
0
  6
Continuous
 62
     7
 48
2.0
370
    15
100
AcDbLine
 10
8.0991232826
 20
5.4791296358
 30
0.0
 11
8.0991232826
 21
5.4457982608
 31
0.0
  0
LINE
  5
1CB
330
1F
100
AcDbEntity
  8
0
  6
Continuous
 62
     7
 48
2.0
370
    15
100
AcDbLine
 10
8.4721234003
 20
5.4457982608
 30
0.0
 11
8.4721234003
 21
5.4791296358
 31
0.0
  0
ARC
  5
1CC
330
1F
100
AcDbEntity
  8
0
  6
Continuous
 62
     7
 48
4.0
370
    15
100
AcDbCircle
 10
8.1141233387
 20
5.4791296013
 30
0.0
 40
0.0149999999999991
100
AcDbArc
 50
142.550643686
 51
180.0
  0
ARC
  5
1CD
330
1F
100
AcDbEntity
  8
0
  6
Continuous
 62
     7
 48
4.0
370
    15
100
AcDbCircle
 10
8.4571233387
 20
5.4791296013
 30
0.0
 40
0.0150000000000006
100
AcDbArc
 50
0.0
 51
37.449356314
  0
ARC
  5
1CE
330
1F
100
AcDbEntity
  8
0
  6
Continuous
 62
     7
 48
4.0
370
    15
100
AcDbCircle
 10
8.2856233387
 20
5.3477737024
 30
0.0
 40
0.2310245869783046
100
AcDbArc
 50
100.1818657166
 51
142.550643686
  0
ARC
  5
1CF
330
1F
100
AcDbEntity
  8
0
  6
Continuous
 62
     7
 48
4.0
370
    15
100
AcDbCircle
 10
8.2856233387
 20
5.3477737024
 30
0.0
 40
0.2310245869783039
100
AcDbArc
 50
37.449356314
 51
79.8181342834
  0
LINE
  5
1D0
330
1F
100
AcDbEntity
  8
0
  6
Continuous
 62
     7
 48
2.0
370
    15
100
AcDbLine
 10
8.2166233386
 20
5.3217983066
 30
0.0
 11
8.2166233386
 21
5.2447983161
 31
0.0
  0
LINE
  5
1D1
330
1F
100
AcDbEntity
  8
0
  6
Continuous
 62
     7
 48
2.0
370
    15
100
AcDbLine
 10
8.3546233444
 20
5.2447983161
 30
0.0
 11
8.3546233444
 21
5.3217983066
 31
0.0
  0
LINE
  5
1D2
330
1F
100
AcDbEntity
  8
0
  6
Continuous
 62
     7
 48
2.0
370
    15
100
AcDbLine
 10
11.599123277
 20
5.4791296358
 30
0.0
 11
11.599123277
 21
5.4457982608
 31
0.0
  0
LINE
  5
1D3
330
1F
100
AcDbEntity
  8
0
  6
Continuous
 62
     7
 48
2.0
370
    15
100
AcDbLine
 10
11.9721233947
 20
5.4457982608
 30
0.0
 11
11.9721233947
 21
5.4791296358
 31
0.0
  0
ARC
  5
1D4
330
1F
100
AcDbEntity
  8
0
  6
Continuous
 62
     7
 48
4.0
370
    15
100
AcDbCircle
 10
11.6141233387
 20
5.4791296013
 30
0.0
 40
0.0150000000000006
100
AcDbArc
 50
142.550643686
 51
180.0
  0
ARC
  5
1D5
330
1F
100
AcDbEntity
  8
0
  6
Continuous
 62
     7
 48
4.0
370
    15
100
AcDbCircle
 10
11.9571233387
 20
5.4791296013
 30
0.0
 40
0.0149999999999991
100
AcDbArc
 50
0.0
 51
37.449356314
  0
ARC
  5
1D6
330
1F
100
AcDbEntity
  8
0
  6
Continuous
 62
     7
 48
4.0
370
    15
100
AcDbCircle
 10
11.7856233387
 20
5.3477737024
 30
0.0
 40
0.2310245869783036
100
AcDbArc
 50
100.1818657166
 51
142.550643686
  0
ARC
  5
1D7
330
1F
100
AcDbEntity
  8
0
  6
Continuous
 62
     7
 48
4.0
370
    15
100
AcDbCircle
 10
11.7856233387
 20
5.3477737024
 30
0.0
 40
0.2310245869783046
100
AcDbArc
 50
37.449356314
 51
79.8181342834
  0
LINE
  5
1D8
330
1F
100
AcDbEntity
  8
0
  6
Continuous
 62
     7
 48
2.0
370
    15
100
AcDbLine
 10
11.7166233329
 20
5.3217983066
 30
0.0
 11
11.7166233329
 21
5.2447983161
 31
0.0
  0
LINE
  5
1D9
330
1F
100
AcDbEntity
  8
0
  6
Continuous
 62
     7
 48
2.0
370
    15
100
AcDbLine
 10
11.8546233388
 20
5.2447983161
 30
0.0
 11
11.8546233388
 21
5.3217983066
 31
0.0
  0
LINE
  5
1DA
330
1F
100
AcDbEntity
  8
0
  6
Continuous
 62
     7
 48
2.0
370
    15
100
AcDbLine
 10
12.0356233145
 20
5.3837982837
 30
0.0
 11
12.0356233145
 21
5.4457982608
 31
0.0
  0
LINE
  5
1DB
330
1F
100
AcDbEntity
  8
0
  6
Continuous
 62
     7
 48
2.0
370
    15
100
AcDbLine
 10
8.0356233628
 20
5.3837982837
 30
0.0
 11
8.0356233628
 21
5.4457982608
 31
0.0
  0
LINE
  5
1DC
330
1F
100
AcDbEntity
  8
0
  6
Continuous
 62
     7
 48
2.0
370
    15
100
AcDbLine
 10
8.0356233628
 20
5.4457982608
 30
0.0
 11
12.0356233145
 21
5.4457982608
 31
0.0
  0
LINE
  5
1DD
330
1F
100
AcDbEntity
  8
0
  6
Continuous
 62
     7
 48
2.0
370
    15
100
AcDbLine
 10
8.0356233628
 20
5.3837982837
 30
0.0
 11
12.0356233145
 21
5.3837982837
 31
0.0
  0
LINE
  5
1DE
330
1F
100
AcDbEntity
  8
0
  6
Continuous
 62
     7
 48
2.0
370
    15
100
AcDbLine
 10
11.5046233686
 20
5.3837982837
 30
0.0
 11
11.5046233686
 21
5.3217983066
 31
0.0
  0
LINE
  5
1DF
330
1F
100
AcDbEntity
  8
0
  6
Continuous
 62
     7
 48
2.0
370
    15
100
AcDbLine
 10
8.5666233087
 20
5.2447983161
 30
0.0
 11
8.1746233304
 21
5.2447983161
 31
0.0
  0
LINE
  5
1E0
330
1F
100
AcDbEntity
  8
0
  6
Continuous
 62
     7
 48
2.0
370
    15
100
AcDbLine
 10
11.5046233686
 20
5.2447983161
 30
0.0
 11
11.8966233469
 21
5.2447983161
 31
0.0
  0
LINE
  5
1E1
330
1F
100
AcDbEntity
  8
0
  6
Continuous
 62
     7
 48
2.0
370
    15
100
AcDbLine
 10
11.5046233686
 20
5.3067982932
 30
0.0
 11
11.5046233686
 21
5.2447983161
 31
0.0
  0
LINE
  5
1E2
330
1F
100
AcDbEntity
  8
0
  6
Continuous
 62
     7
 48
2.0
370
    15
100
AcDbLine
 10
8.5666233087
 20
5.3067982932
 30
0.0
 11
8.5666233087
 21
5.2447983161
 31
0.0
  0
LINE
  5
1E3
330
1F
100
AcDbEntity
  8
0
  6
Continuous
 62
     7
 48
2.0
370
    15
100
AcDbLine
 10
8.1746233304
 20
2.0227982936
 30
0.0
 11
8.0976233399
 21
2.0227982936
 31
0.0
  0
LINE
  5
1E4
330
1F
100
AcDbEntity
  8
0
  6
Continuous
 62
     7
 48
2.0
370
    15
100
AcDbLine
 10
8.0976233399
 20
5.2447983161
 30
0.0
 11
8.1746233304
 21
5.2447983161
 31
0.0
  0
LINE
  5
1E5
330
1F
100
AcDbEntity
  8
0
  6
Continuous
 62
     7
 48
2.0
370
    15
100
AcDbLine
 10
11.9736233374
 20
5.2447983161
 30
0.0
 11
11.8966233469
 21
5.2447983161
 31
0.0
  0
LINE
  5
1E6
330
1F
100
AcDbEntity
  8
0
  6
Continuous
 62
     7
 48
2.0
370
    15
100
AcDbLine
 10
11.8966233469
 20
2.0227982936
 30
0.0
 11
11.9736233374
 21
2.0227982936
 31
0.0
  0
LINE
  5
1E7
330
1F
100
AcDbEntity
  8
0
  6
Continuous
 62
     7
 48
2.0
370
    15
100
AcDbLine
 10
8.5666233087
 20
5.3067982932
 30
0.0
 11
8.5666233087
 21
5.3837982837
 31
0.0
  0
LINE
  5
1E8
330
1F
100
AcDbEntity
  8
0
  6
Continuous
 62
     7
 48
2.0
370
    15
100
AcDbLine
 10
11.5046233686
 20
5.3067982932
 30
0.0
 11
11.5046233686
 21
5.3837982837
 31
0.0
  0
LINE
  5
1E9
330
1F
100
AcDbEntity
  8
0
  6
Continuous
 62
     7
 48
2.0
370
    15
100
AcDbLine
 10
8.1746233304
 20
1.9457982894
 30
0.0
 11
8.1746233304
 21
2.0227982936
 31
0.0
  0
LINE
  5
1EA
330
1F
100
AcDbEntity
  8
0
  6
Continuous
 62
     7
 48
2.0
370
    15
100
AcDbLine
 10
11.8966233469
 20
1.9457982894
 30
0.0
 11
11.8966233469
 21
2.0227982936
 31
0.0
  0
LINE
  5
1EB
330
1F
100
AcDbEntity
  8
0
  6
Continuous
 62
     7
 48
2.0
370
    15
100
AcDbLine
 10
11.9736233374
 20
5.3067982932
 30
0.0
 11
11.9736233374
 21
1.960798289
 31
0.0
  0
LINE
  5
1EC
330
1F
100
AcDbEntity
  8
0
  6
Continuous
 62
     7
 48
2.0
370
    15
100
AcDbLine
 10
12.0356233145
 20
5.3067982932
 30
0.0
 11
12.0356233145
 21
1.960798289
 31
0.0
  0
ARC
  5
1ED
330
1F
100
AcDbEntity
  8
0
  6
Continuous
 62
     7
 48
4.0
370
    15
100
AcDbCircle
 10
11.9586233387
 20
1.9607982894
 30
0.0
 40
0.0149999999999999
100
AcDbArc
 50
270.0
 51
0.0
  0
ARC
  5
1EE
330
1F
100
AcDbEntity
  8
0
  6
Continuous
 62
     7
 48
4.0
370
    15
100
AcDbCircle
 10
11.9586233387
 20
1.9607982894
 30
0.0
 40
0.077
100
AcDbArc
 50
270.0
 51
0.0
  0
LINE
  5
1EF
330
1F
100
AcDbEntity
  8
0
  6
Continuous
 62
     7
 48
2.0
370
    15
100
AcDbLine
 10
8.0976233399
 20
1.960798289
 30
0.0
 11
8.0976233399
 21
5.3067982932
 31
0.0
  0
LINE
  5
1F0
330
1F
100
AcDbEntity
  8
0
  6
Continuous
 62
     7
 48
2.0
370
    15
100
AcDbLine
 10
8.0356233628
 20
1.960798289
 30
0.0
 11
8.0356233628
 21
5.3067982932
 31
0.0
  0
ARC
  5
1F1
330
1F
100
AcDbEntity
  8
0
  6
Continuous
 62
     7
 48
4.0
370
    15
100
AcDbCircle
 10
8.1126233387
 20
1.9607982894
 30
0.0
 40
0.077
100
AcDbArc
 50
180.0
 51
270.0
  0
ARC
  5
1F2
330
1F
100
AcDbEntity
  8
0
  6
Continuous
 62
     7
 48
4.0
370
    15
100
AcDbCircle
 10
8.1126233387
 20
1.9607982894
 30
0.0
 40
0.0149999999999999
100
AcDbArc
 50
180.0
 51
270.0
  0
LINE
  5
1F3
330
1F
100
AcDbEntity
  8
0
  6
Continuous
 62
     7
 48
2.0
370
    15
100
AcDbLine
 10
11.958623324
 20
1.8837982894
 30
0.0
 11
8.1126233533
 21
1.8837982894
 31
0.0
  0
LINE
  5
1F4
330
1F
100
AcDbEntity
  8
0
  6
Continuous
 62
     7
 48
2.0
370
    15
100
AcDbLine
 10
11.958623324
 20
1.9457982894
 30
0.0
 11
8.1126233533
 21
1.9457982894
 31
0.0
  0
ARC
  5
1F5
330
1F
100
AcDbEntity
  8
0
  6
Continuous
 62
     7
 48
4.0
370
    15
100
AcDbCircle
 10
11.9586233387
 20
5.3067982894
 30
0.0
 40
0.0150000000000006
100
AcDbArc
 50
0.0
 51
90.0
  0
ARC
  5
1F6
330
1F
100
AcDbEntity
  8
0
  6
Continuous
 62
     7
 48
4.0
370
    15
100
AcDbCircle
 10
11.9586233387
 20
5.3067982894
 30
0.0
 40
0.077
100
AcDbArc
 50
0.0
 51
90.0
  0
ARC
  5
1F7
330
1F
100
AcDbEntity
  8
0
  6
Continuous
 62
     7
 48
4.0
370
    15
100
AcDbCircle
 10
8.1126233387
 20
5.3067982894
 30
0.0
 40
0.077
100
AcDbArc
 50
90.0
 51
180.0
  0
ARC
  5
1F8
330
1F
100
AcDbEntity
  8
0
  6
Continuous
 62
     7
 48
4.0
370
    15
100
AcDbCircle
 10
8.1126233387
 20
5.3067982894
 30
0.0
 40
0.0149999999999997
100
AcDbArc
 50
90.0
 51
180.0
  0
LINE
  5
1F9
330
1F
100
AcDbEntity
  8
0
  6
Continuous
 62
     7
 48
2.0
370
    15
100
AcDbLine
 10
11.5356233572
 20
5.3837982837
 30
0.0
 11
11.958623324
 21
5.3837982837
 31
0.0
  0
LINE
  5
1FA
330
1F
100
AcDbEntity
  8
0
  6
Continuous
 62
     7
 48
2.0
370
    15
100
AcDbLine
 10
11.5356233572
 20
5.3837982837
 30
0.0
 11
11.5356233572
 21
5.3217983066
 31
0.0
  0
LINE
  5
1FB
330
1F
100
AcDbEntity
  8
0
  6
Continuous
 62
     7
 48
2.0
370
    15
100
AcDbLine
 10
11.5356233572
 20
5.3217983066
 30
0.0
 11
11.958623324
 21
5.3217983066
 31
0.0
  0
LINE
  5
1FC
330
1F
100
AcDbEntity
  8
0
  6
Continuous
 62
     7
 48
2.0
370
    15
100
AcDbLine
 10
8.1126233533
 20
5.3837982837
 30
0.0
 11
8.5356233201
 21
5.3837982837
 31
0.0
  0
LINE
  5
1FD
330
1F
100
AcDbEntity
  8
0
  6
Continuous
 62
     7
 48
2.0
370
    15
100
AcDbLine
 10
8.5356233201
 20
5.3217983066
 30
0.0
 11
8.5356233201
 21
5.3837982837
 31
0.0
  0
LINE
  5
1FE
330
1F
100
AcDbEntity
  8
0
  6
Continuous
 62
     7
 48
2.0
370
    15
100
AcDbLine
 10
8.1126233533
 20
5.3217983066
 30
0.0
 11
8.5356233201
 21
5.3217983066
 31
0.0
  0
ARC
  5
1FF
330
1F
100
AcDbEntity
  8
0
  6
Continuous
 62
     7
 48
4.0
370
    15
100
AcDbCircle
 10
8.2872357179
 20
5.4277996688
 30
0.0
 40
0.1526349019397086
100
AcDbArc
 50
106.2029407286
 51
142.9597674657
  0
LINE
  5
200
330
1F
100
AcDbEntity
  8
0
  6
Continuous
 62
     7
 48
2.0
370
    15
100
AcDbLine
 10
8.187155559
 20
5.5197432199
 30
0.0
 11
8.165400597
 21
5.5197432199
 31
0.0
  0
ARC
  5
201
330
1F
100
AcDbEntity
  8
0
  6
Continuous
 62
     7
 48
4.0
370
    15
100
AcDbCircle
 10
8.3089903918
 20
5.4278000867
 30
0.0
 40
0.1526344202281865
100
AcDbArc
 50
106.202880652
 51
142.9598275424
  0
ARC
  5
202
330
1F
100
AcDbEntity
  8
0
  6
Continuous
 62
     7
 48
4.0
370
    15
100
AcDbCircle
 10
8.2853168439
 20
5.3477753371
 30
0.0
 40
0.2273847721382386
100
AcDbArc
 50
79.6540801122
 51
94.7722865836
  0
ARC
  5
203
330
1F
100
AcDbEntity
  8
0
  6
Continuous
 62
     7
 48
4.0
370
    15
100
AcDbCircle
 10
8.3425778469
 20
5.5719502415
 30
0.0
 40
0.0164320343696372
100
AcDbArc
 50
168.7357054955
 51
181.6986359829
  0
ARC
  5
204
330
1F
100
AcDbEntity
  8
0
  6
Continuous
 62
     7
 48
4.0
370
    15
100
AcDbCircle
 10
8.2859239505
 20
5.3476830966
 30
0.0
 40
0.2274771827706282
100
AcDbArc
 50
85.2281682646
 51
90.0908987167
  0
ARC
  5
205
330
1F
100
AcDbEntity
  8
0
  6
Continuous
 62
     7
 48
4.0
370
    15
100
AcDbCircle
 10
8.2859329539
 20
5.3477482728
 30
0.0
 40
0.227411955782569
100
AcDbArc
 50
95.0022380023
 51
100.3454673196
  0
LWPOLYLINE
  5
206
330
1F
100
AcDbEntity
  8
0
  6
Continuous
 62
     7
 48
2.0
370
    15
100
AcDbPolyline
 90
        9
 70
   128
 43
0.0
 10
8.2450936497
 20
5.5714631558
 10
8.2450380637
 20
5.5726881017
 10
8.2449821843
 20
5.5736684103
 10
8.2449260116
 20
5.5744032018
 10
8.2448698389
 20
5.5748913029
 10
8.2448133729
 20
5.5751324201
 10
8.2447570536
 20
5.5751259668
 10
8.2447007342
 20
5.5748725298
 10
8.2446444149
 20
5.5743718155
  0
LINE
  5
207
330
1F
100
AcDbEntity
  8
0
  6
Continuous
 62
     7
 48
2.0
370
    15
100
AcDbLine
 10
8.2446444149
 20
5.5664827067
 30
0.0
 11
8.2446444149
 21
5.5743718155
 31
0.0
  0
LINE
  5
208
330
1F
100
AcDbEntity
  8
0
  6
Continuous
 62
     7
 48
2.0
370
    15
100
AcDbLine
 10
8.2450936497
 20
5.5666915576
 30
0.0
 11
8.2450936497
 21
5.5714631558
 31
0.0
  0
LINE
  5
209
330
1F
100
AcDbEntity
  8
0
  6
Continuous
 62
     7
 48
2.0
370
    15
100
AcDbLine
 10
8.3048473061
 20
5.5743718155
 30
0.0
 11
8.3048473061
 21
5.5743198961
 31
0.0
  0
ARC
  5
20A
330
1F
100
AcDbEntity
  8
0
  6
Continuous
 62
     7
 48
4.0
370
    15
100
AcDbCircle
 10
11.7286688305
 20
5.5719502415
 30
0.0
 40
0.016432034369814
100
AcDbArc
 50
358.3013640172
 51
11.2642945045
  0
ARC
  5
20B
330
1F
100
AcDbEntity
  8
0
  6
Continuous
 62
     7
 48
4.0
370
    15
100
AcDbCircle
 10
11.7859298334
 20
5.3477753371
 30
0.0
 40
0.2273847721381938
100
AcDbArc
 50
85.2277134164
 51
100.3459198878
  0
ARC
  5
20C
330
1F
100
AcDbEntity
  8
0
  6
Continuous
 62
     7
 48
4.0
370
    15
100
AcDbCircle
 10
11.7622562855
 20
5.4278000867
 30
0.0
 40
0.1526344202281829
100
AcDbArc
 50
37.0401724576
 51
73.797119348
  0
LINE
  5
20D
330
1F
100
AcDbEntity
  8
0
  6
Continuous
 62
     7
 48
2.0
370
    15
100
AcDbLine
 10
11.9058460804
 20
5.5197432199
 30
0.0
 11
11.8840911183
 21
5.5197432199
 31
0.0
  0
ARC
  5
20E
330
1F
100
AcDbEntity
  8
0
  6
Continuous
 62
     7
 48
4.0
370
    15
100
AcDbCircle
 10
11.7840109594
 20
5.4277996688
 30
0.0
 40
0.1526349019397147
100
AcDbArc
 50
37.0402325343
 51
73.7970592714
  0
LWPOLYLINE
  5
20F
330
1F
100
AcDbEntity
  8
0
  6
Continuous
 62
     7
 48
2.0
370
    15
100
AcDbPolyline
 90
        9
 70
   128
 43
0.0
 10
11.8266022625
 20
5.5743718155
 10
11.8265459431
 20
5.5748725298
 10
11.8264896238
 20
5.5751259668
 10
11.8264333044
 20
5.5751324201
 10
11.8263768384
 20
5.5748913029
 10
11.8263206657
 20
5.5744032018
 10
11.826264493
 20
5.5736684103
 10
11.8262086137
 20
5.5726881017
 10
11.8261530276
 20
5.5714631558
  0
ARC
  5
210
330
1F
100
AcDbEntity
  8
0
  6
Continuous
 62
     7
 48
4.0
370
    15
100
AcDbCircle
 10
11.7853137234
 20
5.3477482728
 30
0.0
 40
0.2274119557825688
100
AcDbArc
 50
79.6545326804
 51
84.9977619977
  0
ARC
  5
211
330
1F
100
AcDbEntity
  8
0
  6
Continuous
 62
     7
 48
4.0
370
    15
100
AcDbCircle
 10
11.7853186228
 20
5.3477579009
 30
0.0
 40
0.2274022963836491
100
AcDbArc
 50
89.923225154
 51
94.7723691552
  0
LINE
  5
212
330
1F
100
AcDbEntity
  8
0
  6
Continuous
 62
     7
 48
2.0
370
    15
100
AcDbLine
 10
11.8266022625
 20
5.5743718155
 30
0.0
 11
11.8266022625
 21
5.5664827067
 31
0.0
  0
LINE
  5
213
330
1F
100
AcDbEntity
  8
0
  6
Continuous
 62
     7
 48
2.0
370
    15
100
AcDbLine
 10
11.8261530276
 20
5.5666915576
 30
0.0
 11
11.8261530276
 21
5.5714631558
 31
0.0
  0
LINE
  5
214
330
1F
100
AcDbEntity
  8
0
  6
Continuous
 62
     7
 48
2.0
370
    15
100
AcDbLine
 10
11.7663993713
 20
5.5743198961
 30
0.0
 11
11.7663993713
 21
5.5743718155
 31
0.0
  0
LINE
  5
215
330
1F
100
AcDbEntity
  8
0
  6
Continuous
 62
     7
 48
2.0
370
    15
100
AcDbLine
 10
30.9772841621
 20
13.300643446
 30
0.0
 11
31.0542841526
 21
13.300643446
 31
0.0
  0
LINE
  5
216
330
1F
100
AcDbEntity
  8
0
  6
Continuous
 62
     7
 48
2.0
370
    15
100
AcDbLine
 10
31.0542841526
 20
13.300643446
 30
0.0
 11
31.0542841526
 21
7.3006433719
 31
0.0
  0
LINE
  5
217
330
1F
100
AcDbEntity
  8
0
  6
Continuous
 62
     7
 48
2.0
370
    15
100
AcDbLine
 10
30.9772841621
 20
7.3006433719
 30
0.0
 11
31.0542841526
 21
7.3006433719
 31
0.0
  0
CIRCLE
  5
218
330
1F
100
AcDbEntity
  8
0
  6
Continuous
 62
     7
 48
4.0
370
    15
100
AcDbCircle
 10
27.5542841768
 20
11.800643409
 30
0.0
 40
0.140500000000003
  0
CIRCLE
  5
219
330
1F
100
AcDbEntity
  8
0
  6
Continuous
 62
     7
 48
4.0
370
    15
100
AcDbCircle
 10
30.5542841768
 20
11.800643409
 30
0.0
 40
0.1404999999999994
  0
CIRCLE
  5
21A
330
1F
100
AcDbEntity
  8
0
  6
Continuous
 62
     7
 48
4.0
370
    15
100
AcDbCircle
 10
30.5542841768
 20
8.800643409
 30
0.0
 40
0.140500000000003
  0
CIRCLE
  5
21B
330
1F
100
AcDbEntity
  8
0
  6
Continuous
 62
     7
 48
4.0
370
    15
100
AcDbCircle
 10
27.5542841768
 20
8.800643409
 30
0.0
 40
0.1404999999999994
  0
CIRCLE
  5
21C
330
1F
100
AcDbEntity
  8
0
  6
Continuous
 62
     7
 48
4.0
370
    15
100
AcDbCircle
 10
29.0542841768
 20
11.300643409
 30
0.0
 40
0.6249999999999982
  0
LINE
  5
21D
330
1F
100
AcDbEntity
  8
0
  6
Continuous
 62
     7
 48
2.0
370
    15
100
AcDbLine
 10
27.1312841914
 20
13.300643446
 30
0.0
 11
30.9772841621
 21
13.300643446
 31
0.0
  0
LINE
  5
21E
330
1F
100
AcDbEntity
  8
0
  6
Continuous
 62
     7
 48
2.0
370
    15
100
AcDbLine
 10
27.1312841914
 20
7.3006433719
 30
0.0
 11
30.9772841621
 21
7.3006433719
 31
0.0
  0
LINE
  5
21F
330
1F
100
AcDbEntity
  8
0
  6
Continuous
 62
     7
 48
2.0
370
    15
100
AcDbLine
 10
27.0542842009
 20
13.300643446
 30
0.0
 11
27.0542842009
 21
7.3006433719
 31
0.0
  0
LINE
  5
220
330
1F
100
AcDbEntity
  8
0
  6
Continuous
 62
     7
 48
2.0
370
    15
100
AcDbLine
 10
27.0542842009
 20
7.3006433719
 30
0.0
 11
27.1312841914
 21
7.3006433719
 31
0.0
  0
LINE
  5
221
330
1F
100
AcDbEntity
  8
0
  6
Continuous
 62
     7
 48
2.0
370
    15
100
AcDbLine
 10
27.0542842009
 20
13.300643446
 30
0.0
 11
27.1312841914
 21
13.300643446
 31
0.0
  0
CIRCLE
  5
222
330
1F
100
AcDbEntity
  8
0
  6
Continuous
 62
     7
 48
4.0
370
    15
100
AcDbCircle
 10
29.0542841768
 20
11.300643409
 30
0.0
 40
0.0850000000000009
  0
CIRCLE
  5
223
330
1F
100
AcDbEntity
  8
0
  6
Continuous
 62
     7
 48
4.0
370
    15
100
AcDbCircle
 10
29.0542841768
 20
11.300643409
 30
0.0
 40
0.147000000000002
  0
LINE
  5
224
330
1F
100
AcDbEntity
  8
0
  6
Continuous
 62
     7
 48
2.0
370
    15
100
AcDbLine
 10
30.5542841953
 20
11.9411433378
 30
0.0
 11
30.5542841953
 21
11.6601433706
 31
0.0
  0
LINE
  5
225
330
1F
100
AcDbEntity
  8
0
  6
Continuous
 62
     7
 48
2.0
370
    15
100
AcDbLine
 10
30.5542841953
 20
8.9411434474
 30
0.0
 11
30.5542841953
 21
8.6601434802
 31
0.0
  0
LINE
  5
226
330
1F
100
AcDbEntity
  8
0
  6
Continuous
 62
     7
 48
2.0
370
    15
100
AcDbLine
 10
27.5542841582
 20
11.9411433378
 30
0.0
 11
27.5542841582
 21
11.6601433706
 31
0.0
  0
LINE
  5
227
330
1F
100
AcDbEntity
  8
0
  6
Continuous
 62
     7
 48
2.0
370
    15
100
AcDbLine
 10
27.5542841582
 20
8.9411434474
 30
0.0
 11
27.5542841582
 21
8.6601434802
 31
0.0
  0
DIMENSION
  5
228
330
1F
100
AcDbEntity
  8
0
  6
Continuous
 62
     7
 48
2.0
370
     0
100
AcDbDimension
  2
*D9
 10
26.3770523959
 20
8.800643409
 30
0.0
 11
26.3770523959
 21
10.300643409
 31
0.0
 70
   160
 71
     2
 42
-1.0
  3
SLDDIMSTYLE0
100
AcDbAlignedDimension
 13
27.5542841768
 23
11.800643409
 33
0.0
 14
27.5542841768
 24
8.800643409
 34
0.0
 50
90.0
100
AcDbRotatedDimension
  0
DIMENSION
  5
23A
330
1F
100
AcDbEntity
  8
0
  6
Continuous
 62
     7
 48
2.0
370
     0
100
AcDbDimension
  2
*D10
 10
30.5542841768
 20
6.5132398657
 30
0.0
 11
29.0542841768
 21
6.5132398657
 31
0.0
 70
   160
 71
     2
 42
-1.0
  3
SLDDIMSTYLE0
100
AcDbAlignedDimension
 13
27.5542841768
 23
8.800643409
 33
0.0
 14
30.5542841768
 24
8.800643409
 34
0.0
100
AcDbRotatedDimension
  0
DIMENSION
  5
24C
330
1F
100
AcDbEntity
  8
0
  6
Continuous
 62
     7
 48
2.0
370
     0
100
AcDbDimension
  2
*D11
 10
30.4841255341
 20
8.9223726777
 30
0.0
 11
32.3934251367
 21
7.1731160383
 31
0.0
 70
   163
  1
<>
 71
     1
 42
-1.0
  3
SLDDIMSTYLE2
100
AcDbDiametricDimension
 15
30.6244428194
 25
8.6789141403
 35
0.0
 40
0.0
  0
DIMENSION
  5
25D
330
1F
100
AcDbEntity
  8
0
  6
Continuous
 62
     7
 48
2.0
370
     0
100
AcDbDimension
  2
*D12
 10
31.9379918334
 20
13.300643409
 30
0.0
 11
31.9379918334
 21
12.300643409
 31
0.0
 70
   160
 71
     2
 42
-1.0
  3
SLDDIMSTYLE0
100
AcDbAlignedDimension
 13
29.0542841768
 23
11.300643409
 33
0.0
 14
31.0542841768
 24
13.300643409
 34
0.0
 50
90.0
100
AcDbRotatedDimension
  0
LINE
  5
26F
330
1F
100
AcDbEntity
  8
0
  6
Continuous
 62
     7
 48
2.0
370
    15
100
AcDbLine
 10
29.2988473111
 20
18.8890214783
 30
0.0
 11
27.5442796769
 21
19.9019118136
 31
0.0
  0
LINE
  5
270
330
1F
100
AcDbEntity
  8
0
  6
Continuous
 62
     7
 48
2.0
370
    15
100
AcDbLine
 10
27.4929505272
 20
19.9019118061
 30
0.0
 11
25.9740851506
 21
19.0250894879
 31
0.0
  0
LINE
  5
271
330
1F
100
AcDbEntity
  8
0
  6
Continuous
 62
     7
 48
2.0
370
    15
100
AcDbLine
 10
29.3829701906
 20
15.6203167542
 30
0.0
 11
29.3829701906
 21
18.8864800421
 31
0.0
  0
LINE
  5
272
330
1F
100
AcDbEntity
  8
0
  6
Continuous
 62
     7
 48
2.0
370
    15
100
AcDbLine
 10
25.8899622257
 20
19.022547998
 30
0.0
 11
25.8899622257
 21
19.0102731289
 31
0.0
  0
ARC
  5
273
330
1F
100
AcDbEntity
  8
0
  6
Continuous
 62
     7
 48
4.0
370
    15
100
AcDbCircle
 10
26.003532562
 20
17.331235978
 30
0.0
 40
0.1540163913188692
100
AcDbArc
 50
168.1339525011
 51
205.9042604596
  0
ARC
  5
274
330
1F
100
AcDbEntity
  8
0
  6
Continuous
 62
     7
 48
4.0
370
    15
100
AcDbCircle
 10
26.003532562
 20
17.331235978
 30
0.0
 40
0.1540163913188673
100
AcDbArc
 50
213.5984078164
 51
251.8606709662
  0
SPLINE
  5
275
330
1F
100
AcDbEntity
  8
0
  6
Continuous
 62
     7
 48
2.0
370
    15
100
AcDbSpline
210
0.0
220
0.0
230
1.0
 70
     8
 71
     3
 72
    10
 73
     6
 74
     0
 42
0.00000001
 43
0.00000001
 40
0.0
 40
0.0
 40
0.0
 40
0.0
 40
0.1890985692709306
 40
0.6129328543630037
 40
1.0
 40
1.0
 40
1.0
 40
1.0
 10
25.87706795880359
 20
17.40091802015618
 30
0.0
 10
25.8750490465494
 20
17.39973952551254
 30
0.0
 10
25.86850506445875
 20
17.39591962307454
 30
0.0
 10
25.86065492850798
 20
17.38557579228772
 30
0.0
 10
25.85679907519577
 20
17.3753270311821
 30
0.0
 10
25.85495856279932
 20
17.37043499553246
 30
0.0
  0
SPLINE
  5
276
330
1F
100
AcDbEntity
  8
0
  6
Continuous
 62
     7
 48
2.0
370
    15
100
AcDbSpline
210
0.0
220
0.0
230
1.0
 70
     8
 71
     3
 72
    12
 73
     8
 74
     0
 42
0.00000001
 43
0.00000001
 40
0.0
 40
0.0
 40
0.0
 40
0.0
 40
0.1570632033038742
 40
0.4332046801918067
 40
0.7063668231794291
 40
0.9704524643796598
 40
1.0
 40
1.0
 40
1.0
 40
1.0
 10
25.9402634108373
 20
17.19201022036475
 30
0.0
 10
25.94382481482272
 20
17.19004989838959
 30
0.0
 10
25.95364771950113
 20
17.18464302627402
 30
0.0
 10
25.96977915041798
 20
17.1808350097187
 30
0.0
 10
25.9873008535713
 20
17.18126927212715
 30
0.0
 10
25.9992122576104
 20
17.18426217723989
 30
0.0
 10
26.00394515087714
 20
17.18811387619341
 30
0.0
 10
26.00442140949989
 20
17.18850146254608
 30
0.0
  0
LINE
  5
277
330
1F
100
AcDbEntity
  8
0
  6
Continuous
 62
     7
 48
2.0
370
    15
100
AcDbLine
 10
26.0037724061
 20
17.1878105476
 30
0.0
 11
26.0194849669
 21
17.1968812159
 31
0.0
  0
LINE
  5
278
330
1F
100
AcDbEntity
  8
0
  6
Continuous
 62
     7
 48
2.0
370
    15
100
AcDbLine
 10
25.8951617198
 20
17.4122387088
 30
0.0
 11
25.879449159
 21
17.4031680405
 31
0.0
  0
ARC
  5
279
330
1F
100
AcDbEntity
  8
0
  6
Continuous
 62
     7
 48
4.0
370
    15
100
AcDbCircle
 10
27.6534483848
 20
16.3787598476
 30
0.0
 40
0.1540163913188718
100
AcDbArc
 50
168.1339525011
 51
251.8606709662
  0
SPLINE
  5
27A
330
1F
100
AcDbEntity
  8
0
  6
Continuous
 62
     7
 48
2.0
370
    15
100
AcDbSpline
210
0.0
220
0.0
230
1.0
 70
     8
 71
     3
 72
     9
 73
     5
 74
     0
 42
0.00000001
 43
0.00000001
 40
0.0
 40
0.0
 40
0.0
 40
0.0
 40
0.1897106041402062
 40
1.0
 40
1.0
 40
1.0
 40
1.0
 10
27.64034317610358
 20
16.23050851232
 30
0.0
 10
27.64142703345978
 20
16.2306212120942
 30
0.0
 10
27.64714024786397
 20
16.23121527363708
 30
0.0
 10
27.65183183022097
 20
16.23438871669805
 30
0.0
 10
27.65563336965464
 20
16.23696012395873
 30
0.0
  0
SPLINE
  5
27B
330
1F
100
AcDbEntity
  8
0
  6
Continuous
 62
     7
 48
2.0
370
    15
100
AcDbSpline
210
0.0
220
0.0
230
1.0
 70
     8
 71
     3
 72
     9
 73
     5
 74
     0
 42
0.00000001
 43
0.00000001
 40
0.0
 40
0.0
 40
0.0
 40
0.0
 40
0.6912326432231106
 40
1.0
 40
1.0
 40
1.0
 40
1.0
 10
27.52881878466913
 20
16.45037178156451
 30
0.0
 10
27.52616235174752
 20
16.44875744021167
 30
0.0
 10
27.52231931431627
 20
16.44642198720801
 30
0.0
 10
27.51953254606255
 20
16.44277374164166
 30
0.0
 10
27.5186720829949
 20
16.44164728250126
 30
0.0
  0
LINE
  5
27C
330
1F
100
AcDbEntity
  8
0
  6
Continuous
 62
     7
 48
2.0
370
    15
100
AcDbLine
 10
27.6536882262
 20
16.2353344187
 30
0.0
 11
27.6694007871
 21
16.244405087
 31
0.0
  0
LINE
  5
27D
330
1F
100
AcDbEntity
  8
0
  6
Continuous
 62
     7
 48
2.0
370
    15
100
AcDbLine
 10
27.5450775399
 20
16.4597625799
 30
0.0
 11
27.5293649791
 21
16.4506919116
 31
0.0
  0
LINE
  5
27E
330
1F
100
AcDbEntity
  8
0
  6
Continuous
 62
     7
 48
2.0
370
    15
100
AcDbLine
 10
27.7543173531
 20
17.934003902
 30
0.0
 11
27.7250902836
 21
17.9171314739
 31
0.0
  0
LINE
  5
27F
330
1F
100
AcDbEntity
  8
0
  6
Continuous
 62
     7
 48
2.0
370
    15
100
AcDbLine
 10
27.7543173531
 20
14.667840614
 30
0.0
 11
27.7543173531
 21
17.934003902
 31
0.0
  0
LINE
  5
280
330
1F
100
AcDbEntity
  8
0
  6
Continuous
 62
     7
 48
2.0
370
    15
100
AcDbLine
 10
27.7543173531
 20
14.667840614
 30
0.0
 11
27.7250902836
 21
14.650968186
 31
0.0
  0
LINE
  5
281
330
1F
100
AcDbEntity
  8
0
  6
Continuous
 62
     7
 48
2.0
370
    15
100
AcDbLine
 10
27.7250902836
 20
14.650968186
 30
0.0
 11
27.7250902836
 21
17.9171314739
 31
0.0
  0
LWPOLYLINE
  5
282
330
1F
100
AcDbEntity
  8
0
  6
Continuous
 62
     7
 48
2.0
370
    15
100
AcDbPolyline
 90
       23
 70
   128
 43
0.0
 10
27.6728306113
 20
16.2466166742
 10
27.6803739707
 20
16.2330652198
 10
27.6914750607
 20
16.2078247216
 10
27.6989961575
 20
16.1824224539
 10
27.7026177029
 20
16.1579379545
 10
27.7021857254
 20
16.1354118055
 10
27.6977186849
 20
16.1158013138
 10
27.6894062976
 20
16.0999399525
 10
27.6776018613
 20
16.0885018423
 10
27.6628070454
 20
16.0819730477
 10
27.6456507337
 20
16.0806309873
 10
27.6268619231
 20
16.0845327741
 10
27.6072391635
 20
16.0935125785
 10
27.5876164039
 20
16.1071887301
 10
27.5688275932
 20
16.1249800423
 10
27.5516712816
 20
16.1461303585
 10
27.5368764656
 20
16.169740884
 10
27.5250720985
 20
16.1948080663
 10
27.5167596421
 20
16.2202667456
 10
27.5122926016
 20
16.2450347725
 10
27.5118606241
 20
16.2680596721
 10
27.5154821695
 20
16.2883628242
 10
27.5205657874
 20
16.3008928854
  0
LWPOLYLINE
  5
283
330
1F
100
AcDbEntity
  8
0
  6
Continuous
 62
     7
 48
2.0
370
    15
100
AcDbPolyline
 90
       23
 70
   128
 43
0.0
 10
25.8712237479
 20
17.2544281674
 10
25.8655663493
 20
17.2408389531
 10
25.8619448039
 20
17.220535801
 10
25.8623767815
 20
17.1975109014
 10
25.866843822
 20
17.1727428745
 10
25.8751562093
 20
17.1472842351
 10
25.8869606455
 20
17.1222170129
 10
25.9017554615
 20
17.0986064874
 10
25.9189117731
 20
17.0774561712
 10
25.9377005838
 20
17.0596648591
 10
25.9573233434
 20
17.0459887074
 10
25.976946103
 20
17.0370089031
 10
25.9957349136
 20
17.0331071163
 10
26.0128912252
 20
17.0344491767
 10
26.0276860412
 20
17.0409779712
 10
26.0394904083
 20
17.0524161214
 10
26.0478028648
 20
17.0682774427
 10
26.0522699052
 20
17.0878879344
 10
26.0527018828
 20
17.1104140834
 10
26.0490803374
 20
17.1348985828
 10
26.0415592406
 20
17.1603008506
 10
26.0304581506
 20
17.1855413487
 10
26.0229147912
 20
17.1990928032
  0
LINE
  5
284
330
1F
100
AcDbEntity
  8
0
  6
Continuous
 62
     7
 48
2.0
370
    15
100
AcDbLine
 10
27.7250902836
 20
17.9171314739
 30
0.0
 11
25.8394722232
 21
19.0056756098
 31
0.0
  0
LINE
  5
285
330
1F
100
AcDbEntity
  8
0
  6
Continuous
 62
     7
 48
2.0
370
    15
100
AcDbLine
 10
25.8394722232
 20
15.7395123219
 30
0.0
 11
27.7250902836
 21
14.650968186
 31
0.0
  0
LINE
  5
286
330
1F
100
AcDbEntity
  8
0
  6
Continuous
 62
     7
 48
2.0
370
    15
100
AcDbLine
 10
25.8394722232
 20
19.0056756098
 30
0.0
 11
25.8394722232
 21
15.7395123219
 31
0.0
  0
LINE
  5
287
330
1F
100
AcDbEntity
  8
0
  6
Continuous
 62
     7
 48
2.0
370
    15
100
AcDbLine
 10
25.8686992927
 20
19.0225480379
 30
0.0
 11
25.8394722232
 21
19.0056756098
 31
0.0
  0
LINE
  5
288
330
1F
100
AcDbEntity
  8
0
  6
Continuous
 62
     7
 48
2.0
370
    15
100
AcDbLine
 10
27.7543173531
 20
17.934003902
 30
0.0
 11
25.8686992927
 21
19.0225480379
 31
0.0
  0
LWPOLYLINE
  5
289
330
1F
100
AcDbEntity
  8
0
  6
Continuous
 62
     7
 48
2.0
370
    15
100
AcDbPolyline
 90
       12
 70
   128
 43
0.0
 10
27.6879173993
 20
16.0980141291
 10
27.6748778032
 20
16.0975034154
 10
27.6560889926
 20
16.1014052022
 10
27.636466233
 20
16.1103850065
 10
27.6168434734
 20
16.1240611582
 10
27.5980546627
 20
16.1418524704
 10
27.5808983511
 20
16.1630027866
 10
27.5661035351
 20
16.1866133121
 10
27.554299168
 20
16.2116804944
 10
27.5459867116
 20
16.2371391737
 10
27.5415196711
 20
16.2619072005
 10
27.5407933708
 20
16.2737365219
  0
LWPOLYLINE
  5
28A
330
1F
100
AcDbEntity
  8
0
  6
Continuous
 62
     7
 48
2.0
370
    15
100
AcDbPolyline
 90
       12
 70
   128
 43
0.0
 10
25.8908775507
 20
17.2262126508
 10
25.891603851
 20
17.2143833295
 10
25.8960708915
 20
17.1896153026
 10
25.9043832788
 20
17.1641566632
 10
25.916187715
 20
17.139089441
 10
25.930982531
 20
17.1154789155
 10
25.9481388426
 20
17.0943285993
 10
25.9669276533
 20
17.0765372871
 10
25.9865504129
 20
17.0628611355
 10
26.0061731725
 20
17.0538813312
 10
26.0249619831
 20
17.0499795443
 10
26.0380015792
 20
17.0504902581
  0
ARC
  5
28B
330
1F
100
AcDbEntity
  8
0
  6
Continuous
 62
     7
 48
4.0
370
    15
100
AcDbCircle
 10
29.233952454
 20
18.8236119732
 30
0.0
 40
0.0741040211445346
100
AcDbArc
 50
28.8623000476
 51
58.0354340481
  0
ARC
  5
28C
330
1F
100
AcDbEntity
  8
0
  6
Continuous
 62
     7
 48
4.0
370
    15
100
AcDbCircle
 10
27.7151237737
 20
17.9468245229
 30
0.0
 40
0.0740550143261722
100
AcDbArc
 50
28.8569794758
 51
58.0452392995
  0
ARC
  5
28D
330
1F
100
AcDbEntity
  8
0
  6
Continuous
 62
     7
 48
4.0
370
    15
100
AcDbCircle
 10
27.7467310673
 20
17.9637287376
 30
0.0
 40
0.0143481920371851
100
AcDbArc
 50
29.8376949081
 51
58.080472871
  0
LINE
  5
28E
330
1F
100
AcDbEntity
  8
0
  6
Continuous
 62
     7
 48
2.0
370
    15
100
AcDbLine
 10
27.5695267912
 20
18.1163350234
 30
0.0
 11
27.7543173531
 21
18.0096577027
 31
0.0
  0
LINE
  5
28F
330
1F
100
AcDbEntity
  8
0
  6
Continuous
 62
     7
 48
2.0
370
    15
100
AcDbLine
 10
27.5402997217
 20
18.0994625953
 30
0.0
 11
27.5695267912
 21
18.1163350234
 31
0.0
  0
LINE
  5
290
330
1F
100
AcDbEntity
  8
0
  6
Continuous
 62
     7
 48
2.0
370
    15
100
AcDbLine
 10
26.1553132114
 20
18.8989982891
 30
0.0
 11
26.1845402809
 21
18.9158707172
 31
0.0
  0
LINE
  5
291
330
1F
100
AcDbEntity
  8
0
  6
Continuous
 62
     7
 48
2.0
370
    15
100
AcDbLine
 10
26.1845402809
 20
18.9158707172
 30
0.0
 11
25.999749719
 21
19.0225480379
 31
0.0
  0
LINE
  5
292
330
1F
100
AcDbEntity
  8
0
  6
Continuous
 62
     7
 48
2.0
370
    15
100
AcDbLine
 10
27.5695267912
 20
18.0825846823
 30
0.0
 11
27.5695267912
 21
18.1163350234
 31
0.0
  0
LINE
  5
293
330
1F
100
AcDbEntity
  8
0
  6
Continuous
 62
     7
 48
2.0
370
    15
100
AcDbLine
 10
27.5695267912
 20
18.0825846823
 30
0.0
 11
27.7543173531
 21
17.9759073616
 31
0.0
  0
ARC
  5
294
330
1F
100
AcDbEntity
  8
0
  6
Continuous
 62
     7
 48
4.0
370
    15
100
AcDbCircle
 10
27.5794926385
 20
18.0366301561
 30
0.0
 40
0.0740540352610313
100
AcDbArc
 50
121.9546289747
 51
151.1432220824
  0
ARC
  5
295
330
1F
100
AcDbEntity
  8
0
  6
Continuous
 62
     7
 48
4.0
370
    15
100
AcDbCircle
 10
26.1945061282
 20
18.83616585
 30
0.0
 40
0.0740540352610412
100
AcDbArc
 50
121.9546289747
 51
151.1432220824
  0
LINE
  5
296
330
1F
100
AcDbEntity
  8
0
  6
Continuous
 62
     7
 48
2.0
370
    15
100
AcDbLine
 10
27.5624604185
 20
18.0785053521
 30
0.0
 11
27.5695267912
 21
18.0825846823
 31
0.0
  0
ARC
  5
297
330
1F
100
AcDbEntity
  8
0
  6
Continuous
 62
     7
 48
4.0
370
    15
100
AcDbCircle
 10
27.53365174
 20
19.8783807016
 30
0.0
 40
0.0258198813235435
100
AcDbArc
 50
65.6934624381
 51
125.6171911235
  0
ARC
  5
298
330
1F
100
AcDbEntity
  8
0
  6
Continuous
 62
     7
 48
4.0
370
    15
100
AcDbCircle
 10
29.2873523846
 20
18.8691083135
 30
0.0
 40
0.0224177460146636
100
AcDbArc
 50
350.7860255919
 51
129.2032403734
  0
LINE
  5
299
330
1F
100
AcDbEntity
  8
0
  6
Continuous
 62
     7
 48
2.0
370
    15
100
AcDbLine
 10
26.1553084408
 20
18.8989955582
 30
0.0
 11
25.999749719
 21
18.9887976968
 31
0.0
  0
ARC
  5
29A
330
1F
100
AcDbEntity
  8
0
  6
Continuous
 62
     7
 48
4.0
370
    15
100
AcDbCircle
 10
25.9855800823
 20
19.0051763052
 30
0.0
 40
0.0224177541060454
100
AcDbArc
 50
50.7968364229
 51
189.2139153318
  0
ARC
  5
29B
330
1F
100
AcDbEntity
  8
0
  6
Continuous
 62
     7
 48
4.0
370
    15
100
AcDbCircle
 10
27.5035784746
 20
19.8783808149
 30
0.0
 40
0.0258197755622901
100
AcDbArc
 50
54.3827047583
 51
114.3066690938
  0
ARC
  5
29C
330
1F
100
AcDbEntity
  8
0
  6
Continuous
 62
     7
 48
4.0
370
    15
100
AcDbCircle
 10
25.9969894314
 20
18.9854135305
 30
0.0
 40
0.00436712361879
100
AcDbArc
 50
50.7976735272
 51
189.2130782276
  0
ARC
  5
29D
330
1F
100
AcDbEntity
  8
0
  6
Continuous
 62
     7
 48
4.0
370
    15
100
AcDbCircle
 10
27.7543173531
 20
18.0250135521
 30
0.0
 40
0.0789004637088624
100
AcDbArc
 50
242.6096780741
 51
297.3903219259
  0
ARC
  5
29E
330
1F
100
AcDbEntity
  8
0
  6
Continuous
 62
     7
 48
4.0
370
    15
100
AcDbCircle
 10
27.7557962761
 20
14.7541695839
 30
0.0
 40
0.0740689075344761
100
AcDbArc
 50
268.8558540801
 51
298.0402859365
  0
ARC
  5
29F
330
1F
100
AcDbEntity
  8
0
  6
Continuous
 62
     7
 48
4.0
370
    15
100
AcDbCircle
 10
27.7543173531
 20
17.9854781323
 30
0.0
 40
0.0153704165870429
100
AcDbArc
 50
242.6100272199
 51
297.3899727801
  0
LINE
  5
2A0
330
1F
100
AcDbEntity
  8
0
  6
Continuous
 62
     7
 48
2.0
370
    15
100
AcDbLine
 10
27.7906154967
 20
17.9549583742
 30
0.0
 11
29.3679350253
 21
18.8655255561
 31
0.0
  0
LINE
  5
2A1
330
1F
100
AcDbEntity
  8
0
  6
Continuous
 62
     7
 48
2.0
370
    15
100
AcDbLine
 10
27.7906154967
 20
14.6887950863
 30
0.0
 11
29.3679350253
 21
15.5993622682
 31
0.0
  0
LINE
  5
2A2
330
1F
100
AcDbEntity
  8
0
  6
Continuous
 62
     7
 48
2.0
370
    15
100
AcDbLine
 10
27.7613884272
 20
17.9718308023
 30
0.0
 11
29.3387079558
 21
18.8823979842
 31
0.0
  0
LINE
  5
2A3
330
1F
100
AcDbEntity
  8
0
  6
Continuous
 62
     7
 48
2.0
370
    15
100
AcDbLine
 10
27.5186151128
 20
18.070071909
 30
0.0
 11
27.7180192095
 21
17.9549583742
 31
0.0
  0
LINE
  5
2A4
330
1F
100
AcDbEntity
  8
0
  6
Continuous
 62
     7
 48
2.0
370
    15
100
AcDbLine
 10
27.5186151128
 20
18.070071909
 30
0.0
 11
27.5478421823
 21
18.086944337
 31
0.0
  0
LINE
  5
2A5
330
1F
100
AcDbEntity
  8
0
  6
Continuous
 62
     7
 48
2.0
370
    15
100
AcDbLine
 10
27.5478421823
 20
18.086944337
 30
0.0
 11
27.747246279
 21
17.9718308023
 31
0.0
  0
ARC
  5
2A6
330
1F
100
AcDbEntity
  8
0
  6
Continuous
 62
     7
 48
4.0
370
    15
100
AcDbCircle
 10
29.3599820782
 20
18.8864800305
 30
0.0
 40
0.0224129284575128
100
AcDbArc
 50
290.783484229
 51
69.2165039557
  0
ARC
  5
2A7
330
1F
100
AcDbEntity
  8
0
  6
Continuous
 62
     7
 48
4.0
370
    15
100
AcDbCircle
 10
29.3572801592
 20
15.622878522
 30
0.0
 40
0.0258174430275927
100
AcDbArc
 50
294.374575651
 51
354.3053842676
  0
ARC
  5
2A8
330
1F
100
AcDbEntity
  8
0
  6
Continuous
 62
     7
 48
4.0
370
    15
100
AcDbCircle
 10
29.3371587137
 20
18.8864800253
 30
0.0
 40
0.0043661436710753
100
AcDbArc
 50
290.7830723857
 51
69.2170185923
  0
LINE
  5
2A9
330
1F
100
AcDbEntity
  8
0
  6
Continuous
 62
     7
 48
2.0
370
    15
100
AcDbLine
 10
25.9049974363
 20
19.0015935656
 30
0.0
 11
26.104401533
 21
18.8864800309
 31
0.0
  0
LINE
  5
2AA
330
1F
100
AcDbEntity
  8
0
  6
Continuous
 62
     7
 48
2.0
370
    15
100
AcDbLine
 10
25.9342245058
 20
19.0184659937
 30
0.0
 11
26.1336286025
 21
18.903352459
 31
0.0
  0
LINE
  5
2AB
330
1F
100
AcDbEntity
  8
0
  6
Continuous
 62
     7
 48
2.0
370
    15
100
AcDbLine
 10
26.1336286025
 20
18.903352459
 30
0.0
 11
26.104401533
 21
18.8864800309
 31
0.0
  0
LINE
  5
2AC
330
1F
100
AcDbEntity
  8
0
  6
Continuous
 62
     7
 48
2.0
370
    15
100
AcDbLine
 10
26.1336286025
 20
18.903352459
 30
0.0
 11
26.1336286025
 21
18.8781782232
 31
0.0
  0
LINE
  5
2AD
330
1F
100
AcDbEntity
  8
0
  6
Continuous
 62
     7
 48
2.0
370
    15
100
AcDbLine
 10
29.3387079493
 20
18.8905620688
 30
0.0
 11
27.5256861762
 21
19.9371972602
 31
0.0
  0
LINE
  5
2AE
330
1F
100
AcDbEntity
  8
0
  6
Continuous
 62
     7
 48
2.0
370
    15
100
AcDbLine
 10
29.3679350296
 20
18.9074345032
 30
0.0
 11
27.5549132565
 21
19.9540696945
 31
0.0
  0
ARC
  5
2AF
330
1F
100
AcDbEntity
  8
0
  6
Continuous
 62
     7
 48
4.0
370
    15
100
AcDbCircle
 10
25.9357738288
 20
19.0225480379
 30
0.0
 40
0.0043661752636948
100
AcDbArc
 50
110.784050042
 51
249.215949958
  0
ARC
  5
2B0
330
1F
100
AcDbEntity
  8
0
  6
Continuous
 62
     7
 48
4.0
370
    15
100
AcDbCircle
 10
25.9129503533
 20
19.0225480379
 30
0.0
 40
0.0224129158318116
100
AcDbArc
 50
110.7834140814
 51
249.2165859186
  0
LINE
  5
2B1
330
1F
100
AcDbEntity
  8
0
  6
Continuous
 62
     7
 48
2.0
370
    15
100
AcDbLine
 10
27.5115440344
 20
19.937197264
 30
0.0
 11
25.9342245058
 21
19.0266300821
 31
0.0
  0
LINE
  5
2B2
330
1F
100
AcDbEntity
  8
0
  6
Continuous
 62
     7
 48
2.0
370
    15
100
AcDbLine
 10
27.4823169649
 20
19.954069692
 30
0.0
 11
25.9049974363
 21
19.0435025102
 31
0.0
  0
ARC
  5
2B3
330
1F
100
AcDbEntity
  8
0
  6
Continuous
 62
     7
 48
4.0
370
    15
100
AcDbCircle
 10
27.5186151017
 20
19.9235502619
 30
0.0
 40
0.0153701222303989
100
AcDbArc
 50
62.6094571307
 51
117.3905125498
  0
ARC
  5
2B4
330
1F
100
AcDbEntity
  8
0
  6
Continuous
 62
     7
 48
4.0
370
    15
100
AcDbCircle
 10
27.5186151131
 20
19.8840144152
 30
0.0
 40
0.0789005537341105
100
AcDbArc
 50
62.6097121486
 51
117.390291789
  0
ARC
  5
2B5
330
1F
100
AcDbEntity
  8
0
  6
Continuous
 62
     7
 48
4.0
370
    15
100
AcDbCircle
 10
25.8049418182
 20
17.3910265751
 30
0.0
 40
0.1405492335819053
100
AcDbArc
 50
295.292907882
 51
301.0311617596
  0
ARC
  5
2B6
330
1F
100
AcDbEntity
  8
0
  6
Continuous
 62
     7
 48
4.0
370
    15
100
AcDbCircle
 10
26.0250001302
 20
17.3436278037
 30
0.0
 40
0.1777745702751569
100
AcDbArc
 50
206.4191681774
 51
213.083561378
  0
LWPOLYLINE
  5
2B7
330
1F
100
AcDbEntity
  8
0
  6
Continuous
 62
     7
 48
2.0
370
    15
100
AcDbPolyline
 90
        9
 70
   128
 43
0.0
 10
25.8760471975
 20
17.2465874941
 10
25.875361205
 20
17.2461225491
 10
25.8752922048
 20
17.2460099852
 10
25.8758402659
 20
17.2462503077
 10
25.8770031069
 20
17.2468423901
 10
25.8787749891
 20
17.2477834545
 10
25.8811481692
 20
17.2490692935
 10
25.8841112392
 20
17.2506937488
 10
25.8876509246
 20
17.2526495396
  0
ARC
  5
2B8
330
1F
100
AcDbEntity
  8
0
  6
Continuous
 62
     7
 48
4.0
370
    15
100
AcDbCircle
 10
25.9740914875
 20
17.3795193941
 30
0.0
 40
0.153518503450359
100
AcDbArc
 50
235.7321214392
 51
248.2444384438
  0
ARC
  5
2B9
330
1F
100
AcDbEntity
  8
0
  6
Continuous
 62
     7
 48
4.0
370
    15
100
AcDbCircle
 10
26.0473392502
 20
17.257536894
 30
0.0
 40
0.1317694501767024
100
AcDbArc
 50
175.2060495288
 51
188.9947816181
  0
ARC
  5
2BA
330
1F
100
AcDbEntity
  8
0
  6
Continuous
 62
     7
 48
4.0
370
    15
100
AcDbCircle
 10
17.7111779112
 20
31.8076579338
 30
0.0
 40
16.69446892925726
100
AcDbArc
 50
299.4373338236
 51
299.6863367297
  0
ARC
  5
2BB
330
1F
100
AcDbEntity
  8
0
  6
Continuous
 62
     7
 48
4.0
370
    15
100
AcDbCircle
 10
25.8199305805
 20
17.2252459447
 30
0.0
 40
0.177774570274602
100
AcDbArc
 50
26.4191681774
 51
33.083561378
  0
ARC
  5
2BC
330
1F
100
AcDbEntity
  8
0
  6
Continuous
 62
     7
 48
4.0
370
    15
100
AcDbCircle
 10
17.6973020524
 20
31.8319519131
 30
0.0
 40
16.70178006654636
100
AcDbArc
 50
299.4374414632
 51
299.6863352272
  0
ARC
  5
2BD
330
1F
100
AcDbEntity
  8
0
  6
Continuous
 62
     7
 48
4.0
370
    15
100
AcDbCircle
 10
25.9640140104
 20
17.4061209315
 30
0.0
 40
0.1330524591774465
100
AcDbArc
 50
230.2742955937
 51
244.0420592228
  0
ARC
  5
2BE
330
1F
100
AcDbEntity
  8
0
  6
Continuous
 62
     7
 48
4.0
370
    15
100
AcDbCircle
 10
26.0298086882
 20
17.2799603706
 30
0.0
 40
0.1527008171140167
100
AcDbArc
 50
171.0225929616
 51
183.5174625642
  0
LINE
  5
2BF
330
1F
100
AcDbEntity
  8
0
  6
Continuous
 62
     7
 48
2.0
370
    15
100
AcDbLine
 10
25.9417829375
 20
17.2834156229
 30
0.0
 11
25.9160307705
 21
17.2685492133
 31
0.0
  0
LINE
  5
2C0
330
1F
100
AcDbEntity
  8
0
  6
Continuous
 62
     7
 48
2.0
370
    15
100
AcDbLine
 10
25.9791389006
 20
17.3043440398
 30
0.0
 11
25.9417829375
 21
17.2834156229
 31
0.0
  0
LINE
  5
2C1
330
1F
100
AcDbEntity
  8
0
  6
Continuous
 62
     7
 48
2.0
370
    15
100
AcDbLine
 10
25.879449159
 20
17.4031680405
 30
0.0
 11
25.8771200201
 21
17.401718721
 31
0.0
  0
LWPOLYLINE
  5
2C2
330
1F
100
AcDbEntity
  8
0
  6
Continuous
 62
     7
 48
2.0
370
    15
100
AcDbPolyline
 90
       16
 70
   128
 43
0.0
 10
26.0194849669
 20
17.1968812159
 10
26.0283409905
 20
17.2037161233
 10
26.0378215425
 20
17.2172716976
 10
26.0435381928
 20
17.234908712
 10
26.0452234444
 20
17.2558025937
 10
26.0427986179
 20
17.2789762957
 10
26.0363771003
 20
17.3033462435
 10
26.0262590911
 20
17.3277729539
 10
26.0129177053
 20
17.3511142602
 10
25.9969767799
 20
17.372278752
 10
25.9791817665
 20
17.3902767399
 10
25.9603646091
 20
17.4042667529
 10
25.9414053028
 20
17.4135945562
 10
25.9231902728
 20
17.4178240446
 10
25.9065712367
 20
17.4167574429
 10
25.8951617198
 20
17.4122387088
  0
LINE
  5
2C3
330
1F
100
AcDbEntity
  8
0
  6
Continuous
 62
     7
 48
2.0
370
    15
100
AcDbLine
 10
25.9417829375
 20
17.2834156229
 30
0.0
 11
25.9418606492
 21
17.2953029744
 31
0.0
  0
LINE
  5
2C4
330
1F
100
AcDbEntity
  8
0
  6
Continuous
 62
     7
 48
2.0
370
    15
100
AcDbLine
 10
25.9418606492
 20
17.2953029744
 30
0.0
 11
25.9317914518
 21
17.3012032016
 31
0.0
  0
LINE
  5
2C5
330
1F
100
AcDbEntity
  8
0
  6
Continuous
 62
     7
 48
2.0
370
    15
100
AcDbLine
 10
25.9158931157
 20
17.2665749789
 30
0.0
 11
25.9035154519
 21
17.2738278925
 31
0.0
  0
LINE
  5
2C6
330
1F
100
AcDbEntity
  8
0
  6
Continuous
 62
     7
 48
2.0
370
    15
100
AcDbLine
 10
25.9035154519
 20
17.2738278925
 30
0.0
 11
25.9036054012
 21
17.2875889665
 31
0.0
  0
LINE
  5
2C7
330
1F
100
AcDbEntity
  8
0
  6
Continuous
 62
     7
 48
2.0
370
    15
100
AcDbLine
 10
25.9035154519
 20
17.2738278925
 30
0.0
 11
25.9030700615
 21
17.273570774
 31
0.0
  0
LINE
  5
2C8
330
1F
100
AcDbEntity
  8
0
  6
Continuous
 62
     7
 48
2.0
370
    15
100
AcDbLine
 10
25.9031477041
 20
17.2854581655
 30
0.0
 11
25.9030700615
 21
17.273570774
 31
0.0
  0
LINE
  5
2C9
330
1F
100
AcDbEntity
  8
0
  6
Continuous
 62
     7
 48
2.0
370
    15
100
AcDbLine
 10
25.9031477041
 20
17.2854581655
 30
0.0
 11
25.8773955372
 21
17.2705917559
 31
0.0
  0
LINE
  5
2CA
330
1F
100
AcDbEntity
  8
0
  6
Continuous
 62
     7
 48
2.0
370
    15
100
AcDbLine
 10
25.8876509246
 20
17.2526495396
 30
0.0
 11
25.9134030915
 21
17.2675159491
 31
0.0
  0
LINE
  5
2CB
330
1F
100
AcDbEntity
  8
0
  6
Continuous
 62
     7
 48
2.0
370
    15
100
AcDbLine
 10
25.9030700615
 20
17.273570774
 30
0.0
 11
25.9134030915
 21
17.2675159491
 31
0.0
  0
LINE
  5
2CC
330
1F
100
AcDbEntity
  8
0
  6
Continuous
 62
     7
 48
2.0
370
    15
100
AcDbLine
 10
25.9134030915
 20
17.2675159491
 30
0.0
 11
25.8760471975
 21
17.2465874941
 31
0.0
  0
ARC
  5
2CD
330
1F
100
AcDbEntity
  8
0
  6
Continuous
 62
     7
 48
4.0
370
    15
100
AcDbCircle
 10
27.6937835488
 20
16.407761181
 30
0.0
 40
0.1685479437963283
100
AcDbArc
 50
174.6749627646
 51
202.0526885751
  0
ARC
  5
2CE
330
1F
100
AcDbEntity
  8
0
  6
Continuous
 62
     7
 48
4.0
370
    15
100
AcDbCircle
 10
27.5382073716
 20
16.3911541534
 30
0.0
 40
0.0344954699132112
100
AcDbArc
 50
110.7907120843
 51
130.7116137054
  0
ARC
  5
2CF
330
1F
100
AcDbEntity
  8
0
  6
Continuous
 62
     7
 48
4.0
370
    15
100
AcDbCircle
 10
27.6835280038
 20
16.401659665
 30
0.0
 40
0.1685477794822765
100
AcDbArc
 50
174.6749849325
 51
202.0527559351
  0
ARC
  5
2D0
330
1F
100
AcDbEntity
  8
0
  6
Continuous
 62
     7
 48
4.0
370
    15
100
AcDbCircle
 10
27.6600456033
 20
16.3290031118
 30
0.0
 40
0.1330647424193313
100
AcDbArc
 50
175.9605254302
 51
189.7282210383
  0
ARC
  5
2D1
330
1F
100
AcDbEntity
  8
0
  6
Continuous
 62
     7
 48
4.0
370
    15
100
AcDbCircle
 10
27.6117958861
 20
16.4089220813
 30
0.0
 40
0.1317541882370044
100
AcDbArc
 50
231.0078308149
 51
244.7969198058
  0
ARC
  5
2D2
330
1F
100
AcDbEntity
  8
0
  6
Continuous
 62
     7
 48
4.0
370
    15
100
AcDbCircle
 10
27.6888591405
 20
16.3954732363
 30
0.0
 40
0.1700572567999873
100
AcDbArc
 50
218.4568592022
 51
245.6708649203
  0
ARC
  5
2D3
330
1F
100
AcDbEntity
  8
0
  6
Continuous
 62
     7
 48
4.0
370
    15
100
AcDbCircle
 10
27.6065549793
 20
16.2727673372
 30
0.0
 40
0.0344954699130771
100
AcDbArc
 50
290.7907120843
 51
310.7116137054
  0
ARC
  5
2D4
330
1F
100
AcDbEntity
  8
0
  6
Continuous
 62
     7
 48
4.0
370
    15
100
AcDbCircle
 10
27.6991143752
 20
16.4015746326
 30
0.0
 40
0.1700570117313043
100
AcDbArc
 50
218.4568379599
 51
245.6708840491
  0
ARC
  5
2D5
330
1F
100
AcDbEntity
  8
0
  6
Continuous
 62
     7
 48
4.0
370
    15
100
AcDbCircle
 10
27.719042246
 20
16.307244995
 30
0.0
 40
0.1535218981907376
100
AcDbArc
 50
171.7579175833
 51
184.2708742652
  0
ARC
  5
2D6
330
1F
100
AcDbEntity
  8
0
  6
Continuous
 62
     7
 48
4.0
370
    15
100
AcDbCircle
 10
27.6218733537
 20
16.4717796691
 30
0.0
 40
0.1526867242546984
100
AcDbArc
 50
236.4850772358
 51
248.9801900746
  0
ARC
  5
2D7
330
1F
100
AcDbEntity
  8
0
  6
Continuous
 62
     7
 48
4.0
370
    15
100
AcDbCircle
 10
27.5590848052
 20
16.4005535508
 30
0.0
 40
0.0572202903954822
100
AcDbArc
 50
137.7049489972
 51
170.0613844458
  0
ARC
  5
2D8
330
1F
100
AcDbEntity
  8
0
  6
Continuous
 62
     7
 48
4.0
370
    15
100
AcDbCircle
 10
27.6253535235
 20
16.2891295356
 30
0.0
 40
0.0601058365645273
100
AcDbArc
 50
250.7111003312
 51
281.2247061313
  0
LINE
  5
2D9
330
1F
100
AcDbEntity
  8
0
  6
Continuous
 62
     7
 48
2.0
370
    15
100
AcDbLine
 10
27.6536882262
 20
16.2353344187
 30
0.0
 11
27.6555221949
 21
16.236457516
 31
0.0
  0
LWPOLYLINE
  5
2DA
330
1F
100
AcDbEntity
  8
0
  6
Continuous
 62
     7
 48
2.0
370
    15
100
AcDbPolyline
 90
       17
 70
   128
 43
0.0
 10
27.6694007871
 20
16.244405087
 10
27.6761749112
 20
16.2492793217
 10
27.6862929204
 20
16.2620240274
 10
27.692714438
 20
16.2789798487
 10
27.6951392646
 20
16.2993539056
 10
27.6934540129
 20
16.3221935375
 10
27.6877373626
 20
16.3464308558
 10
27.6782568106
 20
16.3709324424
 10
27.6654554659
 20
16.3945527405
 10
27.649931999
 20
16.4161872266
 10
27.6324122952
 20
16.4348242986
 10
27.613715508
 20
16.4495925299
 10
27.5947158939
 20
16.4598013586
 10
27.5763018833
 20
16.4649734131
 10
27.5593344581
 20
16.4648668931
 10
27.5446069831
 20
16.4594867681
 10
27.5446069831
 20
16.4594867681
  0
LINE
  5
2DB
330
1F
100
AcDbEntity
  8
0
  6
Continuous
 62
     7
 48
2.0
370
    15
100
AcDbLine
 10
27.5656779183
 20
16.3140515183
 30
0.0
 11
27.5537206859
 21
16.3208504914
 31
0.0
  0
LINE
  5
2DC
330
1F
100
AcDbEntity
  8
0
  6
Continuous
 62
     7
 48
2.0
370
    15
100
AcDbLine
 10
27.5537206859
 20
16.3208504914
 30
0.0
 11
27.5536276255
 21
16.3352027546
 31
0.0
  0
LINE
  5
2DD
330
1F
100
AcDbEntity
  8
0
  6
Continuous
 62
     7
 48
2.0
370
    15
100
AcDbLine
 10
27.5537206859
 20
16.3208504914
 30
0.0
 11
27.5288942839
 21
16.3065185146
 31
0.0
  0
LINE
  5
2DE
330
1F
100
AcDbEntity
  8
0
  6
Continuous
 62
     7
 48
2.0
370
    15
100
AcDbLine
 10
27.5660464267
 20
16.2956882469
 30
0.0
 11
27.5556912724
 21
16.2897103435
 31
0.0
  0
LINE
  5
2DF
330
1F
100
AcDbEntity
  8
0
  6
Continuous
 62
     7
 48
2.0
370
    15
100
AcDbLine
 10
27.5273114264
 20
16.33837669
 30
0.0
 11
27.5377119356
 21
16.3443807761
 31
0.0
  0
LINE
  5
2E0
330
1F
100
AcDbEntity
  8
0
  6
Continuous
 62
     7
 48
2.0
370
    15
100
AcDbLine
 10
27.6187993333
 20
16.2405181009
 30
0.0
 11
27.6090359356
 21
16.2572605617
 31
0.0
  0
LINE
  5
2E1
330
1F
100
AcDbEntity
  8
0
  6
Continuous
 62
     7
 48
2.0
370
    15
100
AcDbLine
 10
27.5253128389
 20
16.400830612
 30
0.0
 11
27.5157076302
 21
16.4173017935
 31
0.0
  0
LINE
  5
2E2
330
1F
100
AcDbEntity
  8
0
  6
Continuous
 62
     7
 48
2.0
370
    15
100
AcDbLine
 10
18.4521687447
 20
12.8006434888
 30
0.0
 11
15.5141686848
 21
12.8006434888
 31
0.0
  0
LINE
  5
2E3
330
1F
100
AcDbEntity
  8
0
  6
Continuous
 62
     7
 48
2.0
370
    15
100
AcDbLine
 10
15.5141686848
 20
13.2236434556
 30
0.0
 11
15.5141686848
 21
12.8006434888
 31
0.0
  0
LINE
  5
2E4
330
1F
100
AcDbEntity
  8
0
  6
Continuous
 62
     7
 48
2.0
370
    15
100
AcDbLine
 10
18.4521687447
 20
13.2236434556
 30
0.0
 11
18.4521687447
 21
12.8006434888
 31
0.0
  0
LINE
  5
2E5
330
1F
100
AcDbEntity
  8
0
  6
Continuous
 62
     7
 48
2.0
370
    15
100
AcDbLine
 10
18.4521687447
 20
13.300643446
 30
0.0
 11
18.4521687447
 21
13.2236434556
 31
0.0
  0
LINE
  5
2E6
330
1F
100
AcDbEntity
  8
0
  6
Continuous
 62
     7
 48
2.0
370
    15
100
AcDbLine
 10
15.5141686848
 20
13.300643446
 30
0.0
 11
18.4521687447
 21
13.300643446
 31
0.0
  0
LINE
  5
2E7
330
1F
100
AcDbEntity
  8
0
  6
Continuous
 62
     7
 48
2.0
370
    15
100
AcDbLine
 10
15.5141686848
 20
13.300643446
 30
0.0
 11
15.5141686848
 21
13.2236434556
 31
0.0
  0
LINE
  5
2E8
330
1F
100
AcDbEntity
  8
0
  6
Continuous
 62
     7
 48
2.0
370
    15
100
AcDbLine
 10
18.4521687447
 20
13.2386434689
 30
0.0
 11
18.4831687333
 21
13.2386434689
 31
0.0
  0
LINE
  5
2E9
330
1F
100
AcDbEntity
  8
0
  6
Continuous
 62
     7
 48
2.0
370
    15
100
AcDbLine
 10
18.4521687447
 20
13.300643446
 30
0.0
 11
18.4831687333
 21
13.300643446
 31
0.0
  0
LINE
  5
2EA
330
1F
100
AcDbEntity
  8
0
  6
Continuous
 62
     7
 48
2.0
370
    15
100
AcDbLine
 10
15.5141686848
 20
13.2386434689
 30
0.0
 11
15.4831686962
 21
13.2386434689
 31
0.0
  0
LINE
  5
2EB
330
1F
100
AcDbEntity
  8
0
  6
Continuous
 62
     7
 48
2.0
370
    15
100
AcDbLine
 10
15.5141686848
 20
13.300643446
 30
0.0
 11
15.4831686962
 21
13.300643446
 31
0.0
  0
LINE
  5
2EC
330
1F
100
AcDbEntity
  8
0
  6
Continuous
 62
     7
 48
2.0
370
    15
100
AcDbLine
 10
15.4831686962
 20
12.8626434659
 30
0.0
 11
15.5141686848
 21
12.8626434659
 31
0.0
  0
LINE
  5
2ED
330
1F
100
AcDbEntity
  8
0
  6
Continuous
 62
     7
 48
2.0
370
    15
100
AcDbLine
 10
18.4521687447
 20
12.8626434659
 30
0.0
 11
18.4831687333
 21
12.8626434659
 31
0.0
  0
LINE
  5
2EE
330
1F
100
AcDbEntity
  8
0
  6
Continuous
 62
     7
 48
2.0
370
    15
100
AcDbLine
 10
18.4521687447
 20
7.3776433624
 30
0.0
 11
18.4521687447
 21
7.8006433292
 31
0.0
  0
LINE
  5
2EF
330
1F
100
AcDbEntity
  8
0
  6
Continuous
 62
     7
 48
2.0
370
    15
100
AcDbLine
 10
15.5141686848
 20
7.3776433624
 30
0.0
 11
15.5141686848
 21
7.8006433292
 31
0.0
  0
LINE
  5
2F0
330
1F
100
AcDbEntity
  8
0
  6
Continuous
 62
     7
 48
2.0
370
    15
100
AcDbLine
 10
15.5141686848
 20
7.8006433292
 30
0.0
 11
18.4521687447
 21
7.8006433292
 31
0.0
  0
LINE
  5
2F1
330
1F
100
AcDbEntity
  8
0
  6
Continuous
 62
     7
 48
2.0
370
    15
100
AcDbLine
 10
15.5141686848
 20
7.3006433719
 30
0.0
 11
15.5141686848
 21
7.3776433624
 31
0.0
  0
LINE
  5
2F2
330
1F
100
AcDbEntity
  8
0
  6
Continuous
 62
     7
 48
2.0
370
    15
100
AcDbLine
 10
18.4521687447
 20
7.3006433719
 30
0.0
 11
18.4521687447
 21
7.3776433624
 31
0.0
  0
LINE
  5
2F3
330
1F
100
AcDbEntity
  8
0
  6
Continuous
 62
     7
 48
2.0
370
    15
100
AcDbLine
 10
18.4521687447
 20
7.3006433719
 30
0.0
 11
15.5141686848
 21
7.3006433719
 31
0.0
  0
LINE
  5
2F4
330
1F
100
AcDbEntity
  8
0
  6
Continuous
 62
     7
 48
2.0
370
    15
100
AcDbLine
 10
15.5141686848
 20
7.362643349
 30
0.0
 11
15.4831686962
 21
7.362643349
 31
0.0
  0
LINE
  5
2F5
330
1F
100
AcDbEntity
  8
0
  6
Continuous
 62
     7
 48
2.0
370
    15
100
AcDbLine
 10
15.5141686848
 20
7.3006433719
 30
0.0
 11
15.4831686962
 21
7.3006433719
 31
0.0
  0
LINE
  5
2F6
330
1F
100
AcDbEntity
  8
0
  6
Continuous
 62
     7
 48
2.0
370
    15
100
AcDbLine
 10
18.4521687447
 20
7.362643349
 30
0.0
 11
18.4831687333
 21
7.362643349
 31
0.0
  0
LINE
  5
2F7
330
1F
100
AcDbEntity
  8
0
  6
Continuous
 62
     7
 48
2.0
370
    15
100
AcDbLine
 10
18.4521687447
 20
7.3006433719
 30
0.0
 11
18.4831687333
 21
7.3006433719
 31
0.0
  0
LINE
  5
2F8
330
1F
100
AcDbEntity
  8
0
  6
Continuous
 62
     7
 48
2.0
370
    15
100
AcDbLine
 10
18.4831687333
 20
7.7386433521
 30
0.0
 11
18.4521687447
 21
7.7386433521
 31
0.0
  0
LINE
  5
2F9
330
1F
100
AcDbEntity
  8
0
  6
Continuous
 62
     7
 48
2.0
370
    15
100
AcDbLine
 10
15.5141686848
 20
7.7386433521
 30
0.0
 11
15.4831686962
 21
7.7386433521
 31
0.0
  0
LINE
  5
2FA
330
1F
100
AcDbEntity
  8
0
  6
Continuous
 62
     7
 48
2.0
370
    15
100
AcDbLine
 10
15.4831686962
 20
13.300643446
 30
0.0
 11
15.4831686962
 21
7.3006433719
 31
0.0
  0
LINE
  5
2FB
330
1F
100
AcDbEntity
  8
0
  6
Continuous
 62
     7
 48
2.0
370
    15
100
AcDbLine
 10
15.0601687294
 20
7.3006433719
 30
0.0
 11
15.4831686962
 21
7.3006433719
 31
0.0
  0
CIRCLE
  5
2FC
330
1F
100
AcDbEntity
  8
0
  6
Continuous
 62
     7
 48
4.0
370
    15
100
AcDbCircle
 10
15.2331687147
 20
10.300643409
 30
0.0
 40
0.0849999999999973
  0
LINE
  5
2FD
330
1F
100
AcDbEntity
  8
0
  6
Continuous
 62
     7
 48
2.0
370
    15
100
AcDbLine
 10
15.0601687294
 20
13.300643446
 30
0.0
 11
15.4831686962
 21
13.300643446
 31
0.0
  0
LINE
  5
2FE
330
1F
100
AcDbEntity
  8
0
  6
Continuous
 62
     7
 48
2.0
370
    15
100
AcDbLine
 10
14.9831687389
 20
13.300643446
 30
0.0
 11
14.9831687389
 21
7.3006433719
 31
0.0
  0
LINE
  5
2FF
330
1F
100
AcDbEntity
  8
0
  6
Continuous
 62
     7
 48
2.0
370
    15
100
AcDbLine
 10
14.9831687389
 20
13.300643446
 30
0.0
 11
15.0601687294
 21
13.300643446
 31
0.0
  0
LINE
  5
300
330
1F
100
AcDbEntity
  8
0
  6
Continuous
 62
     7
 48
2.0
370
    15
100
AcDbLine
 10
14.9831687389
 20
7.3006433719
 30
0.0
 11
15.0601687294
 21
7.3006433719
 31
0.0
  0
LINE
  5
301
330
1F
100
AcDbEntity
  8
0
  6
Continuous
 62
     7
 48
2.0
370
    15
100
AcDbLine
 10
18.9831686906
 20
13.300643446
 30
0.0
 11
18.9831686906
 21
7.3006433719
 31
0.0
  0
LINE
  5
302
330
1F
100
AcDbEntity
  8
0
  6
Continuous
 62
     7
 48
2.0
370
    15
100
AcDbLine
 10
18.9061687001
 20
7.3006433719
 30
0.0
 11
18.9831686906
 21
7.3006433719
 31
0.0
  0
LINE
  5
303
330
1F
100
AcDbEntity
  8
0
  6
Continuous
 62
     7
 48
2.0
370
    15
100
AcDbLine
 10
18.9061687001
 20
13.300643446
 30
0.0
 11
18.9831686906
 21
13.300643446
 31
0.0
  0
LINE
  5
304
330
1F
100
AcDbEntity
  8
0
  6
Continuous
 62
     7
 48
2.0
370
    15
100
AcDbLine
 10
18.4831687333
 20
13.300643446
 30
0.0
 11
18.4831687333
 21
7.3006433719
 31
0.0
  0
CIRCLE
  5
305
330
1F
100
AcDbEntity
  8
0
  6
Continuous
 62
     7
 48
4.0
370
    15
100
AcDbCircle
 10
18.7331687147
 20
10.300643409
 30
0.0
 40
0.0850000000000009
  0
LINE
  5
306
330
1F
100
AcDbEntity
  8
0
  6
Continuous
 62
     7
 48
2.0
370
    15
100
AcDbLine
 10
18.4831687333
 20
7.3006433719
 30
0.0
 11
18.9061687001
 21
7.3006433719
 31
0.0
  0
LINE
  5
307
330
1F
100
AcDbEntity
  8
0
  6
Continuous
 62
     7
 48
2.0
370
    15
100
AcDbLine
 10
18.4831687333
 20
13.300643446
 30
0.0
 11
18.9061687001
 21
13.300643446
 31
0.0
  0
CIRCLE
  5
308
330
1F
100
AcDbEntity
  8
0
  6
Continuous
 62
     7
 48
4.0
370
    15
100
AcDbCircle
 10
16.9831687147
 20
11.300643409
 30
0.0
 40
0.0849999999999973
  0
CIRCLE
  5
309
330
1F
100
AcDbEntity
  8
0
  6
Continuous
 62
     7
 48
4.0
370
    15
100
AcDbCircle
 10
16.9831687147
 20
11.300643409
 30
0.0
 40
0.6416128499307305
  0
ARC
  5
30A
330
1F
100
AcDbEntity
  8
0
  6
Continuous
 62
     7
 48
4.0
370
    15
100
AcDbCircle
 10
18.4831687147
 20
11.800643409
 30
0.0
 40
0.1405000000000012
100
AcDbArc
 50
90.0
 51
180.0
  0
ARC
  5
30B
330
1F
100
AcDbEntity
  8
0
  6
Continuous
 62
     7
 48
4.0
370
    15
100
AcDbCircle
 10
18.4831687147
 20
11.800643409
 30
0.0
 40
0.1404999999999994
100
AcDbArc
 50
180.0
 51
270.0
  0
ARC
  5
30C
330
1F
100
AcDbEntity
  8
0
  6
Continuous
 62
     7
 48
4.0
370
    15
100
AcDbCircle
 10
15.4831687147
 20
8.800643409
 30
0.0
 40
0.1405000000000012
100
AcDbArc
 50
270.0
 51
90.0
  0
ARC
  5
30D
330
1F
100
AcDbEntity
  8
0
  6
Continuous
 62
     7
 48
4.0
370
    15
100
AcDbCircle
 10
18.4831687147
 20
8.800643409
 30
0.0
 40
0.1405000000000012
100
AcDbArc
 50
90.0
 51
270.0
  0
ARC
  5
30E
330
1F
100
AcDbEntity
  8
0
  6
Continuous
 62
     7
 48
4.0
370
    15
100
AcDbCircle
 10
15.4831687147
 20
11.800643409
 30
0.0
 40
0.1404999999999994
100
AcDbArc
 50
270.0
 51
0.0
  0
ARC
  5
30F
330
1F
100
AcDbEntity
  8
0
  6
Continuous
 62
     7
 48
4.0
370
    15
100
AcDbCircle
 10
15.4831687147
 20
11.800643409
 30
0.0
 40
0.1405000000000012
100
AcDbArc
 50
0.0
 51
90.0
  0
LINE
  5
310
330
1F
100
AcDbEntity
  8
0
  6
HIDDEN
 62
     7
 48
2.0
370
     0
100
AcDbLine
 10
15.5141686848
 20
13.2386434689
 30
0.0
 11
18.4521687447
 21
13.2386434689
 31
0.0
  0
LINE
  5
311
330
1F
100
AcDbEntity
  8
0
  6
HIDDEN
 62
     7
 48
2.0
370
     0
100
AcDbLine
 10
18.4831687333
 20
13.2386434689
 30
0.0
 11
18.844168723
 21
13.2386434689
 31
0.0
  0
LINE
  5
312
330
1F
100
AcDbEntity
  8
0
  6
HIDDEN
 62
     7
 48
2.0
370
     0
100
AcDbLine
 10
15.4831686962
 20
13.2386434689
 30
0.0
 11
15.1221687065
 21
13.2386434689
 31
0.0
  0
ARC
  5
313
330
1F
100
AcDbEntity
  8
0
  6
HIDDEN
 62
     7
 48
4.0
370
     0
100
AcDbCircle
 10
18.8441687147
 20
13.223643409
 30
0.0
 40
0.0770000000000017
100
AcDbArc
 50
0.0
 51
90.0
  0
ARC
  5
314
330
1F
100
AcDbEntity
  8
0
  6
HIDDEN
 62
     7
 48
4.0
370
     0
100
AcDbCircle
 10
18.8441687147
 20
13.223643409
 30
0.0
 40
0.0150000000000023
100
AcDbArc
 50
0.0
 51
90.0
  0
LINE
  5
315
330
1F
100
AcDbEntity
  8
0
  6
HIDDEN
 62
     7
 48
2.0
370
     0
100
AcDbLine
 10
15.1071686931
 20
12.8626434659
 30
0.0
 11
15.1071686931
 21
13.2236434556
 31
0.0
  0
LINE
  5
316
330
1F
100
AcDbEntity
  8
0
  6
HIDDEN
 62
     7
 48
2.0
370
     0
100
AcDbLine
 10
15.045168716
 20
12.8626434659
 30
0.0
 11
15.1071686931
 21
12.8626434659
 31
0.0
  0
LINE
  5
317
330
1F
100
AcDbEntity
  8
0
  6
HIDDEN
 62
     7
 48
2.0
370
     0
100
AcDbLine
 10
18.9211687135
 20
12.8626434659
 30
0.0
 11
18.8591687364
 21
12.8626434659
 31
0.0
  0
LINE
  5
318
330
1F
100
AcDbEntity
  8
0
  6
HIDDEN
 62
     7
 48
2.0
370
     0
100
AcDbLine
 10
18.8591687364
 20
12.8626434659
 30
0.0
 11
18.8591687364
 21
13.2236434556
 31
0.0
  0
ARC
  5
319
330
1F
100
AcDbEntity
  8
0
  6
HIDDEN
 62
     7
 48
4.0
370
     0
100
AcDbCircle
 10
15.1221687147
 20
13.223643409
 30
0.0
 40
0.0150000000000023
100
AcDbArc
 50
90.0
 51
180.0
  0
ARC
  5
31A
330
1F
100
AcDbEntity
  8
0
  6
HIDDEN
 62
     7
 48
4.0
370
     0
100
AcDbCircle
 10
15.1221687147
 20
13.223643409
 30
0.0
 40
0.0770000000000017
100
AcDbArc
 50
90.0
 51
180.0
  0
LINE
  5
31B
330
1F
100
AcDbEntity
  8
0
  6
HIDDEN
 62
     7
 48
2.0
370
     0
100
AcDbLine
 10
18.844168723
 20
13.2236434556
 30
0.0
 11
18.844168723
 21
13.2386434689
 31
0.0
  0
LINE
  5
31C
330
1F
100
AcDbEntity
  8
0
  6
HIDDEN
 62
     7
 48
2.0
370
     0
100
AcDbLine
 10
15.1221687065
 20
13.2236434556
 30
0.0
 11
15.1221687065
 21
13.2386434689
 31
0.0
  0
LINE
  5
31D
330
1F
100
AcDbEntity
  8
0
  6
HIDDEN
 62
     7
 48
2.0
370
     0
100
AcDbLine
 10
15.1221687065
 20
13.2386434689
 30
0.0
 11
15.1221687065
 21
13.300643446
 31
0.0
  0
LINE
  5
31E
330
1F
100
AcDbEntity
  8
0
  6
HIDDEN
 62
     7
 48
2.0
370
     0
100
AcDbLine
 10
18.844168723
 20
13.2386434689
 30
0.0
 11
18.844168723
 21
13.300643446
 31
0.0
  0
LINE
  5
31F
330
1F
100
AcDbEntity
  8
0
  6
HIDDEN
 62
     7
 48
2.0
370
     0
100
AcDbLine
 10
18.844168723
 20
12.8626434659
 30
0.0
 11
18.844168723
 21
13.2236434556
 31
0.0
  0
LINE
  5
320
330
1F
100
AcDbEntity
  8
0
  6
HIDDEN
 62
     7
 48
2.0
370
     0
100
AcDbLine
 10
15.1221687065
 20
12.8626434659
 30
0.0
 11
15.4831686962
 21
12.8626434659
 31
0.0
  0
LINE
  5
321
330
1F
100
AcDbEntity
  8
0
  6
HIDDEN
 62
     7
 48
2.0
370
     0
100
AcDbLine
 10
15.5141686848
 20
12.8626434659
 30
0.0
 11
18.4521687447
 21
12.8626434659
 31
0.0
  0
LINE
  5
322
330
1F
100
AcDbEntity
  8
0
  6
HIDDEN
 62
     7
 48
2.0
370
     0
100
AcDbLine
 10
18.4831687333
 20
12.8626434659
 30
0.0
 11
18.844168723
 21
12.8626434659
 31
0.0
  0
LINE
  5
323
330
1F
100
AcDbEntity
  8
0
  6
HIDDEN
 62
     7
 48
2.0
370
     0
100
AcDbLine
 10
15.1221687065
 20
12.8626434659
 30
0.0
 11
15.1221687065
 21
13.2236434556
 31
0.0
  0
LINE
  5
324
330
1F
100
AcDbEntity
  8
0
  6
HIDDEN
 62
     7
 48
2.0
370
     0
100
AcDbLine
 10
18.4521687447
 20
7.362643349
 30
0.0
 11
15.5141686848
 21
7.362643349
 31
0.0
  0
LINE
  5
325
330
1F
100
AcDbEntity
  8
0
  6
HIDDEN
 62
     7
 48
2.0
370
     0
100
AcDbLine
 10
15.4831686962
 20
7.362643349
 30
0.0
 11
15.1221687065
 21
7.362643349
 31
0.0
  0
LINE
  5
326
330
1F
100
AcDbEntity
  8
0
  6
HIDDEN
 62
     7
 48
2.0
370
     0
100
AcDbLine
 10
18.4831687333
 20
7.362643349
 30
0.0
 11
18.844168723
 21
7.362643349
 31
0.0
  0
LINE
  5
327
330
1F
100
AcDbEntity
  8
0
  6
HIDDEN
 62
     7
 48
2.0
370
     0
100
AcDbLine
 10
15.1071686931
 20
7.7386433521
 30
0.0
 11
15.1071686931
 21
7.3776433624
 31
0.0
  0
LINE
  5
328
330
1F
100
AcDbEntity
  8
0
  6
HIDDEN
 62
     7
 48
2.0
370
     0
100
AcDbLine
 10
15.045168716
 20
7.7386433521
 30
0.0
 11
15.1071686931
 21
7.7386433521
 31
0.0
  0
LINE
  5
329
330
1F
100
AcDbEntity
  8
0
  6
HIDDEN
 62
     7
 48
2.0
370
     0
100
AcDbLine
 10
18.9211687135
 20
7.7386433521
 30
0.0
 11
18.8591687364
 21
7.7386433521
 31
0.0
  0
LINE
  5
32A
330
1F
100
AcDbEntity
  8
0
  6
HIDDEN
 62
     7
 48
2.0
370
     0
100
AcDbLine
 10
18.8591687364
 20
7.7386433521
 30
0.0
 11
18.8591687364
 21
7.3776433624
 31
0.0
  0
ARC
  5
32B
330
1F
100
AcDbEntity
  8
0
  6
HIDDEN
 62
     7
 48
4.0
370
     0
100
AcDbCircle
 10
15.1221687147
 20
7.377643409
 30
0.0
 40
0.0150000000000006
100
AcDbArc
 50
180.0
 51
270.0
  0
ARC
  5
32C
330
1F
100
AcDbEntity
  8
0
  6
HIDDEN
 62
     7
 48
4.0
370
     0
100
AcDbCircle
 10
15.1221687147
 20
7.377643409
 30
0.0
 40
0.0770000000000008
100
AcDbArc
 50
180.0
 51
270.0
  0
ARC
  5
32D
330
1F
100
AcDbEntity
  8
0
  6
HIDDEN
 62
     7
 48
4.0
370
     0
100
AcDbCircle
 10
18.8441687147
 20
7.377643409
 30
0.0
 40
0.0150000000000006
100
AcDbArc
 50
270.0
 51
0.0
  0
ARC
  5
32E
330
1F
100
AcDbEntity
  8
0
  6
HIDDEN
 62
     7
 48
4.0
370
     0
100
AcDbCircle
 10
18.8441687147
 20
7.377643409
 30
0.0
 40
0.0770000000000017
100
AcDbArc
 50
270.0
 51
0.0
  0
LINE
  5
32F
330
1F
100
AcDbEntity
  8
0
  6
HIDDEN
 62
     7
 48
2.0
370
     0
100
AcDbLine
 10
15.1221687065
 20
7.3776433624
 30
0.0
 11
15.1221687065
 21
7.362643349
 31
0.0
  0
LINE
  5
330
330
1F
100
AcDbEntity
  8
0
  6
HIDDEN
 62
     7
 48
2.0
370
     0
100
AcDbLine
 10
18.844168723
 20
7.3776433624
 30
0.0
 11
18.844168723
 21
7.362643349
 31
0.0
  0
LINE
  5
331
330
1F
100
AcDbEntity
  8
0
  6
HIDDEN
 62
     7
 48
2.0
370
     0
100
AcDbLine
 10
18.844168723
 20
7.362643349
 30
0.0
 11
18.844168723
 21
7.3006433719
 31
0.0
  0
LINE
  5
332
330
1F
100
AcDbEntity
  8
0
  6
HIDDEN
 62
     7
 48
2.0
370
     0
100
AcDbLine
 10
15.1221687065
 20
7.362643349
 30
0.0
 11
15.1221687065
 21
7.3006433719
 31
0.0
  0
LINE
  5
333
330
1F
100
AcDbEntity
  8
0
  6
HIDDEN
 62
     7
 48
2.0
370
     0
100
AcDbLine
 10
15.1221687065
 20
7.7386433521
 30
0.0
 11
15.1221687065
 21
7.3776433624
 31
0.0
  0
LINE
  5
334
330
1F
100
AcDbEntity
  8
0
  6
HIDDEN
 62
     7
 48
2.0
370
     0
100
AcDbLine
 10
18.844168723
 20
7.7386433521
 30
0.0
 11
18.844168723
 21
7.3776433624
 31
0.0
  0
LINE
  5
335
330
1F
100
AcDbEntity
  8
0
  6
HIDDEN
 62
     7
 48
2.0
370
     0
100
AcDbLine
 10
18.844168723
 20
7.7386433521
 30
0.0
 11
18.4831687333
 21
7.7386433521
 31
0.0
  0
LINE
  5
336
330
1F
100
AcDbEntity
  8
0
  6
HIDDEN
 62
     7
 48
2.0
370
     0
100
AcDbLine
 10
18.4521687447
 20
7.7386433521
 30
0.0
 11
15.5141686848
 21
7.7386433521
 31
0.0
  0
LINE
  5
337
330
1F
100
AcDbEntity
  8
0
  6
HIDDEN
 62
     7
 48
2.0
370
     0
100
AcDbLine
 10
15.4831686962
 20
7.7386433521
 30
0.0
 11
15.1221687065
 21
7.7386433521
 31
0.0
  0
LINE
  5
338
330
1F
100
AcDbEntity
  8
0
  6
HIDDEN
 62
     7
 48
2.0
370
     0
100
AcDbLine
 10
15.045168716
 20
13.300643446
 30
0.0
 11
15.045168716
 21
7.3006433719
 31
0.0
  0
LINE
  5
339
330
1F
100
AcDbEntity
  8
0
  6
HIDDEN
 62
     7
 48
2.0
370
     0
100
AcDbLine
 10
18.9211687135
 20
13.300643446
 30
0.0
 11
18.9211687135
 21
7.3006433719
 31
0.0
  0
CIRCLE
  5
33A
330
1F
100
AcDbEntity
  8
0
  6
HIDDEN
 62
     7
 48
4.0
370
     0
100
AcDbCircle
 10
16.9831687147
 20
11.300643409
 30
0.0
 40
0.1469999999999985
  0
ARC
  5
33B
330
1F
100
AcDbEntity
  8
0
  6
HIDDEN
 62
     7
 48
4.0
370
     0
100
AcDbCircle
 10
18.4831687147
 20
11.800643409
 30
0.0
 40
0.1405000000000012
100
AcDbArc
 50
270.0
 51
90.0
  0
ARC
  5
33C
330
1F
100
AcDbEntity
  8
0
  6
HIDDEN
 62
     7
 48
4.0
370
     0
100
AcDbCircle
 10
15.4831687147
 20
8.800643409
 30
0.0
 40
0.1405000000000012
100
AcDbArc
 50
90.0
 51
180.0
  0
ARC
  5
33D
330
1F
100
AcDbEntity
  8
0
  6
HIDDEN
 62
     7
 48
4.0
370
     0
100
AcDbCircle
 10
15.4831687147
 20
8.800643409
 30
0.0
 40
0.1404999999999994
100
AcDbArc
 50
180.0
 51
270.0
  0
ARC
  5
33E
330
1F
100
AcDbEntity
  8
0
  6
HIDDEN
 62
     7
 48
4.0
370
     0
100
AcDbCircle
 10
18.4831687147
 20
8.800643409
 30
0.0
 40
0.1404999999999994
100
AcDbArc
 50
270.0
 51
0.0
  0
ARC
  5
33F
330
1F
100
AcDbEntity
  8
0
  6
HIDDEN
 62
     7
 48
4.0
370
     0
100
AcDbCircle
 10
18.4831687147
 20
8.800643409
 30
0.0
 40
0.1405000000000012
100
AcDbArc
 50
0.0
 51
90.0
  0
ARC
  5
340
330
1F
100
AcDbEntity
  8
0
  6
HIDDEN
 62
     7
 48
4.0
370
     0
100
AcDbCircle
 10
15.4831687147
 20
11.800643409
 30
0.0
 40
0.1405000000000012
100
AcDbArc
 50
90.0
 51
270.0
  0
CIRCLE
  5
341
330
1F
100
AcDbEntity
  8
0
  6
HIDDEN
 62
     7
 48
4.0
370
     0
100
AcDbCircle
 10
16.9831687147
 20
11.300643409
 30
0.0
 40
0.6249999999999982
  0
DIMENSION
  5
342
330
1F
100
AcDbEntity
  8
0
  6
Continuous
 62
     7
 48
2.0
370
     0
100
AcDbDimension
  2
*D13
 10
18.9831687147
 20
12.2781466502
 30
0.0
 11
20.2567546128
 21
12.2781466502
 31
0.0
 70
   160
 71
     2
 42
-1.0
  3
SLDDIMSTYLE3
100
AcDbAlignedDimension
 13
18.4831687147
 23
13.300643409
 33
0.0
 14
18.9831687147
 24
13.300643409
 34
0.0
100
AcDbRotatedDimension
  0
INSERT
  5
358
102
{ACAD_REACTORS
330
359
102
}
330
1F
100
AcDbEntity
  8
0
  6
Continuous
 62
     7
 48
2.0
370
     0
100
AcDbBlockReference
  2
SW_NOTE_5
 10
18.6494065702
 20
14.3684359363
 30
0.0
  0
LEADER
  5
359
330
1F
100
AcDbEntity
  8
0
  6
Continuous
 62
     7
 48
2.0
370
     0
100
AcDbLeader
  3
SLDDIMSTYLE1
 73
     2
 76
     3
 10
17.1914021749
 20
11.9075255023
 30
0.0
 10
18.1494065702
 20
14.3684359363
 30
0.0
 10
18.6494065702
 20
14.3684359363
 30
0.0
340
358
  0
MTEXT
  5
35A
330
1F
100
AcDbEntity
  8
0
  6
Continuous
 62
     7
 48
2.0
370
     0
100
AcDbMText
 10
15.5806456188
 20
6.7285466444
 30
0.0
 40
0.25
 41
0.0
 71
     1
 72
     1
  1
\LCOVER REMOVED
  7
SLDTEXTSTYLE0
 73
     1
 44
1.0
  0
ENDSEC
  0
SECTION
  2
OBJECTS
  0
DICTIONARY
  5
C
330
0
100
AcDbDictionary
281
     1
  3
ACAD_GROUP
350
D
  3
ACAD_LAYOUT
350
1A
  3
ACAD_MATERIAL
350
3B
  3
ACAD_MLEADERSTYLE
350
35D
  3
ACAD_MLINESTYLE
350
17
  3
ACAD_PLOTSETTINGS
350
19
  3
ACAD_PLOTSTYLENAME
350
E
  3
ACAD_SCALELIST
350
58
  3
ACAD_VISUALSTYLE
350
2A
  3
AcDbVariableDictionary
350
35B
  0
DICTIONARY
  5
D
102
{ACAD_REACTORS
330
C
102
}
330
C
100
AcDbDictionary
281
     1
  0
DICTIONARY
  5
1A
102
{ACAD_REACTORS
330
C
102
}
330
C
100
AcDbDictionary
281
     1
  3
Layout1
350
1E
  3
Layout2
350
26
  3
Model
350
22
  0
DICTIONARY
  5
3B
102
{ACAD_REACTORS
330
C
102
}
330
C
100
AcDbDictionary
281
     1
  3
ByBlock
350
3D
  3
ByLayer
350
3C
  3
Global
350
3E
  0
DICTIONARY
  5
35D
102
{ACAD_REACTORS
330
C
102
}
330
C
100
AcDbDictionary
281
     1
  0
DICTIONARY
  5
17
102
{ACAD_REACTORS
330
C
102
}
330
C
100
AcDbDictionary
281
     1
  3
Standard
350
18
  0
DICTIONARY
  5
19
102
{ACAD_REACTORS
330
C
102
}
330
C
100
AcDbDictionary
281
     1
  0
ACDBDICTIONARYWDFLT
  5
E
102
{ACAD_REACTORS
330
C
102
}
330
C
100
AcDbDictionary
281
     1
  3
Normal
350
F
100
AcDbDictionaryWithDefault
340
F
  0
DICTIONARY
  5
58
102
{ACAD_REACTORS
330
C
102
}
330
C
100
AcDbDictionary
281
     1
  3
A0
350
59
  3
A1
350
5A
  3
A2
350
5B
  3
A3
350
5C
  3
A4
350
5D
  3
A5
350
5E
  3
A6
350
5F
  3
A7
350
60
  3
A8
350
61
  3
A9
350
62
  3
B0
350
63
  3
B1
350
64
  3
B2
350
65
  3
B3
350
66
  3
B4
350
67
  3
B5
350
68
  3
B6
350
69
  3
B7
350
6A
  3
B8
350
6B
  3
B9
350
6C
  3
C0
350
6D
  3
C1
350
6E
  3
C2
350
6F
  3
C3
350
70
  3
C4
350
71
  3
C5
350
72
  3
C6
350
73
  3
C7
350
74
  3
C8
350
75
  3
C9
350
76
  3
D0
350
77
  3
D1
350
78
  3
D2
350
79
  0
DICTIONARY
  5
2A
102
{ACAD_REACTORS
330
C
102
}
330
C
100
AcDbDictionary
281
     1
  3
2dWireframe
350
2F
  3
3D Hidden
350
31
  3
3dWireframe
350
30
  3
Basic
350
32
  3
Brighten
350
36
  3
ColorChange
350
3A
  3
Conceptual
350
34
  3
Dim
350
35
  3
Facepattern
350
39
  3
Flat
350
2B
  3
FlatWithEdges
350
2C
  3
Gouraud
350
2D
  3
GouraudWithEdges
350
2E
  3
Linepattern
350
38
  3
Realistic
350
33
  3
Thicken
350
37
  0
DICTIONARY
  5
35B
102
{ACAD_REACTORS
330
C
102
}
330
C
100
AcDbDictionary
281
     1
  3
CANNOSCALE
350
35E
  3
DIMASSOC
350
35F
  3
HIDETEXT
350
360
  0
LAYOUT
  5
1E
102
{ACAD_REACTORS
330
1A
102
}
330
1A
100
AcDbPlotSettings
  1

  2
none_device
  4

  6

 40
0.0
 41
0.0
 42
0.0
 43
0.0
 44
0.0
 45
0.0
 46
0.0
 47
0.0
 48
0.0
 49
0.0
140
0.0
141
0.0
142
1.0
143
1.0
 70
   688
 72
     0
 73
     0
 74
     5
  7

 75
    16
147
1.0
148
0.0
149
0.0
100
AcDbLayout
  1
Layout1
 70
     1
 71
     1
 10
0.0
 20
0.0
 11
12.0
 21
9.0
 12
0.0
 22
0.0
 32
0.0
 14
1.0000000000E+20
 24
1.0000000000E+20
 34
1.0000000000E+20
 15
-1.0000000000E+20
 25
-1.0000000000E+20
 35
-1.0000000000E+20
146
0.0
 13
0.0
 23
0.0
 33
0.0
 16
1.0
 26
0.0
 36
0.0
 17
0.0
 27
1.0
 37
0.0
 76
     0
330
1B
  0
LAYOUT
  5
26
102
{ACAD_REACTORS
330
1A
102
}
330
1A
100
AcDbPlotSettings
  1

  2
none_device
  4

  6

 40
0.0
 41
0.0
 42
0.0
 43
0.0
 44
0.0
 45
0.0
 46
0.0
 47
0.0
 48
0.0
 49
0.0
140
0.0
141
0.0
142
1.0
143
1.0
 70
   688
 72
     0
 73
     0
 74
     5
  7

 75
    16
147
1.0
148
0.0
149
0.0
100
AcDbLayout
  1
Layout2
 70
     1
 71
     2
 10
0.0
 20
0.0
 11
0.0
 21
0.0
 12
0.0
 22
0.0
 32
0.0
 14
0.0
 24
0.0
 34
0.0
 15
0.0
 25
0.0
 35
0.0
146
0.0
 13
0.0
 23
0.0
 33
0.0
 16
1.0
 26
0.0
 36
0.0
 17
0.0
 27
1.0
 37
0.0
 76
     0
330
23
  0
LAYOUT
  5
22
102
{ACAD_REACTORS
330
1A
102
}
330
1A
100
AcDbPlotSettings
  1

  2
none_device
  4

  6

 40
0.0
 41
0.0
 42
0.0
 43
0.0
 44
0.0
 45
0.0
 46
0.0
 47
0.0
 48
0.0
 49
0.0
140
0.0
141
0.0
142
1.0
143
1.0
 70
  1712
 72
     0
 73
     0
 74
     0
  7

 75
     0
147
1.0
148
0.0
149
0.0
100
AcDbLayout
  1
Model
 70
     1
 71
     0
 10
0.0
 20
0.0
 11
34.0
 21
22.0
 12
0.0
 22
0.0
 32
0.0
 14
0.0
 24
0.0
 34
0.0
 15
34.0
 25
22.0
 35
0.0
146
0.0
 13
0.0
 23
0.0
 33
0.0
 16
1.0
 26
0.0
 36
0.0
 17
0.0
 27
1.0
 37
0.0
 76
     0
330
1F
331
29
  0
MATERIAL
  5
3D
102
{ACAD_REACTORS
330
3B
102
}
102
{ACAD_XDICTIONARY
360
383
102
}
330
3B
100
AcDbMaterial
  1
ByBlock
  0
MATERIAL
  5
3C
102
{ACAD_REACTORS
330
3B
102
}
102
{ACAD_XDICTIONARY
360
381
102
}
330
3B
100
AcDbMaterial
  1
ByLayer
  0
MATERIAL
  5
3E
102
{ACAD_REACTORS
330
3B
102
}
102
{ACAD_XDICTIONARY
360
385
102
}
330
3B
100
AcDbMaterial
  1
Global
  0
MLINESTYLE
  5
18
102
{ACAD_REACTORS
330
17
102
}
330
17
100
AcDbMlineStyle
  2
Standard
 70
     0
  3

 62
   256
 51
90.0
 52
90.0
 71
     2
 49
0.5
 62
   256
  6
BYLAYER
 49
-0.5
 62
   256
  6
BYLAYER
  0
ACDBPLACEHOLDER
  5
F
102
{ACAD_REACTORS
330
E
102
}
330
E
  0
SCALE
  5
59
102
{ACAD_REACTORS
330
58
102
}
330
58
100
AcDbScale
 70
     0
300
1:1
140
1.0
141
1.0
290
     1
  0
SCALE
  5
5A
102
{ACAD_REACTORS
330
58
102
}
330
58
100
AcDbScale
 70
     0
300
1:2
140
1.0
141
2.0
290
     0
  0
SCALE
  5
5B
102
{ACAD_REACTORS
330
58
102
}
330
58
100
AcDbScale
 70
     0
300
1:4
140
1.0
141
4.0
290
     0
  0
SCALE
  5
5C
102
{ACAD_REACTORS
330
58
102
}
330
58
100
AcDbScale
 70
     0
300
1:5
140
1.0
141
5.0
290
     0
  0
SCALE
  5
5D
102
{ACAD_REACTORS
330
58
102
}
330
58
100
AcDbScale
 70
     0
300
1:8
140
1.0
141
8.0
290
     0
  0
SCALE
  5
5E
102
{ACAD_REACTORS
330
58
102
}
330
58
100
AcDbScale
 70
     0
300
1:10
140
1.0
141
10.0
290
     0
  0
SCALE
  5
5F
102
{ACAD_REACTORS
330
58
102
}
330
58
100
AcDbScale
 70
     0
300
1:16
140
1.0
141
16.0
290
     0
  0
SCALE
  5
60
102
{ACAD_REACTORS
330
58
102
}
330
58
100
AcDbScale
 70
     0
300
1:20
140
1.0
141
20.0
290
     0
  0
SCALE
  5
61
102
{ACAD_REACTORS
330
58
102
}
330
58
100
AcDbScale
 70
     0
300
1:30
140
1.0
141
30.0
290
     0
  0
SCALE
  5
62
102
{ACAD_REACTORS
330
58
102
}
330
58
100
AcDbScale
 70
     0
300
1:40
140
1.0
141
40.0
290
     0
  0
SCALE
  5
63
102
{ACAD_REACTORS
330
58
102
}
330
58
100
AcDbScale
 70
     0
300
1:50
140
1.0
141
50.0
290
     0
  0
SCALE
  5
64
102
{ACAD_REACTORS
330
58
102
}
330
58
100
AcDbScale
 70
     0
300
1:100
140
1.0
141
100.0
290
     0
  0
SCALE
  5
65
102
{ACAD_REACTORS
330
58
102
}
330
58
100
AcDbScale
 70
     0
300
2:1
140
2.0
141
1.0
290
     0
  0
SCALE
  5
66
102
{ACAD_REACTORS
330
58
102
}
330
58
100
AcDbScale
 70
     0
300
4:1
140
4.0
141
1.0
290
     0
  0
SCALE
  5
67
102
{ACAD_REACTORS
330
58
102
}
330
58
100
AcDbScale
 70
     0
300
8:1
140
8.0
141
1.0
290
     0
  0
SCALE
  5
68
102
{ACAD_REACTORS
330
58
102
}
330
58
100
AcDbScale
 70
     0
300
10:1
140
10.0
141
1.0
290
     0
  0
SCALE
  5
69
102
{ACAD_REACTORS
330
58
102
}
330
58
100
AcDbScale
 70
     0
300
100:1
140
100.0
141
1.0
290
     0
  0
SCALE
  5
6A
102
{ACAD_REACTORS
330
58
102
}
330
58
100
AcDbScale
 70
     0
300
1/128" = 1'-0"
140
0.0078125
141
12.0
290
     0
  0
SCALE
  5
6B
102
{ACAD_REACTORS
330
58
102
}
330
58
100
AcDbScale
 70
     0
300
1/64" = 1'-0"
140
0.015625
141
12.0
290
     0
  0
SCALE
  5
6C
102
{ACAD_REACTORS
330
58
102
}
330
58
100
AcDbScale
 70
     0
300
1/32" = 1'-0"
140
0.03125
141
12.0
290
     0
  0
SCALE
  5
6D
102
{ACAD_REACTORS
330
58
102
}
330
58
100
AcDbScale
 70
     0
300
1/16" = 1'-0"
140
0.0625
141
12.0
290
     0
  0
SCALE
  5
6E
102
{ACAD_REACTORS
330
58
102
}
330
58
100
AcDbScale
 70
     0
300
3/32" = 1'-0"
140
0.09375
141
12.0
290
     0
  0
SCALE
  5
6F
102
{ACAD_REACTORS
330
58
102
}
330
58
100
AcDbScale
 70
     0
300
1/8" = 1'-0"
140
0.125
141
12.0
290
     0
  0
SCALE
  5
70
102
{ACAD_REACTORS
330
58
102
}
330
58
100
AcDbScale
 70
     0
300
3/16" = 1'-0"
140
0.1875
141
12.0
290
     0
  0
SCALE
  5
71
102
{ACAD_REACTORS
330
58
102
}
330
58
100
AcDbScale
 70
     0
300
1/4" = 1'-0"
140
0.25
141
12.0
290
     0
  0
SCALE
  5
72
102
{ACAD_REACTORS
330
58
102
}
330
58
100
AcDbScale
 70
     0
300
3/8" = 1'-0"
140
0.375
141
12.0
290
     0
  0
SCALE
  5
73
102
{ACAD_REACTORS
330
58
102
}
330
58
100
AcDbScale
 70
     0
300
1/2" = 1'-0"
140
0.5
141
12.0
290
     0
  0
SCALE
  5
74
102
{ACAD_REACTORS
330
58
102
}
330
58
100
AcDbScale
 70
     0
300
3/4" = 1'-0"
140
0.75
141
12.0
290
     0
  0
SCALE
  5
75
102
{ACAD_REACTORS
330
58
102
}
330
58
100
AcDbScale
 70
     0
300
1" = 1'-0"
140
1.0
141
12.0
290
     0
  0
SCALE
  5
76
102
{ACAD_REACTORS
330
58
102
}
330
58
100
AcDbScale
 70
     0
300
1-1/2" = 1'-0"
140
1.5
141
12.0
290
     0
  0
SCALE
  5
77
102
{ACAD_REACTORS
330
58
102
}
330
58
100
AcDbScale
 70
     0
300
3" = 1'-0"
140
3.0
141
12.0
290
     0
  0
SCALE
  5
78
102
{ACAD_REACTORS
330
58
102
}
330
58
100
AcDbScale
 70
     0
300
6" = 1'-0"
140
6.0
141
12.0
290
     0
  0
SCALE
  5
79
102
{ACAD_REACTORS
330
58
102
}
330
58
100
AcDbScale
 70
     0
300
1'-0" = 1'-0"
140
12.0
141
12.0
290
     0
  0
VISUALSTYLE
  5
2F
102
{ACAD_REACTORS
330
2A
102
}
102
{ACAD_XDICTIONARY
360
369
102
}
330
2A
100
AcDbVisualStyle
  2
2dWireframe
 70
     4
 71
     0
 72
     2
 73
     0
 90
        0
 40
-0.6
 41
-30.0
 62
     5
 63
     7
 74
     1
 91
        4
 64
     7
 65
   257
 75
     1
175
     1
 42
1.0
 92
        0
 66
   257
 43
1.0
 76
     1
 77
     6
 78
     2
 67
     7
 79
     5
170
     0
171
     0
290
     0
174
     0
 93
        1
 44
0.0
173
     0
291
     0
 45
0.0
1001
ACAD
1000
AcDbSavedByObjectVersion
1070
     0
  0
VISUALSTYLE
  5
31
102
{ACAD_REACTORS
330
2A
102
}
102
{ACAD_XDICTIONARY
360
36D
102
}
330
2A
100
AcDbVisualStyle
  2
3D Hidden
 70
     6
 71
     1
 72
     2
 73
     2
 90
        0
 40
-0.6
 41
-30.0
 62
     5
 63
     7
 74
     2
 91
        2
 64
     7
 65
   257
 75
     2
175
     1
 42
40.0
 92
        0
 66
   257
 43
1.0
 76
     1
 77
     6
 78
     2
 67
     7
 79
     3
170
     0
171
     0
290
     0
174
     0
 93
        1
 44
0.0
173
     0
291
     0
 45
0.0
1001
ACAD
1000
AcDbSavedByObjectVersion
1070
     0
  0
VISUALSTYLE
  5
30
102
{ACAD_REACTORS
330
2A
102
}
102
{ACAD_XDICTIONARY
360
36B
102
}
330
2A
100
AcDbVisualStyle
  2
3dWireframe
 70
     5
 71
     0
 72
     2
 73
     0
 90
        0
 40
-0.6
 41
-30.0
 62
     5
 63
     7
 74
     1
 91
        4
 64
     7
 65
   257
 75
     1
175
     1
 42
1.0
 92
        0
 66
   257
 43
1.0
 76
     1
 77
     6
 78
     2
 67
     7
 79
     5
170
     0
171
     0
290
     0
174
     0
 93
        1
 44
0.0
173
     0
291
     0
 45
0.0
1001
ACAD
1000
AcDbSavedByObjectVersion
1070
     0
  0
VISUALSTYLE
  5
32
102
{ACAD_REACTORS
330
2A
102
}
102
{ACAD_XDICTIONARY
360
36F
102
}
330
2A
100
AcDbVisualStyle
  2
Basic
 70
     7
 71
     1
 72
     0
 73
     1
 90
        0
 40
-0.6
 41
-30.0
 62
     5
 63
     7
 74
     0
 91
        4
 64
     7
 65
   257
 75
     1
175
     1
 42
1.0
 92
        8
 66
     7
 43
1.0
 76
     1
 77
     6
 78
     2
 67
     7
 79
     5
170
     0
171
     0
290
     0
174
     0
 93
        1
 44
0.0
173
     0
291
     1
 45
0.0
1001
ACAD
1000
AcDbSavedByObjectVersion
1070
     0
  0
VISUALSTYLE
  5
36
102
{ACAD_REACTORS
330
2A
102
}
102
{ACAD_XDICTIONARY
360
377
102
}
330
2A
100
AcDbVisualStyle
  2
Brighten
 70
    12
 71
     2
 72
     2
 73
     0
 90
        0
 40
-0.6
 41
-30.0
 62
     5
 63
     7
 74
     1
 91
        4
 64
     7
 65
   257
 75
     1
175
     1
 42
1.0
 92
        8
 66
     7
 43
1.0
 76
     1
 77
     6
 78
     2
 67
     7
 79
     5
170
     0
171
     0
290
     0
174
     0
 93
        1
 44
50.0
173
     0
291
     1
 45
0.0
1001
ACAD
1000
AcDbSavedByObjectVersion
1070
     0
  0
VISUALSTYLE
  5
3A
102
{ACAD_REACTORS
330
2A
102
}
102
{ACAD_XDICTIONARY
360
37F
102
}
330
2A
100
AcDbVisualStyle
  2
ColorChange
 70
    16
 71
     2
 72
     2
 73
     3
 90
        0
 40
-0.6
 41
-30.0
 62
     5
 63
     8
 74
     1
 91
        4
 64
     7
 65
   257
 75
     1
175
     1
 42
1.0
 92
        8
 66
     8
 43
1.0
 76
     1
 77
     6
 78
     2
 67
     7
 79
     5
170
     0
171
     0
290
     0
174
     0
 93
        1
 44
0.0
173
     0
291
     1
 45
0.0
1001
ACAD
1000
AcDbSavedByObjectVersion
1070
     0
  0
VISUALSTYLE
  5
34
102
{ACAD_REACTORS
330
2A
102
}
102
{ACAD_XDICTIONARY
360
373
102
}
330
2A
100
AcDbVisualStyle
  2
Conceptual
 70
     9
 71
     3
 72
     2
 73
     0
 90
        0
 40
-0.6
 41
-30.0
 62
     5
 63
     7
 74
     2
 91
        2
 64
     7
 65
   257
 75
     1
175
     1
 42
40.0
 92
        8
 66
     7
 43
1.0
 76
     1
 77
     6
 78
     2
 67
     7
 79
     3
170
     0
171
     0
290
     0
174
     0
 93
        1
 44
0.0
173
     0
291
     0
 45
0.0
1001
ACAD
1000
AcDbSavedByObjectVersion
1070
     0
  0
VISUALSTYLE
  5
35
102
{ACAD_REACTORS
330
2A
102
}
102
{ACAD_XDICTIONARY
360
375
102
}
330
2A
100
AcDbVisualStyle
  2
Dim
 70
    11
 71
     2
 72
     2
 73
     0
 90
        0
 40
-0.6
 41
-30.0
 62
     5
 63
     7
 74
     1
 91
        4
 64
     7
 65
   257
 75
     1
175
     1
 42
1.0
 92
        8
 66
     7
 43
1.0
 76
     1
 77
     6
 78
     2
 67
     7
 79
     5
170
     0
171
     0
290
     0
174
     0
 93
        1
 44
-50.0
173
     0
291
     1
 45
0.0
1001
ACAD
1000
AcDbSavedByObjectVersion
1070
     0
  0
VISUALSTYLE
  5
39
102
{ACAD_REACTORS
330
2A
102
}
102
{ACAD_XDICTIONARY
360
37D
102
}
330
2A
100
AcDbVisualStyle
  2
Facepattern
 70
    15
 71
     2
 72
     2
 73
     0
 90
        0
 40
-0.6
 41
-30.0
 62
     5
 63
     7
 74
     1
 91
        4
 64
     7
 65
   257
 75
     1
175
     1
 42
1.0
 92
        8
 66
     7
 43
1.0
 76
     1
 77
     6
 78
     2
 67
     7
 79
     5
170
     0
171
     0
290
     0
174
     0
 93
        1
 44
0.0
173
     0
291
     1
 45
0.0
1001
ACAD
1000
AcDbSavedByObjectVersion
1070
     0
  0
VISUALSTYLE
  5
2B
102
{ACAD_REACTORS
330
2A
102
}
102
{ACAD_XDICTIONARY
360
361
102
}
330
2A
100
AcDbVisualStyle
  2
Flat
 70
     0
 71
     2
 72
     1
 73
     1
 90
        2
 40
-0.6
 41
30.0
 62
     5
 63
     7
 74
     0
 91
        4
 64
     7
 65
   257
 75
     1
175
     1
 42
1.0
 92
        8
 66
     7
 43
1.0
 76
     1
 77
     6
 78
     2
 67
     7
 79
     5
170
     0
171
     0
290
     0
174
     0
 93
       13
 44
0.0
173
     0
291
     1
 45
0.0
1001
ACAD
1000
AcDbSavedByObjectVersion
1070
     0
  0
VISUALSTYLE
  5
2C
102
{ACAD_REACTORS
330
2A
102
}
102
{ACAD_XDICTIONARY
360
363
102
}
330
2A
100
AcDbVisualStyle
  2
FlatWithEdges
 70
     1
 71
     2
 72
     1
 73
     1
 90
        2
 40
-0.6
 41
30.0
 62
     5
 63
     7
 74
     1
 91
        4
 64
     7
 65
   257
 75
     1
175
     1
 42
1.0
 92
        0
 66
   257
 43
1.0
 76
     1
 77
     6
 78
     2
 67
     7
 79
     5
170
     0
171
     0
290
     0
174
     0
 93
       13
 44
0.0
173
     0
291
     1
 45
0.0
1001
ACAD
1000
AcDbSavedByObjectVersion
1070
     0
  0
VISUALSTYLE
  5
2D
102
{ACAD_REACTORS
330
2A
102
}
102
{ACAD_XDICTIONARY
360
365
102
}
330
2A
100
AcDbVisualStyle
  2
Gouraud
 70
     2
 71
     2
 72
     2
 73
     1
 90
        2
 40
-0.6
 41
30.0
 62
     5
 63
     7
 74
     0
 91
        4
 64
     7
 65
   257
 75
     1
175
     1
 42
1.0
 92
        0
 66
     7
 43
1.0
 76
     1
 77
     6
 78
     2
 67
     7
 79
     5
170
     0
171
     0
290
     0
174
     0
 93
       13
 44
0.0
173
     0
291
     1
 45
0.0
1001
ACAD
1000
AcDbSavedByObjectVersion
1070
     0
  0
VISUALSTYLE
  5
2E
102
{ACAD_REACTORS
330
2A
102
}
102
{ACAD_XDICTIONARY
360
367
102
}
330
2A
100
AcDbVisualStyle
  2
GouraudWithEdges
 70
     3
 71
     2
 72
     2
 73
     1
 90
        2
 40
-0.6
 41
30.0
 62
     5
 63
     7
 74
     1
 91
        4
 64
     7
 65
   257
 75
     1
175
     1
 42
1.0
 92
        0
 66
   257
 43
1.0
 76
     1
 77
     6
 78
     2
 67
     7
 79
     5
170
     0
171
     0
290
     0
174
     0
 93
       13
 44
0.0
173
     0
291
     1
 45
0.0
1001
ACAD
1000
AcDbSavedByObjectVersion
1070
     0
  0
VISUALSTYLE
  5
38
102
{ACAD_REACTORS
330
2A
102
}
102
{ACAD_XDICTIONARY
360
37B
102
}
330
2A
100
AcDbVisualStyle
  2
Linepattern
 70
    14
 71
     2
 72
     2
 73
     0
 90
        0
 40
-0.6
 41
-30.0
 62
     5
 63
     7
 74
     1
 91
        4
 64
     7
 65
   257
 75
     7
175
     7
 42
1.0
 92
        8
 66
     7
 43
1.0
 76
     1
 77
     6
 78
     2
 67
     7
 79
     5
170
     0
171
     0
290
     0
174
     0
 93
        1
 44
0.0
173
     0
291
     1
 45
0.0
1001
ACAD
1000
AcDbSavedByObjectVersion
1070
     0
  0
VISUALSTYLE
  5
33
102
{ACAD_REACTORS
330
2A
102
}
102
{ACAD_XDICTIONARY
360
371
102
}
330
2A
100
AcDbVisualStyle
  2
Realistic
 70
     8
 71
     2
 72
     2
 73
     0
 90
        0
 40
-0.6
 41
-30.0
 62
     5
 63
     7
 74
     1
 91
        0
 64
     7
 65
   257
 75
     1
175
     1
 42
1.0
 92
        8
 66
     8
 43
1.0
 76
     1
 77
     6
 78
     2
 67
     7
 79
     5
170
     0
171
     0
290
     0
174
     0
 93
       13
 44
0.0
173
     0
291
     0
 45
0.0
1001
ACAD
1000
AcDbSavedByObjectVersion
1070
     0
  0
VISUALSTYLE
  5
37
102
{ACAD_REACTORS
330
2A
102
}
102
{ACAD_XDICTIONARY
360
379
102
}
330
2A
100
AcDbVisualStyle
  2
Thicken
 70
    13
 71
     2
 72
     2
 73
     0
 90
        0
 40
-0.6
 41
-30.0
 62
     5
 63
     7
 74
     1
 91
        4
 64
     7
 65
   257
 75
     1
175
     1
 42
1.0
 92
       12
 66
     7
 43
1.0
 76
     1
 77
     6
 78
     2
 67
     7
 79
     5
170
     0
171
     0
290
     0
174
     0
 93
        1
 44
0.0
173
     0
291
     1
 45
0.0
1001
ACAD
1000
AcDbSavedByObjectVersion
1070
     0
  0
DICTIONARYVAR
  5
35E
102
{ACAD_REACTORS
330
35B
102
}
330
35B
100
DictionaryVariables
280
     0
  1
1:1
  0
DICTIONARYVAR
  5
35F
102
{ACAD_REACTORS
330
35B
102
}
330
35B
100
DictionaryVariables
280
     0
  1
2
  0
DICTIONARYVAR
  5
360
102
{ACAD_REACTORS
330
35B
102
}
330
35B
100
DictionaryVariables
280
     0
  1
1
  0
DICTIONARY
  5
383
330
3D
100
AcDbDictionary
280
     1
281
     1
  3
ACAD_XREC_ROUNDTRIP
360
384
  0
DICTIONARY
  5
381
330
3C
100
AcDbDictionary
280
     1
281
     1
  3
ACAD_XREC_ROUNDTRIP
360
382
  0
DICTIONARY
  5
385
330
3E
100
AcDbDictionary
280
     1
281
     1
  3
ACAD_XREC_ROUNDTRIP
360
386
  0
DICTIONARY
  5
369
330
2F
100
AcDbDictionary
280
     1
281
     1
  3
ACAD_XREC_ROUNDTRIP
360
36A
  0
DICTIONARY
  5
36D
330
31
100
AcDbDictionary
280
     1
281
     1
  3
ACAD_XREC_ROUNDTRIP
360
36E
  0
DICTIONARY
  5
36B
330
30
100
AcDbDictionary
280
     1
281
     1
  3
ACAD_XREC_ROUNDTRIP
360
36C
  0
DICTIONARY
  5
36F
330
32
100
AcDbDictionary
280
     1
281
     1
  3
ACAD_XREC_ROUNDTRIP
360
370
  0
DICTIONARY
  5
377
330
36
100
AcDbDictionary
280
     1
281
     1
  3
ACAD_XREC_ROUNDTRIP
360
378
  0
DICTIONARY
  5
37F
330
3A
100
AcDbDictionary
280
     1
281
     1
  3
ACAD_XREC_ROUNDTRIP
360
380
  0
DICTIONARY
  5
373
330
34
100
AcDbDictionary
280
     1
281
     1
  3
ACAD_XREC_ROUNDTRIP
360
374
  0
DICTIONARY
  5
375
330
35
100
AcDbDictionary
280
     1
281
     1
  3
ACAD_XREC_ROUNDTRIP
360
376
  0
DICTIONARY
  5
37D
330
39
100
AcDbDictionary
280
     1
281
     1
  3
ACAD_XREC_ROUNDTRIP
360
37E
  0
DICTIONARY
  5
361
330
2B
100
AcDbDictionary
280
     1
281
     1
  3
ACAD_XREC_ROUNDTRIP
360
362
  0
DICTIONARY
  5
363
330
2C
100
AcDbDictionary
280
     1
281
     1
  3
ACAD_XREC_ROUNDTRIP
360
364
  0
DICTIONARY
  5
365
330
2D
100
AcDbDictionary
280
     1
281
     1
  3
ACAD_XREC_ROUNDTRIP
360
366
  0
DICTIONARY
  5
367
330
2E
100
AcDbDictionary
280
     1
281
     1
  3
ACAD_XREC_ROUNDTRIP
360
368
  0
DICTIONARY
  5
37B
330
38
100
AcDbDictionary
280
     1
281
     1
  3
ACAD_XREC_ROUNDTRIP
360
37C
  0
DICTIONARY
  5
371
330
33
100
AcDbDictionary
280
     1
281
     1
  3
ACAD_XREC_ROUNDTRIP
360
372
  0
DICTIONARY
  5
379
330
37
100
AcDbDictionary
280
     1
281
     1
  3
ACAD_XREC_ROUNDTRIP
360
37A
  0
XRECORD
  5
384
102
{ACAD_REACTORS
330
383
102
}
330
383
100
AcDbXrecord
280
     1
102
MATERIAL
148
0.0
149
0.0
149
0.0
 93
        0
 94
      127
282
     0
 72
     1
 77
     1
171
     1
175
     1
179
     1
273
     0
  0
XRECORD
  5
382
102
{ACAD_REACTORS
330
381
102
}
330
381
100
AcDbXrecord
280
     1
102
MATERIAL
148
0.0
149
0.0
149
0.0
 93
        0
 94
      127
282
     0
 72
     1
 77
     1
171
     1
175
     1
179
     1
273
     0
  0
XRECORD
  5
386
102
{ACAD_REACTORS
330
385
102
}
330
385
100
AcDbXrecord
280
     1
102
MATERIAL
148
0.0
149
0.0
149
0.0
 93
        0
 94
      127
282
     0
 72
     1
 77
     1
171
     1
175
     1
179
     1
273
     0
  0
XRECORD
  5
36A
102
{ACAD_REACTORS
330
369
102
}
330
369
100
AcDbXrecord
280
     1
102
RTVSPropertyOp0
 70
     1
102
RTVSPropertyOp1
 70
     1
102
RTVSPropertyOp2
 70
     1
102
RTVSPropertyOp3
 70
     1
102
RTVSPropertyOp4
 70
     1
102
RTVSPropertyOp5
 70
     1
102
RTVSPropertyOp6
 70
     1
102
RTVSPropertyOp7
 70
     1
102
RTVSPropertyOp8
 70
     1
102
RTVSPropertyOp9
 70
     1
102
RTVSPropertyOp10
 70
     1
102
RTVSPropertyOp11
 70
     1
102
RTVSPropertyOp12
 70
     1
102
RTVSPropertyOp13
 70
     1
102
RTVSPropertyOp14
 70
     1
102
RTVSPropertyOp15
 70
     1
102
RTVSPropertyOp16
 70
     1
102
RTVSPropertyOp17
 70
     1
102
RTVSPropertyOp18
 70
     1
102
RTVSPropertyOp19
 70
     1
102
RTVSPropertyOp20
 70
     1
102
RTVSPropertyOp21
 70
     1
102
RTVSPropertyOp22
 70
     1
102
RTVSPropertyOp23
 70
     1
102
RTVSPropertyOp24
 70
     1
102
RTVSPropertyOp25
 70
     1
102
RTVSPropertyOp26
 70
     1
102
RTVSPropertyOp27
 70
     1
  0
XRECORD
  5
36E
102
{ACAD_REACTORS
330
36D
102
}
330
36D
100
AcDbXrecord
280
     1
102
RTVSPropertyOp0
 70
     1
102
RTVSPropertyOp1
 70
     1
102
RTVSPropertyOp2
 70
     1
102
RTVSPropertyOp3
 70
     1
102
RTVSPropertyOp4
 70
     1
102
RTVSPropertyOp5
 70
     1
102
RTVSPropertyOp6
 70
     1
102
RTVSPropertyOp7
 70
     1
102
RTVSPropertyOp8
 70
     1
102
RTVSPropertyOp9
 70
     1
102
RTVSPropertyOp10
 70
     1
102
RTVSPropertyOp11
 70
     1
102
RTVSPropertyOp12
 70
     1
102
RTVSPropertyOp13
 70
     1
102
RTVSPropertyOp14
 70
     1
102
RTVSPropertyOp15
 70
     1
102
RTVSPropertyOp16
 70
     1
102
RTVSPropertyOp17
 70
     1
102
RTVSPropertyOp18
 70
     1
102
RTVSPropertyOp19
 70
     1
102
RTVSPropertyOp20
 70
     1
102
RTVSPropertyOp21
 70
     1
102
RTVSPropertyOp22
 70
     1
102
RTVSPropertyOp23
 70
     1
102
RTVSPropertyOp24
 70
     1
102
RTVSPropertyOp25
 70
     1
102
RTVSPropertyOp26
 70
     1
102
RTVSPropertyOp27
 70
     1
  0
XRECORD
  5
36C
102
{ACAD_REACTORS
330
36B
102
}
330
36B
100
AcDbXrecord
280
     1
102
RTVSPropertyOp0
 70
     1
102
RTVSPropertyOp1
 70
     1
102
RTVSPropertyOp2
 70
     1
102
RTVSPropertyOp3
 70
     1
102
RTVSPropertyOp4
 70
     1
102
RTVSPropertyOp5
 70
     1
102
RTVSPropertyOp6
 70
     1
102
RTVSPropertyOp7
 70
     1
102
RTVSPropertyOp8
 70
     1
102
RTVSPropertyOp9
 70
     1
102
RTVSPropertyOp10
 70
     1
102
RTVSPropertyOp11
 70
     1
102
RTVSPropertyOp12
 70
     1
102
RTVSPropertyOp13
 70
     1
102
RTVSPropertyOp14
 70
     1
102
RTVSPropertyOp15
 70
     1
102
RTVSPropertyOp16
 70
     1
102
RTVSPropertyOp17
 70
     1
102
RTVSPropertyOp18
 70
     1
102
RTVSPropertyOp19
 70
     1
102
RTVSPropertyOp20
 70
     1
102
RTVSPropertyOp21
 70
     1
102
RTVSPropertyOp22
 70
     1
102
RTVSPropertyOp23
 70
     1
102
RTVSPropertyOp24
 70
     1
102
RTVSPropertyOp25
 70
     1
102
RTVSPropertyOp26
 70
     1
102
RTVSPropertyOp27
 70
     1
  0
XRECORD
  5
370
102
{ACAD_REACTORS
330
36F
102
}
330
36F
100
AcDbXrecord
280
     1
102
RTVSPropertyOp0
 70
     1
102
RTVSPropertyOp1
 70
     1
102
RTVSPropertyOp2
 70
     1
102
RTVSPropertyOp3
 70
     1
102
RTVSPropertyOp4
 70
     1
102
RTVSPropertyOp5
 70
     1
102
RTVSPropertyOp6
 70
     1
102
RTVSPropertyOp7
 70
     1
102
RTVSPropertyOp8
 70
     1
102
RTVSPropertyOp9
 70
     1
102
RTVSPropertyOp10
 70
     1
102
RTVSPropertyOp11
 70
     1
102
RTVSPropertyOp12
 70
     1
102
RTVSPropertyOp13
 70
     1
102
RTVSPropertyOp14
 70
     1
102
RTVSPropertyOp15
 70
     1
102
RTVSPropertyOp16
 70
     1
102
RTVSPropertyOp17
 70
     1
102
RTVSPropertyOp18
 70
     1
102
RTVSPropertyOp19
 70
     1
102
RTVSPropertyOp20
 70
     1
102
RTVSPropertyOp21
 70
     1
102
RTVSPropertyOp22
 70
     1
102
RTVSPropertyOp23
 70
     1
102
RTVSPropertyOp24
 70
     1
102
RTVSPropertyOp25
 70
     1
102
RTVSPropertyOp26
 70
     1
102
RTVSPropertyOp27
 70
     1
  0
XRECORD
  5
378
102
{ACAD_REACTORS
330
377
102
}
330
377
100
AcDbXrecord
280
     1
102
RTVSPropertyOp0
 70
     1
102
RTVSPropertyOp1
 70
     1
102
RTVSPropertyOp2
 70
     1
102
RTVSPropertyOp3
 70
     1
102
RTVSPropertyOp4
 70
     1
102
RTVSPropertyOp5
 70
     1
102
RTVSPropertyOp6
 70
     1
102
RTVSPropertyOp7
 70
     1
102
RTVSPropertyOp8
 70
     1
102
RTVSPropertyOp9
 70
     1
102
RTVSPropertyOp10
 70
     1
102
RTVSPropertyOp11
 70
     1
102
RTVSPropertyOp12
 70
     1
102
RTVSPropertyOp13
 70
     1
102
RTVSPropertyOp14
 70
     1
102
RTVSPropertyOp15
 70
     1
102
RTVSPropertyOp16
 70
     1
102
RTVSPropertyOp17
 70
     1
102
RTVSPropertyOp18
 70
     1
102
RTVSPropertyOp19
 70
     1
102
RTVSPropertyOp20
 70
     1
102
RTVSPropertyOp21
 70
     1
102
RTVSPropertyOp22
 70
     1
102
RTVSPropertyOp23
 70
     1
102
RTVSPropertyOp24
 70
     1
102
RTVSPropertyOp25
 70
     1
102
RTVSPropertyOp26
 70
     1
102
RTVSPropertyOp27
 70
     1
  0
XRECORD
  5
380
102
{ACAD_REACTORS
330
37F
102
}
330
37F
100
AcDbXrecord
280
     1
102
RTVSPropertyOp0
 70
     1
102
RTVSPropertyOp1
 70
     1
102
RTVSPropertyOp2
 70
     1
102
RTVSPropertyOp3
 70
     1
102
RTVSPropertyOp4
 70
     1
102
RTVSPropertyOp5
 70
     1
102
RTVSPropertyOp6
 70
     1
102
RTVSPropertyOp7
 70
     1
102
RTVSPropertyOp8
 70
     1
102
RTVSPropertyOp9
 70
     1
102
RTVSPropertyOp10
 70
     1
102
RTVSPropertyOp11
 70
     1
102
RTVSPropertyOp12
 70
     1
102
RTVSPropertyOp13
 70
     1
102
RTVSPropertyOp14
 70
     1
102
RTVSPropertyOp15
 70
     1
102
RTVSPropertyOp16
 70
     1
102
RTVSPropertyOp17
 70
     1
102
RTVSPropertyOp18
 70
     1
102
RTVSPropertyOp19
 70
     1
102
RTVSPropertyOp20
 70
     1
102
RTVSPropertyOp21
 70
     1
102
RTVSPropertyOp22
 70
     1
102
RTVSPropertyOp23
 70
     1
102
RTVSPropertyOp24
 70
     1
102
RTVSPropertyOp25
 70
     1
102
RTVSPropertyOp26
 70
     1
102
RTVSPropertyOp27
 70
     1
  0
XRECORD
  5
374
102
{ACAD_REACTORS
330
373
102
}
330
373
100
AcDbXrecord
280
     1
102
RTVSPropertyOp0
 70
     1
102
RTVSPropertyOp1
 70
     1
102
RTVSPropertyOp2
 70
     1
102
RTVSPropertyOp3
 70
     1
102
RTVSPropertyOp4
 70
     1
102
RTVSPropertyOp5
 70
     1
102
RTVSPropertyOp6
 70
     1
102
RTVSPropertyOp7
 70
     1
102
RTVSPropertyOp8
 70
     1
102
RTVSPropertyOp9
 70
     1
102
RTVSPropertyOp10
 70
     1
102
RTVSPropertyOp11
 70
     1
102
RTVSPropertyOp12
 70
     1
102
RTVSPropertyOp13
 70
     1
102
RTVSPropertyOp14
 70
     1
102
RTVSPropertyOp15
 70
     1
102
RTVSPropertyOp16
 70
     1
102
RTVSPropertyOp17
 70
     1
102
RTVSPropertyOp18
 70
     1
102
RTVSPropertyOp19
 70
     1
102
RTVSPropertyOp20
 70
     1
102
RTVSPropertyOp21
 70
     1
102
RTVSPropertyOp22
 70
     1
102
RTVSPropertyOp23
 70
     1
102
RTVSPropertyOp24
 70
     1
102
RTVSPropertyOp25
 70
     1
102
RTVSPropertyOp26
 70
     1
102
RTVSPropertyOp27
 70
     1
  0
XRECORD
  5
376
102
{ACAD_REACTORS
330
375
102
}
330
375
100
AcDbXrecord
280
     1
102
RTVSPropertyOp0
 70
     1
102
RTVSPropertyOp1
 70
     1
102
RTVSPropertyOp2
 70
     1
102
RTVSPropertyOp3
 70
     1
102
RTVSPropertyOp4
 70
     1
102
RTVSPropertyOp5
 70
     1
102
RTVSPropertyOp6
 70
     1
102
RTVSPropertyOp7
 70
     1
102
RTVSPropertyOp8
 70
     1
102
RTVSPropertyOp9
 70
     1
102
RTVSPropertyOp10
 70
     1
102
RTVSPropertyOp11
 70
     1
102
RTVSPropertyOp12
 70
     1
102
RTVSPropertyOp13
 70
     1
102
RTVSPropertyOp14
 70
     1
102
RTVSPropertyOp15
 70
     1
102
RTVSPropertyOp16
 70
     1
102
RTVSPropertyOp17
 70
     1
102
RTVSPropertyOp18
 70
     1
102
RTVSPropertyOp19
 70
     1
102
RTVSPropertyOp20
 70
     1
102
RTVSPropertyOp21
 70
     1
102
RTVSPropertyOp22
 70
     1
102
RTVSPropertyOp23
 70
     1
102
RTVSPropertyOp24
 70
     1
102
RTVSPropertyOp25
 70
     1
102
RTVSPropertyOp26
 70
     1
102
RTVSPropertyOp27
 70
     1
  0
XRECORD
  5
37E
102
{ACAD_REACTORS
330
37D
102
}
330
37D
100
AcDbXrecord
280
     1
102
RTVSPropertyOp0
 70
     1
102
RTVSPropertyOp1
 70
     1
102
RTVSPropertyOp2
 70
     1
102
RTVSPropertyOp3
 70
     1
102
RTVSPropertyOp4
 70
     1
102
RTVSPropertyOp5
 70
     1
102
RTVSPropertyOp6
 70
     1
102
RTVSPropertyOp7
 70
     1
102
RTVSPropertyOp8
 70
     1
102
RTVSPropertyOp9
 70
     1
102
RTVSPropertyOp10
 70
     1
102
RTVSPropertyOp11
 70
     1
102
RTVSPropertyOp12
 70
     1
102
RTVSPropertyOp13
 70
     1
102
RTVSPropertyOp14
 70
     1
102
RTVSPropertyOp15
 70
     1
102
RTVSPropertyOp16
 70
     1
102
RTVSPropertyOp17
 70
     1
102
RTVSPropertyOp18
 70
     1
102
RTVSPropertyOp19
 70
     1
102
RTVSPropertyOp20
 70
     1
102
RTVSPropertyOp21
 70
     1
102
RTVSPropertyOp22
 70
     1
102
RTVSPropertyOp23
 70
     1
102
RTVSPropertyOp24
 70
     1
102
RTVSPropertyOp25
 70
     1
102
RTVSPropertyOp26
 70
     1
102
RTVSPropertyOp27
 70
     1
  0
XRECORD
  5
362
102
{ACAD_REACTORS
330
361
102
}
330
361
100
AcDbXrecord
280
     1
102
RTVSPropertyOp0
 70
     1
102
RTVSPropertyOp1
 70
     1
102
RTVSPropertyOp2
 70
     1
102
RTVSPropertyOp3
 70
     1
102
RTVSPropertyOp4
 70
     1
102
RTVSPropertyOp5
 70
     1
102
RTVSPropertyOp6
 70
     1
102
RTVSPropertyOp7
 70
     1
102
RTVSPropertyOp8
 70
     1
102
RTVSPropertyOp9
 70
     1
102
RTVSPropertyOp10
 70
     1
102
RTVSPropertyOp11
 70
     1
102
RTVSPropertyOp12
 70
     1
102
RTVSPropertyOp13
 70
     1
102
RTVSPropertyOp14
 70
     1
102
RTVSPropertyOp15
 70
     1
102
RTVSPropertyOp16
 70
     1
102
RTVSPropertyOp17
 70
     1
102
RTVSPropertyOp18
 70
     1
102
RTVSPropertyOp19
 70
     1
102
RTVSPropertyOp20
 70
     1
102
RTVSPropertyOp21
 70
     1
102
RTVSPropertyOp22
 70
     1
102
RTVSPropertyOp23
 70
     1
102
RTVSPropertyOp24
 70
     1
102
RTVSPropertyOp25
 70
     1
102
RTVSPropertyOp26
 70
     1
102
RTVSPropertyOp27
 70
     1
  0
XRECORD
  5
364
102
{ACAD_REACTORS
330
363
102
}
330
363
100
AcDbXrecord
280
     1
102
RTVSPropertyOp0
 70
     1
102
RTVSPropertyOp1
 70
     1
102
RTVSPropertyOp2
 70
     1
102
RTVSPropertyOp3
 70
     1
102
RTVSPropertyOp4
 70
     1
102
RTVSPropertyOp5
 70
     1
102
RTVSPropertyOp6
 70
     1
102
RTVSPropertyOp7
 70
     1
102
RTVSPropertyOp8
 70
     1
102
RTVSPropertyOp9
 70
     1
102
RTVSPropertyOp10
 70
     1
102
RTVSPropertyOp11
 70
     1
102
RTVSPropertyOp12
 70
     1
102
RTVSPropertyOp13
 70
     1
102
RTVSPropertyOp14
 70
     1
102
RTVSPropertyOp15
 70
     1
102
RTVSPropertyOp16
 70
     1
102
RTVSPropertyOp17
 70
     1
102
RTVSPropertyOp18
 70
     1
102
RTVSPropertyOp19
 70
     1
102
RTVSPropertyOp20
 70
     1
102
RTVSPropertyOp21
 70
     1
102
RTVSPropertyOp22
 70
     1
102
RTVSPropertyOp23
 70
     1
102
RTVSPropertyOp24
 70
     1
102
RTVSPropertyOp25
 70
     1
102
RTVSPropertyOp26
 70
     1
102
RTVSPropertyOp27
 70
     1
  0
XRECORD
  5
366
102
{ACAD_REACTORS
330
365
102
}
330
365
100
AcDbXrecord
280
     1
102
RTVSPropertyOp0
 70
     1
102
RTVSPropertyOp1
 70
     1
102
RTVSPropertyOp2
 70
     1
102
RTVSPropertyOp3
 70
     1
102
RTVSPropertyOp4
 70
     1
102
RTVSPropertyOp5
 70
     1
102
RTVSPropertyOp6
 70
     1
102
RTVSPropertyOp7
 70
     1
102
RTVSPropertyOp8
 70
     1
102
RTVSPropertyOp9
 70
     1
102
RTVSPropertyOp10
 70
     1
102
RTVSPropertyOp11
 70
     1
102
RTVSPropertyOp12
 70
     1
102
RTVSPropertyOp13
 70
     1
102
RTVSPropertyOp14
 70
     1
102
RTVSPropertyOp15
 70
     1
102
RTVSPropertyOp16
 70
     1
102
RTVSPropertyOp17
 70
     1
102
RTVSPropertyOp18
 70
     1
102
RTVSPropertyOp19
 70
     1
102
RTVSPropertyOp20
 70
     1
102
RTVSPropertyOp21
 70
     1
102
RTVSPropertyOp22
 70
     1
102
RTVSPropertyOp23
 70
     1
102
RTVSPropertyOp24
 70
     1
102
RTVSPropertyOp25
 70
     1
102
RTVSPropertyOp26
 70
     1
102
RTVSPropertyOp27
 70
     1
  0
XRECORD
  5
368
102
{ACAD_REACTORS
330
367
102
}
330
367
100
AcDbXrecord
280
     1
102
RTVSPropertyOp0
 70
     1
102
RTVSPropertyOp1
 70
     1
102
RTVSPropertyOp2
 70
     1
102
RTVSPropertyOp3
 70
     1
102
RTVSPropertyOp4
 70
     1
102
RTVSPropertyOp5
 70
     1
102
RTVSPropertyOp6
 70
     1
102
RTVSPropertyOp7
 70
     1
102
RTVSPropertyOp8
 70
     1
102
RTVSPropertyOp9
 70
     1
102
RTVSPropertyOp10
 70
     1
102
RTVSPropertyOp11
 70
     1
102
RTVSPropertyOp12
 70
     1
102
RTVSPropertyOp13
 70
     1
102
RTVSPropertyOp14
 70
     1
102
RTVSPropertyOp15
 70
     1
102
RTVSPropertyOp16
 70
     1
102
RTVSPropertyOp17
 70
     1
102
RTVSPropertyOp18
 70
     1
102
RTVSPropertyOp19
 70
     1
102
RTVSPropertyOp20
 70
     1
102
RTVSPropertyOp21
 70
     1
102
RTVSPropertyOp22
 70
     1
102
RTVSPropertyOp23
 70
     1
102
RTVSPropertyOp24
 70
     1
102
RTVSPropertyOp25
 70
     1
102
RTVSPropertyOp26
 70
     1
102
RTVSPropertyOp27
 70
     1
  0
XRECORD
  5
37C
102
{ACAD_REACTORS
330
37B
102
}
330
37B
100
AcDbXrecord
280
     1
102
RTVSPropertyOp0
 70
     1
102
RTVSPropertyOp1
 70
     1
102
RTVSPropertyOp2
 70
     1
102
RTVSPropertyOp3
 70
     1
102
RTVSPropertyOp4
 70
     1
102
RTVSPropertyOp5
 70
     1
102
RTVSPropertyOp6
 70
     1
102
RTVSPropertyOp7
 70
     1
102
RTVSPropertyOp8
 70
     1
102
RTVSPropertyOp9
 70
     1
102
RTVSPropertyOp10
 70
     1
102
RTVSPropertyOp11
 70
     1
102
RTVSPropertyOp12
 70
     1
102
RTVSPropertyOp13
 70
     1
102
RTVSPropertyOp14
 70
     1
102
RTVSPropertyOp15
 70
     1
102
RTVSPropertyOp16
 70
     1
102
RTVSPropertyOp17
 70
     1
102
RTVSPropertyOp18
 70
     1
102
RTVSPropertyOp19
 70
     1
102
RTVSPropertyOp20
 70
     1
102
RTVSPropertyOp21
 70
     1
102
RTVSPropertyOp22
 70
     1
102
RTVSPropertyOp23
 70
     1
102
RTVSPropertyOp24
 70
     1
102
RTVSPropertyOp25
 70
     1
102
RTVSPropertyOp26
 70
     1
102
RTVSPropertyOp27
 70
     1
  0
XRECORD
  5
372
102
{ACAD_REACTORS
330
371
102
}
330
371
100
AcDbXrecord
280
     1
102
RTVSPropertyOp0
 70
     1
102
RTVSPropertyOp1
 70
     1
102
RTVSPropertyOp2
 70
     1
102
RTVSPropertyOp3
 70
     1
102
RTVSPropertyOp4
 70
     1
102
RTVSPropertyOp5
 70
     1
102
RTVSPropertyOp6
 70
     1
102
RTVSPropertyOp7
 70
     1
102
RTVSPropertyOp8
 70
     1
102
RTVSPropertyOp9
 70
     1
102
RTVSPropertyOp10
 70
     1
102
RTVSPropertyOp11
 70
     1
102
RTVSPropertyOp12
 70
     1
102
RTVSPropertyOp13
 70
     1
102
RTVSPropertyOp14
 70
     1
102
RTVSPropertyOp15
 70
     1
102
RTVSPropertyOp16
 70
     1
102
RTVSPropertyOp17
 70
     1
102
RTVSPropertyOp18
 70
     1
102
RTVSPropertyOp19
 70
     1
102
RTVSPropertyOp20
 70
     1
102
RTVSPropertyOp21
 70
     1
102
RTVSPropertyOp22
 70
     1
102
RTVSPropertyOp23
 70
     1
102
RTVSPropertyOp24
 70
     1
102
RTVSPropertyOp25
 70
     1
102
RTVSPropertyOp26
 70
     1
102
RTVSPropertyOp27
 70
     1
  0
XRECORD
  5
37A
102
{ACAD_REACTORS
330
379
102
}
330
379
100
AcDbXrecord
280
     1
102
RTVSPropertyOp0
 70
     1
102
RTVSPropertyOp1
 70
     1
102
RTVSPropertyOp2
 70
     1
102
RTVSPropertyOp3
 70
     1
102
RTVSPropertyOp4
 70
     1
102
RTVSPropertyOp5
 70
     1
102
RTVSPropertyOp6
 70
     1
102
RTVSPropertyOp7
 70
     1
102
RTVSPropertyOp8
 70
     1
102
RTVSPropertyOp9
 70
     1
102
RTVSPropertyOp10
 70
     1
102
RTVSPropertyOp11
 70
     1
102
RTVSPropertyOp12
 70
     1
102
RTVSPropertyOp13
 70
     1
102
RTVSPropertyOp14
 70
     1
102
RTVSPropertyOp15
 70
     1
102
RTVSPropertyOp16
 70
     1
102
RTVSPropertyOp17
 70
     1
102
RTVSPropertyOp18
 70
     1
102
RTVSPropertyOp19
 70
     1
102
RTVSPropertyOp20
 70
     1
102
RTVSPropertyOp21
 70
     1
102
RTVSPropertyOp22
 70
     1
102
RTVSPropertyOp23
 70
     1
102
RTVSPropertyOp24
 70
     1
102
RTVSPropertyOp25
 70
     1
102
RTVSPropertyOp26
 70
     1
102
RTVSPropertyOp27
 70
     1
  0
ENDSEC
  0
EOF
