  0
SECTION
  2
HEADER
  9
$ACADVER
  1
AC1015
  9
$ACADMAINTVER
 70
     6
  9
$DWGCODEPAGE
  3
ANSI_1252
  9
$INSBASE
 10
0.0
 20
0.0
 30
0.0
  9
$EXTMIN
 10
-0.000730258777665
 20
-0.0010987412074854
 30
-0.0000000100013724
  9
$EXTMAX
 10
24.03635383774432
 20
36.81427581229547
 30
0.0000000100013732
  9
$LIMMIN
 10
0.0
 20
0.0
  9
$LIMMAX
 10
23.84999999999999
 20
35.23499999999999
  9
$ORTHOMODE
 70
     1
  9
$REGENMODE
 70
     1
  9
$FILLMODE
 70
     1
  9
$QTEXTMODE
 70
     0
  9
$MIRRTEXT
 70
     0
  9
$LTSCALE
 40
0.468
  9
$ATTMODE
 70
     1
  9
$TEXTSIZE
 40
0.2
  9
$TRACEWID
 40
0.05
  9
$TEXTSTYLE
  7
TXT
  9
$CLAYER
  8
TITLE
  9
$CELTYPE
  6
ByLayer
  9
$CECOLOR
 62
   256
  9
$CELTSCALE
 40
1.0
  9
$DISPSILH
 70
     0
  9
$DIMSCALE
 40
2.25
  9
$DIMASZ
 40
0.18
  9
$DIMEXO
 40
0.063
  9
$DIMDLI
 40
0.38
  9
$DIMRND
 40
0.0
  9
$DIMDLE
 40
0.0
  9
$DIMEXE
 40
0.093
  9
$DIMTP
 40
0.0
  9
$DIMTM
 40
0.0
  9
$DIMTXT
 40
0.125
  9
$DIMCEN
 40
0.09
  9
$DIMTSZ
 40
0.0
  9
$DIMTOL
 70
     0
  9
$DIMLIM
 70
     0
  9
$DIMTIH
 70
     1
  9
$DIMTOH
 70
     1
  9
$DIMSE1
 70
     0
  9
$DIMSE2
 70
     0
  9
$DIMTAD
 70
     0
  9
$DIMZIN
 70
     0
  9
$DIMBLK
  1

  9
$DIMASO
 70
     1
  9
$DIMSHO
 70
     1
  9
$DIMPOST
  1

  9
$DIMAPOST
  1

  9
$DIMALT
 70
     0
  9
$DIMALTD
 70
     2
  9
$DIMALTF
 40
25.4
  9
$DIMLFAC
 40
1.0
  9
$DIMTOFL
 70
     0
  9
$DIMTVP
 40
0.0
  9
$DIMTIX
 70
     0
  9
$DIMSOXD
 70
     0
  9
$DIMSAH
 70
     0
  9
$DIMBLK1
  1

  9
$DIMBLK2
  1

  9
$DIMSTYLE
  2
23NSTD
  9
$DIMCLRD
 70
     0
  9
$DIMCLRE
 70
     0
  9
$DIMCLRT
 70
     0
  9
$DIMTFAC
 40
1.0
  9
$DIMGAP
 40
0.09
  9
$DIMJUST
 70
     0
  9
$DIMSD1
 70
     0
  9
$DIMSD2
 70
     0
  9
$DIMTOLJ
 70
     1
  9
$DIMTZIN
 70
     0
  9
$DIMALTZ
 70
     0
  9
$DIMALTTZ
 70
     0
  9
$DIMUPT
 70
     0
  9
$DIMDEC
 70
     3
  9
$DIMTDEC
 70
     3
  9
$DIMALTU
 70
     2
  9
$DIMALTTD
 70
     2
  9
$DIMTXSTY
  7
TXT
  9
$DIMAUNIT
 70
     0
  9
$DIMADEC
 70
     0
  9
$DIMALTRND
 40
0.0
  9
$DIMAZIN
 70
     0
  9
$DIMDSEP
 70
    46
  9
$DIMATFIT
 70
     1
  9
$DIMFRAC
 70
     0
  9
$DIMLDRBLK
  1

  9
$DIMLUNIT
 70
     2
  9
$DIMLWD
 70
    -2
  9
$DIMLWE
 70
    -2
  9
$DIMTMOVE
 70
     0
  9
$LUNITS
 70
     2
  9
$LUPREC
 70
     3
  9
$SKETCHINC
 40
0.1
  9
$FILLETRAD
 40
0.0625
  9
$AUNITS
 70
     0
  9
$AUPREC
 70
     0
  9
$MENU
  1
acad
  9
$ELEVATION
 40
0.0
  9
$PELEVATION
 40
0.0
  9
$THICKNESS
 40
0.0
  9
$LIMCHECK
 70
     0
  9
$CHAMFERA
 40
0.0
  9
$CHAMFERB
 40
0.0
  9
$CHAMFERC
 40
0.0
  9
$CHAMFERD
 40
0.0
  9
$SKPOLY
 70
     0
  9
$TDCREATE
 40
2451033.475029166
  9
$TDUCREATE
 40
2451033.641695833
  9
$TDUPDATE
 40
2454720.537160370
  9
$TDUUPDATE
 40
2454720.703827037
  9
$TDINDWG
 40
0.7144624537
  9
$TDUSRTIMER
 40
0.7144615509
  9
$USRTIMER
 70
     1
  9
$ANGBASE
 50
0.0
  9
$ANGDIR
 70
     0
  9
$PDMODE
 70
     0
  9
$PDSIZE
 40
0.0
  9
$PLINEWID
 40
0.0
  9
$SPLFRAME
 70
     0
  9
$SPLINETYPE
 70
     6
  9
$SPLINESEGS
 70
     8
  9
$HANDSEED
  5
36BD
  9
$SURFTAB1
 70
     6
  9
$SURFTAB2
 70
     6
  9
$SURFTYPE
 70
     6
  9
$SURFU
 70
     6
  9
$SURFV
 70
     6
  9
$UCSBASE
  2

  9
$UCSNAME
  2

  9
$UCSORG
 10
0.0
 20
0.0
 30
0.0
  9
$UCSXDIR
 10
1.0
 20
0.0
 30
0.0
  9
$UCSYDIR
 10
0.0
 20
1.0
 30
0.0
  9
$UCSORTHOREF
  2

  9
$UCSORTHOVIEW
 70
     0
  9
$UCSORGTOP
 10
0.0
 20
0.0
 30
0.0
  9
$UCSORGBOTTOM
 10
0.0
 20
0.0
 30
0.0
  9
$UCSORGLEFT
 10
0.0
 20
0.0
 30
0.0
  9
$UCSORGRIGHT
 10
0.0
 20
0.0
 30
0.0
  9
$UCSORGFRONT
 10
0.0
 20
0.0
 30
0.0
  9
$UCSORGBACK
 10
0.0
 20
0.0
 30
0.0
  9
$PUCSBASE
  2

  9
$PUCSNAME
  2

  9
$PUCSORG
 10
0.0
 20
0.0
 30
0.0
  9
$PUCSXDIR
 10
1.0
 20
0.0
 30
0.0
  9
$PUCSYDIR
 10
0.0
 20
1.0
 30
0.0
  9
$PUCSORTHOREF
  2

  9
$PUCSORTHOVIEW
 70
     0
  9
$PUCSORGTOP
 10
0.0
 20
0.0
 30
0.0
  9
$PUCSORGBOTTOM
 10
0.0
 20
0.0
 30
0.0
  9
$PUCSORGLEFT
 10
0.0
 20
0.0
 30
0.0
  9
$PUCSORGRIGHT
 10
0.0
 20
0.0
 30
0.0
  9
$PUCSORGFRONT
 10
0.0
 20
0.0
 30
0.0
  9
$PUCSORGBACK
 10
0.0
 20
0.0
 30
0.0
  9
$USERI1
 70
     0
  9
$USERI2
 70
     0
  9
$USERI3
 70
     0
  9
$USERI4
 70
     0
  9
$USERI5
 70
     0
  9
$USERR1
 40
0.0
  9
$USERR2
 40
0.0
  9
$USERR3
 40
0.0
  9
$USERR4
 40
0.0
  9
$USERR5
 40
0.0
  9
$WORLDVIEW
 70
     1
  9
$SHADEDGE
 70
     3
  9
$SHADEDIF
 70
    70
  9
$TILEMODE
 70
     1
  9
$MAXACTVP
 70
    16
  9
$PINSBASE
 10
0.0
 20
0.0
 30
0.0
  9
$PLIMCHECK
 70
     0
  9
$PEXTMIN
 10
1.000000000000000E+20
 20
1.000000000000000E+20
 30
1.000000000000000E+20
  9
$PEXTMAX
 10
-1.000000000000000E+20
 20
-1.000000000000000E+20
 30
-1.000000000000000E+20
  9
$PLIMMIN
 10
0.0
 20
0.0
  9
$PLIMMAX
 10
12.0
 20
9.0
  9
$UNITMODE
 70
     0
  9
$VISRETAIN
 70
     0
  9
$PLINEGEN
 70
     0
  9
$PSLTSCALE
 70
     1
  9
$TREEDEPTH
 70
  3020
  9
$CMLSTYLE
  2
Standard
  9
$CMLJUST
 70
     0
  9
$CMLSCALE
 40
1.0
  9
$PROXYGRAPHICS
 70
     1
  9
$MEASUREMENT
 70
     0
  9
$CELWEIGHT
370
    -1
  9
$ENDCAPS
280
     0
  9
$JOINSTYLE
280
     0
  9
$LWDISPLAY
290
     0
  9
$INSUNITS
 70
     0
  9
$HYPERLINKBASE
  1

  9
$STYLESHEET
  1
monochrome.ctb
  9
$XEDIT
290
     1
  9
$CEPSNTYPE
380
     0
  9
$PSTYLEMODE
290
     1
  9
$FINGERPRINTGUID
  2
{9128225D-0CA2-11D4-8144-00C04F604D1B}
  9
$VERSIONGUID
  2
{B2F2627C-72C5-4DFC-B71A-D147EFE34ABF}
  9
$EXTNAMES
290
     1
  9
$PSVPSCALE
 40
0.0
  9
$OLESTARTUP
290
     0
  0
ENDSEC
  0
SECTION
  2
CLASSES
  0
CLASS
  1
ACDBDICTIONARYWDFLT
  2
AcDbDictionaryWithDefault
  3
AutoCAD 2000
 90
        0
280
     0
281
     0
  0
CLASS
  1
ACDBPLACEHOLDER
  2
AcDbPlaceHolder
  3
AutoCAD 2000
 90
        0
280
     0
281
     0
  0
CLASS
  1
LAYOUT
  2
AcDbLayout
  3
AutoCAD 2000
 90
        0
280
     0
281
     0
  0
CLASS
  1
DICTIONARYVAR
  2
AcDbDictionaryVar
  3
AutoCAD 2000
 90
        0
280
     0
281
     0
  0
ENDSEC
  0
SECTION
  2
TABLES
  0
TABLE
  2
VPORT
  5
8
330
0
100
AcDbSymbolTable
 70
     2
  0
VPORT
  5
36BC
330
8
100
AcDbSymbolTableRecord
100
AcDbViewportTableRecord
  2
*Active
 70
     0
 10
0.0
 20
0.0
 11
1.0
 21
1.0
 12
12.01781169154123
 22
18.40658838553515
 13
0.0
 23
0.0
 14
1.0
 24
1.0
 15
0.0
 25
0.0
 16
0.0
 26
0.0
 36
1.0
 17
0.0
 27
0.0
 37
0.0
 40
37.18881498606726
 41
1.796327212020033
 42
50.0
 43
0.0
 44
0.0
 50
0.0
 51
0.0
 71
     0
 72
   100
 73
     1
 74
     0
 75
     0
 76
     0
 77
     0
 78
     2
281
     0
 65
     1
110
0.0
120
0.0
130
0.0
111
1.0
121
0.0
131
0.0
112
0.0
122
1.0
132
0.0
 79
     0
146
0.0
  0
ENDTAB
  0
TABLE
  2
LTYPE
  5
5
330
0
100
AcDbSymbolTable
 70
     4
  0
LTYPE
  5
13
330
5
100
AcDbSymbolTableRecord
100
AcDbLinetypeTableRecord
  2
ByBlock
 70
     0
  3

 72
    65
 73
     0
 40
0.0
  0
LTYPE
  5
14
330
5
100
AcDbSymbolTableRecord
100
AcDbLinetypeTableRecord
  2
ByLayer
 70
     0
  3

 72
    65
 73
     0
 40
0.0
  0
LTYPE
  5
15
330
5
100
AcDbSymbolTableRecord
100
AcDbLinetypeTableRecord
  2
CONTINUOUS
 70
     0
  3
Solid line
 72
    65
 73
     0
 40
0.0
  0
LTYPE
  5
49
330
5
100
AcDbSymbolTableRecord
100
AcDbLinetypeTableRecord
  2
HIDDEN
 70
     0
  3
_ _ _ _ _ _ _ _ _ _ _ _ _ _ _ _ _ _ _ _ _ _ _
 72
    65
 73
     2
 40
0.375
 49
0.25
 74
     0
 49
-0.125
 74
     0
  0
LTYPE
  5
4A
330
5
100
AcDbSymbolTableRecord
100
AcDbLinetypeTableRecord
  2
PHANTOM
 70
     0
  3
_____ _ _ _____ _ _ _____ _ _ _____ _ _ ____
 72
    65
 73
     6
 40
2.5
 49
1.25
 74
     0
 49
-0.25
 74
     0
 49
0.25
 74
     0
 49
-0.25
 74
     0
 49
0.25
 74
     0
 49
-0.25
 74
     0
  0
LTYPE
  5
4B
330
5
100
AcDbSymbolTableRecord
100
AcDbLinetypeTableRecord
  2
CENTER
 70
     0
  3
____ _ ____ _ ____ _ ____ _ ____ _ ____ _ ____
 72
    65
 73
     4
 40
2.0
 49
1.25
 74
     0
 49
-0.25
 74
     0
 49
0.25
 74
     0
 49
-0.25
 74
     0
  0
ENDTAB
  0
TABLE
  2
LAYER
  5
2
330
0
100
AcDbSymbolTable
 70
    10
  0
LAYER
  5
10
330
2
100
AcDbSymbolTableRecord
100
AcDbLayerTableRecord
  2
0
 70
     0
 62
     7
  6
CONTINUOUS
370
    -3
390
F
  0
LAYER
  5
4F
330
2
100
AcDbSymbolTableRecord
100
AcDbLayerTableRecord
  2
OBJECT
 70
     0
 62
     7
  6
CONTINUOUS
370
    -3
390
F
  0
LAYER
  5
50
330
2
100
AcDbSymbolTableRecord
100
AcDbLayerTableRecord
  2
DIM
 70
     0
 62
     2
  6
CONTINUOUS
370
    -3
390
F
  0
LAYER
  5
51
330
2
100
AcDbSymbolTableRecord
100
AcDbLayerTableRecord
  2
HIDDEN
 70
     0
 62
     6
  6
HIDDEN
370
    -3
390
F
  0
LAYER
  5
52
330
2
100
AcDbSymbolTableRecord
100
AcDbLayerTableRecord
  2
BEND
 70
     0
 62
     4
  6
PHANTOM
370
    -3
390
F
  0
LAYER
  5
53
330
2
100
AcDbSymbolTableRecord
100
AcDbLayerTableRecord
  2
TEXT
 70
     0
 62
     1
  6
CONTINUOUS
370
    -3
390
F
  0
LAYER
  5
54
330
2
100
AcDbSymbolTableRecord
100
AcDbLayerTableRecord
  2
TITLE
 70
     0
 62
     8
  6
CONTINUOUS
370
    -3
390
F
  0
LAYER
  5
55
330
2
100
AcDbSymbolTableRecord
100
AcDbLayerTableRecord
  2
CENTER
 70
     0
 62
     3
  6
CENTER
370
    -3
390
F
  0
LAYER
  5
56
330
2
100
AcDbSymbolTableRecord
100
AcDbLayerTableRecord
  2
DEFPOINTS
 70
     0
 62
     7
  6
CONTINUOUS
290
     0
370
    -3
390
F
  0
LAYER
  5
1D25
330
2
100
AcDbSymbolTableRecord
100
AcDbLayerTableRecord
  2
Cover
 70
     0
 62
     5
  6
CONTINUOUS
370
    -3
390
F
  0
ENDTAB
  0
TABLE
  2
STYLE
  5
3
330
0
100
AcDbSymbolTable
 70
     1
  0
STYLE
  5
11
330
3
100
AcDbSymbolTableRecord
100
AcDbTextStyleTableRecord
  2
TXT
 70
     0
 40
0.0
 41
0.75
 50
0.0
 71
     0
 42
0.2
  3
txt.shx
  4

  0
ENDTAB
  0
TABLE
  2
VIEW
  5
6
330
0
100
AcDbSymbolTable
 70
     0
  0
ENDTAB
  0
TABLE
  2
UCS
  5
7
330
0
100
AcDbSymbolTable
 70
     0
  0
ENDTAB
  0
TABLE
  2
APPID
  5
9
330
0
100
AcDbSymbolTable
 70
     2
  0
APPID
  5
12
330
9
100
AcDbSymbolTableRecord
100
AcDbRegAppTableRecord
  2
ACAD
 70
     0
  0
APPID
  5
F5D
330
9
100
AcDbSymbolTableRecord
100
AcDbRegAppTableRecord
  2
DCO15
 70
     0
  0
ENDTAB
  0
TABLE
  2
DIMSTYLE
  5
A
330
0
100
AcDbSymbolTable
 70
     2
100
AcDbDimStyleTable
 71
     2
340
F78
340
4E
  0
DIMSTYLE
105
4E
102
{ACAD_REACTORS
330
35C
330
2FD
330
2FC
330
760
330
75F
330
75B
330
75A
330
75C
330
75E
330
75D
330
755
330
292
330
291
330
2DE
330
756
330
323
330
758
330
AD9
330
AD8
330
ADA
330
ADB
330
300
330
A7A
330
2FE
330
301
330
2086
330
2094
330
20D4
330
20F0
330
2131
330
2140
330
216E
102
}
330
A
100
AcDbSymbolTableRecord
100
AcDbDimStyleTableRecord
  2
23NSTD
 70
     0
 40
2.25
 42
0.063
 44
0.093
140
0.125
271
     3
272
     3
289
     1
340
11
  0
DIMSTYLE
105
F78
330
A
100
AcDbSymbolTableRecord
100
AcDbDimStyleTableRecord
  2
23NSTDI
 70
     0
 40
2.25
 42
0.093
 44
0.093
140
0.125
174
     1
271
     3
272
     3
340
11
  0
ENDTAB
  0
TABLE
  2
BLOCK_RECORD
  5
1
330
0
100
AcDbSymbolTable
 70
    33
  0
BLOCK_RECORD
  5
1E
330
1
100
AcDbSymbolTableRecord
100
AcDbBlockTableRecord
  2
*Model_Space
340
21
  0
BLOCK_RECORD
  5
1A
330
1
100
AcDbSymbolTableRecord
100
AcDbBlockTableRecord
  2
*Paper_Space
340
1D
  0
BLOCK_RECORD
  5
7CD
330
1
100
AcDbSymbolTableRecord
100
AcDbBlockTableRecord
  2
*D0
340
0
  0
BLOCK_RECORD
  5
7DA
330
1
100
AcDbSymbolTableRecord
100
AcDbBlockTableRecord
  2
*D1
340
0
  0
BLOCK_RECORD
  5
80E
330
1
100
AcDbSymbolTableRecord
100
AcDbBlockTableRecord
  2
*D2
340
0
  0
BLOCK_RECORD
  5
81B
330
1
100
AcDbSymbolTableRecord
100
AcDbBlockTableRecord
  2
*D3
340
0
  0
BLOCK_RECORD
  5
828
330
1
100
AcDbSymbolTableRecord
100
AcDbBlockTableRecord
  2
*D4
340
0
  0
BLOCK_RECORD
  5
835
330
1
100
AcDbSymbolTableRecord
100
AcDbBlockTableRecord
  2
*D5
340
0
  0
BLOCK_RECORD
  5
842
330
1
100
AcDbSymbolTableRecord
100
AcDbBlockTableRecord
  2
*D6
340
0
  0
BLOCK_RECORD
  5
84F
330
1
100
AcDbSymbolTableRecord
100
AcDbBlockTableRecord
  2
*D7
340
0
  0
BLOCK_RECORD
  5
85C
330
1
100
AcDbSymbolTableRecord
100
AcDbBlockTableRecord
  2
*D8
340
0
  0
BLOCK_RECORD
  5
86A
330
1
100
AcDbSymbolTableRecord
100
AcDbBlockTableRecord
  2
*D9
340
0
  0
BLOCK_RECORD
  5
877
330
1
100
AcDbSymbolTableRecord
100
AcDbBlockTableRecord
  2
*D10
340
0
  0
BLOCK_RECORD
  5
884
330
1
100
AcDbSymbolTableRecord
100
AcDbBlockTableRecord
  2
*D11
340
0
  0
BLOCK_RECORD
  5
892
330
1
100
AcDbSymbolTableRecord
100
AcDbBlockTableRecord
  2
*D12
340
0
  0
BLOCK_RECORD
  5
89F
330
1
100
AcDbSymbolTableRecord
100
AcDbBlockTableRecord
  2
*D13
340
0
  0
BLOCK_RECORD
  5
8AC
330
1
100
AcDbSymbolTableRecord
100
AcDbBlockTableRecord
  2
*D14
340
0
  0
BLOCK_RECORD
  5
8BA
330
1
100
AcDbSymbolTableRecord
100
AcDbBlockTableRecord
  2
*D15
340
0
  0
BLOCK_RECORD
  5
8C8
330
1
100
AcDbSymbolTableRecord
100
AcDbBlockTableRecord
  2
*D16
340
0
  0
BLOCK_RECORD
  5
8D6
330
1
100
AcDbSymbolTableRecord
100
AcDbBlockTableRecord
  2
*D17
340
0
  0
BLOCK_RECORD
  5
8E3
330
1
100
AcDbSymbolTableRecord
100
AcDbBlockTableRecord
  2
*D18
340
0
  0
BLOCK_RECORD
  5
8F1
330
1
100
AcDbSymbolTableRecord
100
AcDbBlockTableRecord
  2
*D19
340
0
  0
BLOCK_RECORD
  5
A7B
330
1
100
AcDbSymbolTableRecord
100
AcDbBlockTableRecord
  2
*D20
340
0
  0
BLOCK_RECORD
  5
ADC
330
1
100
AcDbSymbolTableRecord
100
AcDbBlockTableRecord
  2
*D21
340
0
  0
BLOCK_RECORD
  5
AE9
330
1
100
AcDbSymbolTableRecord
100
AcDbBlockTableRecord
  2
*D22
340
0
  0
BLOCK_RECORD
  5
AF6
330
1
100
AcDbSymbolTableRecord
100
AcDbBlockTableRecord
  2
*D23
340
0
  0
BLOCK_RECORD
  5
B03
330
1
100
AcDbSymbolTableRecord
100
AcDbBlockTableRecord
  2
*D24
340
0
  0
BLOCK_RECORD
  5
2087
330
1
100
AcDbSymbolTableRecord
100
AcDbBlockTableRecord
  2
*D25
340
0
  0
BLOCK_RECORD
  5
2095
330
1
100
AcDbSymbolTableRecord
100
AcDbBlockTableRecord
  2
*D26
340
0
  0
BLOCK_RECORD
  5
20D5
330
1
100
AcDbSymbolTableRecord
100
AcDbBlockTableRecord
  2
*D27
340
0
  0
BLOCK_RECORD
  5
20F1
330
1
100
AcDbSymbolTableRecord
100
AcDbBlockTableRecord
  2
*D28
340
0
  0
BLOCK_RECORD
  5
2132
330
1
100
AcDbSymbolTableRecord
100
AcDbBlockTableRecord
  2
*D29
340
0
  0
BLOCK_RECORD
  5
2141
330
1
100
AcDbSymbolTableRecord
100
AcDbBlockTableRecord
  2
*D30
340
0
  0
BLOCK_RECORD
  5
216F
330
1
100
AcDbSymbolTableRecord
100
AcDbBlockTableRecord
  2
*D31
340
0
  0
BLOCK_RECORD
  5
3681
330
1
100
AcDbSymbolTableRecord
100
AcDbBlockTableRecord
  2
HB
340
0
102
{BLKREFS
331
36A4
102
}
  0
ENDTAB
  0
ENDSEC
  0
SECTION
  2
BLOCKS
  0
BLOCK
  5
59
330
1E
100
AcDbEntity
  8
0
100
AcDbBlockBegin
  2
*Model_Space
 70
     0
 10
0.0
 20
0.0
 30
0.0
  3
*Model_Space
  1

  0
ENDBLK
  5
5A
330
1E
100
AcDbEntity
  8
0
100
AcDbBlockEnd
  0
BLOCK
  5
57
330
1A
100
AcDbEntity
 67
     1
  8
0
100
AcDbBlockBegin
  2
*Paper_Space
 70
     0
 10
0.0
 20
0.0
 30
0.0
  3
*Paper_Space
  1

  0
ENDBLK
  5
58
330
1A
100
AcDbEntity
 67
     1
  8
0
100
AcDbBlockEnd
  0
BLOCK
  5
7D8
330
7CD
100
AcDbEntity
  8
0
100
AcDbBlockBegin
  2
*D0
 70
     1
 10
0.0
 20
0.0
 30
0.0
  3
*D0
  1

  0
LINE
  5
35BD
330
7CD
100
AcDbEntity
  8
DIM
 62
     0
370
    -2
100
AcDbLine
 10
9.421343666509688
 20
14.04578971688855
 30
0.0
 11
10.78458128743352
 21
14.04578971688855
 31
0.0
  0
LINE
  5
35BE
330
7CD
100
AcDbEntity
  8
DIM
 62
     0
370
    -2
100
AcDbLine
 10
9.421343666509688
 20
9.685789716888557
 30
0.0
 11
10.78458128743352
 21
9.685789716888557
 31
0.0
  0
LINE
  5
35BF
330
7CD
100
AcDbEntity
  8
DIM
 62
     0
370
    -2
100
AcDbLine
 10
10.57533128743352
 20
13.64078971688855
 30
0.0
 11
10.57533128743352
 21
12.20891471688855
 31
0.0
  0
LINE
  5
35C0
330
7CD
100
AcDbEntity
  8
DIM
 62
     0
370
    -2
100
AcDbLine
 10
10.57533128743352
 20
10.09078971688855
 30
0.0
 11
10.57533128743352
 21
11.52266471688855
 31
0.0
  0
SOLID
  5
35C1
330
7CD
100
AcDbEntity
  8
DIM
 62
     0
100
AcDbTrace
 10
10.50783128743352
 20
13.64078971688855
 30
0.0
 11
10.64283128743352
 21
13.64078971688855
 31
0.0
 12
10.57533128743352
 22
14.04578971688855
 32
0.0
 13
10.57533128743352
 23
14.04578971688855
 33
0.0
  0
SOLID
  5
35C2
330
7CD
100
AcDbEntity
  8
DIM
 62
     0
100
AcDbTrace
 10
10.50783128743351
 20
10.09078971688855
 30
0.0
 11
10.64283128743352
 21
10.09078971688855
 31
0.0
 12
10.57533128743352
 22
9.685789716888557
 32
0.0
 13
10.57533128743352
 23
9.685789716888557
 33
0.0
  0
MTEXT
  5
35C3
330
7CD
100
AcDbEntity
  8
DIM
 62
     0
100
AcDbMText
 10
10.57533128743351
 20
11.86578971688855
 30
0.0
 40
0.28125
 41
0.0
 71
     5
 72
     1
  1
\A1;E
 73
     1
 44
1.0
  0
POINT
  5
35C4
330
7CD
100
AcDbEntity
  8
DEFPOINTS
 62
     0
100
AcDbPoint
 10
9.279593666509688
 20
14.04578971688855
 30
0.0
  0
POINT
  5
35C5
330
7CD
100
AcDbEntity
  8
DEFPOINTS
 62
     0
100
AcDbPoint
 10
9.279593666509688
 20
9.685789716888557
 30
0.0
  0
POINT
  5
35C6
330
7CD
100
AcDbEntity
  8
DEFPOINTS
 62
     0
100
AcDbPoint
 10
10.57533128743352
 20
9.685789716888557
 30
0.0
  0
ENDBLK
  5
7D9
330
7CD
100
AcDbEntity
  8
0
100
AcDbBlockEnd
  0
BLOCK
  5
7E5
330
7DA
100
AcDbEntity
  8
0
100
AcDbBlockBegin
  2
*D1
 70
     1
 10
0.0
 20
0.0
 30
0.0
  3
*D1
  1

  0
LINE
  5
35B3
330
7DA
100
AcDbEntity
  8
DIM
 62
     0
370
    -2
100
AcDbLine
 10
9.428843666509687
 20
14.24078971688855
 30
0.0
 11
11.36775230654146
 21
14.24078971688855
 31
0.0
  0
LINE
  5
35B4
330
7DA
100
AcDbEntity
  8
DIM
 62
     0
370
    -2
100
AcDbLine
 10
9.428843666509687
 20
9.490789716888556
 30
0.0
 11
11.36775230654146
 21
9.490789716888556
 31
0.0
  0
LINE
  5
35B5
330
7DA
100
AcDbEntity
  8
DIM
 62
     0
370
    -2
100
AcDbLine
 10
11.15850230654146
 20
13.83578971688855
 30
0.0
 11
11.15850230654146
 21
12.20891471688855
 31
0.0
  0
LINE
  5
35B6
330
7DA
100
AcDbEntity
  8
DIM
 62
     0
370
    -2
100
AcDbLine
 10
11.15850230654146
 20
9.895789716888556
 30
0.0
 11
11.15850230654146
 21
11.52266471688855
 31
0.0
  0
SOLID
  5
35B7
330
7DA
100
AcDbEntity
  8
DIM
 62
     0
100
AcDbTrace
 10
11.09100230654146
 20
13.83578971688855
 30
0.0
 11
11.22600230654146
 21
13.83578971688855
 31
0.0
 12
11.15850230654146
 22
14.24078971688855
 32
0.0
 13
11.15850230654146
 23
14.24078971688855
 33
0.0
  0
SOLID
  5
35B8
330
7DA
100
AcDbEntity
  8
DIM
 62
     0
100
AcDbTrace
 10
11.09100230654146
 20
9.895789716888556
 30
0.0
 11
11.22600230654146
 21
9.895789716888556
 31
0.0
 12
11.15850230654146
 22
9.490789716888556
 32
0.0
 13
11.15850230654146
 23
9.490789716888556
 33
0.0
  0
MTEXT
  5
35B9
330
7DA
100
AcDbEntity
  8
DIM
 62
     0
100
AcDbMText
 10
11.15850230654146
 20
11.86578971688855
 30
0.0
 40
0.28125
 41
0.0
 71
     5
 72
     1
  1
\A1;A
 73
     1
 44
1.0
  0
POINT
  5
35BA
330
7DA
100
AcDbEntity
  8
DEFPOINTS
 62
     0
100
AcDbPoint
 10
9.287093666509687
 20
14.24078971688855
 30
0.0
  0
POINT
  5
35BB
330
7DA
100
AcDbEntity
  8
DEFPOINTS
 62
     0
100
AcDbPoint
 10
9.287093666509687
 20
9.490789716888556
 30
0.0
  0
POINT
  5
35BC
330
7DA
100
AcDbEntity
  8
DEFPOINTS
 62
     0
100
AcDbPoint
 10
11.15850230654146
 20
9.490789716888556
 30
0.0
  0
ENDBLK
  5
7E6
330
7DA
100
AcDbEntity
  8
0
100
AcDbBlockEnd
  0
BLOCK
  5
819
330
80E
100
AcDbEntity
  8
0
100
AcDbBlockBegin
  2
*D2
 70
     1
 10
0.0
 20
0.0
 30
0.0
  3
*D2
  1

  0
LINE
  5
35C7
330
80E
100
AcDbEntity
  8
DIM
 62
     0
370
    -2
100
AcDbLine
 10
9.421343666509688
 20
9.685789716888557
 30
0.0
 11
10.18172712517489
 21
9.685789716888557
 31
0.0
  0
LINE
  5
35C8
330
80E
100
AcDbEntity
  8
DIM
 62
     0
370
    -2
100
AcDbLine
 10
9.421343666509688
 20
11.86578971688856
 30
0.0
 11
10.18172712517489
 21
11.86578971688856
 31
0.0
  0
LINE
  5
35C9
330
80E
100
AcDbEntity
  8
DIM
 62
     0
370
    -2
100
AcDbLine
 10
9.972477125174894
 20
10.09078971688855
 30
0.0
 11
9.972477125174894
 21
10.43266471688855
 31
0.0
  0
LINE
  5
35CA
330
80E
100
AcDbEntity
  8
DIM
 62
     0
370
    -2
100
AcDbLine
 10
9.972477125174894
 20
11.46078971688856
 30
0.0
 11
9.972477125174894
 21
11.11891471688855
 31
0.0
  0
SOLID
  5
35CB
330
80E
100
AcDbEntity
  8
DIM
 62
     0
100
AcDbTrace
 10
9.904977125174893
 20
10.09078971688855
 30
0.0
 11
10.03997712517489
 21
10.09078971688855
 31
0.0
 12
9.972477125174894
 22
9.685789716888557
 32
0.0
 13
9.972477125174894
 23
9.685789716888557
 33
0.0
  0
SOLID
  5
35CC
330
80E
100
AcDbEntity
  8
DIM
 62
     0
100
AcDbTrace
 10
9.904977125174893
 20
11.46078971688856
 30
0.0
 11
10.03997712517489
 21
11.46078971688856
 31
0.0
 12
9.972477125174894
 22
11.86578971688856
 32
0.0
 13
9.972477125174894
 23
11.86578971688856
 33
0.0
  0
MTEXT
  5
35CD
330
80E
100
AcDbEntity
  8
DIM
 62
     0
100
AcDbMText
 10
9.972477125174892
 20
10.77578971688856
 30
0.0
 40
0.28125
 41
0.0
 71
     5
 72
     1
  1
\A1;G
 73
     1
 44
1.0
  0
POINT
  5
35CE
330
80E
100
AcDbEntity
  8
DEFPOINTS
 62
     0
100
AcDbPoint
 10
9.279593666509688
 20
9.685789716888557
 30
0.0
  0
POINT
  5
35CF
330
80E
100
AcDbEntity
  8
DEFPOINTS
 62
     0
100
AcDbPoint
 10
9.279593666509688
 20
11.86578971688856
 30
0.0
  0
POINT
  5
35D0
330
80E
100
AcDbEntity
  8
DEFPOINTS
 62
     0
100
AcDbPoint
 10
9.972477125174894
 20
11.86578971688856
 30
0.0
  0
ENDBLK
  5
81A
330
80E
100
AcDbEntity
  8
0
100
AcDbBlockEnd
  0
BLOCK
  5
826
330
81B
100
AcDbEntity
  8
0
100
AcDbBlockBegin
  2
*D3
 70
     1
 10
0.0
 20
0.0
 30
0.0
  3
*D3
  1

  0
LINE
  5
3554
330
81B
100
AcDbEntity
  8
DIM
 62
     0
370
    -2
100
AcDbLine
 10
9.421343666509693
 20
24.03941749307785
 30
0.0
 11
11.13666636547719
 21
24.03941749307785
 31
0.0
  0
LINE
  5
3555
330
81B
100
AcDbEntity
  8
DIM
 62
     0
370
    -2
100
AcDbLine
 10
9.421343666509693
 20
28.39941749307784
 30
0.0
 11
11.1366663654772
 21
28.39941749307784
 31
0.0
  0
LINE
  5
3556
330
81B
100
AcDbEntity
  8
DIM
 62
     0
370
    -2
100
AcDbLine
 10
10.92741636547719
 20
24.44441749307785
 30
0.0
 11
10.92741636547719
 21
25.87629249307784
 31
0.0
  0
LINE
  5
3557
330
81B
100
AcDbEntity
  8
DIM
 62
     0
370
    -2
100
AcDbLine
 10
10.92741636547719
 20
27.99441749307784
 30
0.0
 11
10.92741636547719
 21
26.56254249307784
 31
0.0
  0
SOLID
  5
3558
330
81B
100
AcDbEntity
  8
DIM
 62
     0
100
AcDbTrace
 10
10.85991636547719
 20
24.44441749307785
 30
0.0
 11
10.99491636547719
 21
24.44441749307785
 31
0.0
 12
10.92741636547719
 22
24.03941749307785
 32
0.0
 13
10.92741636547719
 23
24.03941749307785
 33
0.0
  0
SOLID
  5
3559
330
81B
100
AcDbEntity
  8
DIM
 62
     0
100
AcDbTrace
 10
10.85991636547719
 20
27.99441749307784
 30
0.0
 11
10.99491636547719
 21
27.99441749307784
 31
0.0
 12
10.9274163654772
 22
28.39941749307784
 32
0.0
 13
10.9274163654772
 23
28.39941749307784
 33
0.0
  0
MTEXT
  5
355A
330
81B
100
AcDbEntity
  8
DIM
 62
     0
100
AcDbMText
 10
10.92741636547719
 20
26.21941749307785
 30
0.0
 40
0.28125
 41
0.0
 71
     5
 72
     1
  1
\A1;E
 73
     1
 44
1.0
  0
POINT
  5
355B
330
81B
100
AcDbEntity
  8
DEFPOINTS
 62
     0
100
AcDbPoint
 10
9.279593666509693
 20
24.03941749307785
 30
0.0
  0
POINT
  5
355C
330
81B
100
AcDbEntity
  8
DEFPOINTS
 62
     0
100
AcDbPoint
 10
9.279593666509693
 20
28.39941749307784
 30
0.0
  0
POINT
  5
355D
330
81B
100
AcDbEntity
  8
DEFPOINTS
 62
     0
100
AcDbPoint
 10
10.9274163654772
 20
28.39941749307784
 30
0.0
  0
ENDBLK
  5
827
330
81B
100
AcDbEntity
  8
0
100
AcDbBlockEnd
  0
BLOCK
  5
833
330
828
100
AcDbEntity
  8
0
100
AcDbBlockBegin
  2
*D4
 70
     1
 10
0.0
 20
0.0
 30
0.0
  3
*D4
  1

  0
LINE
  5
354A
330
828
100
AcDbEntity
  8
DIM
 62
     0
370
    -2
100
AcDbLine
 10
10.03984366650969
 20
28.59441749307785
 30
0.0
 11
11.70870270292463
 21
28.59441749307785
 31
0.0
  0
LINE
  5
354B
330
828
100
AcDbEntity
  8
DIM
 62
     0
370
    -2
100
AcDbLine
 10
10.03984366650969
 20
23.84441749307784
 30
0.0
 11
11.70870270292463
 21
23.84441749307784
 31
0.0
  0
LINE
  5
354C
330
828
100
AcDbEntity
  8
DIM
 62
     0
370
    -2
100
AcDbLine
 10
11.49945270292463
 20
28.18941749307784
 30
0.0
 11
11.49945270292463
 21
26.56254249307784
 31
0.0
  0
LINE
  5
354D
330
828
100
AcDbEntity
  8
DIM
 62
     0
370
    -2
100
AcDbLine
 10
11.49945270292463
 20
24.24941749307785
 30
0.0
 11
11.49945270292463
 21
25.87629249307784
 31
0.0
  0
SOLID
  5
354E
330
828
100
AcDbEntity
  8
DIM
 62
     0
100
AcDbTrace
 10
11.43195270292463
 20
28.18941749307784
 30
0.0
 11
11.56695270292463
 21
28.18941749307784
 31
0.0
 12
11.49945270292463
 22
28.59441749307785
 32
0.0
 13
11.49945270292463
 23
28.59441749307785
 33
0.0
  0
SOLID
  5
354F
330
828
100
AcDbEntity
  8
DIM
 62
     0
100
AcDbTrace
 10
11.43195270292463
 20
24.24941749307785
 30
0.0
 11
11.56695270292463
 21
24.24941749307785
 31
0.0
 12
11.49945270292463
 22
23.84441749307784
 32
0.0
 13
11.49945270292463
 23
23.84441749307784
 33
0.0
  0
MTEXT
  5
3550
330
828
100
AcDbEntity
  8
DIM
 62
     0
100
AcDbMText
 10
11.49945270292463
 20
26.21941749307785
 30
0.0
 40
0.28125
 41
0.0
 71
     5
 72
     1
  1
\A1;A
 73
     1
 44
1.0
  0
POINT
  5
3551
330
828
100
AcDbEntity
  8
DEFPOINTS
 62
     0
100
AcDbPoint
 10
9.898093666509693
 20
28.59441749307785
 30
0.0
  0
POINT
  5
3552
330
828
100
AcDbEntity
  8
DEFPOINTS
 62
     0
100
AcDbPoint
 10
9.898093666509693
 20
23.84441749307784
 30
0.0
  0
POINT
  5
3553
330
828
100
AcDbEntity
  8
DEFPOINTS
 62
     0
100
AcDbPoint
 10
11.49945270292463
 20
23.84441749307784
 30
0.0
  0
ENDBLK
  5
834
330
828
100
AcDbEntity
  8
0
100
AcDbBlockEnd
  0
BLOCK
  5
840
330
835
100
AcDbEntity
  8
0
100
AcDbBlockBegin
  2
*D5
 70
     1
 10
0.0
 20
0.0
 30
0.0
  3
*D5
  1

  0
LINE
  5
362D
330
835
100
AcDbEntity
  8
DIM
 62
     0
370
    -2
100
AcDbLine
 10
4.724593666509688
 20
28.18366749307784
 30
0.0
 11
4.724593666509688
 21
30.23066749307782
 31
0.0
  0
LINE
  5
362E
330
835
100
AcDbEntity
  8
DIM
 62
     0
370
    -2
100
AcDbLine
 10
9.474593666509688
 20
28.18366749307784
 30
0.0
 11
9.474593666509688
 21
30.23066749307782
 31
0.0
  0
LINE
  5
362F
330
835
100
AcDbEntity
  8
DIM
 62
     0
370
    -2
100
AcDbLine
 10
5.129593666509689
 20
30.02141749307782
 30
0.0
 11
6.826781166509689
 21
30.02141749307782
 31
0.0
  0
LINE
  5
3630
330
835
100
AcDbEntity
  8
DIM
 62
     0
370
    -2
100
AcDbLine
 10
9.069593666509689
 20
30.02141749307782
 30
0.0
 11
7.372406166509688
 21
30.02141749307782
 31
0.0
  0
SOLID
  5
3631
330
835
100
AcDbEntity
  8
DIM
 62
     0
100
AcDbTrace
 10
5.129593666509689
 20
30.08891749307782
 30
0.0
 11
5.129593666509689
 21
29.95391749307783
 31
0.0
 12
4.724593666509688
 22
30.02141749307782
 32
0.0
 13
4.724593666509688
 23
30.02141749307782
 33
0.0
  0
SOLID
  5
3632
330
835
100
AcDbEntity
  8
DIM
 62
     0
100
AcDbTrace
 10
9.069593666509689
 20
30.08891749307782
 30
0.0
 11
9.069593666509689
 21
29.95391749307783
 31
0.0
 12
9.474593666509688
 22
30.02141749307782
 32
0.0
 13
9.474593666509688
 23
30.02141749307782
 33
0.0
  0
MTEXT
  5
3633
330
835
100
AcDbEntity
  8
DIM
 62
     0
100
AcDbMText
 10
7.099593666509688
 20
30.02141749307782
 30
0.0
 40
0.28125
 41
0.0
 71
     5
 72
     1
  1
\A1;B
 73
     1
 44
1.0
  0
POINT
  5
3634
330
835
100
AcDbEntity
  8
DEFPOINTS
 62
     0
100
AcDbPoint
 10
4.724593666509688
 20
28.04191749307785
 30
0.0
  0
POINT
  5
3635
330
835
100
AcDbEntity
  8
DEFPOINTS
 62
     0
100
AcDbPoint
 10
9.474593666509688
 20
28.04191749307785
 30
0.0
  0
POINT
  5
3636
330
835
100
AcDbEntity
  8
DEFPOINTS
 62
     0
100
AcDbPoint
 10
9.474593666509688
 20
30.02141749307782
 30
0.0
  0
ENDBLK
  5
841
330
835
100
AcDbEntity
  8
0
100
AcDbBlockEnd
  0
BLOCK
  5
84D
330
842
100
AcDbEntity
  8
0
100
AcDbBlockBegin
  2
*D6
 70
     1
 10
0.0
 20
0.0
 30
0.0
  3
*D6
  1

  0
LINE
  5
3619
330
842
100
AcDbEntity
  8
DIM
 62
     0
370
    -2
100
AcDbLine
 10
4.919593666509688
 20
28.54116749307785
 30
0.0
 11
4.919593666509688
 21
29.70291749307785
 31
0.0
  0
LINE
  5
361A
330
842
100
AcDbEntity
  8
DIM
 62
     0
370
    -2
100
AcDbLine
 10
4.724593666509688
 20
28.18366749307784
 30
0.0
 11
4.724593666509688
 21
29.70291749307785
 31
0.0
  0
LINE
  5
361B
330
842
100
AcDbEntity
  8
DIM
 62
     0
370
    -2
100
AcDbLine
 10
5.324593666509688
 20
29.49366749307785
 30
0.0
 11
5.729593666509687
 21
29.49366749307785
 31
0.0
  0
LINE
  5
361C
330
842
100
AcDbEntity
  8
DIM
 62
     0
370
    -2
100
AcDbLine
 10
4.319593666509688
 20
29.49366749307785
 30
0.0
 11
3.914593666509688
 21
29.49366749307785
 31
0.0
  0
SOLID
  5
361D
330
842
100
AcDbEntity
  8
DIM
 62
     0
100
AcDbTrace
 10
5.324593666509688
 20
29.56116749307785
 30
0.0
 11
5.324593666509688
 21
29.42616749307785
 31
0.0
 12
4.919593666509688
 22
29.49366749307785
 32
0.0
 13
4.919593666509688
 23
29.49366749307785
 33
0.0
  0
SOLID
  5
361E
330
842
100
AcDbEntity
  8
DIM
 62
     0
100
AcDbTrace
 10
4.319593666509688
 20
29.56116749307785
 30
0.0
 11
4.319593666509688
 21
29.42616749307785
 31
0.0
 12
4.724593666509688
 22
29.49366749307785
 32
0.0
 13
4.724593666509688
 23
29.49366749307785
 33
0.0
  0
MTEXT
  5
361F
330
842
100
AcDbEntity
  8
DIM
 62
     0
100
AcDbMText
 10
3.641781166509688
 20
29.49366749307785
 30
0.0
 40
0.28125
 41
0.0
 71
     5
 72
     1
  1
\A1;L
 73
     1
 44
1.0
  0
POINT
  5
3620
330
842
100
AcDbEntity
  8
DEFPOINTS
 62
     0
100
AcDbPoint
 10
4.919593666509688
 20
28.39941749307785
 30
0.0
  0
POINT
  5
3621
330
842
100
AcDbEntity
  8
DEFPOINTS
 62
     0
100
AcDbPoint
 10
4.724593666509688
 20
28.04191749307785
 30
0.0
  0
POINT
  5
3622
330
842
100
AcDbEntity
  8
DEFPOINTS
 62
     0
100
AcDbPoint
 10
4.724593666509688
 20
29.49366749307785
 30
0.0
  0
ENDBLK
  5
84E
330
842
100
AcDbEntity
  8
0
100
AcDbBlockEnd
  0
BLOCK
  5
85A
330
84F
100
AcDbEntity
  8
0
100
AcDbBlockBegin
  2
*D7
 70
     1
 10
0.0
 20
0.0
 30
0.0
  3
*D7
  1

  0
LINE
  5
3637
330
84F
100
AcDbEntity
  8
DIM
 62
     0
370
    -2
100
AcDbLine
 10
4.919593666509688
 20
28.54116749307785
 30
0.0
 11
4.919593666509688
 21
29.70291749307785
 31
0.0
  0
LINE
  5
3638
330
84F
100
AcDbEntity
  8
DIM
 62
     0
370
    -2
100
AcDbLine
 10
9.279593666509688
 20
28.54116749307784
 30
0.0
 11
9.279593666509688
 21
29.70291749307785
 31
0.0
  0
LINE
  5
3639
330
84F
100
AcDbEntity
  8
DIM
 62
     0
370
    -2
100
AcDbLine
 10
5.324593666509688
 20
29.49366749307785
 30
0.0
 11
6.826781166509689
 21
29.49366749307785
 31
0.0
  0
LINE
  5
363A
330
84F
100
AcDbEntity
  8
DIM
 62
     0
370
    -2
100
AcDbLine
 10
8.874593666509689
 20
29.49366749307785
 30
0.0
 11
7.372406166509688
 21
29.49366749307785
 31
0.0
  0
SOLID
  5
363B
330
84F
100
AcDbEntity
  8
DIM
 62
     0
100
AcDbTrace
 10
5.324593666509688
 20
29.56116749307785
 30
0.0
 11
5.324593666509688
 21
29.42616749307785
 31
0.0
 12
4.919593666509688
 22
29.49366749307785
 32
0.0
 13
4.919593666509688
 23
29.49366749307785
 33
0.0
  0
SOLID
  5
363C
330
84F
100
AcDbEntity
  8
DIM
 62
     0
100
AcDbTrace
 10
8.874593666509689
 20
29.56116749307785
 30
0.0
 11
8.874593666509689
 21
29.42616749307785
 31
0.0
 12
9.279593666509688
 22
29.49366749307785
 32
0.0
 13
9.279593666509688
 23
29.49366749307785
 33
0.0
  0
MTEXT
  5
363D
330
84F
100
AcDbEntity
  8
DIM
 62
     0
100
AcDbMText
 10
7.099593666509688
 20
29.49366749307785
 30
0.0
 40
0.28125
 41
0.0
 71
     5
 72
     1
  1
\A1;F
 73
     1
 44
1.0
  0
POINT
  5
363E
330
84F
100
AcDbEntity
  8
DEFPOINTS
 62
     0
100
AcDbPoint
 10
4.919593666509688
 20
28.39941749307785
 30
0.0
  0
POINT
  5
363F
330
84F
100
AcDbEntity
  8
DEFPOINTS
 62
     0
100
AcDbPoint
 10
9.279593666509688
 20
28.39941749307784
 30
0.0
  0
POINT
  5
3640
330
84F
100
AcDbEntity
  8
DEFPOINTS
 62
     0
100
AcDbPoint
 10
9.279593666509688
 20
29.49366749307785
 30
0.0
  0
ENDBLK
  5
85B
330
84F
100
AcDbEntity
  8
0
100
AcDbBlockEnd
  0
BLOCK
  5
868
330
85C
100
AcDbEntity
  8
0
100
AcDbBlockBegin
  2
*D8
 70
     1
 10
0.0
 20
0.0
 30
0.0
  3
*D8
  1

  0
LINE
  5
35DC
330
85C
100
AcDbEntity
  8
DIM
 62
     0
370
    -2
100
AcDbLine
 10
9.421343666509688
 20
28.39941749307786
 30
0.0
 11
11.1366663654772
 21
28.39941749307786
 31
0.0
  0
LINE
  5
35DD
330
85C
100
AcDbEntity
  8
DIM
 62
     0
370
    -2
100
AcDbLine
 10
10.03984366650968
 20
28.59441749307785
 30
0.0
 11
11.1366663654772
 21
28.59441749307785
 31
0.0
  0
LINE
  5
35DE
330
85C
100
AcDbEntity
  8
DIM
 62
     0
370
    -2
100
AcDbLine
 10
10.92741636547719
 20
27.99441749307785
 30
0.0
 11
10.92741636547719
 21
27.58941749307786
 31
0.0
  0
LINE
  5
35DF
330
85C
100
AcDbEntity
  8
DIM
 62
     0
370
    -2
100
AcDbLine
 10
10.9274163654772
 20
28.99941749307785
 30
0.0
 11
10.9274163654772
 21
29.40441749307785
 31
0.0
  0
LINE
  5
35E0
330
85C
100
AcDbEntity
  8
DIM
 62
     0
370
    -2
100
AcDbLine
 10
10.9274163654772
 20
29.40441749307785
 30
0.0
 11
11.3324163654772
 21
29.40441749307785
 31
0.0
  0
SOLID
  5
35E1
330
85C
100
AcDbEntity
  8
DIM
 62
     0
100
AcDbTrace
 10
10.85991636547719
 20
27.99441749307785
 30
0.0
 11
10.99491636547719
 21
27.99441749307785
 31
0.0
 12
10.9274163654772
 22
28.39941749307786
 32
0.0
 13
10.9274163654772
 23
28.39941749307786
 33
0.0
  0
SOLID
  5
35E2
330
85C
100
AcDbEntity
  8
DIM
 62
     0
100
AcDbTrace
 10
10.8599163654772
 20
28.99941749307785
 30
0.0
 11
10.9949163654772
 21
28.99941749307785
 31
0.0
 12
10.9274163654772
 22
28.59441749307785
 32
0.0
 13
10.9274163654772
 23
28.59441749307785
 33
0.0
  0
MTEXT
  5
35E3
330
85C
100
AcDbEntity
  8
DIM
 62
     0
100
AcDbMText
 10
11.60522886547719
 20
29.40441749307785
 30
0.0
 40
0.28125
 41
0.0
 71
     5
 72
     1
  1
\A1;L
 73
     1
 44
1.0
  0
POINT
  5
35E4
330
85C
100
AcDbEntity
  8
DEFPOINTS
 62
     0
100
AcDbPoint
 10
9.279593666509688
 20
28.39941749307786
 30
0.0
  0
POINT
  5
35E5
330
85C
100
AcDbEntity
  8
DEFPOINTS
 62
     0
100
AcDbPoint
 10
9.898093666509687
 20
28.59441749307785
 30
0.0
  0
POINT
  5
35E6
330
85C
100
AcDbEntity
  8
DEFPOINTS
 62
     0
100
AcDbPoint
 10
10.9274163654772
 20
28.59441749307785
 30
0.0
  0
ENDBLK
  5
869
330
85C
100
AcDbEntity
  8
0
100
AcDbBlockEnd
  0
BLOCK
  5
875
330
86A
100
AcDbEntity
  8
0
100
AcDbBlockBegin
  2
*D9
 70
     1
 10
0.0
 20
0.0
 30
0.0
  3
*D9
  1

  0
LINE
  5
3540
330
86A
100
AcDbEntity
  8
DIM
 62
     0
370
    -2
100
AcDbLine
 10
9.421343666509693
 20
24.03941749307785
 30
0.0
 11
10.55295584152259
 21
24.03941749307785
 31
0.0
  0
LINE
  5
3541
330
86A
100
AcDbEntity
  8
DIM
 62
     0
370
    -2
100
AcDbLine
 10
9.421343666509693
 20
26.21941749307785
 30
0.0
 11
10.55295584152259
 21
26.21941749307785
 31
0.0
  0
LINE
  5
3542
330
86A
100
AcDbEntity
  8
DIM
 62
     0
370
    -2
100
AcDbLine
 10
10.34370584152259
 20
24.44441749307785
 30
0.0
 11
10.34370584152259
 21
24.78629249307784
 31
0.0
  0
LINE
  5
3543
330
86A
100
AcDbEntity
  8
DIM
 62
     0
370
    -2
100
AcDbLine
 10
10.34370584152259
 20
25.81441749307785
 30
0.0
 11
10.34370584152259
 21
25.47254249307785
 31
0.0
  0
SOLID
  5
3544
330
86A
100
AcDbEntity
  8
DIM
 62
     0
100
AcDbTrace
 10
10.27620584152258
 20
24.44441749307785
 30
0.0
 11
10.41120584152259
 21
24.44441749307785
 31
0.0
 12
10.34370584152259
 22
24.03941749307785
 32
0.0
 13
10.34370584152259
 23
24.03941749307785
 33
0.0
  0
SOLID
  5
3545
330
86A
100
AcDbEntity
  8
DIM
 62
     0
100
AcDbTrace
 10
10.27620584152258
 20
25.81441749307785
 30
0.0
 11
10.41120584152259
 21
25.81441749307785
 31
0.0
 12
10.34370584152259
 22
26.21941749307785
 32
0.0
 13
10.34370584152259
 23
26.21941749307785
 33
0.0
  0
MTEXT
  5
3546
330
86A
100
AcDbEntity
  8
DIM
 62
     0
100
AcDbMText
 10
10.34370584152258
 20
25.12941749307785
 30
0.0
 40
0.28125
 41
0.0
 71
     5
 72
     1
  1
\A1;G
 73
     1
 44
1.0
  0
POINT
  5
3547
330
86A
100
AcDbEntity
  8
DEFPOINTS
 62
     0
100
AcDbPoint
 10
9.279593666509693
 20
24.03941749307785
 30
0.0
  0
POINT
  5
3548
330
86A
100
AcDbEntity
  8
DEFPOINTS
 62
     0
100
AcDbPoint
 10
9.279593666509693
 20
26.21941749307785
 30
0.0
  0
POINT
  5
3549
330
86A
100
AcDbEntity
  8
DEFPOINTS
 62
     0
100
AcDbPoint
 10
10.34370584152259
 20
26.21941749307785
 30
0.0
  0
ENDBLK
  5
876
330
86A
100
AcDbEntity
  8
0
100
AcDbBlockEnd
  0
BLOCK
  5
882
330
877
100
AcDbEntity
  8
0
100
AcDbBlockBegin
  2
*D10
 70
     1
 10
0.0
 20
0.0
 30
0.0
  3
*D10
  1

  0
LINE
  5
35A9
330
877
100
AcDbEntity
  8
DIM
 62
     0
370
    -2
100
AcDbLine
 10
9.421343666509688
 20
14.04578971688855
 30
0.0
 11
10.18172712517489
 21
14.04578971688855
 31
0.0
  0
LINE
  5
35AA
330
877
100
AcDbEntity
  8
DIM
 62
     0
370
    -2
100
AcDbLine
 10
9.421343666509688
 20
11.86578971688856
 30
0.0
 11
10.18172712517489
 21
11.86578971688856
 31
0.0
  0
LINE
  5
35AB
330
877
100
AcDbEntity
  8
DIM
 62
     0
370
    -2
100
AcDbLine
 10
9.972477125174895
 20
13.64078971688855
 30
0.0
 11
9.972477125174895
 21
13.29891471688855
 31
0.0
  0
LINE
  5
35AC
330
877
100
AcDbEntity
  8
DIM
 62
     0
370
    -2
100
AcDbLine
 10
9.972477125174895
 20
12.27078971688856
 30
0.0
 11
9.972477125174895
 21
12.61266471688855
 31
0.0
  0
SOLID
  5
35AD
330
877
100
AcDbEntity
  8
DIM
 62
     0
100
AcDbTrace
 10
9.904977125174895
 20
13.64078971688855
 30
0.0
 11
10.03997712517489
 21
13.64078971688855
 31
0.0
 12
9.972477125174895
 22
14.04578971688855
 32
0.0
 13
9.972477125174895
 23
14.04578971688855
 33
0.0
  0
SOLID
  5
35AE
330
877
100
AcDbEntity
  8
DIM
 62
     0
100
AcDbTrace
 10
9.904977125174895
 20
12.27078971688856
 30
0.0
 11
10.03997712517489
 21
12.27078971688856
 31
0.0
 12
9.972477125174894
 22
11.86578971688856
 32
0.0
 13
9.972477125174894
 23
11.86578971688856
 33
0.0
  0
MTEXT
  5
35AF
330
877
100
AcDbEntity
  8
DIM
 62
     0
100
AcDbMText
 10
9.972477125174892
 20
12.95578971688855
 30
0.0
 40
0.28125
 41
0.0
 71
     5
 72
     1
  1
\A1;G
 73
     1
 44
1.0
  0
POINT
  5
35B0
330
877
100
AcDbEntity
  8
DEFPOINTS
 62
     0
100
AcDbPoint
 10
9.279593666509688
 20
14.04578971688855
 30
0.0
  0
POINT
  5
35B1
330
877
100
AcDbEntity
  8
DEFPOINTS
 62
     0
100
AcDbPoint
 10
9.279593666509688
 20
11.86578971688856
 30
0.0
  0
POINT
  5
35B2
330
877
100
AcDbEntity
  8
DEFPOINTS
 62
     0
100
AcDbPoint
 10
9.972477125174894
 20
11.86578971688856
 30
0.0
  0
ENDBLK
  5
883
330
877
100
AcDbEntity
  8
0
100
AcDbBlockEnd
  0
BLOCK
  5
890
330
884
100
AcDbEntity
  8
0
100
AcDbBlockBegin
  2
*D11
 70
     1
 10
0.0
 20
0.0
 30
0.0
  3
*D11
  1

  0
LINE
  5
35D1
330
884
100
AcDbEntity
  8
DIM
 62
     0
370
    -2
100
AcDbLine
 10
9.421343666509688
 20
14.04578971688855
 30
0.0
 11
10.78458128743351
 21
14.04578971688855
 31
0.0
  0
LINE
  5
35D2
330
884
100
AcDbEntity
  8
DIM
 62
     0
370
    -2
100
AcDbLine
 10
9.421343666509688
 20
14.24078971688855
 30
0.0
 11
10.78458128743351
 21
14.24078971688855
 31
0.0
  0
LINE
  5
35D3
330
884
100
AcDbEntity
  8
DIM
 62
     0
370
    -2
100
AcDbLine
 10
10.57533128743352
 20
13.64078971688855
 30
0.0
 11
10.57533128743352
 21
13.23578971688855
 31
0.0
  0
LINE
  5
35D4
330
884
100
AcDbEntity
  8
DIM
 62
     0
370
    -2
100
AcDbLine
 10
10.57533128743352
 20
14.64578971688855
 30
0.0
 11
10.57533128743352
 21
15.05078971688855
 31
0.0
  0
LINE
  5
35D5
330
884
100
AcDbEntity
  8
DIM
 62
     0
370
    -2
100
AcDbLine
 10
10.57533128743352
 20
15.05078971688855
 30
0.0
 11
10.98033128743351
 21
15.05078971688855
 31
0.0
  0
SOLID
  5
35D6
330
884
100
AcDbEntity
  8
DIM
 62
     0
100
AcDbTrace
 10
10.50783128743351
 20
13.64078971688855
 30
0.0
 11
10.64283128743352
 21
13.64078971688855
 31
0.0
 12
10.57533128743352
 22
14.04578971688855
 32
0.0
 13
10.57533128743352
 23
14.04578971688855
 33
0.0
  0
SOLID
  5
35D7
330
884
100
AcDbEntity
  8
DIM
 62
     0
100
AcDbTrace
 10
10.50783128743351
 20
14.64578971688855
 30
0.0
 11
10.64283128743352
 21
14.64578971688855
 31
0.0
 12
10.57533128743352
 22
14.24078971688855
 32
0.0
 13
10.57533128743352
 23
14.24078971688855
 33
0.0
  0
MTEXT
  5
35D8
330
884
100
AcDbEntity
  8
DIM
 62
     0
100
AcDbMText
 10
11.25314378743351
 20
15.05078971688855
 30
0.0
 40
0.28125
 41
0.0
 71
     5
 72
     1
  1
\A1;L
 73
     1
 44
1.0
  0
POINT
  5
35D9
330
884
100
AcDbEntity
  8
DEFPOINTS
 62
     0
100
AcDbPoint
 10
9.279593666509688
 20
14.04578971688855
 30
0.0
  0
POINT
  5
35DA
330
884
100
AcDbEntity
  8
DEFPOINTS
 62
     0
100
AcDbPoint
 10
9.279593666509688
 20
14.24078971688855
 30
0.0
  0
POINT
  5
35DB
330
884
100
AcDbEntity
  8
DEFPOINTS
 62
     0
100
AcDbPoint
 10
10.57533128743352
 20
14.24078971688855
 30
0.0
  0
ENDBLK
  5
891
330
884
100
AcDbEntity
  8
0
100
AcDbBlockEnd
  0
BLOCK
  5
89D
330
892
100
AcDbEntity
  8
0
100
AcDbBlockBegin
  2
*D12
 70
     1
 10
0.0
 20
0.0
 30
0.0
  3
*D12
  1

  0
LINE
  5
35E7
330
892
100
AcDbEntity
  8
DIM
 62
     0
370
    -2
100
AcDbLine
 10
9.421343666509693
 20
28.39941749307784
 30
0.0
 11
10.55295584152259
 21
28.39941749307784
 31
0.0
  0
LINE
  5
35E8
330
892
100
AcDbEntity
  8
DIM
 62
     0
370
    -2
100
AcDbLine
 10
9.421343666509693
 20
26.21941749307785
 30
0.0
 11
10.55295584152259
 21
26.21941749307785
 31
0.0
  0
LINE
  5
35E9
330
892
100
AcDbEntity
  8
DIM
 62
     0
370
    -2
100
AcDbLine
 10
10.34370584152259
 20
27.99441749307784
 30
0.0
 11
10.34370584152259
 21
27.65254249307784
 31
0.0
  0
LINE
  5
35EA
330
892
100
AcDbEntity
  8
DIM
 62
     0
370
    -2
100
AcDbLine
 10
10.34370584152259
 20
26.62441749307784
 30
0.0
 11
10.34370584152259
 21
26.96629249307784
 31
0.0
  0
SOLID
  5
35EB
330
892
100
AcDbEntity
  8
DIM
 62
     0
100
AcDbTrace
 10
10.27620584152258
 20
27.99441749307784
 30
0.0
 11
10.41120584152259
 21
27.99441749307784
 31
0.0
 12
10.34370584152259
 22
28.39941749307784
 32
0.0
 13
10.34370584152259
 23
28.39941749307784
 33
0.0
  0
SOLID
  5
35EC
330
892
100
AcDbEntity
  8
DIM
 62
     0
100
AcDbTrace
 10
10.27620584152258
 20
26.62441749307784
 30
0.0
 11
10.41120584152259
 21
26.62441749307784
 31
0.0
 12
10.34370584152259
 22
26.21941749307785
 32
0.0
 13
10.34370584152259
 23
26.21941749307785
 33
0.0
  0
MTEXT
  5
35ED
330
892
100
AcDbEntity
  8
DIM
 62
     0
100
AcDbMText
 10
10.34370584152258
 20
27.30941749307785
 30
0.0
 40
0.28125
 41
0.0
 71
     5
 72
     1
  1
\A1;G
 73
     1
 44
1.0
  0
POINT
  5
35EE
330
892
100
AcDbEntity
  8
DEFPOINTS
 62
     0
100
AcDbPoint
 10
9.279593666509693
 20
28.39941749307784
 30
0.0
  0
POINT
  5
35EF
330
892
100
AcDbEntity
  8
DEFPOINTS
 62
     0
100
AcDbPoint
 10
9.279593666509693
 20
26.21941749307785
 30
0.0
  0
POINT
  5
35F0
330
892
100
AcDbEntity
  8
DEFPOINTS
 62
     0
100
AcDbPoint
 10
10.34370584152259
 20
26.21941749307785
 30
0.0
  0
ENDBLK
  5
89E
330
892
100
AcDbEntity
  8
0
100
AcDbBlockEnd
  0
BLOCK
  5
8AA
330
89F
100
AcDbEntity
  8
0
100
AcDbBlockBegin
  2
*D13
 70
     1
 10
0.0
 20
0.0
 30
0.0
  3
*D13
  1

  0
LINE
  5
357F
330
89F
100
AcDbEntity
  8
DIM
 62
     0
370
    -2
100
AcDbLine
 10
15.70898860345359
 20
11.55328971688855
 30
0.0
 11
14.59605645867557
 21
11.55328971688855
 31
0.0
  0
LINE
  5
3580
330
89F
100
AcDbEntity
  8
DIM
 62
     0
370
    -2
100
AcDbLine
 10
15.80791664260319
 20
9.490789716888556
 30
0.0
 11
14.59605645867557
 21
9.490789716888556
 31
0.0
  0
LINE
  5
3581
330
89F
100
AcDbEntity
  8
DIM
 62
     0
370
    -2
100
AcDbLine
 10
14.80530645867558
 20
11.14828971688855
 30
0.0
 11
14.80530645867558
 21
10.86516471688855
 31
0.0
  0
LINE
  5
3582
330
89F
100
AcDbEntity
  8
DIM
 62
     0
370
    -2
100
AcDbLine
 10
14.80530645867558
 20
9.895789716888556
 30
0.0
 11
14.80530645867558
 21
10.17891471688855
 31
0.0
  0
SOLID
  5
3583
330
89F
100
AcDbEntity
  8
DIM
 62
     0
100
AcDbTrace
 10
14.73780645867558
 20
11.14828971688855
 30
0.0
 11
14.87280645867557
 21
11.14828971688855
 31
0.0
 12
14.80530645867558
 22
11.55328971688855
 32
0.0
 13
14.80530645867558
 23
11.55328971688855
 33
0.0
  0
SOLID
  5
3584
330
89F
100
AcDbEntity
  8
DIM
 62
     0
100
AcDbTrace
 10
14.73780645867558
 20
9.895789716888556
 30
0.0
 11
14.87280645867557
 21
9.895789716888556
 31
0.0
 12
14.80530645867558
 22
9.490789716888556
 32
0.0
 13
14.80530645867558
 23
9.490789716888556
 33
0.0
  0
MTEXT
  5
3585
330
89F
100
AcDbEntity
  8
DIM
 62
     0
100
AcDbMText
 10
14.80530645867557
 20
10.52203971688855
 30
0.0
 40
0.28125
 41
0.0
 71
     5
 72
     1
  1
\A1;D
 73
     1
 44
1.0
  0
POINT
  5
3586
330
89F
100
AcDbEntity
  8
DEFPOINTS
 62
     0
100
AcDbPoint
 10
15.85073860345359
 20
11.55328971688855
 30
0.0
  0
POINT
  5
3587
330
89F
100
AcDbEntity
  8
DEFPOINTS
 62
     0
100
AcDbPoint
 10
15.94966664260319
 20
9.490789716888556
 30
0.0
  0
POINT
  5
3588
330
89F
100
AcDbEntity
  8
DEFPOINTS
 62
     0
100
AcDbPoint
 10
14.80530645867558
 20
9.490789716888556
 30
0.0
  0
ENDBLK
  5
8AB
330
89F
100
AcDbEntity
  8
0
100
AcDbBlockEnd
  0
BLOCK
  5
8B8
330
8AC
100
AcDbEntity
  8
0
100
AcDbBlockBegin
  2
*D14
 70
     1
 10
0.0
 20
0.0
 30
0.0
  3
*D14
  1

  0
LINE
  5
3574
330
8AC
100
AcDbEntity
  8
DIM
 62
     0
370
    -2
100
AcDbLine
 10
15.72381729448304
 20
13.3059049061896
 30
0.0
 11
14.84896947064718
 21
13.3059049061896
 31
0.0
  0
LINE
  5
3575
330
8AC
100
AcDbEntity
  8
DIM
 62
     0
370
    -2
100
AcDbLine
 10
15.74018145867558
 20
13.5402799061896
 30
0.0
 11
14.84896947064718
 21
13.5402799061896
 31
0.0
  0
LINE
  5
3576
330
8AC
100
AcDbEntity
  8
DIM
 62
     0
370
    -2
100
AcDbLine
 10
15.05821947064718
 20
12.9009049061896
 30
0.0
 11
15.05821947064718
 21
12.4959049061896
 31
0.0
  0
LINE
  5
3577
330
8AC
100
AcDbEntity
  8
DIM
 62
     0
370
    -2
100
AcDbLine
 10
15.05821947064718
 20
13.9452799061896
 30
0.0
 11
15.05821947064718
 21
14.3502799061896
 31
0.0
  0
LINE
  5
3578
330
8AC
100
AcDbEntity
  8
DIM
 62
     0
370
    -2
100
AcDbLine
 10
15.05821947064718
 20
14.3502799061896
 30
0.0
 11
15.46321947064718
 21
14.3502799061896
 31
0.0
  0
SOLID
  5
3579
330
8AC
100
AcDbEntity
  8
DIM
 62
     0
100
AcDbTrace
 10
14.99071947064718
 20
12.9009049061896
 30
0.0
 11
15.12571947064718
 21
12.9009049061896
 31
0.0
 12
15.05821947064718
 22
13.3059049061896
 32
0.0
 13
15.05821947064718
 23
13.3059049061896
 33
0.0
  0
SOLID
  5
357A
330
8AC
100
AcDbEntity
  8
DIM
 62
     0
100
AcDbTrace
 10
14.99071947064718
 20
13.9452799061896
 30
0.0
 11
15.12571947064718
 21
13.9452799061896
 31
0.0
 12
15.05821947064718
 22
13.5402799061896
 32
0.0
 13
15.05821947064718
 23
13.5402799061896
 33
0.0
  0
MTEXT
  5
357B
330
8AC
100
AcDbEntity
  8
DIM
 62
     0
100
AcDbMText
 10
16.07001634564717
 20
14.35027990618961
 30
0.0
 40
0.28125
 41
0.0
 71
     5
 72
     1
  1
\A1;0.234
 73
     1
 44
1.0
  0
POINT
  5
357C
330
8AC
100
AcDbEntity
  8
DEFPOINTS
 62
     0
100
AcDbPoint
 10
15.86556729448304
 20
13.3059049061896
 30
0.0
  0
POINT
  5
357D
330
8AC
100
AcDbEntity
  8
DEFPOINTS
 62
     0
100
AcDbPoint
 10
15.88193145867558
 20
13.5402799061896
 30
0.0
  0
POINT
  5
357E
330
8AC
100
AcDbEntity
  8
DEFPOINTS
 62
     0
100
AcDbPoint
 10
15.05821947064718
 20
13.5402799061896
 30
0.0
  0
ENDBLK
  5
8B9
330
8AC
100
AcDbEntity
  8
0
100
AcDbBlockEnd
  0
BLOCK
  5
8C6
330
8BA
100
AcDbEntity
  8
0
100
AcDbBlockBegin
  2
*D15
 70
     1
 10
0.0
 20
0.0
 30
0.0
  3
*D15
  1

  0
LINE
  5
3589
330
8BA
100
AcDbEntity
  8
DIM
 62
     0
370
    -2
100
AcDbLine
 10
16.64779100572292
 20
9.490789716888556
 30
0.0
 11
16.75008994910383
 21
9.490789716888556
 31
0.0
  0
LINE
  5
358A
330
8BA
100
AcDbEntity
  8
DIM
 62
     0
370
    -2
100
AcDbLine
 10
16.64779100572292
 20
9.568914716888556
 30
0.0
 11
16.75008994910383
 21
9.568914716888556
 31
0.0
  0
LINE
  5
358B
330
8BA
100
AcDbEntity
  8
DIM
 62
     0
370
    -2
100
AcDbLine
 10
16.54083994910383
 20
9.085789716888557
 30
0.0
 11
16.54083994910383
 21
8.680789716888556
 31
0.0
  0
LINE
  5
358C
330
8BA
100
AcDbEntity
  8
DIM
 62
     0
370
    -2
100
AcDbLine
 10
16.54083994910383
 20
9.973914716888556
 30
0.0
 11
16.54083994910383
 21
10.37891471688855
 31
0.0
  0
LINE
  5
358D
330
8BA
100
AcDbEntity
  8
DIM
 62
     0
370
    -2
100
AcDbLine
 10
16.54083994910383
 20
10.37891471688855
 30
0.0
 11
16.94583994910383
 21
10.37891471688855
 31
0.0
  0
SOLID
  5
358E
330
8BA
100
AcDbEntity
  8
DIM
 62
     0
100
AcDbTrace
 10
16.47333994910383
 20
9.085789716888557
 30
0.0
 11
16.60833994910382
 21
9.085789716888557
 31
0.0
 12
16.54083994910383
 22
9.490789716888556
 32
0.0
 13
16.54083994910383
 23
9.490789716888556
 33
0.0
  0
SOLID
  5
358F
330
8BA
100
AcDbEntity
  8
DIM
 62
     0
100
AcDbTrace
 10
16.47333994910383
 20
9.973914716888556
 30
0.0
 11
16.60833994910382
 21
9.973914716888556
 31
0.0
 12
16.54083994910383
 22
9.568914716888556
 32
0.0
 13
16.54083994910383
 23
9.568914716888556
 33
0.0
  0
MTEXT
  5
3590
330
8BA
100
AcDbEntity
  8
DIM
 62
     0
100
AcDbMText
 10
17.21865244910382
 20
10.37891471688855
 30
0.0
 40
0.28125
 41
0.0
 71
     5
 72
     1
  1
\A1;K
 73
     1
 44
1.0
  0
POINT
  5
3591
330
8BA
100
AcDbEntity
  8
DEFPOINTS
 62
     0
100
AcDbPoint
 10
16.50604100572293
 20
9.490789716888556
 30
0.0
  0
POINT
  5
3592
330
8BA
100
AcDbEntity
  8
DEFPOINTS
 62
     0
100
AcDbPoint
 10
16.50604100572293
 20
9.568914716888556
 30
0.0
  0
POINT
  5
3593
330
8BA
100
AcDbEntity
  8
DEFPOINTS
 62
     0
100
AcDbPoint
 10
16.54083994910383
 20
9.568914716888556
 30
0.0
  0
ENDBLK
  5
8C7
330
8BA
100
AcDbEntity
  8
0
100
AcDbBlockEnd
  0
BLOCK
  5
8D4
330
8C8
100
AcDbEntity
  8
0
100
AcDbBlockBegin
  2
*D16
 70
     1
 10
0.0
 20
0.0
 30
0.0
  3
*D16
  1

  0
LINE
  5
359E
330
8C8
100
AcDbEntity
  8
DIM
 62
     0
370
    -2
100
AcDbLine
 10
20.04971715394235
 20
11.45953971688855
 30
0.0
 11
19.63121715394234
 21
11.45953971688855
 31
0.0
  0
LINE
  5
359F
330
8C8
100
AcDbEntity
  8
DIM
 62
     0
370
    -2
100
AcDbLine
 10
20.27187431389756
 20
11.55328971688855
 30
0.0
 11
19.63121715394234
 21
11.55328971688855
 31
0.0
  0
LINE
  5
35A0
330
8C8
100
AcDbEntity
  8
DIM
 62
     0
370
    -2
100
AcDbLine
 10
19.84046715394234
 20
11.05453971688855
 30
0.0
 11
19.84046715394234
 21
10.64953971688855
 31
0.0
  0
LINE
  5
35A1
330
8C8
100
AcDbEntity
  8
DIM
 62
     0
370
    -2
100
AcDbLine
 10
19.84046715394234
 20
11.95828971688855
 30
0.0
 11
19.84046715394234
 21
12.36328971688855
 31
0.0
  0
LINE
  5
35A2
330
8C8
100
AcDbEntity
  8
DIM
 62
     0
370
    -2
100
AcDbLine
 10
19.84046715394234
 20
12.36328971688855
 30
0.0
 11
20.24546715394234
 21
12.36328971688855
 31
0.0
  0
SOLID
  5
35A3
330
8C8
100
AcDbEntity
  8
DIM
 62
     0
100
AcDbTrace
 10
19.77296715394234
 20
11.05453971688855
 30
0.0
 11
19.90796715394234
 21
11.05453971688855
 31
0.0
 12
19.84046715394234
 22
11.45953971688855
 32
0.0
 13
19.84046715394234
 23
11.45953971688855
 33
0.0
  0
SOLID
  5
35A4
330
8C8
100
AcDbEntity
  8
DIM
 62
     0
100
AcDbTrace
 10
19.77296715394234
 20
11.95828971688855
 30
0.0
 11
19.90796715394234
 21
11.95828971688855
 31
0.0
 12
19.84046715394234
 22
11.55328971688855
 32
0.0
 13
19.84046715394234
 23
11.55328971688855
 33
0.0
  0
MTEXT
  5
35A5
330
8C8
100
AcDbEntity
  8
DIM
 62
     0
100
AcDbMText
 10
20.83468590394234
 20
12.36328971688856
 30
0.0
 40
0.28125
 41
0.0
 71
     5
 72
     1
  1
\A1;0.094
 73
     1
 44
1.0
  0
POINT
  5
35A6
330
8C8
100
AcDbEntity
  8
DEFPOINTS
 62
     0
100
AcDbPoint
 10
20.19146715394235
 20
11.45953971688855
 30
0.0
  0
POINT
  5
35A7
330
8C8
100
AcDbEntity
  8
DEFPOINTS
 62
     0
100
AcDbPoint
 10
20.41362431389756
 20
11.55328971688855
 30
0.0
  0
POINT
  5
35A8
330
8C8
100
AcDbEntity
  8
DEFPOINTS
 62
     0
100
AcDbPoint
 10
19.84046715394234
 20
11.55328971688855
 30
0.0
  0
ENDBLK
  5
8D5
330
8C8
100
AcDbEntity
  8
0
100
AcDbBlockEnd
  0
BLOCK
  5
8E1
330
8D6
100
AcDbEntity
  8
0
100
AcDbBlockBegin
  2
*D17
 70
     1
 10
0.0
 20
0.0
 30
0.0
  3
*D17
  1

  0
LINE
  5
3594
330
8D6
100
AcDbEntity
  8
DIM
 62
     0
370
    -2
100
AcDbLine
 10
15.85023860345359
 20
11.69503971688855
 30
0.0
 11
15.85023860345359
 21
12.32278971688856
 31
0.0
  0
LINE
  5
3595
330
8D6
100
AcDbEntity
  8
DIM
 62
     0
370
    -2
100
AcDbLine
 10
15.75643145867558
 20
11.69503971688855
 30
0.0
 11
15.75643145867558
 21
12.32278971688856
 31
0.0
  0
LINE
  5
3596
330
8D6
100
AcDbEntity
  8
DIM
 62
     0
370
    -2
100
AcDbLine
 10
16.25523860345359
 20
12.11353971688856
 30
0.0
 11
16.66023860345358
 21
12.11353971688856
 31
0.0
  0
LINE
  5
3597
330
8D6
100
AcDbEntity
  8
DIM
 62
     0
370
    -2
100
AcDbLine
 10
15.35143145867558
 20
12.11353971688856
 30
0.0
 11
14.92299395867558
 21
12.11353971688856
 31
0.0
  0
SOLID
  5
3598
330
8D6
100
AcDbEntity
  8
DIM
 62
     0
100
AcDbTrace
 10
16.25523860345359
 20
12.18103971688856
 30
0.0
 11
16.25523860345359
 21
12.04603971688856
 31
0.0
 12
15.85023860345359
 22
12.11353971688856
 32
0.0
 13
15.85023860345359
 23
12.11353971688856
 33
0.0
  0
SOLID
  5
3599
330
8D6
100
AcDbEntity
  8
DIM
 62
     0
100
AcDbTrace
 10
15.35143145867558
 20
12.18103971688856
 30
0.0
 11
15.35143145867558
 21
12.04603971688856
 31
0.0
 12
15.75643145867558
 22
12.11353971688856
 32
0.0
 13
15.75643145867558
 23
12.11353971688856
 33
0.0
  0
MTEXT
  5
359A
330
8D6
100
AcDbEntity
  8
DIM
 62
     0
100
AcDbMText
 10
14.65018145867557
 20
12.11353971688856
 30
0.0
 40
0.28125
 41
0.0
 71
     5
 72
     1
  1
\A1;J
 73
     1
 44
1.0
  0
POINT
  5
359B
330
8D6
100
AcDbEntity
  8
DEFPOINTS
 62
     0
100
AcDbPoint
 10
15.85023860345359
 20
11.55328971688855
 30
0.0
  0
POINT
  5
359C
330
8D6
100
AcDbEntity
  8
DEFPOINTS
 62
     0
100
AcDbPoint
 10
15.75643145867558
 20
11.55328971688855
 30
0.0
  0
POINT
  5
359D
330
8D6
100
AcDbEntity
  8
DEFPOINTS
 62
     0
100
AcDbPoint
 10
15.75643145867558
 20
12.11353971688856
 30
0.0
  0
ENDBLK
  5
8E2
330
8D6
100
AcDbEntity
  8
0
100
AcDbBlockEnd
  0
BLOCK
  5
8EF
330
8E3
100
AcDbEntity
  8
0
100
AcDbBlockBegin
  2
*D18
 70
     1
 10
0.0
 20
0.0
 30
0.0
  3
*D18
  1

  0
LINE
  5
3569
330
8E3
100
AcDbEntity
  8
DIM
 62
     0
370
    -2
100
AcDbLine
 10
19.49807729619012
 20
13.4621549061896
 30
0.0
 11
19.41620997070964
 21
13.4621549061896
 31
0.0
  0
LINE
  5
356A
330
8E3
100
AcDbEntity
  8
DIM
 62
     0
370
    -2
100
AcDbLine
 10
19.49807729619012
 20
13.5402799061896
 30
0.0
 11
19.41620997070964
 21
13.5402799061896
 31
0.0
  0
LINE
  5
356B
330
8E3
100
AcDbEntity
  8
DIM
 62
     0
370
    -2
100
AcDbLine
 10
19.62545997070964
 20
13.0571549061896
 30
0.0
 11
19.62545997070964
 21
12.6521549061896
 31
0.0
  0
LINE
  5
356C
330
8E3
100
AcDbEntity
  8
DIM
 62
     0
370
    -2
100
AcDbLine
 10
19.62545997070964
 20
13.9452799061896
 30
0.0
 11
19.62545997070964
 21
14.3502799061896
 31
0.0
  0
LINE
  5
356D
330
8E3
100
AcDbEntity
  8
DIM
 62
     0
370
    -2
100
AcDbLine
 10
19.62545997070964
 20
14.3502799061896
 30
0.0
 11
20.03045997070964
 21
14.3502799061896
 31
0.0
  0
SOLID
  5
356E
330
8E3
100
AcDbEntity
  8
DIM
 62
     0
100
AcDbTrace
 10
19.55795997070964
 20
13.0571549061896
 30
0.0
 11
19.69295997070964
 21
13.0571549061896
 31
0.0
 12
19.62545997070964
 22
13.4621549061896
 32
0.0
 13
19.62545997070964
 23
13.4621549061896
 33
0.0
  0
SOLID
  5
356F
330
8E3
100
AcDbEntity
  8
DIM
 62
     0
100
AcDbTrace
 10
19.55795997070964
 20
13.9452799061896
 30
0.0
 11
19.69295997070964
 21
13.9452799061896
 31
0.0
 12
19.62545997070964
 22
13.5402799061896
 32
0.0
 13
19.62545997070964
 23
13.5402799061896
 33
0.0
  0
MTEXT
  5
3570
330
8E3
100
AcDbEntity
  8
DIM
 62
     0
100
AcDbMText
 10
20.61967872070963
 20
14.35027990618961
 30
0.0
 40
0.28125
 41
0.0
 71
     5
 72
     1
  1
\A1;0.078
 73
     1
 44
1.0
  0
POINT
  5
3571
330
8E3
100
AcDbEntity
  8
DEFPOINTS
 62
     0
100
AcDbPoint
 10
19.63982729619011
 20
13.4621549061896
 30
0.0
  0
POINT
  5
3572
330
8E3
100
AcDbEntity
  8
DEFPOINTS
 62
     0
100
AcDbPoint
 10
19.63982729619011
 20
13.5402799061896
 30
0.0
  0
POINT
  5
3573
330
8E3
100
AcDbEntity
  8
DEFPOINTS
 62
     0
100
AcDbPoint
 10
19.62545997070964
 20
13.5402799061896
 30
0.0
  0
ENDBLK
  5
8F0
330
8E3
100
AcDbEntity
  8
0
100
AcDbBlockEnd
  0
BLOCK
  5
8FD
330
8F1
100
AcDbEntity
  8
0
100
AcDbBlockBegin
  2
*D19
 70
     1
 10
0.0
 20
0.0
 30
0.0
  3
*D19
  1

  0
LINE
  5
355E
330
8F1
100
AcDbEntity
  8
DIM
 62
     0
370
    -2
100
AcDbLine
 10
20.64918145867556
 20
13.3840299061896
 30
0.0
 11
21.57850391626739
 21
13.3840299061896
 31
0.0
  0
LINE
  5
355F
330
8F1
100
AcDbEntity
  8
DIM
 62
     0
370
    -2
100
AcDbLine
 10
20.52418145867556
 20
13.5402799061896
 30
0.0
 11
21.57850391626739
 21
13.5402799061896
 31
0.0
  0
LINE
  5
3560
330
8F1
100
AcDbEntity
  8
DIM
 62
     0
370
    -2
100
AcDbLine
 10
21.36925391626739
 20
12.9790299061896
 30
0.0
 11
21.36925391626739
 21
12.5740299061896
 31
0.0
  0
LINE
  5
3561
330
8F1
100
AcDbEntity
  8
DIM
 62
     0
370
    -2
100
AcDbLine
 10
21.36925391626739
 20
13.9452799061896
 30
0.0
 11
21.36925391626739
 21
14.3502799061896
 31
0.0
  0
LINE
  5
3562
330
8F1
100
AcDbEntity
  8
DIM
 62
     0
370
    -2
100
AcDbLine
 10
21.36925391626739
 20
14.3502799061896
 30
0.0
 11
21.77425391626738
 21
14.3502799061896
 31
0.0
  0
SOLID
  5
3563
330
8F1
100
AcDbEntity
  8
DIM
 62
     0
100
AcDbTrace
 10
21.30175391626738
 20
12.9790299061896
 30
0.0
 11
21.43675391626739
 21
12.9790299061896
 31
0.0
 12
21.36925391626739
 22
13.3840299061896
 32
0.0
 13
21.36925391626739
 23
13.3840299061896
 33
0.0
  0
SOLID
  5
3564
330
8F1
100
AcDbEntity
  8
DIM
 62
     0
100
AcDbTrace
 10
21.30175391626738
 20
13.9452799061896
 30
0.0
 11
21.43675391626739
 21
13.9452799061896
 31
0.0
 12
21.36925391626739
 22
13.5402799061896
 32
0.0
 13
21.36925391626739
 23
13.5402799061896
 33
0.0
  0
MTEXT
  5
3565
330
8F1
100
AcDbEntity
  8
DIM
 62
     0
100
AcDbMText
 10
22.34589454126738
 20
14.35027990618961
 30
0.0
 40
0.28125
 41
0.0
 71
     5
 72
     1
  1
\A1;0.156
 73
     1
 44
1.0
  0
POINT
  5
3566
330
8F1
100
AcDbEntity
  8
DEFPOINTS
 62
     0
100
AcDbPoint
 10
20.50743145867556
 20
13.3840299061896
 30
0.0
  0
POINT
  5
3567
330
8F1
100
AcDbEntity
  8
DEFPOINTS
 62
     0
100
AcDbPoint
 10
20.38243145867557
 20
13.5402799061896
 30
0.0
  0
POINT
  5
3568
330
8F1
100
AcDbEntity
  8
DEFPOINTS
 62
     0
100
AcDbPoint
 10
21.36925391626739
 20
13.5402799061896
 30
0.0
  0
ENDBLK
  5
8FE
330
8F1
100
AcDbEntity
  8
0
100
AcDbBlockEnd
  0
BLOCK
  5
A86
330
A7B
100
AcDbEntity
  8
0
100
AcDbBlockBegin
  2
*D20
 70
     1
 10
0.0
 20
0.0
 30
0.0
  3
*D20
  1

  0
LINE
  5
3623
330
A7B
100
AcDbEntity
  8
DIM
 62
     0
370
    -2
100
AcDbLine
 10
7.09959366650969
 20
28.54241749307785
 30
0.0
 11
7.09959366650969
 21
29.17516749307784
 31
0.0
  0
LINE
  5
3624
330
A7B
100
AcDbEntity
  8
DIM
 62
     0
370
    -2
100
AcDbLine
 10
9.279593666509688
 20
28.54116749307784
 30
0.0
 11
9.279593666509688
 21
29.17516749307784
 31
0.0
  0
LINE
  5
3625
330
A7B
100
AcDbEntity
  8
DIM
 62
     0
370
    -2
100
AcDbLine
 10
7.50459366650969
 20
28.96591749307784
 30
0.0
 11
7.91678116650969
 21
28.96591749307784
 31
0.0
  0
LINE
  5
3626
330
A7B
100
AcDbEntity
  8
DIM
 62
     0
370
    -2
100
AcDbLine
 10
8.874593666509689
 20
28.96591749307784
 30
0.0
 11
8.462406166509691
 21
28.96591749307784
 31
0.0
  0
SOLID
  5
3627
330
A7B
100
AcDbEntity
  8
DIM
 62
     0
100
AcDbTrace
 10
7.50459366650969
 20
29.03341749307783
 30
0.0
 11
7.50459366650969
 21
28.89841749307784
 31
0.0
 12
7.09959366650969
 22
28.96591749307784
 32
0.0
 13
7.09959366650969
 23
28.96591749307784
 33
0.0
  0
SOLID
  5
3628
330
A7B
100
AcDbEntity
  8
DIM
 62
     0
100
AcDbTrace
 10
8.874593666509689
 20
29.03341749307783
 30
0.0
 11
8.874593666509689
 21
28.89841749307784
 31
0.0
 12
9.279593666509688
 22
28.96591749307784
 32
0.0
 13
9.279593666509688
 23
28.96591749307784
 33
0.0
  0
MTEXT
  5
3629
330
A7B
100
AcDbEntity
  8
DIM
 62
     0
100
AcDbMText
 10
8.18959366650969
 20
28.96591749307784
 30
0.0
 40
0.28125
 41
0.0
 71
     5
 72
     1
  1
\A1;H
 73
     1
 44
1.0
  0
POINT
  5
362A
330
A7B
100
AcDbEntity
  8
DEFPOINTS
 62
     0
100
AcDbPoint
 10
7.09959366650969
 20
28.40066749307785
 30
0.0
  0
POINT
  5
362B
330
A7B
100
AcDbEntity
  8
DEFPOINTS
 62
     0
100
AcDbPoint
 10
9.279593666509688
 20
28.39941749307784
 30
0.0
  0
POINT
  5
362C
330
A7B
100
AcDbEntity
  8
DEFPOINTS
 62
     0
100
AcDbPoint
 10
9.279593666509688
 20
28.96591749307784
 30
0.0
  0
ENDBLK
  5
A87
330
A7B
100
AcDbEntity
  8
0
100
AcDbBlockEnd
  0
BLOCK
  5
AE7
330
ADC
100
AcDbEntity
  8
0
100
AcDbBlockBegin
  2
*D21
 70
     1
 10
0.0
 20
0.0
 30
0.0
  3
*D21
  1

  0
LINE
  5
35F1
330
ADC
100
AcDbEntity
  8
DIM
 62
     0
370
    -2
100
AcDbLine
 10
4.724593666509688
 20
14.19378971688856
 30
0.0
 11
4.724593666509688
 21
16.21259902817152
 31
0.0
  0
LINE
  5
35F2
330
ADC
100
AcDbEntity
  8
DIM
 62
     0
370
    -2
100
AcDbLine
 10
9.474593666509687
 20
14.19378971688855
 30
0.0
 11
9.474593666509687
 21
16.21259902817152
 31
0.0
  0
LINE
  5
35F3
330
ADC
100
AcDbEntity
  8
DIM
 62
     0
370
    -2
100
AcDbLine
 10
5.129593666509689
 20
16.00334902817152
 30
0.0
 11
6.826781166509689
 21
16.00334902817152
 31
0.0
  0
LINE
  5
35F4
330
ADC
100
AcDbEntity
  8
DIM
 62
     0
370
    -2
100
AcDbLine
 10
9.069593666509687
 20
16.00334902817152
 30
0.0
 11
7.372406166509688
 21
16.00334902817152
 31
0.0
  0
SOLID
  5
35F5
330
ADC
100
AcDbEntity
  8
DIM
 62
     0
100
AcDbTrace
 10
5.129593666509689
 20
16.07084902817152
 30
0.0
 11
5.129593666509689
 21
15.93584902817152
 31
0.0
 12
4.724593666509688
 22
16.00334902817152
 32
0.0
 13
4.724593666509688
 23
16.00334902817152
 33
0.0
  0
SOLID
  5
35F6
330
ADC
100
AcDbEntity
  8
DIM
 62
     0
100
AcDbTrace
 10
9.069593666509687
 20
16.07084902817152
 30
0.0
 11
9.069593666509687
 21
15.93584902817152
 31
0.0
 12
9.474593666509687
 22
16.00334902817152
 32
0.0
 13
9.474593666509687
 23
16.00334902817152
 33
0.0
  0
MTEXT
  5
35F7
330
ADC
100
AcDbEntity
  8
DIM
 62
     0
100
AcDbMText
 10
7.099593666509688
 20
16.00334902817152
 30
0.0
 40
0.28125
 41
0.0
 71
     5
 72
     1
  1
\A1;B
 73
     1
 44
1.0
  0
POINT
  5
35F8
330
ADC
100
AcDbEntity
  8
DEFPOINTS
 62
     0
100
AcDbPoint
 10
4.724593666509688
 20
14.05203971688856
 30
0.0
  0
POINT
  5
35F9
330
ADC
100
AcDbEntity
  8
DEFPOINTS
 62
     0
100
AcDbPoint
 10
9.474593666509687
 20
14.05203971688855
 30
0.0
  0
POINT
  5
35FA
330
ADC
100
AcDbEntity
  8
DEFPOINTS
 62
     0
100
AcDbPoint
 10
9.474593666509687
 20
16.00334902817152
 30
0.0
  0
ENDBLK
  5
AE8
330
ADC
100
AcDbEntity
  8
0
100
AcDbBlockEnd
  0
BLOCK
  5
AF4
330
AE9
100
AcDbEntity
  8
0
100
AcDbBlockBegin
  2
*D22
 70
     1
 10
0.0
 20
0.0
 30
0.0
  3
*D22
  1

  0
LINE
  5
35FB
330
AE9
100
AcDbEntity
  8
DIM
 62
     0
370
    -2
100
AcDbLine
 10
4.919593666509688
 20
14.18628971688856
 30
0.0
 11
4.919593666509688
 21
15.68484902817152
 31
0.0
  0
LINE
  5
35FC
330
AE9
100
AcDbEntity
  8
DIM
 62
     0
370
    -2
100
AcDbLine
 10
4.724593666509688
 20
14.19378971688856
 30
0.0
 11
4.724593666509688
 21
15.68484902817152
 31
0.0
  0
LINE
  5
35FD
330
AE9
100
AcDbEntity
  8
DIM
 62
     0
370
    -2
100
AcDbLine
 10
5.324593666509688
 20
15.47559902817152
 30
0.0
 11
5.729593666509687
 21
15.47559902817152
 31
0.0
  0
LINE
  5
35FE
330
AE9
100
AcDbEntity
  8
DIM
 62
     0
370
    -2
100
AcDbLine
 10
4.319593666509688
 20
15.47559902817152
 30
0.0
 11
3.914593666509688
 21
15.47559902817152
 31
0.0
  0
SOLID
  5
35FF
330
AE9
100
AcDbEntity
  8
DIM
 62
     0
100
AcDbTrace
 10
5.324593666509688
 20
15.54309902817152
 30
0.0
 11
5.324593666509688
 21
15.40809902817152
 31
0.0
 12
4.919593666509688
 22
15.47559902817152
 32
0.0
 13
4.919593666509688
 23
15.47559902817152
 33
0.0
  0
SOLID
  5
3600
330
AE9
100
AcDbEntity
  8
DIM
 62
     0
100
AcDbTrace
 10
4.319593666509688
 20
15.54309902817152
 30
0.0
 11
4.319593666509688
 21
15.40809902817152
 31
0.0
 12
4.724593666509688
 22
15.47559902817152
 32
0.0
 13
4.724593666509688
 23
15.47559902817152
 33
0.0
  0
MTEXT
  5
3601
330
AE9
100
AcDbEntity
  8
DIM
 62
     0
100
AcDbMText
 10
3.641781166509688
 20
15.47559902817152
 30
0.0
 40
0.28125
 41
0.0
 71
     5
 72
     1
  1
\A1;L
 73
     1
 44
1.0
  0
POINT
  5
3602
330
AE9
100
AcDbEntity
  8
DEFPOINTS
 62
     0
100
AcDbPoint
 10
4.919593666509688
 20
14.04453971688856
 30
0.0
  0
POINT
  5
3603
330
AE9
100
AcDbEntity
  8
DEFPOINTS
 62
     0
100
AcDbPoint
 10
4.724593666509688
 20
14.05203971688856
 30
0.0
  0
POINT
  5
3604
330
AE9
100
AcDbEntity
  8
DEFPOINTS
 62
     0
100
AcDbPoint
 10
4.724593666509688
 20
15.47559902817152
 30
0.0
  0
ENDBLK
  5
AF5
330
AE9
100
AcDbEntity
  8
0
100
AcDbBlockEnd
  0
BLOCK
  5
B01
330
AF6
100
AcDbEntity
  8
0
100
AcDbBlockBegin
  2
*D23
 70
     1
 10
0.0
 20
0.0
 30
0.0
  3
*D23
  1

  0
LINE
  5
3605
330
AF6
100
AcDbEntity
  8
DIM
 62
     0
370
    -2
100
AcDbLine
 10
4.919593666509688
 20
14.18628971688856
 30
0.0
 11
4.919593666509688
 21
15.69050443357691
 31
0.0
  0
LINE
  5
3606
330
AF6
100
AcDbEntity
  8
DIM
 62
     0
370
    -2
100
AcDbLine
 10
9.279593666509688
 20
14.18628971688855
 30
0.0
 11
9.279593666509688
 21
15.69050443357691
 31
0.0
  0
LINE
  5
3607
330
AF6
100
AcDbEntity
  8
DIM
 62
     0
370
    -2
100
AcDbLine
 10
5.324593666509688
 20
15.48125443357692
 30
0.0
 11
6.826781166509689
 21
15.48125443357692
 31
0.0
  0
LINE
  5
3608
330
AF6
100
AcDbEntity
  8
DIM
 62
     0
370
    -2
100
AcDbLine
 10
8.874593666509689
 20
15.48125443357692
 30
0.0
 11
7.372406166509688
 21
15.48125443357692
 31
0.0
  0
SOLID
  5
3609
330
AF6
100
AcDbEntity
  8
DIM
 62
     0
100
AcDbTrace
 10
5.324593666509688
 20
15.54875443357692
 30
0.0
 11
5.324593666509688
 21
15.41375443357692
 31
0.0
 12
4.919593666509688
 22
15.48125443357692
 32
0.0
 13
4.919593666509688
 23
15.48125443357692
 33
0.0
  0
SOLID
  5
360A
330
AF6
100
AcDbEntity
  8
DIM
 62
     0
100
AcDbTrace
 10
8.874593666509689
 20
15.54875443357692
 30
0.0
 11
8.874593666509689
 21
15.41375443357692
 31
0.0
 12
9.279593666509688
 22
15.48125443357692
 32
0.0
 13
9.279593666509688
 23
15.48125443357692
 33
0.0
  0
MTEXT
  5
360B
330
AF6
100
AcDbEntity
  8
DIM
 62
     0
100
AcDbMText
 10
7.099593666509688
 20
15.48125443357692
 30
0.0
 40
0.28125
 41
0.0
 71
     5
 72
     1
  1
\A1;F
 73
     1
 44
1.0
  0
POINT
  5
360C
330
AF6
100
AcDbEntity
  8
DEFPOINTS
 62
     0
100
AcDbPoint
 10
4.919593666509688
 20
14.04453971688856
 30
0.0
  0
POINT
  5
360D
330
AF6
100
AcDbEntity
  8
DEFPOINTS
 62
     0
100
AcDbPoint
 10
9.279593666509688
 20
14.04453971688855
 30
0.0
  0
POINT
  5
360E
330
AF6
100
AcDbEntity
  8
DEFPOINTS
 62
     0
100
AcDbPoint
 10
9.279593666509688
 20
15.48125443357692
 30
0.0
  0
ENDBLK
  5
B02
330
AF6
100
AcDbEntity
  8
0
100
AcDbBlockEnd
  0
BLOCK
  5
B0E
330
B03
100
AcDbEntity
  8
0
100
AcDbBlockBegin
  2
*D24
 70
     1
 10
0.0
 20
0.0
 30
0.0
  3
*D24
  1

  0
LINE
  5
360F
330
B03
100
AcDbEntity
  8
DIM
 62
     0
370
    -2
100
AcDbLine
 10
7.09959366650969
 20
14.18753971688855
 30
0.0
 11
7.09959366650969
 21
15.21316471688856
 31
0.0
  0
LINE
  5
3610
330
B03
100
AcDbEntity
  8
DIM
 62
     0
370
    -2
100
AcDbLine
 10
9.279593666509688
 20
14.18628971688855
 30
0.0
 11
9.279593666509688
 21
15.21316471688856
 31
0.0
  0
LINE
  5
3611
330
B03
100
AcDbEntity
  8
DIM
 62
     0
370
    -2
100
AcDbLine
 10
7.50459366650969
 20
15.00391471688856
 30
0.0
 11
7.928656166509688
 21
15.00391471688856
 31
0.0
  0
LINE
  5
3612
330
B03
100
AcDbEntity
  8
DIM
 62
     0
370
    -2
100
AcDbLine
 10
8.874593666509689
 20
15.00391471688856
 30
0.0
 11
8.474281166509689
 21
15.00391471688856
 31
0.0
  0
SOLID
  5
3613
330
B03
100
AcDbEntity
  8
DIM
 62
     0
100
AcDbTrace
 10
7.50459366650969
 20
15.07141471688856
 30
0.0
 11
7.50459366650969
 21
14.93641471688856
 31
0.0
 12
7.09959366650969
 22
15.00391471688856
 32
0.0
 13
7.09959366650969
 23
15.00391471688856
 33
0.0
  0
SOLID
  5
3614
330
B03
100
AcDbEntity
  8
DIM
 62
     0
100
AcDbTrace
 10
8.874593666509689
 20
15.07141471688856
 30
0.0
 11
8.874593666509689
 21
14.93641471688856
 31
0.0
 12
9.279593666509688
 22
15.00391471688856
 32
0.0
 13
9.279593666509688
 23
15.00391471688856
 33
0.0
  0
MTEXT
  5
3615
330
B03
100
AcDbEntity
  8
DIM
 62
     0
100
AcDbMText
 10
8.201468666509688
 20
15.00391471688856
 30
0.0
 40
0.28125
 41
0.0
 71
     5
 72
     1
  1
\A1;H
 73
     1
 44
1.0
  0
POINT
  5
3616
330
B03
100
AcDbEntity
  8
DEFPOINTS
 62
     0
100
AcDbPoint
 10
7.09959366650969
 20
14.04578971688855
 30
0.0
  0
POINT
  5
3617
330
B03
100
AcDbEntity
  8
DEFPOINTS
 62
     0
100
AcDbPoint
 10
9.279593666509688
 20
14.04453971688855
 30
0.0
  0
POINT
  5
3618
330
B03
100
AcDbEntity
  8
DEFPOINTS
 62
     0
100
AcDbPoint
 10
9.279593666509688
 20
15.00391471688856
 30
0.0
  0
ENDBLK
  5
B0F
330
B03
100
AcDbEntity
  8
0
100
AcDbBlockEnd
  0
BLOCK
  5
2092
330
2087
100
AcDbEntity
  8
0
100
AcDbBlockBegin
  2
*D25
 70
     1
 10
0.0
 20
0.0
 30
0.0
  3
*D25
  1

  0
LINE
  5
3641
330
2087
100
AcDbEntity
  8
DIM
 62
     0
370
    -2
100
AcDbLine
 10
4.238593666509689
 20
28.67366749307784
 30
0.0
 11
4.238593666509689
 21
31.36085859008971
 31
0.0
  0
LINE
  5
3642
330
2087
100
AcDbEntity
  8
DIM
 62
     0
370
    -2
100
AcDbLine
 10
9.474593666509688
 20
28.18366749307784
 30
0.0
 11
9.474593666509688
 21
31.36085859008971
 31
0.0
  0
LINE
  5
3643
330
2087
100
AcDbEntity
  8
DIM
 62
     0
370
    -2
100
AcDbLine
 10
4.64359366650969
 20
31.15160859008971
 30
0.0
 11
6.583781166509687
 21
31.15160859008971
 31
0.0
  0
LINE
  5
3644
330
2087
100
AcDbEntity
  8
DIM
 62
     0
370
    -2
100
AcDbLine
 10
9.069593666509689
 20
31.15160859008971
 30
0.0
 11
7.129406166509687
 21
31.15160859008971
 31
0.0
  0
SOLID
  5
3645
330
2087
100
AcDbEntity
  8
DIM
 62
     0
100
AcDbTrace
 10
4.64359366650969
 20
31.21910859008971
 30
0.0
 11
4.64359366650969
 21
31.08410859008971
 31
0.0
 12
4.238593666509689
 22
31.15160859008971
 32
0.0
 13
4.238593666509689
 23
31.15160859008971
 33
0.0
  0
SOLID
  5
3646
330
2087
100
AcDbEntity
  8
DIM
 62
     0
100
AcDbTrace
 10
9.069593666509689
 20
31.21910859008971
 30
0.0
 11
9.069593666509689
 21
31.08410859008971
 31
0.0
 12
9.474593666509688
 22
31.15160859008971
 32
0.0
 13
9.474593666509688
 23
31.15160859008971
 33
0.0
  0
MTEXT
  5
3647
330
2087
100
AcDbEntity
  8
DIM
 62
     0
100
AcDbMText
 10
6.856593666509687
 20
31.15160859008971
 30
0.0
 40
0.28125
 41
0.0
 71
     5
 72
     1
  1
\A1;P
 73
     1
 44
1.0
  0
POINT
  5
3648
330
2087
100
AcDbEntity
  8
DEFPOINTS
 62
     0
100
AcDbPoint
 10
4.238593666509689
 20
28.53191749307784
 30
0.0
  0
POINT
  5
3649
330
2087
100
AcDbEntity
  8
DEFPOINTS
 62
     0
100
AcDbPoint
 10
9.474593666509688
 20
28.04191749307785
 30
0.0
  0
POINT
  5
364A
330
2087
100
AcDbEntity
  8
DEFPOINTS
 62
     0
100
AcDbPoint
 10
9.474593666509688
 20
31.15160859008971
 30
0.0
  0
ENDBLK
  5
2093
330
2087
100
AcDbEntity
  8
0
100
AcDbBlockEnd
  0
BLOCK
  5
20A0
330
2095
100
AcDbEntity
  8
0
100
AcDbBlockBegin
  2
*D26
 70
     1
 10
0.0
 20
0.0
 30
0.0
  3
*D26
  1

  0
LINE
  5
364B
330
2095
100
AcDbEntity
  8
DIM
 62
     0
370
    -2
100
AcDbLine
 10
4.238593666509689
 20
28.67366749307784
 30
0.0
 11
4.238593666509689
 21
30.67169618525769
 31
0.0
  0
LINE
  5
364C
330
2095
100
AcDbEntity
  8
DIM
 62
     0
370
    -2
100
AcDbLine
 10
4.490593666509688
 20
28.54866749307785
 30
0.0
 11
4.490593666509688
 21
30.67169618525769
 31
0.0
  0
LINE
  5
364D
330
2095
100
AcDbEntity
  8
DIM
 62
     0
370
    -2
100
AcDbLine
 10
4.895593666509689
 20
30.46244618525769
 30
0.0
 11
5.300593666509688
 21
30.46244618525769
 31
0.0
  0
LINE
  5
364E
330
2095
100
AcDbEntity
  8
DIM
 62
     0
370
    -2
100
AcDbLine
 10
3.83359366650969
 20
30.46244618525769
 30
0.0
 11
3.293828041509689
 21
30.46244618525769
 31
0.0
  0
SOLID
  5
364F
330
2095
100
AcDbEntity
  8
DIM
 62
     0
100
AcDbTrace
 10
4.895593666509689
 20
30.52994618525769
 30
0.0
 11
4.895593666509689
 21
30.3949461852577
 31
0.0
 12
4.490593666509688
 22
30.46244618525769
 32
0.0
 13
4.490593666509688
 23
30.46244618525769
 33
0.0
  0
SOLID
  5
3650
330
2095
100
AcDbEntity
  8
DIM
 62
     0
100
AcDbTrace
 10
3.83359366650969
 20
30.52994618525769
 30
0.0
 11
3.83359366650969
 21
30.3949461852577
 31
0.0
 12
4.238593666509689
 22
30.46244618525769
 32
0.0
 13
4.238593666509689
 23
30.46244618525769
 33
0.0
  0
MTEXT
  5
3651
330
2095
100
AcDbEntity
  8
DIM
 62
     0
100
AcDbMText
 10
2.687031166509689
 20
30.46244618525769
 30
0.0
 40
0.28125
 41
0.0
 71
     5
 72
     1
  1
\A1;0.252
 73
     1
 44
1.0
  0
POINT
  5
3652
330
2095
100
AcDbEntity
  8
DEFPOINTS
 62
     0
100
AcDbPoint
 10
4.238593666509689
 20
28.53191749307784
 30
0.0
  0
POINT
  5
3653
330
2095
100
AcDbEntity
  8
DEFPOINTS
 62
     0
100
AcDbPoint
 10
4.490593666509688
 20
28.40691749307785
 30
0.0
  0
POINT
  5
3654
330
2095
100
AcDbEntity
  8
DEFPOINTS
 62
     0
100
AcDbPoint
 10
4.490593666509688
 20
30.46244618525769
 30
0.0
  0
ENDBLK
  5
20A1
330
2095
100
AcDbEntity
  8
0
100
AcDbBlockEnd
  0
BLOCK
  5
20E0
330
20D5
100
AcDbEntity
  8
0
100
AcDbBlockBegin
  2
*D27
 70
     1
 10
0.0
 20
0.0
 30
0.0
  3
*D27
  1

  0
LINE
  5
3655
330
20D5
100
AcDbEntity
  8
DIM
 62
     0
370
    -2
100
AcDbLine
 10
4.348843666509688
 20
28.40691749307785
 30
0.0
 11
1.018757247800217
 21
28.40691749307785
 31
0.0
  0
LINE
  5
3656
330
20D5
100
AcDbEntity
  8
DIM
 62
     0
370
    -2
100
AcDbLine
 10
4.348843666509688
 20
24.03191749307785
 30
0.0
 11
1.018757247800216
 21
24.03191749307785
 31
0.0
  0
LINE
  5
3657
330
20D5
100
AcDbEntity
  8
DIM
 62
     0
370
    -2
100
AcDbLine
 10
1.228007247800217
 20
28.00191749307785
 30
0.0
 11
1.228007247800217
 21
26.63206266870898
 31
0.0
  0
LINE
  5
3658
330
20D5
100
AcDbEntity
  8
DIM
 62
     0
370
    -2
100
AcDbLine
 10
1.228007247800216
 20
24.43691749307784
 30
0.0
 11
1.228007247800217
 21
25.94581266870898
 31
0.0
  0
SOLID
  5
3659
330
20D5
100
AcDbEntity
  8
DIM
 62
     0
100
AcDbTrace
 10
1.160507247800217
 20
28.00191749307785
 30
0.0
 11
1.295507247800217
 21
28.00191749307785
 31
0.0
 12
1.228007247800217
 22
28.40691749307785
 32
0.0
 13
1.228007247800217
 23
28.40691749307785
 33
0.0
  0
SOLID
  5
365A
330
20D5
100
AcDbEntity
  8
DIM
 62
     0
100
AcDbTrace
 10
1.160507247800216
 20
24.43691749307784
 30
0.0
 11
1.295507247800216
 21
24.43691749307784
 31
0.0
 12
1.228007247800216
 22
24.03191749307785
 32
0.0
 13
1.228007247800216
 23
24.03191749307785
 33
0.0
  0
MTEXT
  5
365B
330
20D5
100
AcDbEntity
  8
DIM
 62
     0
100
AcDbMText
 10
1.228007247800212
 20
26.28893766870898
 30
0.0
 40
0.28125
 41
0.0
 71
     5
 72
     1
  1
\A1;N
 73
     1
 44
1.0
  0
POINT
  5
365C
330
20D5
100
AcDbEntity
  8
DEFPOINTS
 62
     0
100
AcDbPoint
 10
4.490593666509688
 20
28.40691749307785
 30
0.0
  0
POINT
  5
365D
330
20D5
100
AcDbEntity
  8
DEFPOINTS
 62
     0
100
AcDbPoint
 10
4.490593666509688
 20
24.03191749307785
 30
0.0
  0
POINT
  5
365E
330
20D5
100
AcDbEntity
  8
DEFPOINTS
 62
     0
100
AcDbPoint
 10
1.228007247800216
 20
24.03191749307785
 30
0.0
  0
ENDBLK
  5
20E1
330
20D5
100
AcDbEntity
  8
0
100
AcDbBlockEnd
  0
BLOCK
  5
20FC
330
20F1
100
AcDbEntity
  8
0
100
AcDbBlockBegin
  2
*D28
 70
     1
 10
0.0
 20
0.0
 30
0.0
  3
*D28
  1

  0
LINE
  5
365F
330
20F1
100
AcDbEntity
  8
DIM
 62
     0
370
    -2
100
AcDbLine
 10
4.490593666509688
 20
23.89016749307784
 30
0.0
 11
4.490593666509688
 21
22.90594762210292
 31
0.0
  0
LINE
  5
3660
330
20F1
100
AcDbEntity
  8
DIM
 62
     0
370
    -2
100
AcDbLine
 10
9.708593666509694
 20
23.89016749307784
 30
0.0
 11
9.708593666509694
 21
22.90594762210292
 31
0.0
  0
LINE
  5
3661
330
20F1
100
AcDbEntity
  8
DIM
 62
     0
370
    -2
100
AcDbLine
 10
4.895593666509689
 20
23.11519762210292
 30
0.0
 11
6.826781166509691
 21
23.11519762210292
 31
0.0
  0
LINE
  5
3662
330
20F1
100
AcDbEntity
  8
DIM
 62
     0
370
    -2
100
AcDbLine
 10
9.303593666509694
 20
23.11519762210292
 30
0.0
 11
7.372406166509691
 21
23.11519762210292
 31
0.0
  0
SOLID
  5
3663
330
20F1
100
AcDbEntity
  8
DIM
 62
     0
100
AcDbTrace
 10
4.895593666509689
 20
23.18269762210292
 30
0.0
 11
4.895593666509689
 21
23.04769762210292
 31
0.0
 12
4.490593666509688
 22
23.11519762210292
 32
0.0
 13
4.490593666509688
 23
23.11519762210292
 33
0.0
  0
SOLID
  5
3664
330
20F1
100
AcDbEntity
  8
DIM
 62
     0
100
AcDbTrace
 10
9.303593666509694
 20
23.18269762210292
 30
0.0
 11
9.303593666509694
 21
23.04769762210292
 31
0.0
 12
9.708593666509694
 22
23.11519762210292
 32
0.0
 13
9.708593666509694
 23
23.11519762210292
 33
0.0
  0
MTEXT
  5
3665
330
20F1
100
AcDbEntity
  8
DIM
 62
     0
100
AcDbMText
 10
7.099593666509691
 20
23.11519762210292
 30
0.0
 40
0.28125
 41
0.0
 71
     5
 72
     1
  1
\A1;M
 73
     1
 44
1.0
  0
POINT
  5
3666
330
20F1
100
AcDbEntity
  8
DEFPOINTS
 62
     0
100
AcDbPoint
 10
4.490593666509688
 20
24.03191749307785
 30
0.0
  0
POINT
  5
3667
330
20F1
100
AcDbEntity
  8
DEFPOINTS
 62
     0
100
AcDbPoint
 10
9.708593666509694
 20
24.03191749307785
 30
0.0
  0
POINT
  5
3668
330
20F1
100
AcDbEntity
  8
DEFPOINTS
 62
     0
100
AcDbPoint
 10
9.708593666509694
 20
23.11519762210292
 30
0.0
  0
ENDBLK
  5
20FD
330
20F1
100
AcDbEntity
  8
0
100
AcDbBlockEnd
  0
BLOCK
  5
213E
330
2132
100
AcDbEntity
  8
0
100
AcDbBlockBegin
  2
*D29
 70
     1
 10
0.0
 20
0.0
 30
0.0
  3
*D29
  1

  0
LINE
  5
3669
330
2132
100
AcDbEntity
  8
DIM
 62
     0
370
    -2
100
AcDbLine
 10
4.159343666509689
 20
24.20941749307784
 30
0.0
 11
3.491830234736912
 21
24.20941749307784
 31
0.0
  0
LINE
  5
366A
330
2132
100
AcDbEntity
  8
DIM
 62
     0
370
    -2
100
AcDbLine
 10
4.159343666509689
 20
23.84441749307784
 30
0.0
 11
3.491830234736912
 21
23.84441749307784
 31
0.0
  0
LINE
  5
366B
330
2132
100
AcDbEntity
  8
DIM
 62
     0
370
    -2
100
AcDbLine
 10
3.701080234736912
 20
24.61441749307784
 30
0.0
 11
3.701080234736912
 21
25.01941749307784
 31
0.0
  0
LINE
  5
366C
330
2132
100
AcDbEntity
  8
DIM
 62
     0
370
    -2
100
AcDbLine
 10
3.701080234736912
 20
23.43941749307784
 30
0.0
 11
3.701080234736912
 21
23.03441749307784
 31
0.0
  0
LINE
  5
366D
330
2132
100
AcDbEntity
  8
DIM
 62
     0
370
    -2
100
AcDbLine
 10
3.701080234736912
 20
23.03441749307784
 30
0.0
 11
3.296080234736912
 21
23.03441749307784
 31
0.0
  0
SOLID
  5
366E
330
2132
100
AcDbEntity
  8
DIM
 62
     0
100
AcDbTrace
 10
3.633580234736912
 20
24.61441749307784
 30
0.0
 11
3.768580234736912
 21
24.61441749307784
 31
0.0
 12
3.701080234736912
 22
24.20941749307784
 32
0.0
 13
3.701080234736912
 23
24.20941749307784
 33
0.0
  0
SOLID
  5
366F
330
2132
100
AcDbEntity
  8
DIM
 62
     0
100
AcDbTrace
 10
3.633580234736912
 20
23.43941749307784
 30
0.0
 11
3.768580234736912
 21
23.43941749307784
 31
0.0
 12
3.701080234736912
 22
23.84441749307784
 32
0.0
 13
3.701080234736912
 23
23.84441749307784
 33
0.0
  0
MTEXT
  5
3670
330
2132
100
AcDbEntity
  8
DIM
 62
     0
100
AcDbMText
 10
2.689283359736908
 20
23.03441749307784
 30
0.0
 40
0.28125
 41
0.0
 71
     5
 72
     1
  1
\A1;0.365
 73
     1
 44
1.0
  0
POINT
  5
3671
330
2132
100
AcDbEntity
  8
DEFPOINTS
 62
     0
100
AcDbPoint
 10
4.301093666509689
 20
24.20941749307784
 30
0.0
  0
POINT
  5
3672
330
2132
100
AcDbEntity
  8
DEFPOINTS
 62
     0
100
AcDbPoint
 10
4.301093666509689
 20
23.84441749307784
 30
0.0
  0
POINT
  5
3673
330
2132
100
AcDbEntity
  8
DEFPOINTS
 62
     0
100
AcDbPoint
 10
3.701080234736912
 20
23.84441749307784
 30
0.0
  0
ENDBLK
  5
213F
330
2132
100
AcDbEntity
  8
0
100
AcDbBlockEnd
  0
BLOCK
  5
214A
330
2141
100
AcDbEntity
  8
0
100
AcDbBlockBegin
  2
*D30
 70
     1
 10
0.0
 20
0.0
 30
0.0
  3
*D30
  1

  0
LINE
  5
3674
330
2141
100
AcDbEntity
  8
DIM
 62
     0
370
    -2
100
AcDbLine
 10
4.38535794082033
 20
27.93859555035186
 30
0.0
 11
4.291005818279659
 21
27.51870801654043
 31
0.0
  0
LINE
  5
3675
330
2141
100
AcDbEntity
  8
DIM
 62
     0
370
    -2
100
AcDbLine
 10
4.291005818279659
 20
27.51870801654043
 30
0.0
 11
3.886005818279659
 21
27.51870801654043
 31
0.0
  0
SOLID
  5
3676
330
2141
100
AcDbEntity
  8
DIM
 62
     0
100
AcDbTrace
 10
4.31950016762449
 20
27.95339432427693
 30
0.0
 11
4.45121571401617
 21
27.92379677642679
 31
0.0
 12
4.474150584370738
 22
28.3337421895269
 32
0.0
 13
4.474150584370738
 23
28.3337421895269
 33
0.0
  0
MTEXT
  5
3677
330
2141
100
AcDbEntity
  8
DIM
 62
     0
100
AcDbMText
 10
2.699130818279657
 20
27.51870801654043
 30
0.0
 40
0.28125
 41
0.0
 71
     5
 72
     1
  1
\A1;\U+22050.150 THRU
 73
     1
 44
1.0
  0
POINT
  5
3678
330
2141
100
AcDbEntity
  8
DEFPOINTS
 62
     0
100
AcDbPoint
 10
4.474150584370738
 20
28.3337421895269
 30
0.0
  0
POINT
  5
3679
330
2141
100
AcDbEntity
  8
DEFPOINTS
 62
     0
100
AcDbPoint
 10
4.50703674864867
 20
28.48009279662879
 30
0.0
  0
ENDBLK
  5
214B
330
2141
100
AcDbEntity
  8
0
100
AcDbBlockEnd
  0
BLOCK
  5
2176
330
216F
100
AcDbEntity
  8
0
100
AcDbBlockBegin
  2
*D31
 70
     1
 10
0.0
 20
0.0
 30
0.0
  3
*D31
  1

  0
LINE
  5
367A
330
216F
100
AcDbEntity
  8
DIM
 62
     0
370
    -2
100
AcDbLine
 10
3.751374407463644
 20
25.50317698516526
 30
0.0
 11
4.156374407463643
 21
25.50317698516526
 31
0.0
  0
LINE
  5
367B
330
216F
100
AcDbEntity
  8
DIM
 62
     0
370
    -2
100
AcDbLine
 10
4.156374407463643
 20
25.50317698516526
 30
0.0
 11
4.466315241118073
 21
24.6025790220498
 31
0.0
  0
MTEXT
  5
367C
330
216F
100
AcDbEntity
  8
DIM
 62
     0
100
AcDbMText
 10
3.074265032463642
 20
25.50317698516526
 30
0.0
 40
0.28125
 41
0.0
 71
     5
 72
     1
  1
\A1;R0.188
 73
     1
 44
1.0
  0
SOLID
  5
367D
330
216F
100
AcDbEntity
  8
DIM
 62
     0
100
AcDbTrace
 10
4.530141232867992
 20
24.62454474027479
 30
0.0
 11
4.402489249368156
 21
24.58061330382482
 31
0.0
 12
4.598109550467988
 22
24.2196230715503
 32
0.0
 13
4.598109550467988
 23
24.2196230715503
 33
0.0
  0
POINT
  5
367E
330
216F
100
AcDbEntity
  8
DEFPOINTS
 62
     0
100
AcDbPoint
 10
4.598109550467988
 20
24.2196230715503
 30
0.0
  0
POINT
  5
367F
330
216F
100
AcDbEntity
  8
DEFPOINTS
 62
     0
100
AcDbPoint
 10
4.537093666509688
 20
24.39691749307787
 30
0.0
  0
ENDBLK
  5
2177
330
216F
100
AcDbEntity
  8
0
100
AcDbBlockEnd
  0
BLOCK
  5
3698
330
3681
100
AcDbEntity
  8
0
100
AcDbBlockBegin
  2
HB
 70
     0
 10
0.0
 20
0.0
 30
0.0
  3
HB
  1

  0
LINE
  5
3682
330
3681
100
AcDbEntity
  8
TITLE
100
AcDbLine
 10
0.0
 20
15.5
 30
0.0
 11
10.11999999999999
 21
15.49999999999999
 31
0.0
  0
LINE
  5
3683
330
3681
100
AcDbEntity
  8
TITLE
100
AcDbLine
 10
10.11999999999999
 20
-0.0000000000000018
 30
0.0
 11
0.0
 21
0.0
 31
0.0
  0
LINE
  5
3684
330
3681
100
AcDbEntity
  8
TITLE
100
AcDbLine
 10
0.0620000000000012
 20
15.438
 30
0.0
 11
10.058
 21
15.438
 31
0.0
  0
LINE
  5
3685
330
3681
100
AcDbEntity
  8
TITLE
100
AcDbLine
 10
10.058
 20
0.0619999999999994
 30
0.0
 11
0.0619999999999976
 21
0.0620000000000012
 31
0.0
  0
LINE
  5
3686
330
3681
100
AcDbEntity
  8
TITLE
100
AcDbLine
 10
0.0620000000000012
 20
15.01999999999999
 30
0.0
 11
10.058
 21
15.01999999999999
 31
0.0
  0
LINE
  5
3687
330
3681
100
AcDbEntity
  8
TITLE
100
AcDbLine
 10
0.0
 20
0.0
 30
0.0
 11
0.0
 21
15.5
 31
0.0
  0
LINE
  5
3688
330
3681
100
AcDbEntity
  8
TITLE
100
AcDbLine
 10
0.0619999999999976
 20
0.0620000000000012
 30
0.0
 11
0.0620000000000012
 21
15.438
 31
0.0
  0
TEXT
  5
3689
330
3681
100
AcDbEntity
  8
TEXT
100
AcDbText
 10
0.2078333333333381
 20
15.26841252897341
 30
0.0
 40
0.125
  1
PART
 72
     1
 11
0.4370000000000048
 21
15.26841252897341
 31
0.0
100
AcDbText
  0
TEXT
  5
368A
330
3681
100
AcDbEntity
  8
TEXT
100
AcDbText
 10
0.2078333333333381
 20
15.06007919564008
 30
0.0
 40
0.125
  1
NAME
 72
     1
 11
0.4370000000000048
 21
15.06007919564008
 31
0.0
100
AcDbText
  0
LINE
  5
368B
330
3681
100
AcDbEntity
  8
TITLE
100
AcDbLine
 10
0.8120000000000047
 20
15.01999999999999
 30
0.0
 11
0.8120000000000011
 21
15.438
 31
0.0
  0
LINE
  5
368C
330
3681
100
AcDbEntity
  8
TITLE
100
AcDbLine
 10
10.11999999999999
 20
15.49999999999999
 30
0.0
 11
10.11999999999999
 21
-0.0000000000000018
 31
0.0
  0
LINE
  5
368D
330
3681
100
AcDbEntity
  8
TITLE
100
AcDbLine
 10
10.058
 20
15.438
 30
0.0
 11
10.058
 21
0.0619999999999994
 31
0.0
  0
TEXT
  5
368E
330
3681
100
AcDbEntity
  8
TEXT
100
AcDbText
 10
4.36183333333333
 20
15.26841252897341
 30
0.0
 40
0.125
  1
PART
 72
     1
 11
4.590999999999997
 21
15.26841252897341
 31
0.0
100
AcDbText
  0
LINE
  5
368F
330
3681
100
AcDbEntity
  8
TITLE
100
AcDbLine
 10
4.153999999999999
 20
15.438
 30
0.0
 11
4.153999999999999
 21
15.01999999999999
 31
0.0
  0
LINE
  5
3690
330
3681
100
AcDbEntity
  8
TITLE
100
AcDbLine
 10
4.215999999999997
 20
15.438
 30
0.0
 11
4.215999999999997
 21
15.01999999999999
 31
0.0
  0
TEXT
  5
3691
330
3681
100
AcDbEntity
  8
TEXT
100
AcDbText
 10
4.465999999999997
 20
15.06007919564008
 30
0.0
 40
0.125
  1
No.
 72
     1
 11
4.590999999999997
 21
15.06007919564008
 31
0.0
100
AcDbText
  0
LINE
  5
3692
330
3681
100
AcDbEntity
  8
TITLE
100
AcDbLine
 10
4.965999999999997
 20
15.438
 30
0.0
 11
4.965999999999997
 21
15.01999999999999
 31
0.0
  0
LINE
  5
3693
330
3681
100
AcDbEntity
  8
TITLE
100
AcDbLine
 10
8.307999999999999
 20
15.438
 30
0.0
 11
8.307999999999999
 21
15.02
 31
0.0
  0
LINE
  5
3694
330
3681
100
AcDbEntity
  8
TITLE
100
AcDbLine
 10
8.245999999999988
 20
15.438
 30
0.0
 11
8.245999999999988
 21
15.02
 31
0.0
  0
TEXT
  5
3695
330
3681
100
AcDbEntity
  8
TEXT
100
AcDbText
 10
8.453833333333333
 20
15.06007919564008
 30
0.0
 40
0.125
  1
DATE
 72
     1
 11
8.682999999999999
 21
15.06007919564008
 31
0.0
100
AcDbText
  0
TEXT
  5
3696
330
3681
100
AcDbEntity
  8
TEXT
100
AcDbText
 10
8.474666666666665
 20
15.26841252897341
 30
0.0
 40
0.125
  1
REV.
 72
     1
 11
8.682999999999999
 21
15.26841252897341
 31
0.0
100
AcDbText
  0
LINE
  5
3697
330
3681
100
AcDbEntity
  8
TITLE
100
AcDbLine
 10
9.057999999999999
 20
15.438
 30
0.0
 11
9.057999999999999
 21
15.02
 31
0.0
  0
ENDBLK
  5
3699
330
3681
100
AcDbEntity
  8
0
100
AcDbBlockEnd
  0
ENDSEC
  0
SECTION
  2
ENTITIES
  0
LINE
  5
278
330
1E
100
AcDbEntity
  8
OBJECT
100
AcDbLine
 10
4.912093666509684
 20
9.49078971688856
 30
0.0
 11
9.287093666509687
 21
9.490789716888556
 31
0.0
  0
LINE
  5
279
330
1E
100
AcDbEntity
  8
OBJECT
100
AcDbLine
 10
9.474593666509687
 20
9.678289716888556
 30
0.0
 11
9.474593666509687
 21
14.05328971688855
 31
0.0
  0
LINE
  5
27A
330
1E
100
AcDbEntity
  8
OBJECT
100
AcDbLine
 10
9.287093666509687
 20
14.24078971688855
 30
0.0
 11
4.912093666509684
 21
14.24078971688856
 31
0.0
  0
LINE
  5
27B
330
1E
100
AcDbEntity
  8
OBJECT
100
AcDbLine
 10
4.724593666509684
 20
14.05328971688856
 30
0.0
 11
4.724593666509684
 21
9.67828971688856
 31
0.0
  0
CIRCLE
  5
27C
330
1E
100
AcDbEntity
  8
OBJECT
100
AcDbCircle
 10
4.919593666509684
 20
14.04578971688856
 30
0.0
 40
0.065
  0
CIRCLE
  5
27D
330
1E
100
AcDbEntity
  8
OBJECT
100
AcDbCircle
 10
9.279593666509688
 20
14.04578971688855
 30
0.0
 40
0.065
  0
ARC
  5
27E
330
1E
100
AcDbEntity
  8
OBJECT
100
AcDbCircle
 10
4.912093666509684
 20
14.05328971688856
 30
0.0
 40
0.1875
100
AcDbArc
 50
90.0
 51
180.0
  0
ARC
  5
27F
330
1E
100
AcDbEntity
  8
OBJECT
100
AcDbCircle
 10
9.287093666509687
 20
14.05328971688855
 30
0.0
 40
0.1875
100
AcDbArc
 50
0.0
 51
90.0
  0
ARC
  5
280
330
1E
100
AcDbEntity
  8
OBJECT
100
AcDbCircle
 10
9.287093666509687
 20
9.678289716888556
 30
0.0
 40
0.1875
100
AcDbArc
 50
270.0
 51
0.0
  0
ARC
  5
281
330
1E
100
AcDbEntity
  8
OBJECT
100
AcDbCircle
 10
4.912093666509684
 20
9.67828971688856
 30
0.0
 40
0.1875
100
AcDbArc
 50
180.0
 51
270.0
  0
ARC
  5
282
330
1E
100
AcDbEntity
  8
OBJECT
100
AcDbCircle
 10
4.919593666509684
 20
14.04578971688856
 30
0.0
 40
0.125
100
AcDbArc
 50
270.0
 51
0.0
  0
LINE
  5
283
102
{ACAD_REACTORS
330
29A9
102
}
330
1E
100
AcDbEntity
  8
OBJECT
100
AcDbLine
 10
15.75693145867558
 20
11.55328971688855
 30
0.0
 11
15.8247427892258
 21
9.611427279800743
 31
0.0
  0
LINE
  5
284
102
{ACAD_REACTORS
330
29A9
102
}
330
1E
100
AcDbEntity
  8
OBJECT
100
AcDbLine
 10
15.94966664260319
 20
9.490789716888556
 30
0.0
 11
20.31469627474796
 21
9.490789716888556
 31
0.0
  0
LINE
  5
285
102
{ACAD_REACTORS
330
29A9
102
}
330
1E
100
AcDbEntity
  8
OBJECT
100
AcDbLine
 10
20.43962012812535
 20
9.611427279800743
 30
0.0
 11
20.50743145867556
 21
11.55328971688855
 31
0.0
  0
LINE
  5
286
102
{ACAD_REACTORS
330
29A9
102
}
330
1E
100
AcDbEntity
  8
OBJECT
100
AcDbLine
 10
20.50743145867556
 20
11.55328971688855
 30
0.0
 11
20.41362431389756
 21
11.55328971688855
 31
0.0
  0
LINE
  5
287
102
{ACAD_REACTORS
330
29A9
102
}
330
1E
100
AcDbEntity
  8
OBJECT
100
AcDbLine
 10
15.85073860345359
 20
11.55328971688855
 30
0.0
 11
15.91792812715052
 21
9.629233498344651
 31
0.0
  0
LINE
  5
288
102
{ACAD_REACTORS
330
29A9
102
}
330
1E
100
AcDbEntity
  8
OBJECT
100
AcDbLine
 10
20.34643479020063
 20
9.629233498344651
 30
0.0
 11
20.41362431389756
 21
11.55328971688855
 31
0.0
  0
ARC
  5
289
102
{ACAD_REACTORS
330
29A9
102
}
330
1E
100
AcDbEntity
  8
OBJECT
100
AcDbCircle
 10
20.31469627474796
 20
9.615789716888556
 30
0.0
 40
0.125
100
AcDbArc
 50
270.0
 51
358.0
  0
ARC
  5
28A
102
{ACAD_REACTORS
330
29A9
102
}
330
1E
100
AcDbEntity
  8
OBJECT
100
AcDbCircle
 10
15.94966664260319
 20
9.615789716888556
 30
0.0
 40
0.125
100
AcDbArc
 50
182.0
 51
270.0
  0
LINE
  5
28B
330
1E
100
AcDbEntity
  8
OBJECT
100
AcDbLine
 10
20.41035049175771
 20
11.45953971688855
 30
0.0
 11
20.19146715394235
 21
11.45953971688855
 31
0.0
  0
LINE
  5
28C
330
1E
100
AcDbEntity
  8
OBJECT
100
AcDbLine
 10
16.07289576340882
 20
11.45953971688855
 30
0.0
 11
16.1368114649659
 21
9.629233498344651
 31
0.0
  0
LINE
  5
28D
330
1E
100
AcDbEntity
  8
OBJECT
100
AcDbLine
 10
20.12755145238526
 20
9.629233498344651
 30
0.0
 11
20.19146715394235
 21
11.45953971688855
 31
0.0
  0
LINE
  5
28E
330
1E
100
AcDbEntity
  8
OBJECT
100
AcDbLine
 10
16.07289576340882
 20
11.45953971688855
 30
0.0
 11
15.85401242559345
 21
11.45953971688855
 31
0.0
  0
LINE
  5
28F
330
1E
100
AcDbEntity
  8
CENTER
100
AcDbLine
 10
15.9400663624891
 20
11.67828971688855
 30
0.0
 11
15.96625693960792
 21
10.92828971688855
 31
0.0
  0
LINE
  5
290
330
1E
100
AcDbEntity
  8
CENTER
100
AcDbLine
 10
20.32429655486205
 20
11.67828971688855
 30
0.0
 11
20.29810597774324
 21
10.92828971688855
 31
0.0
  0
DIMENSION
  5
291
330
1E
100
AcDbEntity
  8
DIM
100
AcDbDimension
  2
*D0
 10
10.57533128743352
 20
9.685789716888557
 30
0.0
 11
10.57533128743351
 21
11.86578971688855
 31
0.0
 70
    32
  1
E
 71
     5
 42
4.359999999999994
  3
23NSTD
100
AcDbAlignedDimension
 13
9.279593666509688
 23
14.04578971688855
 33
0.0
 14
9.279593666509688
 24
9.685789716888557
 34
0.0
 50
90.0
100
AcDbRotatedDimension
  0
DIMENSION
  5
292
330
1E
100
AcDbEntity
  8
DIM
100
AcDbDimension
  2
*D1
 10
11.15850230654146
 20
9.490789716888556
 30
0.0
 11
11.15850230654146
 21
11.86578971688855
 31
0.0
 70
    32
  1
A
 71
     5
 42
4.749999999999994
  3
23NSTD
100
AcDbAlignedDimension
 13
9.287093666509687
 23
14.24078971688855
 33
0.0
 14
9.287093666509687
 24
9.490789716888556
 34
0.0
 50
90.0
100
AcDbRotatedDimension
  0
LINE
  5
295
102
{ACAD_REACTORS
330
29A9
102
}
330
1E
100
AcDbEntity
  8
OBJECT
100
AcDbLine
 10
15.98039005383922
 20
9.568914716888556
 30
0.0
 11
20.28397286351194
 21
9.568914716888556
 31
0.0
  0
ARC
  5
296
330
1E
100
AcDbEntity
  8
OBJECT
100
AcDbCircle
 10
16.19927339165458
 20
9.631414716888556
 30
0.0
 40
0.0625
100
AcDbArc
 50
182.0
 51
270.0
  0
ARC
  5
297
102
{ACAD_REACTORS
330
29A9
102
}
330
1E
100
AcDbEntity
  8
OBJECT
100
AcDbCircle
 10
15.98039005383922
 20
9.631414716888556
 30
0.0
 40
0.0625
100
AcDbArc
 50
182.0
 51
270.0
  0
ARC
  5
298
330
1E
100
AcDbEntity
  8
OBJECT
100
AcDbCircle
 10
20.06508952569657
 20
9.631414716888556
 30
0.0
 40
0.0625
100
AcDbArc
 50
270.0
 51
358.0
  0
ARC
  5
299
102
{ACAD_REACTORS
330
29A9
102
}
330
1E
100
AcDbEntity
  8
OBJECT
100
AcDbCircle
 10
20.28397286351194
 20
9.631414716888556
 30
0.0
 40
0.0625
100
AcDbArc
 50
270.0
 51
358.0
  0
LINE
  5
29A
330
1E
100
AcDbEntity
  8
OBJECT
100
AcDbLine
 10
20.41362431389756
 20
11.55328971688855
 30
0.0
 11
15.85073860345359
 21
11.55328971688855
 31
0.0
  0
LINE
  5
29B
102
{ACAD_REACTORS
330
29A9
102
}
330
1E
100
AcDbEntity
  8
OBJECT
100
AcDbLine
 10
15.85073860345359
 20
11.55328971688855
 30
0.0
 11
15.75693145867558
 21
11.55328971688855
 31
0.0
  0
TEXT
  5
29C
330
1E
100
AcDbEntity
  8
BEND
100
AcDbText
 10
6.081443392878147
 20
14.74554391251348
 30
0.0
 40
0.281
  1
B
 41
0.75
 72
     4
 11
6.151693392878147
 21
14.88604391251348
 31
0.0
100
AcDbText
  0
TEXT
  5
2A3
330
1E
100
AcDbEntity
  8
BEND
100
AcDbText
 10
6.081443392878147
 20
8.658035521263649
 30
0.0
 40
0.281
  1
B
 41
0.75
 72
     4
 11
6.151693392878147
 21
8.798535521263648
 31
0.0
100
AcDbText
  0
LINE
  5
2A5
330
1E
100
AcDbEntity
  8
HIDDEN
100
AcDbLine
 10
16.01270528081542
 20
11.45953971688855
 30
0.0
 11
16.02564223264173
 21
11.08907388768191
 31
0.0
  0
LINE
  5
2A6
330
1E
100
AcDbEntity
  8
HIDDEN
100
AcDbLine
 10
15.88270528081543
 20
11.45953971688856
 30
0.0
 11
15.89580056937483
 21
11.08453971688856
 31
0.0
  0
LINE
  5
2A7
330
1E
100
AcDbEntity
  8
HIDDEN
100
AcDbLine
 10
15.89580056937483
 20
11.08453971688856
 30
0.0
 11
15.96063890620103
 21
11.05006456166482
 31
0.0
  0
LINE
  5
2A8
330
1E
100
AcDbEntity
  8
HIDDEN
100
AcDbLine
 10
16.02564223264173
 20
11.08907388768191
 30
0.0
 11
15.96063890620103
 21
11.05006456166482
 31
0.0
  0
LINE
  5
2A9
330
1E
100
AcDbEntity
  8
HIDDEN
100
AcDbLine
 10
15.89580056937483
 20
11.08453971688856
 30
0.0
 11
16.02564223264173
 21
11.08907388768191
 31
0.0
  0
LINE
  5
2AA
330
1E
100
AcDbEntity
  8
HIDDEN
100
AcDbLine
 10
20.36856234797632
 20
11.08453971688856
 30
0.0
 11
20.23872068470943
 21
11.08907388768191
 31
0.0
  0
LINE
  5
2AB
330
1E
100
AcDbEntity
  8
HIDDEN
100
AcDbLine
 10
20.23872068470943
 20
11.08907388768191
 30
0.0
 11
20.30372401115013
 21
11.05006456166482
 31
0.0
  0
LINE
  5
2AC
330
1E
100
AcDbEntity
  8
HIDDEN
100
AcDbLine
 10
20.36856234797632
 20
11.08453971688856
 30
0.0
 11
20.30372401115013
 21
11.05006456166482
 31
0.0
  0
LINE
  5
2AD
330
1E
100
AcDbEntity
  8
HIDDEN
100
AcDbLine
 10
20.38165763653573
 20
11.45953971688856
 30
0.0
 11
20.36856234797632
 21
11.08453971688856
 31
0.0
  0
LINE
  5
2AE
330
1E
100
AcDbEntity
  8
HIDDEN
100
AcDbLine
 10
20.25165763653573
 20
11.45953971688855
 30
0.0
 11
20.23872068470943
 21
11.08907388768191
 31
0.0
  0
LINE
  5
2AF
330
1E
100
AcDbEntity
  8
OBJECT
100
AcDbLine
 10
5.044593666509684
 20
14.04578971688856
 30
0.0
 11
5.044593666509684
 21
14.08503971688856
 31
0.0
  0
LINE
  5
2B0
330
1E
100
AcDbEntity
  8
OBJECT
100
AcDbLine
 10
4.919593666509684
 20
13.92078971688856
 30
0.0
 11
4.880343666509686
 21
13.92078971688856
 31
0.0
  0
ARC
  5
2B1
330
1E
100
AcDbEntity
  8
OBJECT
100
AcDbCircle
 10
5.106593666509686
 20
14.08503971688856
 30
0.0
 40
0.062
100
AcDbArc
 50
90.0
 51
180.0
  0
ARC
  5
2B2
330
1E
100
AcDbEntity
  8
OBJECT
100
AcDbCircle
 10
4.880343666509686
 20
13.85878971688856
 30
0.0
 40
0.062
100
AcDbArc
 50
90.0
 51
180.0
  0
ARC
  5
2B3
330
1E
100
AcDbEntity
  8
OBJECT
100
AcDbCircle
 10
9.318843666509687
 20
13.85878971688855
 30
0.0
 40
0.062
100
AcDbArc
 50
0.0
 51
90.0
  0
ARC
  5
2B4
330
1E
100
AcDbEntity
  8
OBJECT
100
AcDbCircle
 10
9.092593666509687
 20
14.08503971688856
 30
0.0
 40
0.062
100
AcDbArc
 50
0.0
 51
90.0
  0
LINE
  5
2B5
330
1E
100
AcDbEntity
  8
OBJECT
100
AcDbLine
 10
9.279593666509688
 20
13.92078971688855
 30
0.0
 11
9.318843666509687
 21
13.92078971688855
 31
0.0
  0
LINE
  5
2B6
330
1E
100
AcDbEntity
  8
OBJECT
100
AcDbLine
 10
9.154593666509688
 20
14.04578971688855
 30
0.0
 11
9.154593666509688
 21
14.08503971688856
 31
0.0
  0
ARC
  5
2B7
330
1E
100
AcDbEntity
  8
OBJECT
100
AcDbCircle
 10
9.279593666509688
 20
14.04578971688855
 30
0.0
 40
0.125
100
AcDbArc
 50
180.0
 51
270.0
  0
LINE
  5
2B8
330
1E
100
AcDbEntity
  8
OBJECT
100
AcDbLine
 10
4.818593666509686
 20
14.05278971688856
 30
0.0
 11
4.818593666509686
 21
9.678789716888562
 31
0.0
  0
LINE
  5
2B9
330
1E
100
AcDbEntity
  8
OBJECT
100
AcDbLine
 10
9.286593666509684
 20
14.14678971688855
 30
0.0
 11
4.912593666509686
 21
14.14678971688855
 31
0.0
  0
LINE
  5
2BA
330
1E
100
AcDbEntity
  8
OBJECT
100
AcDbLine
 10
9.380593666509687
 20
9.678789716888559
 30
0.0
 11
9.380593666509687
 21
14.05278971688856
 31
0.0
  0
LINE
  5
2BB
330
1E
100
AcDbEntity
  8
OBJECT
100
AcDbLine
 10
4.912593666509686
 20
9.584789716888559
 30
0.0
 11
9.286593666509684
 21
9.584789716888556
 31
0.0
  0
ARC
  5
2C2
330
1E
100
AcDbEntity
  8
OBJECT
100
AcDbCircle
 10
4.912593666509686
 20
14.05278971688856
 30
0.0
 40
0.094
100
AcDbArc
 50
90.0
 51
180.0
  0
ARC
  5
2C3
330
1E
100
AcDbEntity
  8
OBJECT
100
AcDbCircle
 10
9.286593666509684
 20
14.05278971688856
 30
0.0
 40
0.094
100
AcDbArc
 50
0.0
 51
90.0
  0
ARC
  5
2C4
330
1E
100
AcDbEntity
  8
OBJECT
100
AcDbCircle
 10
9.286593666509684
 20
9.678789716888559
 30
0.0
 40
0.094
100
AcDbArc
 50
270.0
 51
0.0
  0
ARC
  5
2C5
330
1E
100
AcDbEntity
  8
OBJECT
100
AcDbCircle
 10
4.912593666509686
 20
9.678789716888562
 30
0.0
 40
0.094
100
AcDbArc
 50
180.0
 51
270.0
  0
ARC
  5
2C6
330
1E
100
AcDbEntity
  8
OBJECT
100
AcDbCircle
 10
9.279593666509688
 20
9.685789716888557
 30
0.0
 40
0.125
100
AcDbArc
 50
90.0
 51
180.0
  0
LINE
  5
2C7
330
1E
100
AcDbEntity
  8
OBJECT
100
AcDbLine
 10
9.154593666509688
 20
9.685789716888557
 30
0.0
 11
9.154593666509688
 21
9.646539716888554
 31
0.0
  0
LINE
  5
2C8
330
1E
100
AcDbEntity
  8
OBJECT
100
AcDbLine
 10
9.279593666509688
 20
9.810789716888557
 30
0.0
 11
9.318843666509687
 21
9.810789716888557
 31
0.0
  0
ARC
  5
2C9
330
1E
100
AcDbEntity
  8
OBJECT
100
AcDbCircle
 10
9.092593666509687
 20
9.646539716888554
 30
0.0
 40
0.062
100
AcDbArc
 50
270.0
 51
0.0
  0
ARC
  5
2CA
330
1E
100
AcDbEntity
  8
OBJECT
100
AcDbCircle
 10
9.318843666509687
 20
9.872789716888554
 30
0.0
 40
0.062
100
AcDbArc
 50
270.0
 51
0.0
  0
ARC
  5
2CB
330
1E
100
AcDbEntity
  8
OBJECT
100
AcDbCircle
 10
4.880343666509686
 20
9.872789716888556
 30
0.0
 40
0.062
100
AcDbArc
 50
180.0
 51
270.0
  0
ARC
  5
2CC
330
1E
100
AcDbEntity
  8
OBJECT
100
AcDbCircle
 10
5.106593666509686
 20
9.646539716888556
 30
0.0
 40
0.062
100
AcDbArc
 50
180.0
 51
270.0
  0
LINE
  5
2CD
330
1E
100
AcDbEntity
  8
OBJECT
100
AcDbLine
 10
4.919593666509684
 20
9.81078971688856
 30
0.0
 11
4.880343666509686
 21
9.81078971688856
 31
0.0
  0
LINE
  5
2CE
330
1E
100
AcDbEntity
  8
OBJECT
100
AcDbLine
 10
5.044593666509684
 20
9.68578971688856
 30
0.0
 11
5.044593666509684
 21
9.646539716888556
 31
0.0
  0
ARC
  5
2CF
330
1E
100
AcDbEntity
  8
OBJECT
100
AcDbCircle
 10
4.919593666509684
 20
9.68578971688856
 30
0.0
 40
0.125
100
AcDbArc
 50
0.0
 51
90.0
  0
CIRCLE
  5
2D0
330
1E
100
AcDbEntity
  8
OBJECT
100
AcDbCircle
 10
9.279593666509688
 20
9.685789716888557
 30
0.0
 40
0.065
  0
CIRCLE
  5
2D1
330
1E
100
AcDbEntity
  8
OBJECT
100
AcDbCircle
 10
4.919593666509684
 20
9.68578971688856
 30
0.0
 40
0.065
  0
CIRCLE
  5
2D2
330
1E
100
AcDbEntity
  8
OBJECT
100
AcDbCircle
 10
4.919593666509684
 20
11.86578971688856
 30
0.0
 40
0.065
  0
ARC
  5
2D3
330
1E
100
AcDbEntity
  8
OBJECT
100
AcDbCircle
 10
4.919593666509684
 20
11.86578971688856
 30
0.0
 40
0.125
100
AcDbArc
 50
270.0
 51
90.0
  0
LINE
  5
2D4
330
1E
100
AcDbEntity
  8
OBJECT
100
AcDbLine
 10
4.919593666509684
 20
11.74078971688855
 30
0.0
 11
4.880343666509686
 21
11.74078971688855
 31
0.0
  0
LINE
  5
2D5
330
1E
100
AcDbEntity
  8
OBJECT
100
AcDbLine
 10
4.919593666509684
 20
11.99078971688856
 30
0.0
 11
4.880343666509686
 21
11.99078971688856
 31
0.0
  0
ARC
  5
2D6
330
1E
100
AcDbEntity
  8
OBJECT
100
AcDbCircle
 10
4.880343666509686
 20
11.67878971688856
 30
0.0
 40
0.062
100
AcDbArc
 50
90.0
 51
180.0
  0
ARC
  5
2D7
330
1E
100
AcDbEntity
  8
OBJECT
100
AcDbCircle
 10
4.880343666509686
 20
12.05278971688856
 30
0.0
 40
0.062
100
AcDbArc
 50
180.0
 51
270.0
  0
ARC
  5
2D8
330
1E
100
AcDbEntity
  8
OBJECT
100
AcDbCircle
 10
9.318843666509687
 20
12.05278971688855
 30
0.0
 40
0.062
100
AcDbArc
 50
270.0
 51
0.0
  0
ARC
  5
2D9
330
1E
100
AcDbEntity
  8
OBJECT
100
AcDbCircle
 10
9.318843666509687
 20
11.67878971688856
 30
0.0
 40
0.062
100
AcDbArc
 50
0.0
 51
90.0
  0
LINE
  5
2DA
330
1E
100
AcDbEntity
  8
OBJECT
100
AcDbLine
 10
9.279593666509688
 20
11.99078971688856
 30
0.0
 11
9.318843666509687
 21
11.99078971688856
 31
0.0
  0
LINE
  5
2DB
330
1E
100
AcDbEntity
  8
OBJECT
100
AcDbLine
 10
9.279593666509688
 20
11.74078971688855
 30
0.0
 11
9.318843666509687
 21
11.74078971688855
 31
0.0
  0
ARC
  5
2DC
330
1E
100
AcDbEntity
  8
OBJECT
100
AcDbCircle
 10
9.279593666509688
 20
11.86578971688856
 30
0.0
 40
0.125
100
AcDbArc
 50
90.0
 51
270.0
  0
CIRCLE
  5
2DD
330
1E
100
AcDbEntity
  8
OBJECT
100
AcDbCircle
 10
9.279593666509688
 20
11.86578971688856
 30
0.0
 40
0.065
  0
DIMENSION
  5
2DE
330
1E
100
AcDbEntity
  8
DIM
100
AcDbDimension
  2
*D2
 10
9.972477125174894
 20
11.86578971688856
 30
0.0
 11
9.972477125174892
 21
10.77578971688856
 31
0.0
 70
    32
  1
G
 71
     5
 42
2.180000000000003
  3
23NSTD
100
AcDbAlignedDimension
 13
9.279593666509688
 23
9.685789716888557
 33
0.0
 14
9.279593666509688
 24
11.86578971688856
 34
0.0
 50
270.0
100
AcDbRotatedDimension
  0
LINE
  5
2DF
330
1E
100
AcDbEntity
  8
HIDDEN
100
AcDbLine
 10
18.06747105491934
 20
11.08453971688855
 30
0.0
 11
18.19739186243181
 21
11.08453971688855
 31
0.0
  0
LINE
  5
2E0
330
1E
100
AcDbEntity
  8
HIDDEN
100
AcDbLine
 10
18.19739186243181
 20
11.08453971688855
 30
0.0
 11
18.13106672841655
 21
11.04782273767564
 31
0.0
  0
LINE
  5
2E1
330
1E
100
AcDbEntity
  8
HIDDEN
100
AcDbLine
 10
18.06747105491934
 20
11.08453971688855
 30
0.0
 11
18.13106672841655
 21
11.04782273767564
 31
0.0
  0
LINE
  5
2E2
330
1E
100
AcDbEntity
  8
HIDDEN
100
AcDbLine
 10
18.06747105491934
 20
11.45953971688855
 30
0.0
 11
18.06747105491934
 21
11.08453971688855
 31
0.0
  0
LINE
  5
2E3
330
1E
100
AcDbEntity
  8
HIDDEN
100
AcDbLine
 10
18.19739186243181
 20
11.45953971688855
 30
0.0
 11
18.19739186243181
 21
11.08453971688855
 31
0.0
  0
LINE
  5
2E4
330
1E
100
AcDbEntity
  8
CENTER
100
AcDbLine
 10
18.13243145867557
 20
11.67828971688855
 30
0.0
 11
18.13243145867557
 21
10.92783255866444
 31
0.0
  0
LINE
  5
2E5
330
1E
100
AcDbEntity
  8
OBJECT
100
AcDbLine
 10
18.25743145867557
 20
11.45953971688855
 30
0.0
 11
18.00743145867557
 21
11.45953971688855
 31
0.0
  0
LINE
  5
2E6
330
1E
100
AcDbEntity
  8
OBJECT
100
AcDbLine
 10
18.25743145867557
 20
11.45953971688855
 30
0.0
 11
18.32134716023267
 21
9.629233498344648
 31
0.0
  0
ARC
  5
2E7
330
1E
100
AcDbEntity
  8
OBJECT
100
AcDbCircle
 10
18.38380908692136
 20
9.631414716888556
 30
0.0
 40
0.0625
100
AcDbArc
 50
182.0
 51
270.0
  0
ARC
  5
2E8
330
1E
100
AcDbEntity
  8
OBJECT
100
AcDbCircle
 10
17.8810538304298
 20
9.631414716888556
 30
0.0
 40
0.0625
100
AcDbArc
 50
270.0
 51
358.0
  0
LINE
  5
2E9
330
1E
100
AcDbEntity
  8
OBJECT
100
AcDbLine
 10
18.00743145867557
 20
11.45953971688855
 30
0.0
 11
17.94351575711848
 21
9.629233498344648
 31
0.0
  0
CIRCLE
  5
2F2
330
1E
100
AcDbEntity
  8
Cover
100
AcDbCircle
 10
9.279593666509688
 20
28.39941749307784
 30
0.0
 40
0.078125
  0
CIRCLE
  5
2F3
330
1E
100
AcDbEntity
  8
Cover
100
AcDbCircle
 10
4.919593666509689
 20
28.39941749307785
 30
0.0
 40
0.078125
  0
ARC
  5
2F4
330
1E
100
AcDbEntity
  8
Cover
100
AcDbCircle
 10
4.919593666509689
 20
28.39941749307785
 30
0.0
 40
0.125
100
AcDbArc
 50
280.2420780715145
 51
350.1468812512676
  0
ARC
  5
2F5
330
1E
100
AcDbEntity
  8
Cover
100
AcDbCircle
 10
9.279593666509688
 20
28.39941749307784
 30
0.0
 40
0.125
100
AcDbArc
 50
189.8531187487348
 51
259.7579219284833
  0
LINE
  5
2F7
330
1E
100
AcDbEntity
  8
Cover
100
AcDbLine
 10
20.24180645867557
 20
13.3059049061896
 30
0.0
 11
20.24180645867557
 21
13.4621549061896
 31
0.0
  0
LINE
  5
2F8
330
1E
100
AcDbEntity
  8
Cover
100
AcDbLine
 10
16.02255645867557
 20
13.3059049061896
 30
0.0
 11
16.02255645867558
 21
13.4621549061896
 31
0.0
  0
LINE
  5
2F9
330
1E
100
AcDbEntity
  8
Cover
100
AcDbLine
 10
15.92068145867557
 20
13.3059049061896
 30
0.0
 11
20.34368145867557
 21
13.3059049061896
 31
0.0
  0
DIMENSION
  5
2FC
330
1E
100
AcDbEntity
  8
DIM
100
AcDbDimension
  2
*D3
 10
10.9274163654772
 20
28.39941749307784
 30
0.0
 11
10.92741636547719
 21
26.21941749307785
 31
0.0
 70
    32
  1
E
 71
     5
 42
4.359999999999992
  3
23NSTD
100
AcDbAlignedDimension
 13
9.279593666509693
 23
24.03941749307785
 33
0.0
 14
9.279593666509693
 24
28.39941749307784
 34
0.0
 50
270.0
100
AcDbRotatedDimension
  0
DIMENSION
  5
2FD
330
1E
100
AcDbEntity
  8
DIM
100
AcDbDimension
  2
*D4
 10
11.49945270292463
 20
23.84441749307784
 30
0.0
 11
11.49945270292463
 21
26.21941749307785
 31
0.0
 70
   160
  1
A
 71
     5
 42
4.75
  3
23NSTD
100
AcDbAlignedDimension
 13
9.898093666509693
 23
28.59441749307785
 33
0.0
 14
9.898093666509693
 24
23.84441749307784
 34
0.0
 50
270.0
100
AcDbRotatedDimension
  0
DIMENSION
  5
2FE
330
1E
100
AcDbEntity
  8
DIM
100
AcDbDimension
  2
*D5
 10
9.474593666509688
 20
30.02141749307782
 30
0.0
 11
7.099593666509688
 21
30.02141749307782
 31
0.0
 70
    32
  1
B
 71
     5
 42
4.75
  3
23NSTD
100
AcDbAlignedDimension
 13
4.724593666509688
 23
28.04191749307785
 33
0.0
 14
9.474593666509688
 24
28.04191749307785
 34
0.0
100
AcDbRotatedDimension
  0
TEXT
  5
2FF
330
1E
100
AcDbEntity
  8
BEND
100
AcDbText
 10
6.015527314325955
 20
28.63899329742813
 30
0.0
 40
0.281
  1
A
 41
0.75
 72
     4
 11
6.085777314325954
 21
28.77949329742813
 31
0.0
100
AcDbText
  0
DIMENSION
  5
300
330
1E
100
AcDbEntity
  8
DIM
100
AcDbDimension
  2
*D6
 10
4.724593666509688
 20
29.49366749307785
 30
0.0
 11
3.641781166509688
 21
29.49366749307785
 31
0.0
 70
    32
  1
L
 71
     5
 42
0.1949999999999994
  3
23NSTD
100
AcDbAlignedDimension
 13
4.919593666509688
 23
28.39941749307785
 33
0.0
 14
4.724593666509688
 24
28.04191749307785
 34
0.0
100
AcDbRotatedDimension
  0
DIMENSION
  5
301
330
1E
100
AcDbEntity
  8
DIM
100
AcDbDimension
  2
*D7
 10
9.279593666509688
 20
29.49366749307785
 30
0.0
 11
7.099593666509688
 21
29.49366749307785
 31
0.0
 70
    32
  1
F
 71
     5
 42
4.36
  3
23NSTD
100
AcDbAlignedDimension
 13
4.919593666509688
 23
28.39941749307785
 33
0.0
 14
9.279593666509688
 24
28.39941749307784
 34
0.0
100
AcDbRotatedDimension
  0
LWPOLYLINE
  5
302
102
{ACAD_REACTORS
330
A30
102
}
330
1E
100
AcDbEntity
  8
Cover
100
AcDbPolyline
 90
       17
 70
     0
 43
0.0
 10
20.50743145867556
 20
13.4152799061896
 10
20.50743145867556
 20
13.3840299061896
 10
20.40368145867557
 20
13.3840299061896
 10
20.40368145867557
 20
13.3059049061896
 10
20.34368145867557
 20
13.3059049061896
 10
20.34368145867557
 20
13.3996549061896
 42
0.4142135623730971
 10
20.28118145867557
 20
13.4621549061896
 10
15.98318145867557
 20
13.4621549061896
 42
0.4142135623730951
 10
15.92068145867558
 20
13.3996549061896
 10
15.92068145867557
 20
13.3059049061896
 10
15.86068145867558
 20
13.3059049061896
 10
15.86068145867558
 20
13.3840299061896
 10
15.75693145867558
 20
13.3840299061896
 10
15.75693145867558
 20
13.4152799061896
 42
-0.4142135623730951
 10
15.88193145867558
 20
13.5402799061896
 10
20.38243145867557
 20
13.5402799061896
 42
-0.4142135623730951
 10
20.50743145867556
 20
13.4152799061896
 42
-4.1764428448697
  0
TEXT
  5
322
330
1E
100
AcDbEntity
  8
BEND
100
AcDbText
 10
6.015527314325955
 20
23.40368297864598
 30
0.0
 40
0.281
  1
A
 41
0.75
 72
     4
 11
6.085777314325954
 21
23.54418297864599
 31
0.0
100
AcDbText
  0
DIMENSION
  5
323
330
1E
100
AcDbEntity
  8
DIM
100
AcDbDimension
  2
*D8
 10
10.9274163654772
 20
28.59441749307785
 30
0.0
 11
11.60522886547719
 21
29.40441749307785
 31
0.0
 70
    32
  1
L
 71
     5
 42
0.1949999999999896
  3
23NSTD
100
AcDbAlignedDimension
 13
9.279593666509688
 23
28.39941749307786
 33
0.0
 14
9.898093666509687
 24
28.59441749307785
 34
0.0
 50
270.0
100
AcDbRotatedDimension
  0
LINE
  5
324
330
1E
100
AcDbEntity
  8
Cover
100
AcDbLine
 10
4.830843666509688
 20
28.25929249307785
 30
0.0
 11
4.830843666509688
 21
26.35954249307784
 31
0.0
  0
LINE
  5
325
330
1E
100
AcDbEntity
  8
Cover
100
AcDbLine
 10
9.368343666509693
 20
28.25929249307785
 30
0.0
 11
9.368343666509693
 21
26.35954249307784
 31
0.0
  0
LINE
  5
326
330
1E
100
AcDbEntity
  8
Cover
100
AcDbLine
 10
4.890843666509688
 20
28.21539728358985
 30
0.0
 11
4.890843666509688
 21
26.40343770256587
 31
0.0
  0
LINE
  5
327
330
1E
100
AcDbEntity
  8
Cover
100
AcDbLine
 10
9.308343666509687
 20
28.21539728358987
 30
0.0
 11
9.308343666509687
 21
26.40343770256586
 31
0.0
  0
ARC
  5
328
330
1E
100
AcDbEntity
  8
Cover
100
AcDbCircle
 10
4.952843666509688
 20
28.21539728358985
 30
0.0
 40
0.062
100
AcDbArc
 50
100.2420780715145
 51
180.0
  0
ARC
  5
329
330
1E
100
AcDbEntity
  8
Cover
100
AcDbCircle
 10
9.246343666509693
 20
28.21539728358987
 30
0.0
 40
0.062
100
AcDbArc
 50
0.0
 51
79.75792192848231
  0
LINE
  5
32A
330
1E
100
AcDbEntity
  8
Cover
100
AcDbLine
 10
4.919593666509689
 20
28.32129249307785
 30
0.0
 11
4.892843666509691
 21
28.32129249307785
 31
0.0
  0
LINE
  5
32B
330
1E
100
AcDbEntity
  8
Cover
100
AcDbLine
 10
9.279593666509688
 20
28.32129249307784
 30
0.0
 11
9.306343666509688
 21
28.32129249307784
 31
0.0
  0
ARC
  5
32C
330
1E
100
AcDbEntity
  8
Cover
100
AcDbCircle
 10
9.306343666509688
 20
28.25929249307785
 30
0.0
 40
0.062
100
AcDbArc
 50
0.0
 51
90.0
  0
ARC
  5
32D
330
1E
100
AcDbEntity
  8
Cover
100
AcDbCircle
 10
4.892843666509691
 20
28.25929249307785
 30
0.0
 40
0.062
100
AcDbArc
 50
90.0
 51
180.0
  0
ARC
  5
330
330
1E
100
AcDbEntity
  8
Cover
100
AcDbCircle
 10
5.103835355603144
 20
28.36741749307785
 30
0.0
 40
0.062
100
AcDbArc
 50
90.0
 51
170.1468812512669
  0
ARC
  5
331
330
1E
100
AcDbEntity
  8
Cover
100
AcDbCircle
 10
9.095351977416273
 20
28.36741749307785
 30
0.0
 40
0.062
100
AcDbArc
 50
9.853118748734534
 51
90.0
  0
LINE
  5
332
330
1E
100
AcDbEntity
  8
Cover
100
AcDbLine
 10
4.997718666509689
 20
28.39941749307785
 30
0.0
 11
4.997718666509689
 21
28.42741749307785
 31
0.0
  0
LINE
  5
333
330
1E
100
AcDbEntity
  8
Cover
100
AcDbLine
 10
9.201468666509688
 20
28.39941749307784
 30
0.0
 11
9.201468666509688
 21
28.42741749307785
 31
0.0
  0
ARC
  5
334
330
1E
100
AcDbEntity
  8
Cover
100
AcDbCircle
 10
5.059718666509688
 20
28.42741749307785
 30
0.0
 40
0.062
100
AcDbArc
 50
90.0
 51
180.0
  0
ARC
  5
335
330
1E
100
AcDbEntity
  8
Cover
100
AcDbCircle
 10
9.139468666509687
 20
28.42741749307785
 30
0.0
 40
0.062
100
AcDbArc
 50
0.0
 51
90.0
  0
ARC
  5
336
330
1E
100
AcDbEntity
  8
Cover
100
AcDbCircle
 10
9.139468666509687
 20
24.01141749307785
 30
0.0
 40
0.062
100
AcDbArc
 50
270.0
 51
0.0
  0
ARC
  5
337
330
1E
100
AcDbEntity
  8
Cover
100
AcDbCircle
 10
5.059718666509688
 20
24.01141749307785
 30
0.0
 40
0.062
100
AcDbArc
 50
180.0
 51
270.0
  0
LINE
  5
338
330
1E
100
AcDbEntity
  8
Cover
100
AcDbLine
 10
9.201468666509688
 20
24.03941749307785
 30
0.0
 11
9.201468666509688
 21
24.01141749307785
 31
0.0
  0
LINE
  5
339
330
1E
100
AcDbEntity
  8
Cover
100
AcDbLine
 10
4.997718666509689
 20
24.03941749307785
 30
0.0
 11
4.997718666509689
 21
24.01141749307785
 31
0.0
  0
ARC
  5
33A
330
1E
100
AcDbEntity
  8
Cover
100
AcDbCircle
 10
9.095351977416273
 20
24.07141749307784
 30
0.0
 40
0.062
100
AcDbArc
 50
270.0
 51
350.1468812512654
  0
ARC
  5
33B
330
1E
100
AcDbEntity
  8
Cover
100
AcDbCircle
 10
5.103835355603144
 20
24.07141749307784
 30
0.0
 40
0.062
100
AcDbArc
 50
189.8531187487329
 51
270.0
  0
LINE
  5
33C
330
1E
100
AcDbEntity
  8
Cover
100
AcDbLine
 10
9.095351977416273
 20
24.00941749307785
 30
0.0
 11
7.283613875997693
 21
24.00941749307785
 31
0.0
  0
LINE
  5
33D
330
1E
100
AcDbEntity
  8
Cover
100
AcDbLine
 10
9.139468666509687
 20
23.94941749307784
 30
0.0
 11
7.239718666509688
 21
23.94941749307784
 31
0.0
  0
ARC
  5
33E
330
1E
100
AcDbEntity
  8
Cover
100
AcDbCircle
 10
4.892843666509691
 20
24.17954249307785
 30
0.0
 40
0.062
100
AcDbArc
 50
180.0
 51
270.0
  0
ARC
  5
33F
330
1E
100
AcDbEntity
  8
Cover
100
AcDbCircle
 10
9.306343666509688
 20
24.17954249307785
 30
0.0
 40
0.062
100
AcDbArc
 50
270.0
 51
0.0
  0
LINE
  5
340
330
1E
100
AcDbEntity
  8
Cover
100
AcDbLine
 10
9.279593666509688
 20
24.11754249307785
 30
0.0
 11
9.306343666509688
 21
24.11754249307785
 31
0.0
  0
LINE
  5
341
330
1E
100
AcDbEntity
  8
Cover
100
AcDbLine
 10
4.919593666509689
 20
24.11754249307785
 30
0.0
 11
4.892843666509691
 21
24.11754249307785
 31
0.0
  0
ARC
  5
342
330
1E
100
AcDbEntity
  8
Cover
100
AcDbCircle
 10
9.246343666509693
 20
24.2234377025658
 30
0.0
 40
0.062
100
AcDbArc
 50
280.2420780715176
 51
0.0
  0
ARC
  5
343
330
1E
100
AcDbEntity
  8
Cover
100
AcDbCircle
 10
4.952843666509688
 20
24.22343770256586
 30
0.0
 40
0.062
100
AcDbArc
 50
180.0
 51
259.7579219284854
  0
ARC
  5
344
330
1E
100
AcDbEntity
  8
Cover
100
AcDbCircle
 10
9.279593666509688
 20
24.03941749307785
 30
0.0
 40
0.125
100
AcDbArc
 50
100.2420780715165
 51
170.1468812512651
  0
ARC
  5
345
330
1E
100
AcDbEntity
  8
Cover
100
AcDbCircle
 10
4.919593666509689
 20
24.03941749307785
 30
0.0
 40
0.125
100
AcDbArc
 50
9.853118748732351
 51
79.7579219284853
  0
CIRCLE
  5
346
330
1E
100
AcDbEntity
  8
Cover
100
AcDbCircle
 10
4.919593666509689
 20
24.03941749307785
 30
0.0
 40
0.078125
  0
CIRCLE
  5
347
330
1E
100
AcDbEntity
  8
Cover
100
AcDbCircle
 10
9.279593666509688
 20
24.03941749307785
 30
0.0
 40
0.078125
  0
CIRCLE
  5
348
330
1E
100
AcDbEntity
  8
Cover
100
AcDbCircle
 10
4.919593666509689
 20
26.21941749307785
 30
0.0
 40
0.078125
  0
ARC
  5
349
330
1E
100
AcDbEntity
  8
Cover
100
AcDbCircle
 10
4.919593666509689
 20
26.21941749307785
 30
0.0
 40
0.125
100
AcDbArc
 50
280.2420780715144
 51
79.7579219284853
  0
ARC
  5
34A
330
1E
100
AcDbEntity
  8
Cover
100
AcDbCircle
 10
4.952843666509688
 20
26.40343770256587
 30
0.0
 40
0.062
100
AcDbArc
 50
180.0
 51
259.7579219284854
  0
LINE
  5
34B
330
1E
100
AcDbEntity
  8
Cover
100
AcDbLine
 10
4.919593666509689
 20
26.29754249307785
 30
0.0
 11
4.892843666509691
 21
26.29754249307785
 31
0.0
  0
ARC
  5
34C
330
1E
100
AcDbEntity
  8
Cover
100
AcDbCircle
 10
4.892843666509691
 20
26.35954249307784
 30
0.0
 40
0.062
100
AcDbArc
 50
180.0
 51
270.0
  0
LINE
  5
34D
330
1E
100
AcDbEntity
  8
Cover
100
AcDbLine
 10
4.919593666509689
 20
26.14129249307785
 30
0.0
 11
4.892843666509691
 21
26.14129249307785
 31
0.0
  0
LINE
  5
34E
330
1E
100
AcDbEntity
  8
Cover
100
AcDbLine
 10
4.830843666509688
 20
26.07929249307785
 30
0.0
 11
4.830843666509688
 21
24.17954249307785
 31
0.0
  0
ARC
  5
34F
330
1E
100
AcDbEntity
  8
Cover
100
AcDbCircle
 10
4.892843666509691
 20
26.07929249307785
 30
0.0
 40
0.062
100
AcDbArc
 50
90.0
 51
180.0
  0
ARC
  5
350
330
1E
100
AcDbEntity
  8
Cover
100
AcDbCircle
 10
4.952843666509688
 20
26.03539728358985
 30
0.0
 40
0.062
100
AcDbArc
 50
100.2420780715147
 51
180.0
  0
LINE
  5
351
330
1E
100
AcDbEntity
  8
Cover
100
AcDbLine
 10
4.890843666509688
 20
26.03539728358985
 30
0.0
 11
4.890843666509688
 21
24.22343770256586
 31
0.0
  0
ARC
  5
352
330
1E
100
AcDbEntity
  8
Cover
100
AcDbCircle
 10
9.246343666509693
 20
26.03539728358985
 30
0.0
 40
0.062
100
AcDbArc
 50
0.0
 51
79.75792192848517
  0
ARC
  5
353
330
1E
100
AcDbEntity
  8
Cover
100
AcDbCircle
 10
9.306343666509693
 20
26.07929249307785
 30
0.0
 40
0.062
100
AcDbArc
 50
0.0
 51
90.0
  0
LINE
  5
354
330
1E
100
AcDbEntity
  8
Cover
100
AcDbLine
 10
9.279593666509693
 20
26.14129249307785
 30
0.0
 11
9.306343666509693
 21
26.14129249307785
 31
0.0
  0
ARC
  5
355
330
1E
100
AcDbEntity
  8
Cover
100
AcDbCircle
 10
9.306343666509688
 20
26.35954249307784
 30
0.0
 40
0.062
100
AcDbArc
 50
270.0
 51
0.0
  0
LINE
  5
356
330
1E
100
AcDbEntity
  8
Cover
100
AcDbLine
 10
9.279593666509693
 20
26.29754249307785
 30
0.0
 11
9.306343666509688
 21
26.29754249307785
 31
0.0
  0
ARC
  5
357
330
1E
100
AcDbEntity
  8
Cover
100
AcDbCircle
 10
9.246343666509693
 20
26.40343770256586
 30
0.0
 40
0.062
100
AcDbArc
 50
280.2420780715144
 51
0.0
  0
ARC
  5
358
330
1E
100
AcDbEntity
  8
Cover
100
AcDbCircle
 10
9.279593666509693
 20
26.21941749307785
 30
0.0
 40
0.125
100
AcDbArc
 50
100.2420780715145
 51
259.7579219284854
  0
CIRCLE
  5
359
330
1E
100
AcDbEntity
  8
Cover
100
AcDbCircle
 10
9.279593666509693
 20
26.21941749307785
 30
0.0
 40
0.078125
  0
LINE
  5
35A
330
1E
100
AcDbEntity
  8
Cover
100
AcDbLine
 10
9.368343666509693
 20
26.07929249307785
 30
0.0
 11
9.368343666509693
 21
24.17954249307785
 31
0.0
  0
LINE
  5
35B
330
1E
100
AcDbEntity
  8
Cover
100
AcDbLine
 10
9.308343666509687
 20
26.03539728358985
 30
0.0
 11
9.308343666509687
 21
24.2234377025658
 31
0.0
  0
DIMENSION
  5
35C
330
1E
100
AcDbEntity
  8
DIM
100
AcDbDimension
  2
*D9
 10
10.34370584152259
 20
26.21941749307785
 30
0.0
 11
10.34370584152258
 21
25.12941749307785
 31
0.0
 70
    32
  1
G
 71
     5
 42
2.179999999999999
  3
23NSTD
100
AcDbAlignedDimension
 13
9.279593666509693
 23
24.03941749307785
 33
0.0
 14
9.279593666509693
 24
26.21941749307785
 34
0.0
 50
270.0
100
AcDbRotatedDimension
  0
LINE
  5
35D
330
1E
100
AcDbEntity
  8
OBJECT
100
AcDbLine
 10
20.77528496217865
 20
26.14871164951653
 30
0.0
 11
17.96346177332203
 21
27.77211852451653
 31
0.0
  0
LINE
  5
35E
330
1E
100
AcDbEntity
  8
OBJECT
100
AcDbLine
 10
14.7873688140621
 20
26.07858664951653
 30
0.0
 11
17.72460074589567
 21
27.774398296033
 31
0.0
  0
LINE
  5
35F
330
1E
100
AcDbEntity
  8
OBJECT
100
AcDbLine
 10
14.82958755249659
 20
26.05421164951653
 30
0.0
 11
17.76281559511448
 21
27.74771164951653
 31
0.0
  0
LINE
  5
360
330
1E
100
AcDbEntity
  8
OBJECT
100
AcDbLine
 10
20.73306622374416
 20
26.12433664951653
 30
0.0
 11
17.92129824400704
 21
27.74771164951653
 31
0.0
  0
LWPOLYLINE
  5
361
330
1E
100
AcDbEntity
  8
OBJECT
100
AcDbPolyline
 90
        4
 70
     0
 43
0.0
 10
17.84200171044127
 20
27.80116525057794
 42
0.0587518675353738
 10
17.77303111584594
 20
27.79303287692243
 42
0.0723410840576607
 10
17.72054164756051
 20
27.77211852451653
 42
0.0074209161895268
 10
17.71734796072279
 20
27.77021089856107
 42
0.1568512196707919
  0
LWPOLYLINE
  5
367
330
1E
100
AcDbEntity
  8
OBJECT
100
AcDbPolyline
 90
        3
 70
     0
 43
0.0
 10
17.96346177332203
 20
27.77211852451653
 42
0.072341084057657
 10
17.9109723050366
 20
27.79303287692243
 42
0.0587518675353763
 10
17.84200171044127
 20
27.80116525057794
 42
0.0587518675353738
  0
LWPOLYLINE
  5
36C
330
1E
100
AcDbEntity
  8
OBJECT
100
AcDbPolyline
 90
        3
 70
     0
 43
0.0
 10
17.84205691956076
 20
27.7666619199951
 42
0.058751867535373
 10
17.79706006105471
 20
27.7613563072359
 42
0.0723410840576583
 10
17.76281559511448
 20
27.74771164951653
 42
0.1066170543910154
  0
LWPOLYLINE
  5
371
330
1E
100
AcDbEntity
  8
OBJECT
100
AcDbPolyline
 90
        3
 70
     0
 43
0.0
 10
17.92129824400704
 20
27.74771164951653
 42
0.0723410840576623
 10
17.8870537780668
 20
27.76135630723588
 42
0.0587518675353766
 10
17.84205691956076
 20
27.7666619199951
 42
0.058751867535373
  0
LWPOLYLINE
  5
376
330
1E
100
AcDbEntity
  8
OBJECT
100
AcDbPolyline
 90
        3
 70
     0
 43
0.0
 10
17.92129824400704
 20
27.67721164951653
 42
0.0723410840576623
 10
17.8870537780668
 20
27.69085630723589
 42
0.0587518675353766
 10
17.84205691956076
 20
27.6961619199951
 42
0.058751867535373
  0
LWPOLYLINE
  5
37B
330
1E
100
AcDbEntity
  8
OBJECT
100
AcDbPolyline
 90
        3
 70
     0
 43
0.0
 10
17.84205691956076
 20
27.6961619199951
 42
0.058751867535373
 10
17.79706006105471
 20
27.69085630723589
 42
0.0723410840576583
 10
17.76281559511448
 20
27.67721164951653
 42
0.1066170543910154
  0
LWPOLYLINE
  5
380
330
1E
100
AcDbEntity
  8
OBJECT
100
AcDbPolyline
 90
       16
 70
     1
 43
0.0
 10
17.84205691956076
 20
27.66502777501349
 42
0.0587518675353727
 10
17.81845201018054
 20
27.66224450274636
 42
0.0723410840576566
 10
17.8004877001791
 20
27.65508664951653
 42
0.1066170543909957
 10
17.78708261172196
 20
27.64294382995187
 42
0.1568512196707378
 10
17.78326916573397
 20
27.63108664951653
 42
0.1568512196707294
 10
17.78708261172196
 20
27.6192294690812
 42
0.1066170543909819
 10
17.8004877001791
 20
27.60708664951653
 42
0.0723410840576534
 10
17.81845201018055
 20
27.59992879628669
 42
0.0587518675353621
 10
17.84205691956076
 20
27.59714552401958
 42
0.0587518675353727
 10
17.86566182894097
 20
27.59992879628669
 42
0.072341084057657
 10
17.88362613894241
 20
27.60708664951653
 42
0.1066170543910092
 10
17.89703122739956
 20
27.6192294690812
 42
0.1568512196707462
 10
17.90084467338756
 20
27.63108664951653
 42
0.1568512196707336
 10
17.89703122739956
 20
27.64294382995187
 42
0.1066170543909893
 10
17.88362613894241
 20
27.65508664951653
 42
0.0723410840576466
 10
17.86566182894097
 20
27.66224450274636
 42
0.0587518675353801
  0
LWPOLYLINE
  5
392
330
1E
100
AcDbEntity
  8
OBJECT
100
AcDbPolyline
 90
        4
 70
     0
 43
0.0
 10
17.74177035673735
 20
27.59932434643221
 42
0.1032009272409039
 10
17.72901257671975
 20
27.61072480430164
 42
0.0723410840576526
 10
17.71146930523398
 20
27.61771489534639
 42
0.0587518675353721
 10
17.68841763591735
 20
27.62043293466975
 42
0.0587518675353793
  0
LINE
  5
398
330
1E
100
AcDbEntity
  8
OBJECT
100
AcDbLine
 10
17.64967232876998
 20
27.61175327403945
 30
0.0
 11
17.64967232876998
 21
26.11400327403945
 31
0.0
  0
LWPOLYLINE
  5
399
330
1E
100
AcDbEntity
  8
OBJECT
100
AcDbPolyline
 90
        3
 70
     0
 43
0.0
 10
17.68841763591735
 20
27.62043293466975
 42
0.0587518675353793
 10
17.66536596660073
 20
27.61771489534639
 42
0.0642382339879882
 10
17.64967232876998
 20
27.61175327403945
 42
0.010596345945674
  0
LINE
  5
39E
330
1E
100
AcDbEntity
  8
OBJECT
100
AcDbLine
 10
17.74177035673735
 20
27.59932434643221
 30
0.0
 11
17.74177035673735
 21
26.10157434643221
 31
0.0
  0
LINE
  5
39F
330
1E
100
AcDbEntity
  8
OBJECT
100
AcDbLine
 10
17.94616936963497
 20
27.60367882991601
 30
0.0
 11
17.94616936963497
 21
26.10592882991598
 31
0.0
  0
LWPOLYLINE
  5
3A0
330
1E
100
AcDbEntity
  8
OBJECT
100
AcDbPolyline
 90
        7
 70
     0
 43
0.0
 10
17.74177035673735
 20
27.59932434643221
 42
0.0730609864587327
 10
17.76086703795597
 20
27.58421164951653
 42
0.0723410840576608
 10
17.79595358092753
 20
27.57023146742702
 42
0.0587518675353809
 10
17.84205691956076
 20
27.56479538878028
 42
0.0587518675353774
 10
17.88816025819401
 20
27.57023146742702
 42
0.0723410840576568
 10
17.92324680116555
 20
27.58421164951653
 42
0.0904779399290791
 10
17.94616936963497
 20
27.603678829916
 42
0.1568512196707811
  0
LWPOLYLINE
  5
3A9
330
1E
100
AcDbEntity
  8
OBJECT
100
AcDbPolyline
 90
        4
 70
     0
 43
0.0
 10
17.99562797452634
 20
27.62023331275612
 42
0.0587518675353793
 10
17.97257630520971
 20
27.61751527343276
 42
0.0723410840576608
 10
17.95503303372395
 20
27.61052518238801
 42
0.0671451366482417
 10
17.94616936963497
 20
27.603678829916
 42
0.1568512196707734
  0
LWPOLYLINE
  5
3AF
330
1E
100
AcDbEntity
  8
OBJECT
100
AcDbPolyline
 90
        3
 70
     0
 43
0.0
 10
18.03402696140576
 20
27.61173764151285
 42
0.0627377818794437
 10
18.01867964384296
 20
27.61751527343276
 42
0.0587518675353721
 10
17.99562797452634
 20
27.62023331275612
 42
0.0587518675353793
  0
LINE
  5
3B4
330
1E
100
AcDbEntity
  8
OBJECT
100
AcDbLine
 10
18.03402696140576
 20
27.61173764151285
 30
0.0
 11
18.03402696140576
 21
26.11422319893179
 31
0.0
  0
LINE
  5
3B5
330
1E
100
AcDbEntity
  8
OBJECT
100
AcDbLine
 10
18.03402696140576
 20
27.61173764151285
 30
0.0
 11
17.92129824400704
 21
27.67721164951653
 31
0.0
  0
LINE
  5
3B6
330
1E
100
AcDbEntity
  8
OBJECT
100
AcDbLine
 10
17.64967232877
 20
27.61175327403945
 30
0.0
 11
17.76281559511448
 21
27.67721164951653
 31
0.0
  0
LINE
  5
3B7
330
1E
100
AcDbEntity
  8
OBJECT
100
AcDbLine
 10
15.06086922768999
 20
30.19990524528761
 30
0.0
 11
17.44709644305213
 21
31.57759417042455
 31
0.0
  0
LINE
  5
3B8
330
1E
100
AcDbEntity
  8
OBJECT
100
AcDbLine
 10
17.64291208184932
 20
31.92060103351648
 30
0.0
 11
21.11187353048085
 21
29.91779520734064
 31
0.0
  0
LWPOLYLINE
  5
3B9
330
1E
100
AcDbEntity
  8
OBJECT
100
AcDbPolyline
 90
       16
 70
     1
 43
0.0
 10
17.84205691956076
 20
31.7395110849236
 42
0.0587518675353782
 10
17.79023676693699
 20
31.73340093252468
 42
0.072341084057657
 10
17.75079949263698
 20
31.71768720785607
 42
0.1066170543910075
 10
17.72137113438341
 20
31.69102992428051
 42
0.1568512196707839
 10
17.71299942873787
 20
31.66499970785606
 42
0.1568512196707877
 10
17.72137113438341
 20
31.63896949143162
 42
0.1066170543910138
 10
17.75079949263698
 20
31.61231220785607
 42
0.07234108405766
 10
17.79023676693699
 20
31.59659848318746
 42
0.0587518675353789
 10
17.84205691956076
 20
31.59048833078854
 42
0.058751867535374
 10
17.89387707218452
 20
31.59659848318746
 42
0.0723410840576588
 10
17.93331434648455
 20
31.61231220785607
 42
0.1066170543910072
 10
17.9627427047381
 20
31.63896949143162
 42
0.1568512196707839
 10
17.97111441038365
 20
31.66499970785606
 42
0.156851219670792
 10
17.9627427047381
 20
31.69102992428051
 42
0.1066170543910073
 10
17.93331434648455
 20
31.71768720785607
 42
0.072341084057658
 10
17.89387707218452
 20
31.73340093252468
 42
0.058751867535374
  0
LWPOLYLINE
  5
3D7
330
1E
100
AcDbEntity
  8
OBJECT
100
AcDbPolyline
 90
        6
 70
     0
 43
0.0
 10
17.84205691956076
 20
31.65236545455548
 42
0.0587518675353685
 10
17.81328843625362
 20
31.64897334147993
 42
0.0723410840576479
 10
17.79139443343938
 20
31.64024970785606
 42
0.1066170543910048
 10
17.77505698188223
 20
31.62545064651163
 42
0.156851219670777
 10
17.77040934458435
 20
31.61099970785607
 42
0.0907083780630995
 10
17.77201460084077
 20
31.60222406757833
 42
0.1066170543910073
  0
LWPOLYLINE
  5
3DF
330
1E
100
AcDbEntity
  8
OBJECT
100
AcDbPolyline
 90
        6
 70
     0
 43
0.0
 10
17.91209923828076
 20
31.60222406757833
 42
0.0907083780630905
 10
17.91370449453717
 20
31.61099970785607
 42
0.1568512196707755
 10
17.9090568572393
 20
31.62545064651164
 42
0.106617054390996
 10
17.89271940568215
 20
31.64024970785606
 42
0.0723410840576467
 10
17.87082540286791
 20
31.64897334147992
 42
0.0587518675353843
 10
17.84205691956076
 20
31.65236545455548
 42
0.0587518675353685
  0
LINE
  5
3E7
330
1E
100
AcDbEntity
  8
CENTER
100
AcDbLine
 10
14.90947839599571
 20
25.91658664951653
 30
0.0
 11
14.90947839599571
 21
29.71424970785607
 31
0.0
  0
LINE
  5
3E8
330
1E
100
AcDbEntity
  8
CENTER
100
AcDbLine
 10
20.65317538024505
 20
25.98671164951653
 30
0.0
 11
20.65317538024505
 21
29.72213966797557
 31
0.0
  0
LINE
  5
3E9
330
1E
100
AcDbEntity
  8
CENTER
100
AcDbLine
 10
17.72059685668
 20
24.32038637903796
 30
0.0
 11
17.72059685667999
 21
28.09124970785608
 31
0.0
  0
LINE
  5
3EA
330
1E
100
AcDbEntity
  8
CENTER
100
AcDbLine
 10
17.84205691956076
 20
27.59714552401958
 30
0.0
 11
17.84205691956076
 21
28.02112470785607
 31
0.0
  0
LINE
  5
3EB
330
1E
100
AcDbEntity
  8
CENTER
100
AcDbLine
 10
20.65317538024505
 20
29.96748833078854
 30
0.0
 11
20.65317538024505
 21
31.05960368009821
 31
0.0
  0
LINE
  5
3EC
330
1E
100
AcDbEntity
  8
CENTER
100
AcDbLine
 10
17.72059685668
 20
28.27436333078854
 30
0.0
 11
17.72059685667999
 21
29.36647868009822
 31
0.0
  0
LINE
  5
3ED
330
1E
100
AcDbEntity
  8
CENTER
100
AcDbLine
 10
14.90947839599571
 20
29.89736333078854
 30
0.0
 11
14.90947839599571
 21
30.98947868009821
 31
0.0
  0
LWPOLYLINE
  5
3EE
330
1E
100
AcDbEntity
  8
OBJECT
100
AcDbPolyline
 90
       16
 70
     1
 43
0.0
 10
14.90947839599571
 20
31.52098533784921
 42
0.0587518675353782
 10
14.86363751168243
 20
31.51558020538484
 42
0.072341084057657
 10
14.82875070727752
 20
31.50167960883712
 42
0.1066170543910075
 10
14.80271794014105
 20
31.47809817592692
 42
0.1568512196707839
 10
14.79531220375142
 20
31.45507145602461
 42
0.1568512196707877
 10
14.80271794014105
 20
31.43204473612231
 42
0.1066170543910138
 10
14.82875070727752
 20
31.40846330321212
 42
0.07234108405766
 10
14.86363751168243
 20
31.39456270666439
 42
0.0587518675353789
 10
14.90947839599571
 20
31.38915757420003
 42
0.058751867535374
 10
14.95531928030898
 20
31.39456270666439
 42
0.0723410840576588
 10
14.99020608471389
 20
31.40846330321212
 42
0.1066170543910072
 10
15.01623885185036
 20
31.43204473612231
 42
0.1568512196707839
 10
15.02364458823999
 20
31.45507145602461
 42
0.156851219670792
 10
15.01623885185036
 20
31.47809817592692
 42
0.1066170543910073
 10
14.99020608471389
 20
31.50167960883712
 42
0.072341084057658
 10
14.95531928030898
 20
31.51558020538484
 42
0.058751867535374
  0
LINE
  5
400
330
1E
100
AcDbEntity
  8
OBJECT
100
AcDbLine
 10
14.81447723225167
 20
31.41886625119234
 30
0.0
 11
14.85673751347746
 21
31.38097176061717
 31
0.0
  0
LINE
  5
401
330
1E
100
AcDbEntity
  8
OBJECT
100
AcDbLine
 10
15.00447955973974
 20
31.41886625119234
 30
0.0
 11
14.96221927851396
 21
31.38097176061717
 31
0.0
  0
LWPOLYLINE
  5
402
330
1E
100
AcDbEntity
  8
OBJECT
100
AcDbPolyline
 90
        7
 70
     0
 43
0.0
 10
14.85673751347747
 20
31.38097176061716
 42
0.0531578900237961
 10
14.86466158134986
 20
31.37519645602462
 42
0.072341084057661
 10
14.88402935307016
 20
31.36747939551121
 42
0.0587518675353793
 10
14.90947839599571
 20
31.3644786800982
 42
0.0587518675353684
 10
14.93492743892126
 20
31.36747939551121
 42
0.0723410840576543
 10
14.95429521064155
 20
31.37519645602462
 42
0.0531578900238873
 10
14.96221927851396
 20
31.38097176061717
 42
0.1568512196707747
  0
LWPOLYLINE
  5
40B
330
1E
100
AcDbEntity
  8
OBJECT
100
AcDbPolyline
 90
        2
 70
     0
 43
0.0
 10
14.84609784890118
 20
31.39051227140682
 10
14.84609784890118
 20
31.02607145602462
  0
LWPOLYLINE
  5
40F
330
1E
100
AcDbEntity
  8
OBJECT
100
AcDbPolyline
 90
        2
 70
     0
 43
0.0
 10
14.97285894309023
 20
31.39051227140682
 10
14.97285894309023
 20
31.02607145602462
  0
LWPOLYLINE
  5
413
330
1E
100
AcDbEntity
  8
OBJECT
100
AcDbPolyline
 90
        9
 70
     0
 43
0.0
 10
14.84609784890118
 20
31.02607145602462
 42
0.1568512196707782
 10
14.85020922035701
 20
31.01328793336778
 42
0.1066170543910084
 10
14.86466158134986
 20
31.00019645602462
 42
0.072341084057661
 10
14.88402935307016
 20
30.99247939551121
 42
0.0587518675353793
 10
14.90947839599571
 20
30.98947868009821
 42
0.0587518675353684
 10
14.93492743892126
 20
30.99247939551121
 42
0.0723410840576543
 10
14.95429521064155
 20
31.00019645602462
 42
0.1066170543910017
 10
14.96874757163441
 20
31.01328793336778
 42
0.1568512196707747
 10
14.97285894309023
 20
31.02607145602462
 42
0.1568512196707838
  0
LWPOLYLINE
  5
41E
330
1E
100
AcDbEntity
  8
OBJECT
100
AcDbPolyline
 90
       16
 70
     1
 43
0.0
 10
17.72059685668
 20
29.89798533784922
 42
0.0587518675353782
 10
17.67475597236673
 20
29.89258020538484
 42
0.072341084057657
 10
17.63986916796181
 20
29.87867960883712
 42
0.1066170543910075
 10
17.61383640082534
 20
29.85509817592692
 42
0.1568512196707839
 10
17.60643066443571
 20
29.83207145602462
 42
0.1568512196707877
 10
17.61383640082534
 20
29.8090447361223
 42
0.1066170543910138
 10
17.63986916796181
 20
29.78546330321212
 42
0.07234108405766
 10
17.67475597236673
 20
29.7715627066644
 42
0.0587518675353789
 10
17.72059685668
 20
29.76615757420002
 42
0.058751867535374
 10
17.76643774099326
 20
29.7715627066644
 42
0.0723410840576588
 10
17.80132454539818
 20
29.78546330321212
 42
0.1066170543910072
 10
17.82735731253466
 20
29.8090447361223
 42
0.1568512196707839
 10
17.83476304892428
 20
29.83207145602462
 42
0.156851219670792
 10
17.82735731253466
 20
29.85509817592692
 42
0.1066170543910073
 10
17.80132454539818
 20
29.87867960883712
 42
0.072341084057658
 10
17.76643774099326
 20
29.89258020538484
 42
0.058751867535374
  0
LWPOLYLINE
  5
430
330
1E
100
AcDbEntity
  8
OBJECT
100
AcDbPolyline
 90
        2
 70
     0
 43
0.0
 10
17.78397740377451
 20
29.76751227140682
 10
17.78397740377451
 20
29.40307145602462
  0
LWPOLYLINE
  5
434
330
1E
100
AcDbEntity
  8
OBJECT
100
AcDbPolyline
 90
        2
 70
     0
 43
0.0
 10
17.65721630958547
 20
29.76751227140682
 10
17.65721630958547
 20
29.40307145602462
  0
LWPOLYLINE
  5
438
330
1E
100
AcDbEntity
  8
OBJECT
100
AcDbPolyline
 90
        9
 70
     0
 43
0.0
 10
17.65721630958547
 20
29.40307145602462
 42
0.1568512196707782
 10
17.6613276810413
 20
29.39028793336778
 42
0.1066170543910084
 10
17.67578004203414
 20
29.37719645602462
 42
0.072341084057661
 10
17.69514781375445
 20
29.36947939551121
 42
0.0587518675353793
 10
17.72059685668
 20
29.36647868009822
 42
0.0587518675353684
 10
17.74604589960553
 20
29.36947939551121
 42
0.0723410840576543
 10
17.76541367132584
 20
29.37719645602462
 42
0.1066170543910017
 10
17.7798660323187
 20
29.39028793336778
 42
0.1568512196707747
 10
17.78397740377451
 20
29.40307145602462
 42
0.1568512196707838
  0
LWPOLYLINE
  5
443
330
1E
100
AcDbEntity
  8
OBJECT
100
AcDbPolyline
 90
        7
 70
     0
 43
0.0
 10
17.66785597416176
 20
29.75797176061716
 42
0.0531578900237961
 10
17.67578004203414
 20
29.75219645602462
 42
0.072341084057661
 10
17.69514781375445
 20
29.74447939551121
 42
0.0587518675353793
 10
17.72059685668
 20
29.74147868009822
 42
0.0587518675353684
 10
17.74604589960553
 20
29.74447939551121
 42
0.0723410840576543
 10
17.76541367132584
 20
29.75219645602462
 42
0.0531578900238873
 10
17.77333773919824
 20
29.75797176061717
 42
0.1568512196707747
  0
LINE
  5
44C
330
1E
100
AcDbEntity
  8
OBJECT
100
AcDbLine
 10
17.62559569293597
 20
29.79586625119235
 30
0.0
 11
17.66785597416174
 21
29.75797176061717
 31
0.0
  0
LINE
  5
44D
330
1E
100
AcDbEntity
  8
OBJECT
100
AcDbLine
 10
17.81559802042401
 20
29.79586625119235
 30
0.0
 11
17.77333773919825
 21
29.75797176061717
 31
0.0
  0
LWPOLYLINE
  5
44E
330
1E
100
AcDbEntity
  8
OBJECT
100
AcDbPolyline
 90
       16
 70
     1
 43
0.0
 10
17.84205691956076
 20
33.21411033784921
 42
0.0587518675353782
 10
17.7962160352475
 20
33.20870520538484
 42
0.072341084057657
 10
17.76132923084257
 20
33.19480460883712
 42
0.1066170543910075
 10
17.7352964637061
 20
33.17122317592692
 42
0.1568512196707839
 10
17.72789072731646
 20
33.14819645602462
 42
0.1568512196707877
 10
17.7352964637061
 20
33.12516973612231
 42
0.1066170543910138
 10
17.76132923084257
 20
33.10158830321212
 42
0.07234108405766
 10
17.7962160352475
 20
33.08768770666439
 42
0.0587518675353789
 10
17.84205691956076
 20
33.08228257420002
 42
0.058751867535374
 10
17.88789780387403
 20
33.08768770666439
 42
0.0723410840576588
 10
17.92278460827894
 20
33.10158830321212
 42
0.1066170543910072
 10
17.94881737541543
 20
33.12516973612231
 42
0.1568512196707839
 10
17.95622311180506
 20
33.14819645602462
 42
0.156851219670792
 10
17.94881737541543
 20
33.17122317592692
 42
0.1066170543910073
 10
17.92278460827894
 20
33.19480460883712
 42
0.072341084057658
 10
17.88789780387403
 20
33.20870520538485
 42
0.058751867535374
  0
LWPOLYLINE
  5
460
330
1E
100
AcDbEntity
  8
OBJECT
100
AcDbPolyline
 90
        2
 70
     0
 43
0.0
 10
17.90543746665528
 20
33.08363727140683
 10
17.90543746665528
 20
32.71919645602462
  0
LWPOLYLINE
  5
464
330
1E
100
AcDbEntity
  8
OBJECT
100
AcDbPolyline
 90
        2
 70
     0
 43
0.0
 10
17.77867637246625
 20
33.08363727140683
 10
17.77867637246625
 20
32.71919645602462
  0
LWPOLYLINE
  5
468
330
1E
100
AcDbEntity
  8
OBJECT
100
AcDbPolyline
 90
        9
 70
     0
 43
0.0
 10
17.77867637246625
 20
32.71919645602462
 42
0.1568512196707782
 10
17.78278774392206
 20
32.70641293336778
 42
0.1066170543910084
 10
17.79724010491491
 20
32.69332145602461
 42
0.072341084057661
 10
17.81660787663521
 20
32.68560439551121
 42
0.0587518675353793
 10
17.84205691956076
 20
32.68260368009821
 42
0.0587518675353684
 10
17.8675059624863
 20
32.68560439551121
 42
0.0723410840576543
 10
17.8868737342066
 20
32.69332145602461
 42
0.1066170543910017
 10
17.90132609519946
 20
32.70641293336778
 42
0.1568512196707747
 10
17.90543746665528
 20
32.71919645602462
 42
0.1568512196707838
  0
LWPOLYLINE
  5
473
330
1E
100
AcDbEntity
  8
OBJECT
100
AcDbPolyline
 90
        7
 70
     0
 43
0.0
 10
17.78931603704253
 20
33.07409676061716
 42
0.0531578900237961
 10
17.79724010491491
 20
33.06832145602462
 42
0.072341084057661
 10
17.81660787663521
 20
33.06060439551121
 42
0.0587518675353793
 10
17.84205691956076
 20
33.05760368009821
 42
0.0587518675353684
 10
17.8675059624863
 20
33.06060439551119
 42
0.0723410840576543
 10
17.8868737342066
 20
33.06832145602462
 42
0.0531578900238873
 10
17.89479780207901
 20
33.07409676061716
 42
0.1568512196707747
  0
LINE
  5
47C
330
1E
100
AcDbEntity
  8
OBJECT
100
AcDbLine
 10
17.74705575581673
 20
33.11199125119234
 30
0.0
 11
17.78931603704251
 21
33.07409676061717
 31
0.0
  0
LINE
  5
47D
330
1E
100
AcDbEntity
  8
OBJECT
100
AcDbLine
 10
17.93705808330478
 20
33.11199125119234
 30
0.0
 11
17.89479780207901
 21
33.07409676061717
 31
0.0
  0
LWPOLYLINE
  5
47E
330
1E
100
AcDbEntity
  8
OBJECT
100
AcDbPolyline
 90
       16
 70
     1
 43
0.0
 10
20.65317538024505
 20
31.59111033784921
 42
0.0587518675353782
 10
20.60733449593179
 20
31.58570520538484
 42
0.072341084057657
 10
20.57244769152685
 20
31.57180460883711
 42
0.1066170543910075
 10
20.54641492439039
 20
31.54822317592692
 42
0.1568512196707839
 10
20.53900918800076
 20
31.52519645602462
 42
0.1568512196707877
 10
20.54641492439039
 20
31.50216973612231
 42
0.1066170543910138
 10
20.57244769152685
 20
31.47858830321212
 42
0.07234108405766
 10
20.60733449593179
 20
31.4646877066644
 42
0.0587518675353789
 10
20.65317538024505
 20
31.45928257420002
 42
0.058751867535374
 10
20.69901626455832
 20
31.4646877066644
 42
0.0723410840576588
 10
20.73390306896324
 20
31.47858830321212
 42
0.1066170543910072
 10
20.7599358360997
 20
31.50216973612231
 42
0.1568512196707839
 10
20.76734157248933
 20
31.52519645602462
 42
0.156851219670792
 10
20.7599358360997
 20
31.54822317592692
 42
0.1066170543910073
 10
20.73390306896324
 20
31.57180460883711
 42
0.072341084057658
 10
20.69901626455832
 20
31.58570520538484
 42
0.058751867535374
  0
LWPOLYLINE
  5
490
330
1E
100
AcDbEntity
  8
OBJECT
100
AcDbPolyline
 90
        2
 70
     0
 43
0.0
 10
20.71655592733957
 20
31.46063727140682
 10
20.71655592733957
 20
31.09619645602462
  0
LWPOLYLINE
  5
494
330
1E
100
AcDbEntity
  8
OBJECT
100
AcDbPolyline
 90
        2
 70
     0
 43
0.0
 10
20.58979483315054
 20
31.46063727140682
 10
20.58979483315054
 20
31.09619645602462
  0
LWPOLYLINE
  5
498
330
1E
100
AcDbEntity
  8
OBJECT
100
AcDbPolyline
 90
        9
 70
     0
 43
0.0
 10
20.58979483315054
 20
31.09619645602462
 42
0.1568512196707782
 10
20.59390620460635
 20
31.08341293336776
 42
0.1066170543910084
 10
20.60835856559921
 20
31.0703214560246
 42
0.072341084057661
 10
20.6277263373195
 20
31.06260439551121
 42
0.0587518675353793
 10
20.65317538024505
 20
31.05960368009821
 42
0.0587518675353684
 10
20.6786244231706
 20
31.06260439551121
 42
0.0723410840576543
 10
20.69799219489089
 20
31.0703214560246
 42
0.1066170543910017
 10
20.71244455588375
 20
31.08341293336776
 42
0.1568512196707747
 10
20.71655592733957
 20
31.09619645602462
 42
0.1568512196707838
  0
LWPOLYLINE
  5
4A3
330
1E
100
AcDbEntity
  8
OBJECT
100
AcDbPolyline
 90
        7
 70
     0
 43
0.0
 10
20.60043449772682
 20
31.45109676061716
 42
0.0531578900237961
 10
20.60835856559921
 20
31.44532145602461
 42
0.072341084057661
 10
20.6277263373195
 20
31.43760439551121
 42
0.0587518675353793
 10
20.65317538024505
 20
31.4346036800982
 42
0.0587518675353684
 10
20.6786244231706
 20
31.43760439551121
 42
0.0723410840576543
 10
20.69799219489089
 20
31.44532145602461
 42
0.0531578900238873
 10
20.7059162627633
 20
31.45109676061716
 42
0.1568512196707747
  0
LINE
  5
4AC
330
1E
100
AcDbEntity
  8
OBJECT
100
AcDbLine
 10
20.55817421650103
 20
31.48899125119235
 30
0.0
 11
20.60043449772681
 21
31.45109676061716
 31
0.0
  0
LINE
  5
4AD
330
1E
100
AcDbEntity
  8
OBJECT
100
AcDbLine
 10
20.74817654398906
 20
31.48899125119235
 30
0.0
 11
20.7059162627633
 21
31.45109676061716
 31
0.0
  0
LINE
  5
4AF
330
1E
100
AcDbEntity
  8
OBJECT
100
AcDbLine
 10
18.11555733318864
 20
28.4362802452876
 30
0.0
 11
20.50178454855078
 21
29.81396917042454
 31
0.0
  0
LINE
  5
4B0
330
1E
100
AcDbEntity
  8
OBJECT
100
AcDbLine
 10
17.91974169439149
 20
28.09327338219562
 30
0.0
 11
14.47006997748433
 21
30.0849422765678
 31
0.0
  0
LINE
  5
4B1
330
1E
100
AcDbEntity
  8
OBJECT
100
AcDbLine
 10
16.11187643536471
 20
25.22238181781376
 30
0.0
 11
16.19754485737805
 21
25.2729140975568
 31
0.0
  0
LWPOLYLINE
  5
4B2
330
1E
100
AcDbEntity
  8
OBJECT
100
AcDbPolyline
 90
        7
 70
     0
 43
0.0
 10
17.74177035673735
 20
26.10157434643221
 42
0.0730609864587327
 10
17.76086703795598
 20
26.08646164951653
 42
0.0723410840576608
 10
17.79595358092753
 20
26.07248146742702
 42
0.0587518675353809
 10
17.84205691956076
 20
26.06704538878028
 42
0.0587518675353774
 10
17.88816025819401
 20
26.07248146742702
 42
0.0723410840576568
 10
17.92324680116555
 20
26.08646164951653
 42
0.0904779399290791
 10
17.94616936963498
 20
26.10592882991601
 42
0.1568512196707811
  0
LWPOLYLINE
  5
4BB
330
1E
100
AcDbEntity
  8
OBJECT
100
AcDbPolyline
 90
        3
 70
     0
 43
0.0
 10
17.68841763591735
 20
26.12268293466976
 42
0.0587518675353793
 10
17.66536596660073
 20
26.11996489534639
 42
0.0642382339879482
 10
17.64967232877
 20
26.11400327403945
 42
0.010596345945674
  0
LWPOLYLINE
  5
4C0
330
1E
100
AcDbEntity
  8
OBJECT
100
AcDbPolyline
 90
        4
 70
     0
 43
0.0
 10
17.74177035673735
 20
26.10157434643221
 42
0.1032009272409039
 10
17.72901257671975
 20
26.11297480430164
 42
0.0723410840576526
 10
17.71146930523398
 20
26.11996489534639
 42
0.0587518675353721
 10
17.68841763591735
 20
26.12268293466976
 42
0.0587518675353793
  0
LWPOLYLINE
  5
4C6
330
1E
100
AcDbEntity
  8
OBJECT
100
AcDbPolyline
 90
        2
 70
     0
 43
0.0
 10
14.91425115203034
 20
29.7114941558747
 42
0.0990140143584546
 10
14.92669065089593
 20
29.70056220785607
 42
0.0723410840576564
  0
LWPOLYLINE
  5
4CA
330
1E
100
AcDbEntity
  8
OBJECT
100
AcDbPolyline
 90
        6
 70
     0
 43
0.0
 10
14.90947839599571
 20
29.95924045455549
 42
0.0587518675353685
 10
14.88070991268856
 20
29.95584834147992
 42
0.0723410840576479
 10
14.85881590987432
 20
29.94712470785607
 42
0.1066170543910048
 10
14.84247845831718
 20
29.93232564651163
 42
0.156851219670777
 10
14.8378308210193
 20
29.91787470785606
 42
0.0907083780630931
 10
14.83943607727571
 20
29.90909906757833
 42
0.1066170543910073
  0
LWPOLYLINE
  5
4D2
330
1E
100
AcDbEntity
  8
OBJECT
100
AcDbPolyline
 90
       16
 70
     1
 43
0.0
 10
14.90947839599571
 20
30.0463860849236
 42
0.0587518675353782
 10
14.85765824337194
 20
30.04027593252468
 42
0.072341084057657
 10
14.81822096907191
 20
30.02456220785607
 42
0.1066170543910075
 10
14.78879261081836
 20
29.99790492428052
 42
0.1568512196707839
 10
14.78042090517281
 20
29.97187470785607
 42
0.1568512196707877
 10
14.78879261081836
 20
29.94584449143163
 42
0.1066170543910138
 10
14.81822096907191
 20
29.91918720785607
 42
0.07234108405766
 10
14.85765824337194
 20
29.90347348318746
 42
0.0587518675353789
 10
14.90947839599571
 20
29.89736333078854
 42
0.058751867535374
 10
14.96129854861947
 20
29.90347348318746
 42
0.0723410840576588
 10
15.00073582291949
 20
29.91918720785607
 42
0.1066170543910072
 10
15.03016418117305
 20
29.94584449143163
 42
0.1568512196707839
 10
15.0385358868186
 20
29.97187470785607
 42
0.156851219670792
 10
15.03016418117305
 20
29.99790492428052
 42
0.1066170543910073
 10
15.00073582291949
 20
30.02456220785607
 42
0.072341084057658
 10
14.96129854861947
 20
30.04027593252468
 42
0.058751867535374
  0
LWPOLYLINE
  5
4F3
330
1E
100
AcDbEntity
  8
OBJECT
100
AcDbPolyline
 90
        6
 70
     0
 43
0.0
 10
14.97952071471571
 20
29.90909906757833
 42
0.0907083780630971
 10
14.98112597097212
 20
29.91787470785606
 42
0.1568512196707755
 10
14.97647833367424
 20
29.93232564651163
 42
0.106617054390996
 10
14.9601408821171
 20
29.94712470785607
 42
0.0723410840576467
 10
14.93824687930286
 20
29.95584834147992
 42
0.0587518675353843
 10
14.90947839599571
 20
29.95924045455549
 42
0.0587518675353685
  0
LINE
  5
4FB
330
1E
100
AcDbEntity
  8
OBJECT
100
AcDbLine
 10
17.91974169439149
 20
27.97627338219561
 30
0.0
 11
14.47006997748433
 21
29.9679422765678
 31
0.0
  0
LINE
  5
4FC
330
1E
100
AcDbEntity
  8
OBJECT
100
AcDbLine
 10
17.55464473867981
 20
28.18331220785608
 30
0.0
 11
14.92669065089593
 21
29.70056220785606
 31
0.0
  0
LWPOLYLINE
  5
4FD
330
1E
100
AcDbEntity
  8
OBJECT
100
AcDbPolyline
 90
        6
 70
     0
 43
0.0
 10
17.72059685668
 20
28.33624045455549
 42
0.0587518675353685
 10
17.69182837337285
 20
28.33284834147993
 42
0.0723410840576479
 10
17.66993437055861
 20
28.32412470785607
 42
0.1066170543910048
 10
17.65359691900147
 20
28.30932564651163
 42
0.156851219670777
 10
17.64894928170359
 20
28.29487470785608
 42
0.0907083780630934
 10
17.65055453796
 20
28.28609906757833
 42
0.1066170543910073
  0
LWPOLYLINE
  5
505
330
1E
100
AcDbEntity
  8
OBJECT
100
AcDbPolyline
 90
       16
 70
     1
 43
0.0
 10
17.72059685668
 20
28.42338608492361
 42
0.0587518675353782
 10
17.66877670405623
 20
28.41727593252468
 42
0.072341084057657
 10
17.62933942975621
 20
28.40156220785607
 42
0.1066170543910075
 10
17.59991107150264
 20
28.37490492428051
 42
0.1568512196707839
 10
17.5915393658571
 20
28.34887470785607
 42
0.1568512196707877
 10
17.59991107150264
 20
28.32284449143164
 42
0.1066170543910138
 10
17.62933942975621
 20
28.29618720785607
 42
0.07234108405766
 10
17.66877670405623
 20
28.28047348318746
 42
0.0587518675353789
 10
17.72059685668
 20
28.27436333078854
 42
0.058751867535374
 10
17.77241700930376
 20
28.28047348318746
 42
0.0723410840576588
 10
17.81185428360378
 20
28.29618720785607
 42
0.1066170543910072
 10
17.84128264185735
 20
28.32284449143164
 42
0.1568512196707839
 10
17.84965434750288
 20
28.34887470785607
 42
0.156851219670792
 10
17.84128264185735
 20
28.37490492428051
 42
0.1066170543910073
 10
17.81185428360378
 20
28.40156220785607
 42
0.072341084057658
 10
17.77241700930376
 20
28.41727593252469
 42
0.058751867535374
  0
LWPOLYLINE
  5
517
330
1E
100
AcDbEntity
  8
OBJECT
100
AcDbPolyline
 90
        3
 70
     0
 43
0.0
 10
17.59082020041783
 20
28.16617629528357
 42
0.0179552318984877
 10
17.59848727474639
 20
28.16137470785607
 42
0.0143456988257448
 10
17.60845022687712
 20
28.15599759476148
 42
0.0143456988257448
  0
LWPOLYLINE
  5
520
330
1E
100
AcDbEntity
  8
OBJECT
100
AcDbPolyline
 90
        3
 70
     0
 43
0.0
 10
17.55464473867981
 20
28.18331220785607
 42
0.0723410840576564
 10
17.57232835633747
 20
28.17626619608295
 42
0.0043348064121034
 10
17.57401647881413
 20
28.17587792847485
 42
0.0587518675353722
  0
LWPOLYLINE
  5
52A
330
1E
100
AcDbEntity
  8
OBJECT
100
AcDbPolyline
 90
        6
 70
     0
 43
0.0
 10
17.7906391754
 20
28.28609906757833
 42
0.0907083780630903
 10
17.7922444316564
 20
28.29487470785608
 42
0.1568512196707755
 10
17.78759679435853
 20
28.30932564651163
 42
0.106617054390996
 10
17.77125934280139
 20
28.32412470785607
 42
0.0723410840576467
 10
17.74936533998713
 20
28.33284834147993
 42
0.0587518675353843
 10
17.72059685668
 20
28.33624045455549
 42
0.0587518675353685
  0
LWPOLYLINE
  5
532
330
1E
100
AcDbEntity
  8
OBJECT
100
AcDbPolyline
 90
       16
 70
     1
 43
0.0
 10
20.65317538024505
 20
30.1165110849236
 42
0.0587518675353782
 10
20.60135522762128
 20
30.11040093252468
 42
0.072341084057657
 10
20.56191795332126
 20
30.09468720785607
 42
0.1066170543910075
 10
20.53248959506769
 20
30.06802992428051
 42
0.1568512196707839
 10
20.52411788942215
 20
30.04199970785606
 42
0.1568512196707877
 10
20.53248959506769
 20
30.01596949143162
 42
0.1066170543910138
 10
20.56191795332126
 20
29.98931220785607
 42
0.07234108405766
 10
20.60135522762128
 20
29.97359848318746
 42
0.0587518675353789
 10
20.65317538024505
 20
29.96748833078854
 42
0.058751867535374
 10
20.70499553286881
 20
29.97359848318746
 42
0.0723410840576588
 10
20.74443280716883
 20
29.98931220785607
 42
0.1066170543910072
 10
20.7738611654224
 20
30.01596949143162
 42
0.1568512196707839
 10
20.78223287106794
 20
30.04199970785606
 42
0.156851219670792
 10
20.7738611654224
 20
30.06802992428051
 42
0.1066170543910073
 10
20.74443280716883
 20
30.09468720785607
 42
0.072341084057658
 10
20.70499553286881
 20
30.11040093252468
 42
0.058751867535374
  0
LWPOLYLINE
  5
548
330
1E
100
AcDbEntity
  8
OBJECT
100
AcDbPolyline
 90
        6
 70
     0
 43
0.0
 10
20.65317538024505
 20
30.02936545455547
 42
0.0587518675353685
 10
20.62440689693791
 20
30.02597334147993
 42
0.0723410840576479
 10
20.60251289412367
 20
30.01724970785607
 42
0.1066170543910048
 10
20.58617544256651
 20
30.00245064651163
 42
0.156851219670777
 10
20.58152780526865
 20
29.98799970785606
 42
0.0907083780630934
 10
20.58313306152505
 20
29.97922406757833
 42
0.1066170543910073
  0
LWPOLYLINE
  5
550
330
1E
100
AcDbEntity
  8
OBJECT
100
AcDbPolyline
 90
        6
 70
     0
 43
0.0
 10
20.72321769896505
 20
29.97922406757833
 42
0.0907083780630971
 10
20.72482295522145
 20
29.98799970785606
 42
0.1568512196707755
 10
20.72017531792357
 20
30.00245064651164
 42
0.106617054390996
 10
20.70383786636644
 20
30.01724970785607
 42
0.0723410840576467
 10
20.68194386355219
 20
30.02597334147992
 42
0.0587518675353843
 10
20.65317538024505
 20
30.02936545455547
 42
0.0587518675353685
  0
LINE
  5
55F
330
1E
100
AcDbEntity
  8
OBJECT
100
AcDbLine
 10
20.53218391256224
 20
29.71077025141976
 30
0.0
 11
18.10548861369754
 21
28.30971706737902
 31
0.0
  0
LINE
  5
560
330
1E
100
AcDbEntity
  8
OBJECT
100
AcDbLine
 10
20.50178454855078
 20
29.69696917042455
 30
0.0
 11
18.10258650000328
 21
28.31179153125642
 31
0.0
  0
LWPOLYLINE
  5
561
330
1E
100
AcDbEntity
  8
OBJECT
100
AcDbPolyline
 90
        6
 70
     0
 43
0.0
 10
19.18721087798894
 20
29.18299045455547
 42
0.0587518675353685
 10
19.1584423946818
 20
29.17959834147993
 42
0.0723410840576479
 10
19.13654839186756
 20
29.17087470785606
 42
0.1066170543910048
 10
19.1202109403104
 20
29.15607564651164
 42
0.156851219670777
 10
19.11556330301253
 20
29.14162470785607
 42
0.0907083780630934
 10
19.11716855926894
 20
29.13284906757833
 42
0.1066170543910073
  0
LWPOLYLINE
  5
569
330
1E
100
AcDbEntity
  8
OBJECT
100
AcDbPolyline
 90
       16
 70
     1
 43
0.0
 10
19.18721087798894
 20
29.27013608492361
 42
0.0587518675353782
 10
19.13539072536517
 20
29.26402593252468
 42
0.072341084057657
 10
19.09595345106516
 20
29.24831220785606
 42
0.1066170543910075
 10
19.06652509281158
 20
29.22165492428051
 42
0.1568512196707839
 10
19.05815338716605
 20
29.19562470785606
 42
0.1568512196707877
 10
19.06652509281158
 20
29.16959449143162
 42
0.1066170543910138
 10
19.09595345106516
 20
29.14293720785607
 42
0.07234108405766
 10
19.13539072536517
 20
29.12722348318746
 42
0.0587518675353789
 10
19.18721087798894
 20
29.12111333078854
 42
0.058751867535374
 10
19.2390310306127
 20
29.12722348318746
 42
0.0723410840576588
 10
19.27846830491273
 20
29.14293720785607
 42
0.1066170543910072
 10
19.3078966631663
 20
29.16959449143162
 42
0.1568512196707839
 10
19.31626836881182
 20
29.19562470785606
 42
0.156851219670792
 10
19.3078966631663
 20
29.22165492428051
 42
0.1066170543910073
 10
19.27846830491273
 20
29.24831220785606
 42
0.072341084057658
 10
19.2390310306127
 20
29.26402593252468
 42
0.058751867535374
  0
LWPOLYLINE
  5
57B
330
1E
100
AcDbEntity
  8
OBJECT
100
AcDbPolyline
 90
        6
 70
     0
 43
0.0
 10
19.25725319670894
 20
29.13284906757833
 42
0.0907083780630971
 10
19.25885845296535
 20
29.14162470785607
 42
0.1568512196707755
 10
19.25421081566748
 20
29.15607564651164
 42
0.106617054390996
 10
19.23787336411032
 20
29.17087470785606
 42
0.0723410840576467
 10
19.21597936129608
 20
29.17959834147993
 42
0.0587518675353843
 10
19.18721087798894
 20
29.18299045455547
 42
0.0587518675353685
  0
LWPOLYLINE
  5
583
330
1E
100
AcDbEntity
  8
OBJECT
100
AcDbPolyline
 90
        6
 70
     0
 43
0.0
 10
16.37609241730466
 20
30.80599045455548
 42
0.0587518675353685
 10
16.3473239339975
 20
30.80259834147993
 42
0.0723410840576479
 10
16.32542993118327
 20
30.79387470785607
 42
0.1066170543910048
 10
16.30909247962612
 20
30.77907564651163
 42
0.156851219670777
 10
16.30444484232825
 20
30.76462470785607
 42
0.0907083780630995
 10
16.30605009858466
 20
30.75584906757833
 42
0.1066170543910073
  0
LWPOLYLINE
  5
58B
330
1E
100
AcDbEntity
  8
OBJECT
100
AcDbPolyline
 90
       16
 70
     1
 43
0.0
 10
16.37609241730466
 20
30.89313608492361
 42
0.0587518675353782
 10
16.3242722646809
 20
30.88702593252468
 42
0.072341084057657
 10
16.28483499038086
 20
30.87131220785606
 42
0.1066170543910075
 10
16.2554066321273
 20
30.84465492428051
 42
0.1568512196707839
 10
16.24703492648177
 20
30.81862470785607
 42
0.1568512196707877
 10
16.2554066321273
 20
30.79259449143163
 42
0.1066170543910138
 10
16.28483499038086
 20
30.76593720785607
 42
0.07234108405766
 10
16.3242722646809
 20
30.75022348318746
 42
0.0587518675353789
 10
16.37609241730466
 20
30.74411333078854
 42
0.058751867535374
 10
16.42791256992842
 20
30.75022348318746
 42
0.0723410840576588
 10
16.46734984422844
 20
30.76593720785607
 42
0.1066170543910072
 10
16.496778202482
 20
30.79259449143163
 42
0.1568512196707839
 10
16.50514990812753
 20
30.81862470785607
 42
0.156851219670792
 10
16.496778202482
 20
30.84465492428051
 42
0.1066170543910073
 10
16.46734984422844
 20
30.87131220785606
 42
0.072341084057658
 10
16.42791256992842
 20
30.88702593252468
 42
0.058751867535374
  0
LWPOLYLINE
  5
59D
330
1E
100
AcDbEntity
  8
OBJECT
100
AcDbPolyline
 90
        6
 70
     0
 43
0.0
 10
16.44613473602466
 20
30.75584906757833
 42
0.0907083780630905
 10
16.44773999228106
 20
30.76462470785607
 42
0.1568512196707755
 10
16.44309235498319
 20
30.77907564651163
 42
0.106617054390996
 10
16.42675490342605
 20
30.79387470785607
 42
0.0723410840576467
 10
16.4048609006118
 20
30.80259834147993
 42
0.0587518675353843
 10
16.37609241730466
 20
30.80599045455548
 42
0.0587518675353685
  0
LWPOLYLINE
  5
5A5
330
1E
100
AcDbEntity
  8
OBJECT
100
AcDbPolyline
 90
        9
 70
     0
 43
0.0
 10
19.12318081184158
 20
30.24944645602462
 42
0.1568512196707782
 10
19.12729218329739
 20
30.23666293336777
 42
0.1066170543910084
 10
19.14174454429026
 20
30.22357145602462
 42
0.072341084057661
 10
19.16111231601055
 20
30.21585439551121
 42
0.0587518675353793
 10
19.1865613589361
 20
30.21285368009821
 42
0.0587518675353684
 10
19.21201040186164
 20
30.21585439551121
 42
0.0723410840576543
 10
19.23137817358195
 20
30.22357145602462
 42
0.1066170543910017
 10
19.2458305345748
 20
30.23666293336777
 42
0.1568512196707747
 10
19.24994190603062
 20
30.24944645602462
 42
0.1568512196707838
  0
LWPOLYLINE
  5
5B0
330
1E
100
AcDbEntity
  8
OBJECT
100
AcDbPolyline
 90
       16
 70
     1
 43
0.0
 10
19.1865613589361
 20
30.74436033784921
 42
0.0587518675353782
 10
19.14072047462284
 20
30.73895520538484
 42
0.072341084057657
 10
19.10583367021792
 20
30.72505460883712
 42
0.1066170543910075
 10
19.07980090308144
 20
30.70147317592692
 42
0.1568512196707839
 10
19.0723951666918
 20
30.67844645602462
 42
0.1568512196707877
 10
19.07980090308144
 20
30.6554197361223
 42
0.1066170543910138
 10
19.10583367021792
 20
30.63183830321212
 42
0.07234108405766
 10
19.14072047462284
 20
30.6179377066644
 42
0.0587518675353789
 10
19.1865613589361
 20
30.61253257420002
 42
0.058751867535374
 10
19.23240224324938
 20
30.6179377066644
 42
0.0723410840576588
 10
19.26728904765429
 20
30.63183830321212
 42
0.1066170543910072
 10
19.29332181479076
 20
30.6554197361223
 42
0.1568512196707839
 10
19.30072755118039
 20
30.67844645602462
 42
0.156851219670792
 10
19.29332181479076
 20
30.70147317592692
 42
0.1066170543910073
 10
19.26728904765429
 20
30.72505460883712
 42
0.072341084057658
 10
19.23240224324938
 20
30.73895520538484
 42
0.058751867535374
  0
LINE
  5
5C2
330
1E
100
AcDbEntity
  8
OBJECT
100
AcDbLine
 10
19.09156019519207
 20
30.64224125119235
 30
0.0
 11
19.13382047641785
 21
30.60434676061717
 31
0.0
  0
LWPOLYLINE
  5
5C3
330
1E
100
AcDbEntity
  8
OBJECT
100
AcDbPolyline
 90
        2
 70
     0
 43
0.0
 10
19.12318081184158
 20
30.61388727140682
 10
19.12318081184158
 20
30.24944645602462
  0
LWPOLYLINE
  5
5C7
330
1E
100
AcDbEntity
  8
OBJECT
100
AcDbPolyline
 90
        2
 70
     0
 43
0.0
 10
19.24994190603062
 20
30.61388727140682
 10
19.24994190603062
 20
30.24944645602462
  0
LINE
  5
5CB
330
1E
100
AcDbEntity
  8
CENTER
100
AcDbLine
 10
19.1865613589361
 20
29.12073833078854
 30
0.0
 11
19.1865613589361
 21
30.21285368009821
 31
0.0
  0
LINE
  5
5CC
330
1E
100
AcDbEntity
  8
OBJECT
100
AcDbLine
 10
19.28156252268013
 20
30.64224125119235
 30
0.0
 11
19.23930224145436
 21
30.60434676061717
 31
0.0
  0
LWPOLYLINE
  5
5CD
330
1E
100
AcDbEntity
  8
OBJECT
100
AcDbPolyline
 90
        7
 70
     0
 43
0.0
 10
19.13382047641787
 20
30.60434676061714
 42
0.0531578900237961
 10
19.14174454429026
 20
30.59857145602462
 42
0.072341084057661
 10
19.16111231601055
 20
30.59085439551121
 42
0.0587518675353793
 10
19.1865613589361
 20
30.58785368009822
 42
0.0587518675353684
 10
19.21201040186164
 20
30.59085439551121
 42
0.0723410840576543
 10
19.23137817358195
 20
30.59857145602462
 42
0.0531578900238873
 10
19.23930224145436
 20
30.60434676061717
 42
0.1568512196707747
  0
LINE
  5
5D6
330
1E
100
AcDbEntity
  8
CENTER
100
AcDbLine
 10
19.1865613589361
 20
25.13996164951652
 30
0.0
 11
19.18656135893611
 21
28.93387470785607
 31
0.0
  0
LINE
  5
5D7
330
1E
100
AcDbEntity
  8
CENTER
100
AcDbLine
 10
16.37544289825181
 20
26.75039552401958
 30
0.0
 11
16.3754428982518
 21
28.86412470785606
 31
0.0
  0
LWPOLYLINE
  5
5D8
330
1E
100
AcDbEntity
  8
OBJECT
100
AcDbPolyline
 90
        7
 70
     0
 43
0.0
 10
16.32270201573358
 20
32.22734676061715
 42
0.0531578900237961
 10
16.33062608360597
 20
32.22157145602462
 42
0.072341084057661
 10
16.34999385532626
 20
32.21385439551121
 42
0.0587518675353793
 10
16.37544289825181
 20
32.21085368009822
 42
0.0587518675353684
 10
16.40089194117736
 20
32.21385439551121
 42
0.0723410840576543
 10
16.42025971289766
 20
32.22157145602462
 42
0.0531578900238873
 10
16.42818378077007
 20
32.22734676061717
 42
0.1568512196707747
  0
LWPOLYLINE
  5
5E1
330
1E
100
AcDbEntity
  8
OBJECT
100
AcDbPolyline
 90
        9
 70
     0
 43
0.0
 10
16.31206235115731
 20
31.87244645602462
 42
0.1568512196707782
 10
16.31617372261311
 20
31.85966293336778
 42
0.1066170543910084
 10
16.33062608360597
 20
31.84657145602462
 42
0.072341084057661
 10
16.34999385532626
 20
31.83885439551121
 42
0.0587518675353793
 10
16.37544289825181
 20
31.83585368009822
 42
0.0587518675353684
 10
16.40089194117736
 20
31.83885439551121
 42
0.0723410840576543
 10
16.42025971289766
 20
31.84657145602462
 42
0.1066170543910017
 10
16.43471207389052
 20
31.85966293336778
 42
0.1568512196707747
 10
16.43882344534633
 20
31.87244645602462
 42
0.1568512196707838
  0
LWPOLYLINE
  5
5EC
330
1E
100
AcDbEntity
  8
OBJECT
100
AcDbPolyline
 90
       16
 70
     1
 43
0.0
 10
16.37544289825181
 20
32.36736033784921
 42
0.0587518675353782
 10
16.32960201393855
 20
32.36195520538483
 42
0.072341084057657
 10
16.29471520953363
 20
32.34805460883712
 42
0.1066170543910075
 10
16.26868244239715
 20
32.32447317592692
 42
0.1568512196707839
 10
16.26127670600753
 20
32.30144645602462
 42
0.1568512196707877
 10
16.26868244239715
 20
32.27841973612231
 42
0.1066170543910138
 10
16.29471520953363
 20
32.25483830321212
 42
0.07234108405766
 10
16.32960201393855
 20
32.24093770666438
 42
0.0587518675353789
 10
16.37544289825181
 20
32.23553257420002
 42
0.058751867535374
 10
16.42128378256508
 20
32.24093770666438
 42
0.0723410840576588
 10
16.45617058696999
 20
32.25483830321212
 42
0.1066170543910072
 10
16.48220335410648
 20
32.27841973612231
 42
0.1568512196707839
 10
16.48960909049611
 20
32.30144645602462
 42
0.156851219670792
 10
16.48220335410648
 20
32.32447317592692
 42
0.1066170543910073
 10
16.45617058696999
 20
32.34805460883712
 42
0.072341084057658
 10
16.42128378256508
 20
32.36195520538483
 42
0.058751867535374
  0
LWPOLYLINE
  5
5FE
330
1E
100
AcDbEntity
  8
OBJECT
100
AcDbPolyline
 90
        2
 70
     0
 43
0.0
 10
16.31206235115731
 20
32.23688727140682
 10
16.31206235115731
 20
31.87244645602462
  0
LINE
  5
602
330
1E
100
AcDbEntity
  8
OBJECT
100
AcDbLine
 10
16.28044173450779
 20
32.26524125119235
 30
0.0
 11
16.32270201573357
 21
32.22734676061717
 31
0.0
  0
LWPOLYLINE
  5
603
330
1E
100
AcDbEntity
  8
OBJECT
100
AcDbPolyline
 90
        2
 70
     0
 43
0.0
 10
16.43882344534633
 20
32.23688727140682
 10
16.43882344534633
 20
31.87244645602462
  0
LINE
  5
607
330
1E
100
AcDbEntity
  8
OBJECT
100
AcDbLine
 10
16.47044406199583
 20
32.26524125119235
 30
0.0
 11
16.42818378077007
 21
32.22734676061717
 31
0.0
  0
LINE
  5
616
330
1E
100
AcDbEntity
  8
OBJECT
100
AcDbLine
 10
17.59913679379923
 20
24.31496164951653
 30
0.0
 11
14.7873688140621
 21
25.93833664951652
 31
0.0
  0
LINE
  5
617
330
1E
100
AcDbEntity
  8
OBJECT
100
AcDbLine
 10
17.84205691956076
 20
24.31496164951653
 30
0.0
 11
20.77528496217865
 21
26.00846164951652
 31
0.0
  0
LINE
  5
618
330
1E
100
AcDbEntity
  8
OBJECT
100
AcDbLine
 10
14.73705840873019
 20
26.00846164951652
 30
0.0
 11
14.82599922217966
 21
24.52350341143973
 31
0.0
  0
LWPOLYLINE
  5
619
330
1E
100
AcDbEntity
  8
OBJECT
100
AcDbPolyline
 90
        3
 70
     0
 43
0.0
 10
14.84929166433183
 20
24.45162248844666
 42
0.0587518675353721
 10
14.87705111585349
 20
24.41441386531435
 42
0.0723410840576587
 10
14.90670158017832
 20
24.39101811881478
 42
0.1066170543910069
  0
LWPOLYLINE
  5
61E
330
1E
100
AcDbEntity
  8
OBJECT
100
AcDbPolyline
 90
        3
 70
     0
 43
0.0
 10
14.8259807040679
 20
24.52381259033678
 42
0.0576182447349186
 10
14.83119123785666
 20
24.49412662816171
 42
0.0587518675353731
 10
14.84953512496824
 20
24.45148192638269
 42
0.0587518675353721
  0
LINE
  5
623
330
1E
100
AcDbEntity
  8
OBJECT
100
AcDbLine
 10
17.63940697507521
 20
22.8132899234551
 30
0.0
 11
14.90670158017833
 21
24.39101811881478
 31
0.0
  0
LWPOLYLINE
  5
624
330
1E
100
AcDbEntity
  8
OBJECT
100
AcDbPolyline
 90
        5
 70
     0
 43
0.0
 10
14.90947839599571
 20
25.97190277501349
 42
0.0587518675353727
 10
14.88587348661549
 20
25.96911950274636
 42
0.0723410840576566
 10
14.86790917661406
 20
25.96196164951654
 42
0.1066170543909957
 10
14.8545040881569
 20
25.94981882995186
 42
0.015928584286223
 10
14.85378271954751
 20
25.9487425633066
 42
0.1568512196707294
  0
LINE
  5
62B
330
1E
100
AcDbEntity
  8
OBJECT
100
AcDbLine
 10
14.83381463244817
 20
25.98363620778561
 30
0.0
 11
14.94898968747284
 21
26.05027006272881
 31
0.0
  0
LWPOLYLINE
  5
62C
330
1E
100
AcDbEntity
  8
OBJECT
100
AcDbPolyline
 90
        2
 70
     0
 43
0.0
 10
14.83381463244817
 20
25.98363620778561
 42
0.0629145768544889
 10
14.81748901523274
 20
25.97124439449189
 42
0.1568512196707815
  0
LWPOLYLINE
  5
630
330
1E
100
AcDbEntity
  8
OBJECT
100
AcDbPolyline
 90
        5
 70
     0
 43
0.0
 10
14.7873688140621
 20
26.07858664951653
 42
0.1066170543910098
 10
14.74820082122639
 20
26.04310684860102
 42
0.156851219670778
 10
14.73705840873019
 20
26.00846164951652
 42
0.1568512196707736
 10
14.74820082122639
 20
25.97381645043205
 42
0.1066170543910057
 10
14.7873688140621
 20
25.93833664951652
 42
0.0723410840576563
  0
LWPOLYLINE
  5
637
330
1E
100
AcDbEntity
  8
OBJECT
100
AcDbPolyline
 90
        5
 70
     0
 43
0.0
 10
14.82958755249659
 20
26.05421164951653
 42
0.1066170543910082
 10
14.80403410262517
 20
26.03106439972139
 42
0.1568512196707815
 10
14.79676472121053
 20
26.00846164951652
 42
0.1568512196708033
 10
14.80403410262517
 20
25.98585889931168
 42
0.1066170543910133
 10
14.82958755249659
 20
25.96271164951653
 42
0.072341084057667
  0
LINE
  5
63E
330
1E
100
AcDbEntity
  8
OBJECT
100
AcDbLine
 10
14.94898968747284
 20
26.05027006272881
 30
0.0
 11
14.9519351275495
 21
26.00109291517437
 31
0.0
  0
LWPOLYLINE
  5
63F
330
1E
100
AcDbEntity
  8
OBJECT
100
AcDbPolyline
 90
        7
 70
     0
 43
0.0
 10
14.97021395159829
 20
25.88152096013999
 42
0.0431043958842368
 10
14.9906682776005
 20
25.89108664951654
 42
0.1066170543910163
 10
15.01685009099334
 20
25.91480309397878
 42
0.1568512196707811
 10
15.02429822768867
 20
25.93796164951653
 42
0.1568512196707789
 10
15.01685009099334
 20
25.96112020505429
 42
0.1066170543910128
 10
14.9906682776005
 20
25.98483664951654
 42
0.0614208028592784
 10
14.96110038144871
 20
25.99736952937517
 42
0.0587518675353793
  0
LWPOLYLINE
  5
648
330
1E
100
AcDbEntity
  8
OBJECT
100
AcDbPolyline
 90
        9
 70
     0
 43
0.0
 10
14.92822020742544
 20
25.90576605964246
 42
0.0122510181797349
 10
14.93308330537591
 20
25.90680379628671
 42
0.072341084057657
 10
14.95104761537735
 20
25.91396164951653
 42
0.1066170543910092
 10
14.96445270383451
 20
25.9261044690812
 42
0.1568512196707462
 10
14.96826614982251
 20
25.93796164951653
 42
0.1568512196707336
 10
14.96445270383451
 20
25.94981882995186
 42
0.1066170543909893
 10
14.95104761537735
 20
25.96196164951654
 42
0.0723410840576466
 10
14.93308330537592
 20
25.96911950274636
 42
0.0587518675353801
 10
14.90947839599571
 20
25.97190277501349
 42
0.0587518675353727
  0
LINE
  5
653
330
1E
100
AcDbEntity
  8
OBJECT
100
AcDbLine
 10
15.02429822768867
 20
25.93796164951653
 30
0.0
 11
15.02973702773804
 21
25.84715529610771
 31
0.0
  0
LWPOLYLINE
  5
654
330
1E
100
AcDbEntity
  8
OBJECT
100
AcDbPolyline
 90
        7
 70
     0
 43
0.0
 10
14.94898968747284
 20
26.05027006272881
 42
0.0028611439124897
 10
14.94833733620207
 20
26.04989838845362
 42
0.1066170543909982
 10
14.93524642950565
 20
26.0380401662225
 42
0.1568512196707734
 10
14.93152236115799
 20
26.02646088845362
 42
0.1568512196707052
 10
14.93524642950565
 20
26.01488161068473
 42
0.1066170543910106
 10
14.94833733620207
 20
26.00302338845362
 42
0.0533467249351883
 10
14.96110038144871
 20
25.99736952937517
 42
0.0587518675353688
  0
LINE
  5
65D
330
1E
100
AcDbEntity
  8
OBJECT
100
AcDbLine
 10
17.64135553223372
 20
24.33933664951652
 30
0.0
 11
14.82958755249659
 21
25.96271164951653
 31
0.0
  0
LWPOLYLINE
  5
65E
330
1E
100
AcDbEntity
  8
OBJECT
100
AcDbPolyline
 90
        4
 70
     0
 43
0.0
 10
17.72059685668
 20
24.38125291025277
 42
0.0587518675353755
 10
17.67449351804676
 20
24.37581683160604
 42
0.0723410840576592
 10
17.63940697507521
 20
24.36183664951653
 42
0.0602741052164751
 10
17.6233129439968
 20
24.349753542692
 42
0.1568512196707789
  0
LWPOLYLINE
  5
664
330
1E
100
AcDbEntity
  8
OBJECT
100
AcDbPolyline
 90
        5
 70
     0
 43
0.0
 10
17.64135553223372
 20
24.33933664951652
 42
0.072341084057667
 10
17.67559999817396
 20
24.32569199179717
 42
0.0587518675353803
 10
17.72059685668
 20
24.32038637903796
 42
0.0587518675353749
 10
17.76559371518604
 20
24.32569199179717
 42
0.0723410840576561
 10
17.79983818112628
 20
24.33933664951652
 42
0.1066170543910133
  0
LWPOLYLINE
  5
66B
330
1E
100
AcDbEntity
  8
OBJECT
100
AcDbPolyline
 90
        5
 70
     0
 43
0.0
 10
17.59913679379923
 20
24.31496164951653
 42
0.0723410840576563
 10
17.65162626208468
 20
24.29404729711063
 42
0.0587518675353739
 10
17.72059685668
 20
24.28591492345512
 42
0.0587518675353751
 10
17.78956745127532
 20
24.29404729711063
 42
0.0723410840576581
 10
17.84205691956076
 20
24.31496164951653
 42
0.1066170543910071
  0
LWPOLYLINE
  5
672
330
1E
100
AcDbEntity
  8
OBJECT
100
AcDbPolyline
 90
        4
 70
     0
 43
0.0
 10
17.77455206582895
 20
24.32818140352896
 42
0.096596827243349
 10
17.76216607606166
 20
24.33896164951653
 42
0.0723410840576466
 10
17.74420176606021
 20
24.34611950274636
 42
0.0587518675353801
 10
17.72059685668
 20
24.34890277501349
 42
0.0587518675353727
  0
LWPOLYLINE
  5
678
330
1E
100
AcDbEntity
  8
OBJECT
100
AcDbPolyline
 90
        4
 70
     0
 43
0.0
 10
17.72059685668
 20
24.34890277501349
 42
0.0587518675353727
 10
17.69699194729978
 20
24.34611950274636
 42
0.0723410840576566
 10
17.67902763729835
 20
24.33896164951653
 42
0.0965968272433475
 10
17.66664164753105
 20
24.32818140352896
 42
0.1568512196707378
  0
LWPOLYLINE
  5
67E
330
1E
100
AcDbEntity
  8
OBJECT
100
AcDbPolyline
 90
        4
 70
     0
 43
0.0
 10
17.8178807693632
 20
24.349753542692
 42
0.0602741052164752
 10
17.80178673828479
 20
24.36183664951653
 42
0.0723410840576543
 10
17.76670019531323
 20
24.37581683160604
 42
0.0587518675353793
 10
17.72059685668
 20
24.38125291025277
 42
0.0587518675353755
  0
LWPOLYLINE
  5
684
330
1E
100
AcDbEntity
  8
OBJECT
100
AcDbPolyline
 90
        5
 70
     0
 43
0.0
 10
17.63940697507521
 20
22.81328992345512
 42
0.0723410840576616
 10
17.67449351804676
 20
22.7993097413656
 42
0.0587518675353754
 10
17.72059685668
 20
22.79387366271887
 42
0.0587518675353759
 10
17.76670019531323
 20
22.7993097413656
 42
0.0723410840576575
 10
17.80178673828479
 20
22.81328992345512
 42
0.1066170543910062
  0
LWPOLYLINE
  5
68B
330
1E
100
AcDbEntity
  8
OBJECT
100
AcDbPolyline
 90
        7
 70
     0
 43
0.0
 10
20.59284480193734
 20
26.06467500433405
 42
0.0439272805455098
 10
20.57198549864025
 20
26.05496164951653
 42
0.1066170543910128
 10
20.54580368524741
 20
26.03124520505428
 42
0.1568512196707789
 10
20.53835554855209
 20
26.00808664951653
 42
0.1568512196707841
 10
20.54580368524741
 20
25.98492809397876
 42
0.1066170543909903
 10
20.57198549864025
 20
25.96121164951653
 42
0.0431043958842389
 10
20.59243982464248
 20
25.95164596013999
 42
0.0587518675353809
  0
LINE
  5
694
330
1E
100
AcDbEntity
  8
OBJECT
100
AcDbLine
 10
20.53835554855209
 20
26.00808664951653
 30
0.0
 11
20.53291939769905
 21
25.91728182562193
 31
0.0
  0
LWPOLYLINE
  5
695
330
1E
100
AcDbEntity
  8
OBJECT
100
AcDbPolyline
 90
        5
 70
     0
 43
0.0
 10
20.73306622374417
 20
26.03283664951653
 42
0.1066170543910133
 10
20.75861967361559
 20
26.05598389931168
 42
0.1568512196707847
 10
20.76588905503021
 20
26.07858664951653
 42
0.1568512196707792
 10
20.75861967361559
 20
26.10118939972137
 42
0.1066170543910057
 10
20.73306622374417
 20
26.12433664951653
 42
0.0723410840576648
  0
LINE
  5
69C
330
1E
100
AcDbEntity
  8
OBJECT
100
AcDbLine
 10
20.61271281712671
 20
26.12120858248311
 30
0.0
 11
20.60963003415646
 21
26.06971413865938
 31
0.0
  0
LWPOLYLINE
  5
69D
330
1E
100
AcDbEntity
  8
OBJECT
100
AcDbPolyline
 90
        5
 70
     0
 43
0.0
 10
20.70887105669324
 20
26.01886756330658
 42
0.015928584286222
 10
20.70814968808385
 20
26.01994382995187
 42
0.1066170543909893
 10
20.69474459962671
 20
26.03208664951653
 42
0.0723410840576466
 10
20.67678028962528
 20
26.03924450274635
 42
0.0587518675353801
 10
20.65317538024505
 20
26.04202777501348
 42
0.0587518675353727
  0
LWPOLYLINE
  5
6A4
330
1E
100
AcDbEntity
  8
OBJECT
100
AcDbPolyline
 90
        9
 70
     0
 43
0.0
 10
20.65317538024505
 20
26.04202777501348
 42
0.0587518675353727
 10
20.62957047086483
 20
26.03924450274635
 42
0.0723410840576566
 10
20.61160616086339
 20
26.03208664951653
 42
0.1066170543909957
 10
20.59820107240626
 20
26.01994382995187
 42
0.1568512196707378
 10
20.59438762641826
 20
26.00808664951653
 42
0.1568512196707294
 10
20.59820107240626
 20
25.9962294690812
 42
0.1066170543909819
 10
20.61160616086339
 20
25.98408664951653
 42
0.0723410840576534
 10
20.62957047086483
 20
25.97692879628669
 42
0.0122510181797299
 10
20.6344335688153
 20
25.97589105964246
 42
0.0587518675353727
  0
LWPOLYLINE
  5
6AF
330
1E
100
AcDbEntity
  8
OBJECT
100
AcDbPolyline
 90
        2
 70
     0
 43
0.0
 10
20.72883914379259
 20
26.05376120778561
 42
-0.062914576854489
 10
20.74516476100801
 20
26.0413693944919
 42
-0.1568512196707815
  0
LWPOLYLINE
  5
6B3
330
1E
100
AcDbEntity
  8
OBJECT
100
AcDbPolyline
 90
        7
 70
     0
 43
0.0
 10
20.6087899690569
 20
26.06934459249928
 42
0.0290503911245578
 10
20.61559631016657
 20
26.07276365982903
 42
0.1066170543910291
 10
20.62868721686301
 20
26.08462188206015
 42
0.1568512196707543
 10
20.63241128521065
 20
26.09620115982902
 42
0.1568512196707906
 10
20.62868721686301
 20
26.10778043759791
 42
0.1066170543910265
 10
20.61559631016657
 20
26.11963865982902
 42
0.0125132942123061
 10
20.61271281712671
 20
26.12120858248311
 42
0.0587518675353721
  0
LINE
  5
6BC
330
1E
100
AcDbEntity
  8
OBJECT
100
AcDbLine
 10
20.59284480193734
 20
26.06467500433405
 30
0.0
 11
20.6087899690569
 21
26.06934459249928
 31
0.0
  0
LINE
  5
6BD
330
1E
100
AcDbEntity
  8
OBJECT
100
AcDbLine
 10
20.72883914379259
 20
26.05376120778561
 30
0.0
 11
20.61271281712671
 21
26.12120858248311
 31
0.0
  0
LWPOLYLINE
  5
6BE
330
1E
100
AcDbEntity
  8
OBJECT
100
AcDbPolyline
 90
        5
 70
     0
 43
0.0
 10
20.77528496217865
 20
26.00846164951652
 42
0.1066170543910071
 10
20.81445295501437
 20
26.04394145043205
 42
0.1568512196707751
 10
20.82559536751055
 20
26.07858664951653
 42
0.156851219670793
 10
20.81445295501436
 20
26.11323184860102
 42
0.1066170543910132
 10
20.77528496217865
 20
26.14871164951653
 42
0.0723410840576542
  0
LWPOLYLINE
  5
6C5
330
1E
100
AcDbEntity
  8
OBJECT
100
AcDbPolyline
 90
        3
 70
     0
 43
0.0
 10
20.73667307217286
 20
24.59393759033678
 42
-0.0576182447349186
 10
20.7314625383841
 20
24.56425162816171
 42
-0.0587518675353731
 10
20.71311865127252
 20
24.52160692638269
 42
-0.0587518675353721
  0
LWPOLYLINE
  5
6CA
330
1E
100
AcDbEntity
  8
OBJECT
100
AcDbPolyline
 90
        3
 70
     0
 43
0.0
 10
20.71336211190892
 20
24.52174748844666
 42
-0.0587518675353721
 10
20.68560266038726
 20
24.48453886531436
 42
-0.0723410840576587
 10
20.65595219606243
 20
24.46114311881478
 42
-0.1066170543910069
  0
LINE
  5
6CF
330
1E
100
AcDbEntity
  8
OBJECT
100
AcDbLine
 10
20.82559536751055
 20
26.07858664951653
 30
0.0
 11
20.73665455406108
 21
24.59362841143953
 31
0.0
  0
LINE
  5
6D0
330
1E
100
AcDbEntity
  8
OBJECT
100
AcDbLine
 10
20.65595219606243
 20
24.46114311881478
 30
0.0
 11
17.80178673828479
 21
22.8132899234551
 31
0.0
  0
LINE
  5
6D1
330
1E
100
AcDbEntity
  8
OBJECT
100
AcDbLine
 10
17.79983818112629
 20
24.33933664951652
 30
0.0
 11
20.73306622374417
 21
26.03283664951653
 31
0.0
  0
LWPOLYLINE
  5
6D2
330
1E
100
AcDbEntity
  8
OBJECT
100
AcDbPolyline
 90
        3
 70
     0
 43
0.0
 10
17.99569620320417
 20
26.12268293466976
 42
-0.0587518675353793
 10
18.01874787252079
 20
26.11996489534639
 42
-0.0642382339879482
 10
18.03444151035153
 20
26.11400327403945
 42
-0.010596345945674
  0
LWPOLYLINE
  5
6D7
330
1E
100
AcDbEntity
  8
OBJECT
100
AcDbPolyline
 90
        4
 70
     0
 43
0.0
 10
17.94234348238416
 20
26.10157434643221
 42
-0.1032009272409039
 10
17.95510126240176
 20
26.11297480430164
 42
-0.0723410840576526
 10
17.97264453388755
 20
26.11996489534639
 42
-0.0587518675353721
 10
17.99569620320417
 20
26.12268293466976
 42
-0.0587518675353793
  0
LINE
  5
6DD
330
1E
100
AcDbEntity
  8
OBJECT
100
AcDbLine
 10
19.45257996161267
 20
25.29354756138129
 30
0.0
 11
19.43308172071829
 21
25.30482815469314
 31
0.0
  0
LINE
  5
6DE
330
1E
100
AcDbEntity
  8
CENTER
100
AcDbLine
 10
17.84205691956076
 20
31.59048833078854
 30
0.0
 11
17.84205691956076
 21
32.68260368009821
 31
0.0
  0
LINE
  5
6DF
330
1E
100
AcDbEntity
  8
CENTER
100
AcDbLine
 10
16.37544289825181
 20
30.74411427755529
 30
0.0
 11
16.37544289825181
 21
31.83585368009822
 31
0.0
  0
LWPOLYLINE
  5
6E0
330
1E
100
AcDbEntity
  8
OBJECT
100
AcDbPolyline
 90
        7
 70
     0
 43
0.0
 10
19.12623078062839
 20
25.21792500433404
 42
0.0439272805455098
 10
19.10537147733132
 20
25.20821164951653
 42
0.1066170543910128
 10
19.07918966393846
 20
25.18449520505428
 42
0.1568512196707789
 10
19.07174152724314
 20
25.16133664951653
 42
0.1568512196707841
 10
19.07918966393846
 20
25.13817809397876
 42
0.1066170543909903
 10
19.10537147733132
 20
25.11446164951653
 42
0.0431043958842389
 10
19.12582580333353
 20
25.10489596014
 42
0.0587518675353809
  0
LINE
  5
6E9
330
1E
100
AcDbEntity
  8
OBJECT
100
AcDbLine
 10
19.07174152724314
 20
25.16133664951653
 30
0.0
 11
19.0663053763901
 21
25.07053182562193
 31
0.0
  0
LINE
  5
6EA
330
1E
100
AcDbEntity
  8
OBJECT
100
AcDbLine
 10
19.12623078062839
 20
25.21792500433404
 30
0.0
 11
19.14217594774797
 21
25.22259459249928
 31
0.0
  0
LWPOLYLINE
  5
6EB
330
1E
100
AcDbEntity
  8
OBJECT
100
AcDbPolyline
 90
        9
 70
     0
 43
0.0
 10
19.18656135893611
 20
25.19527777501348
 42
0.0587518675353727
 10
19.16295644955589
 20
25.19249450274635
 42
0.0723410840576566
 10
19.14499213955446
 20
25.18533664951652
 42
0.1066170543909957
 10
19.1315870510973
 20
25.17319382995186
 42
0.1568512196707378
 10
19.1277736051093
 20
25.16133664951653
 42
0.1568512196707294
 10
19.1315870510973
 20
25.1494794690812
 42
0.1066170543909819
 10
19.14499213955446
 20
25.13733664951653
 42
0.0723410840576534
 10
19.16295644955589
 20
25.13017879628669
 42
0.0122510181797299
 10
19.16781954750637
 20
25.12914105964247
 42
0.0587518675353727
  0
LWPOLYLINE
  5
6F6
330
1E
100
AcDbEntity
  8
OBJECT
100
AcDbPolyline
 90
        5
 70
     0
 43
0.0
 10
19.2422570353843
 20
25.17211756330659
 42
0.015928584286222
 10
19.24153566677489
 20
25.17319382995186
 42
0.1066170543909893
 10
19.22813057831776
 20
25.18533664951652
 42
0.0723410840576466
 10
19.21016626831632
 20
25.19249450274635
 42
0.0587518675353801
 10
19.18656135893611
 20
25.19527777501348
 42
0.0587518675353727
  0
LWPOLYLINE
  5
6FD
330
1E
100
AcDbEntity
  8
OBJECT
100
AcDbPolyline
 90
        4
 70
     0
 43
0.0
 10
19.28384527161931
 20
25.19612854269198
 42
0.0602741052164752
 10
19.26775124054089
 20
25.20821164951653
 42
0.0723410840576543
 10
19.23266469756935
 20
25.22219183160604
 42
0.1156549247320096
 10
19.14217594774797
 20
25.22259459249928
 42
0.0587518675353755
  0
LINE
  5
703
330
1E
100
AcDbEntity
  8
OBJECT
100
AcDbLine
 10
16.19690747329365
 20
26.77049540931056
 30
0.0
 11
16.41495418972893
 21
26.89664506272881
 31
0.0
  0
LWPOLYLINE
  5
704
330
1E
100
AcDbEntity
  8
OBJECT
100
AcDbPolyline
 90
        7
 70
     0
 43
0.0
 10
16.41495418972894
 20
26.89664506272881
 42
0.0028611439124897
 10
16.41430183845818
 20
26.89627338845362
 42
0.1066170543909982
 10
16.40121093176176
 20
26.88441516622248
 42
0.1568512196707734
 10
16.39748686341409
 20
26.87283588845362
 42
0.1568512196707052
 10
16.40121093176176
 20
26.86125661068473
 42
0.1066170543910106
 10
16.41430183845818
 20
26.84939838845362
 42
0.0533467249351883
 10
16.42706488370482
 20
26.84374452937517
 42
0.0587518675353688
  0
LWPOLYLINE
  5
70D
330
1E
100
AcDbEntity
  8
OBJECT
100
AcDbPolyline
 90
        7
 70
     0
 43
0.0
 10
16.43617845385439
 20
26.72789596014
 42
0.0431043958842368
 10
16.45663277985661
 20
26.73746164951653
 42
0.1066170543910163
 10
16.48281459324946
 20
26.76117809397878
 42
0.1568512196707811
 10
16.49026272994478
 20
26.78433664951652
 42
0.1568512196707789
 10
16.48281459324946
 20
26.80749520505429
 42
0.1066170543910128
 10
16.45663277985661
 20
26.83121164951653
 42
0.0614208028592784
 10
16.42706488370482
 20
26.84374452937517
 42
0.0587518675353793
  0
LINE
  5
716
330
1E
100
AcDbEntity
  8
OBJECT
100
AcDbLine
 10
16.41495418972893
 20
26.89664506272881
 30
0.0
 11
16.41789962980562
 21
26.84746791517438
 31
0.0
  0
LWPOLYLINE
  5
717
330
1E
100
AcDbEntity
  8
OBJECT
100
AcDbPolyline
 90
       16
 70
     1
 43
0.0
 10
16.37544289825181
 20
26.81827777501348
 42
0.0587518675353727
 10
16.3518379888716
 20
26.81549450274635
 42
0.0723410840576566
 10
16.33387367887015
 20
26.80833664951653
 42
0.1066170543909957
 10
16.32046859041301
 20
26.79619382995185
 42
0.1568512196707378
 10
16.31665514442502
 20
26.78433664951652
 42
0.1568512196707294
 10
16.32046859041301
 20
26.7724794690812
 42
0.1066170543909819
 10
16.33387367887015
 20
26.76033664951653
 42
0.0723410840576534
 10
16.3518379888716
 20
26.7531787962867
 42
0.0587518675353621
 10
16.37544289825181
 20
26.75039552401958
 42
0.0587518675353727
 10
16.39904780763203
 20
26.7531787962867
 42
0.072341084057657
 10
16.41701211763347
 20
26.76033664951653
 42
0.1066170543910092
 10
16.43041720609061
 20
26.7724794690812
 42
0.1568512196707462
 10
16.43423065207861
 20
26.78433664951652
 42
0.1568512196707336
 10
16.43041720609061
 20
26.79619382995185
 42
0.1066170543909893
 10
16.41701211763347
 20
26.80833664951653
 42
0.0723410840576466
 10
16.39904780763203
 20
26.81549450274635
 42
0.0587518675353801
  0
LWPOLYLINE
  5
729
330
1E
100
AcDbEntity
  8
OBJECT
100
AcDbPolyline
 90
        7
 70
     0
 43
0.0
 10
16.27515633542841
 20
26.75257434643222
 42
0.0730609864587327
 10
16.29425301664703
 20
26.73746164951653
 42
0.0723410840576608
 10
16.32933955961858
 20
26.72348146742702
 42
0.0587518675353809
 10
16.37544289825181
 20
26.7180453887803
 42
0.0587518675353774
 10
16.42154623688506
 20
26.72348146742702
 42
0.0723410840576568
 10
16.45663277985661
 20
26.73746164951653
 42
0.0904779399290791
 10
16.47955534832603
 20
26.756928829916
 42
0.1568512196707811
  0
LWPOLYLINE
  5
732
330
1E
100
AcDbEntity
  8
OBJECT
100
AcDbPolyline
 90
        3
 70
     0
 43
0.0
 10
16.2218036146084
 20
26.77368293466976
 42
0.0587518675353793
 10
16.19875194529178
 20
26.77096489534639
 42
0.0642382339879882
 10
16.18305830746104
 20
26.76500327403945
 42
0.010596345945674
  0
LWPOLYLINE
  5
737
330
1E
100
AcDbEntity
  8
OBJECT
100
AcDbPolyline
 90
        4
 70
     0
 43
0.0
 10
16.27515633542842
 20
26.75257434643221
 42
0.1032009272409039
 10
16.2623985554108
 20
26.76397480430164
 42
0.0723410840576526
 10
16.24485528392503
 20
26.77096489534639
 42
0.0587518675353721
 10
16.2218036146084
 20
26.77368293466976
 42
0.0587518675353793
  0
LINE
  5
73D
330
1E
100
AcDbEntity
  8
OBJECT
100
AcDbLine
 10
16.18305830746104
 20
26.76500327403945
 30
0.0
 11
16.18305830746104
 21
25.26725327403945
 31
0.0
  0
LINE
  5
73E
330
1E
100
AcDbEntity
  8
OBJECT
100
AcDbLine
 10
16.27515633542841
 20
26.75257434643222
 30
0.0
 11
16.27515633542841
 21
25.25482434643222
 31
0.0
  0
LWPOLYLINE
  5
73F
330
1E
100
AcDbEntity
  8
OBJECT
100
AcDbPolyline
 90
        7
 70
     0
 43
0.0
 10
16.27515633542842
 20
25.25482434643222
 42
0.0730609864587327
 10
16.29425301664703
 20
25.23971164951653
 42
0.0723410840576608
 10
16.32933955961858
 20
25.22573146742702
 42
0.0587518675353809
 10
16.37544289825181
 20
25.2202953887803
 42
0.0587518675353774
 10
16.42154623688506
 20
25.22573146742702
 42
0.0723410840576568
 10
16.45663277985661
 20
25.23971164951653
 42
0.1509947274348036
 10
16.49026272994478
 20
25.27599437267828
 42
0.1568512196707811
  0
LWPOLYLINE
  5
748
330
1E
100
AcDbEntity
  8
OBJECT
100
AcDbPolyline
 90
        3
 70
     0
 43
0.0
 10
16.2218036146084
 20
25.27593293466976
 42
0.0587518675353793
 10
16.19875194529178
 20
25.2732148953464
 42
0.0642382339879482
 10
16.18305830746105
 20
25.26725327403945
 42
0.010596345945674
  0
LWPOLYLINE
  5
74D
330
1E
100
AcDbEntity
  8
OBJECT
100
AcDbPolyline
 90
        4
 70
     0
 43
0.0
 10
16.27515633542842
 20
25.25482434643221
 42
0.1032009272409039
 10
16.2623985554108
 20
25.26622480430164
 42
0.0723410840576526
 10
16.24485528392503
 20
25.2732148953464
 42
0.0587518675353721
 10
16.2218036146084
 20
25.27593293466976
 42
0.0587518675353793
  0
LINE
  5
753
330
1E
100
AcDbEntity
  8
OBJECT
100
AcDbLine
 10
16.49026272994478
 20
26.78433664951652
 30
0.0
 11
16.49026272994478
 21
25.27599437267828
 31
0.0
  0
LINE
  5
754
330
1E
100
AcDbEntity
  8
OBJECT
100
AcDbLine
 10
16.49026272994478
 20
25.44226431193886
 30
0.0
 11
17.64967232877
 21
26.11400327403945
 31
0.0
  0
DIMENSION
  5
755
330
1E
100
AcDbEntity
  8
DIM
100
AcDbDimension
  2
*D10
 10
9.972477125174894
 20
11.86578971688856
 30
0.0
 11
9.972477125174892
 21
12.95578971688855
 31
0.0
 70
    32
  1
G
 71
     5
 42
2.17999999999999
  3
23NSTD
100
AcDbAlignedDimension
 13
9.279593666509688
 23
14.04578971688855
 33
0.0
 14
9.279593666509688
 24
11.86578971688856
 34
0.0
 50
270.0
100
AcDbRotatedDimension
  0
DIMENSION
  5
756
330
1E
100
AcDbEntity
  8
DIM
100
AcDbDimension
  2
*D11
 10
10.57533128743352
 20
14.24078971688855
 30
0.0
 11
11.25314378743351
 21
15.05078971688855
 31
0.0
 70
    32
  1
L
 71
     5
 42
0.1950000000000003
  3
23NSTD
100
AcDbAlignedDimension
 13
9.279593666509688
 23
14.04578971688855
 33
0.0
 14
9.279593666509688
 24
14.24078971688855
 34
0.0
 50
270.0
100
AcDbRotatedDimension
  0
DIMENSION
  5
758
330
1E
100
AcDbEntity
  8
DIM
100
AcDbDimension
  2
*D12
 10
10.34370584152259
 20
26.21941749307785
 30
0.0
 11
10.34370584152258
 21
27.30941749307785
 31
0.0
 70
    32
  1
G
 71
     5
 42
2.179999999999992
  3
23NSTD
100
AcDbAlignedDimension
 13
9.279593666509693
 23
28.39941749307784
 33
0.0
 14
9.279593666509693
 24
26.21941749307785
 34
0.0
 50
270.0
100
AcDbRotatedDimension
  0
DIMENSION
  5
75A
330
1E
100
AcDbEntity
  8
DIM
100
AcDbDimension
  2
*D13
 10
14.80530645867558
 20
9.490789716888556
 30
0.0
 11
14.80530645867557
 21
10.52203971688855
 31
0.0
 70
    32
  1
D
 71
     5
 42
2.062499999999994
  3
23NSTD
100
AcDbAlignedDimension
 13
15.85073860345359
 23
11.55328971688855
 33
0.0
 14
15.94966664260319
 24
9.490789716888556
 34
0.0
 50
90.0
100
AcDbRotatedDimension
  0
DIMENSION
  5
75B
330
1E
100
AcDbEntity
  8
DIM
100
AcDbDimension
  2
*D14
 10
15.05821947064718
 20
13.5402799061896
 30
0.0
 11
16.07001634564717
 21
14.35027990618961
 31
0.0
 70
    32
 71
     5
 42
0.234375
  3
23NSTD
100
AcDbAlignedDimension
 13
15.86556729448304
 23
13.3059049061896
 33
0.0
 14
15.88193145867558
 24
13.5402799061896
 34
0.0
 50
90.0
100
AcDbRotatedDimension
  0
DIMENSION
  5
75C
330
1E
100
AcDbEntity
  8
DIM
100
AcDbDimension
  2
*D15
 10
16.54083994910383
 20
9.568914716888556
 30
0.0
 11
17.21865244910382
 21
10.37891471688855
 31
0.0
 70
    32
  1
K
 71
     5
 42
0.078125
  3
23NSTD
100
AcDbAlignedDimension
 13
16.50604100572293
 23
9.490789716888556
 33
0.0
 14
16.50604100572293
 24
9.568914716888556
 34
0.0
 50
90.0
100
AcDbRotatedDimension
  0
DIMENSION
  5
75D
330
1E
100
AcDbEntity
  8
DIM
100
AcDbDimension
  2
*D16
 10
19.84046715394234
 20
11.55328971688855
 30
0.0
 11
20.83468590394234
 21
12.36328971688856
 31
0.0
 70
   160
 71
     5
 42
0.09375
  3
23NSTD
100
AcDbAlignedDimension
 13
20.19146715394235
 23
11.45953971688855
 33
0.0
 14
20.41362431389756
 24
11.55328971688855
 34
0.0
 50
90.0
100
AcDbRotatedDimension
  0
DIMENSION
  5
75E
330
1E
100
AcDbEntity
  8
DIM
100
AcDbDimension
  2
*D17
 10
15.75643145867558
 20
12.11353971688856
 30
0.0
 11
14.65018145867557
 21
12.11353971688856
 31
0.0
 70
   160
  1
J
 71
     5
 42
0.09380714477801
  3
23NSTD
100
AcDbAlignedDimension
 13
15.85023860345359
 23
11.55328971688855
 33
0.0
 14
15.75643145867558
 24
11.55328971688855
 34
0.0
 50
180.0
100
AcDbRotatedDimension
  0
DIMENSION
  5
75F
330
1E
100
AcDbEntity
  8
DIM
100
AcDbDimension
  2
*D18
 10
19.62545997070964
 20
13.5402799061896
 30
0.0
 11
20.61967872070963
 21
14.35027990618961
 31
0.0
 70
    32
 71
     5
 42
0.078125
  3
23NSTD
100
AcDbAlignedDimension
 13
19.63982729619011
 23
13.4621549061896
 33
0.0
 14
19.63982729619011
 24
13.5402799061896
 34
0.0
 50
90.0
100
AcDbRotatedDimension
  0
DIMENSION
  5
760
330
1E
100
AcDbEntity
  8
DIM
100
AcDbDimension
  2
*D19
 10
21.36925391626739
 20
13.5402799061896
 30
0.0
 11
22.34589454126738
 21
14.35027990618961
 31
0.0
 70
    32
 71
     5
 42
0.15625
  3
23NSTD
100
AcDbAlignedDimension
 13
20.50743145867556
 23
13.3840299061896
 33
0.0
 14
20.38243145867557
 24
13.5402799061896
 34
0.0
 50
90.0
100
AcDbRotatedDimension
  0
TEXT
  5
762
330
1E
100
AcDbEntity
  8
TEXT
100
AcDbText
 10
6.521255474880304
 20
22.39458379871085
 30
0.0
 40
0.281
  1
%%UCOVER
 41
0.75
 72
     1
 11
7.051642974880304
 21
22.39458379871085
 31
0.0
100
AcDbText
  0
TEXT
  5
763
330
1E
100
AcDbEntity
  8
TEXT
100
AcDbText
 10
6.751026170848051
 20
8.123093385189644
 30
0.0
 40
0.281
  1
%%UBODY
 41
0.75
 72
     1
 11
7.140913670848052
 21
8.123093385189644
 31
0.0
100
AcDbText
  0
LWPOLYLINE
  5
764
330
1E
100
AcDbEntity
  8
DIM
100
AcDbPolyline
 90
        4
 70
     0
 10
19.3059527100442
 20
23.67048373139545
 40
0.0
 41
0.11390625
 10
19.52570819588255
 20
23.46078969489477
 40
0.0
 41
0.0
 10
19.91207641610414
 20
23.09211124591426
 40
0.0
 41
0.0
 10
20.21582641610414
 20
23.09211124591426
 40
0.0
 41
0.0
  0
TEXT
  5
76A
330
1E
100
AcDbEntity
  8
DIM
100
AcDbText
 10
20.36770141610414
 20
22.95161124591426
 30
0.0
 40
0.281
  1
BODY
 41
0.75
 11
20.36770141610414
 21
23.09211124591426
 31
0.0
100
AcDbText
 73
     2
  0
LWPOLYLINE
  5
76B
330
1E
100
AcDbEntity
  8
DIM
100
AcDbPolyline
 90
        4
 70
     0
 10
18.22118925349709
 20
31.58635755279943
 40
0.0
 41
0.11390625
 10
18.34572620218046
 20
31.85915014554309
 40
0.0
 41
0.0
 10
18.8933062813351
 20
33.0585997153824
 40
0.0
 41
0.0
 10
19.1970562813351
 20
33.0585997153824
 40
0.0
 41
0.0
  0
TEXT
  5
771
330
1E
100
AcDbEntity
  8
DIM
100
AcDbText
 10
19.3489312813351
 20
32.90572341488466
 30
0.0
 40
0.281
  1
COVER
 41
0.75
 11
19.3489312813351
 21
33.04622341488467
 31
0.0
100
AcDbText
 73
     2
  0
LINE
  5
772
330
1E
100
AcDbEntity
  8
TITLE
100
AcDbLine
 10
0.1394999999999964
 20
2.947500000000006
 30
0.0
 11
23.88775
 21
2.947500000000006
 31
0.0
  0
LINE
  5
773
330
1E
100
AcDbEntity
  8
TITLE
100
AcDbLine
 10
0.1394999999999964
 20
3.415500000000006
 30
0.0
 11
23.88775
 21
3.415500000000006
 31
0.0
  0
LINE
  5
774
330
1E
100
AcDbEntity
  8
TITLE
100
AcDbLine
 10
0.1394999999999964
 20
3.883500000000006
 30
0.0
 11
23.88775
 21
3.883500000000006
 31
0.0
  0
LINE
  5
775
330
1E
100
AcDbEntity
  8
TITLE
100
AcDbLine
 10
0.1394999999999964
 20
4.351500000000006
 30
0.0
 11
23.88775
 21
4.351500000000006
 31
0.0
  0
LINE
  5
777
330
1E
100
AcDbEntity
  8
TITLE
100
AcDbLine
 10
0.1394999999999953
 20
5.287500000000007
 30
0.0
 11
23.88775
 21
5.287500000000007
 31
0.0
  0
TEXT
  5
77A
330
1E
100
AcDbEntity
  8
TEXT
100
AcDbText
 10
13.38169728755493
 20
21.96932889386912
 30
0.0
 40
0.281
  1
%%uMATERIAL:
 41
0.75
100
AcDbText
  0
TEXT
  5
77B
330
1E
100
AcDbEntity
  8
TEXT
100
AcDbText
 10
13.85227511884086
 20
21.50099556053577
 30
0.0
 40
0.281
  1
ALUMINUM ALLOY #ADC-12
 41
0.75
100
AcDbText
  0
TEXT
  5
77C
330
1E
100
AcDbEntity
  8
TEXT
100
AcDbText
 10
13.38169728755493
 20
21.03058052035298
 30
0.0
 40
0.281
  1
%%uFINISH:
 41
0.75
100
AcDbText
  0
TEXT
  5
77D
330
1E
100
AcDbEntity
  8
TEXT
100
AcDbText
 10
13.85227511884086
 20
20.56224718701963
 30
0.0
 40
0.281
  1
NATURAL (NO SUFFIX)
 41
0.75
100
AcDbText
  0
TEXT
  5
77E
330
1E
100
AcDbEntity
  8
TEXT
100
AcDbText
 10
13.38169728755493
 20
19.18888959969951
 30
0.0
 40
0.281
  1
ALL INTERNAL FILLETS 0.062 RADIUS
 41
0.75
100
AcDbText
  0
TEXT
  5
77F
330
1E
100
AcDbEntity
  8
TEXT
100
AcDbText
 10
13.38169728755493
 20
18.72055626636617
 30
0.0
 40
0.281
  1
ALL INTERNAL ROUNDS 0.125 RADIUS
 41
0.75
100
AcDbText
  0
TEXT
  5
780
330
1E
100
AcDbEntity
  8
TEXT
100
AcDbText
 10
13.38169728755493
 20
18.25222293303285
 30
0.0
 40
0.281
  1
ALL EXTERNAL ROUNDS 0.125 RADIUS
 41
0.75
100
AcDbText
  0
TEXT
  5
781
330
1E
100
AcDbEntity
  8
TEXT
100
AcDbText
 10
13.38169728755493
 20
17.78388959969951
 30
0.0
 40
0.281
  1
ALL BOXES ASSEMBLED WITH #6-32 FLAT HD. SCREWS
 41
0.75
100
AcDbText
  0
TEXT
  5
782
330
1E
100
AcDbEntity
  8
TEXT
100
AcDbText
 10
10.01372153511021
 20
5.730679733353485
 30
0.0
 40
0.281
  1
* ASSEMBLED HEIGHT
 41
0.75
100
AcDbText
  0
TEXT
  5
785
330
1E
100
AcDbEntity
  8
TEXT
100
AcDbText
 10
16.9336470255456
 20
12.78525801054694
 30
0.0
 40
0.281
  1
%%USECTION "A-A"
 41
0.75
 72
     1
 11
18.1665345255456
 21
12.78525801054694
 31
0.0
100
AcDbText
  0
TEXT
  5
786
330
1E
100
AcDbEntity
  8
TEXT
100
AcDbText
 10
16.9336470255456
 20
8.593510308423486
 30
0.0
 40
0.281
  1
%%USECTION "B-B"
 41
0.75
 72
     1
 11
18.1665345255456
 21
8.593510308423486
 31
0.0
100
AcDbText
  0
TEXT
  5
787
330
1E
100
AcDbEntity
  8
TEXT
100
AcDbText
 10
0.404066497247312
 20
4.913000000000007
 30
0.0
 40
0.281
  1
PART NO.
 41
0.75
 72
     4
 11
1.141691497247312
 21
5.053500000000007
 31
0.0
100
AcDbText
  0
TEXT
  5
788
330
1E
100
AcDbEntity
  8
TEXT
100
AcDbText
 10
0.4567539972473128
 20
4.444666666666672
 30
0.0
 40
0.281
  1
CU-5470
 41
0.75
 72
     4
 11
1.141691497247312
 21
4.585166666666673
 31
0.0
100
AcDbText
  0
TEXT
  5
789
330
1E
100
AcDbEntity
  8
TEXT
100
AcDbText
 10
0.474316497247313
 20
3.976333333333339
 30
0.0
 40
0.281
  1
CU-5471
 41
0.75
 72
     4
 11
1.141691497247312
 21
4.116833333333339
 31
0.0
100
AcDbText
  0
TEXT
  5
78A
330
1E
100
AcDbEntity
  8
TEXT
100
AcDbText
 10
0.4391914972473129
 20
3.508000000000004
 30
0.0
 40
0.281
  1
CU-5472
 41
0.75
 72
     4
 11
1.141691497247312
 21
3.648500000000004
 31
0.0
100
AcDbText
  0
TEXT
  5
78B
330
1E
100
AcDbEntity
  8
TEXT
100
AcDbText
 10
0.4391914972473129
 20
3.039666666666671
 30
0.0
 40
0.281
  1
CU-5473
 41
0.75
 72
     4
 11
1.141691497247312
 21
3.180166666666671
 31
0.0
100
AcDbText
  0
TEXT
  5
796
330
1E
100
AcDbEntity
  8
TEXT
100
AcDbText
 10
4.525505483014125
 20
3.508000000000004
 30
0.0
 40
0.281
  1
4.750
 41
0.75
 72
     4
 11
4.929442983014125
 21
3.648500000000004
 31
0.0
100
AcDbText
  0
TEXT
  5
797
330
1E
100
AcDbEntity
  8
TEXT
100
AcDbText
 10
4.507942983014125
 20
3.039666666666671
 30
0.0
 40
0.281
  1
4.688
 41
0.75
 72
     4
 11
4.929442983014125
 21
3.180166666666671
 31
0.0
100
AcDbText
  0
TEXT
  5
798
330
1E
100
AcDbEntity
  8
TEXT
100
AcDbText
 10
4.543067983014124
 20
0.69933333333334
 30
0.0
 40
0.281
  1
7.500
 41
0.75
 72
     4
 11
4.929442983014125
 21
0.8398333333333399
 31
0.0
100
AcDbText
  0
TEXT
  5
799
330
1E
100
AcDbEntity
  8
TEXT
100
AcDbText
 10
4.859192983014125
 20
4.913000000000007
 30
0.0
 40
0.281
  1
A
 41
0.75
 72
     4
 11
4.929442983014125
 21
5.053500000000007
 31
0.0
100
AcDbText
  0
TEXT
  5
79A
330
1E
100
AcDbEntity
  8
TEXT
100
AcDbText
 10
4.560630483014125
 20
4.444666666666672
 30
0.0
 40
0.281
  1
2.000
 41
0.75
 72
     4
 11
4.929442983014125
 21
4.585166666666673
 31
0.0
100
AcDbText
  0
TEXT
  5
79B
330
1E
100
AcDbEntity
  8
TEXT
100
AcDbText
 10
4.525505483014125
 20
3.976333333333339
 30
0.0
 40
0.281
  1
4.330
 41
0.75
 72
     4
 11
4.929442983014125
 21
4.116833333333339
 31
0.0
100
AcDbText
  0
TEXT
  5
79C
330
1E
100
AcDbEntity
  8
TEXT
100
AcDbText
 10
5.971196735363021
 20
3.508000000000004
 30
0.0
 40
0.281
  1
3.150
 41
0.75
 72
     4
 11
6.34000923536302
 21
3.648500000000004
 31
0.0
100
AcDbText
  0
TEXT
  5
79D
330
1E
100
AcDbEntity
  8
TEXT
100
AcDbText
 10
5.91850923536302
 20
3.039666666666671
 30
0.0
 40
0.281
  1
3.688
 41
0.75
 72
     4
 11
6.34000923536302
 21
3.180166666666671
 31
0.0
100
AcDbText
  0
TEXT
  5
79E
330
1E
100
AcDbEntity
  8
TEXT
100
AcDbText
 10
5.95363423536302
 20
0.69933333333334
 30
0.0
 40
0.281
  1
7.500
 41
0.75
 72
     4
 11
6.34000923536302
 21
0.8398333333333399
 31
0.0
100
AcDbText
  0
TEXT
  5
79F
330
1E
100
AcDbEntity
  8
TEXT
100
AcDbText
 10
6.26975923536302
 20
4.913000000000007
 30
0.0
 40
0.281
  1
B
 41
0.75
 72
     4
 11
6.340009235363019
 21
5.053500000000007
 31
0.0
100
AcDbText
  0
TEXT
  5
7A0
330
1E
100
AcDbEntity
  8
TEXT
100
AcDbText
 10
5.971196735363021
 20
4.444666666666672
 30
0.0
 40
0.281
  1
2.000
 41
0.75
 72
     4
 11
6.34000923536302
 21
4.585166666666673
 31
0.0
100
AcDbText
  0
TEXT
  5
7A1
330
1E
100
AcDbEntity
  8
TEXT
100
AcDbText
 10
5.936071735363021
 20
3.976333333333339
 30
0.0
 40
0.281
  1
3.250
 41
0.75
 72
     4
 11
6.34000923536302
 21
4.116833333333339
 31
0.0
100
AcDbText
  0
TEXT
  5
7A2
330
1E
100
AcDbEntity
  8
TEXT
100
AcDbText
 10
7.341812500000003
 20
3.508000000000004
 30
0.0
 40
0.281
  1
2.330
 41
0.75
 72
     4
 11
7.745750000000002
 21
3.648500000000004
 31
0.0
100
AcDbText
  0
TEXT
  5
7A3
330
1E
100
AcDbEntity
  8
TEXT
100
AcDbText
 10
7.376937500000003
 20
3.039666666666671
 30
0.0
 40
0.281
  1
1.340
 41
0.75
 72
     4
 11
7.745750000000002
 21
3.180166666666671
 31
0.0
100
AcDbText
  0
TEXT
  5
7A4
330
1E
100
AcDbEntity
  8
TEXT
100
AcDbText
 10
7.341812500000003
 20
0.69933333333334
 30
0.0
 40
0.281
  1
2.620
 41
0.75
 72
     4
 11
7.745750000000002
 21
0.8398333333333399
 31
0.0
100
AcDbText
  0
TEXT
  5
7A5
330
1E
100
AcDbEntity
  8
TEXT
100
AcDbText
 10
7.464750000000001
 20
4.913000000000007
 30
0.0
 40
0.281
  1
* C
 41
0.75
 72
     4
 11
7.745750000000001
 21
5.053500000000007
 31
0.0
100
AcDbText
  0
TEXT
  5
7A6
330
1E
100
AcDbEntity
  8
TEXT
100
AcDbText
 10
7.376937500000003
 20
4.444666666666672
 30
0.0
 40
0.281
  1
1.250
 41
0.75
 72
     4
 11
7.745750000000002
 21
4.585166666666673
 31
0.0
100
AcDbText
  0
TEXT
  5
7A7
330
1E
100
AcDbEntity
  8
TEXT
100
AcDbText
 10
7.376937500000003
 20
3.976333333333339
 30
0.0
 40
0.281
  1
1.750
 41
0.75
 72
     4
 11
7.745750000000002
 21
4.116833333333339
 31
0.0
100
AcDbText
  0
TEXT
  5
7A8
330
1E
100
AcDbEntity
  8
TEXT
100
AcDbText
 10
8.750075
 20
3.508000000000004
 30
0.0
 40
0.281
  1
2.174
 41
0.75
 72
     4
 11
9.136449999999999
 21
3.648500000000004
 31
0.0
100
AcDbText
  0
TEXT
  5
7A9
330
1E
100
AcDbEntity
  8
TEXT
100
AcDbText
 10
8.785199999999999
 20
3.039666666666671
 30
0.0
 40
0.281
  1
1.184
 41
0.75
 72
     4
 11
9.136449999999999
 21
3.180166666666671
 31
0.0
100
AcDbText
  0
TEXT
  5
7AA
330
1E
100
AcDbEntity
  8
TEXT
100
AcDbText
 10
8.714949999999999
 20
0.69933333333334
 30
0.0
 40
0.281
  1
2.464
 41
0.75
 72
     4
 11
9.136449999999999
 21
0.8398333333333399
 31
0.0
100
AcDbText
  0
TEXT
  5
7AB
330
1E
100
AcDbEntity
  8
TEXT
100
AcDbText
 10
9.0662
 20
4.913000000000007
 30
0.0
 40
0.281
  1
D
 41
0.75
 72
     4
 11
9.136449999999999
 21
5.053500000000007
 31
0.0
100
AcDbText
  0
TEXT
  5
7AC
330
1E
100
AcDbEntity
  8
TEXT
100
AcDbText
 10
8.767637499999999
 20
4.444666666666672
 30
0.0
 40
0.281
  1
1.094
 41
0.75
 72
     4
 11
9.136449999999999
 21
4.585166666666673
 31
0.0
100
AcDbText
  0
TEXT
  5
7AD
330
1E
100
AcDbEntity
  8
TEXT
100
AcDbText
 10
8.750075
 20
3.976333333333339
 30
0.0
 40
0.281
  1
1.594
 41
0.75
 72
     4
 11
9.136449999999999
 21
4.116833333333339
 31
0.0
100
AcDbText
  0
TEXT
  5
7AE
330
1E
100
AcDbEntity
  8
TEXT
100
AcDbText
 10
10.07714999999999
 20
3.508000000000006
 30
0.0
 40
0.281
  1
4.375
 41
0.75
 72
     4
 11
10.49865
 21
3.648500000000006
 31
0.0
100
AcDbText
  0
TEXT
  5
7AF
330
1E
100
AcDbEntity
  8
TEXT
100
AcDbText
 10
10.112275
 20
3.039666666666673
 30
0.0
 40
0.281
  1
4.313
 41
0.75
 72
     4
 11
10.49865
 21
3.180166666666673
 31
0.0
100
AcDbText
  0
TEXT
  5
7B0
330
1E
100
AcDbEntity
  8
TEXT
100
AcDbText
 10
10.1649625
 20
0.69933333333334
 30
0.0
 40
0.281
  1
7.110
 41
0.75
 72
     4
 11
10.49865
 21
0.8398333333333399
 31
0.0
100
AcDbText
  0
TEXT
  5
7B1
330
1E
100
AcDbEntity
  8
TEXT
100
AcDbText
 10
10.42839999999999
 20
4.913000000000007
 30
0.0
 40
0.281
  1
E
 41
0.75
 72
     4
 11
10.49865
 21
5.053500000000007
 31
0.0
100
AcDbText
  0
TEXT
  5
7B2
330
1E
100
AcDbEntity
  8
TEXT
100
AcDbText
 10
10.112275
 20
4.444666666666673
 30
0.0
 40
0.281
  1
1.625
 41
0.75
 72
     4
 11
10.49865
 21
4.585166666666673
 31
0.0
100
AcDbText
  0
TEXT
  5
7B3
330
1E
100
AcDbEntity
  8
TEXT
100
AcDbText
 10
10.07714999999999
 20
3.976333333333341
 30
0.0
 40
0.281
  1
3.955
 41
0.75
 72
     4
 11
10.49865
 21
4.116833333333341
 31
0.0
100
AcDbText
  0
TEXT
  5
7B4
330
1E
100
AcDbEntity
  8
TEXT
100
AcDbText
 10
11.49634999999999
 20
3.508000000000004
 30
0.0
 40
0.281
  1
2.775
 41
0.75
 72
     4
 11
11.91785
 21
3.648500000000004
 31
0.0
100
AcDbText
  0
TEXT
  5
7B5
330
1E
100
AcDbEntity
  8
TEXT
100
AcDbText
 10
11.53147499999999
 20
3.039666666666671
 30
0.0
 40
0.281
  1
3.313
 41
0.75
 72
     4
 11
11.91785
 21
3.180166666666671
 31
0.0
100
AcDbText
  0
TEXT
  5
7B6
330
1E
100
AcDbEntity
  8
TEXT
100
AcDbText
 10
11.58416249999999
 20
0.69933333333334
 30
0.0
 40
0.281
  1
7.110
 41
0.75
 72
     4
 11
11.91785
 21
0.8398333333333399
 31
0.0
100
AcDbText
  0
TEXT
  5
7B7
330
1E
100
AcDbEntity
  8
TEXT
100
AcDbText
 10
11.8476
 20
4.913000000000007
 30
0.0
 40
0.281
  1
F
 41
0.75
 72
     4
 11
11.91785
 21
5.053500000000007
 31
0.0
100
AcDbText
  0
TEXT
  5
7B8
330
1E
100
AcDbEntity
  8
TEXT
100
AcDbText
 10
11.53147499999999
 20
4.444666666666672
 30
0.0
 40
0.281
  1
1.625
 41
0.75
 72
     4
 11
11.91785
 21
4.585166666666673
 31
0.0
100
AcDbText
  0
TEXT
  5
7B9
330
1E
100
AcDbEntity
  8
TEXT
100
AcDbText
 10
11.49634999999999
 20
3.976333333333339
 30
0.0
 40
0.281
  1
2.875
 41
0.75
 72
     4
 11
11.91785
 21
4.116833333333339
 31
0.0
100
AcDbText
  0
TEXT
  5
7BA
330
1E
100
AcDbEntity
  8
TEXT
100
AcDbText
 10
12.99904999999999
 20
3.508000000000004
 30
0.0
 40
0.281
  1
---
 41
0.75
 72
     4
 11
13.28005
 21
3.648500000000004
 31
0.0
100
AcDbText
  0
TEXT
  5
7BB
330
1E
100
AcDbEntity
  8
TEXT
100
AcDbText
 10
12.99904999999999
 20
3.039666666666671
 30
0.0
 40
0.281
  1
---
 41
0.75
 72
     4
 11
13.28005
 21
3.180166666666671
 31
0.0
100
AcDbText
  0
TEXT
  5
7BC
330
1E
100
AcDbEntity
  8
TEXT
100
AcDbText
 10
12.85854999999999
 20
0.69933333333334
 30
0.0
 40
0.281
  1
3.555
 41
0.75
 72
     4
 11
13.28005
 21
0.8398333333333399
 31
0.0
100
AcDbText
  0
TEXT
  5
7BD
330
1E
100
AcDbEntity
  8
TEXT
100
AcDbText
 10
13.2098
 20
4.913000000000007
 30
0.0
 40
0.281
  1
G
 41
0.75
 72
     4
 11
13.28005
 21
5.053500000000007
 31
0.0
100
AcDbText
  0
TEXT
  5
7BE
330
1E
100
AcDbEntity
  8
TEXT
100
AcDbText
 10
12.99904999999999
 20
4.444666666666672
 30
0.0
 40
0.281
  1
---
 41
0.75
 72
     4
 11
13.28005
 21
4.585166666666673
 31
0.0
100
AcDbText
  0
TEXT
  5
7BF
330
1E
100
AcDbEntity
  8
TEXT
100
AcDbText
 10
12.99904999999999
 20
3.976333333333339
 30
0.0
 40
0.281
  1
---
 41
0.75
 72
     4
 11
13.28005
 21
4.116833333333339
 31
0.0
100
AcDbText
  0
TEXT
  5
7C0
330
1E
100
AcDbEntity
  8
TEXT
100
AcDbText
 10
15.675075
 20
3.508000000000004
 30
0.0
 40
0.281
  1
0.094
 41
0.75
 72
     4
 11
16.06145
 21
3.648500000000004
 31
0.0
100
AcDbText
  0
TEXT
  5
7C1
330
1E
100
AcDbEntity
  8
TEXT
100
AcDbText
 10
15.675075
 20
3.039666666666671
 30
0.0
 40
0.281
  1
0.094
 41
0.75
 72
     4
 11
16.06145
 21
3.180166666666671
 31
0.0
100
AcDbText
  0
TEXT
  5
7C2
330
1E
100
AcDbEntity
  8
TEXT
100
AcDbText
 10
15.675075
 20
0.69933333333334
 30
0.0
 40
0.281
  1
0.094
 41
0.75
 72
     4
 11
16.06145
 21
0.8398333333333399
 31
0.0
100
AcDbText
  0
TEXT
  5
7C3
330
1E
100
AcDbEntity
  8
TEXT
100
AcDbText
 10
16.0197
 20
4.913000000000007
 30
0.0
 40
0.281
  1
J
 41
0.75
 72
     4
 11
16.08995000000001
 21
5.053500000000007
 31
0.0
100
AcDbText
  0
TEXT
  5
7C4
330
1E
100
AcDbEntity
  8
TEXT
100
AcDbText
 10
15.675075
 20
4.444666666666672
 30
0.0
 40
0.281
  1
0.065
 41
0.75
 72
     4
 11
16.06145
 21
4.585166666666673
 31
0.0
100
AcDbText
  0
TEXT
  5
7C5
330
1E
100
AcDbEntity
  8
TEXT
100
AcDbText
 10
15.675075
 20
3.976333333333339
 30
0.0
 40
0.281
  1
0.094
 41
0.75
 72
     4
 11
16.06145
 21
4.116833333333339
 31
0.0
100
AcDbText
  0
TEXT
  5
7C6
330
1E
100
AcDbEntity
  8
TEXT
100
AcDbText
 10
17.06577499999998
 20
3.507999999999998
 30
0.0
 40
0.281
  1
0.078
 41
0.75
 72
     4
 11
17.45214999999999
 21
3.648499999999998
 31
0.0
100
AcDbText
  0
TEXT
  5
7C7
330
1E
100
AcDbEntity
  8
TEXT
100
AcDbText
 10
17.06577499999998
 20
3.039666666666663
 30
0.0
 40
0.281
  1
0.078
 41
0.75
 72
     4
 11
17.45214999999999
 21
3.180166666666663
 31
0.0
100
AcDbText
  0
TEXT
  5
7C8
330
1E
100
AcDbEntity
  8
TEXT
100
AcDbText
 10
17.06577499999998
 20
0.6993333333333329
 30
0.0
 40
0.281
  1
0.078
 41
0.75
 72
     4
 11
17.45214999999999
 21
0.8398333333333328
 31
0.0
100
AcDbText
  0
TEXT
  5
7C9
330
1E
100
AcDbEntity
  8
TEXT
100
AcDbText
 10
17.38189999999998
 20
4.913000000000001
 30
0.0
 40
0.281
  1
K
 41
0.75
 72
     4
 11
17.45214999999999
 21
5.053500000000001
 31
0.0
100
AcDbText
  0
TEXT
  5
7CA
330
1E
100
AcDbEntity
  8
TEXT
100
AcDbText
 10
17.06577499999998
 20
4.444666666666664
 30
0.0
 40
0.281
  1
0.065
 41
0.75
 72
     4
 11
17.45214999999999
 21
4.585166666666665
 31
0.0
100
AcDbText
  0
TEXT
  5
7CB
330
1E
100
AcDbEntity
  8
TEXT
100
AcDbText
 10
17.06577499999998
 20
3.976333333333332
 30
0.0
 40
0.281
  1
0.078
 41
0.75
 72
     4
 11
17.45214999999999
 21
4.116833333333332
 31
0.0
100
AcDbText
  0
HATCH
  5
A30
330
1E
100
AcDbEntity
  8
Cover
100
AcDbHatch
 10
0.0
 20
0.0
 30
0.0
210
0.0
220
0.0
230
1.0
  2
ANSI31
 70
     0
 71
     1
 91
        1
 92
        7
 72
     1
 73
     1
 93
       16
 10
15.88193145867558
 20
13.5402799061896
 42
0.4142135623730951
 10
15.75693145867558
 20
13.4152799061896
 42
0.0
 10
15.75693145867558
 20
13.3840299061896
 42
0.0
 10
15.86068145867558
 20
13.3840299061896
 42
0.0
 10
15.86068145867558
 20
13.3059049061896
 42
0.0
 10
15.92068145867557
 20
13.3059049061896
 42
0.0
 10
15.92068145867558
 20
13.3996549061896
 42
-0.4142135623730866
 10
15.98318145867557
 20
13.4621549061896
 42
0.0
 10
20.28118145867557
 20
13.4621549061896
 42
-0.4142135623730971
 10
20.34368145867557
 20
13.3996549061896
 42
0.0
 10
20.34368145867557
 20
13.3059049061896
 42
0.0
 10
20.40368145867557
 20
13.3059049061896
 42
0.0
 10
20.40368145867557
 20
13.3840299061896
 42
0.0
 10
20.50743145867556
 20
13.3840299061896
 42
0.0
 10
20.50743145867556
 20
13.4152799061896
 42
0.4142135623730951
 10
20.38243145867557
 20
13.5402799061896
 42
0.0
 97
        1
330
302
 75
     0
 76
     1
 52
0.0
 41
0.75
 77
     0
 78
     1
 53
45.0
 43
9.7787545762218
 44
4.428288447706006
 45
-0.0662912607362388
 46
0.0662912607362388
 79
     0
 47
0.0107145846819037
 98
        1
 10
17.60491115152153
 20
13.5045322472569
  0
ARC
  5
A47
330
1E
100
AcDbEntity
  8
OBJECT
100
AcDbCircle
 10
6.912593666509691
 20
9.646539716888556
 30
0.0
 40
0.062
100
AcDbArc
 50
270.0
 51
0.0
  0
ARC
  5
A48
330
1E
100
AcDbEntity
  8
OBJECT
100
AcDbCircle
 10
7.286593666509688
 20
9.646539716888556
 30
0.0
 40
0.062
100
AcDbArc
 50
180.0
 51
270.0
  0
CIRCLE
  5
A49
330
1E
100
AcDbEntity
  8
OBJECT
100
AcDbCircle
 10
7.099593666509687
 20
9.68578971688856
 30
0.0
 40
0.065
  0
LINE
  5
A4C
330
1E
100
AcDbEntity
  8
OBJECT
100
AcDbLine
 10
6.974593666509687
 20
9.68578971688856
 30
0.0
 11
6.974593666509687
 21
9.646539716888565
 31
0.0
  0
LINE
  5
A4D
330
1E
100
AcDbEntity
  8
OBJECT
100
AcDbLine
 10
7.22459366650969
 20
9.68578971688856
 30
0.0
 11
7.22459366650969
 21
9.646539716888565
 31
0.0
  0
ARC
  5
A4E
330
1E
100
AcDbEntity
  8
OBJECT
100
AcDbCircle
 10
7.099593666509687
 20
9.68578971688856
 30
0.0
 40
0.125
100
AcDbArc
 50
0.0
 51
180.0
  0
ARC
  5
A4F
330
1E
100
AcDbEntity
  8
OBJECT
100
AcDbCircle
 10
7.099593666509687
 20
14.04578971688855
 30
0.0
 40
0.125
100
AcDbArc
 50
180.0
 51
0.0
  0
CIRCLE
  5
A50
330
1E
100
AcDbEntity
  8
OBJECT
100
AcDbCircle
 10
7.099593666509687
 20
14.04578971688855
 30
0.0
 40
0.065
  0
LINE
  5
A51
330
1E
100
AcDbEntity
  8
OBJECT
100
AcDbLine
 10
6.974593666509687
 20
14.04578971688855
 30
0.0
 11
6.974593666509687
 21
14.08503971688855
 31
0.0
  0
ARC
  5
A52
330
1E
100
AcDbEntity
  8
OBJECT
100
AcDbCircle
 10
6.912593666509691
 20
14.08503971688855
 30
0.0
 40
0.062
100
AcDbArc
 50
0.0
 51
90.00000000000005
  0
ARC
  5
A53
330
1E
100
AcDbEntity
  8
OBJECT
100
AcDbCircle
 10
7.286593666509688
 20
14.08503971688855
 30
0.0
 40
0.062
100
AcDbArc
 50
90.00000000000005
 51
180.0
  0
LINE
  5
A54
330
1E
100
AcDbEntity
  8
OBJECT
100
AcDbLine
 10
7.22459366650969
 20
14.04578971688855
 30
0.0
 11
7.22459366650969
 21
14.08503971688855
 31
0.0
  0
ARC
  5
A59
330
1E
100
AcDbEntity
  8
Cover
100
AcDbCircle
 10
7.239718666509688
 20
24.01141749307785
 30
0.0
 40
0.062
100
AcDbArc
 50
180.0
 51
270.0
  0
ARC
  5
A5A
330
1E
100
AcDbEntity
  8
Cover
100
AcDbCircle
 10
6.959468666509692
 20
24.01141749307785
 30
0.0
 40
0.062
100
AcDbArc
 50
270.0
 51
0.0
  0
CIRCLE
  5
A5B
330
1E
100
AcDbEntity
  8
Cover
100
AcDbCircle
 10
7.09959366650969
 20
24.03816749307785
 30
0.0
 40
0.078125
  0
ARC
  5
A5E
330
1E
100
AcDbEntity
  8
Cover
100
AcDbCircle
 10
7.283613875997693
 20
24.07141749307784
 30
0.0
 40
0.062
100
AcDbArc
 50
190.2420780715146
 51
270.0
  0
LINE
  5
A5F
330
1E
100
AcDbEntity
  8
Cover
100
AcDbLine
 10
7.17771866650969
 20
24.03816749307785
 30
0.0
 11
7.17771866650969
 21
24.01141749307785
 31
0.0
  0
LINE
  5
A60
330
1E
100
AcDbEntity
  8
Cover
100
AcDbLine
 10
7.02146866650969
 20
24.03816749307785
 30
0.0
 11
7.02146866650969
 21
24.01141749307785
 31
0.0
  0
ARC
  5
A61
330
1E
100
AcDbEntity
  8
Cover
100
AcDbCircle
 10
6.894217338970782
 20
24.10139550191428
 30
0.0
 40
0.0920091559590651
100
AcDbArc
 50
268.5091178138473
 51
333.5363241285004
  0
ARC
  5
A62
330
1E
100
AcDbEntity
  8
Cover
100
AcDbCircle
 10
7.09959366650969
 20
24.03816749307785
 30
0.0
 40
0.125
100
AcDbArc
 50
10.24207807151448
 51
169.7579219284853
  0
LINE
  5
A63
330
1E
100
AcDbEntity
  8
Cover
100
AcDbLine
 10
6.891823457021678
 20
24.00941749307785
 30
0.0
 11
5.103835355603144
 21
24.00941749307785
 31
0.0
  0
LINE
  5
A64
330
1E
100
AcDbEntity
  8
Cover
100
AcDbLine
 10
6.959468666509692
 20
23.94941749307784
 30
0.0
 11
5.059718666509688
 21
23.94941749307784
 31
0.0
  0
LINE
  5
A65
330
1E
100
AcDbEntity
  8
Cover
100
AcDbLine
 10
9.139468666509687
 20
28.48941749307785
 30
0.0
 11
7.239718666509688
 21
28.48941749307785
 31
0.0
  0
LINE
  5
A66
330
1E
100
AcDbEntity
  8
Cover
100
AcDbLine
 10
9.095351977416273
 20
28.42941749307784
 30
0.0
 11
7.283613875997693
 21
28.42941749307785
 31
0.0
  0
LINE
  5
A67
330
1E
100
AcDbEntity
  8
Cover
100
AcDbLine
 10
6.959468666509692
 20
28.48941749307785
 30
0.0
 11
5.059718666509688
 21
28.48941749307785
 31
0.0
  0
LINE
  5
A68
330
1E
100
AcDbEntity
  8
Cover
100
AcDbLine
 10
6.915573457021678
 20
28.42941749307785
 30
0.0
 11
5.103835355603144
 21
28.42941749307785
 31
0.0
  0
ARC
  5
A69
330
1E
100
AcDbEntity
  8
Cover
100
AcDbCircle
 10
7.09959366650969
 20
28.40066749307785
 30
0.0
 40
0.125
100
AcDbArc
 50
190.2420780715145
 51
349.7579219284854
  0
CIRCLE
  5
A6A
330
1E
100
AcDbEntity
  8
Cover
100
AcDbCircle
 10
7.09959366650969
 20
28.40066749307785
 30
0.0
 40
0.078125
  0
LINE
  5
A6B
330
1E
100
AcDbEntity
  8
Cover
100
AcDbLine
 10
7.02146866650969
 20
28.40066749307785
 30
0.0
 11
7.02146866650969
 21
28.42741749307785
 31
0.0
  0
ARC
  5
A6C
330
1E
100
AcDbEntity
  8
Cover
100
AcDbCircle
 10
6.959468666509692
 20
28.42741749307785
 30
0.0
 40
0.062
100
AcDbArc
 50
0.0
 51
90.00000000000005
  0
ARC
  5
A6D
330
1E
100
AcDbEntity
  8
Cover
100
AcDbCircle
 10
6.915573457021678
 20
28.36741749307785
 30
0.0
 40
0.062
100
AcDbArc
 50
10.24207807151449
 51
90.00000000000005
  0
LINE
  5
A6E
330
1E
100
AcDbEntity
  8
Cover
100
AcDbLine
 10
7.17771866650969
 20
28.40066749307785
 30
0.0
 11
7.17771866650969
 21
28.42741749307785
 31
0.0
  0
ARC
  5
A6F
330
1E
100
AcDbEntity
  8
Cover
100
AcDbCircle
 10
7.239718666509688
 20
28.42741749307785
 30
0.0
 40
0.062
100
AcDbArc
 50
90.00000000000005
 51
180.0
  0
ARC
  5
A70
330
1E
100
AcDbEntity
  8
Cover
100
AcDbCircle
 10
7.283613875997693
 20
28.36741749307785
 30
0.0
 40
0.062
100
AcDbArc
 50
90.00000000000005
 51
169.7579219284851
  0
DIMENSION
  5
A7A
330
1E
100
AcDbEntity
  8
DIM
100
AcDbDimension
  2
*D20
 10
9.279593666509688
 20
28.96591749307784
 30
0.0
 11
8.18959366650969
 21
28.96591749307784
 31
0.0
 70
    32
  1
H
 71
     5
 42
2.179999999999997
  3
23NSTD
100
AcDbAlignedDimension
 13
7.09959366650969
 23
28.40066749307785
 33
0.0
 14
9.279593666509688
 24
28.39941749307784
 34
0.0
100
AcDbRotatedDimension
  0
DIMENSION
  5
AD8
330
1E
100
AcDbEntity
  8
DIM
100
AcDbDimension
  2
*D22
 10
4.724593666509688
 20
15.47559902817152
 30
0.0
 11
3.641781166509688
 21
15.47559902817152
 31
0.0
 70
    32
  1
L
 71
     5
 42
0.1949999999999994
  3
23NSTD
100
AcDbAlignedDimension
 13
4.919593666509688
 23
14.04453971688856
 33
0.0
 14
4.724593666509688
 24
14.05203971688856
 34
0.0
100
AcDbRotatedDimension
  0
DIMENSION
  5
AD9
330
1E
100
AcDbEntity
  8
DIM
100
AcDbDimension
  2
*D21
 10
9.474593666509687
 20
16.00334902817152
 30
0.0
 11
7.099593666509688
 21
16.00334902817152
 31
0.0
 70
    32
  1
B
 71
     5
 42
4.749999999999998
  3
23NSTD
100
AcDbAlignedDimension
 13
4.724593666509688
 23
14.05203971688856
 33
0.0
 14
9.474593666509687
 24
14.05203971688855
 34
0.0
100
AcDbRotatedDimension
  0
DIMENSION
  5
ADA
330
1E
100
AcDbEntity
  8
DIM
100
AcDbDimension
  2
*D23
 10
9.279593666509688
 20
15.48125443357692
 30
0.0
 11
7.099593666509688
 21
15.48125443357692
 31
0.0
 70
    32
  1
F
 71
     5
 42
4.36
  3
23NSTD
100
AcDbAlignedDimension
 13
4.919593666509688
 23
14.04453971688856
 33
0.0
 14
9.279593666509688
 24
14.04453971688855
 34
0.0
100
AcDbRotatedDimension
  0
DIMENSION
  5
ADB
330
1E
100
AcDbEntity
  8
DIM
100
AcDbDimension
  2
*D24
 10
9.279593666509688
 20
15.00391471688856
 30
0.0
 11
8.201468666509688
 21
15.00391471688856
 31
0.0
 70
   160
  1
H
 71
     5
 42
2.179999999999997
  3
23NSTD
100
AcDbAlignedDimension
 13
7.09959366650969
 23
14.04578971688855
 33
0.0
 14
9.279593666509688
 24
14.04453971688855
 34
0.0
100
AcDbRotatedDimension
  0
LINE
  5
D99
330
1E
100
AcDbEntity
  8
CENTER
100
AcDbLine
 10
16.31503762633785
 20
29.08673853672144
 30
0.0
 11
16.31503762633785
 21
30.17885388603112
 31
0.0
  0
LWPOLYLINE
  5
D9A
330
1E
100
AcDbEntity
  8
OBJECT
100
AcDbPolyline
 90
        7
 70
     0
 43
0.0
 10
16.26229674381962
 20
30.57034696655007
 42
0.0531578900237961
 10
16.27022081169201
 20
30.56457166195753
 42
0.072341084057661
 10
16.28958858341231
 20
30.55685460144411
 42
0.0587518675353793
 10
16.31503762633785
 20
30.55385388603112
 42
0.0587518675353684
 10
16.3404866692634
 20
30.55685460144411
 42
0.0723410840576543
 10
16.3598544409837
 20
30.56457166195753
 42
0.0531578900238873
 10
16.36777850885609
 20
30.57034696655008
 42
0.1568512196707747
  0
LWPOLYLINE
  5
D9B
330
1E
100
AcDbEntity
  8
OBJECT
100
AcDbPolyline
 90
        9
 70
     0
 43
0.0
 10
16.25165707924334
 20
30.21544666195753
 42
0.1568512196707782
 10
16.25576845069915
 20
30.20266313930068
 42
0.1066170543910084
 10
16.27022081169201
 20
30.18957166195753
 42
0.072341084057661
 10
16.28958858341231
 20
30.18185460144412
 42
0.0587518675353793
 10
16.31503762633785
 20
30.17885388603112
 42
0.0587518675353684
 10
16.3404866692634
 20
30.18185460144412
 42
0.0723410840576543
 10
16.3598544409837
 20
30.18957166195753
 42
0.1066170543910017
 10
16.37430680197654
 20
30.20266313930068
 42
0.1568512196707747
 10
16.37841817343236
 20
30.21544666195753
 42
0.1568512196707838
  0
LWPOLYLINE
  5
D9C
330
1E
100
AcDbEntity
  8
OBJECT
100
AcDbPolyline
 90
       16
 70
     1
 43
0.0
 10
16.31503762633785
 20
30.71036054378212
 42
0.0587518675353782
 10
16.26919674202459
 20
30.70495541131775
 42
0.072341084057657
 10
16.23430993761967
 20
30.69105481477003
 42
0.1066170543910075
 10
16.20827717048318
 20
30.66747338185983
 42
0.1568512196707839
 10
16.20087143409357
 20
30.64444666195752
 42
0.1568512196707877
 10
16.20827717048318
 20
30.62141994205521
 42
0.1066170543910138
 10
16.23430993761967
 20
30.59783850914502
 42
0.07234108405766
 10
16.26919674202459
 20
30.5839379125973
 42
0.0587518675353789
 10
16.31503762633785
 20
30.57853278013292
 42
0.058751867535374
 10
16.36087851065112
 20
30.5839379125973
 42
0.0723410840576588
 10
16.39576531505603
 20
30.59783850914502
 42
0.1066170543910072
 10
16.42179808219252
 20
30.62141994205521
 42
0.1568512196707839
 10
16.42920381858215
 20
30.64444666195752
 42
0.156851219670792
 10
16.42179808219252
 20
30.66747338185983
 42
0.1066170543910073
 10
16.39576531505603
 20
30.69105481477003
 42
0.072341084057658
 10
16.36087851065112
 20
30.70495541131775
 42
0.058751867535374
  0
LWPOLYLINE
  5
D9D
330
1E
100
AcDbEntity
  8
OBJECT
100
AcDbPolyline
 90
        2
 70
     0
 43
0.0
 10
16.25165707924334
 20
30.57988747733973
 10
16.25165707924334
 20
30.21544666195753
  0
LINE
  5
D9E
330
1E
100
AcDbEntity
  8
OBJECT
100
AcDbLine
 10
16.22003646259383
 20
30.60824145712524
 30
0.0
 11
16.2622967438196
 21
30.57034696655008
 31
0.0
  0
LWPOLYLINE
  5
D9F
330
1E
100
AcDbEntity
  8
OBJECT
100
AcDbPolyline
 90
        2
 70
     0
 43
0.0
 10
16.37841817343236
 20
30.57988747733973
 10
16.37841817343236
 20
30.21544666195753
  0
LINE
  5
DA0
330
1E
100
AcDbEntity
  8
OBJECT
100
AcDbLine
 10
16.41003879008188
 20
30.60824145712524
 30
0.0
 11
16.36777850885611
 21
30.57034696655008
 31
0.0
  0
LINE
  5
DA1
330
1E
100
AcDbEntity
  8
CENTER
100
AcDbLine
 10
19.24761614990291
 20
30.77986353672145
 30
0.0
 11
19.24761614990291
 21
31.87197888603112
 31
0.0
  0
LWPOLYLINE
  5
DA2
330
1E
100
AcDbEntity
  8
OBJECT
100
AcDbPolyline
 90
        7
 70
     0
 43
0.0
 10
19.19487526738467
 20
32.26347196655005
 42
0.0531578900237961
 10
19.20279933525707
 20
32.25769666195752
 42
0.072341084057661
 10
19.22216710697735
 20
32.24997960144412
 42
0.0587518675353793
 10
19.24761614990291
 20
32.24697888603111
 42
0.0587518675353684
 10
19.27306519282846
 20
32.24997960144412
 42
0.0723410840576543
 10
19.29243296454876
 20
32.25769666195752
 42
0.0531578900238873
 10
19.30035703242116
 20
32.26347196655007
 42
0.1568512196707747
  0
LWPOLYLINE
  5
DA3
330
1E
100
AcDbEntity
  8
OBJECT
100
AcDbPolyline
 90
        2
 70
     0
 43
0.0
 10
19.1842356028084
 20
32.27301247733973
 10
19.1842356028084
 20
31.90857166195752
  0
LWPOLYLINE
  5
DA4
330
1E
100
AcDbEntity
  8
OBJECT
100
AcDbPolyline
 90
        2
 70
     0
 43
0.0
 10
19.31099669699742
 20
32.27301247733973
 10
19.31099669699742
 20
31.90857166195752
  0
LWPOLYLINE
  5
DA5
330
1E
100
AcDbEntity
  8
OBJECT
100
AcDbPolyline
 90
        9
 70
     0
 43
0.0
 10
19.1842356028084
 20
31.90857166195752
 42
0.1568512196707782
 10
19.18834697426421
 20
31.89578813930068
 42
0.1066170543910084
 10
19.20279933525707
 20
31.88269666195752
 42
0.072341084057661
 10
19.22216710697735
 20
31.87497960144412
 42
0.0587518675353793
 10
19.24761614990291
 20
31.87197888603112
 42
0.0587518675353684
 10
19.27306519282846
 20
31.87497960144412
 42
0.0723410840576543
 10
19.29243296454876
 20
31.88269666195752
 42
0.1066170543910017
 10
19.3068853255416
 20
31.89578813930068
 42
0.1568512196707747
 10
19.31099669699742
 20
31.90857166195752
 42
0.1568512196707838
  0
LWPOLYLINE
  5
DA6
330
1E
100
AcDbEntity
  8
OBJECT
100
AcDbPolyline
 90
       16
 70
     1
 43
0.0
 10
19.24761614990291
 20
32.40348554378211
 42
0.0587518675353782
 10
19.20177526558964
 20
32.39808041131775
 42
0.072341084057657
 10
19.16688846118471
 20
32.38417981477002
 42
0.1066170543910075
 10
19.14085569404824
 20
32.36059838185983
 42
0.1568512196707839
 10
19.13344995765862
 20
32.33757166195752
 42
0.1568512196707877
 10
19.14085569404824
 20
32.31454494205522
 42
0.1066170543910138
 10
19.16688846118471
 20
32.29096350914502
 42
0.07234108405766
 10
19.20177526558964
 20
32.2770629125973
 42
0.0587518675353789
 10
19.24761614990291
 20
32.27165778013292
 42
0.058751867535374
 10
19.29345703421617
 20
32.2770629125973
 42
0.0723410840576588
 10
19.3283438386211
 20
32.29096350914502
 42
0.1066170543910072
 10
19.35437660575757
 20
32.31454494205522
 42
0.1568512196707839
 10
19.3617823421472
 20
32.33757166195752
 42
0.156851219670792
 10
19.35437660575757
 20
32.36059838185983
 42
0.1066170543910073
 10
19.3283438386211
 20
32.38417981477002
 42
0.072341084057658
 10
19.29345703421617
 20
32.39808041131775
 42
0.058751867535374
  0
LINE
  5
DA7
330
1E
100
AcDbEntity
  8
OBJECT
100
AcDbLine
 10
19.15261498615889
 20
32.30136645712525
 30
0.0
 11
19.19487526738466
 21
32.26347196655007
 31
0.0
  0
LINE
  5
DA8
330
1E
100
AcDbEntity
  8
OBJECT
100
AcDbLine
 10
19.34261731364692
 20
32.30136645712525
 30
0.0
 11
19.30035703242116
 21
32.26347196655007
 31
0.0
  0
LWPOLYLINE
  5
DA9
330
1E
100
AcDbEntity
  8
OBJECT
100
AcDbPolyline
 90
       16
 70
     1
 43
0.0
 10
19.24761614990291
 20
30.92888629085651
 42
0.0587518675353782
 10
19.19579599727915
 20
30.92277613845759
 42
0.072341084057657
 10
19.15635872297912
 20
30.90706241378898
 42
0.1066170543910075
 10
19.12693036472555
 20
30.88040513021342
 42
0.1568512196707839
 10
19.11855865908002
 20
30.85437491378898
 42
0.1568512196707877
 10
19.12693036472555
 20
30.82834469736454
 42
0.1066170543910138
 10
19.15635872297912
 20
30.80168741378898
 42
0.07234108405766
 10
19.19579599727915
 20
30.78597368912037
 42
0.0587518675353789
 10
19.24761614990291
 20
30.77986353672145
 42
0.058751867535374
 10
19.29943630252667
 20
30.78597368912037
 42
0.0723410840576588
 10
19.33887357682669
 20
30.80168741378898
 42
0.1066170543910072
 10
19.36830193508026
 20
30.82834469736453
 42
0.1568512196707839
 10
19.3766736407258
 20
30.85437491378898
 42
0.156851219670792
 10
19.36830193508026
 20
30.88040513021342
 42
0.1066170543910073
 10
19.33887357682669
 20
30.90706241378898
 42
0.072341084057658
 10
19.29943630252667
 20
30.92277613845759
 42
0.058751867535374
  0
LWPOLYLINE
  5
DAA
330
1E
100
AcDbEntity
  8
OBJECT
100
AcDbPolyline
 90
        6
 70
     0
 43
0.0
 10
19.31765846862291
 20
30.79159927351124
 42
0.0907083780630971
 10
19.31926372487932
 20
30.80037491378897
 42
0.1568512196707755
 10
19.31461608758144
 20
30.81482585244454
 42
0.106617054390996
 10
19.29827863602429
 20
30.82962491378898
 42
0.0723410840576467
 10
19.27638463321005
 20
30.83834854741283
 42
0.0587518675353843
 10
19.24761614990291
 20
30.84174066048839
 42
0.0587518675353685
  0
LWPOLYLINE
  5
DAB
330
1E
100
AcDbEntity
  8
OBJECT
100
AcDbPolyline
 90
        6
 70
     0
 43
0.0
 10
19.24761614990291
 20
30.84174066048839
 42
0.0587518675353685
 10
19.21884766659576
 20
30.83834854741283
 42
0.0723410840576479
 10
19.19695366378151
 20
30.82962491378898
 42
0.1066170543910048
 10
19.18061621222437
 20
30.81482585244454
 42
0.156851219670777
 10
19.1759685749265
 20
30.80037491378897
 42
0.0907083780630934
 10
19.1775738311829
 20
30.79159927351124
 42
0.1066170543910073
  0
LWPOLYLINE
  5
DAC
330
1E
100
AcDbEntity
  8
OBJECT
100
AcDbPolyline
 90
        6
 70
     0
 43
0.0
 10
16.38507994505786
 20
29.09847427351124
 42
0.0907083780630903
 10
16.38668520131425
 20
29.10724991378898
 42
0.1568512196707755
 10
16.38203756401638
 20
29.12170085244454
 42
0.106617054390996
 10
16.36570011245925
 20
29.13649991378898
 42
0.0723410840576467
 10
16.34380610964499
 20
29.14522354741283
 42
0.0587518675353843
 10
16.31503762633785
 20
29.14861566048839
 42
0.0587518675353685
  0
LWPOLYLINE
  5
DAD
330
1E
100
AcDbEntity
  8
OBJECT
100
AcDbPolyline
 90
       16
 70
     1
 43
0.0
 10
16.31503762633785
 20
29.23576129085651
 42
0.0587518675353782
 10
16.26321747371409
 20
29.22965113845759
 42
0.072341084057657
 10
16.22378019941407
 20
29.21393741378898
 42
0.1066170543910075
 10
16.1943518411605
 20
29.18728013021342
 42
0.1568512196707839
 10
16.18598013551496
 20
29.16124991378898
 42
0.1568512196707877
 10
16.1943518411605
 20
29.13521969736454
 42
0.1066170543910138
 10
16.22378019941407
 20
29.10856241378898
 42
0.07234108405766
 10
16.26321747371409
 20
29.09284868912036
 42
0.0587518675353789
 10
16.31503762633785
 20
29.08673853672144
 42
0.058751867535374
 10
16.3668577789616
 20
29.09284868912036
 42
0.0723410840576588
 10
16.40629505326164
 20
29.10856241378898
 42
0.1066170543910072
 10
16.43572341151521
 20
29.13521969736454
 42
0.1568512196707839
 10
16.44409511716075
 20
29.16124991378898
 42
0.156851219670792
 10
16.43572341151521
 20
29.18728013021342
 42
0.1066170543910073
 10
16.40629505326164
 20
29.21393741378898
 42
0.072341084057658
 10
16.3668577789616
 20
29.22965113845759
 42
0.058751867535374
  0
LWPOLYLINE
  5
DAE
330
1E
100
AcDbEntity
  8
OBJECT
100
AcDbPolyline
 90
        6
 70
     0
 43
0.0
 10
16.31503762633785
 20
29.14861566048839
 42
0.0587518675353685
 10
16.28626914303071
 20
29.14522354741283
 42
0.0723410840576479
 10
16.26437514021646
 20
29.13649991378898
 42
0.1066170543910048
 10
16.24803768865931
 20
29.12170085244454
 42
0.156851219670777
 10
16.24339005136144
 20
29.10724991378898
 42
0.0907083780630934
 10
16.24499530761785
 20
29.09847427351124
 42
0.1066170543910073
  0
LINE
  5
DAF
330
1E
100
AcDbEntity
  8
CENTER
100
AcDbLine
 10
16.31503762633785
 20
25.13276158497086
 30
0.0
 11
16.31503762633785
 21
28.94454785764168
 31
0.0
  0
LINE
  5
DB0
330
1E
100
AcDbEntity
  8
CENTER
100
AcDbLine
 10
19.24761614990291
 20
26.79908685544944
 30
0.0
 11
19.24761614990291
 21
28.96912470785606
 31
0.0
  0
LWPOLYLINE
  5
DB1
330
1E
100
AcDbEntity
  8
OBJECT
100
AcDbPolyline
 90
        9
 70
     0
 43
0.0
 10
16.36254792107473
 20
25.07786449104683
 42
0.0122510181797349
 10
16.36741101902521
 20
25.07890222769106
 42
0.072341084057657
 10
16.38537532902665
 20
25.0860600809209
 42
0.1066170543910092
 10
16.3987804174838
 20
25.09820290048557
 42
0.1568512196707462
 10
16.4025938634718
 20
25.11006008092089
 42
0.1568512196707336
 10
16.3987804174838
 20
25.12191726135624
 42
0.1066170543909893
 10
16.38537532902665
 20
25.13406008092089
 42
0.0723410840576466
 10
16.36741101902521
 20
25.14121793415073
 42
0.0587518675353801
 10
16.34380610964499
 20
25.14400120641786
 42
0.0587518675353727
  0
LWPOLYLINE
  5
DB6
330
1E
100
AcDbEntity
  8
OBJECT
100
AcDbPolyline
 90
        5
 70
     0
 43
0.0
 10
16.34380610964499
 20
25.14400120641786
 42
0.0587518675353727
 10
16.32020120026478
 20
25.14121793415073
 42
0.0723410840576566
 10
16.30223689026334
 20
25.13406008092089
 42
0.1066170543909957
 10
16.2888318018062
 20
25.12191726135624
 42
0.015928584286223
 10
16.28811043319681
 20
25.12084099471096
 42
0.1568512196707294
  0
LWPOLYLINE
  5
DB7
330
1E
100
AcDbEntity
  8
OBJECT
100
AcDbPolyline
 90
        7
 70
     0
 43
0.0
 10
16.40454166524757
 20
25.05361939154437
 42
0.0431043958842368
 10
16.42499599124979
 20
25.06318508092089
 42
0.1066170543910163
 10
16.45117780464264
 20
25.08690152538314
 42
0.1568512196707811
 10
16.45862594133796
 20
25.11006008092089
 42
0.1568512196707789
 10
16.45117780464264
 20
25.13321863645865
 42
0.1066170543910128
 10
16.42499599124979
 20
25.15693508092089
 42
0.3452402452508683
 10
16.2647123219484
 20
25.13414197755283
 42
0.0587518675353793
  0
LINE
  5
DB8
330
1E
100
AcDbEntity
  8
OBJECT
100
AcDbLine
 10
16.45862594133796
 20
25.11006008092089
 30
0.0
 11
16.46406474138731
 21
25.01925372751208
 31
0.0
  0
LINE
  5
DBD
330
1E
100
AcDbEntity
  8
OBJECT
100
AcDbLine
 10
19.35172859997711
 20
26.7913036239831
 30
0.0
 11
19.35172859997711
 21
25.29355362398308
 31
0.0
  0
LINE
  5
DBE
330
1E
100
AcDbEntity
  8
OBJECT
100
AcDbLine
 10
19.43958619174789
 20
26.79936243557994
 30
0.0
 11
19.43958619174789
 21
25.30184799299887
 31
0.0
  0
LWPOLYLINE
  5
DC1
330
1E
100
AcDbEntity
  8
OBJECT
100
AcDbPolyline
 90
        7
 70
     0
 43
0.0
 10
19.13279631820994
 20
25.31036916674537
 42
0.150994727434761
 10
19.16642626829812
 20
25.27408644358362
 42
0.0723410840576608
 10
19.20151281126967
 20
25.26010626149412
 42
0.0587518675353809
 10
19.24761614990291
 20
25.25467018284739
 42
0.0587518675353774
 10
19.29371948853614
 20
25.26010626149412
 42
0.0723410840576568
 10
19.3288060315077
 20
25.27408644358362
 42
0.0904779399290791
 10
19.35172859997712
 20
25.2935536239831
 42
0.1568512196707811
  0
LWPOLYLINE
  5
DC2
330
1E
100
AcDbEntity
  8
OBJECT
100
AcDbPolyline
 90
        4
 70
     0
 43
0.0
 10
19.34790271272629
 20
25.2891991404993
 42
-0.1032009272409039
 10
19.36066049274391
 20
25.30059959836873
 42
-0.0723410840576526
 10
19.37820376422969
 20
25.30758968941348
 42
-0.0587518675353721
 10
19.40125543354631
 20
25.31030772873685
 42
-0.0587518675353793
  0
LWPOLYLINE
  5
DC3
330
1E
100
AcDbEntity
  8
OBJECT
100
AcDbPolyline
 90
        3
 70
     0
 43
0.0
 10
19.40125543354631
 20
25.31030772873685
 42
-0.0587518675353793
 10
19.42430710286292
 20
25.30758968941348
 42
-0.0642382339879482
 10
19.44000074069367
 20
25.30162806810654
 42
-0.010596345945674
  0
LWPOLYLINE
  5
DC7
330
1E
100
AcDbEntity
  8
OBJECT
100
AcDbPolyline
 90
        7
 70
     0
 43
0.0
 10
19.15121229669421
 20
26.78308781300316
 42
0.0566482187567139
 10
19.1664262682981
 20
26.77183644358362
 42
0.0723410840576608
 10
19.20151281126967
 20
26.75785626149412
 42
0.0587518675353809
 10
19.24761614990291
 20
26.75242018284738
 42
0.0587518675353774
 10
19.29371948853614
 20
26.75785626149412
 42
0.0723410840576568
 10
19.3288060315077
 20
26.77183644358362
 42
0.0904779399290791
 10
19.35172859997711
 20
26.7913036239831
  0
LWPOLYLINE
  5
DC8
330
1E
100
AcDbEntity
  8
OBJECT
100
AcDbPolyline
 90
       16
 70
     1
 43
0.0
 10
19.24761614990291
 20
26.85265256908057
 42
0.0587518675353727
 10
19.22401124052268
 20
26.84986929681346
 42
0.0723410840576566
 10
19.20604693052125
 20
26.84271144358362
 42
0.1066170543909957
 10
19.19264184206411
 20
26.83056862401896
 42
0.1568512196707378
 10
19.1888283960761
 20
26.81871144358362
 42
0.1568512196707294
 10
19.19264184206411
 20
26.80685426314829
 42
0.1066170543909819
 10
19.20604693052125
 20
26.79471144358362
 42
0.0723410840576534
 10
19.22401124052269
 20
26.78755359035378
 42
0.0587518675353621
 10
19.24761614990291
 20
26.78477031808667
 42
0.0587518675353727
 10
19.27122105928313
 20
26.78755359035378
 42
0.072341084057657
 10
19.28918536928456
 20
26.79471144358362
 42
0.1066170543910092
 10
19.3025904577417
 20
26.8068542631483
 42
0.1568512196707462
 10
19.30640390372969
 20
26.81871144358362
 42
0.1568512196707336
 10
19.3025904577417
 20
26.83056862401896
 42
0.1066170543909893
 10
19.28918536928456
 20
26.84271144358362
 42
0.0723410840576466
 10
19.27122105928313
 20
26.84986929681346
 42
0.0587518675353801
  0
LWPOLYLINE
  5
DCB
330
1E
100
AcDbEntity
  8
OBJECT
100
AcDbPolyline
 90
        3
 70
     0
 43
0.0
 10
19.43958619174789
 20
26.79936243557994
 42
0.0627377818794437
 10
19.4242388741851
 20
26.80514006749986
 42
0.0587518675353721
 10
19.40118720486848
 20
26.80785810682322
 42
0.0587518675353793
  0
LWPOLYLINE
  5
DCC
330
1E
100
AcDbEntity
  8
OBJECT
100
AcDbPolyline
 90
        4
 70
     0
 43
0.0
 10
19.40118720486848
 20
26.80785810682322
 42
0.0587518675353793
 10
19.37813553555185
 20
26.80514006749986
 42
0.0723410840576608
 10
19.36059226406609
 20
26.79814997645511
 42
0.0671451366482417
 10
19.35172859997711
 20
26.7913036239831
 42
0.1568512196707734
  0
LINE
  5
DCD
330
1E
100
AcDbEntity
  8
OBJECT
100
AcDbLine
 10
19.43958619174791
 20
26.79936243557994
 30
0.0
 11
19.21003707982444
 21
26.93201386576194
 31
0.0
  0
LWPOLYLINE
  5
DCF
330
1E
100
AcDbEntity
  8
OBJECT
100
AcDbPolyline
 90
        7
 70
     0
 43
0.0
 10
19.20323073871476
 20
26.88171979843218
 42
0.0290503911245578
 10
19.21003707982444
 20
26.88513886576194
 42
0.1066170543910291
 10
19.22312798652086
 20
26.89699708799306
 42
0.1568512196707543
 10
19.22685205486851
 20
26.90857636576194
 42
0.1568512196707906
 10
19.22312798652086
 20
26.92015564353082
 42
0.1066170543910265
 10
19.21003707982444
 20
26.93201386576194
 42
0.0125132942123061
 10
19.20715358678457
 20
26.93358378841602
 42
0.0587518675353721
  0
LINE
  5
DD0
330
1E
100
AcDbEntity
  8
OBJECT
100
AcDbLine
 10
19.20715358678457
 20
26.93358378841602
 30
0.0
 11
19.2040708038143
 21
26.88208934459229
 31
0.0
  0
LWPOLYLINE
  5
DD3
330
1E
100
AcDbEntity
  8
OBJECT
100
AcDbPolyline
 90
        7
 70
     0
 43
0.0
 10
19.1872855715952
 20
26.87705021026696
 42
0.0439272805455098
 10
19.16642626829812
 20
26.86733685544943
 42
0.1066170543910128
 10
19.14024445490526
 20
26.84362041098719
 42
0.1568512196707789
 10
19.13279631820994
 20
26.82046185544944
 42
0.1568512196707841
 10
19.14024445490526
 20
26.79730329991167
 42
0.1366189224218357
 10
19.16565676448914
 20
26.77228619153205
 42
0.0437164296855037
 10
19.18630836902044
 20
26.76248197830728
 42
0.0587518675353809
  0
LINE
  5
DD4
330
1E
100
AcDbEntity
  8
OBJECT
100
AcDbLine
 10
19.18728557159519
 20
26.87705021026696
 30
0.0
 11
19.20323073871476
 21
26.88171979843218
 31
0.0
  0
LINE
  5
DD8
330
1E
100
AcDbEntity
  8
OBJECT
100
AcDbLine
 10
19.13279631820994
 20
26.82046185544944
 30
0.0
 11
19.13279631820994
 21
25.31036916674537
 31
0.0
  0
LINE
  5
DD9
330
1E
100
AcDbEntity
  8
OBJECT
100
AcDbLine
 10
19.13279631820994
 20
25.47855651929444
 30
0.0
 11
18.03444151035153
 21
26.11400327403945
 31
0.0
  0
LINE
  5
E26
330
1E
100
AcDbEntity
  8
TITLE
100
AcDbLine
 10
0.1394999999999964
 20
1.075500000000007
 30
0.0
 11
23.88775
 21
1.075500000000007
 31
0.0
  0
LINE
  5
E27
330
1E
100
AcDbEntity
  8
TITLE
100
AcDbLine
 10
0.1394999999999964
 20
1.543500000000005
 30
0.0
 11
23.88775
 21
1.543500000000005
 31
0.0
  0
LINE
  5
E28
330
1E
100
AcDbEntity
  8
TITLE
100
AcDbLine
 10
0.1394999999999964
 20
2.011500000000006
 30
0.0
 11
23.88775
 21
2.011500000000006
 31
0.0
  0
LINE
  5
E29
330
1E
100
AcDbEntity
  8
TITLE
100
AcDbLine
 10
0.1394999999999964
 20
2.479500000000006
 30
0.0
 11
23.88775
 21
2.479500000000006
 31
0.0
  0
TEXT
  5
E2A
330
1E
100
AcDbEntity
  8
TEXT
100
AcDbText
 10
4.560630483014125
 20
1.636000000000004
 30
0.0
 40
0.281
  1
6.000
 41
0.75
 72
     4
 11
4.929442983014125
 21
1.776500000000004
 31
0.0
100
AcDbText
  0
TEXT
  5
E2B
330
1E
100
AcDbEntity
  8
TEXT
100
AcDbText
 10
4.525505483014125
 20
1.167666666666672
 30
0.0
 40
0.281
  1
7.390
 41
0.75
 72
     4
 11
4.929442983014125
 21
1.308166666666672
 31
0.0
100
AcDbText
  0
TEXT
  5
E2C
330
1E
100
AcDbEntity
  8
TEXT
100
AcDbText
 10
4.525505483014125
 20
2.572666666666671
 30
0.0
 40
0.281
  1
4.750
 41
0.75
 72
     4
 11
4.929442983014125
 21
2.71316666666667
 31
0.0
100
AcDbText
  0
TEXT
  5
E2D
330
1E
100
AcDbEntity
  8
TEXT
100
AcDbText
 10
4.525505483014125
 20
2.104333333333339
 30
0.0
 40
0.281
  1
4.750
 41
0.75
 72
     4
 11
4.929442983014125
 21
2.244833333333339
 31
0.0
100
AcDbText
  0
TEXT
  5
E2E
330
1E
100
AcDbEntity
  8
TEXT
100
AcDbText
 10
0.4391914972473129
 20
1.636333333333339
 30
0.0
 40
0.281
  1
CU-5476
 41
0.75
 72
     4
 11
1.141691497247312
 21
1.776833333333339
 31
0.0
100
AcDbText
  0
TEXT
  5
E2F
330
1E
100
AcDbEntity
  8
TEXT
100
AcDbText
 10
0.4391914972473129
 20
1.168000000000004
 30
0.0
 40
0.281
  1
CU-5477
 41
0.75
 72
     4
 11
1.141691497247312
 21
1.308500000000004
 31
0.0
100
AcDbText
  0
TEXT
  5
E30
330
1E
100
AcDbEntity
  8
TEXT
100
AcDbText
 10
0.4391914972473129
 20
0.6996666666666738
 30
0.0
 40
0.281
  1
CU-5478
 41
0.75
 72
     4
 11
1.141691497247312
 21
0.8401666666666738
 31
0.0
100
AcDbText
  0
TEXT
  5
E31
330
1E
100
AcDbEntity
  8
TEXT
100
AcDbText
 10
0.4391914972473129
 20
2.104666666666671
 30
0.0
 40
0.281
  1
CU-5475
 41
0.75
 72
     4
 11
1.141691497247312
 21
2.24516666666667
 31
0.0
100
AcDbText
  0
TEXT
  5
E32
330
1E
100
AcDbEntity
  8
TEXT
100
AcDbText
 10
5.936071735363017
 20
1.636000000000004
 30
0.0
 40
0.281
  1
3.250
 41
0.75
 72
     4
 11
6.340009235363017
 21
1.776500000000004
 31
0.0
100
AcDbText
  0
TEXT
  5
E33
330
1E
100
AcDbEntity
  8
TEXT
100
AcDbText
 10
5.936071735363017
 20
2.104333333333339
 30
0.0
 40
0.281
  1
4.750
 41
0.75
 72
     4
 11
6.340009235363017
 21
2.244833333333339
 31
0.0
100
AcDbText
  0
TEXT
  5
E34
330
1E
100
AcDbEntity
  8
TEXT
100
AcDbText
 10
5.936071735363017
 20
1.167666666666672
 30
0.0
 40
0.281
  1
4.703
 41
0.75
 72
     4
 11
6.340009235363017
 21
1.308166666666672
 31
0.0
100
AcDbText
  0
TEXT
  5
E35
330
1E
100
AcDbEntity
  8
TEXT
100
AcDbText
 10
5.936071735363017
 20
2.572666666666671
 30
0.0
 40
0.281
  1
4.750
 41
0.75
 72
     4
 11
6.340009235363017
 21
2.71316666666667
 31
0.0
100
AcDbText
  0
TEXT
  5
E36
330
1E
100
AcDbEntity
  8
TEXT
100
AcDbText
 10
7.376937500000003
 20
1.636000000000004
 30
0.0
 40
0.281
  1
2.000
 41
0.75
 72
     4
 11
7.745750000000002
 21
1.776500000000004
 31
0.0
100
AcDbText
  0
TEXT
  5
E37
330
1E
100
AcDbEntity
  8
TEXT
100
AcDbText
 10
7.341812500000003
 20
2.104333333333339
 30
0.0
 40
0.281
  1
3.750
 41
0.75
 72
     4
 11
7.745750000000002
 21
2.244833333333339
 31
0.0
100
AcDbText
  0
TEXT
  5
E38
330
1E
100
AcDbEntity
  8
TEXT
100
AcDbText
 10
7.394500000000002
 20
1.167666666666672
 30
0.0
 40
0.281
  1
1.500
 41
0.75
 72
     4
 11
7.745750000000002
 21
1.308166666666672
 31
0.0
100
AcDbText
  0
TEXT
  5
E39
330
1E
100
AcDbEntity
  8
TEXT
100
AcDbText
 10
7.341812500000003
 20
2.572666666666671
 30
0.0
 40
0.281
  1
2.330
 41
0.75
 72
     4
 11
7.745750000000002
 21
2.71316666666667
 31
0.0
100
AcDbText
  0
TEXT
  5
E3A
330
1E
100
AcDbEntity
  8
TEXT
100
AcDbText
 10
8.750075
 20
1.636000000000004
 30
0.0
 40
0.281
  1
1.844
 41
0.75
 72
     4
 11
9.136449999999999
 21
1.776500000000004
 31
0.0
100
AcDbText
  0
TEXT
  5
E3B
330
1E
100
AcDbEntity
  8
TEXT
100
AcDbText
 10
8.714949999999999
 20
2.104333333333339
 30
0.0
 40
0.281
  1
3.594
 41
0.75
 72
     4
 11
9.136449999999999
 21
2.244833333333339
 31
0.0
100
AcDbText
  0
TEXT
  5
E3C
330
1E
100
AcDbEntity
  8
TEXT
100
AcDbText
 10
8.750075
 20
1.167666666666672
 30
0.0
 40
0.281
  1
1.344
 41
0.75
 72
     4
 11
9.136449999999999
 21
1.308166666666672
 31
0.0
100
AcDbText
  0
TEXT
  5
E3D
330
1E
100
AcDbEntity
  8
TEXT
100
AcDbText
 10
8.750075
 20
2.572666666666671
 30
0.0
 40
0.281
  1
2.174
 41
0.75
 72
     4
 11
9.136449999999999
 21
2.71316666666667
 31
0.0
100
AcDbText
  0
TEXT
  5
E3E
330
1E
100
AcDbEntity
  8
TEXT
100
AcDbText
 10
11.5139125
 20
1.636000000000004
 30
0.0
 40
0.281
  1
2.860
 41
0.75
 72
     4
 11
11.91785
 21
1.776500000000004
 31
0.0
100
AcDbText
  0
TEXT
  5
E3F
330
1E
100
AcDbEntity
  8
TEXT
100
AcDbText
 10
11.53147499999999
 20
1.167666666666672
 30
0.0
 40
0.281
  1
4.313
 41
0.75
 72
     4
 11
11.91785
 21
1.308166666666672
 31
0.0
100
AcDbText
  0
TEXT
  5
E40
330
1E
100
AcDbEntity
  8
TEXT
100
AcDbText
 10
11.49634999999999
 20
2.572666666666671
 30
0.0
 40
0.281
  1
4.375
 41
0.75
 72
     4
 11
11.91785
 21
2.71316666666667
 31
0.0
100
AcDbText
  0
TEXT
  5
E41
330
1E
100
AcDbEntity
  8
TEXT
100
AcDbText
 10
11.49634999999999
 20
2.104333333333339
 30
0.0
 40
0.281
  1
4.375
 41
0.75
 72
     4
 11
11.91785
 21
2.244833333333339
 31
0.0
100
AcDbText
  0
TEXT
  5
E42
330
1E
100
AcDbEntity
  8
TEXT
100
AcDbText
 10
10.12983749999999
 20
1.636000000000006
 30
0.0
 40
0.281
  1
5.610
 41
0.75
 72
     4
 11
10.49865
 21
1.776500000000006
 31
0.0
100
AcDbText
  0
TEXT
  5
E43
330
1E
100
AcDbEntity
  8
TEXT
100
AcDbText
 10
10.07714999999999
 20
2.572666666666671
 30
0.0
 40
0.281
  1
4.375
 41
0.75
 72
     4
 11
10.49865
 21
2.71316666666667
 31
0.0
100
AcDbText
  0
TEXT
  5
E44
330
1E
100
AcDbEntity
  8
TEXT
100
AcDbText
 10
10.07714999999999
 20
2.10433333333334
 30
0.0
 40
0.281
  1
4.375
 41
0.75
 72
     4
 11
10.49865
 21
2.24483333333334
 31
0.0
100
AcDbText
  0
TEXT
  5
E45
330
1E
100
AcDbEntity
  8
TEXT
100
AcDbText
 10
10.12983749999999
 20
1.167666666666672
 30
0.0
 40
0.281
  1
7.000
 41
0.75
 72
     4
 11
10.49865
 21
1.308166666666672
 31
0.0
100
AcDbText
  0
TEXT
  5
E46
330
1E
100
AcDbEntity
  8
TEXT
100
AcDbText
 10
12.89367499999999
 20
1.167666666666672
 30
0.0
 40
0.281
  1
3.500
 41
0.75
 72
     4
 11
13.28005
 21
1.308166666666672
 31
0.0
100
AcDbText
  0
TEXT
  5
E47
330
1E
100
AcDbEntity
  8
TEXT
100
AcDbText
 10
12.8761125
 20
1.636000000000004
 30
0.0
 40
0.281
  1
2.805
 41
0.75
 72
     4
 11
13.28005
 21
1.776500000000004
 31
0.0
100
AcDbText
  0
TEXT
  5
E48
330
1E
100
AcDbEntity
  8
TEXT
100
AcDbText
 10
12.99904999999999
 20
2.104333333333339
 30
0.0
 40
0.281
  1
---
 41
0.75
 72
     4
 11
13.28005
 21
2.244833333333339
 31
0.0
100
AcDbText
  0
TEXT
  5
E49
330
1E
100
AcDbEntity
  8
TEXT
100
AcDbText
 10
12.99904999999999
 20
2.572666666666671
 30
0.0
 40
0.281
  1
---
 41
0.75
 72
     4
 11
13.28005
 21
2.71316666666667
 31
0.0
100
AcDbText
  0
TEXT
  5
E4A
330
1E
100
AcDbEntity
  8
TEXT
100
AcDbText
 10
15.675075
 20
1.636000000000004
 30
0.0
 40
0.281
  1
0.094
 41
0.75
 72
     4
 11
16.06145
 21
1.776500000000004
 31
0.0
100
AcDbText
  0
TEXT
  5
E4B
330
1E
100
AcDbEntity
  8
TEXT
100
AcDbText
 10
15.675075
 20
2.104333333333339
 30
0.0
 40
0.281
  1
0.094
 41
0.75
 72
     4
 11
16.06145
 21
2.244833333333339
 31
0.0
100
AcDbText
  0
TEXT
  5
E4C
330
1E
100
AcDbEntity
  8
TEXT
100
AcDbText
 10
15.675075
 20
1.167666666666672
 30
0.0
 40
0.281
  1
0.094
 41
0.75
 72
     4
 11
16.06145
 21
1.308166666666672
 31
0.0
100
AcDbText
  0
TEXT
  5
E4D
330
1E
100
AcDbEntity
  8
TEXT
100
AcDbText
 10
15.675075
 20
2.572666666666671
 30
0.0
 40
0.281
  1
0.094
 41
0.75
 72
     4
 11
16.06145
 21
2.71316666666667
 31
0.0
100
AcDbText
  0
TEXT
  5
E4E
330
1E
100
AcDbEntity
  8
TEXT
100
AcDbText
 10
17.06577499999998
 20
1.635999999999997
 30
0.0
 40
0.281
  1
0.078
 41
0.75
 72
     4
 11
17.45214999999999
 21
1.776499999999997
 31
0.0
100
AcDbText
  0
TEXT
  5
E4F
330
1E
100
AcDbEntity
  8
TEXT
100
AcDbText
 10
17.06577499999998
 20
2.104333333333332
 30
0.0
 40
0.281
  1
0.078
 41
0.75
 72
     4
 11
17.45214999999999
 21
2.244833333333331
 31
0.0
100
AcDbText
  0
TEXT
  5
E50
330
1E
100
AcDbEntity
  8
TEXT
100
AcDbText
 10
17.06577499999998
 20
1.167666666666665
 30
0.0
 40
0.281
  1
0.078
 41
0.75
 72
     4
 11
17.45214999999999
 21
1.308166666666666
 31
0.0
100
AcDbText
  0
TEXT
  5
E51
330
1E
100
AcDbEntity
  8
TEXT
100
AcDbText
 10
17.06577499999998
 20
2.572666666666663
 30
0.0
 40
0.281
  1
0.078
 41
0.75
 72
     4
 11
17.45214999999999
 21
2.713166666666663
 31
0.0
100
AcDbText
  0
TEXT
  5
E54
330
1E
100
AcDbEntity
  8
TEXT
100
AcDbText
 10
0.4391914972473129
 20
2.571666666666673
 30
0.0
 40
0.281
  1
CU-5474
 41
0.75
 72
     4
 11
1.141691497247312
 21
2.712166666666673
 31
0.0
100
AcDbText
  0
TEXT
  5
E5D
330
1E
100
AcDbEntity
  8
TEXT
100
AcDbText
 10
14.38975
 20
1.167666666666672
 30
0.0
 40
0.281
  1
---
 41
0.75
 72
     4
 11
14.67075
 21
1.308166666666672
 31
0.0
100
AcDbText
  0
TEXT
  5
E5E
330
1E
100
AcDbEntity
  8
TEXT
100
AcDbText
 10
14.24924999999999
 20
0.69933333333334
 30
0.0
 40
0.281
  1
3.555
 41
0.75
 72
     4
 11
14.67075
 21
0.8398333333333399
 31
0.0
100
AcDbText
  0
TEXT
  5
E5F
330
1E
100
AcDbEntity
  8
TEXT
100
AcDbText
 10
14.38975
 20
2.572666666666671
 30
0.0
 40
0.281
  1
---
 41
0.75
 72
     4
 11
14.67075
 21
2.71316666666667
 31
0.0
100
AcDbText
  0
TEXT
  5
E60
330
1E
100
AcDbEntity
  8
TEXT
100
AcDbText
 10
14.38975
 20
2.10433333333334
 30
0.0
 40
0.281
  1
---
 41
0.75
 72
     4
 11
14.67075
 21
2.24483333333334
 31
0.0
100
AcDbText
  0
TEXT
  5
E61
330
1E
100
AcDbEntity
  8
TEXT
100
AcDbText
 10
14.38975
 20
1.636000000000006
 30
0.0
 40
0.281
  1
---
 41
0.75
 72
     4
 11
14.67075
 21
1.776500000000006
 31
0.0
100
AcDbText
  0
TEXT
  5
E62
330
1E
100
AcDbEntity
  8
TEXT
100
AcDbText
 10
14.38975
 20
3.976333333333341
 30
0.0
 40
0.281
  1
---
 41
0.75
 72
     4
 11
14.67075
 21
4.116833333333341
 31
0.0
100
AcDbText
  0
TEXT
  5
E63
330
1E
100
AcDbEntity
  8
TEXT
100
AcDbText
 10
14.38975
 20
3.039666666666673
 30
0.0
 40
0.281
  1
---
 41
0.75
 72
     4
 11
14.67075
 21
3.180166666666673
 31
0.0
100
AcDbText
  0
TEXT
  5
E64
330
1E
100
AcDbEntity
  8
TEXT
100
AcDbText
 10
14.38975
 20
3.508000000000006
 30
0.0
 40
0.281
  1
---
 41
0.75
 72
     4
 11
14.67075
 21
3.648500000000006
 31
0.0
100
AcDbText
  0
TEXT
  5
E65
330
1E
100
AcDbEntity
  8
TEXT
100
AcDbText
 10
14.38975
 20
4.444666666666673
 30
0.0
 40
0.281
  1
---
 41
0.75
 72
     4
 11
14.67075
 21
4.585166666666673
 31
0.0
100
AcDbText
  0
TEXT
  5
E66
330
1E
100
AcDbEntity
  8
TEXT
100
AcDbText
 10
14.6005
 20
4.913000000000007
 30
0.0
 40
0.281
  1
H
 41
0.75
 72
     4
 11
14.67075
 21
5.053500000000007
 31
0.0
100
AcDbText
  0
TEXT
  5
EA0
330
1E
100
AcDbEntity
  8
TEXT
100
AcDbText
 10
18.77220000000002
 20
4.913000000000018
 30
0.0
 40
0.281
  1
L
 41
0.75
 72
     4
 11
18.84245000000002
 21
5.053500000000018
 31
0.0
100
AcDbText
  0
TEXT
  5
EA3
330
1E
100
AcDbEntity
  8
TEXT
100
AcDbText
 10
18.47363750000002
 20
4.444666666666681
 30
0.0
 40
0.281
  1
0.188
 41
0.75
 72
     4
 11
18.84245000000002
 21
4.585166666666681
 31
0.0
100
AcDbText
  0
TEXT
  5
EA4
330
1E
100
AcDbEntity
  8
TEXT
100
AcDbText
 10
18.47363750000002
 20
3.976333333333348
 30
0.0
 40
0.281
  1
0.188
 41
0.75
 72
     4
 11
18.84245000000002
 21
4.116833333333348
 31
0.0
100
AcDbText
  0
TEXT
  5
EA5
330
1E
100
AcDbEntity
  8
TEXT
100
AcDbText
 10
18.47363750000002
 20
3.508000000000015
 30
0.0
 40
0.281
  1
0.188
 41
0.75
 72
     4
 11
18.84245000000002
 21
3.648500000000014
 31
0.0
100
AcDbText
  0
TEXT
  5
EA6
330
1E
100
AcDbEntity
  8
TEXT
100
AcDbText
 10
18.47363750000002
 20
3.039666666666681
 30
0.0
 40
0.281
  1
0.188
 41
0.75
 72
     4
 11
18.84245000000002
 21
3.180166666666681
 31
0.0
100
AcDbText
  0
TEXT
  5
EA7
330
1E
100
AcDbEntity
  8
TEXT
100
AcDbText
 10
18.47363750000002
 20
2.571333333333346
 30
0.0
 40
0.281
  1
0.188
 41
0.75
 72
     4
 11
18.84245000000002
 21
2.711833333333346
 31
0.0
100
AcDbText
  0
TEXT
  5
EA8
330
1E
100
AcDbEntity
  8
TEXT
100
AcDbText
 10
18.47363750000002
 20
2.103000000000016
 30
0.0
 40
0.281
  1
0.188
 41
0.75
 72
     4
 11
18.84245000000002
 21
2.243500000000016
 31
0.0
100
AcDbText
  0
TEXT
  5
EA9
330
1E
100
AcDbEntity
  8
TEXT
100
AcDbText
 10
18.47363750000002
 20
1.634666666666681
 30
0.0
 40
0.281
  1
0.195
 41
0.75
 72
     4
 11
18.84245000000002
 21
1.775166666666681
 31
0.0
100
AcDbText
  0
TEXT
  5
EAA
330
1E
100
AcDbEntity
  8
TEXT
100
AcDbText
 10
18.47363750000002
 20
1.166333333333347
 30
0.0
 40
0.281
  1
0.195
 41
0.75
 72
     4
 11
18.84245000000002
 21
1.306833333333347
 31
0.0
100
AcDbText
  0
TEXT
  5
EAB
330
1E
100
AcDbEntity
  8
TEXT
100
AcDbText
 10
18.47363750000002
 20
0.6980000000000166
 30
0.0
 40
0.281
  1
0.195
 41
0.75
 72
     4
 11
18.84245000000002
 21
0.8385000000000164
 31
0.0
100
AcDbText
  0
TEXT
  5
F28
330
1E
100
AcDbEntity
  8
TEXT
100
AcDbText
 10
0.4391914972473129
 20
0.2323333333333396
 30
0.0
 40
0.281
  1
CU-5479
 41
0.75
 72
     4
 11
1.141691497247312
 21
0.3728333333333396
 31
0.0
100
AcDbText
  0
TEXT
  5
F29
330
1E
100
AcDbEntity
  8
TEXT
100
AcDbText
 10
4.507942983014125
 20
0.2323333333333396
 30
0.0
 40
0.281
  1
4.375
 41
0.75
 72
     4
 11
4.929442983014125
 21
0.3728333333333396
 31
0.0
100
AcDbText
  0
TEXT
  5
F2A
330
1E
100
AcDbEntity
  8
TEXT
100
AcDbText
 10
5.91850923536302
 20
0.2323333333333396
 30
0.0
 40
0.281
  1
2.375
 41
0.75
 72
     4
 11
6.34000923536302
 21
0.3728333333333396
 31
0.0
100
AcDbText
  0
TEXT
  5
F2B
330
1E
100
AcDbEntity
  8
TEXT
100
AcDbText
 10
7.359375000000002
 20
0.2323333333333396
 30
0.0
 40
0.281
  1
2.136
 41
0.75
 72
     4
 11
7.745750000000002
 21
0.3728333333333396
 31
0.0
100
AcDbText
  0
TEXT
  5
F2C
330
1E
100
AcDbEntity
  8
TEXT
100
AcDbText
 10
8.767637499999999
 20
0.2323333333333396
 30
0.0
 40
0.281
  1
1.980
 41
0.75
 72
     4
 11
9.136449999999999
 21
0.3728333333333396
 31
0.0
100
AcDbText
  0
TEXT
  5
F2D
330
1E
100
AcDbEntity
  8
TEXT
100
AcDbText
 10
10.12983749999999
 20
0.2323333333333413
 30
0.0
 40
0.281
  1
4.000
 41
0.75
 72
     4
 11
10.49865
 21
0.3728333333333413
 31
0.0
100
AcDbText
  0
TEXT
  5
F2E
330
1E
100
AcDbEntity
  8
TEXT
100
AcDbText
 10
11.54903749999999
 20
0.2323333333333396
 30
0.0
 40
0.281
  1
2.000
 41
0.75
 72
     4
 11
11.91785
 21
0.3728333333333396
 31
0.0
100
AcDbText
  0
TEXT
  5
F2F
330
1E
100
AcDbEntity
  8
TEXT
100
AcDbText
 10
12.99904999999999
 20
0.2323333333333396
 30
0.0
 40
0.281
  1
---
 41
0.75
 72
     4
 11
13.28005
 21
0.3728333333333396
 31
0.0
100
AcDbText
  0
TEXT
  5
F30
330
1E
100
AcDbEntity
  8
TEXT
100
AcDbText
 10
14.38975
 20
0.2323333333333413
 30
0.0
 40
0.281
  1
---
 41
0.75
 72
     4
 11
14.67075
 21
0.3728333333333413
 31
0.0
100
AcDbText
  0
TEXT
  5
F31
330
1E
100
AcDbEntity
  8
TEXT
100
AcDbText
 10
15.675075
 20
0.2323333333333396
 30
0.0
 40
0.281
  1
0.065
 41
0.75
 72
     4
 11
16.06145
 21
0.3728333333333396
 31
0.0
100
AcDbText
  0
TEXT
  5
F32
330
1E
100
AcDbEntity
  8
TEXT
100
AcDbText
 10
17.06577499999998
 20
0.2323333333333325
 30
0.0
 40
0.281
  1
0.078
 41
0.75
 72
     4
 11
17.45214999999999
 21
0.3728333333333325
 31
0.0
100
AcDbText
  0
TEXT
  5
F33
330
1E
100
AcDbEntity
  8
TEXT
100
AcDbText
 10
18.47363750000002
 20
0.2323333333333493
 30
0.0
 40
0.281
  1
0.188
 41
0.75
 72
     4
 11
18.84245000000002
 21
0.3728333333333493
 31
0.0
100
AcDbText
  0
LINE
  5
F34
330
1E
100
AcDbEntity
  8
TITLE
100
AcDbLine
 10
0.1394999999999964
 20
0.6075000000000072
 30
0.0
 11
23.88775
 21
0.6075000000000072
 31
0.0
  0
TEXT
  5
F41
330
1E
100
AcDbEntity
  8
TEXT
100
AcDbText
 10
2.45456649724731
 20
4.913000000000007
 30
0.0
 40
0.281
  1
PART NO.
 41
0.75
 72
     4
 11
3.19219149724731
 21
5.053500000000007
 31
0.0
100
AcDbText
  0
TEXT
  5
F42
330
1E
100
AcDbEntity
  8
TEXT
100
AcDbText
 10
2.29650399724731
 20
4.444666666666672
 30
0.0
 40
0.281
  1
CU-5470-B
 41
0.75
 72
     4
 11
3.19219149724731
 21
4.585166666666673
 31
0.0
100
AcDbText
  0
TEXT
  5
F43
330
1E
100
AcDbEntity
  8
TEXT
100
AcDbText
 10
2.31406649724731
 20
3.976333333333339
 30
0.0
 40
0.281
  1
CU-5471-B
 41
0.75
 72
     4
 11
3.19219149724731
 21
4.116833333333339
 31
0.0
100
AcDbText
  0
TEXT
  5
F44
330
1E
100
AcDbEntity
  8
TEXT
100
AcDbText
 10
2.27894149724731
 20
3.508000000000004
 30
0.0
 40
0.281
  1
CU-5472-B
 41
0.75
 72
     4
 11
3.19219149724731
 21
3.648500000000004
 31
0.0
100
AcDbText
  0
TEXT
  5
F45
330
1E
100
AcDbEntity
  8
TEXT
100
AcDbText
 10
2.27894149724731
 20
3.039666666666671
 30
0.0
 40
0.281
  1
CU-5473-B
 41
0.75
 72
     4
 11
3.19219149724731
 21
3.180166666666671
 31
0.0
100
AcDbText
  0
TEXT
  5
F46
330
1E
100
AcDbEntity
  8
TEXT
100
AcDbText
 10
2.27894149724731
 20
1.636333333333339
 30
0.0
 40
0.281
  1
CU-5476-B
 41
0.75
 72
     4
 11
3.19219149724731
 21
1.776833333333339
 31
0.0
100
AcDbText
  0
TEXT
  5
F47
330
1E
100
AcDbEntity
  8
TEXT
100
AcDbText
 10
2.27894149724731
 20
1.168000000000004
 30
0.0
 40
0.281
  1
CU-5477-B
 41
0.75
 72
     4
 11
3.19219149724731
 21
1.308500000000004
 31
0.0
100
AcDbText
  0
TEXT
  5
F48
330
1E
100
AcDbEntity
  8
TEXT
100
AcDbText
 10
2.27894149724731
 20
0.6996666666666738
 30
0.0
 40
0.281
  1
CU-5478-B
 41
0.75
 72
     4
 11
3.19219149724731
 21
0.8401666666666738
 31
0.0
100
AcDbText
  0
TEXT
  5
F49
330
1E
100
AcDbEntity
  8
TEXT
100
AcDbText
 10
2.27894149724731
 20
2.104666666666671
 30
0.0
 40
0.281
  1
CU-5475-B
 41
0.75
 72
     4
 11
3.19219149724731
 21
2.24516666666667
 31
0.0
100
AcDbText
  0
TEXT
  5
F4A
330
1E
100
AcDbEntity
  8
TEXT
100
AcDbText
 10
2.27894149724731
 20
2.571666666666673
 30
0.0
 40
0.281
  1
CU-5474-B
 41
0.75
 72
     4
 11
3.19219149724731
 21
2.712166666666673
 31
0.0
100
AcDbText
  0
TEXT
  5
F4B
330
1E
100
AcDbEntity
  8
TEXT
100
AcDbText
 10
2.27894149724731
 20
0.2323333333333396
 30
0.0
 40
0.281
  1
CU-5479-B
 41
0.75
 72
     4
 11
3.19219149724731
 21
0.3728333333333396
 31
0.0
100
AcDbText
  0
LWPOLYLINE
  5
F7E
330
1E
100
AcDbEntity
  8
BEND
100
AcDbPolyline
 90
        6
 70
     0
 10
5.129422481780121
 20
23.54418297864599
 40
0.0
 41
0.151875
 10
5.534422481780122
 20
23.54418297864599
 40
0.0
 41
0.0
 10
5.902152531857842
 20
23.54418297864599
 40
0.0
 41
0.0
 10
5.902152531857842
 20
28.77949329742813
 40
0.0
 41
0.0
 10
5.534422481780122
 20
28.77949329742813
 40
0.15
 41
0.0
 10
5.129422481780121
 20
28.77949329742813
 40
0.0
 41
0.0
  0
LWPOLYLINE
  5
F85
330
1E
100
AcDbEntity
  8
BEND
100
AcDbPolyline
 90
        6
 70
     0
 10
5.195338560332313
 20
8.798535521263648
 40
0.0
 41
0.151875
 10
5.600338560332316
 20
8.798535521263648
 40
0.0
 41
0.0
 10
5.968068610410036
 20
8.798535521263648
 40
0.0
 41
0.0
 10
5.968068610410036
 20
14.88604391251349
 40
0.0
 41
0.0
 10
5.600338560332316
 20
14.88604391251349
 40
0.15
 41
0.0
 10
5.195338560332313
 20
14.88604391251349
 40
0.0
 41
0.0
  0
LINE
  5
1B7E
330
1E
100
AcDbEntity
  8
TITLE
100
AcDbLine
 10
2.143882994494625
 20
5.287500000000008
 30
0.0
 11
2.143882994494625
 21
0.1395
 31
0.0
  0
LINE
  5
1B85
330
1E
100
AcDbEntity
  8
TITLE
100
AcDbLine
 10
18.1206719531631
 20
5.287500000000008
 30
0.0
 11
18.1206719531631
 21
0.1395
 31
0.0
  0
LINE
  5
1B86
330
1E
100
AcDbEntity
  8
TITLE
100
AcDbLine
 10
16.75679999999999
 20
5.287500000000008
 30
0.0
 11
16.75679999999999
 21
0.1395
 31
0.0
  0
LINE
  5
1B87
330
1E
100
AcDbEntity
  8
TITLE
100
AcDbLine
 10
15.36609999999999
 20
5.287500000000008
 30
0.0
 11
15.36609999999999
 21
0.1395
 31
0.0
  0
LINE
  5
1B88
330
1E
100
AcDbEntity
  8
TITLE
100
AcDbLine
 10
13.97539999999999
 20
5.287500000000008
 30
0.0
 11
13.97539999999999
 21
0.1395
 31
0.0
  0
LINE
  5
1B89
330
1E
100
AcDbEntity
  8
TITLE
100
AcDbLine
 10
12.58469999999999
 20
5.287500000000008
 30
0.0
 11
12.58469999999999
 21
0.1395
 31
0.0
  0
LINE
  5
1B8A
330
1E
100
AcDbEntity
  8
TITLE
100
AcDbLine
 10
11.19399999999999
 20
5.287500000000006
 30
0.0
 11
11.19399999999999
 21
0.1395
 31
0.0
  0
LINE
  5
1B8B
330
1E
100
AcDbEntity
  8
TITLE
100
AcDbLine
 10
9.803299999999994
 20
5.287500000000008
 30
0.0
 11
9.803299999999996
 21
0.1395
 31
0.0
  0
LINE
  5
1B8C
330
1E
100
AcDbEntity
  8
TITLE
100
AcDbLine
 10
8.412599999999997
 20
5.287500000000008
 30
0.0
 11
8.412599999999995
 21
0.1395
 31
0.0
  0
LINE
  5
1B8D
330
1E
100
AcDbEntity
  8
TITLE
100
AcDbLine
 10
7.021899999999996
 20
5.287500000000008
 30
0.0
 11
7.021899999999996
 21
0.1395
 31
0.0
  0
LINE
  5
1B8E
330
1E
100
AcDbEntity
  8
TITLE
100
AcDbLine
 10
5.781751122831277
 20
5.287500000000008
 30
0.0
 11
5.781751122831276
 21
0.1395
 31
0.0
  0
LINE
  5
1B8F
330
1E
100
AcDbEntity
  8
TITLE
100
AcDbLine
 10
4.240499999999995
 20
5.287500000000008
 30
0.0
 11
4.240499999999995
 21
0.1395
 31
0.0
  0
TEXT
  5
1BB3
330
1E
100
AcDbEntity
  8
TEXT
100
AcDbText
 10
11.93942797901533
 20
35.980875
 30
0.0
 40
0.375
  1
CU-5470 TO CU-5479 & CU-5470-B TO CU-5479-B
 41
0.4684483654439483
 72
     5
 11
19.376045780438
 21
35.980875
 31
0.0
100
AcDbText
  0
TEXT
  5
1D14
330
1E
100
AcDbEntity
  8
TEXT
100
AcDbText
 10
13.85227511884086
 20
20.08747345902452
 30
0.0
 40
0.281
  1
SMOOTH BLACK (SUFFIX -B)
 41
0.75
100
AcDbText
  0
LINE
  5
1D7C
330
1E
100
AcDbEntity
  8
Cover
100
AcDbLine
 10
9.474593666509688
 20
24.39691749307785
 30
0.0
 11
9.474593666509688
 21
28.04191749307785
 31
0.0
  0
LINE
  5
1D7E
330
1E
100
AcDbEntity
  8
Cover
100
AcDbLine
 10
4.72459366650969
 20
28.04191749307785
 30
0.0
 11
4.72459366650969
 21
24.39691749307785
 31
0.0
  0
LINE
  5
1D82
330
1E
100
AcDbEntity
  8
Cover
100
AcDbLine
 10
4.301093666509689
 20
23.84441749307784
 30
0.0
 11
9.898093666509693
 21
23.84441749307784
 31
0.0
  0
LINE
  5
1D83
330
1E
100
AcDbEntity
  8
Cover
100
AcDbLine
 10
4.301093666509689
 20
28.59441749307784
 30
0.0
 11
9.898093666509693
 21
28.59441749307785
 31
0.0
  0
LINE
  5
1D84
330
1E
100
AcDbEntity
  8
Cover
100
AcDbLine
 10
4.238593666509689
 20
23.90691749307785
 30
0.0
 11
4.238593666509689
 21
24.14691749307785
 31
0.0
  0
LINE
  5
1D85
330
1E
100
AcDbEntity
  8
Cover
100
AcDbLine
 10
4.301093666509689
 20
24.20941749307784
 30
0.0
 11
4.53709366650969
 21
24.20941749307785
 31
0.0
  0
LINE
  5
1D86
330
1E
100
AcDbEntity
  8
Cover
100
AcDbLine
 10
9.960593666509693
 20
23.90691749307785
 30
0.0
 11
9.960593666509693
 21
24.14691749307785
 31
0.0
  0
LINE
  5
1D87
330
1E
100
AcDbEntity
  8
Cover
100
AcDbLine
 10
9.898093666509693
 20
24.20941749307785
 30
0.0
 11
9.662093666509688
 21
24.20941749307785
 31
0.0
  0
LINE
  5
1D88
330
1E
100
AcDbEntity
  8
Cover
100
AcDbLine
 10
9.960593666509693
 20
28.53191749307784
 30
0.0
 11
9.960593666509693
 21
28.29191749307786
 31
0.0
  0
LINE
  5
1D89
330
1E
100
AcDbEntity
  8
Cover
100
AcDbLine
 10
9.898093666509693
 20
28.22941749307786
 30
0.0
 11
9.662093666509688
 21
28.22941749307785
 31
0.0
  0
LINE
  5
1D8A
330
1E
100
AcDbEntity
  8
Cover
100
AcDbLine
 10
4.238593666509689
 20
28.53191749307784
 30
0.0
 11
4.238593666509689
 21
28.29191749307785
 31
0.0
  0
LINE
  5
1D8B
330
1E
100
AcDbEntity
  8
Cover
100
AcDbLine
 10
4.301093666509689
 20
28.22941749307785
 30
0.0
 11
4.53709366650969
 21
28.22941749307785
 31
0.0
  0
ARC
  5
1D8C
330
1E
100
AcDbEntity
  8
Cover
100
AcDbCircle
 10
4.53709366650969
 20
28.04191749307785
 30
0.0
 40
0.1875
100
AcDbArc
 50
0.0
 51
90.0
  0
ARC
  5
1D8D
330
1E
100
AcDbEntity
  8
Cover
100
AcDbCircle
 10
4.53709366650969
 20
24.39691749307785
 30
0.0
 40
0.1875
100
AcDbArc
 50
270.0
 51
0.0000000000000127
  0
ARC
  5
1D8E
330
1E
100
AcDbEntity
  8
Cover
100
AcDbCircle
 10
9.662093666509688
 20
24.39691749307785
 30
0.0
 40
0.1875
100
AcDbArc
 50
180.0
 51
270.0
  0
ARC
  5
1D8F
330
1E
100
AcDbEntity
  8
Cover
100
AcDbCircle
 10
9.662093666509688
 20
28.04191749307785
 30
0.0
 40
0.1875
100
AcDbArc
 50
90.0
 51
180.0
  0
ARC
  5
1D90
330
1E
100
AcDbEntity
  8
Cover
100
AcDbCircle
 10
4.301093666509689
 20
24.14691749307785
 30
0.0
 40
0.0625
100
AcDbArc
 50
90.00000000000067
 51
180.0
  0
ARC
  5
1D91
330
1E
100
AcDbEntity
  8
Cover
100
AcDbCircle
 10
4.301093666509689
 20
23.90691749307785
 30
0.0
 40
0.0625
100
AcDbArc
 50
179.9999999999999
 51
270.0
  0
ARC
  5
1D92
330
1E
100
AcDbEntity
  8
Cover
100
AcDbCircle
 10
9.898093666509693
 20
23.90691749307785
 30
0.0
 40
0.0625
100
AcDbArc
 50
270.0
 51
0.0
  0
ARC
  5
1D93
330
1E
100
AcDbEntity
  8
Cover
100
AcDbCircle
 10
9.898093666509693
 20
24.14691749307785
 30
0.0
 40
0.0625
100
AcDbArc
 50
0.0
 51
90.0
  0
ARC
  5
1D94
330
1E
100
AcDbEntity
  8
Cover
100
AcDbCircle
 10
9.898093666509693
 20
28.29191749307786
 30
0.0
 40
0.0625
100
AcDbArc
 50
270.0
 51
0.0
  0
ARC
  5
1D95
330
1E
100
AcDbEntity
  8
Cover
100
AcDbCircle
 10
9.898093666509693
 20
28.53191749307784
 30
0.0
 40
0.0625
100
AcDbArc
 50
0.0
 51
90.0
  0
ARC
  5
1D96
330
1E
100
AcDbEntity
  8
Cover
100
AcDbCircle
 10
4.301093666509689
 20
28.53191749307784
 30
0.0
 40
0.0625
100
AcDbArc
 50
90.0
 51
180.0
  0
ARC
  5
1D97
330
1E
100
AcDbEntity
  8
Cover
100
AcDbCircle
 10
4.301093666509689
 20
28.29191749307785
 30
0.0
 40
0.0625
100
AcDbArc
 50
180.0
 51
269.9999999999985
  0
CIRCLE
  5
1DA5
330
1E
100
AcDbEntity
  8
Cover
100
AcDbCircle
 10
4.490593666509691
 20
28.40691749307785
 30
0.0
 40
0.075
  0
CIRCLE
  5
1DA6
330
1E
100
AcDbEntity
  8
Cover
100
AcDbCircle
 10
4.490593666509691
 20
24.03191749307785
 30
0.0
 40
0.075
  0
CIRCLE
  5
1DA7
330
1E
100
AcDbEntity
  8
Cover
100
AcDbCircle
 10
9.708593666509694
 20
28.40691749307785
 30
0.0
 40
0.075
  0
CIRCLE
  5
1DA8
330
1E
100
AcDbEntity
  8
Cover
100
AcDbCircle
 10
9.708593666509694
 20
24.03191749307785
 30
0.0
 40
0.075
  0
DIMENSION
  5
2086
330
1E
100
AcDbEntity
  8
DIM
100
AcDbDimension
  2
*D25
 10
9.474593666509688
 20
31.15160859008971
 30
0.0
 11
6.856593666509687
 21
31.15160859008971
 31
0.0
 70
   160
  1
P
 71
     5
 42
5.235999999999998
  3
23NSTD
100
AcDbAlignedDimension
 13
4.238593666509689
 23
28.53191749307784
 33
0.0
 14
9.474593666509688
 24
28.04191749307785
 34
0.0
100
AcDbRotatedDimension
  0
DIMENSION
  5
2094
330
1E
100
AcDbEntity
  8
DIM
100
AcDbDimension
  2
*D26
 10
4.490593666509688
 20
30.46244618525769
 30
0.0
 11
2.687031166509689
 21
30.46244618525769
 31
0.0
 70
   160
 71
     5
 42
0.2519999999999989
  3
23NSTD
100
AcDbAlignedDimension
 13
4.238593666509689
 23
28.53191749307784
 33
0.0
 14
4.490593666509688
 24
28.40691749307785
 34
0.0
100
AcDbRotatedDimension
  0
DIMENSION
  5
20D4
330
1E
100
AcDbEntity
  8
DIM
100
AcDbDimension
  2
*D27
 10
1.228007247800216
 20
24.03191749307785
 30
0.0
 11
1.228007247800212
 21
26.28893766870898
 31
0.0
 70
   160
  1
N
 71
     5
 42
4.375
  3
23NSTD
100
AcDbAlignedDimension
 13
4.490593666509688
 23
28.40691749307785
 33
0.0
 14
4.490593666509688
 24
24.03191749307785
 34
0.0
 50
90.0
100
AcDbRotatedDimension
  0
DIMENSION
  5
20F0
330
1E
100
AcDbEntity
  8
DIM
100
AcDbDimension
  2
*D28
 10
9.708593666509694
 20
23.11519762210292
 30
0.0
 11
7.099593666509691
 21
23.11519762210292
 31
0.0
 70
   160
  1
M
 71
     5
 42
5.218000000000005
  3
23NSTD
100
AcDbAlignedDimension
 13
4.490593666509688
 23
24.03191749307785
 33
0.0
 14
9.708593666509694
 24
24.03191749307785
 34
0.0
100
AcDbRotatedDimension
  0
DIMENSION
  5
2131
330
1E
100
AcDbEntity
  8
DIM
100
AcDbDimension
  2
*D29
 10
3.701080234736912
 20
23.84441749307784
 30
0.0
 11
2.689283359736908
 21
23.03441749307784
 31
0.0
 70
    32
 71
     5
 42
0.3649999999999984
  3
23NSTD
100
AcDbAlignedDimension
 13
4.301093666509689
 23
24.20941749307784
 33
0.0
 14
4.301093666509689
 24
23.84441749307784
 34
0.0
 50
90.0
100
AcDbRotatedDimension
  0
DIMENSION
  5
2140
330
1E
100
AcDbEntity
  8
DIM
100
AcDbDimension
  2
*D30
 10
4.50703674864867
 20
28.48009279662879
 30
0.0
 11
2.699130818279657
 21
27.51870801654043
 31
0.0
 70
   163
  1
<> THRU
 71
     5
 42
0.1500000000000234
  3
23NSTD
100
AcDbDiametricDimension
 15
4.474150584370738
 25
28.3337421895269
 35
0.0
 40
0.0
1001
ACAD
1000
DSTYLE
1002
{
1070
   340
1005
11
1070
   141
1040
0.0
1002
}
  0
DIMENSION
  5
216E
330
1E
100
AcDbEntity
  8
DIM
100
AcDbDimension
  2
*D31
 10
4.537093666509688
 20
24.39691749307787
 30
0.0
 11
4.156374407463641
 21
25.50317698516526
 31
0.0
 70
   164
 71
     5
 42
0.1875000000000249
  3
23NSTD
100
AcDbRadialDimension
 15
4.598109550467988
 25
24.2196230715503
 35
0.0
 40
0.0
1001
ACAD
1000
DSTYLE
1002
{
1070
   279
1070
     1
1002
}
  0
LINE
  5
2523
330
1E
100
AcDbEntity
  8
TITLE
100
AcDbLine
 10
19.53819999999998
 20
5.287500000000008
 30
0.0
 11
19.5382
 21
0.1395
 31
0.0
  0
LINE
  5
257E
330
1E
100
AcDbEntity
  8
TITLE
100
AcDbLine
 10
20.92889999999998
 20
5.287500000000008
 30
0.0
 11
20.9289
 21
0.1395
 31
0.0
  0
LINE
  5
257F
330
1E
100
AcDbEntity
  8
TITLE
100
AcDbLine
 10
22.31959999999999
 20
5.287500000000008
 30
0.0
 11
22.31959999999999
 21
0.1395
 31
0.0
  0
TEXT
  5
2593
330
1E
100
AcDbEntity
  8
TEXT
100
AcDbText
 10
19.81205
 20
0.2323333333333413
 30
0.0
 40
0.281
  1
2.844
 41
0.75
 72
     4
 11
20.23355
 21
0.3728333333333413
 31
0.0
100
AcDbText
  0
TEXT
  5
2594
330
1E
100
AcDbEntity
  8
TEXT
100
AcDbText
 10
19.81205
 20
0.69933333333334
 30
0.0
 40
0.281
  1
7.968
 41
0.75
 72
     4
 11
20.23355
 21
0.8398333333333399
 31
0.0
100
AcDbText
  0
TEXT
  5
2595
330
1E
100
AcDbEntity
  8
TEXT
100
AcDbText
 10
19.847175
 20
1.167666666666672
 30
0.0
 40
0.281
  1
5.172
 41
0.75
 72
     4
 11
20.23355
 21
1.308166666666672
 31
0.0
100
AcDbText
  0
TEXT
  5
2596
330
1E
100
AcDbEntity
  8
TEXT
100
AcDbText
 10
19.847175
 20
1.636000000000006
 30
0.0
 40
0.281
  1
3.718
 41
0.75
 72
     4
 11
20.23355
 21
1.776500000000006
 31
0.0
100
AcDbText
  0
TEXT
  5
2597
330
1E
100
AcDbEntity
  8
TEXT
100
AcDbText
 10
19.847175
 20
2.10433333333334
 30
0.0
 40
0.281
  1
5.218
 41
0.75
 72
     4
 11
20.23355
 21
2.24483333333334
 31
0.0
100
AcDbText
  0
TEXT
  5
2598
330
1E
100
AcDbEntity
  8
TEXT
100
AcDbText
 10
19.847175
 20
2.572666666666674
 30
0.0
 40
0.281
  1
5.218
 41
0.75
 72
     4
 11
20.23355
 21
2.713166666666674
 31
0.0
100
AcDbText
  0
TEXT
  5
2599
330
1E
100
AcDbEntity
  8
TEXT
100
AcDbText
 10
19.847175
 20
3.039666666666673
 30
0.0
 40
0.281
  1
4.156
 41
0.75
 72
     4
 11
20.23355
 21
3.180166666666673
 31
0.0
100
AcDbText
  0
TEXT
  5
259A
330
1E
100
AcDbEntity
  8
TEXT
100
AcDbText
 10
19.847175
 20
3.508000000000006
 30
0.0
 40
0.281
  1
3.618
 41
0.75
 72
     4
 11
20.23355
 21
3.648500000000006
 31
0.0
100
AcDbText
  0
TEXT
  5
259B
330
1E
100
AcDbEntity
  8
TEXT
100
AcDbText
 10
19.847175
 20
3.976333333333341
 30
0.0
 40
0.281
  1
3.718
 41
0.75
 72
     4
 11
20.23355
 21
4.116833333333341
 31
0.0
100
AcDbText
  0
TEXT
  5
259C
330
1E
100
AcDbEntity
  8
TEXT
100
AcDbText
 10
19.81205
 20
4.444666666666673
 30
0.0
 40
0.281
  1
2.468
 41
0.75
 72
     4
 11
20.23355
 21
4.585166666666673
 31
0.0
100
AcDbText
  0
TEXT
  5
259E
330
1E
100
AcDbEntity
  8
TEXT
100
AcDbText
 10
21.25543749999999
 20
0.2323333333333413
 30
0.0
 40
0.281
  1
4.000
 41
0.75
 72
     4
 11
21.62425
 21
0.3728333333333413
 31
0.0
100
AcDbText
  0
TEXT
  5
259F
330
1E
100
AcDbEntity
  8
TEXT
100
AcDbText
 10
21.2905625
 20
0.69933333333334
 30
0.0
 40
0.281
  1
7.110
 41
0.75
 72
     4
 11
21.62425
 21
0.8398333333333399
 31
0.0
100
AcDbText
  0
TEXT
  5
25A0
330
1E
100
AcDbEntity
  8
TEXT
100
AcDbText
 10
21.25543749999999
 20
1.167666666666672
 30
0.0
 40
0.281
  1
7.000
 41
0.75
 72
     4
 11
21.62425
 21
1.308166666666672
 31
0.0
100
AcDbText
  0
TEXT
  5
25A1
330
1E
100
AcDbEntity
  8
TEXT
100
AcDbText
 10
21.2203125
 20
1.636000000000006
 30
0.0
 40
0.281
  1
5.604
 41
0.75
 72
     4
 11
21.62425
 21
1.776500000000006
 31
0.0
100
AcDbText
  0
TEXT
  5
25A2
330
1E
100
AcDbEntity
  8
TEXT
100
AcDbText
 10
21.20275
 20
2.10433333333334
 30
0.0
 40
0.281
  1
4.375
 41
0.75
 72
     4
 11
21.62425
 21
2.24483333333334
 31
0.0
100
AcDbText
  0
TEXT
  5
25A3
330
1E
100
AcDbEntity
  8
TEXT
100
AcDbText
 10
21.20275
 20
2.572666666666674
 30
0.0
 40
0.281
  1
4.375
 41
0.75
 72
     4
 11
21.62425
 21
2.713166666666674
 31
0.0
100
AcDbText
  0
TEXT
  5
25A4
330
1E
100
AcDbEntity
  8
TEXT
100
AcDbText
 10
21.237875
 20
3.039666666666673
 30
0.0
 40
0.281
  1
4.312
 41
0.75
 72
     4
 11
21.62425
 21
3.180166666666673
 31
0.0
100
AcDbText
  0
TEXT
  5
25A5
330
1E
100
AcDbEntity
  8
TEXT
100
AcDbText
 10
21.20275
 20
3.508000000000006
 30
0.0
 40
0.281
  1
4.374
 41
0.75
 72
     4
 11
21.62425
 21
3.648500000000006
 31
0.0
100
AcDbText
  0
TEXT
  5
25A6
330
1E
100
AcDbEntity
  8
TEXT
100
AcDbText
 10
21.20274999999999
 20
3.976333333333341
 30
0.0
 40
0.281
  1
3.954
 41
0.75
 72
     4
 11
21.62425
 21
4.116833333333341
 31
0.0
100
AcDbText
  0
TEXT
  5
25A7
330
1E
100
AcDbEntity
  8
TEXT
100
AcDbText
 10
21.237875
 20
4.444666666666673
 30
0.0
 40
0.281
  1
1.625
 41
0.75
 72
     4
 11
21.62425
 21
4.585166666666673
 31
0.0
100
AcDbText
  0
TEXT
  5
25B2
330
1E
100
AcDbEntity
  8
TEXT
100
AcDbText
 10
22.57904999999998
 20
0.2323333333333413
 30
0.0
 40
0.281
  1
2.862
 41
0.75
 72
     4
 11
23.00054999999999
 21
0.3728333333333413
 31
0.0
100
AcDbText
  0
TEXT
  5
25B3
330
1E
100
AcDbEntity
  8
TEXT
100
AcDbText
 10
22.57904999999998
 20
0.69933333333334
 30
0.0
 40
0.281
  1
7.986
 41
0.75
 72
     4
 11
23.00054999999999
 21
0.8398333333333399
 31
0.0
100
AcDbText
  0
TEXT
  5
25B4
330
1E
100
AcDbEntity
  8
TEXT
100
AcDbText
 10
22.63173749999999
 20
1.167666666666672
 30
0.0
 40
0.281
  1
5.190
 41
0.75
 72
     4
 11
23.00054999999999
 21
1.308166666666672
 31
0.0
100
AcDbText
  0
TEXT
  5
25B5
330
1E
100
AcDbEntity
  8
TEXT
100
AcDbText
 10
22.57904999999998
 20
1.636000000000006
 30
0.0
 40
0.281
  1
3.736
 41
0.75
 72
     4
 11
23.00054999999999
 21
1.776500000000006
 31
0.0
100
AcDbText
  0
TEXT
  5
25B6
330
1E
100
AcDbEntity
  8
TEXT
100
AcDbText
 10
22.57904999999998
 20
2.572666666666674
 30
0.0
 40
0.281
  1
5.236
 41
0.75
 72
     4
 11
23.00054999999999
 21
2.713166666666674
 31
0.0
100
AcDbText
  0
TEXT
  5
25B7
330
1E
100
AcDbEntity
  8
TEXT
100
AcDbText
 10
22.61417499999998
 20
3.039666666666673
 30
0.0
 40
0.281
  1
4.174
 41
0.75
 72
     4
 11
23.00054999999999
 21
3.180166666666673
 31
0.0
100
AcDbText
  0
TEXT
  5
25B8
330
1E
100
AcDbEntity
  8
TEXT
100
AcDbText
 10
22.57904999999998
 20
2.10433333333334
 30
0.0
 40
0.281
  1
5.236
 41
0.75
 72
     4
 11
23.00054999999999
 21
2.24483333333334
 31
0.0
100
AcDbText
  0
TEXT
  5
25B9
330
1E
100
AcDbEntity
  8
TEXT
100
AcDbText
 10
22.57904999999998
 20
3.976333333333341
 30
0.0
 40
0.281
  1
3.736
 41
0.75
 72
     4
 11
23.00054999999999
 21
4.116833333333341
 31
0.0
100
AcDbText
  0
TEXT
  5
25BA
330
1E
100
AcDbEntity
  8
TEXT
100
AcDbText
 10
22.57904999999998
 20
4.444666666666673
 30
0.0
 40
0.281
  1
2.486
 41
0.75
 72
     4
 11
23.00054999999999
 21
4.585166666666673
 31
0.0
100
AcDbText
  0
TEXT
  5
25BB
330
1E
100
AcDbEntity
  8
TEXT
100
AcDbText
 10
22.57904999999998
 20
3.508000000000006
 30
0.0
 40
0.281
  1
3.636
 41
0.75
 72
     4
 11
23.00054999999999
 21
3.648500000000006
 31
0.0
100
AcDbText
  0
TEXT
  5
25BD
330
1E
100
AcDbEntity
  8
TEXT
100
AcDbText
 10
20.16329999999999
 20
4.913000000000011
 30
0.0
 40
0.281
  1
M
 41
0.75
 72
     4
 11
20.23355
 21
5.053500000000012
 31
0.0
100
AcDbText
  0
TEXT
  5
25BF
330
1E
100
AcDbEntity
  8
TEXT
100
AcDbText
 10
21.55399999999999
 20
4.913000000000011
 30
0.0
 40
0.281
  1
N
 41
0.75
 72
     4
 11
21.62425
 21
5.053500000000012
 31
0.0
100
AcDbText
  0
TEXT
  5
25C0
330
1E
100
AcDbEntity
  8
TEXT
100
AcDbText
 10
22.93029999999999
 20
4.913000000000011
 30
0.0
 40
0.281
  1
P
 41
0.75
 72
     4
 11
23.00054999999999
 21
5.053500000000012
 31
0.0
100
AcDbText
  0
LINE
  5
25E3
330
1E
100
AcDbEntity
  8
TITLE
100
AcDbLine
 10
0.1394999999999964
 20
4.819500000000005
 30
0.0
 11
23.88775
 21
4.819500000000005
 31
0.0
  0
CIRCLE
  5
25F7
330
1E
100
AcDbEntity
  8
Cover
100
AcDbCircle
 10
4.490593666509691
 20
28.40691749307785
 30
0.0
 40
0.1325
  0
CIRCLE
  5
25F8
330
1E
100
AcDbEntity
  8
Cover
100
AcDbCircle
 10
9.708593666509694
 20
28.40691749307785
 30
0.0
 40
0.1325
  0
CIRCLE
  5
25F9
330
1E
100
AcDbEntity
  8
Cover
100
AcDbCircle
 10
9.708593666509694
 20
24.03191749307785
 30
0.0
 40
0.1325
  0
CIRCLE
  5
25FA
330
1E
100
AcDbEntity
  8
Cover
100
AcDbCircle
 10
4.490593666509691
 20
24.03191749307785
 30
0.0
 40
0.1325
  0
MTEXT
  5
265E
330
1E
100
AcDbEntity
  8
DIM
100
AcDbMText
 10
1.415241121326209
 20
27.14633526409121
 30
0.0
 40
0.281
 41
3.142854983272627
 71
     1
 72
     5
  1
(4) C-SINK HOLES
 73
     1
 44
1.0
  0
HATCH
  5
29A9
330
1E
100
AcDbEntity
  8
OBJECT
100
AcDbHatch
 10
0.0
 20
0.0
 30
0.0
210
0.0
220
0.0
230
1.0
  2
ANSI31
 70
     0
 71
     1
 91
        1
 92
        7
 72
     1
 73
     1
 93
       12
 10
20.50743145867556
 20
11.55328971688855
 42
0.0
 10
20.41362431389756
 20
11.55328971688855
 42
0.0
 10
20.34643479020063
 20
9.629233498344651
 42
-0.4040262258351569
 10
20.28397286351192
 20
9.568914716888556
 42
0.0
 10
15.98039005383922
 20
9.568914716888556
 42
-0.4040262258351488
 10
15.91792812715052
 20
9.62923349834465
 42
0.0
 10
15.85073860345359
 20
11.55328971688855
 42
0.0
 10
15.75693145867558
 20
11.55328971688855
 42
0.0
 10
15.8247427892258
 20
9.611427279800746
 42
0.4040262258351608
 10
15.94966664260319
 20
9.490789716888556
 42
0.0
 10
20.31469627474796
 20
9.490789716888556
 42
0.4040262258351736
 10
20.43962012812535
 20
9.611427279800743
 42
0.0
 97
       12
330
286
330
288
330
299
330
295
330
297
330
287
330
29B
330
283
330
28A
330
284
330
289
330
285
 75
     0
 76
     1
 52
0.0
 41
0.75
 77
     0
 78
     1
 53
45.0
 43
-0.1799686025274028
 44
-2.324283493345606
 45
-0.0662912607362388
 46
0.0662912607362388
 79
     0
 47
0.0064877282369104
 98
        1
 10
20.40797334517749
 20
9.946614306144548
  0
LINE
  5
2AAE
330
1E
100
AcDbEntity
  8
OBJECT
100
AcDbLine
 10
17.99628824885346
 20
28.09327338219562
 30
0.0
 11
18.19957615298932
 21
28.21064170837146
 31
0.0
  0
LINE
  5
2AAF
330
1E
100
AcDbEntity
  8
OBJECT
100
AcDbLine
 10
17.99628824885346
 20
27.97627338219562
 30
0.0
 11
18.19957615298932
 21
28.09364170837146
 31
0.0
  0
LINE
  5
2AB1
330
1E
100
AcDbEntity
  8
OBJECT
100
AcDbLine
 10
18.19957615298932
 20
28.25483588219562
 30
0.0
 11
18.11555733318864
 21
28.30334417042454
 31
0.0
  0
LINE
  5
2AB2
330
1E
100
AcDbEntity
  8
OBJECT
100
AcDbLine
 10
14.47006997748433
 20
30.15141031399933
 30
0.0
 11
14.65510943958933
 21
30.25824289725635
 31
0.0
  0
LINE
  5
2AB3
330
1E
100
AcDbEntity
  8
OBJECT
100
AcDbLine
 10
14.72174775144193
 20
30.26276104602434
 30
0.0
 11
14.83061719186837
 21
30.19990524528761
 31
0.0
  0
LINE
  5
2AB5
330
1E
100
AcDbEntity
  8
OBJECT
100
AcDbLine
 10
17.56636552738735
 20
31.92060103351648
 30
0.0
 11
17.36307762325151
 21
31.80323270734065
 31
0.0
  0
LINE
  5
2AB8
330
1E
100
AcDbEntity
  8
OBJECT
100
AcDbLine
 10
17.36307762325151
 20
31.64203853351651
 30
0.0
 11
17.44709644305213
 21
31.59353024528762
 31
0.0
  0
LINE
  5
2ABA
330
1E
100
AcDbEntity
  8
OBJECT
100
AcDbLine
 10
17.36307762325151
 20
31.7590385335165
 30
0.0
 11
17.44709644305213
 21
31.71053024528762
 31
0.0
  0
LINE
  5
2ABC
330
1E
100
AcDbEntity
  8
OBJECT
100
AcDbLine
 10
20.83203907188301
 20
29.75623270734065
 30
0.0
 11
20.73203658437239
 21
29.81396917042454
 31
0.0
  0
LINE
  5
2ABF
330
1E
100
AcDbEntity
  8
OBJECT
100
AcDbLine
 10
20.83203907188301
 20
29.63923270734066
 30
0.0
 11
20.73203658437239
 21
29.69696917042455
 31
0.0
  0
ELLIPSE
  5
2ACC
330
1E
100
AcDbEntity
  8
OBJECT
100
AcDbEllipse
 10
17.40135090048249
 20
31.78113562042857
 30
0.0
 11
-0.0541265877365262
 21
0.0
 31
0.0
210
0.0
220
0.0
230
1.0
 40
0.5773502691896386
 41
5.497787143782117
 42
7.068583470577007
  0
ELLIPSE
  5
2AD2
330
1E
100
AcDbEntity
  8
OBJECT
100
AcDbEllipse
 10
18.16130287575834
 20
28.11573879528353
 30
0.0
 11
0.0541265877365262
 21
0.0000000000000015
 31
0.0
210
0.0
220
0.0
230
1.0
 40
0.5773502691896965
 41
-0.7853981633974053
 42
-0.0000000000000484
  0
ELLIPSE
  5
2ADA
330
1E
100
AcDbEntity
  8
OBJECT
100
AcDbEllipse
 10
17.60463880461833
 20
31.89850394660441
 30
0.0
 11
-0.0541265877365262
 21
0.0
 31
0.0
210
0.0
220
0.0
230
1.0
 40
0.5773502691896386
 41
3.926990816987214
 42
5.497787143782117
  0
ELLIPSE
  5
2ADF
330
1E
100
AcDbEntity
  8
OBJECT
100
AcDbEllipse
 10
17.95801497162248
 20
27.9983704691077
 30
0.0
 11
-0.0541265877365262
 21
0.0
 31
0.0
210
0.0
220
0.0
230
1.0
 40
0.5773502691896386
 41
0.7853981633974226
 42
2.356194490192371
  0
ELLIPSE
  5
2AE0
330
1E
100
AcDbEntity
  8
OBJECT
100
AcDbEllipse
 10
21.07360025324986
 20
29.89569812042857
 30
0.0
 11
-0.0541265877365262
 21
0.0
 31
0.0
210
0.0
220
0.0
230
1.0
 40
0.5773502691896386
 41
2.356194490192371
 42
3.926990816987214
  0
LINE
  5
2AE3
330
1E
100
AcDbEntity
  8
OBJECT
100
AcDbLine
 10
18.21542946349485
 20
28.2327387952838
 30
0.0
 11
18.21542946349485
 21
28.11573879528379
 31
0.0
  0
ELLIPSE
  5
2AE7
330
1E
100
AcDbEntity
  8
OBJECT
100
AcDbEllipse
 10
17.96802839035373
 20
28.22695754528353
 30
0.0
 11
-0.0649519052838343
 21
0.0
 31
0.0
210
0.0
220
0.0
230
1.0
 40
0.5773502691895805
 41
0.0
 42
6.283185307179585
  0
ELLIPSE
  5
2AF7
330
1E
100
AcDbEntity
  8
OBJECT
100
AcDbEllipse
 10
18.23068335109946
 20
28.36981220785606
 30
0.0
 11
-0.1628127759114761
 21
0.0
 31
0.0
210
0.0
220
0.0
230
1.0
 40
0.5773502691896063
 41
-0.7853981633974473
 42
0.7853981633974471
  0
ELLIPSE
  5
2AFA
330
1E
100
AcDbEntity
  8
OBJECT
100
AcDbEllipse
 10
17.33197042514131
 20
31.64406220785608
 30
0.0
 11
-0.1628127759114761
 21
0.0
 31
0.0
210
0.0
220
0.0
230
1.0
 40
0.5773502691896272
 41
2.356194490192363
 42
3.926990816987221
  0
ELLIPSE
  5
2B02
330
1E
100
AcDbEntity
  8
OBJECT
100
AcDbEllipse
 10
14.94574320977918
 20
30.26637328271915
 30
0.0
 11
-0.1628127759114761
 21
0.0
 31
0.0
210
0.0
220
0.0
230
1.0
 40
0.5773502691896272
 41
0.7853981633974292
 42
2.356194490192363
  0
ELLIPSE
  5
2B08
330
1E
100
AcDbEntity
  8
OBJECT
100
AcDbEllipse
 10
20.61691056646159
 20
29.74750113299301
 30
0.0
 11
-0.1628127759114761
 21
0.0
 31
0.0
210
0.0
220
0.0
230
1.0
 40
0.5773502691896272
 41
3.926990816987221
 42
5.497787143782156
  0
ELLIPSE
  5
2B09
330
1E
100
AcDbEntity
  8
OBJECT
100
AcDbEllipse
 10
20.61691056646159
 20
29.63050113299301
 30
0.0
 11
-0.1628127759114761
 21
0.0
 31
0.0
210
0.0
220
0.0
230
1.0
 40
0.5773502691896272
 41
3.926990816987221
 42
5.497787143782156
  0
ELLIPSE
  5
2B0B
330
1E
100
AcDbEntity
  8
OBJECT
100
AcDbEllipse
 10
20.87031234911401
 20
29.77832979425274
 30
0.0
 11
-0.0541265877365262
 21
0.0
 31
0.0
210
0.0
220
0.0
230
1.0
 40
0.5773502691896386
 41
0.7853981633974226
 42
2.356194490192371
  0
ELLIPSE
  5
2B0C
330
1E
100
AcDbEntity
  8
OBJECT
100
AcDbEllipse
 10
20.87031234911401
 20
29.66132979425274
 30
0.0
 11
-0.0541265877365262
 21
0.0
 31
0.0
210
0.0
220
0.0
230
1.0
 40
0.5773502691896386
 41
0.7853981633974226
 42
2.356194490192371
  0
ELLIPSE
  5
2B0D
330
1E
100
AcDbEntity
  8
OBJECT
100
AcDbEllipse
 10
21.07360025324986
 20
29.77869812042857
 30
0.0
 11
-0.0541265877365262
 21
0.0
 31
0.0
210
0.0
220
0.0
230
1.0
 40
0.5773502691896386
 41
2.356194490192371
 42
3.141592653589792
  0
LINE
  5
2B0E
330
1E
100
AcDbEntity
  8
OBJECT
100
AcDbLine
 10
21.12772684098639
 20
29.89569812042883
 30
0.0
 11
21.12772684098639
 21
29.77869812042882
 31
0.0
  0
ELLIPSE
  5
2B0F
330
1E
100
AcDbEntity
  8
OBJECT
100
AcDbEllipse
 10
14.52763298643974
 20
30.11817629528357
 30
0.0
 11
-0.0814063879557381
 21
0.0
 31
0.0
210
0.0
220
0.0
230
1.0
 40
0.5773502691896272
 41
5.497787143782156
 42
7.068583470577014
  0
ELLIPSE
  5
2B11
330
1E
100
AcDbEntity
  8
OBJECT
100
AcDbEllipse
 10
17.95801497162248
 20
28.11537046910771
 30
0.0
 11
-0.0541265877365262
 21
0.0
 31
0.0
210
0.0
220
0.0
230
1.0
 40
0.5773502691896386
 41
0.7853981633974226
 42
2.356194490192371
  0
ELLIPSE
  5
2B12
330
1E
100
AcDbEntity
  8
OBJECT
100
AcDbEllipse
 10
18.16130287575834
 20
28.23273879528354
 30
0.0
 11
-0.0541265877365262
 21
0.0000000000000022
 31
0.0
210
0.0
220
0.0
230
1.0
 40
0.577350269189651
 41
2.356194490192426
 42
3.926990816987296
  0
LINE
  5
2B17
330
1E
100
AcDbEntity
  8
OBJECT
100
AcDbLine
 10
20.90858562634498
 20
29.75623270734065
 30
0.0
 11
21.11187353048085
 21
29.87360103351648
 31
0.0
  0
LINE
  5
2B18
330
1E
100
AcDbEntity
  8
OBJECT
100
AcDbLine
 10
20.908585626345
 20
29.63923270734066
 30
0.0
 11
21.11187353048086
 21
29.7566010335165
 31
0.0
  0
ELLIPSE
  5
2B1B
330
1E
100
AcDbEntity
  8
OBJECT
100
AcDbEllipse
 10
14.52763298643974
 20
30.00117629528357
 30
0.0
 11
-0.0814063879557381
 21
0.0
 31
0.0
210
0.0
220
0.0
230
1.0
 40
0.5773502691896272
 41
6.283185307179585
 42
7.068583470577014
  0
ELLIPSE
  5
2B1E
330
1E
100
AcDbEntity
  8
OBJECT
100
AcDbEllipse
 10
14.69338271682032
 20
30.23614581034428
 30
0.0
 11
-0.0541265877365262
 21
0.0
 31
0.0
210
0.0
220
0.0
230
1.0
 40
0.5773502691896386
 41
3.926990816987214
 42
5.497787143782117
  0
LINE
  5
2B1F
330
1E
100
AcDbEntity
  8
OBJECT
100
AcDbLine
 10
14.446226598484
 20
30.11817629528318
 30
0.0
 11
14.446226598484
 21
30.00117629528357
 31
0.0
  0
ELLIPSE
  5
2B21
330
1E
100
AcDbEntity
  8
OBJECT
100
AcDbEllipse
 10
14.6924935191045
 20
30.12982660562785
 30
0.0
 11
-0.0649519052838343
 21
0.0
 31
0.0
210
0.0
220
0.0
230
1.0
 40
0.5773502691895805
 41
0.0
 42
6.283185307179585
  0
ELLIPSE
  5
2B22
330
1E
100
AcDbEntity
  8
OBJECT
100
AcDbEllipse
 10
20.88032576784525
 20
29.88991687042857
 30
0.0
 11
-0.0649519052838343
 21
0.0
 31
0.0
210
0.0
220
0.0
230
1.0
 40
0.5773502691895805
 41
0.0
 42
6.283185307179585
  0
ELLIPSE
  5
2B23
330
1E
100
AcDbEntity
  8
OBJECT
100
AcDbEllipse
 10
17.40135090048249
 20
31.66413562042859
 30
0.0
 11
-0.0541265877365262
 21
0.0
 31
0.0
210
0.0
220
0.0
230
1.0
 40
0.5773502691896386
 41
6.283185307179585
 42
7.068583470577007
  0
LINE
  5
2B24
330
1E
100
AcDbEntity
  8
OBJECT
100
AcDbLine
 10
17.34722431274597
 20
31.78113562042833
 30
0.0
 11
17.34722431274597
 21
31.66413562042833
 31
0.0
  0
ELLIPSE
  5
2B25
330
1E
100
AcDbEntity
  8
OBJECT
100
AcDbEllipse
 10
17.5946253858871
 20
31.78691687042857
 30
0.0
 11
-0.0649519052838343
 21
0.0
 31
0.0
210
0.0
220
0.0
230
1.0
 40
0.5773502691895805
 41
0.0
 42
6.283185307179585
  0
ELLIPSE
  5
3150
330
1E
100
AcDbEntity
  8
OBJECT
100
AcDbEllipse
 10
17.33197042514131
 20
31.52706220785608
 30
0.0
 11
-0.1628127759114761
 21
0.0
 31
0.0
210
0.0
220
0.0
230
1.0
 40
0.5773502691896272
 41
3.813321832077251
 42
3.926990816987221
  0
INSERT
  5
36A4
330
1E
100
AcDbEntity
  8
DIM
100
AcDbBlockReference
  2
HB
 10
0.0
 20
0.0
 30
0.0
 41
2.375
 42
2.375
 43
2.375
  0
TEXT
  5
36A5
330
1E
100
AcDbEntity
  8
TEXT
100
AcDbText
 10
4.537750000000006
 20
35.98137499999999
 30
0.0
 40
0.375
  1
ECONOBOXES
 41
0.75
 72
     4
 11
5.897125000000006
 21
36.168875
 31
0.0
100
AcDbText
  0
TEXT
  5
36A7
330
1E
100
AcDbEntity
  8
TEXT
100
AcDbText
 10
21.9763125
 20
35.993375
 30
0.0
 40
0.351
  1
5-8-08
 41
0.75
 72
     4
 11
22.70024999999999
 21
36.168875
 31
0.0
100
AcDbText
  0
ENDSEC
  0
SECTION
  2
OBJECTS
  0
DICTIONARY
  5
C
330
0
100
AcDbDictionary
281
     1
  3
ACAD_GROUP
350
D
  3
ACAD_LAYOUT
350
19
  3
ACAD_MLINESTYLE
350
16
  3
ACAD_PLOTSETTINGS
350
18
  3
ACAD_PLOTSTYLENAME
350
E
  3
AcDbVariableDictionary
350
A17
  0
DICTIONARY
  5
D
102
{ACAD_REACTORS
330
C
102
}
330
C
100
AcDbDictionary
281
     1
  0
DICTIONARY
  5
19
102
{ACAD_REACTORS
330
C
102
}
330
C
100
AcDbDictionary
281
     1
  3
Layout1
350
1D
  3
Model
350
21
  0
DICTIONARY
  5
16
102
{ACAD_REACTORS
330
C
102
}
330
C
100
AcDbDictionary
281
     1
  3
Standard
350
17
  0
DICTIONARY
  5
18
102
{ACAD_REACTORS
330
C
102
}
330
C
100
AcDbDictionary
281
     1
  0
ACDBDICTIONARYWDFLT
  5
E
102
{ACAD_REACTORS
330
C
102
}
330
C
100
AcDbDictionary
281
     1
  3
Normal
350
F
100
AcDbDictionaryWithDefault
340
F
  0
DICTIONARY
  5
A17
102
{ACAD_REACTORS
330
C
102
}
330
C
100
AcDbDictionary
281
     1
  3
SORTENTS
350
A18
  0
LAYOUT
  5
1D
102
{ACAD_REACTORS
330
19
102
}
330
19
100
AcDbPlotSettings
  1

  2
None
  4

  6

 40
0.0
 41
0.0
 42
0.0
 43
0.0
 44
0.0
 45
0.0
 46
0.0
 47
0.0
 48
0.0
 49
0.0
140
0.0
141
0.0
142
1.0
143
1.0
 70
   688
 72
     0
 73
     0
 74
     5
  7
monochrome.ctb
 75
    16
147
1.0
148
0.0
149
0.0
100
AcDbLayout
  1
Layout1
 70
     1
 71
     1
 10
0.0
 20
0.0
 11
12.0
 21
9.0
 12
0.0
 22
0.0
 32
0.0
 14
1.000000000000000E+20
 24
1.000000000000000E+20
 34
1.000000000000000E+20
 15
-1.000000000000000E+20
 25
-1.000000000000000E+20
 35
-1.000000000000000E+20
146
0.0
 13
0.0
 23
0.0
 33
0.0
 16
1.0
 26
0.0
 36
0.0
 17
0.0
 27
1.0
 37
0.0
 76
     0
330
1A
  0
LAYOUT
  5
21
102
{ACAD_REACTORS
330
19
102
}
330
19
100
AcDbPlotSettings
  1

  2
hp photosmart 7600 series.pc3
  4
Letter
  6

 40
3.96875
 41
3.799404859542846
 42
3.96875
 43
3.17498779296875
 44
215.8999938964842
 45
279.3999938964843
 46
11.68399999999998
 47
0.0
 48
0.0
 49
0.0
140
0.0
141
0.0
142
1.0
143
3.285487562389505
 70
 11956
 72
     0
 73
     0
 74
     1
  7
monochrome.ctb
 75
     0
147
0.304368828373439
148
0.0340924061807456
149
0.0409440476674519
100
AcDbLayout
  1
Model
 70
     1
 71
     0
 10
0.0
 20
0.0
 11
12.0
 21
9.0
 12
0.0
 22
0.0
 32
0.0
 14
0.0
 24
0.0
 34
0.0
 15
0.0
 25
0.0
 35
0.0
146
0.0
 13
0.0
 23
0.0
 33
0.0
 16
1.0
 26
0.0
 36
0.0
 17
0.0
 27
1.0
 37
0.0
 76
     0
330
1E
  0
MLINESTYLE
  5
17
102
{ACAD_REACTORS
330
16
102
}
330
16
100
AcDbMlineStyle
  2
STANDARD
 70
     0
  3

 62
   256
 51
90.0
 52
90.0
 71
     2
 49
0.5
 62
   256
  6
BYLAYER
 49
-0.5
 62
   256
  6
BYLAYER
  0
ACDBPLACEHOLDER
  5
F
102
{ACAD_REACTORS
330
E
102
}
330
E
  0
DICTIONARYVAR
  5
A18
102
{ACAD_REACTORS
330
A17
102
}
330
A17
100
DictionaryVariables
280
     0
  1
96
  0
ENDSEC
  0
EOF
