  0
SECTION
  2
HEADER
  9
$ACADVER
  1
AC1015
  9
$ACADMAINTVER
 70
     6
  9
$DWGCODEPAGE
  3
ANSI_1252
  9
$INSBASE
 10
0.0
 20
0.0
 30
0.0
  9
$EXTMIN
 10
0.0
 20
0.0
 30
0.0
  9
$EXTMAX
 10
25.5
 20
16.5
 30
0.0
  9
$LIMMIN
 10
0.0
 20
0.0
  9
$LIMMAX
 10
25.5
 20
16.5
  9
$ORTHOMODE
 70
     0
  9
$REGENMODE
 70
     1
  9
$FILLMODE
 70
     1
  9
$QTEXTMODE
 70
     0
  9
$MIRRTEXT
 70
     1
  9
$LTSCALE
 40
1.5
  9
$ATTMODE
 70
     1
  9
$TEXTSIZE
 40
0.1875
  9
$TRACEWID
 40
0.05
  9
$TEXTSTYLE
  7
Standard
  9
$CLAYER
  8
0
  9
$CELTYPE
  6
ByLayer
  9
$CECOLOR
 62
   256
  9
$CELTSCALE
 40
1.0
  9
$DISPSILH
 70
     0
  9
$DIMSCALE
 40
1.0
  9
$DIMASZ
 40
0.195
  9
$DIMEXO
 40
0.075
  9
$DIMDLI
 40
0.38
  9
$DIMRND
 40
0.0
  9
$DIMDLE
 40
0.0
  9
$DIMEXE
 40
0.1875
  9
$DIMTP
 40
0.0
  9
$DIMTM
 40
0.0
  9
$DIMTXT
 40
0.1875
  9
$DIMCEN
 40
0.09
  9
$DIMTSZ
 40
0.0
  9
$DIMTOL
 70
     0
  9
$DIMLIM
 70
     0
  9
$DIMTIH
 70
     1
  9
$DIMTOH
 70
     1
  9
$DIMSE1
 70
     0
  9
$DIMSE2
 70
     0
  9
$DIMTAD
 70
     0
  9
$DIMZIN
 70
     0
  9
$DIMBLK
  1

  9
$DIMASO
 70
     1
  9
$DIMSHO
 70
     1
  9
$DIMPOST
  1

  9
$DIMAPOST
  1

  9
$DIMALT
 70
     0
  9
$DIMALTD
 70
     2
  9
$DIMALTF
 40
25.4
  9
$DIMLFAC
 40
1.0
  9
$DIMTOFL
 70
     0
  9
$DIMTVP
 40
0.0
  9
$DIMTIX
 70
     0
  9
$DIMSOXD
 70
     0
  9
$DIMSAH
 70
     0
  9
$DIMBLK1
  1

  9
$DIMBLK2
  1

  9
$DIMSTYLE
  2
Standard
  9
$DIMCLRD
 70
     0
  9
$DIMCLRE
 70
     0
  9
$DIMCLRT
 70
     0
  9
$DIMTFAC
 40
1.0
  9
$DIMGAP
 40
0.09
  9
$DIMJUST
 70
     0
  9
$DIMSD1
 70
     0
  9
$DIMSD2
 70
     0
  9
$DIMTOLJ
 70
     1
  9
$DIMTZIN
 70
     0
  9
$DIMALTZ
 70
     0
  9
$DIMALTTZ
 70
     0
  9
$DIMUPT
 70
     0
  9
$DIMDEC
 70
     2
  9
$DIMTDEC
 70
     2
  9
$DIMALTU
 70
     2
  9
$DIMALTTD
 70
     2
  9
$DIMTXSTY
  7
Standard
  9
$DIMAUNIT
 70
     0
  9
$DIMADEC
 70
     2
  9
$DIMALTRND
 40
0.0
  9
$DIMAZIN
 70
     0
  9
$DIMDSEP
 70
    46
  9
$DIMATFIT
 70
     3
  9
$DIMFRAC
 70
     0
  9
$DIMLDRBLK
  1

  9
$DIMLUNIT
 70
     2
  9
$DIMLWD
 70
    -2
  9
$DIMLWE
 70
    -2
  9
$DIMTMOVE
 70
     0
  9
$LUNITS
 70
     2
  9
$LUPREC
 70
     2
  9
$SKETCHINC
 40
0.1
  9
$FILLETRAD
 40
0.5
  9
$AUNITS
 70
     0
  9
$AUPREC
 70
     2
  9
$MENU
  1
.
  9
$ELEVATION
 40
0.0
  9
$PELEVATION
 40
0.0
  9
$THICKNESS
 40
0.0
  9
$LIMCHECK
 70
     0
  9
$CHAMFERA
 40
0.0
  9
$CHAMFERB
 40
0.0
  9
$CHAMFERC
 40
0.0
  9
$CHAMFERD
 40
0.0
  9
$SKPOLY
 70
     0
  9
$TDCREATE
 40
2457308.62871397
  9
$TDUCREATE
 40
2457308.795380637
  9
$TDUPDATE
 40
2457308.628717165
  9
$TDUUPDATE
 40
2457308.795383831
  9
$TDINDWG
 40
0.0000000116
  9
$TDUSRTIMER
 40
0.0000000116
  9
$USRTIMER
 70
     1
  9
$ANGBASE
 50
0.0
  9
$ANGDIR
 70
     0
  9
$PDMODE
 70
     0
  9
$PDSIZE
 40
-1.0
  9
$PLINEWID
 40
0.0
  9
$SPLFRAME
 70
     0
  9
$SPLINETYPE
 70
     6
  9
$SPLINESEGS
 70
     8
  9
$HANDSEED
  5
668
  9
$SURFTAB1
 70
     6
  9
$SURFTAB2
 70
     6
  9
$SURFTYPE
 70
     6
  9
$SURFU
 70
     6
  9
$SURFV
 70
     6
  9
$UCSBASE
  2

  9
$UCSNAME
  2

  9
$UCSORG
 10
0.0
 20
0.0
 30
0.0
  9
$UCSXDIR
 10
1.0
 20
0.0
 30
0.0
  9
$UCSYDIR
 10
0.0
 20
1.0
 30
0.0
  9
$UCSORTHOREF
  2

  9
$UCSORTHOVIEW
 70
     0
  9
$UCSORGTOP
 10
0.0
 20
0.0
 30
0.0
  9
$UCSORGBOTTOM
 10
0.0
 20
0.0
 30
0.0
  9
$UCSORGLEFT
 10
0.0
 20
0.0
 30
0.0
  9
$UCSORGRIGHT
 10
0.0
 20
0.0
 30
0.0
  9
$UCSORGFRONT
 10
0.0
 20
0.0
 30
0.0
  9
$UCSORGBACK
 10
0.0
 20
0.0
 30
0.0
  9
$PUCSBASE
  2

  9
$PUCSNAME
  2

  9
$PUCSORG
 10
0.0
 20
0.0
 30
0.0
  9
$PUCSXDIR
 10
1.0
 20
0.0
 30
0.0
  9
$PUCSYDIR
 10
0.0
 20
1.0
 30
0.0
  9
$PUCSORTHOREF
  2

  9
$PUCSORTHOVIEW
 70
     0
  9
$PUCSORGTOP
 10
0.0
 20
0.0
 30
0.0
  9
$PUCSORGBOTTOM
 10
0.0
 20
0.0
 30
0.0
  9
$PUCSORGLEFT
 10
0.0
 20
0.0
 30
0.0
  9
$PUCSORGRIGHT
 10
0.0
 20
0.0
 30
0.0
  9
$PUCSORGFRONT
 10
0.0
 20
0.0
 30
0.0
  9
$PUCSORGBACK
 10
0.0
 20
0.0
 30
0.0
  9
$USERI1
 70
     0
  9
$USERI2
 70
     0
  9
$USERI3
 70
     0
  9
$USERI4
 70
     0
  9
$USERI5
 70
     0
  9
$USERR1
 40
0.0
  9
$USERR2
 40
0.0
  9
$USERR3
 40
0.0
  9
$USERR4
 40
0.0
  9
$USERR5
 40
0.0
  9
$WORLDVIEW
 70
     1
  9
$SHADEDGE
 70
     3
  9
$SHADEDIF
 70
    70
  9
$TILEMODE
 70
     1
  9
$MAXACTVP
 70
    64
  9
$PINSBASE
 10
0.0
 20
0.0
 30
0.0
  9
$PLIMCHECK
 70
     0
  9
$PEXTMIN
 10
1.0000000000E+20
 20
1.0000000000E+20
 30
1.0000000000E+20
  9
$PEXTMAX
 10
-1.0000000000E+20
 20
-1.0000000000E+20
 30
-1.0000000000E+20
  9
$PLIMMIN
 10
0.0
 20
0.0
  9
$PLIMMAX
 10
12.0
 20
9.0
  9
$UNITMODE
 70
     0
  9
$VISRETAIN
 70
     1
  9
$PLINEGEN
 70
     0
  9
$PSLTSCALE
 70
     1
  9
$TREEDEPTH
 70
  3020
  9
$CMLSTYLE
  2
Standard
  9
$CMLJUST
 70
     0
  9
$CMLSCALE
 40
1.0
  9
$PROXYGRAPHICS
 70
     1
  9
$MEASUREMENT
 70
     0
  9
$CELWEIGHT
370
    -1
  9
$ENDCAPS
280
     0
  9
$JOINSTYLE
280
     0
  9
$LWDISPLAY
290
     1
  9
$INSUNITS
 70
     1
  9
$HYPERLINKBASE
  1

  9
$STYLESHEET
  1

  9
$XEDIT
290
     1
  9
$CEPSNTYPE
380
     0
  9
$PSTYLEMODE
290
     1
  9
$FINGERPRINTGUID
  2
{A95FD727-F7E7-4AF3-952C-EA229BEA625F}
  9
$VERSIONGUID
  2
{FAEB1C32-E019-11D5-929B-00C0DF256EC4}
  9
$EXTNAMES
290
     1
  9
$PSVPSCALE
 40
0.0
  9
$OLESTARTUP
290
     0
  0
ENDSEC
  0
SECTION
  2
CLASSES
  0
CLASS
  1
ACDBDICTIONARYWDFLT
  2
AcDbDictionaryWithDefault
  3
ObjectDBX Classes
 90
        0
280
     0
281
     0
  0
CLASS
  1
VISUALSTYLE
  2
AcDbVisualStyle
  3
ObjectDBX Classes
 90
     4095
280
     0
281
     0
  0
CLASS
  1
MATERIAL
  2
AcDbMaterial
  3
ObjectDBX Classes
 90
     1153
280
     0
281
     0
  0
CLASS
  1
SCALE
  2
AcDbScale
  3
ObjectDBX Classes
 90
     1153
280
     0
281
     0
  0
CLASS
  1
TABLESTYLE
  2
AcDbTableStyle
  3
ObjectDBX Classes
 90
     4095
280
     0
281
     0
  0
CLASS
  1
MLEADERSTYLE
  2
AcDbMLeaderStyle
  3
ACDB_MLEADERSTYLE_CLASS
 90
     4095
280
     0
281
     0
  0
CLASS
  1
SUN
  2
AcDbSun
  3
SCENEOE
 90
     1153
280
     0
281
     0
  0
CLASS
  1
ACDBPLACEHOLDER
  2
AcDbPlaceHolder
  3
ObjectDBX Classes
 90
        0
280
     0
281
     0
  0
CLASS
  1
LAYOUT
  2
AcDbLayout
  3
ObjectDBX Classes
 90
        0
280
     0
281
     0
  0
ENDSEC
  0
SECTION
  2
TABLES
  0
TABLE
  2
VPORT
  5
8
330
0
100
AcDbSymbolTable
 70
     1
  0
VPORT
  5
29
330
8
100
AcDbSymbolTableRecord
100
AcDbViewportTableRecord
  2
*Active
 70
     0
 10
0.0
 20
0.0
 11
1.0
 21
1.0
 12
12.75
 22
8.25
 13
0.0
 23
0.0
 14
0.5
 24
0.5
 15
0.5
 25
0.5
 16
0.0
 26
0.0
 36
1.0
 17
0.0
 27
0.0
 37
0.0
 40
16.5
 41
1.5454545455
 42
50.0
 43
0.0
 44
0.0
 50
0.0
 51
0.0
 71
     0
 72
  2000
 73
     1
 74
     3
 75
     0
 76
     0
 77
     0
 78
     0
281
     0
 65
     1
110
0.0
120
0.0
130
0.0
111
1.0
121
0.0
131
0.0
112
0.0
122
1.0
132
0.0
 79
     0
146
0.0
  0
ENDTAB
  0
TABLE
  2
LTYPE
  5
5
330
0
100
AcDbSymbolTable
 70
     6
  0
LTYPE
  5
14
330
5
100
AcDbSymbolTableRecord
100
AcDbLinetypeTableRecord
  2
ByBlock
 70
     0
  3

 72
    65
 73
     0
 40
0.0
  0
LTYPE
  5
15
330
5
100
AcDbSymbolTableRecord
100
AcDbLinetypeTableRecord
  2
ByLayer
 70
     0
  3

 72
    65
 73
     0
 40
0.0
  0
LTYPE
  5
16
330
5
100
AcDbSymbolTableRecord
100
AcDbLinetypeTableRecord
  2
Continuous
 70
     0
  3
Solid line
 72
    65
 73
     0
 40
0.0
  0
LTYPE
  5
6E
330
5
100
AcDbSymbolTableRecord
100
AcDbLinetypeTableRecord
  2
HIDDEN
 70
     0
  3
Hidden __ __ __ __ __ __ __ __ __ __ __ __ __ __
 72
    65
 73
     2
 40
0.075
 49
0.05
 74
     0
 49
-0.025
 74
     0
  0
LTYPE
  5
6F
330
5
100
AcDbSymbolTableRecord
100
AcDbLinetypeTableRecord
  2
PHANTOM
 70
     0
  3
Phantom ______  __  __  ______  __  __  ______
 72
    65
 73
     6
 40
0.5
 49
0.25
 74
     0
 49
-0.05
 74
     0
 49
0.05
 74
     0
 49
-0.05
 74
     0
 49
0.05
 74
     0
 49
-0.05
 74
     0
  0
LTYPE
  5
70
330
5
100
AcDbSymbolTableRecord
100
AcDbLinetypeTableRecord
  2
CENTER
 70
     0
  3
Center ____ _ ____ _ ____ _ ____ _ ____ _ ____
 72
    65
 73
     4
 40
0.4
 49
0.25
 74
     0
 49
-0.05
 74
     0
 49
0.05
 74
     0
 49
-0.05
 74
     0
  0
LTYPE
  5
71
330
5
100
AcDbSymbolTableRecord
100
AcDbLinetypeTableRecord
  2
CENTERX2
 70
     0
  3
Center (2x) ________  __  ________  __  _____
 72
    65
 73
     4
 40
0.8
 49
0.5
 74
     0
 49
-0.1
 74
     0
 49
0.1
 74
     0
 49
-0.1
 74
     0
  0
LTYPE
  5
72
330
5
100
AcDbSymbolTableRecord
100
AcDbLinetypeTableRecord
  2
DOT2
 70
     0
  3
Dot (.5x) ........................................
 72
    65
 73
     2
 40
0.025
 49
0.0
 74
     0
 49
-0.025
 74
     0
  0
ENDTAB
  0
TABLE
  2
LAYER
  5
2
330
0
100
AcDbSymbolTable
 70
     1
  0
LAYER
  5
10
330
2
100
AcDbSymbolTableRecord
100
AcDbLayerTableRecord
  2
0
 70
     0
 62
     7
  6
Continuous
370
    -3
390
F
  0
ENDTAB
  0
TABLE
  2
STYLE
  5
3
330
0
100
AcDbSymbolTable
 70
     5
  0
STYLE
  5
11
330
3
100
AcDbSymbolTableRecord
100
AcDbTextStyleTableRecord
  2
Standard
 70
     0
 40
0.0
 41
1.0
 50
0.0
 71
     0
 42
0.1875
  3
txt
  4

  0
STYLE
  5
A6
330
3
100
AcDbSymbolTableRecord
100
AcDbTextStyleTableRecord
  2
SLDTEXTSTYLE0
 70
     0
 40
0.0
 41
0.75
 50
0.0
 71
     0
 42
0.1875
  3
TXT
  4

  0
STYLE
  5
BA
330
3
100
AcDbSymbolTableRecord
100
AcDbTextStyleTableRecord
  2
SLDTEXTSTYLE1
 70
     0
 40
0.0
 41
0.7
 50
0.0
 71
     0
 42
0.1875
  3
TXT
  4

  0
STYLE
  5
C5
330
3
100
AcDbSymbolTableRecord
100
AcDbTextStyleTableRecord
  2
SLDTEXTSTYLE2
 70
     0
 40
0.0
 41
0.6981132075
 50
0.0
 71
     0
 42
0.1875
  3
TXT
  4

  0
STYLE
  5
239
330
3
100
AcDbSymbolTableRecord
100
AcDbTextStyleTableRecord
  2
SLDTEXTSTYLE3
 70
     0
 40
0.0
 41
0.6875
 50
0.0
 71
     0
 42
0.1875
  3
TXT
  4

  0
ENDTAB
  0
TABLE
  2
VIEW
  5
6
330
0
100
AcDbSymbolTable
 70
     0
  0
ENDTAB
  0
TABLE
  2
UCS
  5
7
330
0
100
AcDbSymbolTable
 70
     0
  0
ENDTAB
  0
TABLE
  2
APPID
  5
9
330
0
100
AcDbSymbolTable
 70
     1
  0
APPID
  5
12
330
9
100
AcDbSymbolTableRecord
100
AcDbRegAppTableRecord
  2
ACAD
 70
     0
  0
ENDTAB
  0
TABLE
  2
DIMSTYLE
  5
A
330
0
100
AcDbSymbolTable
 70
     8
100
AcDbDimStyleTable
  0
DIMSTYLE
105
27
330
A
100
AcDbSymbolTableRecord
100
AcDbDimStyleTableRecord
  2
Standard
 70
     0
178
     0
340
11
  0
DIMSTYLE
105
189
102
{ACAD_REACTORS
330
188
330
19D
330
1B1
330
1C5
330
203
330
26B
330
27F
330
2A7
330
2D0
330
316
330
55B
330
56F
330
597
330
5AB
330
605
330
62B
330
653
102
}
330
A
100
AcDbSymbolTableRecord
100
AcDbDimStyleTableRecord
  2
SLDDIMSTYLE0
 70
     0
 41
0.195
 44
0.0
 45
0.000000001
 78
    12
 79
     3
140
0.1875
147
0.046875
148
0.000000001
170
     1
173
     1
178
     0
271
     2
272
     2
276
     2
284
    12
340
A6
  0
DIMSTYLE
105
1DA
102
{ACAD_REACTORS
330
1D9
330
217
102
}
330
A
100
AcDbSymbolTableRecord
100
AcDbDimStyleTableRecord
  2
SLDDIMSTYLE1
 70
     0
 41
0.195
 44
0.0
 45
0.000000001
 78
     4
 79
     1
140
0.1875
147
0.046875
148
0.000000001
170
     1
173
     1
178
     0
271
     2
272
     2
276
     2
284
    12
340
A6
  0
DIMSTYLE
105
1EF
102
{ACAD_REACTORS
330
1EE
330
293
330
2BB
330
329
330
33D
330
362
330
511
330
523
330
618
330
63F
102
}
330
A
100
AcDbSymbolTableRecord
100
AcDbDimStyleTableRecord
  2
SLDDIMSTYLE2
 70
     0
 41
0.195
 44
0.0
 45
0.000000001
 78
    12
 79
     3
140
0.1875
147
0.046875
148
0.000000001
170
     1
172
     1
173
     1
178
     0
271
     2
272
     2
276
     2
284
    12
289
     0
340
A6
  0
DIMSTYLE
105
23F
330
A
100
AcDbSymbolTableRecord
100
AcDbDimStyleTableRecord
  2
SLDDIMSTYLE3
 70
     0
 41
0.195
 44
0.0
 45
0.000000001
146
0.195
147
0.0
173
     1
178
     0
271
     0
272
     0
276
     2
340
11
  0
DIMSTYLE
105
2E5
102
{ACAD_REACTORS
330
2E4
102
}
330
A
100
AcDbSymbolTableRecord
100
AcDbDimStyleTableRecord
  2
SLDDIMSTYLE4
 70
     0
 41
0.195
 44
0.0
 45
0.000000001
 78
    12
 79
     3
140
0.1875
141
0.0
147
0.046875
148
0.000000001
170
     1
173
     1
178
     0
271
     2
272
     2
276
     2
284
    12
340
A6
  0
DIMSTYLE
105
2F6
102
{ACAD_REACTORS
330
2F5
330
306
330
352
102
}
330
A
100
AcDbSymbolTableRecord
100
AcDbDimStyleTableRecord
  2
SLDDIMSTYLE5
 70
     0
 41
0.195
 44
0.0
 45
0.000000001
 78
    12
 79
     3
140
0.1875
141
0.0
147
0.046875
148
0.000000001
170
     1
173
     1
178
     0
271
     2
272
     2
276
     2
279
     1
284
    12
340
A6
  0
DIMSTYLE
105
584
102
{ACAD_REACTORS
330
583
102
}
330
A
100
AcDbSymbolTableRecord
100
AcDbDimStyleTableRecord
  2
SLDDIMSTYLE6
 70
     0
 41
0.195
 44
0.0
 45
0.000000001
 78
    12
 79
     3
140
0.1875
141
0.0
147
0.046875
148
0.000000001
170
     1
173
     1
178
     0
271
     3
272
     3
276
     2
284
    12
340
A6
  0
ENDTAB
  0
TABLE
  2
BLOCK_RECORD
  5
1
330
0
100
AcDbSymbolTable
 70
    48
  0
BLOCK_RECORD
  5
1F
330
1
100
AcDbSymbolTableRecord
100
AcDbBlockTableRecord
  2
*Model_Space
340
22
  0
BLOCK_RECORD
  5
1B
330
1
100
AcDbSymbolTableRecord
100
AcDbBlockTableRecord
  2
*Paper_Space
340
1E
  0
BLOCK_RECORD
  5
23
330
1
100
AcDbSymbolTableRecord
100
AcDbBlockTableRecord
  2
*Paper_Space0
340
26
  0
BLOCK_RECORD
  5
A3
330
1
100
AcDbSymbolTableRecord
100
AcDbBlockTableRecord
  2
SW_NOTE_0
340
0
102
{BLKREFS
331
A9
102
}
  0
BLOCK_RECORD
  5
AA
330
1
100
AcDbSymbolTableRecord
100
AcDbBlockTableRecord
  2
SW_NOTE_1
340
0
102
{BLKREFS
331
AF
102
}
  0
BLOCK_RECORD
  5
B0
330
1
100
AcDbSymbolTableRecord
100
AcDbBlockTableRecord
  2
SW_NOTE_2
340
0
102
{BLKREFS
331
C0
102
}
  0
BLOCK_RECORD
  5
C1
330
1
100
AcDbSymbolTableRecord
100
AcDbBlockTableRecord
  2
SW_NOTE_3
340
0
102
{BLKREFS
331
CA
102
}
  0
BLOCK_RECORD
  5
CC
330
1
100
AcDbSymbolTableRecord
100
AcDbBlockTableRecord
  2
SW_NOTE_4
340
0
102
{BLKREFS
331
D3
102
}
  0
BLOCK_RECORD
  5
D4
330
1
100
AcDbSymbolTableRecord
100
AcDbBlockTableRecord
  2
SW_NOTE_5
340
0
102
{BLKREFS
331
DB
102
}
  0
BLOCK_RECORD
  5
E0
330
1
100
AcDbSymbolTableRecord
100
AcDbBlockTableRecord
  2
SW_NOTE_6
340
0
102
{BLKREFS
331
E5
102
}
  0
BLOCK_RECORD
  5
E6
330
1
100
AcDbSymbolTableRecord
100
AcDbBlockTableRecord
  2
SW_NOTE_7
340
0
102
{BLKREFS
331
EB
102
}
  0
BLOCK_RECORD
  5
EC
330
1
100
AcDbSymbolTableRecord
100
AcDbBlockTableRecord
  2
SW_NOTE_8
340
0
102
{BLKREFS
331
F1
102
}
  0
BLOCK_RECORD
  5
18A
330
1
100
AcDbSymbolTableRecord
100
AcDbBlockTableRecord
  2
_D
340
0
  0
BLOCK_RECORD
  5
19E
330
1
100
AcDbSymbolTableRecord
100
AcDbBlockTableRecord
  2
_D_1
340
0
  0
BLOCK_RECORD
  5
1B2
330
1
100
AcDbSymbolTableRecord
100
AcDbBlockTableRecord
  2
_D_2
340
0
  0
BLOCK_RECORD
  5
1C6
330
1
100
AcDbSymbolTableRecord
100
AcDbBlockTableRecord
  2
_D_3
340
0
  0
BLOCK_RECORD
  5
1DB
330
1
100
AcDbSymbolTableRecord
100
AcDbBlockTableRecord
  2
_D_4
340
0
  0
BLOCK_RECORD
  5
1F0
330
1
100
AcDbSymbolTableRecord
100
AcDbBlockTableRecord
  2
_D_5
340
0
  0
BLOCK_RECORD
  5
204
330
1
100
AcDbSymbolTableRecord
100
AcDbBlockTableRecord
  2
_D_6
340
0
  0
BLOCK_RECORD
  5
218
330
1
100
AcDbSymbolTableRecord
100
AcDbBlockTableRecord
  2
_D_7
340
0
  0
BLOCK_RECORD
  5
22B
330
1
100
AcDbSymbolTableRecord
100
AcDbBlockTableRecord
  2
SW_NOTE_9
340
0
102
{BLKREFS
331
23E
102
}
  0
BLOCK_RECORD
  5
26C
330
1
100
AcDbSymbolTableRecord
100
AcDbBlockTableRecord
  2
_D_8
340
0
  0
BLOCK_RECORD
  5
280
330
1
100
AcDbSymbolTableRecord
100
AcDbBlockTableRecord
  2
_D_9
340
0
  0
BLOCK_RECORD
  5
294
330
1
100
AcDbSymbolTableRecord
100
AcDbBlockTableRecord
  2
_D_10
340
0
  0
BLOCK_RECORD
  5
2A8
330
1
100
AcDbSymbolTableRecord
100
AcDbBlockTableRecord
  2
_D_11
340
0
  0
BLOCK_RECORD
  5
2BC
330
1
100
AcDbSymbolTableRecord
100
AcDbBlockTableRecord
  2
_D_12
340
0
  0
BLOCK_RECORD
  5
2D1
330
1
100
AcDbSymbolTableRecord
100
AcDbBlockTableRecord
  2
_D_13
340
0
  0
BLOCK_RECORD
  5
2E6
330
1
100
AcDbSymbolTableRecord
100
AcDbBlockTableRecord
  2
_D_14
340
0
  0
BLOCK_RECORD
  5
2F7
330
1
100
AcDbSymbolTableRecord
100
AcDbBlockTableRecord
  2
_D_15
340
0
  0
BLOCK_RECORD
  5
307
330
1
100
AcDbSymbolTableRecord
100
AcDbBlockTableRecord
  2
_D_16
340
0
  0
BLOCK_RECORD
  5
317
330
1
100
AcDbSymbolTableRecord
100
AcDbBlockTableRecord
  2
_D_17
340
0
  0
BLOCK_RECORD
  5
32A
330
1
100
AcDbSymbolTableRecord
100
AcDbBlockTableRecord
  2
_D_18
340
0
  0
BLOCK_RECORD
  5
33E
330
1
100
AcDbSymbolTableRecord
100
AcDbBlockTableRecord
  2
_D_19
340
0
  0
BLOCK_RECORD
  5
353
330
1
100
AcDbSymbolTableRecord
100
AcDbBlockTableRecord
  2
_D_20
340
0
  0
BLOCK_RECORD
  5
363
330
1
100
AcDbSymbolTableRecord
100
AcDbBlockTableRecord
  2
_D_21
340
0
  0
BLOCK_RECORD
  5
377
330
1
100
AcDbSymbolTableRecord
100
AcDbBlockTableRecord
  2
SW_CENTERMARKSYMBOL_0
340
0
102
{BLKREFS
331
382
102
}
  0
BLOCK_RECORD
  5
383
330
1
100
AcDbSymbolTableRecord
100
AcDbBlockTableRecord
  2
SW_CENTERMARKSYMBOL_1
340
0
102
{BLKREFS
331
38E
102
}
  0
BLOCK_RECORD
  5
4D5
330
1
100
AcDbSymbolTableRecord
100
AcDbBlockTableRecord
  2
SW_NOTE_10
340
0
102
{BLKREFS
331
4DC
102
}
  0
BLOCK_RECORD
  5
512
330
1
100
AcDbSymbolTableRecord
100
AcDbBlockTableRecord
  2
_D_22
340
0
  0
BLOCK_RECORD
  5
524
330
1
100
AcDbSymbolTableRecord
100
AcDbBlockTableRecord
  2
_D_23
340
0
  0
BLOCK_RECORD
  5
55C
330
1
100
AcDbSymbolTableRecord
100
AcDbBlockTableRecord
  2
_D_24
340
0
  0
BLOCK_RECORD
  5
570
330
1
100
AcDbSymbolTableRecord
100
AcDbBlockTableRecord
  2
_D_25
340
0
  0
BLOCK_RECORD
  5
585
330
1
100
AcDbSymbolTableRecord
100
AcDbBlockTableRecord
  2
_D_26
340
0
  0
BLOCK_RECORD
  5
598
330
1
100
AcDbSymbolTableRecord
100
AcDbBlockTableRecord
  2
_D_27
340
0
  0
BLOCK_RECORD
  5
5AC
330
1
100
AcDbSymbolTableRecord
100
AcDbBlockTableRecord
  2
_D_28
340
0
  0
BLOCK_RECORD
  5
606
330
1
100
AcDbSymbolTableRecord
100
AcDbBlockTableRecord
  2
_D_29
340
0
  0
BLOCK_RECORD
  5
619
330
1
100
AcDbSymbolTableRecord
100
AcDbBlockTableRecord
  2
_D_30
340
0
  0
BLOCK_RECORD
  5
62C
330
1
100
AcDbSymbolTableRecord
100
AcDbBlockTableRecord
  2
_D_31
340
0
  0
BLOCK_RECORD
  5
640
330
1
100
AcDbSymbolTableRecord
100
AcDbBlockTableRecord
  2
_D_32
340
0
  0
BLOCK_RECORD
  5
654
330
1
100
AcDbSymbolTableRecord
100
AcDbBlockTableRecord
  2
_D_33
340
0
  0
ENDTAB
  0
ENDSEC
  0
SECTION
  2
BLOCKS
  0
BLOCK
  5
20
330
1F
100
AcDbEntity
  8
0
100
AcDbBlockBegin
  2
*Model_Space
 70
     0
 10
0.0
 20
0.0
 30
0.0
  3
*Model_Space
  1

  0
ENDBLK
  5
21
330
1F
100
AcDbEntity
  8
0
100
AcDbBlockEnd
  0
BLOCK
  5
1C
330
1B
100
AcDbEntity
 67
     1
  8
0
100
AcDbBlockBegin
  2
*Paper_Space
 70
     0
 10
0.0
 20
0.0
 30
0.0
  3
*Paper_Space
  1

  0
ENDBLK
  5
1D
330
1B
100
AcDbEntity
 67
     1
  8
0
100
AcDbBlockEnd
  0
BLOCK
  5
24
330
23
100
AcDbEntity
  8
0
100
AcDbBlockBegin
  2
*Paper_Space0
 70
     0
 10
0.0
 20
0.0
 30
0.0
  3
*Paper_Space0
  1

  0
ENDBLK
  5
25
330
23
100
AcDbEntity
  8
0
100
AcDbBlockEnd
  0
BLOCK
  5
A4
330
A3
100
AcDbEntity
  8
0
100
AcDbBlockBegin
  2
SW_NOTE_0
 70
     0
 10
0.0
 20
0.0
 30
0.0
  3
SW_NOTE_0
  1

  0
MTEXT
  5
A7
330
A3
100
AcDbEntity
  8
0
  6
Continuous
 62
     0
370
     0
100
AcDbMText
 10
1.88671875
 20
0.2417002012
 30
0.0
 40
0.1875
 41
0.0
 71
     2
 72
     1
  1
OPTIONAL INTERNAL PANEL AND
  7
SLDTEXTSTYLE0
 73
     1
 44
1.0
  0
MTEXT
  5
A8
330
A3
100
AcDbEntity
  8
0
  6
Continuous
 62
     0
370
     0
100
AcDbMText
 10
1.887304555
 20
-0.0048549106
 30
0.0
 40
0.1875
 41
0.0
 71
     2
 72
     1
  1
SUGGESTED PC BOARD LAYOUT
  7
SLDTEXTSTYLE0
 73
     1
 44
1.0
  0
ENDBLK
  5
A5
330
A3
100
AcDbEntity
  8
0
100
AcDbBlockEnd
  0
BLOCK
  5
AB
330
AA
100
AcDbEntity
  8
0
100
AcDbBlockBegin
  2
SW_NOTE_1
 70
     0
 10
0.0
 20
0.0
 30
0.0
  3
SW_NOTE_1
  1

  0
MTEXT
  5
AD
330
AA
100
AcDbEntity
  8
0
  6
Continuous
 62
     0
370
     0
100
AcDbMText
 10
0.62109375
 20
0.3222669349
 30
0.0
 40
0.25
 41
0.0
 71
     2
 72
     1
  1
\LBODY
  7
SLDTEXTSTYLE0
 73
     1
 44
1.0
  0
MTEXT
  5
AE
330
AA
100
AcDbEntity
  8
0
  6
Continuous
 62
     0
370
     0
100
AcDbMText
 10
0.551710645
 20
-0.0069164862
 30
0.0
 40
0.15625
 41
0.0
 71
     2
 72
     1
  1
\LCOVER NOT SHOWN
  7
SLDTEXTSTYLE0
 73
     1
 44
1.0
  0
ENDBLK
  5
AC
330
AA
100
AcDbEntity
  8
0
100
AcDbBlockEnd
  0
BLOCK
  5
B1
330
B0
100
AcDbEntity
  8
0
100
AcDbBlockBegin
  2
SW_NOTE_2
 70
     0
 10
0.0
 20
0.0
 30
0.0
  3
SW_NOTE_2
  1

  0
MTEXT
  5
B3
330
B0
100
AcDbEntity
  8
0
  6
Continuous
 62
     0
370
     0
100
AcDbMText
 10
0.0
 20
0.2417002012
 30
0.0
 40
0.1875
 41
0.0
 71
     1
 72
     1
  1
MATERIAL: BODY & COVER - ALUMINUM ALLOY #ADC-12
  7
SLDTEXTSTYLE0
 73
     1
 44
1.0
  0
MTEXT
  5
B4
330
B0
100
AcDbEntity
  8
0
  6
Continuous
 62
     0
370
     0
100
AcDbMText
 10
0.0
 20
-0.2514100223
 30
0.0
 40
0.1875
 41
0.0
 71
     1
 72
     1
  1
FINISH: NATURAL (SUFFIX -A)
  7
SLDTEXTSTYLE0
 73
     1
 44
1.0
  0
MTEXT
  5
B5
330
B0
100
AcDbEntity
  8
0
  6
Continuous
 62
     0
370
     0
100
AcDbMText
 10
0.84375
 20
-0.4979651341
 30
0.0
 40
0.1875
 41
0.0
 71
     1
 72
     1
  1
SMOOTH BLACK POWDERCOAT (SUFFIX -AB)
  7
SLDTEXTSTYLE0
 73
     1
 44
1.0
  0
MTEXT
  5
B6
330
B0
100
AcDbEntity
  8
0
  6
Continuous
 62
     0
370
     0
100
AcDbMText
 10
0.0
 20
-0.9910753577
 30
0.0
 40
0.1875
 41
0.0
 71
     1
 72
     1
  1
FOUR (4) M4x0.7 x 20mm (.79") LG. 90
  7
SLDTEXTSTYLE0
 73
     1
 44
1.0
  0
MTEXT
  5
B7
330
B0
100
AcDbEntity
  8
0
  6
Continuous
 62
     0
370
     0
100
AcDbMText
 10
4.4499999132
 20
-0.9910753577
 30
0.0
 40
0.1875
 41
0.0
 71
     1
 72
     1
  1
%%d
  7
SLDTEXTSTYLE0
 73
     1
 44
1.0
  0
MTEXT
  5
B8
330
B0
100
AcDbEntity
  8
0
  6
Continuous
 62
     0
370
     0
100
AcDbMText
 10
4.5690625378
 20
-0.9910753577
 30
0.0
 40
0.1875
 41
0.0
 71
     1
 72
     1
  1
CSK. HEAD
  7
SLDTEXTSTYLE0
 73
     1
 44
1.0
  0
MTEXT
  5
B9
330
B0
100
AcDbEntity
  8
0
  6
Continuous
 62
     0
370
     0
100
AcDbMText
 10
0.4921875
 20
-1.2376304694
 30
0.0
 40
0.1875
 41
0.0
 71
     1
 72
     1
  1
STAINLESS STEEL SCREWS SUPPLIED FOR ASSEMBLY
  7
SLDTEXTSTYLE0
 73
     1
 44
1.0
  0
MTEXT
  5
BB
330
B0
100
AcDbEntity
  8
0
  6
Continuous
 62
     0
370
     0
100
AcDbMText
 10
0.4921875
 20
-1.4841855812
 30
0.0
 40
0.1875
 41
0.0
 71
     1
 72
     1
  1
OF COVER TO BODY. APPLY AT 12 IN./LB. OF
  7
SLDTEXTSTYLE1
 73
     1
 44
1.0
  0
MTEXT
  5
BC
330
B0
100
AcDbEntity
  8
0
  6
Continuous
 62
     0
370
     0
100
AcDbMText
 10
0.4921875
 20
-1.730740693
 30
0.0
 40
0.1875
 41
0.0
 71
     1
 72
     1
  1
TORQUE.
  7
SLDTEXTSTYLE0
 73
     1
 44
1.0
  0
MTEXT
  5
BD
330
B0
100
AcDbEntity
  8
0
  6
Continuous
 62
     0
370
     0
100
AcDbMText
 10
0.0
 20
-2.2238509165
 30
0.0
 40
0.1875
 41
0.0
 71
     1
 72
     1
  1
OUTSIDE AND INSIDE DRAFT ANGLE: 1
  7
SLDTEXTSTYLE0
 73
     1
 44
1.0
  0
MTEXT
  5
BE
330
B0
100
AcDbEntity
  8
0
  6
Continuous
 62
     0
370
     0
100
AcDbMText
 10
4.4283856029
 20
-2.2238509165
 30
0.0
 40
0.1875
 41
0.0
 71
     1
 72
     1
  1
%%d
  7
SLDTEXTSTYLE0
 73
     1
 44
1.0
  0
MTEXT
  5
BF
330
B0
100
AcDbEntity
  8
0
  6
Continuous
 62
     0
370
     0
100
AcDbMText
 10
0.0
 20
-2.4704060283
 30
0.0
 40
0.1875
 41
0.0
 71
     1
 72
     1
  1
DIMENSIONS ARE INCH[MM]
  7
SLDTEXTSTYLE0
 73
     1
 44
1.0
  0
ENDBLK
  5
B2
330
B0
100
AcDbEntity
  8
0
100
AcDbBlockEnd
  0
BLOCK
  5
C2
330
C1
100
AcDbEntity
  8
0
100
AcDbBlockBegin
  2
SW_NOTE_3
 70
     0
 10
0.0
 20
0.0
 30
0.0
  3
SW_NOTE_3
  1

  0
MTEXT
  5
C4
330
C1
100
AcDbEntity
  8
0
  6
Continuous
 62
     0
370
     0
100
AcDbMText
 10
0.0
 20
0.2417002012
 30
0.0
 40
0.1875
 41
0.0
 71
     1
 72
     1
  1
UL LISTED FOR U.S. AND CANADA - FILE #E194432
  7
SLDTEXTSTYLE0
 73
     1
 44
1.0
  0
MTEXT
  5
C6
330
C1
100
AcDbEntity
  8
0
  6
Continuous
 62
     0
370
     0
100
AcDbMText
 10
0.0
 20
-0.2514100223
 30
0.0
 40
0.1875
 41
0.0
 71
     1
 72
     1
  1
TYPE RATING 4, 4X, 6, 6P, 12 AND 13, COMPARE TO IP-68
  7
SLDTEXTSTYLE2
 73
     1
 44
1.0
  0
MTEXT
  5
C7
330
C1
100
AcDbEntity
  8
0
  6
Continuous
 62
     0
370
     0
100
AcDbMText
 10
0.0
 20
-0.7445202459
 30
0.0
 40
0.1875
 41
0.0
 71
     1
 72
     1
  1
80
  7
SLDTEXTSTYLE0
 73
     1
 44
1.0
  0
MTEXT
  5
C8
330
C1
100
AcDbEntity
  8
0
  6
Continuous
 62
     0
370
     0
100
AcDbMText
 10
0.2770833341
 20
-0.7445202459
 30
0.0
 40
0.1875
 41
0.0
 71
     1
 72
     1
  1
%%d
  7
SLDTEXTSTYLE0
 73
     1
 44
1.0
  0
MTEXT
  5
C9
330
C1
100
AcDbEntity
  8
0
  6
Continuous
 62
     0
370
     0
100
AcDbMText
 10
0.3961458487
 20
-0.7445202459
 30
0.0
 40
0.1875
 41
0.0
 71
     1
 72
     1
  1
C. MAXIMUM OPERATING TEMPERATURE
  7
SLDTEXTSTYLE0
 73
     1
 44
1.0
  0
ENDBLK
  5
C3
330
C1
100
AcDbEntity
  8
0
100
AcDbBlockEnd
  0
BLOCK
  5
CD
330
CC
100
AcDbEntity
  8
0
100
AcDbBlockBegin
  2
SW_NOTE_4
 70
     0
 10
0.0
 20
0.0
 30
0.0
  3
SW_NOTE_4
  1

  0
MTEXT
  5
CF
330
CC
100
AcDbEntity
  8
0
  6
Continuous
 62
     0
370
     0
100
AcDbMText
 10
0.0
 20
0.2417002012
 30
0.0
 40
0.1875
 41
0.0
 71
     1
 72
     1
  1
OPTIONAL ACCESSORIES:
  7
SLDTEXTSTYLE0
 73
     1
 44
1.0
  0
MTEXT
  5
D0
330
CC
100
AcDbEntity
  8
0
  6
Continuous
 62
     0
370
     0
100
AcDbMText
 10
0.140625
 20
-0.0048549106
 30
0.0
 40
0.1875
 41
0.0
 71
     1
 72
     1
  1
PCB MOUNTING KIT #57-58
  7
SLDTEXTSTYLE0
 73
     1
 44
1.0
  0
MTEXT
  5
D1
330
CC
100
AcDbEntity
  8
0
  6
Continuous
 62
     0
370
     0
100
AcDbMText
 10
0.140625
 20
-0.2514100223
 30
0.0
 40
0.1875
 41
0.0
 71
     1
 72
     1
  1
INTERNAL PANEL #ANX-91315
  7
SLDTEXTSTYLE0
 73
     1
 44
1.0
  0
MTEXT
  5
D2
330
CC
100
AcDbEntity
  8
0
  6
Continuous
 62
     0
370
     0
100
AcDbMText
 10
0.140625
 20
-0.4979651341
 30
0.0
 40
0.1875
 41
0.0
 71
     1
 72
     1
  1
REPLACEMENT GASKET #1315GSKTSC
  7
SLDTEXTSTYLE0
 73
     1
 44
1.0
  0
ENDBLK
  5
CE
330
CC
100
AcDbEntity
  8
0
100
AcDbBlockEnd
  0
BLOCK
  5
D5
330
D4
100
AcDbEntity
  8
0
100
AcDbBlockBegin
  2
SW_NOTE_5
 70
     0
 10
0.0
 20
0.0
 30
0.0
  3
SW_NOTE_5
  1

  0
MTEXT
  5
D7
330
D4
100
AcDbEntity
  8
0
  6
Continuous
 62
     0
370
     0
100
AcDbMText
 10
1.5322265625
 20
0.2417002012
 30
0.0
 40
0.1875
 41
0.0
 71
     2
 72
     1
  1
DRAWING FOR REFERENCE
  7
SLDTEXTSTYLE0
 73
     1
 44
1.0
  0
MTEXT
  5
D8
330
D4
100
AcDbEntity
  8
0
  6
Continuous
 62
     0
370
     0
100
AcDbMText
 10
1.5424903937
 20
-0.0321718194
 30
0.0
 40
0.093
 41
0.0
 71
     2
 72
     1
  1
WE RESERVE THE RIGHT TO MAKE CHANGES TO OUR
  7
SLDTEXTSTYLE0
 73
     1
 44
1.0
  0
MTEXT
  5
D9
330
D4
100
AcDbEntity
  8
0
  6
Continuous
 62
     0
370
     0
100
AcDbMText
 10
1.534869547
 20
-0.1842269404
 30
0.0
 40
0.093
 41
0.0
 71
     2
 72
     1
  1
STANDARD PRODUCTS. PLEASE CONSULT WITH BUD INDUSTRIES
  7
SLDTEXTSTYLE0
 73
     1
 44
1.0
  0
MTEXT
  5
DA
330
D4
100
AcDbEntity
  8
0
  6
Continuous
 62
     0
370
     0
100
AcDbMText
 10
1.5504985027
 20
-0.3362820613
 30
0.0
 40
0.093
 41
0.0
 71
     2
 72
     1
  1
PRIOR TO USING THIS DRAWING FOR DESIGN PURPOSE.
  7
SLDTEXTSTYLE0
 73
     1
 44
1.0
  0
ENDBLK
  5
D6
330
D4
100
AcDbEntity
  8
0
100
AcDbBlockEnd
  0
BLOCK
  5
E1
330
E0
100
AcDbEntity
  8
0
100
AcDbBlockBegin
  2
SW_NOTE_6
 70
     0
 10
0.0
 20
0.0
 30
0.0
  3
SW_NOTE_6
  1

  0
MTEXT
  5
E3
330
E0
100
AcDbEntity
  8
0
  6
Continuous
 62
     0
370
     0
100
AcDbMText
 10
0.2841796875
 20
0.2417002012
 30
0.0
 40
0.1875
 41
0.0
 71
     2
 72
     1
  1
PART
  7
SLDTEXTSTYLE0
 73
     1
 44
1.0
  0
MTEXT
  5
E4
330
E0
100
AcDbEntity
  8
0
  6
Continuous
 62
     0
370
     0
100
AcDbMText
 10
0.2816569051
 20
-0.0048549106
 30
0.0
 40
0.1875
 41
0.0
 71
     2
 72
     1
  1
NAME
  7
SLDTEXTSTYLE0
 73
     1
 44
1.0
  0
ENDBLK
  5
E2
330
E0
100
AcDbEntity
  8
0
100
AcDbBlockEnd
  0
BLOCK
  5
E7
330
E6
100
AcDbEntity
  8
0
100
AcDbBlockBegin
  2
SW_NOTE_7
 70
     0
 10
0.0
 20
0.0
 30
0.0
  3
SW_NOTE_7
  1

  0
MTEXT
  5
E9
330
E6
100
AcDbEntity
  8
0
  6
Continuous
 62
     0
370
     0
100
AcDbMText
 10
0.2841796875
 20
0.2417002012
 30
0.0
 40
0.1875
 41
0.0
 71
     2
 72
     1
  1
PART
  7
SLDTEXTSTYLE0
 73
     1
 44
1.0
  0
MTEXT
  5
EA
330
E6
100
AcDbEntity
  8
0
  6
Continuous
 62
     0
370
     0
100
AcDbMText
 10
0.2926432322
 20
-0.0048549106
 30
0.0
 40
0.1875
 41
0.0
 71
     2
 72
     1
  1
No.
  7
SLDTEXTSTYLE0
 73
     1
 44
1.0
  0
ENDBLK
  5
E8
330
E6
100
AcDbEntity
  8
0
100
AcDbBlockEnd
  0
BLOCK
  5
ED
330
EC
100
AcDbEntity
  8
0
100
AcDbBlockBegin
  2
SW_NOTE_8
 70
     0
 10
0.0
 20
0.0
 30
0.0
  3
SW_NOTE_8
  1

  0
MTEXT
  5
EF
330
EC
100
AcDbEntity
  8
0
  6
Continuous
 62
     0
370
     0
100
AcDbMText
 10
0.55078125
 20
0.2417002012
 30
0.0
 40
0.1875
 41
0.0
 71
     2
 72
     1
  1
REVISION
  7
SLDTEXTSTYLE0
 73
     1
 44
1.0
  0
MTEXT
  5
F0
330
EC
100
AcDbEntity
  8
0
  6
Continuous
 62
     0
370
     0
100
AcDbMText
 10
0.5302408854
 20
-0.0048549106
 30
0.0
 40
0.1875
 41
0.0
 71
     2
 72
     1
  1
DATE
  7
SLDTEXTSTYLE0
 73
     1
 44
1.0
  0
ENDBLK
  5
EE
330
EC
100
AcDbEntity
  8
0
100
AcDbBlockEnd
  0
BLOCK
  5
18B
330
18A
100
AcDbEntity
  8
0
100
AcDbBlockBegin
  2
_D
 70
     0
 10
0.0
 20
0.0
 30
0.0
  3
_D
  1

  0
SOLID
  5
18D
330
18A
100
AcDbEntity
  8
0
  6
Continuous
 62
     7
370
     0
100
AcDbTrace
 10
7.6800503636
 20
7.2765767162
 30
0.0
 11
7.7100503636
 21
7.4715767162
 31
0.0
 12
7.6500503636
 22
7.4715767162
 32
0.0
 13
7.6500503636
 23
7.4715767162
 33
0.0
  0
SOLID
  5
18E
330
18A
100
AcDbEntity
  8
0
  6
Continuous
 62
     7
370
     0
100
AcDbTrace
 10
7.6800503636
 20
12.5127971886
 30
0.0
 11
7.6500503636
 21
12.3177971886
 31
0.0
 12
7.7100503636
 22
12.3177971886
 32
0.0
 13
7.7100503636
 23
12.3177971886
 33
0.0
  0
LINE
  5
18F
330
18A
100
AcDbEntity
  8
0
  6
Continuous
 62
     7
370
     0
100
AcDbLine
 10
7.4246304542
 20
9.8932546315
 30
0.0
 11
7.3865445183
 21
9.8932546315
 31
0.0
  0
LINE
  5
190
330
18A
100
AcDbEntity
  8
0
  6
Continuous
 62
     7
370
     0
100
AcDbLine
 10
7.3865445183
 20
9.8932546315
 30
0.0
 11
7.3865445183
 21
9.5955983725
 31
0.0
  0
LINE
  5
191
330
18A
100
AcDbEntity
  8
0
  6
Continuous
 62
     7
370
     0
100
AcDbLine
 10
7.3865445183
 20
9.5955983725
 30
0.0
 11
7.4246304542
 21
9.5955983725
 31
0.0
  0
LINE
  5
192
330
18A
100
AcDbEntity
  8
0
  6
Continuous
 62
     7
370
     0
100
AcDbLine
 10
7.9354703005
 20
9.8932546315
 30
0.0
 11
7.9735562364
 21
9.8932546315
 31
0.0
  0
LINE
  5
193
330
18A
100
AcDbEntity
  8
0
  6
Continuous
 62
     7
370
     0
100
AcDbLine
 10
7.9735562364
 20
9.8932546315
 30
0.0
 11
7.9735562364
 21
9.5955983725
 31
0.0
  0
LINE
  5
194
330
18A
100
AcDbEntity
  8
0
  6
Continuous
 62
     7
370
     0
100
AcDbLine
 10
7.9735562364
 20
9.5955983725
 30
0.0
 11
7.9354703005
 21
9.5955983725
 31
0.0
  0
LINE
  5
195
330
18A
100
AcDbEntity
  8
0
  6
Continuous
 62
     7
370
     0
100
AcDbLine
 10
3.8384098692
 20
7.2765767162
 30
0.0
 11
7.8675503636
 21
7.2765767162
 31
0.0
  0
LINE
  5
196
330
18A
100
AcDbEntity
  8
0
  6
Continuous
 62
     7
370
     0
100
AcDbLine
 10
5.1140004203
 20
12.5127971886
 30
0.0
 11
7.8675503636
 21
12.5127971886
 31
0.0
  0
LINE
  5
197
330
18A
100
AcDbEntity
  8
0
  6
Continuous
 62
     7
370
     0
100
AcDbLine
 10
7.6800503636
 20
7.2765767162
 30
0.0
 11
7.6800503636
 21
9.557512495
 31
0.0
  0
LINE
  5
198
330
18A
100
AcDbEntity
  8
0
  6
Continuous
 62
     7
370
     0
100
AcDbLine
 10
7.6800503636
 20
12.5127971886
 30
0.0
 11
7.6800503636
 21
10.2318614099
 31
0.0
  0
MTEXT
  5
199
330
18A
100
AcDbEntity
  8
0
  6
Continuous
 62
     7
370
     0
100
AcDbMText
 10
7.3590217319
 20
10.1759053727
 30
0.0
 40
0.1875
 41
0.0
 71
     1
 72
     1
  1

  7
SLDTEXTSTYLE0
 73
     1
 44
1.0
  0
MTEXT
  5
19A
330
18A
100
AcDbEntity
  8
0
  6
Continuous
 62
     7
370
     0
100
AcDbMText
 10
7.4376024531
 20
10.1730407755
 30
0.0
 40
0.1875
 41
0.0
 71
     1
 72
     1
  1
5.24
  7
SLDTEXTSTYLE0
 73
     1
 44
1.0
  0
MTEXT
  5
19B
330
18A
100
AcDbEntity
  8
0
  6
Continuous
 62
     7
370
     0
100
AcDbMText
 10
7.4722378768
 20
9.8372985943
 30
0.0
 40
0.1875
 41
0.0
 71
     1
 72
     1
  1
133
  7
SLDTEXTSTYLE0
 73
     1
 44
1.0
  0
MTEXT
  5
19C
330
18A
100
AcDbEntity
  8
0
  6
Continuous
 62
     7
370
     0
100
AcDbMText
 10
8.0724331755
 20
10.1759053727
 30
0.0
 40
0.1875
 41
0.0
 71
     1
 72
     1
  1

  7
SLDTEXTSTYLE0
 73
     1
 44
1.0
  0
ENDBLK
  5
18C
330
18A
100
AcDbEntity
  8
0
100
AcDbBlockEnd
  0
BLOCK
  5
19F
330
19E
100
AcDbEntity
  8
0
100
AcDbBlockBegin
  2
_D_1
 70
     0
 10
0.0
 20
0.0
 30
0.0
  3
_D_1
  1

  0
SOLID
  5
1A1
330
19E
100
AcDbEntity
  8
0
  6
Continuous
 62
     7
370
     0
100
AcDbTrace
 10
5.0390004203
 20
13.7128265846
 30
0.0
 11
4.8440004203
 21
13.7428265846
 31
0.0
 12
4.8440004203
 22
13.6828265846
 32
0.0
 13
4.8440004203
 23
13.6828265846
 33
0.0
  0
SOLID
  5
1A2
330
19E
100
AcDbEntity
  8
0
  6
Continuous
 62
     7
370
     0
100
AcDbTrace
 10
3.7634098692
 20
13.7128265846
 30
0.0
 11
3.9584098692
 21
13.6828265846
 31
0.0
 12
3.9584098692
 22
13.7428265846
 32
0.0
 13
3.9584098692
 23
13.7428265846
 33
0.0
  0
LINE
  5
1A3
330
19E
100
AcDbEntity
  8
0
  6
Continuous
 62
     7
370
     0
100
AcDbLine
 10
6.4029565625
 20
13.7113942636
 30
0.0
 11
6.3648706265
 21
13.7113942636
 31
0.0
  0
LINE
  5
1A4
330
19E
100
AcDbEntity
  8
0
  6
Continuous
 62
     7
370
     0
100
AcDbLine
 10
6.3648706265
 20
13.7113942636
 30
0.0
 11
6.3648706265
 21
13.4137380047
 31
0.0
  0
LINE
  5
1A5
330
19E
100
AcDbEntity
  8
0
  6
Continuous
 62
     7
370
     0
100
AcDbLine
 10
6.3648706265
 20
13.4137380047
 30
0.0
 11
6.4029565625
 21
13.4137380047
 31
0.0
  0
LINE
  5
1A6
330
19E
100
AcDbEntity
  8
0
  6
Continuous
 62
     7
370
     0
100
AcDbLine
 10
6.983067256
 20
13.7113942636
 30
0.0
 11
7.0211531919
 21
13.7113942636
 31
0.0
  0
LINE
  5
1A7
330
19E
100
AcDbEntity
  8
0
  6
Continuous
 62
     7
370
     0
100
AcDbLine
 10
7.0211531919
 20
13.7113942636
 30
0.0
 11
7.0211531919
 21
13.4137380047
 31
0.0
  0
LINE
  5
1A8
330
19E
100
AcDbEntity
  8
0
  6
Continuous
 62
     7
370
     0
100
AcDbLine
 10
7.0211531919
 20
13.4137380047
 30
0.0
 11
6.983067256
 21
13.4137380047
 31
0.0
  0
LINE
  5
1A9
330
19E
100
AcDbEntity
  8
0
  6
Continuous
 62
     7
370
     0
100
AcDbLine
 10
5.0390004203
 20
12.5877971886
 30
0.0
 11
5.0390004203
 21
13.9003265846
 31
0.0
  0
LINE
  5
1AA
330
19E
100
AcDbEntity
  8
0
  6
Continuous
 62
     7
370
     0
100
AcDbLine
 10
3.7634098692
 20
7.3515767162
 30
0.0
 11
3.7634098692
 21
13.9003265846
 31
0.0
  0
LINE
  5
1AB
330
19E
100
AcDbEntity
  8
0
  6
Continuous
 62
     7
370
     0
100
AcDbLine
 10
5.0390004203
 20
13.7128265846
 30
0.0
 11
6.229041518
 21
13.7128265846
 31
0.0
  0
LINE
  5
1AC
330
19E
100
AcDbEntity
  8
0
  6
Continuous
 62
     7
370
     0
100
AcDbLine
 10
3.7634098692
 20
13.7128265846
 30
0.0
 11
5.0390004203
 21
13.7128265846
 31
0.0
  0
MTEXT
  5
1AD
330
19E
100
AcDbEntity
  8
0
  6
Continuous
 62
     7
370
     0
100
AcDbMText
 10
6.3373478401
 20
13.9940450049
 30
0.0
 40
0.1875
 41
0.0
 71
     1
 72
     1
  1

  7
SLDTEXTSTYLE0
 73
     1
 44
1.0
  0
MTEXT
  5
1AE
330
19E
100
AcDbEntity
  8
0
  6
Continuous
 62
     7
370
     0
100
AcDbMText
 10
6.4505639712
 20
13.9911804077
 30
0.0
 40
0.1875
 41
0.0
 71
     1
 72
     1
  1
1.28
  7
SLDTEXTSTYLE0
 73
     1
 44
1.0
  0
MTEXT
  5
1AF
330
19E
100
AcDbEntity
  8
0
  6
Continuous
 62
     7
370
     0
100
AcDbMText
 10
6.450563985
 20
13.6554382265
 30
0.0
 40
0.1875
 41
0.0
 71
     1
 72
     1
  1
32.4
  7
SLDTEXTSTYLE0
 73
     1
 44
1.0
  0
MTEXT
  5
1B0
330
19E
100
AcDbEntity
  8
0
  6
Continuous
 62
     7
370
     0
100
AcDbMText
 10
7.1200301035
 20
13.9940450049
 30
0.0
 40
0.1875
 41
0.0
 71
     1
 72
     1
  1

  7
SLDTEXTSTYLE0
 73
     1
 44
1.0
  0
ENDBLK
  5
1A0
330
19E
100
AcDbEntity
  8
0
100
AcDbBlockEnd
  0
BLOCK
  5
1B3
330
1B2
100
AcDbEntity
  8
0
100
AcDbBlockBegin
  2
_D_2
 70
     0
 10
0.0
 20
0.0
 30
0.0
  3
_D_2
  1

  0
SOLID
  5
1B5
330
1B2
100
AcDbEntity
  8
0
  6
Continuous
 62
     7
370
     0
100
AcDbTrace
 10
4.6900752049
 20
7.1060618169
 30
0.0
 11
4.7200752049
 21
7.3010618169
 31
0.0
 12
4.6600752049
 22
7.3010618169
 32
0.0
 13
4.6600752049
 23
7.3010618169
 33
0.0
  0
SOLID
  5
1B6
330
1B2
100
AcDbEntity
  8
0
  6
Continuous
 62
     7
370
     0
100
AcDbTrace
 10
4.6900752049
 20
12.6833120879
 30
0.0
 11
4.6600752049
 21
12.4883120879
 31
0.0
 12
4.7200752049
 22
12.4883120879
 32
0.0
 13
4.7200752049
 23
12.4883120879
 33
0.0
  0
LINE
  5
1B7
330
1B2
100
AcDbEntity
  8
0
  6
Continuous
 62
     7
370
     0
100
AcDbLine
 10
4.3307490384
 20
9.2269202611
 30
0.0
 11
4.2926631024
 21
9.2269202611
 31
0.0
  0
LINE
  5
1B8
330
1B2
100
AcDbEntity
  8
0
  6
Continuous
 62
     7
370
     0
100
AcDbLine
 10
4.2926631024
 20
9.2269202611
 30
0.0
 11
4.2926631024
 21
8.9292640022
 31
0.0
  0
LINE
  5
1B9
330
1B2
100
AcDbEntity
  8
0
  6
Continuous
 62
     7
370
     0
100
AcDbLine
 10
4.2926631024
 20
8.9292640022
 30
0.0
 11
4.3307490384
 21
8.9292640022
 31
0.0
  0
LINE
  5
1BA
330
1B2
100
AcDbEntity
  8
0
  6
Continuous
 62
     7
370
     0
100
AcDbLine
 10
5.0494013715
 20
9.2269202611
 30
0.0
 11
5.0874873074
 21
9.2269202611
 31
0.0
  0
LINE
  5
1BB
330
1B2
100
AcDbEntity
  8
0
  6
Continuous
 62
     7
370
     0
100
AcDbLine
 10
5.0874873074
 20
9.2269202611
 30
0.0
 11
5.0874873074
 21
8.9292640022
 31
0.0
  0
LINE
  5
1BC
330
1B2
100
AcDbEntity
  8
0
  6
Continuous
 62
     7
370
     0
100
AcDbLine
 10
5.0874873074
 20
8.9292640022
 30
0.0
 11
5.0494013715
 21
8.9292640022
 31
0.0
  0
LINE
  5
1BD
330
1B2
100
AcDbEntity
  8
0
  6
Continuous
 62
     7
370
     0
100
AcDbLine
 10
4.7002208928
 20
7.1060618169
 30
0.0
 11
4.5025752049
 21
7.1060618169
 31
0.0
  0
LINE
  5
1BE
330
1B2
100
AcDbEntity
  8
0
  6
Continuous
 62
     7
370
     0
100
AcDbLine
 10
4.1021893967
 20
12.6833120879
 30
0.0
 11
4.8775752049
 21
12.6833120879
 31
0.0
  0
LINE
  5
1BF
330
1B2
100
AcDbEntity
  8
0
  6
Continuous
 62
     7
370
     0
100
AcDbLine
 10
4.6900752049
 20
7.1060618169
 30
0.0
 11
4.6900752049
 21
8.8911781247
 31
0.0
  0
LINE
  5
1C0
330
1B2
100
AcDbEntity
  8
0
  6
Continuous
 62
     7
370
     0
100
AcDbLine
 10
4.6900752049
 20
12.6833120879
 30
0.0
 11
4.6900752049
 21
9.5655270395
 31
0.0
  0
MTEXT
  5
1C1
330
1B2
100
AcDbEntity
  8
0
  6
Continuous
 62
     7
370
     0
100
AcDbMText
 10
4.2651403161
 20
9.5095710024
 30
0.0
 40
0.1875
 41
0.0
 71
     1
 72
     1
  1

  7
SLDTEXTSTYLE0
 73
     1
 44
1.0
  0
MTEXT
  5
1C2
330
1B2
100
AcDbEntity
  8
0
  6
Continuous
 62
     7
370
     0
100
AcDbMText
 10
4.447627267
 20
9.5067064052
 30
0.0
 40
0.1875
 41
0.0
 71
     1
 72
     1
  1
5.58
  7
SLDTEXTSTYLE0
 73
     1
 44
1.0
  0
MTEXT
  5
1C3
330
1B2
100
AcDbEntity
  8
0
  6
Continuous
 62
     7
370
     0
100
AcDbMText
 10
4.3783564609
 20
9.170964224
 30
0.0
 40
0.1875
 41
0.0
 71
     1
 72
     1
  1
141.7
  7
SLDTEXTSTYLE0
 73
     1
 44
1.0
  0
MTEXT
  5
1C4
330
1B2
100
AcDbEntity
  8
0
  6
Continuous
 62
     7
370
     0
100
AcDbMText
 10
5.186364219
 20
9.5095710024
 30
0.0
 40
0.1875
 41
0.0
 71
     1
 72
     1
  1

  7
SLDTEXTSTYLE0
 73
     1
 44
1.0
  0
ENDBLK
  5
1B4
330
1B2
100
AcDbEntity
  8
0
100
AcDbBlockEnd
  0
BLOCK
  5
1C7
330
1C6
100
AcDbEntity
  8
0
100
AcDbBlockBegin
  2
_D_3
 70
     0
 10
0.0
 20
0.0
 30
0.0
  3
_D_3
  1

  0
SOLID
  5
1C9
330
1C6
100
AcDbEntity
  8
0
  6
Continuous
 62
     7
370
     0
100
AcDbTrace
 10
3.3054933951
 20
11.2188300418
 30
0.0
 11
3.5004933951
 21
11.1888300418
 31
0.0
 12
3.5004933951
 22
11.2488300418
 32
0.0
 13
3.5004933951
 23
11.2488300418
 33
0.0
  0
SOLID
  5
1CA
330
1C6
100
AcDbEntity
  8
0
  6
Continuous
 62
     7
370
     0
100
AcDbTrace
 10
5.4969168944
 20
11.2188300418
 30
0.0
 11
5.3019168944
 21
11.2488300418
 31
0.0
 12
5.3019168944
 22
11.1888300418
 32
0.0
 13
5.3019168944
 23
11.1888300418
 33
0.0
  0
LINE
  5
1CB
330
1C6
100
AcDbEntity
  8
0
  6
Continuous
 62
     7
370
     0
100
AcDbLine
 10
3.9058131493
 20
11.2173977209
 30
0.0
 11
3.8677272133
 21
11.2173977209
 31
0.0
  0
LINE
  5
1CC
330
1C6
100
AcDbEntity
  8
0
  6
Continuous
 62
     7
370
     0
100
AcDbLine
 10
3.8677272133
 20
11.2173977209
 30
0.0
 11
3.8677272133
 21
10.9197414619
 31
0.0
  0
LINE
  5
1CD
330
1C6
100
AcDbEntity
  8
0
  6
Continuous
 62
     7
370
     0
100
AcDbLine
 10
3.8677272133
 20
10.9197414619
 30
0.0
 11
3.9058131493
 21
10.9197414619
 31
0.0
  0
LINE
  5
1CE
330
1C6
100
AcDbEntity
  8
0
  6
Continuous
 62
     7
370
     0
100
AcDbLine
 10
4.4859238428
 20
11.2173977209
 30
0.0
 11
4.5240097788
 21
11.2173977209
 31
0.0
  0
LINE
  5
1CF
330
1C6
100
AcDbEntity
  8
0
  6
Continuous
 62
     7
370
     0
100
AcDbLine
 10
4.5240097788
 20
11.2173977209
 30
0.0
 11
4.5240097788
 21
10.9197414619
 31
0.0
  0
LINE
  5
1D0
330
1C6
100
AcDbEntity
  8
0
  6
Continuous
 62
     7
370
     0
100
AcDbLine
 10
4.5240097788
 20
10.9197414619
 30
0.0
 11
4.4859238428
 21
10.9197414619
 31
0.0
  0
LINE
  5
1D1
330
1C6
100
AcDbEntity
  8
0
  6
Continuous
 62
     7
370
     0
100
AcDbLine
 10
3.3054933951
 20
12.1897656926
 30
0.0
 11
3.3054933951
 21
11.0313300418
 31
0.0
  0
LINE
  5
1D2
330
1C6
100
AcDbEntity
  8
0
  6
Continuous
 62
     7
370
     0
100
AcDbLine
 10
5.4969168944
 20
12.1897656926
 30
0.0
 11
5.4969168944
 21
11.0313300418
 31
0.0
  0
LINE
  5
1D3
330
1C6
100
AcDbEntity
  8
0
  6
Continuous
 62
     7
370
     0
100
AcDbLine
 10
3.3054933951
 20
11.2188300418
 30
0.0
 11
3.7318981048
 21
11.2188300418
 31
0.0
  0
LINE
  5
1D4
330
1C6
100
AcDbEntity
  8
0
  6
Continuous
 62
     7
370
     0
100
AcDbLine
 10
5.4969168944
 20
11.2188300418
 30
0.0
 11
4.6598388323
 21
11.2188300418
 31
0.0
  0
MTEXT
  5
1D5
330
1C6
100
AcDbEntity
  8
0
  6
Continuous
 62
     7
370
     0
100
AcDbMText
 10
3.840204427
 20
11.5000484621
 30
0.0
 40
0.1875
 41
0.0
 71
     1
 72
     1
  1

  7
SLDTEXTSTYLE0
 73
     1
 44
1.0
  0
MTEXT
  5
1D6
330
1C6
100
AcDbEntity
  8
0
  6
Continuous
 62
     7
370
     0
100
AcDbMText
 10
3.9534205581
 20
11.4971838649
 30
0.0
 40
0.1875
 41
0.0
 71
     1
 72
     1
  1
2.19
  7
SLDTEXTSTYLE0
 73
     1
 44
1.0
  0
MTEXT
  5
1D7
330
1C6
100
AcDbEntity
  8
0
  6
Continuous
 62
     7
370
     0
100
AcDbMText
 10
3.9534205718
 20
11.1614416838
 30
0.0
 40
0.1875
 41
0.0
 71
     1
 72
     1
  1
55.7
  7
SLDTEXTSTYLE0
 73
     1
 44
1.0
  0
MTEXT
  5
1D8
330
1C6
100
AcDbEntity
  8
0
  6
Continuous
 62
     7
370
     0
100
AcDbMText
 10
4.6228866904
 20
11.5000484621
 30
0.0
 40
0.1875
 41
0.0
 71
     1
 72
     1
  1

  7
SLDTEXTSTYLE0
 73
     1
 44
1.0
  0
ENDBLK
  5
1C8
330
1C6
100
AcDbEntity
  8
0
100
AcDbBlockEnd
  0
BLOCK
  5
1DC
330
1DB
100
AcDbEntity
  8
0
100
AcDbBlockBegin
  2
_D_4
 70
     0
 10
0.0
 20
0.0
 30
0.0
  3
_D_4
  1

  0
SOLID
  5
1DE
330
1DB
100
AcDbEntity
  8
0
  6
Continuous
 62
     7
370
     0
100
AcDbTrace
 10
6.8389853732
 20
12.3466979147
 30
0.0
 11
6.8089853732
 21
12.1516979147
 31
0.0
 12
6.8689853732
 22
12.1516979147
 32
0.0
 13
6.8689853732
 23
12.1516979147
 33
0.0
  0
SOLID
  5
1DF
330
1DB
100
AcDbEntity
  8
0
  6
Continuous
 62
     7
370
     0
100
AcDbTrace
 10
6.8389853732
 20
7.4426759901
 30
0.0
 11
6.8689853732
 21
7.6376759901
 31
0.0
 12
6.8089853732
 22
7.6376759901
 32
0.0
 13
6.8089853732
 23
7.6376759901
 33
0.0
  0
LINE
  5
1E0
330
1DB
100
AcDbEntity
  8
0
  6
Continuous
 62
     7
370
     0
100
AcDbLine
 10
6.4796592067
 20
9.8932546315
 30
0.0
 11
6.4415732707
 21
9.8932546315
 31
0.0
  0
LINE
  5
1E1
330
1DB
100
AcDbEntity
  8
0
  6
Continuous
 62
     7
370
     0
100
AcDbLine
 10
6.4415732707
 20
9.8932546315
 30
0.0
 11
6.4415732707
 21
9.5955983725
 31
0.0
  0
LINE
  5
1E2
330
1DB
100
AcDbEntity
  8
0
  6
Continuous
 62
     7
370
     0
100
AcDbLine
 10
6.4415732707
 20
9.5955983725
 30
0.0
 11
6.4796592067
 21
9.5955983725
 31
0.0
  0
LINE
  5
1E3
330
1DB
100
AcDbEntity
  8
0
  6
Continuous
 62
     7
370
     0
100
AcDbLine
 10
7.1983115397
 20
9.8932546315
 30
0.0
 11
7.2363974757
 21
9.8932546315
 31
0.0
  0
LINE
  5
1E4
330
1DB
100
AcDbEntity
  8
0
  6
Continuous
 62
     7
370
     0
100
AcDbLine
 10
7.2363974757
 20
9.8932546315
 30
0.0
 11
7.2363974757
 21
9.5955983725
 31
0.0
  0
LINE
  5
1E5
330
1DB
100
AcDbEntity
  8
0
  6
Continuous
 62
     7
370
     0
100
AcDbLine
 10
7.2363974757
 20
9.5955983725
 30
0.0
 11
7.1983115397
 21
9.5955983725
 31
0.0
  0
LINE
  5
1E6
330
1DB
100
AcDbEntity
  8
0
  6
Continuous
 62
     7
370
     0
100
AcDbLine
 10
5.4899846723
 20
12.3466979147
 30
0.0
 11
7.0264853732
 21
12.3466979147
 31
0.0
  0
LINE
  5
1E7
330
1DB
100
AcDbEntity
  8
0
  6
Continuous
 62
     7
370
     0
100
AcDbLine
 10
5.1848665621
 20
7.4426759901
 30
0.0
 11
7.0264853732
 21
7.4426759901
 31
0.0
  0
LINE
  5
1E8
330
1DB
100
AcDbEntity
  8
0
  6
Continuous
 62
     7
370
     0
100
AcDbLine
 10
6.8389853732
 20
12.3466979147
 30
0.0
 11
6.8389853732
 21
10.2318614099
 31
0.0
  0
LINE
  5
1E9
330
1DB
100
AcDbEntity
  8
0
  6
Continuous
 62
     7
370
     0
100
AcDbLine
 10
6.8389853732
 20
7.4426759901
 30
0.0
 11
6.8389853732
 21
9.557512495
 31
0.0
  0
MTEXT
  5
1EA
330
1DB
100
AcDbEntity
  8
0
  6
Continuous
 62
     7
370
     0
100
AcDbMText
 10
6.4140504843
 20
10.1759053727
 30
0.0
 40
0.1875
 41
0.0
 71
     1
 72
     1
  1

  7
SLDTEXTSTYLE0
 73
     1
 44
1.0
  0
MTEXT
  5
1EB
330
1DB
100
AcDbEntity
  8
0
  6
Continuous
 62
     7
370
     0
100
AcDbMText
 10
6.5965374352
 20
10.1730407755
 30
0.0
 40
0.1875
 41
0.0
 71
     1
 72
     1
  1
4.90
  7
SLDTEXTSTYLE0
 73
     1
 44
1.0
  0
MTEXT
  5
1EC
330
1DB
100
AcDbEntity
  8
0
  6
Continuous
 62
     7
370
     0
100
AcDbMText
 10
6.5272666292
 20
9.8372985943
 30
0.0
 40
0.1875
 41
0.0
 71
     1
 72
     1
  1
124.6
  7
SLDTEXTSTYLE0
 73
     1
 44
1.0
  0
MTEXT
  5
1ED
330
1DB
100
AcDbEntity
  8
0
  6
Continuous
 62
     7
370
     0
100
AcDbMText
 10
7.3352743873
 20
10.1759053727
 30
0.0
 40
0.1875
 41
0.0
 71
     1
 72
     1
  1

  7
SLDTEXTSTYLE0
 73
     1
 44
1.0
  0
ENDBLK
  5
1DD
330
1DB
100
AcDbEntity
  8
0
100
AcDbBlockEnd
  0
BLOCK
  5
1F1
330
1F0
100
AcDbEntity
  8
0
100
AcDbBlockBegin
  2
_D_5
 70
     0
 10
0.0
 20
0.0
 30
0.0
  3
_D_5
  1

  0
SOLID
  5
1F3
330
1F0
100
AcDbEntity
  8
0
  6
Continuous
 62
     7
370
     0
100
AcDbTrace
 10
3.9058870959
 20
5.4508930538
 30
0.0
 11
3.7108870959
 21
5.4808930538
 31
0.0
 12
3.7108870959
 22
5.4208930538
 32
0.0
 13
3.7108870959
 23
5.4208930538
 33
0.0
  0
SOLID
  5
1F4
330
1F0
100
AcDbEntity
  8
0
  6
Continuous
 62
     7
370
     0
100
AcDbTrace
 10
4.8571531149
 20
5.4508930538
 30
0.0
 11
5.0521531149
 21
5.4208930538
 31
0.0
 12
5.0521531149
 22
5.4808930538
 32
0.0
 13
5.0521531149
 23
5.4808930538
 33
0.0
  0
LINE
  5
1F5
330
1F0
100
AcDbEntity
  8
0
  6
Continuous
 62
     7
370
     0
100
AcDbLine
 10
4.0914647861
 20
5.4494607329
 30
0.0
 11
4.0533788502
 21
5.4494607329
 31
0.0
  0
LINE
  5
1F6
330
1F0
100
AcDbEntity
  8
0
  6
Continuous
 62
     7
370
     0
100
AcDbLine
 10
4.0533788502
 20
5.4494607329
 30
0.0
 11
4.0533788502
 21
5.1518044739
 31
0.0
  0
LINE
  5
1F7
330
1F0
100
AcDbEntity
  8
0
  6
Continuous
 62
     7
370
     0
100
AcDbLine
 10
4.0533788502
 20
5.1518044739
 30
0.0
 11
4.0914647861
 21
5.1518044739
 31
0.0
  0
LINE
  5
1F8
330
1F0
100
AcDbEntity
  8
0
  6
Continuous
 62
     7
370
     0
100
AcDbLine
 10
4.6715754796
 20
5.4494607329
 30
0.0
 11
4.7096614156
 21
5.4494607329
 31
0.0
  0
LINE
  5
1F9
330
1F0
100
AcDbEntity
  8
0
  6
Continuous
 62
     7
370
     0
100
AcDbLine
 10
4.7096614156
 20
5.4494607329
 30
0.0
 11
4.7096614156
 21
5.1518044739
 31
0.0
  0
LINE
  5
1FA
330
1F0
100
AcDbEntity
  8
0
  6
Continuous
 62
     7
370
     0
100
AcDbLine
 10
4.7096614156
 20
5.1518044739
 30
0.0
 11
4.6715754796
 21
5.1518044739
 31
0.0
  0
LINE
  5
1FB
330
1F0
100
AcDbEntity
  8
0
  6
Continuous
 62
     7
370
     0
100
AcDbLine
 10
3.9058870959
 20
7.2417109262
 30
0.0
 11
3.9058870959
 21
5.2633930538
 31
0.0
  0
LINE
  5
1FC
330
1F0
100
AcDbEntity
  8
0
  6
Continuous
 62
     7
370
     0
100
AcDbLine
 10
4.8571531149
 20
7.114962543
 30
0.0
 11
4.8571531149
 21
5.2633930538
 31
0.0
  0
LINE
  5
1FD
330
1F0
100
AcDbEntity
  8
0
  6
Continuous
 62
     7
370
     0
100
AcDbLine
 10
3.9058870959
 20
5.4508930538
 30
0.0
 11
3.5308870959
 21
5.4508930538
 31
0.0
  0
LINE
  5
1FE
330
1F0
100
AcDbEntity
  8
0
  6
Continuous
 62
     7
370
     0
100
AcDbLine
 10
4.8571531149
 20
5.4508930538
 30
0.0
 11
5.2321531149
 21
5.4508930538
 31
0.0
  0
MTEXT
  5
1FF
330
1F0
100
AcDbEntity
  8
0
  6
Continuous
 62
     7
370
     0
100
AcDbMText
 10
4.0258560638
 20
5.7321114742
 30
0.0
 40
0.1875
 41
0.0
 71
     1
 72
     1
  1

  7
SLDTEXTSTYLE0
 73
     1
 44
1.0
  0
MTEXT
  5
200
330
1F0
100
AcDbEntity
  8
0
  6
Continuous
 62
     7
370
     0
100
AcDbMText
 10
4.2083430422
 20
5.7292468769
 30
0.0
 40
0.1875
 41
0.0
 71
     1
 72
     1
  1
.95
  7
SLDTEXTSTYLE0
 73
     1
 44
1.0
  0
MTEXT
  5
201
330
1F0
100
AcDbEntity
  8
0
  6
Continuous
 62
     7
370
     0
100
AcDbMText
 10
4.1390722087
 20
5.3935046958
 30
0.0
 40
0.1875
 41
0.0
 71
     1
 72
     1
  1
24.2
  7
SLDTEXTSTYLE0
 73
     1
 44
1.0
  0
MTEXT
  5
202
330
1F0
100
AcDbEntity
  8
0
  6
Continuous
 62
     7
370
     0
100
AcDbMText
 10
4.8085383272
 20
5.7321114742
 30
0.0
 40
0.1875
 41
0.0
 71
     1
 72
     1
  1

  7
SLDTEXTSTYLE0
 73
     1
 44
1.0
  0
ENDBLK
  5
1F2
330
1F0
100
AcDbEntity
  8
0
100
AcDbBlockEnd
  0
BLOCK
  5
205
330
204
100
AcDbEntity
  8
0
100
AcDbBlockBegin
  2
_D_6
 70
     0
 10
0.0
 20
0.0
 30
0.0
  3
_D_6
  1

  0
SOLID
  5
207
330
204
100
AcDbEntity
  8
0
  6
Continuous
 62
     7
370
     0
100
AcDbTrace
 10
3.6352354955
 20
4.6991741765
 30
0.0
 11
3.8302354955
 21
4.6691741765
 31
0.0
 12
3.8302354955
 22
4.7291741765
 32
0.0
 13
3.8302354955
 23
4.7291741765
 33
0.0
  0
SOLID
  5
208
330
204
100
AcDbEntity
  8
0
  6
Continuous
 62
     7
370
     0
100
AcDbTrace
 10
4.8571531149
 20
4.6991741765
 30
0.0
 11
4.6621531149
 21
4.7291741765
 31
0.0
 12
4.6621531149
 22
4.6691741765
 32
0.0
 13
4.6621531149
 23
4.6691741765
 33
0.0
  0
LINE
  5
209
330
204
100
AcDbEntity
  8
0
  6
Continuous
 62
     7
370
     0
100
AcDbLine
 10
4.0600452431
 20
4.6977418556
 30
0.0
 11
4.0219593071
 21
4.6977418556
 31
0.0
  0
LINE
  5
20A
330
204
100
AcDbEntity
  8
0
  6
Continuous
 62
     7
370
     0
100
AcDbLine
 10
4.0219593071
 20
4.6977418556
 30
0.0
 11
4.0219593071
 21
4.4000855966
 31
0.0
  0
LINE
  5
20B
330
204
100
AcDbEntity
  8
0
  6
Continuous
 62
     7
370
     0
100
AcDbLine
 10
4.0219593071
 20
4.4000855966
 30
0.0
 11
4.0600452431
 21
4.4000855966
 31
0.0
  0
LINE
  5
20C
330
204
100
AcDbEntity
  8
0
  6
Continuous
 62
     7
370
     0
100
AcDbLine
 10
4.4323434223
 20
4.6977418556
 30
0.0
 11
4.4704293582
 21
4.6977418556
 31
0.0
  0
LINE
  5
20D
330
204
100
AcDbEntity
  8
0
  6
Continuous
 62
     7
370
     0
100
AcDbLine
 10
4.4704293582
 20
4.6977418556
 30
0.0
 11
4.4704293582
 21
4.4000855966
 31
0.0
  0
LINE
  5
20E
330
204
100
AcDbEntity
  8
0
  6
Continuous
 62
     7
370
     0
100
AcDbLine
 10
4.4704293582
 20
4.4000855966
 30
0.0
 11
4.4323434223
 21
4.4000855966
 31
0.0
  0
LINE
  5
20F
330
204
100
AcDbEntity
  8
0
  6
Continuous
 62
     7
370
     0
100
AcDbLine
 10
3.6352354955
 20
7.114962543
 30
0.0
 11
3.6352354955
 21
4.5116741765
 31
0.0
  0
LINE
  5
210
330
204
100
AcDbEntity
  8
0
  6
Continuous
 62
     7
370
     0
100
AcDbLine
 10
4.8571531149
 20
7.114962543
 30
0.0
 11
4.8571531149
 21
4.5116741765
 31
0.0
  0
LINE
  5
211
330
204
100
AcDbEntity
  8
0
  6
Continuous
 62
     7
370
     0
100
AcDbLine
 10
3.6352354955
 20
4.6991741765
 30
0.0
 11
3.8861301986
 21
4.6991741765
 31
0.0
  0
LINE
  5
212
330
204
100
AcDbEntity
  8
0
  6
Continuous
 62
     7
370
     0
100
AcDbLine
 10
4.8571531149
 20
4.6991741765
 30
0.0
 11
4.6062584118
 21
4.6991741765
 31
0.0
  0
MTEXT
  5
213
330
204
100
AcDbEntity
  8
0
  6
Continuous
 62
     7
370
     0
100
AcDbMText
 10
3.9944365208
 20
4.9803925969
 30
0.0
 40
0.1875
 41
0.0
 71
     1
 72
     1
  1

  7
SLDTEXTSTYLE0
 73
     1
 44
1.0
  0
MTEXT
  5
214
330
204
100
AcDbEntity
  8
0
  6
Continuous
 62
     7
370
     0
100
AcDbMText
 10
4.0037463947
 20
4.9775279996
 30
0.0
 40
0.1875
 41
0.0
 71
     1
 72
     1
  1
1.22
  7
SLDTEXTSTYLE0
 73
     1
 44
1.0
  0
MTEXT
  5
215
330
204
100
AcDbEntity
  8
0
  6
Continuous
 62
     7
370
     0
100
AcDbMText
 10
4.1076526656
 20
4.6417858185
 30
0.0
 40
0.1875
 41
0.0
 71
     1
 72
     1
  1
31
  7
SLDTEXTSTYLE0
 73
     1
 44
1.0
  0
MTEXT
  5
216
330
204
100
AcDbEntity
  8
0
  6
Continuous
 62
     7
370
     0
100
AcDbMText
 10
4.5693062698
 20
4.9803925969
 30
0.0
 40
0.1875
 41
0.0
 71
     1
 72
     1
  1

  7
SLDTEXTSTYLE0
 73
     1
 44
1.0
  0
ENDBLK
  5
206
330
204
100
AcDbEntity
  8
0
100
AcDbBlockEnd
  0
BLOCK
  5
219
330
218
100
AcDbEntity
  8
0
100
AcDbBlockBegin
  2
_D_7
 70
     0
 10
0.0
 20
0.0
 30
0.0
  3
_D_7
  1

  0
SOLID
  5
21B
330
218
100
AcDbEntity
  8
0
  6
Continuous
 62
     7
370
     0
100
AcDbTrace
 10
1.8310213432
 20
12.3466979147
 30
0.0
 11
1.8010213432
 21
12.1516979147
 31
0.0
 12
1.8610213432
 22
12.1516979147
 32
0.0
 13
1.8610213432
 23
12.1516979147
 33
0.0
  0
SOLID
  5
21C
330
218
100
AcDbEntity
  8
0
  6
Continuous
 62
     7
370
     0
100
AcDbTrace
 10
1.8310213432
 20
7.4426759901
 30
0.0
 11
1.8610213432
 21
7.6376759901
 31
0.0
 12
1.8010213432
 22
7.6376759901
 32
0.0
 13
1.8010213432
 23
7.6376759901
 33
0.0
  0
LINE
  5
21D
330
218
100
AcDbEntity
  8
0
  6
Continuous
 62
     7
370
     0
100
AcDbLine
 10
1.4716951767
 20
9.8932546315
 30
0.0
 11
1.4336092407
 21
9.8932546315
 31
0.0
  0
LINE
  5
21E
330
218
100
AcDbEntity
  8
0
  6
Continuous
 62
     7
370
     0
100
AcDbLine
 10
1.4336092407
 20
9.8932546315
 30
0.0
 11
1.4336092407
 21
9.5955983725
 31
0.0
  0
LINE
  5
21F
330
218
100
AcDbEntity
  8
0
  6
Continuous
 62
     7
370
     0
100
AcDbLine
 10
1.4336092407
 20
9.5955983725
 30
0.0
 11
1.4716951767
 21
9.5955983725
 31
0.0
  0
LINE
  5
220
330
218
100
AcDbEntity
  8
0
  6
Continuous
 62
     7
370
     0
100
AcDbLine
 10
2.1903475097
 20
9.8932546315
 30
0.0
 11
2.2284334457
 21
9.8932546315
 31
0.0
  0
LINE
  5
221
330
218
100
AcDbEntity
  8
0
  6
Continuous
 62
     7
370
     0
100
AcDbLine
 10
2.2284334457
 20
9.8932546315
 30
0.0
 11
2.2284334457
 21
9.5955983725
 31
0.0
  0
LINE
  5
222
330
218
100
AcDbEntity
  8
0
  6
Continuous
 62
     7
370
     0
100
AcDbLine
 10
2.2284334457
 20
9.5955983725
 30
0.0
 11
2.1903475097
 21
9.5955983725
 31
0.0
  0
LINE
  5
223
330
218
100
AcDbEntity
  8
0
  6
Continuous
 62
     7
370
     0
100
AcDbLine
 10
3.3124256172
 20
12.3466979147
 30
0.0
 11
1.6435213432
 21
12.3466979147
 31
0.0
  0
LINE
  5
224
330
218
100
AcDbEntity
  8
0
  6
Continuous
 62
     7
370
     0
100
AcDbLine
 10
3.3124256172
 20
7.4426759901
 30
0.0
 11
1.6435213432
 21
7.4426759901
 31
0.0
  0
LINE
  5
225
330
218
100
AcDbEntity
  8
0
  6
Continuous
 62
     7
370
     0
100
AcDbLine
 10
1.8310213432
 20
12.3466979147
 30
0.0
 11
1.8310213432
 21
10.2318614099
 31
0.0
  0
LINE
  5
226
330
218
100
AcDbEntity
  8
0
  6
Continuous
 62
     7
370
     0
100
AcDbLine
 10
1.8310213432
 20
7.4426759901
 30
0.0
 11
1.8310213432
 21
9.557512495
 31
0.0
  0
MTEXT
  5
227
330
218
100
AcDbEntity
  8
0
  6
Continuous
 62
     7
370
     0
100
AcDbMText
 10
1.4060864543
 20
10.1759053727
 30
0.0
 40
0.1875
 41
0.0
 71
     1
 72
     1
  1

  7
SLDTEXTSTYLE0
 73
     1
 44
1.0
  0
MTEXT
  5
228
330
218
100
AcDbEntity
  8
0
  6
Continuous
 62
     7
370
     0
100
AcDbMText
 10
1.5885734052
 20
10.1730407755
 30
0.0
 40
0.1875
 41
0.0
 71
     1
 72
     1
  1
4.90
  7
SLDTEXTSTYLE0
 73
     1
 44
1.0
  0
MTEXT
  5
229
330
218
100
AcDbEntity
  8
0
  6
Continuous
 62
     7
370
     0
100
AcDbMText
 10
1.5193025992
 20
9.8372985943
 30
0.0
 40
0.1875
 41
0.0
 71
     1
 72
     1
  1
124.6
  7
SLDTEXTSTYLE0
 73
     1
 44
1.0
  0
MTEXT
  5
22A
330
218
100
AcDbEntity
  8
0
  6
Continuous
 62
     7
370
     0
100
AcDbMText
 10
2.3273103573
 20
10.1759053727
 30
0.0
 40
0.1875
 41
0.0
 71
     1
 72
     1
  1

  7
SLDTEXTSTYLE0
 73
     1
 44
1.0
  0
ENDBLK
  5
21A
330
218
100
AcDbEntity
  8
0
100
AcDbBlockEnd
  0
BLOCK
  5
22C
330
22B
100
AcDbEntity
  8
0
100
AcDbBlockBegin
  2
SW_NOTE_9
 70
     0
 10
0.0
 20
0.0
 30
0.0
  3
SW_NOTE_9
  1

  0
LINE
  5
22E
330
22B
100
AcDbEntity
  8
0
  6
Continuous
 62
     0
370
     0
100
AcDbLine
 10
0.1980137305
 20
-0.1853117295
 30
0.0
 11
0.1599277945
 21
-0.1853117295
 31
0.0
  0
LINE
  5
22F
330
22B
100
AcDbEntity
  8
0
  6
Continuous
 62
     0
370
     0
100
AcDbLine
 10
0.1599277945
 20
-0.1853117295
 30
0.0
 11
0.1599277945
 21
-0.4829679885
 31
0.0
  0
LINE
  5
230
330
22B
100
AcDbEntity
  8
0
  6
Continuous
 62
     0
370
     0
100
AcDbLine
 10
0.1599277945
 20
-0.4829679885
 30
0.0
 11
0.1980137305
 21
-0.4829679885
 31
0.0
  0
LINE
  5
231
330
22B
100
AcDbEntity
  8
0
  6
Continuous
 62
     0
370
     0
100
AcDbLine
 10
0.6395827295
 20
-0.1853117295
 30
0.0
 11
0.6776686654
 21
-0.1853117295
 31
0.0
  0
LINE
  5
232
330
22B
100
AcDbEntity
  8
0
  6
Continuous
 62
     0
370
     0
100
AcDbLine
 10
0.6776686654
 20
-0.1853117295
 30
0.0
 11
0.6776686654
 21
-0.4829679885
 31
0.0
  0
LINE
  5
233
330
22B
100
AcDbEntity
  8
0
  6
Continuous
 62
     0
370
     0
100
AcDbLine
 10
0.6776686654
 20
-0.4829679885
 30
0.0
 11
0.6395827295
 21
-0.4829679885
 31
0.0
  0
MTEXT
  5
234
330
22B
100
AcDbEntity
  8
0
  6
Continuous
 62
     0
370
     0
100
AcDbMText
 10
0.0349635903
 20
0.0944744145
 30
0.0
 40
0.1875
 41
0.0
 71
     1
 72
     1
  1
%%c
  7
SLDTEXTSTYLE0
 73
     1
 44
1.0
  0
MTEXT
  5
235
330
22B
100
AcDbEntity
  8
0
  6
Continuous
 62
     0
370
     0
100
AcDbMText
 10
0.3177370212
 20
0.0944744145
 30
0.0
 40
0.1875
 41
0.0
 71
     1
 72
     1
  1
.126
  7
SLDTEXTSTYLE0
 73
     1
 44
1.0
  0
MTEXT
  5
236
330
22B
100
AcDbEntity
  8
0
  6
Continuous
 62
     0
370
     0
100
AcDbMText
 10
0.245621153
 20
-0.2412677666
 30
0.0
 40
0.1875
 41
0.0
 71
     1
 72
     1
  1
3.2
  7
SLDTEXTSTYLE0
 73
     1
 44
1.0
  0
MTEXT
  5
237
330
22B
100
AcDbEntity
  8
0
  6
Continuous
 62
     0
370
     0
100
AcDbMText
 10
0.8729453421
 20
0.0944744283
 30
0.0
 40
0.1875
 41
0.0
 71
     1
 72
     1
  1
x .390 DEEP (2X)
  7
SLDTEXTSTYLE0
 73
     1
 44
1.0
  0
MTEXT
  5
238
330
22B
100
AcDbEntity
  8
0
  6
Continuous
 62
     0
370
     0
100
AcDbMText
 10
0.0349635903
 20
-0.52590878
 30
0.0
 40
0.1875
 41
0.0
 71
     1
 72
     1
  1
ACCEPTS M3.5 x 6mm LG.
  7
SLDTEXTSTYLE0
 73
     1
 44
1.0
  0
MTEXT
  5
23A
330
22B
100
AcDbEntity
  8
0
  6
Continuous
 62
     0
370
     0
100
AcDbMText
 10
0.0349635903
 20
-0.7724638918
 30
0.0
 40
0.1875
 41
0.0
 71
     1
 72
     1
  1
OR #6 x 1/4" LG.
  7
SLDTEXTSTYLE3
 73
     1
 44
1.0
  0
MTEXT
  5
23B
330
22B
100
AcDbEntity
  8
0
  6
Continuous
 62
     0
370
     0
100
AcDbMText
 10
0.0349635903
 20
-1.0190190036
 30
0.0
 40
0.1875
 41
0.0
 71
     1
 72
     1
  1
SELF-TAPPING SCREW
  7
SLDTEXTSTYLE0
 73
     1
 44
1.0
  0
MTEXT
  5
23C
330
22B
100
AcDbEntity
  8
0
  6
Continuous
 62
     0
370
     0
100
AcDbMText
 10
0.0349635903
 20
-1.2655741153
 30
0.0
 40
0.1875
 41
0.0
 71
     1
 72
     1
  1
(NOT SUPPLIED - FOR PCB
  7
SLDTEXTSTYLE0
 73
     1
 44
1.0
  0
MTEXT
  5
23D
330
22B
100
AcDbEntity
  8
0
  6
Continuous
 62
     0
370
     0
100
AcDbMText
 10
0.0349635903
 20
-1.5121292271
 30
0.0
 40
0.1875
 41
0.0
 71
     1
 72
     1
  1
MOUNTING)
  7
SLDTEXTSTYLE0
 73
     1
 44
1.0
  0
ENDBLK
  5
22D
330
22B
100
AcDbEntity
  8
0
100
AcDbBlockEnd
  0
BLOCK
  5
26D
330
26C
100
AcDbEntity
  8
0
100
AcDbBlockBegin
  2
_D_8
 70
     0
 10
0.0
 20
0.0
 30
0.0
  3
_D_8
  1

  0
SOLID
  5
26F
330
26C
100
AcDbEntity
  8
0
  6
Continuous
 62
     7
370
     0
100
AcDbTrace
 10
20.1242226614
 20
9.0570808069
 30
0.0
 11
20.3192226614
 21
9.0270808069
 31
0.0
 12
20.3192226614
 22
9.0870808069
 32
0.0
 13
20.3192226614
 23
9.0870808069
 33
0.0
  0
SOLID
  5
270
330
26C
100
AcDbEntity
  8
0
  6
Continuous
 62
     7
370
     0
100
AcDbTrace
 10
22.2698919527
 20
9.0570808069
 30
0.0
 11
22.0748919527
 21
9.0870808069
 31
0.0
 12
22.0748919527
 22
9.0270808069
 32
0.0
 13
22.0748919527
 23
9.0270808069
 33
0.0
  0
LINE
  5
271
330
26C
100
AcDbEntity
  8
0
  6
Continuous
 62
     7
370
     0
100
AcDbLine
 10
20.9070019878
 20
9.055648486
 30
0.0
 11
20.8689160518
 21
9.055648486
 31
0.0
  0
LINE
  5
272
330
26C
100
AcDbEntity
  8
0
  6
Continuous
 62
     7
370
     0
100
AcDbLine
 10
20.8689160518
 20
9.055648486
 30
0.0
 11
20.8689160518
 21
8.757992227
 31
0.0
  0
LINE
  5
273
330
26C
100
AcDbEntity
  8
0
  6
Continuous
 62
     7
370
     0
100
AcDbLine
 10
20.8689160518
 20
8.757992227
 30
0.0
 11
20.9070019878
 21
8.757992227
 31
0.0
  0
LINE
  5
274
330
26C
100
AcDbEntity
  8
0
  6
Continuous
 62
     7
370
     0
100
AcDbLine
 10
21.4871126813
 20
9.055648486
 30
0.0
 11
21.5251986173
 21
9.055648486
 31
0.0
  0
LINE
  5
275
330
26C
100
AcDbEntity
  8
0
  6
Continuous
 62
     7
370
     0
100
AcDbLine
 10
21.5251986173
 20
9.055648486
 30
0.0
 11
21.5251986173
 21
8.757992227
 31
0.0
  0
LINE
  5
276
330
26C
100
AcDbEntity
  8
0
  6
Continuous
 62
     7
370
     0
100
AcDbLine
 10
21.5251986173
 20
8.757992227
 30
0.0
 11
21.4871126813
 21
8.757992227
 31
0.0
  0
LINE
  5
277
330
26C
100
AcDbEntity
  8
0
  6
Continuous
 62
     7
370
     0
100
AcDbLine
 10
20.1242226614
 20
7.2612119813
 30
0.0
 11
20.1242226614
 21
9.2445808069
 31
0.0
  0
LINE
  5
278
330
26C
100
AcDbEntity
  8
0
  6
Continuous
 62
     7
370
     0
100
AcDbLine
 10
22.2698919527
 20
7.2614156802
 30
0.0
 11
22.2698919527
 21
9.2445808069
 31
0.0
  0
LINE
  5
279
330
26C
100
AcDbEntity
  8
0
  6
Continuous
 62
     7
370
     0
100
AcDbLine
 10
20.1242226614
 20
9.0570808069
 30
0.0
 11
20.7330869433
 21
9.0570808069
 31
0.0
  0
LINE
  5
27A
330
26C
100
AcDbEntity
  8
0
  6
Continuous
 62
     7
370
     0
100
AcDbLine
 10
22.2698919527
 20
9.0570808069
 30
0.0
 11
21.6610276708
 21
9.0570808069
 31
0.0
  0
MTEXT
  5
27B
330
26C
100
AcDbEntity
  8
0
  6
Continuous
 62
     7
370
     0
100
AcDbMText
 10
20.8413932655
 20
9.3382992272
 30
0.0
 40
0.1875
 41
0.0
 71
     1
 72
     1
  1

  7
SLDTEXTSTYLE0
 73
     1
 44
1.0
  0
MTEXT
  5
27C
330
26C
100
AcDbEntity
  8
0
  6
Continuous
 62
     7
370
     0
100
AcDbMText
 10
20.9546093966
 20
9.33543463
 30
0.0
 40
0.1875
 41
0.0
 71
     1
 72
     1
  1
2.15
  7
SLDTEXTSTYLE0
 73
     1
 44
1.0
  0
MTEXT
  5
27D
330
26C
100
AcDbEntity
  8
0
  6
Continuous
 62
     7
370
     0
100
AcDbMText
 10
20.9546094103
 20
8.9996924489
 30
0.0
 40
0.1875
 41
0.0
 71
     1
 72
     1
  1
54.5
  7
SLDTEXTSTYLE0
 73
     1
 44
1.0
  0
MTEXT
  5
27E
330
26C
100
AcDbEntity
  8
0
  6
Continuous
 62
     7
370
     0
100
AcDbMText
 10
21.6240755289
 20
9.3382992272
 30
0.0
 40
0.1875
 41
0.0
 71
     1
 72
     1
  1

  7
SLDTEXTSTYLE0
 73
     1
 44
1.0
  0
ENDBLK
  5
26E
330
26C
100
AcDbEntity
  8
0
100
AcDbBlockEnd
  0
BLOCK
  5
281
330
280
100
AcDbEntity
  8
0
100
AcDbBlockBegin
  2
_D_9
 70
     0
 10
0.0
 20
0.0
 30
0.0
  3
_D_9
  1

  0
SOLID
  5
283
330
280
100
AcDbEntity
  8
0
  6
Continuous
 62
     7
370
     0
100
AcDbTrace
 10
23.8750154776
 20
7.5759757609
 30
0.0
 11
23.8450154776
 21
7.3809757609
 31
0.0
 12
23.9050154776
 22
7.3809757609
 32
0.0
 13
23.9050154776
 23
7.3809757609
 33
0.0
  0
SOLID
  5
284
330
280
100
AcDbEntity
  8
0
  6
Continuous
 62
     7
370
     0
100
AcDbTrace
 10
23.8750154776
 20
2.0444796979
 30
0.0
 11
23.9050154776
 21
2.2394796979
 31
0.0
 12
23.8450154776
 22
2.2394796979
 32
0.0
 13
23.8450154776
 23
2.2394796979
 33
0.0
  0
LINE
  5
285
330
280
100
AcDbEntity
  8
0
  6
Continuous
 62
     7
370
     0
100
AcDbLine
 10
23.5156893111
 20
4.8087954084
 30
0.0
 11
23.4776033751
 21
4.8087954084
 31
0.0
  0
LINE
  5
286
330
280
100
AcDbEntity
  8
0
  6
Continuous
 62
     7
370
     0
100
AcDbLine
 10
23.4776033751
 20
4.8087954084
 30
0.0
 11
23.4776033751
 21
4.5111391495
 31
0.0
  0
LINE
  5
287
330
280
100
AcDbEntity
  8
0
  6
Continuous
 62
     7
370
     0
100
AcDbLine
 10
23.4776033751
 20
4.5111391495
 30
0.0
 11
23.5156893111
 21
4.5111391495
 31
0.0
  0
LINE
  5
288
330
280
100
AcDbEntity
  8
0
  6
Continuous
 62
     7
370
     0
100
AcDbLine
 10
24.2343416441
 20
4.8087954084
 30
0.0
 11
24.2724275801
 21
4.8087954084
 31
0.0
  0
LINE
  5
289
330
280
100
AcDbEntity
  8
0
  6
Continuous
 62
     7
370
     0
100
AcDbLine
 10
24.2724275801
 20
4.8087954084
 30
0.0
 11
24.2724275801
 21
4.5111391495
 31
0.0
  0
LINE
  5
28A
330
280
100
AcDbEntity
  8
0
  6
Continuous
 62
     7
370
     0
100
AcDbLine
 10
24.2724275801
 20
4.5111391495
 30
0.0
 11
24.2343416441
 21
4.5111391495
 31
0.0
  0
LINE
  5
28B
330
280
100
AcDbEntity
  8
0
  6
Continuous
 62
     7
370
     0
100
AcDbLine
 10
21.859343438
 20
7.5759757609
 30
0.0
 11
24.0625154776
 21
7.5759757609
 31
0.0
  0
LINE
  5
28C
330
280
100
AcDbEntity
  8
0
  6
Continuous
 62
     7
370
     0
100
AcDbLine
 10
21.6519785669
 20
2.0444796979
 30
0.0
 11
24.0625154776
 21
2.0444796979
 31
0.0
  0
LINE
  5
28D
330
280
100
AcDbEntity
  8
0
  6
Continuous
 62
     7
370
     0
100
AcDbLine
 10
23.8750154776
 20
7.5759757609
 30
0.0
 11
23.8750154776
 21
5.1474021868
 31
0.0
  0
LINE
  5
28E
330
280
100
AcDbEntity
  8
0
  6
Continuous
 62
     7
370
     0
100
AcDbLine
 10
23.8750154776
 20
2.0444796979
 30
0.0
 11
23.8750154776
 21
4.4730532719
 31
0.0
  0
MTEXT
  5
28F
330
280
100
AcDbEntity
  8
0
  6
Continuous
 62
     7
370
     0
100
AcDbMText
 10
23.4500805887
 20
5.0914461497
 30
0.0
 40
0.1875
 41
0.0
 71
     1
 72
     1
  1

  7
SLDTEXTSTYLE0
 73
     1
 44
1.0
  0
MTEXT
  5
290
330
280
100
AcDbEntity
  8
0
  6
Continuous
 62
     7
370
     0
100
AcDbMText
 10
23.6325675396
 20
5.0885815525
 30
0.0
 40
0.1875
 41
0.0
 71
     1
 72
     1
  1
5.53
  7
SLDTEXTSTYLE0
 73
     1
 44
1.0
  0
MTEXT
  5
291
330
280
100
AcDbEntity
  8
0
  6
Continuous
 62
     7
370
     0
100
AcDbMText
 10
23.5632967336
 20
4.7528393713
 30
0.0
 40
0.1875
 41
0.0
 71
     1
 72
     1
  1
140.5
  7
SLDTEXTSTYLE0
 73
     1
 44
1.0
  0
MTEXT
  5
292
330
280
100
AcDbEntity
  8
0
  6
Continuous
 62
     7
370
     0
100
AcDbMText
 10
24.3713044917
 20
5.0914461497
 30
0.0
 40
0.1875
 41
0.0
 71
     1
 72
     1
  1

  7
SLDTEXTSTYLE0
 73
     1
 44
1.0
  0
ENDBLK
  5
282
330
280
100
AcDbEntity
  8
0
100
AcDbBlockEnd
  0
BLOCK
  5
295
330
294
100
AcDbEntity
  8
0
100
AcDbBlockBegin
  2
_D_10
 70
     0
 10
0.0
 20
0.0
 30
0.0
  3
_D_10
  1

  0
SOLID
  5
297
330
294
100
AcDbEntity
  8
0
  6
Continuous
 62
     7
370
     0
100
AcDbTrace
 10
20.5572935275
 20
5.1597817809
 30
0.0
 11
20.3622935275
 21
5.1897817809
 31
0.0
 12
20.3622935275
 22
5.1297817809
 32
0.0
 13
20.3622935275
 23
5.1297817809
 33
0.0
  0
SOLID
  5
298
330
294
100
AcDbEntity
  8
0
  6
Continuous
 62
     7
370
     0
100
AcDbTrace
 10
21.8368210866
 20
5.1597817809
 30
0.0
 11
22.0318210866
 21
5.1297817809
 31
0.0
 12
22.0318210866
 22
5.1897817809
 32
0.0
 13
22.0318210866
 23
5.1897817809
 33
0.0
  0
LINE
  5
299
330
294
100
AcDbEntity
  8
0
  6
Continuous
 62
     7
370
     0
100
AcDbLine
 10
20.9070019878
 20
5.15834946
 30
0.0
 11
20.8689160518
 21
5.15834946
 31
0.0
  0
LINE
  5
29A
330
294
100
AcDbEntity
  8
0
  6
Continuous
 62
     7
370
     0
100
AcDbLine
 10
20.8689160518
 20
5.15834946
 30
0.0
 11
20.8689160518
 21
4.860693201
 31
0.0
  0
LINE
  5
29B
330
294
100
AcDbEntity
  8
0
  6
Continuous
 62
     7
370
     0
100
AcDbLine
 10
20.8689160518
 20
4.860693201
 30
0.0
 11
20.9070019878
 21
4.860693201
 31
0.0
  0
LINE
  5
29C
330
294
100
AcDbEntity
  8
0
  6
Continuous
 62
     7
370
     0
100
AcDbLine
 10
21.4871126813
 20
5.15834946
 30
0.0
 11
21.5251986173
 21
5.15834946
 31
0.0
  0
LINE
  5
29D
330
294
100
AcDbEntity
  8
0
  6
Continuous
 62
     7
370
     0
100
AcDbLine
 10
21.5251986173
 20
5.15834946
 30
0.0
 11
21.5251986173
 21
4.860693201
 31
0.0
  0
LINE
  5
29E
330
294
100
AcDbEntity
  8
0
  6
Continuous
 62
     7
370
     0
100
AcDbLine
 10
21.5251986173
 20
4.860693201
 30
0.0
 11
21.4871126813
 21
4.860693201
 31
0.0
  0
LINE
  5
29F
330
294
100
AcDbEntity
  8
0
  6
Continuous
 62
     7
370
     0
100
AcDbLine
 10
20.5572935275
 20
2.2671174932
 30
0.0
 11
20.5572935275
 21
5.3472817809
 31
0.0
  0
LINE
  5
2A0
330
294
100
AcDbEntity
  8
0
  6
Continuous
 62
     7
370
     0
100
AcDbLine
 10
21.8368210866
 20
7.3533379656
 30
0.0
 11
21.8368210866
 21
4.9722817809
 31
0.0
  0
LINE
  5
2A1
330
294
100
AcDbEntity
  8
0
  6
Continuous
 62
     7
370
     0
100
AcDbLine
 10
20.5572935275
 20
5.1597817809
 30
0.0
 11
20.1822935275
 21
5.1597817809
 31
0.0
  0
LINE
  5
2A2
330
294
100
AcDbEntity
  8
0
  6
Continuous
 62
     7
370
     0
100
AcDbLine
 10
21.8368210866
 20
5.1597817809
 30
0.0
 11
22.2118210866
 21
5.1597817809
 31
0.0
  0
MTEXT
  5
2A3
330
294
100
AcDbEntity
  8
0
  6
Continuous
 62
     7
370
     0
100
AcDbMText
 10
20.8413932655
 20
5.4410002012
 30
0.0
 40
0.1875
 41
0.0
 71
     1
 72
     1
  1

  7
SLDTEXTSTYLE0
 73
     1
 44
1.0
  0
MTEXT
  5
2A4
330
294
100
AcDbEntity
  8
0
  6
Continuous
 62
     7
370
     0
100
AcDbMText
 10
20.9546093966
 20
5.438135604
 30
0.0
 40
0.1875
 41
0.0
 71
     1
 72
     1
  1
1.28
  7
SLDTEXTSTYLE0
 73
     1
 44
1.0
  0
MTEXT
  5
2A5
330
294
100
AcDbEntity
  8
0
  6
Continuous
 62
     7
370
     0
100
AcDbMText
 10
20.9546094103
 20
5.1023934229
 30
0.0
 40
0.1875
 41
0.0
 71
     1
 72
     1
  1
32.5
  7
SLDTEXTSTYLE0
 73
     1
 44
1.0
  0
MTEXT
  5
2A6
330
294
100
AcDbEntity
  8
0
  6
Continuous
 62
     7
370
     0
100
AcDbMText
 10
21.6240755289
 20
5.4410002012
 30
0.0
 40
0.1875
 41
0.0
 71
     1
 72
     1
  1

  7
SLDTEXTSTYLE0
 73
     1
 44
1.0
  0
ENDBLK
  5
296
330
294
100
AcDbEntity
  8
0
100
AcDbBlockEnd
  0
BLOCK
  5
2A9
330
2A8
100
AcDbEntity
  8
0
100
AcDbBlockBegin
  2
_D_11
 70
     0
 10
0.0
 20
0.0
 30
0.0
  3
_D_11
  1

  0
SOLID
  5
2AB
330
2A8
100
AcDbEntity
  8
0
  6
Continuous
 62
     7
370
     0
100
AcDbTrace
 10
22.9240139449
 20
2.1921174932
 30
0.0
 11
22.9540139449
 21
2.3871174932
 31
0.0
 12
22.8940139449
 22
2.3871174932
 32
0.0
 13
22.8940139449
 23
2.3871174932
 33
0.0
  0
SOLID
  5
2AC
330
2A8
100
AcDbEntity
  8
0
  6
Continuous
 62
     7
370
     0
100
AcDbTrace
 10
22.9240139449
 20
7.4283379656
 30
0.0
 11
22.8940139449
 21
7.2333379656
 31
0.0
 12
22.9540139449
 22
7.2333379656
 32
0.0
 13
22.9540139449
 23
7.2333379656
 33
0.0
  0
LINE
  5
2AD
330
2A8
100
AcDbEntity
  8
0
  6
Continuous
 62
     7
370
     0
100
AcDbLine
 10
22.6685940355
 20
4.8087954084
 30
0.0
 11
22.6305080996
 21
4.8087954084
 31
0.0
  0
LINE
  5
2AE
330
2A8
100
AcDbEntity
  8
0
  6
Continuous
 62
     7
370
     0
100
AcDbLine
 10
22.6305080996
 20
4.8087954084
 30
0.0
 11
22.6305080996
 21
4.5111391495
 31
0.0
  0
LINE
  5
2AF
330
2A8
100
AcDbEntity
  8
0
  6
Continuous
 62
     7
370
     0
100
AcDbLine
 10
22.6305080996
 20
4.5111391495
 30
0.0
 11
22.6685940355
 21
4.5111391495
 31
0.0
  0
LINE
  5
2B0
330
2A8
100
AcDbEntity
  8
0
  6
Continuous
 62
     7
370
     0
100
AcDbLine
 10
23.1794338818
 20
4.8087954084
 30
0.0
 11
23.2175198177
 21
4.8087954084
 31
0.0
  0
LINE
  5
2B1
330
2A8
100
AcDbEntity
  8
0
  6
Continuous
 62
     7
370
     0
100
AcDbLine
 10
23.2175198177
 20
4.8087954084
 30
0.0
 11
23.2175198177
 21
4.5111391495
 31
0.0
  0
LINE
  5
2B2
330
2A8
100
AcDbEntity
  8
0
  6
Continuous
 62
     7
370
     0
100
AcDbLine
 10
23.2175198177
 20
4.5111391495
 30
0.0
 11
23.1794338818
 21
4.5111391495
 31
0.0
  0
LINE
  5
2B3
330
2A8
100
AcDbEntity
  8
0
  6
Continuous
 62
     7
370
     0
100
AcDbLine
 10
20.6322935275
 20
2.1921174932
 30
0.0
 11
23.1115139449
 21
2.1921174932
 31
0.0
  0
LINE
  5
2B4
330
2A8
100
AcDbEntity
  8
0
  6
Continuous
 62
     7
370
     0
100
AcDbLine
 10
21.9118210866
 20
7.4283379656
 30
0.0
 11
23.1115139449
 21
7.4283379656
 31
0.0
  0
LINE
  5
2B5
330
2A8
100
AcDbEntity
  8
0
  6
Continuous
 62
     7
370
     0
100
AcDbLine
 10
22.9240139449
 20
2.1921174932
 30
0.0
 11
22.9240139449
 21
4.4730532719
 31
0.0
  0
LINE
  5
2B6
330
2A8
100
AcDbEntity
  8
0
  6
Continuous
 62
     7
370
     0
100
AcDbLine
 10
22.9240139449
 20
7.4283379656
 30
0.0
 11
22.9240139449
 21
5.1474021868
 31
0.0
  0
MTEXT
  5
2B7
330
2A8
100
AcDbEntity
  8
0
  6
Continuous
 62
     7
370
     0
100
AcDbMText
 10
22.6029853132
 20
5.0914461497
 30
0.0
 40
0.1875
 41
0.0
 71
     1
 72
     1
  1

  7
SLDTEXTSTYLE0
 73
     1
 44
1.0
  0
MTEXT
  5
2B8
330
2A8
100
AcDbEntity
  8
0
  6
Continuous
 62
     7
370
     0
100
AcDbMText
 10
22.6815660344
 20
5.0885815525
 30
0.0
 40
0.1875
 41
0.0
 71
     1
 72
     1
  1
5.24
  7
SLDTEXTSTYLE0
 73
     1
 44
1.0
  0
MTEXT
  5
2B9
330
2A8
100
AcDbEntity
  8
0
  6
Continuous
 62
     7
370
     0
100
AcDbMText
 10
22.7162014581
 20
4.7528393713
 30
0.0
 40
0.1875
 41
0.0
 71
     1
 72
     1
  1
133
  7
SLDTEXTSTYLE0
 73
     1
 44
1.0
  0
MTEXT
  5
2BA
330
2A8
100
AcDbEntity
  8
0
  6
Continuous
 62
     7
370
     0
100
AcDbMText
 10
23.3163967568
 20
5.0914461497
 30
0.0
 40
0.1875
 41
0.0
 71
     1
 72
     1
  1

  7
SLDTEXTSTYLE0
 73
     1
 44
1.0
  0
ENDBLK
  5
2AA
330
2A8
100
AcDbEntity
  8
0
100
AcDbBlockEnd
  0
BLOCK
  5
2BD
330
2BC
100
AcDbEntity
  8
0
100
AcDbBlockBegin
  2
_D_12
 70
     0
 10
0.0
 20
0.0
 30
0.0
  3
_D_12
  1

  0
SOLID
  5
2BF
330
2BC
100
AcDbEntity
  8
0
  6
Continuous
 62
     7
370
     0
100
AcDbTrace
 10
19.4364162424
 20
7.2452670994
 30
0.0
 11
19.4064162424
 21
7.0502670994
 31
0.0
 12
19.4664162424
 22
7.0502670994
 32
0.0
 13
19.4664162424
 23
7.0502670994
 33
0.0
  0
SOLID
  5
2C0
330
2BC
100
AcDbEntity
  8
0
  6
Continuous
 62
     7
370
     0
100
AcDbTrace
 10
19.4364162424
 20
7.5759757609
 30
0.0
 11
19.4664162424
 21
7.7709757609
 31
0.0
 12
19.4064162424
 22
7.7709757609
 32
0.0
 13
19.4064162424
 23
7.7709757609
 33
0.0
  0
LINE
  5
2C1
330
2BC
100
AcDbEntity
  8
0
  6
Continuous
 62
     7
370
     0
100
AcDbLine
 10
18.5574446096
 20
8.1640966675
 30
0.0
 11
18.5193586736
 21
8.1640966675
 31
0.0
  0
LINE
  5
2C2
330
2BC
100
AcDbEntity
  8
0
  6
Continuous
 62
     7
370
     0
100
AcDbLine
 10
18.5193586736
 20
8.1640966675
 30
0.0
 11
18.5193586736
 21
7.8664404085
 31
0.0
  0
LINE
  5
2C3
330
2BC
100
AcDbEntity
  8
0
  6
Continuous
 62
     7
370
     0
100
AcDbLine
 10
18.5193586736
 20
7.8664404085
 30
0.0
 11
18.5574446096
 21
7.8664404085
 31
0.0
  0
LINE
  5
2C4
330
2BC
100
AcDbEntity
  8
0
  6
Continuous
 62
     7
370
     0
100
AcDbLine
 10
18.9990136085
 20
8.1640966675
 30
0.0
 11
19.0370995445
 21
8.1640966675
 31
0.0
  0
LINE
  5
2C5
330
2BC
100
AcDbEntity
  8
0
  6
Continuous
 62
     7
370
     0
100
AcDbLine
 10
19.0370995445
 20
8.1640966675
 30
0.0
 11
19.0370995445
 21
7.8664404085
 31
0.0
  0
LINE
  5
2C6
330
2BC
100
AcDbEntity
  8
0
  6
Continuous
 62
     7
370
     0
100
AcDbLine
 10
19.0370995445
 20
7.8664404085
 30
0.0
 11
18.9990136085
 21
7.8664404085
 31
0.0
  0
LINE
  5
2C7
330
2BC
100
AcDbEntity
  8
0
  6
Continuous
 62
     7
370
     0
100
AcDbLine
 10
20.1082777795
 20
7.2452670994
 30
0.0
 11
19.2489162424
 21
7.2452670994
 31
0.0
  0
LINE
  5
2C8
330
2BC
100
AcDbEntity
  8
0
  6
Continuous
 62
     7
370
     0
100
AcDbLine
 10
20.7421360472
 20
7.5759757609
 30
0.0
 11
19.2489162424
 21
7.5759757609
 31
0.0
  0
LINE
  5
2C9
330
2BC
100
AcDbEntity
  8
0
  6
Continuous
 62
     7
370
     0
100
AcDbLine
 10
19.2489162424
 20
8.1655289884
 30
0.0
 11
19.4364162424
 21
8.1655289884
 31
0.0
  0
LINE
  5
2CA
330
2BC
100
AcDbEntity
  8
0
  6
Continuous
 62
     7
370
     0
100
AcDbLine
 10
19.4364162424
 20
8.1655289884
 30
0.0
 11
19.4364162424
 21
7.5759757609
 31
0.0
  0
LINE
  5
2CB
330
2BC
100
AcDbEntity
  8
0
  6
Continuous
 62
     7
370
     0
100
AcDbLine
 10
19.4364162424
 20
7.2452670994
 30
0.0
 11
19.4364162424
 21
6.8702670994
 31
0.0
  0
MTEXT
  5
2CC
330
2BC
100
AcDbEntity
  8
0
  6
Continuous
 62
     7
370
     0
100
AcDbMText
 10
18.4918358873
 20
8.4467474087
 30
0.0
 40
0.1875
 41
0.0
 71
     1
 72
     1
  1

  7
SLDTEXTSTYLE0
 73
     1
 44
1.0
  0
MTEXT
  5
2CD
330
2BC
100
AcDbEntity
  8
0
  6
Continuous
 62
     7
370
     0
100
AcDbMText
 10
18.6050520184
 20
8.4438828115
 30
0.0
 40
0.1875
 41
0.0
 71
     1
 72
     1
  1
.33
  7
SLDTEXTSTYLE0
 73
     1
 44
1.0
  0
MTEXT
  5
2CE
330
2BC
100
AcDbEntity
  8
0
  6
Continuous
 62
     7
370
     0
100
AcDbMText
 10
18.6050520321
 20
8.1081406303
 30
0.0
 40
0.1875
 41
0.0
 71
     1
 72
     1
  1
8.4
  7
SLDTEXTSTYLE0
 73
     1
 44
1.0
  0
MTEXT
  5
2CF
330
2BC
100
AcDbEntity
  8
0
  6
Continuous
 62
     7
370
     0
100
AcDbMText
 10
19.1359764561
 20
8.4467474087
 30
0.0
 40
0.1875
 41
0.0
 71
     1
 72
     1
  1

  7
SLDTEXTSTYLE0
 73
     1
 44
1.0
  0
ENDBLK
  5
2BE
330
2BC
100
AcDbEntity
  8
0
100
AcDbBlockEnd
  0
BLOCK
  5
2D2
330
2D1
100
AcDbEntity
  8
0
100
AcDbBlockBegin
  2
_D_13
 70
     0
 10
0.0
 20
0.0
 30
0.0
  3
_D_13
  1

  0
SOLID
  5
2D4
330
2D1
100
AcDbEntity
  8
0
  6
Continuous
 62
     7
370
     0
100
AcDbTrace
 10
20.7580809291
 20
8.2764520454
 30
0.0
 11
20.5630809291
 21
8.3064520454
 31
0.0
 12
20.5630809291
 22
8.2464520454
 32
0.0
 13
20.5630809291
 23
8.2464520454
 33
0.0
  0
SOLID
  5
2D5
330
2D1
100
AcDbEntity
  8
0
  6
Continuous
 62
     7
370
     0
100
AcDbTrace
 10
20.1242226614
 20
8.2764520454
 30
0.0
 11
20.3192226614
 21
8.2464520454
 31
0.0
 12
20.3192226614
 22
8.3064520454
 32
0.0
 13
20.3192226614
 23
8.3064520454
 33
0.0
  0
LINE
  5
2D6
330
2D1
100
AcDbEntity
  8
0
  6
Continuous
 62
     7
370
     0
100
AcDbLine
 10
21.2836049702
 20
8.2750197244
 30
0.0
 11
21.2455190342
 21
8.2750197244
 31
0.0
  0
LINE
  5
2D7
330
2D1
100
AcDbEntity
  8
0
  6
Continuous
 62
     7
370
     0
100
AcDbLine
 10
21.2455190342
 20
8.2750197244
 30
0.0
 11
21.2455190342
 21
7.9773634655
 31
0.0
  0
LINE
  5
2D8
330
2D1
100
AcDbEntity
  8
0
  6
Continuous
 62
     7
370
     0
100
AcDbLine
 10
21.2455190342
 20
7.9773634655
 30
0.0
 11
21.2836049702
 21
7.9773634655
 31
0.0
  0
LINE
  5
2D9
330
2D1
100
AcDbEntity
  8
0
  6
Continuous
 62
     7
370
     0
100
AcDbLine
 10
21.8637156637
 20
8.2750197244
 30
0.0
 11
21.9018015997
 21
8.2750197244
 31
0.0
  0
LINE
  5
2DA
330
2D1
100
AcDbEntity
  8
0
  6
Continuous
 62
     7
370
     0
100
AcDbLine
 10
21.9018015997
 20
8.2750197244
 30
0.0
 11
21.9018015997
 21
7.9773634655
 31
0.0
  0
LINE
  5
2DB
330
2D1
100
AcDbEntity
  8
0
  6
Continuous
 62
     7
370
     0
100
AcDbLine
 10
21.9018015997
 20
7.9773634655
 30
0.0
 11
21.8637156637
 21
7.9773634655
 31
0.0
  0
LINE
  5
2DC
330
2D1
100
AcDbEntity
  8
0
  6
Continuous
 62
     7
370
     0
100
AcDbLine
 10
20.7580809291
 20
7.5919206428
 30
0.0
 11
20.7580809291
 21
8.4639520454
 31
0.0
  0
LINE
  5
2DD
330
2D1
100
AcDbEntity
  8
0
  6
Continuous
 62
     7
370
     0
100
AcDbLine
 10
20.1242226614
 20
7.2612119813
 30
0.0
 11
20.1242226614
 21
8.4639520454
 31
0.0
  0
LINE
  5
2DE
330
2D1
100
AcDbEntity
  8
0
  6
Continuous
 62
     7
370
     0
100
AcDbLine
 10
20.7580809291
 20
8.2764520454
 30
0.0
 11
21.1096899257
 21
8.2764520454
 31
0.0
  0
LINE
  5
2DF
330
2D1
100
AcDbEntity
  8
0
  6
Continuous
 62
     7
370
     0
100
AcDbLine
 10
20.1242226614
 20
8.2764520454
 30
0.0
 11
20.7580809291
 21
8.2764520454
 31
0.0
  0
MTEXT
  5
2E0
330
2D1
100
AcDbEntity
  8
0
  6
Continuous
 62
     7
370
     0
100
AcDbMText
 10
21.2179962479
 20
8.5576704657
 30
0.0
 40
0.1875
 41
0.0
 71
     1
 72
     1
  1

  7
SLDTEXTSTYLE0
 73
     1
 44
1.0
  0
MTEXT
  5
2E1
330
2D1
100
AcDbEntity
  8
0
  6
Continuous
 62
     7
370
     0
100
AcDbMText
 10
21.4004832262
 20
8.5548058685
 30
0.0
 40
0.1875
 41
0.0
 71
     1
 72
     1
  1
.63
  7
SLDTEXTSTYLE0
 73
     1
 44
1.0
  0
MTEXT
  5
2E2
330
2D1
100
AcDbEntity
  8
0
  6
Continuous
 62
     7
370
     0
100
AcDbMText
 10
21.3312123927
 20
8.2190636873
 30
0.0
 40
0.1875
 41
0.0
 71
     1
 72
     1
  1
16.1
  7
SLDTEXTSTYLE0
 73
     1
 44
1.0
  0
MTEXT
  5
2E3
330
2D1
100
AcDbEntity
  8
0
  6
Continuous
 62
     7
370
     0
100
AcDbMText
 10
22.0006785112
 20
8.5576704657
 30
0.0
 40
0.1875
 41
0.0
 71
     1
 72
     1
  1

  7
SLDTEXTSTYLE0
 73
     1
 44
1.0
  0
ENDBLK
  5
2D3
330
2D1
100
AcDbEntity
  8
0
100
AcDbBlockEnd
  0
BLOCK
  5
2E7
330
2E6
100
AcDbEntity
  8
0
100
AcDbBlockBegin
  2
_D_14
 70
     0
 10
0.0
 20
0.0
 30
0.0
  3
_D_14
  1

  0
ARC
  5
2E9
330
2E6
100
AcDbEntity
  8
0
  6
Continuous
 62
     7
370
     0
100
AcDbCircle
 10
22.2226478582
 20
7.5287316664
 30
0.0
 40
0.2834645669291346
100
AcDbArc
 50
282.8438097217
 51
56.6148218835
  0
SOLID
  5
2EA
330
2E6
100
AcDbEntity
  8
0
  6
Continuous
 62
     7
370
     0
100
AcDbTrace
 10
22.4833228046
 20
7.640090245
 30
0.0
 11
22.6744308944
 21
7.6891075688
 31
0.0
 12
22.6508599952
 22
7.7442837657
 32
0.0
 13
22.6508599952
 23
7.7442837657
 33
0.0
  0
LINE
  5
2EB
330
2E6
100
AcDbEntity
  8
0
  6
Continuous
 62
     7
370
     0
100
AcDbLine
 10
23.773010455
 20
8.0963319359
 30
0.0
 11
23.734924519
 21
8.0963319359
 31
0.0
  0
LINE
  5
2EC
330
2E6
100
AcDbEntity
  8
0
  6
Continuous
 62
     7
370
     0
100
AcDbLine
 10
23.734924519
 20
8.0963319359
 30
0.0
 11
23.734924519
 21
7.798675677
 31
0.0
  0
LINE
  5
2ED
330
2E6
100
AcDbEntity
  8
0
  6
Continuous
 62
     7
370
     0
100
AcDbLine
 10
23.734924519
 20
7.798675677
 30
0.0
 11
23.773010455
 21
7.798675677
 31
0.0
  0
LINE
  5
2EE
330
2E6
100
AcDbEntity
  8
0
  6
Continuous
 62
     7
370
     0
100
AcDbLine
 10
24.214579454
 20
8.0963319359
 30
0.0
 11
24.2526653899
 21
8.0963319359
 31
0.0
  0
LINE
  5
2EF
330
2E6
100
AcDbEntity
  8
0
  6
Continuous
 62
     7
370
     0
100
AcDbLine
 10
24.2526653899
 20
8.0963319359
 30
0.0
 11
24.2526653899
 21
7.798675677
 31
0.0
  0
LINE
  5
2F0
330
2E6
100
AcDbEntity
  8
0
  6
Continuous
 62
     7
370
     0
100
AcDbLine
 10
24.2526653899
 20
7.798675677
 30
0.0
 11
24.214579454
 21
7.798675677
 31
0.0
  0
LINE
  5
2F1
330
2E6
100
AcDbEntity
  8
0
  6
Continuous
 62
     7
370
     0
100
AcDbLine
 10
22.4833228046
 20
7.640090245
 30
0.0
 11
23.5188600662
 21
8.0824647777
 31
0.0
  0
LINE
  5
2F2
330
2E6
100
AcDbEntity
  8
0
  6
Continuous
 62
     7
370
     0
100
AcDbLine
 10
23.5188600662
 20
8.0824647777
 30
0.0
 11
23.7063600662
 21
8.0824647777
 31
0.0
  0
MTEXT
  5
2F3
330
2E6
100
AcDbEntity
  8
0
  6
Continuous
 62
     7
370
     0
100
AcDbMText
 10
23.7447063932
 20
8.37611808
 30
0.0
 40
0.1875
 41
0.0
 71
     1
 72
     1
  1
R.28
  7
SLDTEXTSTYLE0
 73
     1
 44
1.0
  0
MTEXT
  5
2F4
330
2E6
100
AcDbEntity
  8
0
  6
Continuous
 62
     7
370
     0
100
AcDbMText
 10
23.8206178775
 20
8.0403758988
 30
0.0
 40
0.1875
 41
0.0
 71
     1
 72
     1
  1
7.2
  7
SLDTEXTSTYLE0
 73
     1
 44
1.0
  0
ENDBLK
  5
2E8
330
2E6
100
AcDbEntity
  8
0
100
AcDbBlockEnd
  0
BLOCK
  5
2F8
330
2F7
100
AcDbEntity
  8
0
100
AcDbBlockBegin
  2
_D_15
 70
     0
 10
0.0
 20
0.0
 30
0.0
  3
_D_15
  1

  0
SOLID
  5
2FA
330
2F7
100
AcDbEntity
  8
0
  6
Continuous
 62
     7
370
     0
100
AcDbTrace
 10
20.3874186124
 20
2.2753455677
 30
0.0
 11
20.5554087983
 21
2.3788071424
 31
0.0
 12
20.5165421892
 22
2.4245169521
 32
0.0
 13
20.5165421892
 23
2.4245169521
 33
0.0
  0
LINE
  5
2FB
330
2F7
100
AcDbEntity
  8
0
  6
Continuous
 62
     7
370
     0
100
AcDbLine
 10
18.2759569577
 20
1.0854207435
 30
0.0
 11
18.2378710217
 21
1.0854207435
 31
0.0
  0
LINE
  5
2FC
330
2F7
100
AcDbEntity
  8
0
  6
Continuous
 62
     7
370
     0
100
AcDbLine
 10
18.2378710217
 20
1.0854207435
 30
0.0
 11
18.2378710217
 21
0.7877644846
 31
0.0
  0
LINE
  5
2FD
330
2F7
100
AcDbEntity
  8
0
  6
Continuous
 62
     7
370
     0
100
AcDbLine
 10
18.2378710217
 20
0.7877644846
 30
0.0
 11
18.2759569577
 21
0.7877644846
 31
0.0
  0
LINE
  5
2FE
330
2F7
100
AcDbEntity
  8
0
  6
Continuous
 62
     7
370
     0
100
AcDbLine
 10
18.7175259566
 20
1.0854207435
 30
0.0
 11
18.7556118926
 21
1.0854207435
 31
0.0
  0
LINE
  5
2FF
330
2F7
100
AcDbEntity
  8
0
  6
Continuous
 62
     7
370
     0
100
AcDbLine
 10
18.7556118926
 20
1.0854207435
 30
0.0
 11
18.7556118926
 21
0.7877644846
 31
0.0
  0
LINE
  5
300
330
2F7
100
AcDbEntity
  8
0
  6
Continuous
 62
     7
370
     0
100
AcDbLine
 10
18.7556118926
 20
0.7877644846
 30
0.0
 11
18.7175259566
 21
0.7877644846
 31
0.0
  0
LINE
  5
301
330
2F7
100
AcDbEntity
  8
0
  6
Continuous
 62
     7
370
     0
100
AcDbLine
 10
20.3874186124
 20
2.2753455677
 30
0.0
 11
18.9716763179
 21
1.0715535853
 31
0.0
  0
LINE
  5
302
330
2F7
100
AcDbEntity
  8
0
  6
Continuous
 62
     7
370
     0
100
AcDbLine
 10
20.3874186124
 20
2.2753455677
 30
0.0
 11
20.6731049226
 21
2.5182618746
 31
0.0
  0
LINE
  5
303
330
2F7
100
AcDbEntity
  8
0
  6
Continuous
 62
     7
370
     0
100
AcDbLine
 10
18.9716763179
 20
1.0715535853
 30
0.0
 11
18.7841763179
 21
1.0715535853
 31
0.0
  0
MTEXT
  5
304
330
2F7
100
AcDbEntity
  8
0
  6
Continuous
 62
     7
370
     0
100
AcDbMText
 10
18.2476528959
 20
1.3652068876
 30
0.0
 40
0.1875
 41
0.0
 71
     1
 72
     1
  1
R.28
  7
SLDTEXTSTYLE0
 73
     1
 44
1.0
  0
MTEXT
  5
305
330
2F7
100
AcDbEntity
  8
0
  6
Continuous
 62
     7
370
     0
100
AcDbMText
 10
18.3235643802
 20
1.0294647064
 30
0.0
 40
0.1875
 41
0.0
 71
     1
 72
     1
  1
7.2
  7
SLDTEXTSTYLE0
 73
     1
 44
1.0
  0
ENDBLK
  5
2F9
330
2F7
100
AcDbEntity
  8
0
100
AcDbBlockEnd
  0
BLOCK
  5
308
330
307
100
AcDbEntity
  8
0
100
AcDbBlockBegin
  2
_D_16
 70
     0
 10
0.0
 20
0.0
 30
0.0
  3
_D_16
  1

  0
SOLID
  5
30A
330
307
100
AcDbEntity
  8
0
  6
Continuous
 62
     7
370
     0
100
AcDbTrace
 10
21.6887824064
 20
2.2670368021
 30
0.0
 11
21.550084308
 21
2.4073501568
 31
0.0
 12
21.5143229805
 22
2.3591720761
 32
0.0
 13
21.5143229805
 23
2.3591720761
 33
0.0
  0
LINE
  5
30B
330
307
100
AcDbEntity
  8
0
  6
Continuous
 62
     7
370
     0
100
AcDbLine
 10
23.5535018348
 20
1.0854207435
 30
0.0
 11
23.5154158989
 21
1.0854207435
 31
0.0
  0
LINE
  5
30C
330
307
100
AcDbEntity
  8
0
  6
Continuous
 62
     7
370
     0
100
AcDbLine
 10
23.5154158989
 20
1.0854207435
 30
0.0
 11
23.5154158989
 21
0.7877644846
 31
0.0
  0
LINE
  5
30D
330
307
100
AcDbEntity
  8
0
  6
Continuous
 62
     7
370
     0
100
AcDbLine
 10
23.5154158989
 20
0.7877644846
 30
0.0
 11
23.5535018348
 21
0.7877644846
 31
0.0
  0
LINE
  5
30E
330
307
100
AcDbEntity
  8
0
  6
Continuous
 62
     7
370
     0
100
AcDbLine
 10
23.9950708338
 20
1.0854207435
 30
0.0
 11
24.0331567698
 21
1.0854207435
 31
0.0
  0
LINE
  5
30F
330
307
100
AcDbEntity
  8
0
  6
Continuous
 62
     7
370
     0
100
AcDbLine
 10
24.0331567698
 20
1.0854207435
 30
0.0
 11
24.0331567698
 21
0.7877644846
 31
0.0
  0
LINE
  5
310
330
307
100
AcDbEntity
  8
0
  6
Continuous
 62
     7
370
     0
100
AcDbLine
 10
24.0331567698
 20
0.7877644846
 30
0.0
 11
23.9950708338
 21
0.7877644846
 31
0.0
  0
LINE
  5
311
330
307
100
AcDbEntity
  8
0
  6
Continuous
 62
     7
370
     0
100
AcDbLine
 10
21.6887824064
 20
2.2670368021
 30
0.0
 11
23.299351446
 21
1.0715535853
 31
0.0
  0
LINE
  5
312
330
307
100
AcDbEntity
  8
0
  6
Continuous
 62
     7
370
     0
100
AcDbLine
 10
21.6887824064
 20
2.2670368021
 30
0.0
 11
21.3876694023
 21
2.4905450989
 31
0.0
  0
LINE
  5
313
330
307
100
AcDbEntity
  8
0
  6
Continuous
 62
     7
370
     0
100
AcDbLine
 10
23.299351446
 20
1.0715535853
 30
0.0
 11
23.486851446
 21
1.0715535853
 31
0.0
  0
MTEXT
  5
314
330
307
100
AcDbEntity
  8
0
  6
Continuous
 62
     7
370
     0
100
AcDbMText
 10
23.5251977731
 20
1.3652068876
 30
0.0
 40
0.1875
 41
0.0
 71
     1
 72
     1
  1
R.27
  7
SLDTEXTSTYLE0
 73
     1
 44
1.0
  0
MTEXT
  5
315
330
307
100
AcDbEntity
  8
0
  6
Continuous
 62
     7
370
     0
100
AcDbMText
 10
23.6011092574
 20
1.0294647064
 30
0.0
 40
0.1875
 41
0.0
 71
     1
 72
     1
  1
6.8
  7
SLDTEXTSTYLE0
 73
     1
 44
1.0
  0
ENDBLK
  5
309
330
307
100
AcDbEntity
  8
0
100
AcDbBlockEnd
  0
BLOCK
  5
318
330
317
100
AcDbEntity
  8
0
100
AcDbBlockBegin
  2
_D_17
 70
     0
 10
0.0
 20
0.0
 30
0.0
  3
_D_17
  1

  0
SOLID
  5
31A
330
317
100
AcDbEntity
  8
0
  6
Continuous
 62
     7
370
     0
100
AcDbTrace
 10
21.636033685
 20
3.2507827987
 30
0.0
 11
21.831033685
 21
3.2207827987
 31
0.0
 12
21.831033685
 22
3.2807827987
 32
0.0
 13
21.831033685
 23
3.2807827987
 33
0.0
  0
SOLID
  5
31B
330
317
100
AcDbEntity
  8
0
  6
Continuous
 62
     7
370
     0
100
AcDbTrace
 10
22.2698919527
 20
3.2507827987
 30
0.0
 11
22.0748919527
 21
3.2807827987
 31
0.0
 12
22.0748919527
 22
3.2207827987
 32
0.0
 13
22.0748919527
 23
3.2207827987
 33
0.0
  0
LINE
  5
31C
330
317
100
AcDbEntity
  8
0
  6
Continuous
 62
     7
370
     0
100
AcDbLine
 10
20.7218282543
 20
3.2493504777
 30
0.0
 11
20.6837423183
 21
3.2493504777
 31
0.0
  0
LINE
  5
31D
330
317
100
AcDbEntity
  8
0
  6
Continuous
 62
     7
370
     0
100
AcDbLine
 10
20.6837423183
 20
3.2493504777
 30
0.0
 11
20.6837423183
 21
2.9516942188
 31
0.0
  0
LINE
  5
31E
330
317
100
AcDbEntity
  8
0
  6
Continuous
 62
     7
370
     0
100
AcDbLine
 10
20.6837423183
 20
2.9516942188
 30
0.0
 11
20.7218282543
 21
2.9516942188
 31
0.0
  0
LINE
  5
31F
330
317
100
AcDbEntity
  8
0
  6
Continuous
 62
     7
370
     0
100
AcDbLine
 10
21.3019389478
 20
3.2493504777
 30
0.0
 11
21.3400248838
 21
3.2493504777
 31
0.0
  0
LINE
  5
320
330
317
100
AcDbEntity
  8
0
  6
Continuous
 62
     7
370
     0
100
AcDbLine
 10
21.3400248838
 20
3.2493504777
 30
0.0
 11
21.3400248838
 21
2.9516942188
 31
0.0
  0
LINE
  5
321
330
317
100
AcDbEntity
  8
0
  6
Continuous
 62
     7
370
     0
100
AcDbLine
 10
21.3400248838
 20
2.9516942188
 30
0.0
 11
21.3019389478
 21
2.9516942188
 31
0.0
  0
LINE
  5
322
330
317
100
AcDbEntity
  8
0
  6
Continuous
 62
     7
370
     0
100
AcDbLine
 10
21.636033685
 20
2.178534816
 30
0.0
 11
21.636033685
 21
3.4382827987
 31
0.0
  0
LINE
  5
323
330
317
100
AcDbEntity
  8
0
  6
Continuous
 62
     7
370
     0
100
AcDbLine
 10
21.636033685
 20
3.2507827987
 30
0.0
 11
21.4758539373
 21
3.2507827987
 31
0.0
  0
LINE
  5
324
330
317
100
AcDbEntity
  8
0
  6
Continuous
 62
     7
370
     0
100
AcDbLine
 10
22.2698919527
 20
3.2507827987
 30
0.0
 11
21.636033685
 21
3.2507827987
 31
0.0
  0
MTEXT
  5
325
330
317
100
AcDbEntity
  8
0
  6
Continuous
 62
     7
370
     0
100
AcDbMText
 10
20.656219532
 20
3.532001219
 30
0.0
 40
0.1875
 41
0.0
 71
     1
 72
     1
  1

  7
SLDTEXTSTYLE0
 73
     1
 44
1.0
  0
MTEXT
  5
326
330
317
100
AcDbEntity
  8
0
  6
Continuous
 62
     7
370
     0
100
AcDbMText
 10
20.8387065104
 20
3.5291366218
 30
0.0
 40
0.1875
 41
0.0
 71
     1
 72
     1
  1
.63
  7
SLDTEXTSTYLE0
 73
     1
 44
1.0
  0
MTEXT
  5
327
330
317
100
AcDbEntity
  8
0
  6
Continuous
 62
     7
370
     0
100
AcDbMText
 10
20.7694356768
 20
3.1933944406
 30
0.0
 40
0.1875
 41
0.0
 71
     1
 72
     1
  1
16.1
  7
SLDTEXTSTYLE0
 73
     1
 44
1.0
  0
MTEXT
  5
328
330
317
100
AcDbEntity
  8
0
  6
Continuous
 62
     7
370
     0
100
AcDbMText
 10
21.4389017954
 20
3.532001219
 30
0.0
 40
0.1875
 41
0.0
 71
     1
 72
     1
  1

  7
SLDTEXTSTYLE0
 73
     1
 44
1.0
  0
ENDBLK
  5
319
330
317
100
AcDbEntity
  8
0
100
AcDbBlockEnd
  0
BLOCK
  5
32B
330
32A
100
AcDbEntity
  8
0
100
AcDbBlockBegin
  2
_D_18
 70
     0
 10
0.0
 20
0.0
 30
0.0
  3
_D_18
  1

  0
SOLID
  5
32D
330
32A
100
AcDbEntity
  8
0
  6
Continuous
 62
     7
370
     0
100
AcDbTrace
 10
20.5572935275
 20
1.5236151988
 30
0.0
 11
20.7522935275
 21
1.4936151988
 31
0.0
 12
20.7522935275
 22
1.5536151988
 32
0.0
 13
20.7522935275
 23
1.5536151988
 33
0.0
  0
SOLID
  5
32E
330
32A
100
AcDbEntity
  8
0
  6
Continuous
 62
     7
370
     0
100
AcDbTrace
 10
20.1242226614
 20
1.5236151988
 30
0.0
 11
19.9292226614
 21
1.5536151988
 31
0.0
 12
19.9292226614
 22
1.4936151988
 32
0.0
 13
19.9292226614
 23
1.4936151988
 33
0.0
  0
LINE
  5
32F
330
32A
100
AcDbEntity
  8
0
  6
Continuous
 62
     7
370
     0
100
AcDbLine
 10
21.2272146257
 20
1.5221828778
 30
0.0
 11
21.1891286898
 21
1.5221828778
 31
0.0
  0
LINE
  5
330
330
32A
100
AcDbEntity
  8
0
  6
Continuous
 62
     7
370
     0
100
AcDbLine
 10
21.1891286898
 20
1.5221828778
 30
0.0
 11
21.1891286898
 21
1.2245266189
 31
0.0
  0
LINE
  5
331
330
32A
100
AcDbEntity
  8
0
  6
Continuous
 62
     7
370
     0
100
AcDbLine
 10
21.1891286898
 20
1.2245266189
 30
0.0
 11
21.2272146257
 21
1.2245266189
 31
0.0
  0
LINE
  5
332
330
32A
100
AcDbEntity
  8
0
  6
Continuous
 62
     7
370
     0
100
AcDbLine
 10
21.5995128049
 20
1.5221828778
 30
0.0
 11
21.6375987409
 21
1.5221828778
 31
0.0
  0
LINE
  5
333
330
32A
100
AcDbEntity
  8
0
  6
Continuous
 62
     7
370
     0
100
AcDbLine
 10
21.6375987409
 20
1.5221828778
 30
0.0
 11
21.6375987409
 21
1.2245266189
 31
0.0
  0
LINE
  5
334
330
32A
100
AcDbEntity
  8
0
  6
Continuous
 62
     7
370
     0
100
AcDbLine
 10
21.6375987409
 20
1.2245266189
 30
0.0
 11
21.5995128049
 21
1.2245266189
 31
0.0
  0
LINE
  5
335
330
32A
100
AcDbEntity
  8
0
  6
Continuous
 62
     7
370
     0
100
AcDbLine
 10
20.5572935275
 20
2.1171174932
 30
0.0
 11
20.5572935275
 21
1.3361151988
 31
0.0
  0
LINE
  5
336
330
32A
100
AcDbEntity
  8
0
  6
Continuous
 62
     7
370
     0
100
AcDbLine
 10
20.1242226614
 20
2.3590397785
 30
0.0
 11
20.1242226614
 21
1.3361151988
 31
0.0
  0
LINE
  5
337
330
32A
100
AcDbEntity
  8
0
  6
Continuous
 62
     7
370
     0
100
AcDbLine
 10
20.5572935275
 20
1.5236151988
 30
0.0
 11
21.0532995812
 21
1.5236151988
 31
0.0
  0
LINE
  5
338
330
32A
100
AcDbEntity
  8
0
  6
Continuous
 62
     7
370
     0
100
AcDbLine
 10
20.1242226614
 20
1.5236151988
 30
0.0
 11
19.7492226614
 21
1.5236151988
 31
0.0
  0
MTEXT
  5
339
330
32A
100
AcDbEntity
  8
0
  6
Continuous
 62
     7
370
     0
100
AcDbMText
 10
21.1616059034
 20
1.8048336191
 30
0.0
 40
0.1875
 41
0.0
 71
     1
 72
     1
  1

  7
SLDTEXTSTYLE0
 73
     1
 44
1.0
  0
MTEXT
  5
33A
330
32A
100
AcDbEntity
  8
0
  6
Continuous
 62
     7
370
     0
100
AcDbMText
 10
21.2401866246
 20
1.8019690219
 30
0.0
 40
0.1875
 41
0.0
 71
     1
 72
     1
  1
.43
  7
SLDTEXTSTYLE0
 73
     1
 44
1.0
  0
MTEXT
  5
33B
330
32A
100
AcDbEntity
  8
0
  6
Continuous
 62
     7
370
     0
100
AcDbMText
 10
21.2748220483
 20
1.4662268407
 30
0.0
 40
0.1875
 41
0.0
 71
     1
 72
     1
  1
11
  7
SLDTEXTSTYLE0
 73
     1
 44
1.0
  0
MTEXT
  5
33C
330
32A
100
AcDbEntity
  8
0
  6
Continuous
 62
     7
370
     0
100
AcDbMText
 10
21.7364756525
 20
1.8048336191
 30
0.0
 40
0.1875
 41
0.0
 71
     1
 72
     1
  1

  7
SLDTEXTSTYLE0
 73
     1
 44
1.0
  0
ENDBLK
  5
32C
330
32A
100
AcDbEntity
  8
0
100
AcDbBlockEnd
  0
BLOCK
  5
33F
330
33E
100
AcDbEntity
  8
0
100
AcDbBlockBegin
  2
_D_19
 70
     0
 10
0.0
 20
0.0
 30
0.0
  3
_D_19
  1

  0
SOLID
  5
341
330
33E
100
AcDbEntity
  8
0
  6
Continuous
 62
     7
370
     0
100
AcDbTrace
 10
19.4145882704
 20
2.0444796979
 30
0.0
 11
19.3845882704
 21
1.8494796979
 31
0.0
 12
19.4445882704
 22
1.8494796979
 32
0.0
 13
19.4445882704
 23
1.8494796979
 33
0.0
  0
SOLID
  5
342
330
33E
100
AcDbEntity
  8
0
  6
Continuous
 62
     7
370
     0
100
AcDbTrace
 10
19.4145882704
 20
2.1921174932
 30
0.0
 11
19.4445882704
 21
2.3871174932
 31
0.0
 12
19.3845882704
 22
2.3871174932
 32
0.0
 13
19.3845882704
 23
2.3871174932
 33
0.0
  0
LINE
  5
343
330
33E
100
AcDbEntity
  8
0
  6
Continuous
 62
     7
370
     0
100
AcDbLine
 10
18.5356166377
 20
2.697567992
 30
0.0
 11
18.4975307017
 21
2.697567992
 31
0.0
  0
LINE
  5
344
330
33E
100
AcDbEntity
  8
0
  6
Continuous
 62
     7
370
     0
100
AcDbLine
 10
18.4975307017
 20
2.697567992
 30
0.0
 11
18.4975307017
 21
2.399911733
 31
0.0
  0
LINE
  5
345
330
33E
100
AcDbEntity
  8
0
  6
Continuous
 62
     7
370
     0
100
AcDbLine
 10
18.4975307017
 20
2.399911733
 30
0.0
 11
18.5356166377
 21
2.399911733
 31
0.0
  0
LINE
  5
346
330
33E
100
AcDbEntity
  8
0
  6
Continuous
 62
     7
370
     0
100
AcDbLine
 10
18.9771856366
 20
2.697567992
 30
0.0
 11
19.0152715726
 21
2.697567992
 31
0.0
  0
LINE
  5
347
330
33E
100
AcDbEntity
  8
0
  6
Continuous
 62
     7
370
     0
100
AcDbLine
 10
19.0152715726
 20
2.697567992
 30
0.0
 11
19.0152715726
 21
2.399911733
 31
0.0
  0
LINE
  5
348
330
33E
100
AcDbEntity
  8
0
  6
Continuous
 62
     7
370
     0
100
AcDbLine
 10
19.0152715726
 20
2.399911733
 30
0.0
 11
18.9771856366
 21
2.399911733
 31
0.0
  0
LINE
  5
349
330
33E
100
AcDbEntity
  8
0
  6
Continuous
 62
     7
370
     0
100
AcDbLine
 10
20.5347711761
 20
2.0444796979
 30
0.0
 11
19.2270882704
 21
2.0444796979
 31
0.0
  0
LINE
  5
34A
330
33E
100
AcDbEntity
  8
0
  6
Continuous
 62
     7
370
     0
100
AcDbLine
 10
20.4822935275
 20
2.1921174932
 30
0.0
 11
19.2270882704
 21
2.1921174932
 31
0.0
  0
LINE
  5
34B
330
33E
100
AcDbEntity
  8
0
  6
Continuous
 62
     7
370
     0
100
AcDbLine
 10
19.2270882704
 20
2.6990003129
 30
0.0
 11
19.4145882704
 21
2.6990003129
 31
0.0
  0
LINE
  5
34C
330
33E
100
AcDbEntity
  8
0
  6
Continuous
 62
     7
370
     0
100
AcDbLine
 10
19.4145882704
 20
2.6990003129
 30
0.0
 11
19.4145882704
 21
2.1921174932
 31
0.0
  0
LINE
  5
34D
330
33E
100
AcDbEntity
  8
0
  6
Continuous
 62
     7
370
     0
100
AcDbLine
 10
19.4145882704
 20
2.0444796979
 30
0.0
 11
19.4145882704
 21
1.6694796979
 31
0.0
  0
MTEXT
  5
34E
330
33E
100
AcDbEntity
  8
0
  6
Continuous
 62
     7
370
     0
100
AcDbMText
 10
18.4700079153
 20
2.9802187332
 30
0.0
 40
0.1875
 41
0.0
 71
     1
 72
     1
  1

  7
SLDTEXTSTYLE0
 73
     1
 44
1.0
  0
MTEXT
  5
34F
330
33E
100
AcDbEntity
  8
0
  6
Continuous
 62
     7
370
     0
100
AcDbMText
 10
18.5832240464
 20
2.977354136
 30
0.0
 40
0.1875
 41
0.0
 71
     1
 72
     1
  1
.15
  7
SLDTEXTSTYLE0
 73
     1
 44
1.0
  0
MTEXT
  5
350
330
33E
100
AcDbEntity
  8
0
  6
Continuous
 62
     7
370
     0
100
AcDbMText
 10
18.5832240602
 20
2.6416119548
 30
0.0
 40
0.1875
 41
0.0
 71
     1
 72
     1
  1
3.8
  7
SLDTEXTSTYLE0
 73
     1
 44
1.0
  0
MTEXT
  5
351
330
33E
100
AcDbEntity
  8
0
  6
Continuous
 62
     7
370
     0
100
AcDbMText
 10
19.1141484842
 20
2.9802187332
 30
0.0
 40
0.1875
 41
0.0
 71
     1
 72
     1
  1

  7
SLDTEXTSTYLE0
 73
     1
 44
1.0
  0
ENDBLK
  5
340
330
33E
100
AcDbEntity
  8
0
100
AcDbBlockEnd
  0
BLOCK
  5
354
330
353
100
AcDbEntity
  8
0
100
AcDbBlockBegin
  2
_D_20
 70
     0
 10
0.0
 20
0.0
 30
0.0
  3
_D_20
  1

  0
SOLID
  5
356
330
353
100
AcDbEntity
  8
0
  6
Continuous
 62
     7
370
     0
100
AcDbTrace
 10
21.7871656153
 20
7.3549811332
 30
0.0
 11
21.6530138572
 21
7.2103149457
 31
0.0
 12
21.702700885
 22
7.1766816398
 32
0.0
 13
21.702700885
 23
7.1766816398
 33
0.0
  0
LINE
  5
357
330
353
100
AcDbEntity
  8
0
  6
Continuous
 62
     7
370
     0
100
AcDbLine
 10
22.9487384349
 20
8.7093981527
 30
0.0
 11
22.9106524989
 21
8.7093981527
 31
0.0
  0
LINE
  5
358
330
353
100
AcDbEntity
  8
0
  6
Continuous
 62
     7
370
     0
100
AcDbLine
 10
22.9106524989
 20
8.7093981527
 30
0.0
 11
22.9106524989
 21
8.4117418937
 31
0.0
  0
LINE
  5
359
330
353
100
AcDbEntity
  8
0
  6
Continuous
 62
     7
370
     0
100
AcDbLine
 10
22.9106524989
 20
8.4117418937
 30
0.0
 11
22.9487384349
 21
8.4117418937
 31
0.0
  0
LINE
  5
35A
330
353
100
AcDbEntity
  8
0
  6
Continuous
 62
     7
370
     0
100
AcDbLine
 10
23.3903074338
 20
8.7093981527
 30
0.0
 11
23.4283933698
 21
8.7093981527
 31
0.0
  0
LINE
  5
35B
330
353
100
AcDbEntity
  8
0
  6
Continuous
 62
     7
370
     0
100
AcDbLine
 10
23.4283933698
 20
8.7093981527
 30
0.0
 11
23.4283933698
 21
8.4117418937
 31
0.0
  0
LINE
  5
35C
330
353
100
AcDbEntity
  8
0
  6
Continuous
 62
     7
370
     0
100
AcDbLine
 10
23.4283933698
 20
8.4117418937
 30
0.0
 11
23.3903074338
 21
8.4117418937
 31
0.0
  0
LINE
  5
35D
330
353
100
AcDbEntity
  8
0
  6
Continuous
 62
     7
370
     0
100
AcDbLine
 10
21.7871656153
 20
7.3549811332
 30
0.0
 11
22.6945880461
 21
8.6955309944
 31
0.0
  0
LINE
  5
35E
330
353
100
AcDbEntity
  8
0
  6
Continuous
 62
     7
370
     0
100
AcDbLine
 10
21.7871656153
 20
7.3549811332
 30
0.0
 11
21.5769574533
 21
7.0444372093
 31
0.0
  0
LINE
  5
35F
330
353
100
AcDbEntity
  8
0
  6
Continuous
 62
     7
370
     0
100
AcDbLine
 10
22.6945880461
 20
8.6955309944
 30
0.0
 11
22.8820880461
 21
8.6955309944
 31
0.0
  0
MTEXT
  5
360
330
353
100
AcDbEntity
  8
0
  6
Continuous
 62
     7
370
     0
100
AcDbMText
 10
22.9204343731
 20
8.9891842967
 30
0.0
 40
0.1875
 41
0.0
 71
     1
 72
     1
  1
R.09
  7
SLDTEXTSTYLE0
 73
     1
 44
1.0
  0
MTEXT
  5
361
330
353
100
AcDbEntity
  8
0
  6
Continuous
 62
     7
370
     0
100
AcDbMText
 10
22.9963458574
 20
8.6534421156
 30
0.0
 40
0.1875
 41
0.0
 71
     1
 72
     1
  1
2.3
  7
SLDTEXTSTYLE0
 73
     1
 44
1.0
  0
ENDBLK
  5
355
330
353
100
AcDbEntity
  8
0
100
AcDbBlockEnd
  0
BLOCK
  5
364
330
363
100
AcDbEntity
  8
0
100
AcDbBlockBegin
  2
_D_21
 70
     0
 10
0.0
 20
0.0
 30
0.0
  3
_D_21
  1

  0
SOLID
  5
366
330
363
100
AcDbEntity
  8
0
  6
Continuous
 62
     7
370
     0
100
AcDbTrace
 10
23.481490443
 20
2.0444796979
 30
0.0
 11
23.451490443
 21
1.8494796979
 31
0.0
 12
23.511490443
 22
1.8494796979
 32
0.0
 13
23.511490443
 23
1.8494796979
 33
0.0
  0
SOLID
  5
367
330
363
100
AcDbEntity
  8
0
  6
Continuous
 62
     7
370
     0
100
AcDbTrace
 10
23.481490443
 20
2.3751883593
 30
0.0
 11
23.511490443
 21
2.5701883593
 31
0.0
 12
23.451490443
 22
2.5701883593
 32
0.0
 13
23.451490443
 23
2.5701883593
 33
0.0
  0
LINE
  5
368
330
363
100
AcDbEntity
  8
0
  6
Continuous
 62
     7
370
     0
100
AcDbLine
 10
24.3921048006
 20
3.0175350432
 30
0.0
 11
24.3540188646
 21
3.0175350432
 31
0.0
  0
LINE
  5
369
330
363
100
AcDbEntity
  8
0
  6
Continuous
 62
     7
370
     0
100
AcDbLine
 10
24.3540188646
 20
3.0175350432
 30
0.0
 11
24.3540188646
 21
2.7198787843
 31
0.0
  0
LINE
  5
36A
330
363
100
AcDbEntity
  8
0
  6
Continuous
 62
     7
370
     0
100
AcDbLine
 10
24.3540188646
 20
2.7198787843
 30
0.0
 11
24.3921048006
 21
2.7198787843
 31
0.0
  0
LINE
  5
36B
330
363
100
AcDbEntity
  8
0
  6
Continuous
 62
     7
370
     0
100
AcDbLine
 10
24.8336737996
 20
3.0175350432
 30
0.0
 11
24.8717597355
 21
3.0175350432
 31
0.0
  0
LINE
  5
36C
330
363
100
AcDbEntity
  8
0
  6
Continuous
 62
     7
370
     0
100
AcDbLine
 10
24.8717597355
 20
3.0175350432
 30
0.0
 11
24.8717597355
 21
2.7198787843
 31
0.0
  0
LINE
  5
36D
330
363
100
AcDbEntity
  8
0
  6
Continuous
 62
     7
370
     0
100
AcDbLine
 10
24.8717597355
 20
2.7198787843
 30
0.0
 11
24.8336737996
 21
2.7198787843
 31
0.0
  0
LINE
  5
36E
330
363
100
AcDbEntity
  8
0
  6
Continuous
 62
     7
370
     0
100
AcDbLine
 10
21.6519785669
 20
2.0444796979
 30
0.0
 11
23.668990443
 21
2.0444796979
 31
0.0
  0
LINE
  5
36F
330
363
100
AcDbEntity
  8
0
  6
Continuous
 62
     7
370
     0
100
AcDbLine
 10
22.2858368346
 20
2.3751883593
 30
0.0
 11
23.668990443
 21
2.3751883593
 31
0.0
  0
LINE
  5
370
330
363
100
AcDbEntity
  8
0
  6
Continuous
 62
     7
370
     0
100
AcDbLine
 10
24.1422021118
 20
3.0189673642
 30
0.0
 11
23.481490443
 21
3.0189673642
 31
0.0
  0
LINE
  5
371
330
363
100
AcDbEntity
  8
0
  6
Continuous
 62
     7
370
     0
100
AcDbLine
 10
23.481490443
 20
3.0189673642
 30
0.0
 11
23.481490443
 21
2.3751883593
 31
0.0
  0
LINE
  5
372
330
363
100
AcDbEntity
  8
0
  6
Continuous
 62
     7
370
     0
100
AcDbLine
 10
23.481490443
 20
2.0444796979
 30
0.0
 11
23.481490443
 21
1.6694796979
 31
0.0
  0
MTEXT
  5
373
330
363
100
AcDbEntity
  8
0
  6
Continuous
 62
     7
370
     0
100
AcDbMText
 10
24.3264960783
 20
3.3001857845
 30
0.0
 40
0.1875
 41
0.0
 71
     1
 72
     1
  1

  7
SLDTEXTSTYLE0
 73
     1
 44
1.0
  0
MTEXT
  5
374
330
363
100
AcDbEntity
  8
0
  6
Continuous
 62
     7
370
     0
100
AcDbMText
 10
24.4397122094
 20
3.2973211873
 30
0.0
 40
0.1875
 41
0.0
 71
     1
 72
     1
  1
.33
  7
SLDTEXTSTYLE0
 73
     1
 44
1.0
  0
MTEXT
  5
375
330
363
100
AcDbEntity
  8
0
  6
Continuous
 62
     7
370
     0
100
AcDbMText
 10
24.4397122231
 20
2.9615790061
 30
0.0
 40
0.1875
 41
0.0
 71
     1
 72
     1
  1
8.4
  7
SLDTEXTSTYLE0
 73
     1
 44
1.0
  0
MTEXT
  5
376
330
363
100
AcDbEntity
  8
0
  6
Continuous
 62
     7
370
     0
100
AcDbMText
 10
24.9706366471
 20
3.3001857845
 30
0.0
 40
0.1875
 41
0.0
 71
     1
 72
     1
  1

  7
SLDTEXTSTYLE0
 73
     1
 44
1.0
  0
ENDBLK
  5
365
330
363
100
AcDbEntity
  8
0
100
AcDbBlockEnd
  0
BLOCK
  5
378
330
377
100
AcDbEntity
  8
0
100
AcDbBlockBegin
  2
SW_CENTERMARKSYMBOL_0
 70
     0
 10
0.0
 20
0.0
 30
0.0
  3
SW_CENTERMARKSYMBOL_0
  1

  0
LINE
  5
37A
330
377
100
AcDbEntity
  8
0
  6
Continuous
 62
     0
370
     0
100
AcDbLine
 10
0.0
 20
0.0
 30
0.0
 11
0.0
 21
0.1
 31
0.0
  0
LINE
  5
37B
330
377
100
AcDbEntity
  8
0
  6
Continuous
 62
     0
370
     0
100
AcDbLine
 10
0.0
 20
0.0
 30
0.0
 11
-0.1
 21
0.0
 31
0.0
  0
LINE
  5
37C
330
377
100
AcDbEntity
  8
0
  6
Continuous
 62
     0
370
     0
100
AcDbLine
 10
0.0
 20
0.0
 30
0.0
 11
0.0
 21
-0.1
 31
0.0
  0
LINE
  5
37D
330
377
100
AcDbEntity
  8
0
  6
Continuous
 62
     0
370
     0
100
AcDbLine
 10
0.0
 20
0.0
 30
0.0
 11
0.1
 21
0.0
 31
0.0
  0
LINE
  5
37E
330
377
100
AcDbEntity
  8
0
  6
Continuous
 62
     0
370
     0
100
AcDbLine
 10
0.0
 20
0.1
 30
0.0
 11
0.0
 21
0.1885826772
 31
0.0
  0
LINE
  5
37F
330
377
100
AcDbEntity
  8
0
  6
Continuous
 62
     0
370
     0
100
AcDbLine
 10
-0.1
 20
0.0
 30
0.0
 11
-0.1885826772
 21
0.0
 31
0.0
  0
LINE
  5
380
330
377
100
AcDbEntity
  8
0
  6
Continuous
 62
     0
370
     0
100
AcDbLine
 10
0.0
 20
-0.1
 30
0.0
 11
0.0
 21
-0.1885826772
 31
0.0
  0
LINE
  5
381
330
377
100
AcDbEntity
  8
0
  6
Continuous
 62
     0
370
     0
100
AcDbLine
 10
0.1
 20
0.0
 30
0.0
 11
0.1885826772
 21
0.0
 31
0.0
  0
ENDBLK
  5
379
330
377
100
AcDbEntity
  8
0
100
AcDbBlockEnd
  0
BLOCK
  5
384
330
383
100
AcDbEntity
  8
0
100
AcDbBlockBegin
  2
SW_CENTERMARKSYMBOL_1
 70
     0
 10
0.0
 20
0.0
 30
0.0
  3
SW_CENTERMARKSYMBOL_1
  1

  0
LINE
  5
386
330
383
100
AcDbEntity
  8
0
  6
Continuous
 62
     0
370
     0
100
AcDbLine
 10
0.0
 20
0.0
 30
0.0
 11
0.0
 21
0.1
 31
0.0
  0
LINE
  5
387
330
383
100
AcDbEntity
  8
0
  6
Continuous
 62
     0
370
     0
100
AcDbLine
 10
0.0
 20
0.0
 30
0.0
 11
-0.1
 21
0.0
 31
0.0
  0
LINE
  5
388
330
383
100
AcDbEntity
  8
0
  6
Continuous
 62
     0
370
     0
100
AcDbLine
 10
0.0
 20
0.0
 30
0.0
 11
0.0
 21
-0.1
 31
0.0
  0
LINE
  5
389
330
383
100
AcDbEntity
  8
0
  6
Continuous
 62
     0
370
     0
100
AcDbLine
 10
0.0
 20
0.0
 30
0.0
 11
0.1
 21
0.0
 31
0.0
  0
LINE
  5
38A
330
383
100
AcDbEntity
  8
0
  6
Continuous
 62
     0
370
     0
100
AcDbLine
 10
0.0
 20
0.1
 30
0.0
 11
0.0
 21
0.1885826772
 31
0.0
  0
LINE
  5
38B
330
383
100
AcDbEntity
  8
0
  6
Continuous
 62
     0
370
     0
100
AcDbLine
 10
-0.1
 20
0.0
 30
0.0
 11
-0.1885826772
 21
0.0
 31
0.0
  0
LINE
  5
38C
330
383
100
AcDbEntity
  8
0
  6
Continuous
 62
     0
370
     0
100
AcDbLine
 10
0.0
 20
-0.1
 30
0.0
 11
0.0
 21
-0.1885826772
 31
0.0
  0
LINE
  5
38D
330
383
100
AcDbEntity
  8
0
  6
Continuous
 62
     0
370
     0
100
AcDbLine
 10
0.1
 20
0.0
 30
0.0
 11
0.1885826772
 21
0.0
 31
0.0
  0
ENDBLK
  5
385
330
383
100
AcDbEntity
  8
0
100
AcDbBlockEnd
  0
BLOCK
  5
4D6
330
4D5
100
AcDbEntity
  8
0
100
AcDbBlockBegin
  2
SW_NOTE_10
 70
     0
 10
0.0
 20
0.0
 30
0.0
  3
SW_NOTE_10
  1

  0
MTEXT
  5
4D8
330
4D5
100
AcDbEntity
  8
0
  6
Continuous
 62
     0
370
     0
100
AcDbMText
 10
-1.0141016473
 20
0.0965159324
 30
0.0
 40
0.1875
 41
0.0
 71
     1
 72
     1
  1
GASKET
  7
SLDTEXTSTYLE0
 73
     1
 44
1.0
  0
MTEXT
  5
4D9
330
4D5
100
AcDbEntity
  8
0
  6
Continuous
 62
     0
370
     0
100
AcDbMText
 10
-1.0141016473
 20
-0.1500391794
 30
0.0
 40
0.1875
 41
0.0
 71
     1
 72
     1
  1
(NOT INSTALLED)
  7
SLDTEXTSTYLE0
 73
     1
 44
1.0
  0
MTEXT
  5
4DA
330
4D5
100
AcDbEntity
  8
0
  6
Continuous
 62
     0
370
     0
100
AcDbMText
 10
-1.0141016473
 20
-0.3965942911
 30
0.0
 40
0.1875
 41
0.0
 71
     1
 72
     1
  1
MOLDED
  7
SLDTEXTSTYLE0
 73
     1
 44
1.0
  0
MTEXT
  5
4DB
330
4D5
100
AcDbEntity
  8
0
  6
Continuous
 62
     0
370
     0
100
AcDbMText
 10
-1.0141016473
 20
-0.6431494029
 30
0.0
 40
0.1875
 41
0.0
 71
     1
 72
     1
  1
SILICONE GRAY
  7
SLDTEXTSTYLE0
 73
     1
 44
1.0
  0
ENDBLK
  5
4D7
330
4D5
100
AcDbEntity
  8
0
100
AcDbBlockEnd
  0
BLOCK
  5
513
330
512
100
AcDbEntity
  8
0
100
AcDbBlockBegin
  2
_D_22
 70
     0
 10
0.0
 20
0.0
 30
0.0
  3
_D_22
  1

  0
SOLID
  5
515
330
512
100
AcDbEntity
  8
0
  6
Continuous
 62
     7
370
     0
100
AcDbTrace
 10
11.0124078281
 20
10.8281054365
 30
0.0
 11
10.8174078281
 21
10.8581054365
 31
0.0
 12
10.8174078281
 22
10.7981054365
 32
0.0
 13
10.8174078281
 23
10.7981054365
 33
0.0
  0
SOLID
  5
516
330
512
100
AcDbEntity
  8
0
  6
Continuous
 62
     7
370
     0
100
AcDbTrace
 10
11.169888143
 20
10.8281054365
 30
0.0
 11
11.364888143
 21
10.7981054365
 31
0.0
 12
11.364888143
 22
10.8581054365
 32
0.0
 13
11.364888143
 23
10.8581054365
 33
0.0
  0
LINE
  5
517
330
512
100
AcDbEntity
  8
0
  6
Continuous
 62
     7
370
     0
100
AcDbLine
 10
11.7384472014
 20
10.8266731156
 30
0.0
 11
11.7003612654
 21
10.8266731156
 31
0.0
  0
LINE
  5
518
330
512
100
AcDbEntity
  8
0
  6
Continuous
 62
     7
370
     0
100
AcDbLine
 10
11.7003612654
 20
10.8266731156
 30
0.0
 11
11.7003612654
 21
10.5290168566
 31
0.0
  0
LINE
  5
519
330
512
100
AcDbEntity
  8
0
  6
Continuous
 62
     7
370
     0
100
AcDbLine
 10
11.7003612654
 20
10.5290168566
 30
0.0
 11
11.7384472014
 21
10.5290168566
 31
0.0
  0
LINE
  5
51A
330
512
100
AcDbEntity
  8
0
  6
Continuous
 62
     7
370
     0
100
AcDbLine
 10
11.9722037135
 20
10.8266731156
 30
0.0
 11
12.0102896495
 21
10.8266731156
 31
0.0
  0
LINE
  5
51B
330
512
100
AcDbEntity
  8
0
  6
Continuous
 62
     7
370
     0
100
AcDbLine
 10
12.0102896495
 20
10.8266731156
 30
0.0
 11
12.0102896495
 21
10.5290168566
 31
0.0
  0
LINE
  5
51C
330
512
100
AcDbEntity
  8
0
  6
Continuous
 62
     7
370
     0
100
AcDbLine
 10
12.0102896495
 20
10.5290168566
 30
0.0
 11
11.9722037135
 21
10.5290168566
 31
0.0
  0
LINE
  5
51D
330
512
100
AcDbEntity
  8
0
  6
Continuous
 62
     7
370
     0
100
AcDbLine
 10
11.0124078281
 20
10.8281054365
 30
0.0
 11
10.6374078281
 21
10.8281054365
 31
0.0
  0
LINE
  5
51E
330
512
100
AcDbEntity
  8
0
  6
Continuous
 62
     7
370
     0
100
AcDbLine
 10
11.169888143
 20
10.8281054365
 30
0.0
 11
11.5645321569
 21
10.8281054365
 31
0.0
  0
MTEXT
  5
51F
330
512
100
AcDbEntity
  8
0
  6
Continuous
 62
     7
370
     0
100
AcDbMText
 10
11.6728384791
 20
11.1093238568
 30
0.0
 40
0.1875
 41
0.0
 71
     1
 72
     1
  1

  7
SLDTEXTSTYLE0
 73
     1
 44
1.0
  0
MTEXT
  5
520
330
512
100
AcDbEntity
  8
0
  6
Continuous
 62
     7
370
     0
100
AcDbMText
 10
11.6821483805
 20
11.1064592596
 30
0.0
 40
0.1875
 41
0.0
 71
     1
 72
     1
  1
.16
  7
SLDTEXTSTYLE0
 73
     1
 44
1.0
  0
MTEXT
  5
521
330
512
100
AcDbEntity
  8
0
  6
Continuous
 62
     7
370
     0
100
AcDbMText
 10
11.7860546239
 20
10.7707170784
 30
0.0
 40
0.1875
 41
0.0
 71
     1
 72
     1
  1
4
  7
SLDTEXTSTYLE0
 73
     1
 44
1.0
  0
MTEXT
  5
522
330
512
100
AcDbEntity
  8
0
  6
Continuous
 62
     7
370
     0
100
AcDbMText
 10
12.1091665886
 20
11.1093238568
 30
0.0
 40
0.1875
 41
0.0
 71
     1
 72
     1
  1

  7
SLDTEXTSTYLE0
 73
     1
 44
1.0
  0
ENDBLK
  5
514
330
512
100
AcDbEntity
  8
0
100
AcDbBlockEnd
  0
BLOCK
  5
525
330
524
100
AcDbEntity
  8
0
100
AcDbBlockBegin
  2
_D_23
 70
     0
 10
0.0
 20
0.0
 30
0.0
  3
_D_23
  1

  0
SOLID
  5
527
330
524
100
AcDbEntity
  8
0
  6
Continuous
 62
     7
370
     0
100
AcDbTrace
 10
10.6187070407
 20
8.2752481438
 30
0.0
 11
10.4237070407
 21
8.3052481438
 31
0.0
 12
10.4237070407
 22
8.2452481438
 32
0.0
 13
10.4237070407
 23
8.2452481438
 33
0.0
  0
SOLID
  5
528
330
524
100
AcDbEntity
  8
0
  6
Continuous
 62
     7
370
     0
100
AcDbTrace
 10
11.0124078281
 20
8.2752481438
 30
0.0
 11
11.2074078281
 21
8.2452481438
 31
0.0
 12
11.2074078281
 22
8.3052481438
 32
0.0
 13
11.2074078281
 23
8.3052481438
 33
0.0
  0
LINE
  5
529
330
524
100
AcDbEntity
  8
0
  6
Continuous
 62
     7
370
     0
100
AcDbLine
 10
11.8305878978
 20
8.2738158229
 30
0.0
 11
11.7925019618
 21
8.2738158229
 31
0.0
  0
LINE
  5
52A
330
524
100
AcDbEntity
  8
0
  6
Continuous
 62
     7
370
     0
100
AcDbLine
 10
11.7925019618
 20
8.2738158229
 30
0.0
 11
11.7925019618
 21
7.9761595639
 31
0.0
  0
LINE
  5
52B
330
524
100
AcDbEntity
  8
0
  6
Continuous
 62
     7
370
     0
100
AcDbLine
 10
11.7925019618
 20
7.9761595639
 30
0.0
 11
11.8305878978
 21
7.9761595639
 31
0.0
  0
LINE
  5
52C
330
524
100
AcDbEntity
  8
0
  6
Continuous
 62
     7
370
     0
100
AcDbLine
 10
12.202886077
 20
8.2738158229
 30
0.0
 11
12.240972013
 21
8.2738158229
 31
0.0
  0
LINE
  5
52D
330
524
100
AcDbEntity
  8
0
  6
Continuous
 62
     7
370
     0
100
AcDbLine
 10
12.240972013
 20
8.2738158229
 30
0.0
 11
12.240972013
 21
7.9761595639
 31
0.0
  0
LINE
  5
52E
330
524
100
AcDbEntity
  8
0
  6
Continuous
 62
     7
370
     0
100
AcDbLine
 10
12.240972013
 20
7.9761595639
 30
0.0
 11
12.202886077
 21
7.9761595639
 31
0.0
  0
LINE
  5
52F
330
524
100
AcDbEntity
  8
0
  6
Continuous
 62
     7
370
     0
100
AcDbLine
 10
10.6187070407
 20
7.5108039173
 30
0.0
 11
10.6187070407
 21
8.4627481438
 31
0.0
  0
LINE
  5
530
330
524
100
AcDbEntity
  8
0
  6
Continuous
 62
     7
370
     0
100
AcDbLine
 10
10.6187070407
 20
8.2752481438
 30
0.0
 11
10.2437070407
 21
8.2752481438
 31
0.0
  0
LINE
  5
531
330
524
100
AcDbEntity
  8
0
  6
Continuous
 62
     7
370
     0
100
AcDbLine
 10
11.0124078281
 20
8.2752481438
 30
0.0
 11
11.6566728533
 21
8.2752481438
 31
0.0
  0
MTEXT
  5
532
330
524
100
AcDbEntity
  8
0
  6
Continuous
 62
     7
370
     0
100
AcDbMText
 10
11.7649791755
 20
8.5564665641
 30
0.0
 40
0.1875
 41
0.0
 71
     1
 72
     1
  1

  7
SLDTEXTSTYLE0
 73
     1
 44
1.0
  0
MTEXT
  5
533
330
524
100
AcDbEntity
  8
0
  6
Continuous
 62
     7
370
     0
100
AcDbMText
 10
11.8435598967
 20
8.5536019669
 30
0.0
 40
0.1875
 41
0.0
 71
     1
 72
     1
  1
.39
  7
SLDTEXTSTYLE0
 73
     1
 44
1.0
  0
MTEXT
  5
534
330
524
100
AcDbEntity
  8
0
  6
Continuous
 62
     7
370
     0
100
AcDbMText
 10
11.8781953203
 20
8.2178597858
 30
0.0
 40
0.1875
 41
0.0
 71
     1
 72
     1
  1
10
  7
SLDTEXTSTYLE0
 73
     1
 44
1.0
  0
MTEXT
  5
535
330
524
100
AcDbEntity
  8
0
  6
Continuous
 62
     7
370
     0
100
AcDbMText
 10
12.3398489245
 20
8.5564665641
 30
0.0
 40
0.1875
 41
0.0
 71
     1
 72
     1
  1

  7
SLDTEXTSTYLE0
 73
     1
 44
1.0
  0
ENDBLK
  5
526
330
524
100
AcDbEntity
  8
0
100
AcDbBlockEnd
  0
BLOCK
  5
55D
330
55C
100
AcDbEntity
  8
0
100
AcDbBlockBegin
  2
_D_24
 70
     0
 10
0.0
 20
0.0
 30
0.0
  3
_D_24
  1

  0
SOLID
  5
55F
330
55C
100
AcDbEntity
  8
0
  6
Continuous
 62
     7
370
     0
100
AcDbTrace
 10
14.3701104509
 20
14.292396068
 30
0.0
 11
14.5651104509
 21
14.262396068
 31
0.0
 12
14.5651104509
 22
14.322396068
 32
0.0
 13
14.5651104509
 23
14.322396068
 33
0.0
  0
SOLID
  5
560
330
55C
100
AcDbEntity
  8
0
  6
Continuous
 62
     7
370
     0
100
AcDbTrace
 10
16.7451104509
 20
14.292396068
 30
0.0
 11
16.5501104509
 21
14.322396068
 31
0.0
 12
16.5501104509
 22
14.262396068
 32
0.0
 13
16.5501104509
 23
14.262396068
 33
0.0
  0
LINE
  5
561
330
55C
100
AcDbEntity
  8
0
  6
Continuous
 62
     7
370
     0
100
AcDbLine
 10
15.2675551316
 20
14.290963747
 30
0.0
 11
15.2294691956
 21
14.290963747
 31
0.0
  0
LINE
  5
562
330
55C
100
AcDbEntity
  8
0
  6
Continuous
 62
     7
370
     0
100
AcDbLine
 10
15.2294691956
 20
14.290963747
 30
0.0
 11
15.2294691956
 21
13.9933074881
 31
0.0
  0
LINE
  5
563
330
55C
100
AcDbEntity
  8
0
  6
Continuous
 62
     7
370
     0
100
AcDbLine
 10
15.2294691956
 20
13.9933074881
 30
0.0
 11
15.2675551316
 21
13.9933074881
 31
0.0
  0
LINE
  5
564
330
55C
100
AcDbEntity
  8
0
  6
Continuous
 62
     7
370
     0
100
AcDbLine
 10
15.8476658251
 20
14.290963747
 30
0.0
 11
15.8857517611
 21
14.290963747
 31
0.0
  0
LINE
  5
565
330
55C
100
AcDbEntity
  8
0
  6
Continuous
 62
     7
370
     0
100
AcDbLine
 10
15.8857517611
 20
14.290963747
 30
0.0
 11
15.8857517611
 21
13.9933074881
 31
0.0
  0
LINE
  5
566
330
55C
100
AcDbEntity
  8
0
  6
Continuous
 62
     7
370
     0
100
AcDbLine
 10
15.8857517611
 20
13.9933074881
 30
0.0
 11
15.8476658251
 21
13.9933074881
 31
0.0
  0
LINE
  5
567
330
55C
100
AcDbEntity
  8
0
  6
Continuous
 62
     7
370
     0
100
AcDbLine
 10
14.3701104509
 20
13.3756869524
 30
0.0
 11
14.3701104509
 21
14.479896068
 31
0.0
  0
LINE
  5
568
330
55C
100
AcDbEntity
  8
0
  6
Continuous
 62
     7
370
     0
100
AcDbLine
 10
16.7451104509
 20
13.3756869524
 30
0.0
 11
16.7451104509
 21
14.479896068
 31
0.0
  0
LINE
  5
569
330
55C
100
AcDbEntity
  8
0
  6
Continuous
 62
     7
370
     0
100
AcDbLine
 10
14.3701104509
 20
14.292396068
 30
0.0
 11
15.0936400871
 21
14.292396068
 31
0.0
  0
LINE
  5
56A
330
55C
100
AcDbEntity
  8
0
  6
Continuous
 62
     7
370
     0
100
AcDbLine
 10
16.7451104509
 20
14.292396068
 30
0.0
 11
16.0215808146
 21
14.292396068
 31
0.0
  0
MTEXT
  5
56B
330
55C
100
AcDbEntity
  8
0
  6
Continuous
 62
     7
370
     0
100
AcDbMText
 10
15.2019464093
 20
14.5736144883
 30
0.0
 40
0.1875
 41
0.0
 71
     1
 72
     1
  1

  7
SLDTEXTSTYLE0
 73
     1
 44
1.0
  0
MTEXT
  5
56C
330
55C
100
AcDbEntity
  8
0
  6
Continuous
 62
     7
370
     0
100
AcDbMText
 10
15.3151625404
 20
14.5707498911
 30
0.0
 40
0.1875
 41
0.0
 71
     1
 72
     1
  1
2.38
  7
SLDTEXTSTYLE0
 73
     1
 44
1.0
  0
MTEXT
  5
56D
330
55C
100
AcDbEntity
  8
0
  6
Continuous
 62
     7
370
     0
100
AcDbMText
 10
15.3151625541
 20
14.2350077099
 30
0.0
 40
0.1875
 41
0.0
 71
     1
 72
     1
  1
60.3
  7
SLDTEXTSTYLE0
 73
     1
 44
1.0
  0
MTEXT
  5
56E
330
55C
100
AcDbEntity
  8
0
  6
Continuous
 62
     7
370
     0
100
AcDbMText
 10
15.9846286727
 20
14.5736144883
 30
0.0
 40
0.1875
 41
0.0
 71
     1
 72
     1
  1

  7
SLDTEXTSTYLE0
 73
     1
 44
1.0
  0
ENDBLK
  5
55E
330
55C
100
AcDbEntity
  8
0
100
AcDbBlockEnd
  0
BLOCK
  5
571
330
570
100
AcDbEntity
  8
0
100
AcDbBlockBegin
  2
_D_25
 70
     0
 10
0.0
 20
0.0
 30
0.0
  3
_D_25
  1

  0
SOLID
  5
573
330
570
100
AcDbEntity
  8
0
  6
Continuous
 62
     7
370
     0
100
AcDbTrace
 10
13.341757358
 20
13.4876869524
 30
0.0
 11
13.311757358
 21
13.2926869524
 31
0.0
 12
13.371757358
 22
13.2926869524
 32
0.0
 13
13.371757358
 23
13.2926869524
 33
0.0
  0
SOLID
  5
574
330
570
100
AcDbEntity
  8
0
  6
Continuous
 62
     7
370
     0
100
AcDbTrace
 10
13.341757358
 20
6.3016869524
 30
0.0
 11
13.371757358
 21
6.4966869524
 31
0.0
 12
13.311757358
 22
6.4966869524
 32
0.0
 13
13.311757358
 23
6.4966869524
 33
0.0
  0
LINE
  5
575
330
570
100
AcDbEntity
  8
0
  6
Continuous
 62
     7
370
     0
100
AcDbLine
 10
12.9824311914
 20
9.8932546315
 30
0.0
 11
12.9443452555
 21
9.8932546315
 31
0.0
  0
LINE
  5
576
330
570
100
AcDbEntity
  8
0
  6
Continuous
 62
     7
370
     0
100
AcDbLine
 10
12.9443452555
 20
9.8932546315
 30
0.0
 11
12.9443452555
 21
9.5955983725
 31
0.0
  0
LINE
  5
577
330
570
100
AcDbEntity
  8
0
  6
Continuous
 62
     7
370
     0
100
AcDbLine
 10
12.9443452555
 20
9.5955983725
 30
0.0
 11
12.9824311914
 21
9.5955983725
 31
0.0
  0
LINE
  5
578
330
570
100
AcDbEntity
  8
0
  6
Continuous
 62
     7
370
     0
100
AcDbLine
 10
13.7010835245
 20
9.8932546315
 30
0.0
 11
13.7391694605
 21
9.8932546315
 31
0.0
  0
LINE
  5
579
330
570
100
AcDbEntity
  8
0
  6
Continuous
 62
     7
370
     0
100
AcDbLine
 10
13.7391694605
 20
9.8932546315
 30
0.0
 11
13.7391694605
 21
9.5955983725
 31
0.0
  0
LINE
  5
57A
330
570
100
AcDbEntity
  8
0
  6
Continuous
 62
     7
370
     0
100
AcDbLine
 10
13.7391694605
 20
9.5955983725
 30
0.0
 11
13.7010835245
 21
9.5955983725
 31
0.0
  0
LINE
  5
57B
330
570
100
AcDbEntity
  8
0
  6
Continuous
 62
     7
370
     0
100
AcDbLine
 10
14.4821104509
 20
13.4876869524
 30
0.0
 11
13.154257358
 21
13.4876869524
 31
0.0
  0
LINE
  5
57C
330
570
100
AcDbEntity
  8
0
  6
Continuous
 62
     7
370
     0
100
AcDbLine
 10
14.4821104509
 20
6.3016869524
 30
0.0
 11
13.154257358
 21
6.3016869524
 31
0.0
  0
LINE
  5
57D
330
570
100
AcDbEntity
  8
0
  6
Continuous
 62
     7
370
     0
100
AcDbLine
 10
13.341757358
 20
13.4876869524
 30
0.0
 11
13.341757358
 21
10.2318614099
 31
0.0
  0
LINE
  5
57E
330
570
100
AcDbEntity
  8
0
  6
Continuous
 62
     7
370
     0
100
AcDbLine
 10
13.341757358
 20
6.3016869524
 30
0.0
 11
13.341757358
 21
9.557512495
 31
0.0
  0
MTEXT
  5
57F
330
570
100
AcDbEntity
  8
0
  6
Continuous
 62
     7
370
     0
100
AcDbMText
 10
12.9168224691
 20
10.1759053727
 30
0.0
 40
0.1875
 41
0.0
 71
     1
 72
     1
  1

  7
SLDTEXTSTYLE0
 73
     1
 44
1.0
  0
MTEXT
  5
580
330
570
100
AcDbEntity
  8
0
  6
Continuous
 62
     7
370
     0
100
AcDbMText
 10
13.09930942
 20
10.1730407755
 30
0.0
 40
0.1875
 41
0.0
 71
     1
 72
     1
  1
7.19
  7
SLDTEXTSTYLE0
 73
     1
 44
1.0
  0
MTEXT
  5
581
330
570
100
AcDbEntity
  8
0
  6
Continuous
 62
     7
370
     0
100
AcDbMText
 10
13.030038614
 20
9.8372985943
 30
0.0
 40
0.1875
 41
0.0
 71
     1
 72
     1
  1
182.5
  7
SLDTEXTSTYLE0
 73
     1
 44
1.0
  0
MTEXT
  5
582
330
570
100
AcDbEntity
  8
0
  6
Continuous
 62
     7
370
     0
100
AcDbMText
 10
13.8380463721
 20
10.1759053727
 30
0.0
 40
0.1875
 41
0.0
 71
     1
 72
     1
  1

  7
SLDTEXTSTYLE0
 73
     1
 44
1.0
  0
ENDBLK
  5
572
330
570
100
AcDbEntity
  8
0
100
AcDbBlockEnd
  0
BLOCK
  5
586
330
585
100
AcDbEntity
  8
0
100
AcDbBlockBegin
  2
_D_26
 70
     0
 10
0.0
 20
0.0
 30
0.0
  3
_D_26
  1

  0
SOLID
  5
588
330
585
100
AcDbEntity
  8
0
  6
Continuous
 62
     7
370
     0
100
AcDbTrace
 10
16.4536819023
 20
6.5654369524
 30
0.0
 11
16.6075568561
 21
6.4419561903
 31
0.0
 12
16.6375568561
 22
6.4939177145
 32
0.0
 13
16.6375568561
 23
6.4939177145
 33
0.0
  0
LINE
  5
589
330
585
100
AcDbEntity
  8
0
  6
Continuous
 62
     7
370
     0
100
AcDbLine
 10
17.3309723405
 20
6.1366420405
 30
0.0
 11
17.2928864046
 21
6.1366420405
 31
0.0
  0
LINE
  5
58A
330
585
100
AcDbEntity
  8
0
  6
Continuous
 62
     7
370
     0
100
AcDbLine
 10
17.2928864046
 20
6.1366420405
 30
0.0
 11
17.2928864046
 21
5.8389857815
 31
0.0
  0
LINE
  5
58B
330
585
100
AcDbEntity
  8
0
  6
Continuous
 62
     7
370
     0
100
AcDbLine
 10
17.2928864046
 20
5.8389857815
 30
0.0
 11
17.3309723405
 21
5.8389857815
 31
0.0
  0
LINE
  5
58C
330
585
100
AcDbEntity
  8
0
  6
Continuous
 62
     7
370
     0
100
AcDbLine
 10
17.7725413395
 20
6.1366420405
 30
0.0
 11
17.8106272754
 21
6.1366420405
 31
0.0
  0
LINE
  5
58D
330
585
100
AcDbEntity
  8
0
  6
Continuous
 62
     7
370
     0
100
AcDbLine
 10
17.8106272754
 20
6.1366420405
 30
0.0
 11
17.8106272754
 21
5.8389857815
 31
0.0
  0
LINE
  5
58E
330
585
100
AcDbEntity
  8
0
  6
Continuous
 62
     7
370
     0
100
AcDbLine
 10
17.8106272754
 20
5.8389857815
 30
0.0
 11
17.7725413395
 21
5.8389857815
 31
0.0
  0
LINE
  5
58F
330
585
100
AcDbEntity
  8
0
  6
Continuous
 62
     7
370
     0
100
AcDbLine
 10
16.4536819023
 20
6.5654369524
 30
0.0
 11
17.0299469517
 21
6.232730171
 31
0.0
  0
LINE
  5
590
330
585
100
AcDbEntity
  8
0
  6
Continuous
 62
     7
370
     0
100
AcDbLine
 10
17.0299469517
 20
6.232730171
 30
0.0
 11
17.2174469517
 21
6.232730171
 31
0.0
  0
MTEXT
  5
591
330
585
100
AcDbEntity
  8
0
  6
Continuous
 62
     7
370
     0
100
AcDbMText
 10
17.2643219517
 20
6.4164281845
 30
0.0
 40
0.1875
 41
0.0
 71
     1
 72
     1
  1
%%c
  7
SLDTEXTSTYLE0
 73
     1
 44
1.0
  0
MTEXT
  5
592
330
585
100
AcDbEntity
  8
0
  6
Continuous
 62
     7
370
     0
100
AcDbMText
 10
17.5470953826
 20
6.4164281845
 30
0.0
 40
0.1875
 41
0.0
 71
     1
 72
     1
  1
.193
  7
SLDTEXTSTYLE0
 73
     1
 44
1.0
  0
MTEXT
  5
593
330
585
100
AcDbEntity
  8
0
  6
Continuous
 62
     7
370
     0
100
AcDbMText
 10
17.3785797631
 20
6.0806860033
 30
0.0
 40
0.1875
 41
0.0
 71
     1
 72
     1
  1
4.9
  7
SLDTEXTSTYLE0
 73
     1
 44
1.0
  0
MTEXT
  5
594
330
585
100
AcDbEntity
  8
0
  6
Continuous
 62
     7
370
     0
100
AcDbMText
 10
18.1023037035
 20
6.4192927817
 30
0.0
 40
0.1875
 41
0.0
 71
     1
 72
     1
  1
(4X)
  7
SLDTEXTSTYLE0
 73
     1
 44
1.0
  0
MTEXT
  5
595
330
585
100
AcDbEntity
  8
0
  6
Continuous
 62
     7
370
     0
100
AcDbMText
 10
17.2643219517
 20
5.7449438669
 30
0.0
 40
0.1875
 41
0.0
 71
     1
 72
     1
  1
ACCEPTS #10 SCREW
  7
SLDTEXTSTYLE0
 73
     1
 44
1.0
  0
MTEXT
  5
596
330
585
100
AcDbEntity
  8
0
  6
Continuous
 62
     7
370
     0
100
AcDbMText
 10
17.2643219517
 20
5.4472876079
 30
0.0
 40
0.1875
 41
0.0
 71
     1
 72
     1
  1
(NOT SUPPLIED)
  7
SLDTEXTSTYLE0
 73
     1
 44
1.0
  0
ENDBLK
  5
587
330
585
100
AcDbEntity
  8
0
100
AcDbBlockEnd
  0
BLOCK
  5
599
330
598
100
AcDbEntity
  8
0
100
AcDbBlockBegin
  2
_D_27
 70
     0
 10
0.0
 20
0.0
 30
0.0
  3
_D_27
  1

  0
SOLID
  5
59B
330
598
100
AcDbEntity
  8
0
  6
Continuous
 62
     7
370
     0
100
AcDbTrace
 10
14.7451104509
 20
8.6172067164
 30
0.0
 11
14.9401104509
 21
8.5872067164
 31
0.0
 12
14.9401104509
 22
8.6472067164
 32
0.0
 13
14.9401104509
 23
8.6472067164
 33
0.0
  0
SOLID
  5
59C
330
598
100
AcDbEntity
  8
0
  6
Continuous
 62
     7
370
     0
100
AcDbTrace
 10
16.3701104509
 20
8.6172067164
 30
0.0
 11
16.1751104509
 21
8.6472067164
 31
0.0
 12
16.1751104509
 22
8.5872067164
 32
0.0
 13
16.1751104509
 23
8.5872067164
 33
0.0
  0
LINE
  5
59D
330
598
100
AcDbEntity
  8
0
  6
Continuous
 62
     7
370
     0
100
AcDbLine
 10
15.196683401
 20
8.6157743954
 30
0.0
 11
15.1585974651
 21
8.6157743954
 31
0.0
  0
LINE
  5
59E
330
598
100
AcDbEntity
  8
0
  6
Continuous
 62
     7
370
     0
100
AcDbLine
 10
15.1585974651
 20
8.6157743954
 30
0.0
 11
15.1585974651
 21
8.3181181365
 31
0.0
  0
LINE
  5
59F
330
598
100
AcDbEntity
  8
0
  6
Continuous
 62
     7
370
     0
100
AcDbLine
 10
15.1585974651
 20
8.3181181365
 30
0.0
 11
15.196683401
 21
8.3181181365
 31
0.0
  0
LINE
  5
5A0
330
598
100
AcDbEntity
  8
0
  6
Continuous
 62
     7
370
     0
100
AcDbLine
 10
15.7767940945
 20
8.6157743954
 30
0.0
 11
15.8148800305
 21
8.6157743954
 31
0.0
  0
LINE
  5
5A1
330
598
100
AcDbEntity
  8
0
  6
Continuous
 62
     7
370
     0
100
AcDbLine
 10
15.8148800305
 20
8.6157743954
 30
0.0
 11
15.8148800305
 21
8.3181181365
 31
0.0
  0
LINE
  5
5A2
330
598
100
AcDbEntity
  8
0
  6
Continuous
 62
     7
370
     0
100
AcDbLine
 10
15.8148800305
 20
8.3181181365
 30
0.0
 11
15.7767940945
 21
8.3181181365
 31
0.0
  0
LINE
  5
5A3
330
598
100
AcDbEntity
  8
0
  6
Continuous
 62
     7
370
     0
100
AcDbLine
 10
14.7451104509
 20
6.6886869524
 30
0.0
 11
14.7451104509
 21
8.8047067164
 31
0.0
  0
LINE
  5
5A4
330
598
100
AcDbEntity
  8
0
  6
Continuous
 62
     7
370
     0
100
AcDbLine
 10
16.3701104509
 20
6.6886869524
 30
0.0
 11
16.3701104509
 21
8.8047067164
 31
0.0
  0
LINE
  5
5A5
330
598
100
AcDbEntity
  8
0
  6
Continuous
 62
     7
370
     0
100
AcDbLine
 10
14.7451104509
 20
8.6172067164
 30
0.0
 11
15.0227683565
 21
8.6172067164
 31
0.0
  0
LINE
  5
5A6
330
598
100
AcDbEntity
  8
0
  6
Continuous
 62
     7
370
     0
100
AcDbLine
 10
16.3701104509
 20
8.6172067164
 30
0.0
 11
15.950709084
 21
8.6172067164
 31
0.0
  0
MTEXT
  5
5A7
330
598
100
AcDbEntity
  8
0
  6
Continuous
 62
     7
370
     0
100
AcDbMText
 10
15.1310746787
 20
8.8984251367
 30
0.0
 40
0.1875
 41
0.0
 71
     1
 72
     1
  1

  7
SLDTEXTSTYLE0
 73
     1
 44
1.0
  0
MTEXT
  5
5A8
330
598
100
AcDbEntity
  8
0
  6
Continuous
 62
     7
370
     0
100
AcDbMText
 10
15.2442908098
 20
8.8955605395
 30
0.0
 40
0.1875
 41
0.0
 71
     1
 72
     1
  1
1.63
  7
SLDTEXTSTYLE0
 73
     1
 44
1.0
  0
MTEXT
  5
5A9
330
598
100
AcDbEntity
  8
0
  6
Continuous
 62
     7
370
     0
100
AcDbMText
 10
15.2442908236
 20
8.5598183583
 30
0.0
 40
0.1875
 41
0.0
 71
     1
 72
     1
  1
41.3
  7
SLDTEXTSTYLE0
 73
     1
 44
1.0
  0
MTEXT
  5
5AA
330
598
100
AcDbEntity
  8
0
  6
Continuous
 62
     7
370
     0
100
AcDbMText
 10
15.9137569421
 20
8.8984251367
 30
0.0
 40
0.1875
 41
0.0
 71
     1
 72
     1
  1

  7
SLDTEXTSTYLE0
 73
     1
 44
1.0
  0
ENDBLK
  5
59A
330
598
100
AcDbEntity
  8
0
100
AcDbBlockEnd
  0
BLOCK
  5
5AD
330
5AC
100
AcDbEntity
  8
0
100
AcDbBlockBegin
  2
_D_28
 70
     0
 10
0.0
 20
0.0
 30
0.0
  3
_D_28
  1

  0
SOLID
  5
5AF
330
5AC
100
AcDbEntity
  8
0
  6
Continuous
 62
     7
370
     0
100
AcDbTrace
 10
16.1597804996
 20
6.6136869524
 30
0.0
 11
16.1897804996
 21
6.8086869524
 31
0.0
 12
16.1297804996
 22
6.8086869524
 32
0.0
 13
16.1297804996
 23
6.8086869524
 33
0.0
  0
SOLID
  5
5B0
330
5AC
100
AcDbEntity
  8
0
  6
Continuous
 62
     7
370
     0
100
AcDbTrace
 10
16.1597804996
 20
13.1756869524
 30
0.0
 11
16.1297804996
 21
12.9806869524
 31
0.0
 12
16.1897804996
 22
12.9806869524
 32
0.0
 13
16.1897804996
 23
12.9806869524
 33
0.0
  0
LINE
  5
5B1
330
5AC
100
AcDbEntity
  8
0
  6
Continuous
 62
     7
370
     0
100
AcDbLine
 10
15.8004543331
 20
9.8932546315
 30
0.0
 11
15.7623683971
 21
9.8932546315
 31
0.0
  0
LINE
  5
5B2
330
5AC
100
AcDbEntity
  8
0
  6
Continuous
 62
     7
370
     0
100
AcDbLine
 10
15.7623683971
 20
9.8932546315
 30
0.0
 11
15.7623683971
 21
9.5955983725
 31
0.0
  0
LINE
  5
5B3
330
5AC
100
AcDbEntity
  8
0
  6
Continuous
 62
     7
370
     0
100
AcDbLine
 10
15.7623683971
 20
9.5955983725
 30
0.0
 11
15.8004543331
 21
9.5955983725
 31
0.0
  0
LINE
  5
5B4
330
5AC
100
AcDbEntity
  8
0
  6
Continuous
 62
     7
370
     0
100
AcDbLine
 10
16.5191066662
 20
9.8932546315
 30
0.0
 11
16.5571926021
 21
9.8932546315
 31
0.0
  0
LINE
  5
5B5
330
5AC
100
AcDbEntity
  8
0
  6
Continuous
 62
     7
370
     0
100
AcDbLine
 10
16.5571926021
 20
9.8932546315
 30
0.0
 11
16.5571926021
 21
9.5955983725
 31
0.0
  0
LINE
  5
5B6
330
5AC
100
AcDbEntity
  8
0
  6
Continuous
 62
     7
370
     0
100
AcDbLine
 10
16.5571926021
 20
9.5955983725
 30
0.0
 11
16.5191066662
 21
9.5955983725
 31
0.0
  0
LINE
  5
5B7
330
5AC
100
AcDbEntity
  8
0
  6
Continuous
 62
     7
370
     0
100
AcDbLine
 10
14.8201104509
 20
6.6136869524
 30
0.0
 11
16.3472804996
 21
6.6136869524
 31
0.0
  0
LINE
  5
5B8
330
5AC
100
AcDbEntity
  8
0
  6
Continuous
 62
     7
370
     0
100
AcDbLine
 10
14.8201104509
 20
13.1756869524
 30
0.0
 11
16.3472804996
 21
13.1756869524
 31
0.0
  0
LINE
  5
5B9
330
5AC
100
AcDbEntity
  8
0
  6
Continuous
 62
     7
370
     0
100
AcDbLine
 10
16.1597804996
 20
6.6136869524
 30
0.0
 11
16.1597804996
 21
9.557512495
 31
0.0
  0
LINE
  5
5BA
330
5AC
100
AcDbEntity
  8
0
  6
Continuous
 62
     7
370
     0
100
AcDbLine
 10
16.1597804996
 20
13.1756869524
 30
0.0
 11
16.1597804996
 21
10.2318614099
 31
0.0
  0
MTEXT
  5
5BB
330
5AC
100
AcDbEntity
  8
0
  6
Continuous
 62
     7
370
     0
100
AcDbMText
 10
15.7348456108
 20
10.1759053727
 30
0.0
 40
0.1875
 41
0.0
 71
     1
 72
     1
  1

  7
SLDTEXTSTYLE0
 73
     1
 44
1.0
  0
MTEXT
  5
5BC
330
5AC
100
AcDbEntity
  8
0
  6
Continuous
 62
     7
370
     0
100
AcDbMText
 10
15.9173325617
 20
10.1730407755
 30
0.0
 40
0.1875
 41
0.0
 71
     1
 72
     1
  1
6.56
  7
SLDTEXTSTYLE0
 73
     1
 44
1.0
  0
MTEXT
  5
5BD
330
5AC
100
AcDbEntity
  8
0
  6
Continuous
 62
     7
370
     0
100
AcDbMText
 10
15.8480617556
 20
9.8372985943
 30
0.0
 40
0.1875
 41
0.0
 71
     1
 72
     1
  1
166.7
  7
SLDTEXTSTYLE0
 73
     1
 44
1.0
  0
MTEXT
  5
5BE
330
5AC
100
AcDbEntity
  8
0
  6
Continuous
 62
     7
370
     0
100
AcDbMText
 10
16.6560695137
 20
10.1759053727
 30
0.0
 40
0.1875
 41
0.0
 71
     1
 72
     1
  1

  7
SLDTEXTSTYLE0
 73
     1
 44
1.0
  0
ENDBLK
  5
5AE
330
5AC
100
AcDbEntity
  8
0
100
AcDbBlockEnd
  0
BLOCK
  5
607
330
606
100
AcDbEntity
  8
0
100
AcDbBlockBegin
  2
_D_29
 70
     0
 10
0.0
 20
0.0
 30
0.0
  3
_D_29
  1

  0
SOLID
  5
609
330
606
100
AcDbEntity
  8
0
  6
Continuous
 62
     7
370
     0
100
AcDbTrace
 10
4.304453244
 20
1.4600615464
 30
0.0
 11
4.334453244
 21
1.6550615464
 31
0.0
 12
4.274453244
 22
1.6550615464
 32
0.0
 13
4.274453244
 23
1.6550615464
 33
0.0
  0
SOLID
  5
60A
330
606
100
AcDbEntity
  8
0
  6
Continuous
 62
     7
370
     0
100
AcDbTrace
 10
4.304453244
 20
2.5821087905
 30
0.0
 11
4.274453244
 21
2.3871087905
 31
0.0
 12
4.334453244
 22
2.3871087905
 32
0.0
 13
4.334453244
 23
2.3871087905
 33
0.0
  0
LINE
  5
60B
330
606
100
AcDbEntity
  8
0
  6
Continuous
 62
     7
370
     0
100
AcDbLine
 10
3.2869399167
 20
3.3379822485
 30
0.0
 11
3.2488539807
 21
3.3379822485
 31
0.0
  0
LINE
  5
60C
330
606
100
AcDbEntity
  8
0
  6
Continuous
 62
     7
370
     0
100
AcDbLine
 10
3.2488539807
 20
3.3379822485
 30
0.0
 11
3.2488539807
 21
3.0403259896
 31
0.0
  0
LINE
  5
60D
330
606
100
AcDbEntity
  8
0
  6
Continuous
 62
     7
370
     0
100
AcDbLine
 10
3.2488539807
 20
3.0403259896
 30
0.0
 11
3.2869399167
 21
3.0403259896
 31
0.0
  0
LINE
  5
60E
330
606
100
AcDbEntity
  8
0
  6
Continuous
 62
     7
370
     0
100
AcDbLine
 10
3.8670506102
 20
3.3379822485
 30
0.0
 11
3.9051365461
 21
3.3379822485
 31
0.0
  0
LINE
  5
60F
330
606
100
AcDbEntity
  8
0
  6
Continuous
 62
     7
370
     0
100
AcDbLine
 10
3.9051365461
 20
3.3379822485
 30
0.0
 11
3.9051365461
 21
3.0403259896
 31
0.0
  0
LINE
  5
610
330
606
100
AcDbEntity
  8
0
  6
Continuous
 62
     7
370
     0
100
AcDbLine
 10
3.9051365461
 20
3.0403259896
 30
0.0
 11
3.8670506102
 21
3.0403259896
 31
0.0
  0
LINE
  5
611
330
606
100
AcDbEntity
  8
0
  6
Continuous
 62
     7
370
     0
100
AcDbLine
 10
4.116953244
 20
3.3394145695
 30
0.0
 11
4.304453244
 21
3.3394145695
 31
0.0
  0
LINE
  5
612
330
606
100
AcDbEntity
  8
0
  6
Continuous
 62
     7
370
     0
100
AcDbLine
 10
4.304453244
 20
3.3394145695
 30
0.0
 11
4.304453244
 21
2.5821087905
 31
0.0
  0
LINE
  5
613
330
606
100
AcDbEntity
  8
0
  6
Continuous
 62
     7
370
     0
100
AcDbLine
 10
4.304453244
 20
1.4600615464
 30
0.0
 11
4.304453244
 21
2.5821087905
 31
0.0
  0
MTEXT
  5
614
330
606
100
AcDbEntity
  8
0
  6
Continuous
 62
     7
370
     0
100
AcDbMText
 10
3.2213311943
 20
3.6206329898
 30
0.0
 40
0.1875
 41
0.0
 71
     1
 72
     1
  1

  7
SLDTEXTSTYLE0
 73
     1
 44
1.0
  0
MTEXT
  5
615
330
606
100
AcDbEntity
  8
0
  6
Continuous
 62
     7
370
     0
100
AcDbMText
 10
3.3345473254
 20
3.6177683926
 30
0.0
 40
0.1875
 41
0.0
 71
     1
 72
     1
  1
1.12
  7
SLDTEXTSTYLE0
 73
     1
 44
1.0
  0
MTEXT
  5
616
330
606
100
AcDbEntity
  8
0
  6
Continuous
 62
     7
370
     0
100
AcDbMText
 10
3.3345473392
 20
3.2820262114
 30
0.0
 40
0.1875
 41
0.0
 71
     1
 72
     1
  1
28.5
  7
SLDTEXTSTYLE0
 73
     1
 44
1.0
  0
MTEXT
  5
617
330
606
100
AcDbEntity
  8
0
  6
Continuous
 62
     7
370
     0
100
AcDbMText
 10
4.0040134577
 20
3.6206329898
 30
0.0
 40
0.1875
 41
0.0
 71
     1
 72
     1
  1

  7
SLDTEXTSTYLE0
 73
     1
 44
1.0
  0
ENDBLK
  5
608
330
606
100
AcDbEntity
  8
0
100
AcDbBlockEnd
  0
BLOCK
  5
61A
330
619
100
AcDbEntity
  8
0
100
AcDbBlockBegin
  2
_D_30
 70
     0
 10
0.0
 20
0.0
 30
0.0
  3
_D_30
  1

  0
SOLID
  5
61C
330
619
100
AcDbEntity
  8
0
  6
Continuous
 62
     7
370
     0
100
AcDbTrace
 10
4.7374259917
 20
2.5821087905
 30
0.0
 11
4.7074259917
 21
2.3871087905
 31
0.0
 12
4.7674259917
 22
2.3871087905
 32
0.0
 13
4.7674259917
 23
2.3871087905
 33
0.0
  0
SOLID
  5
61D
330
619
100
AcDbEntity
  8
0
  6
Continuous
 62
     7
370
     0
100
AcDbTrace
 10
4.7374259917
 20
2.7395891054
 30
0.0
 11
4.7674259917
 21
2.9345891054
 31
0.0
 12
4.7074259917
 22
2.9345891054
 32
0.0
 13
4.7074259917
 23
2.9345891054
 33
0.0
  0
LINE
  5
61E
330
619
100
AcDbEntity
  8
0
  6
Continuous
 62
     7
370
     0
100
AcDbLine
 10
5.1748286805
 20
3.3379822485
 30
0.0
 11
5.1367427445
 21
3.3379822485
 31
0.0
  0
LINE
  5
61F
330
619
100
AcDbEntity
  8
0
  6
Continuous
 62
     7
370
     0
100
AcDbLine
 10
5.1367427445
 20
3.3379822485
 30
0.0
 11
5.1367427445
 21
3.0403259896
 31
0.0
  0
LINE
  5
620
330
619
100
AcDbEntity
  8
0
  6
Continuous
 62
     7
370
     0
100
AcDbLine
 10
5.1367427445
 20
3.0403259896
 30
0.0
 11
5.1748286805
 21
3.0403259896
 31
0.0
  0
LINE
  5
621
330
619
100
AcDbEntity
  8
0
  6
Continuous
 62
     7
370
     0
100
AcDbLine
 10
5.4085851926
 20
3.3379822485
 30
0.0
 11
5.4466711286
 21
3.3379822485
 31
0.0
  0
LINE
  5
622
330
619
100
AcDbEntity
  8
0
  6
Continuous
 62
     7
370
     0
100
AcDbLine
 10
5.4466711286
 20
3.3379822485
 30
0.0
 11
5.4466711286
 21
3.0403259896
 31
0.0
  0
LINE
  5
623
330
619
100
AcDbEntity
  8
0
  6
Continuous
 62
     7
370
     0
100
AcDbLine
 10
5.4466711286
 20
3.0403259896
 30
0.0
 11
5.4085851926
 21
3.0403259896
 31
0.0
  0
LINE
  5
624
330
619
100
AcDbEntity
  8
0
  6
Continuous
 62
     7
370
     0
100
AcDbLine
 10
4.9249259917
 20
3.3394145695
 30
0.0
 11
4.7374259917
 21
3.3394145695
 31
0.0
  0
LINE
  5
625
330
619
100
AcDbEntity
  8
0
  6
Continuous
 62
     7
370
     0
100
AcDbLine
 10
4.7374259917
 20
3.3394145695
 30
0.0
 11
4.7374259917
 21
2.7395891054
 31
0.0
  0
LINE
  5
626
330
619
100
AcDbEntity
  8
0
  6
Continuous
 62
     7
370
     0
100
AcDbLine
 10
4.7374259917
 20
2.5821087905
 30
0.0
 11
4.7374259917
 21
2.2071087905
 31
0.0
  0
MTEXT
  5
627
330
619
100
AcDbEntity
  8
0
  6
Continuous
 62
     7
370
     0
100
AcDbMText
 10
5.1092199582
 20
3.6206329898
 30
0.0
 40
0.1875
 41
0.0
 71
     1
 72
     1
  1

  7
SLDTEXTSTYLE0
 73
     1
 44
1.0
  0
MTEXT
  5
628
330
619
100
AcDbEntity
  8
0
  6
Continuous
 62
     7
370
     0
100
AcDbMText
 10
5.1185298596
 20
3.6177683926
 30
0.0
 40
0.1875
 41
0.0
 71
     1
 72
     1
  1
.16
  7
SLDTEXTSTYLE0
 73
     1
 44
1.0
  0
MTEXT
  5
629
330
619
100
AcDbEntity
  8
0
  6
Continuous
 62
     7
370
     0
100
AcDbMText
 10
5.222436103
 20
3.2820262114
 30
0.0
 40
0.1875
 41
0.0
 71
     1
 72
     1
  1
4
  7
SLDTEXTSTYLE0
 73
     1
 44
1.0
  0
MTEXT
  5
62A
330
619
100
AcDbEntity
  8
0
  6
Continuous
 62
     7
370
     0
100
AcDbMText
 10
5.5455480677
 20
3.6206329898
 30
0.0
 40
0.1875
 41
0.0
 71
     1
 72
     1
  1

  7
SLDTEXTSTYLE0
 73
     1
 44
1.0
  0
ENDBLK
  5
61B
330
619
100
AcDbEntity
  8
0
100
AcDbBlockEnd
  0
BLOCK
  5
62D
330
62C
100
AcDbEntity
  8
0
100
AcDbBlockBegin
  2
_D_31
 70
     0
 10
0.0
 20
0.0
 30
0.0
  3
_D_31
  1

  0
SOLID
  5
62F
330
62C
100
AcDbEntity
  8
0
  6
Continuous
 62
     7
370
     0
100
AcDbTrace
 10
6.9713889463
 20
1.3025812314
 30
0.0
 11
7.0013889463
 21
1.4975812314
 31
0.0
 12
6.9413889463
 22
1.4975812314
 32
0.0
 13
6.9413889463
 23
1.4975812314
 33
0.0
  0
SOLID
  5
630
330
62C
100
AcDbEntity
  8
0
  6
Continuous
 62
     7
370
     0
100
AcDbTrace
 10
6.9713889463
 20
2.7395891054
 30
0.0
 11
6.9413889463
 21
2.5445891054
 31
0.0
 12
7.0013889463
 22
2.5445891054
 32
0.0
 13
7.0013889463
 23
2.5445891054
 33
0.0
  0
LINE
  5
631
330
62C
100
AcDbEntity
  8
0
  6
Continuous
 62
     7
370
     0
100
AcDbLine
 10
6.681333627
 20
2.0196528475
 30
0.0
 11
6.6432476911
 21
2.0196528475
 31
0.0
  0
LINE
  5
632
330
62C
100
AcDbEntity
  8
0
  6
Continuous
 62
     7
370
     0
100
AcDbLine
 10
6.6432476911
 20
2.0196528475
 30
0.0
 11
6.6432476911
 21
1.7219965885
 31
0.0
  0
LINE
  5
633
330
62C
100
AcDbEntity
  8
0
  6
Continuous
 62
     7
370
     0
100
AcDbLine
 10
6.6432476911
 20
1.7219965885
 30
0.0
 11
6.681333627
 21
1.7219965885
 31
0.0
  0
LINE
  5
634
330
62C
100
AcDbEntity
  8
0
  6
Continuous
 62
     7
370
     0
100
AcDbLine
 10
7.2614443205
 20
2.0196528475
 30
0.0
 11
7.2995302565
 21
2.0196528475
 31
0.0
  0
LINE
  5
635
330
62C
100
AcDbEntity
  8
0
  6
Continuous
 62
     7
370
     0
100
AcDbLine
 10
7.2995302565
 20
2.0196528475
 30
0.0
 11
7.2995302565
 21
1.7219965885
 31
0.0
  0
LINE
  5
636
330
62C
100
AcDbEntity
  8
0
  6
Continuous
 62
     7
370
     0
100
AcDbLine
 10
7.2995302565
 20
1.7219965885
 30
0.0
 11
7.2614443205
 21
1.7219965885
 31
0.0
  0
LINE
  5
637
330
62C
100
AcDbEntity
  8
0
  6
Continuous
 62
     7
370
     0
100
AcDbLine
 10
5.6404589342
 20
1.3025812314
 30
0.0
 11
7.1588889463
 21
1.3025812314
 31
0.0
  0
LINE
  5
638
330
62C
100
AcDbEntity
  8
0
  6
Continuous
 62
     7
370
     0
100
AcDbLine
 10
5.6517978544
 20
2.7395891054
 30
0.0
 11
7.1588889463
 21
2.7395891054
 31
0.0
  0
LINE
  5
639
330
62C
100
AcDbEntity
  8
0
  6
Continuous
 62
     7
370
     0
100
AcDbLine
 10
6.9713889463
 20
1.3025812314
 30
0.0
 11
6.9713889463
 21
1.683910711
 31
0.0
  0
LINE
  5
63A
330
62C
100
AcDbEntity
  8
0
  6
Continuous
 62
     7
370
     0
100
AcDbLine
 10
6.9713889463
 20
2.7395891054
 30
0.0
 11
6.9713889463
 21
2.3582596259
 31
0.0
  0
MTEXT
  5
63B
330
62C
100
AcDbEntity
  8
0
  6
Continuous
 62
     7
370
     0
100
AcDbMText
 10
6.6157249047
 20
2.3023035888
 30
0.0
 40
0.1875
 41
0.0
 71
     1
 72
     1
  1

  7
SLDTEXTSTYLE0
 73
     1
 44
1.0
  0
MTEXT
  5
63C
330
62C
100
AcDbEntity
  8
0
  6
Continuous
 62
     7
370
     0
100
AcDbMText
 10
6.7289410358
 20
2.2994389915
 30
0.0
 40
0.1875
 41
0.0
 71
     1
 72
     1
  1
1.44
  7
SLDTEXTSTYLE0
 73
     1
 44
1.0
  0
MTEXT
  5
63D
330
62C
100
AcDbEntity
  8
0
  6
Continuous
 62
     7
370
     0
100
AcDbMText
 10
6.7289410496
 20
1.9636968104
 30
0.0
 40
0.1875
 41
0.0
 71
     1
 72
     1
  1
36.5
  7
SLDTEXTSTYLE0
 73
     1
 44
1.0
  0
MTEXT
  5
63E
330
62C
100
AcDbEntity
  8
0
  6
Continuous
 62
     7
370
     0
100
AcDbMText
 10
7.3984071681
 20
2.3023035888
 30
0.0
 40
0.1875
 41
0.0
 71
     1
 72
     1
  1

  7
SLDTEXTSTYLE0
 73
     1
 44
1.0
  0
ENDBLK
  5
62E
330
62C
100
AcDbEntity
  8
0
100
AcDbBlockEnd
  0
BLOCK
  5
641
330
640
100
AcDbEntity
  8
0
100
AcDbBlockBegin
  2
_D_32
 70
     0
 10
0.0
 20
0.0
 30
0.0
  3
_D_32
  1

  0
SOLID
  5
643
330
640
100
AcDbEntity
  8
0
  6
Continuous
 62
     7
370
     0
100
AcDbTrace
 10
6.3330269566
 20
2.345888318
 30
0.0
 11
6.3030269566
 21
2.150888318
 31
0.0
 12
6.3630269566
 22
2.150888318
 32
0.0
 13
6.3630269566
 23
2.150888318
 33
0.0
  0
SOLID
  5
644
330
640
100
AcDbEntity
  8
0
  6
Continuous
 62
     7
370
     0
100
AcDbTrace
 10
6.3330269566
 20
2.7395891054
 30
0.0
 11
6.3630269566
 21
2.9345891054
 31
0.0
 12
6.3030269566
 22
2.9345891054
 32
0.0
 13
6.3030269566
 23
2.9345891054
 33
0.0
  0
LINE
  5
645
330
640
100
AcDbEntity
  8
0
  6
Continuous
 62
     7
370
     0
100
AcDbLine
 10
6.7011588119
 20
3.3379822485
 30
0.0
 11
6.6630728759
 21
3.3379822485
 31
0.0
  0
LINE
  5
646
330
640
100
AcDbEntity
  8
0
  6
Continuous
 62
     7
370
     0
100
AcDbLine
 10
6.6630728759
 20
3.3379822485
 30
0.0
 11
6.6630728759
 21
3.0403259896
 31
0.0
  0
LINE
  5
647
330
640
100
AcDbEntity
  8
0
  6
Continuous
 62
     7
370
     0
100
AcDbLine
 10
6.6630728759
 20
3.0403259896
 30
0.0
 11
6.7011588119
 21
3.0403259896
 31
0.0
  0
LINE
  5
648
330
640
100
AcDbEntity
  8
0
  6
Continuous
 62
     7
370
     0
100
AcDbLine
 10
7.0734569911
 20
3.3379822485
 30
0.0
 11
7.111542927
 21
3.3379822485
 31
0.0
  0
LINE
  5
649
330
640
100
AcDbEntity
  8
0
  6
Continuous
 62
     7
370
     0
100
AcDbLine
 10
7.111542927
 20
3.3379822485
 30
0.0
 11
7.111542927
 21
3.0403259896
 31
0.0
  0
LINE
  5
64A
330
640
100
AcDbEntity
  8
0
  6
Continuous
 62
     7
370
     0
100
AcDbLine
 10
7.111542927
 20
3.0403259896
 30
0.0
 11
7.0734569911
 21
3.0403259896
 31
0.0
  0
LINE
  5
64B
330
640
100
AcDbEntity
  8
0
  6
Continuous
 62
     7
370
     0
100
AcDbLine
 10
5.7360476644
 20
2.345888318
 30
0.0
 11
6.5205269566
 21
2.345888318
 31
0.0
  0
LINE
  5
64C
330
640
100
AcDbEntity
  8
0
  6
Continuous
 62
     7
370
     0
100
AcDbLine
 10
5.6517978544
 20
2.7395891054
 30
0.0
 11
6.5205269566
 21
2.7395891054
 31
0.0
  0
LINE
  5
64D
330
640
100
AcDbEntity
  8
0
  6
Continuous
 62
     7
370
     0
100
AcDbLine
 10
6.5205269566
 20
3.3394145695
 30
0.0
 11
6.3330269566
 21
3.3394145695
 31
0.0
  0
LINE
  5
64E
330
640
100
AcDbEntity
  8
0
  6
Continuous
 62
     7
370
     0
100
AcDbLine
 10
6.3330269566
 20
3.3394145695
 30
0.0
 11
6.3330269566
 21
2.7395891054
 31
0.0
  0
LINE
  5
64F
330
640
100
AcDbEntity
  8
0
  6
Continuous
 62
     7
370
     0
100
AcDbLine
 10
6.3330269566
 20
2.345888318
 30
0.0
 11
6.3330269566
 21
1.970888318
 31
0.0
  0
MTEXT
  5
650
330
640
100
AcDbEntity
  8
0
  6
Continuous
 62
     7
370
     0
100
AcDbMText
 10
6.7141308108
 20
3.6177683926
 30
0.0
 40
0.1875
 41
0.0
 71
     1
 72
     1
  1
.39
  7
SLDTEXTSTYLE0
 73
     1
 44
1.0
  0
MTEXT
  5
651
330
640
100
AcDbEntity
  8
0
  6
Continuous
 62
     7
370
     0
100
AcDbMText
 10
6.7487662344
 20
3.2820262114
 30
0.0
 40
0.1875
 41
0.0
 71
     1
 72
     1
  1
10
  7
SLDTEXTSTYLE0
 73
     1
 44
1.0
  0
MTEXT
  5
652
330
640
100
AcDbEntity
  8
0
  6
Continuous
 62
     7
370
     0
100
AcDbMText
 10
7.2104198524
 20
3.6206329898
 30
0.0
 40
0.1875
 41
0.0
 71
     1
 72
     1
  1
COVER
  7
SLDTEXTSTYLE0
 73
     1
 44
1.0
  0
ENDBLK
  5
642
330
640
100
AcDbEntity
  8
0
100
AcDbBlockEnd
  0
BLOCK
  5
655
330
654
100
AcDbEntity
  8
0
100
AcDbBlockBegin
  2
_D_33
 70
     0
 10
0.0
 20
0.0
 30
0.0
  3
_D_33
  1

  0
SOLID
  5
657
330
654
100
AcDbEntity
  8
0
  6
Continuous
 62
     7
370
     0
100
AcDbTrace
 10
2.0649369753
 20
1.2125812314
 30
0.0
 11
2.0949369753
 21
1.4075812314
 31
0.0
 12
2.0349369753
 22
1.4075812314
 32
0.0
 13
2.0349369753
 23
1.4075812314
 33
0.0
  0
SOLID
  5
658
330
654
100
AcDbEntity
  8
0
  6
Continuous
 62
     7
370
     0
100
AcDbTrace
 10
2.0649369753
 20
2.7395891054
 30
0.0
 11
2.0349369753
 21
2.5445891054
 31
0.0
 12
2.0949369753
 22
2.5445891054
 32
0.0
 13
2.0949369753
 23
2.5445891054
 33
0.0
  0
LINE
  5
659
330
654
100
AcDbEntity
  8
0
  6
Continuous
 62
     7
370
     0
100
AcDbLine
 10
1.7748816561
 20
1.9746528475
 30
0.0
 11
1.7367957201
 21
1.9746528475
 31
0.0
  0
LINE
  5
65A
330
654
100
AcDbEntity
  8
0
  6
Continuous
 62
     7
370
     0
100
AcDbLine
 10
1.7367957201
 20
1.9746528475
 30
0.0
 11
1.7367957201
 21
1.6769965885
 31
0.0
  0
LINE
  5
65B
330
654
100
AcDbEntity
  8
0
  6
Continuous
 62
     7
370
     0
100
AcDbLine
 10
1.7367957201
 20
1.6769965885
 30
0.0
 11
1.7748816561
 21
1.6769965885
 31
0.0
  0
LINE
  5
65C
330
654
100
AcDbEntity
  8
0
  6
Continuous
 62
     7
370
     0
100
AcDbLine
 10
2.3549923496
 20
1.9746528475
 30
0.0
 11
2.3930782856
 21
1.9746528475
 31
0.0
  0
LINE
  5
65D
330
654
100
AcDbEntity
  8
0
  6
Continuous
 62
     7
370
     0
100
AcDbLine
 10
2.3930782856
 20
1.9746528475
 30
0.0
 11
2.3930782856
 21
1.6769965885
 31
0.0
  0
LINE
  5
65E
330
654
100
AcDbEntity
  8
0
  6
Continuous
 62
     7
370
     0
100
AcDbLine
 10
2.3930782856
 20
1.6769965885
 30
0.0
 11
2.3549923496
 21
1.6769965885
 31
0.0
  0
LINE
  5
65F
330
654
100
AcDbEntity
  8
0
  6
Continuous
 62
     7
370
     0
100
AcDbLine
 10
3.1387051447
 20
1.2125812314
 30
0.0
 11
1.8774369753
 21
1.2125812314
 31
0.0
  0
LINE
  5
660
330
654
100
AcDbEntity
  8
0
  6
Continuous
 62
     7
370
     0
100
AcDbLine
 10
3.1506124351
 20
2.7395891054
 30
0.0
 11
1.8774369753
 21
2.7395891054
 31
0.0
  0
LINE
  5
661
330
654
100
AcDbEntity
  8
0
  6
Continuous
 62
     7
370
     0
100
AcDbLine
 10
2.0649369753
 20
1.2125812314
 30
0.0
 11
2.0649369753
 21
1.638910711
 31
0.0
  0
LINE
  5
662
330
654
100
AcDbEntity
  8
0
  6
Continuous
 62
     7
370
     0
100
AcDbLine
 10
2.0649369753
 20
2.7395891054
 30
0.0
 11
2.0649369753
 21
2.3132596259
 31
0.0
  0
MTEXT
  5
663
330
654
100
AcDbEntity
  8
0
  6
Continuous
 62
     7
370
     0
100
AcDbMText
 10
1.7092729338
 20
2.2573035888
 30
0.0
 40
0.1875
 41
0.0
 71
     1
 72
     1
  1

  7
SLDTEXTSTYLE0
 73
     1
 44
1.0
  0
MTEXT
  5
664
330
654
100
AcDbEntity
  8
0
  6
Continuous
 62
     7
370
     0
100
AcDbMText
 10
1.8224890649
 20
2.2544389915
 30
0.0
 40
0.1875
 41
0.0
 71
     1
 72
     1
  1
1.53
  7
SLDTEXTSTYLE0
 73
     1
 44
1.0
  0
MTEXT
  5
665
330
654
100
AcDbEntity
  8
0
  6
Continuous
 62
     7
370
     0
100
AcDbMText
 10
1.8224890786
 20
1.9186968104
 30
0.0
 40
0.1875
 41
0.0
 71
     1
 72
     1
  1
38.8
  7
SLDTEXTSTYLE0
 73
     1
 44
1.0
  0
MTEXT
  5
666
330
654
100
AcDbEntity
  8
0
  6
Continuous
 62
     7
370
     0
100
AcDbMText
 10
2.4919551972
 20
2.2573035888
 30
0.0
 40
0.1875
 41
0.0
 71
     1
 72
     1
  1

  7
SLDTEXTSTYLE0
 73
     1
 44
1.0
  0
ENDBLK
  5
656
330
654
100
AcDbEntity
  8
0
100
AcDbBlockEnd
  0
ENDSEC
  0
SECTION
  2
ENTITIES
  0
LINE
  5
73
330
1F
100
AcDbEntity
  8
0
  6
Continuous
 62
     7
370
     0
100
AcDbLine
 10
0.4698774069
 20
16.0576097561
 30
0.0
 11
25.0338774069
 21
16.0576097561
 31
0.0
  0
LINE
  5
74
330
1F
100
AcDbEntity
  8
0
  6
Continuous
 62
     7
370
     0
100
AcDbLine
 10
25.0338774069
 20
0.4936097561
 30
0.0
 11
25.0338774069
 21
16.0576097561
 31
0.0
  0
LINE
  5
75
330
1F
100
AcDbEntity
  8
0
  6
Continuous
 62
     7
370
     0
100
AcDbLine
 10
25.0338774069
 20
0.4936097561
 30
0.0
 11
0.4698774069
 21
0.4936097561
 31
0.0
  0
LINE
  5
76
330
1F
100
AcDbEntity
  8
0
  6
Continuous
 62
     7
370
     0
100
AcDbLine
 10
0.4698774069
 20
16.0576097561
 30
0.0
 11
0.4698774069
 21
0.4936097561
 31
0.0
  0
LINE
  5
77
330
1F
100
AcDbEntity
  8
0
  6
Continuous
 62
     7
370
     0
100
AcDbLine
 10
0.3768774069
 20
16.1506097561
 30
0.0
 11
25.1268774069
 21
16.1506097561
 31
0.0
  0
LINE
  5
78
330
1F
100
AcDbEntity
  8
0
  6
Continuous
 62
     7
370
     0
100
AcDbLine
 10
25.1268774069
 20
0.4006097561
 30
0.0
 11
0.3768774069
 21
0.4006097561
 31
0.0
  0
LINE
  5
79
330
1F
100
AcDbEntity
  8
0
  6
Continuous
 62
     7
370
     0
100
AcDbLine
 10
0.3768774069
 20
16.1506097561
 30
0.0
 11
0.3768774069
 21
0.4006097561
 31
0.0
  0
LINE
  5
7A
330
1F
100
AcDbEntity
  8
0
  6
Continuous
 62
     7
370
     0
100
AcDbLine
 10
25.1268774069
 20
0.4006097561
 30
0.0
 11
25.1268774069
 21
16.1506097561
 31
0.0
  0
LINE
  5
7B
330
1F
100
AcDbEntity
  8
0
  6
Continuous
 62
     7
370
     0
100
AcDbLine
 10
0.4698774069
 20
15.4486097561
 30
0.0
 11
25.0338774069
 21
15.4486097561
 31
0.0
  0
LINE
  5
7C
330
1F
100
AcDbEntity
  8
0
  6
Continuous
 62
     7
370
     0
100
AcDbLine
 10
2.765578831
 20
16.0576097561
 30
0.0
 11
2.765578831
 21
15.4486097561
 31
0.0
  0
LINE
  5
7D
330
1F
100
AcDbEntity
  8
0
  6
Continuous
 62
     7
370
     0
100
AcDbLine
 10
1.6662478256
 20
16.0576097561
 30
0.0
 11
1.6662478256
 21
15.4486097561
 31
0.0
  0
LINE
  5
7E
330
1F
100
AcDbEntity
  8
0
  6
Continuous
 62
     7
370
     0
100
AcDbLine
 10
23.1588774069
 20
15.4486097561
 30
0.0
 11
23.1588774069
 21
16.0576097561
 31
0.0
  0
LINE
  5
7F
330
1F
100
AcDbEntity
  8
0
  6
Continuous
 62
     7
370
     0
100
AcDbLine
 10
22.0338774069
 20
15.4486097561
 30
0.0
 11
22.0338774069
 21
16.0576097561
 31
0.0
  0
LINE
  5
80
330
1F
100
AcDbEntity
  8
0
  6
Continuous
 62
     7
370
     0
100
AcDbLine
 10
21.9408774069
 20
15.4486097561
 30
0.0
 11
21.9408774069
 21
16.0576097561
 31
0.0
  0
LINE
  5
81
330
1F
100
AcDbEntity
  8
0
  6
Continuous
 62
     7
370
     0
100
AcDbLine
 10
0.6715168758
 20
15.5642401737
 30
0.0
 11
0.6715168758
 21
15.9625423049
 31
0.0
  0
LINE
  5
82
330
1F
100
AcDbEntity
  8
0
  6
Continuous
 62
     7
370
     0
100
AcDbLine
 10
0.9488747165
 20
15.5891340569
 30
0.0
 11
0.9488747165
 21
15.9625423049
 31
0.0
  0
LINE
  5
83
330
1F
100
AcDbEntity
  8
0
  6
Continuous
 62
     7
370
     0
100
AcDbLine
 10
1.0563508797
 20
15.6292259294
 30
0.0
 11
1.0563508797
 21
15.9625423049
 31
0.0
  0
LINE
  5
84
330
1F
100
AcDbEntity
  8
0
  6
Continuous
 62
     7
370
     0
100
AcDbLine
 10
1.0216811497
 20
15.6292259294
 30
0.0
 11
1.0216811497
 21
15.9625423049
 31
0.0
  0
LINE
  5
85
330
1F
100
AcDbEntity
  8
0
  6
Continuous
 62
     7
370
     0
100
AcDbLine
 10
1.2106231823
 20
15.5642401737
 30
0.0
 11
1.2106231823
 21
15.9625423049
 31
0.0
  0
LINE
  5
86
330
1F
100
AcDbEntity
  8
0
  6
Continuous
 62
     7
370
     0
100
AcDbLine
 10
1.1291573129
 20
15.5891340569
 30
0.0
 11
1.1291573129
 21
15.9625423049
 31
0.0
  0
LINE
  5
87
330
1F
100
AcDbEntity
  8
0
  6
Continuous
 62
     7
370
     0
100
AcDbLine
 10
0.9737685997
 20
15.5642401737
 30
0.0
 11
1.1042634297
 21
15.5642401737
 31
0.0
  0
LINE
  5
88
330
1F
100
AcDbEntity
  8
0
  6
Continuous
 62
     7
370
     0
100
AcDbLine
 10
0.6715168758
 20
15.5642401737
 30
0.0
 11
0.7997948771
 21
15.5642401737
 31
0.0
  0
LINE
  5
89
330
1F
100
AcDbEntity
  8
0
  6
Continuous
 62
     7
370
     0
100
AcDbLine
 10
0.7997948771
 20
15.753433686
 30
0.0
 11
0.6905852273
 21
15.753433686
 31
0.0
  0
LINE
  5
8A
330
1F
100
AcDbEntity
  8
0
  6
Continuous
 62
     7
370
     0
100
AcDbLine
 10
0.7997948771
 20
15.7733487926
 30
0.0
 11
0.6905852273
 21
15.7733487926
 31
0.0
  0
LINE
  5
8B
330
1F
100
AcDbEntity
  8
0
  6
Continuous
 62
     7
370
     0
100
AcDbLine
 10
0.6905852273
 20
15.7733487926
 30
0.0
 11
0.6905852273
 21
15.7633912393
 31
0.0
  0
LINE
  5
8C
330
1F
100
AcDbEntity
  8
0
  6
Continuous
 62
     7
370
     0
100
AcDbLine
 10
0.6905852273
 20
15.753433686
 30
0.0
 11
0.6905852273
 21
15.7633912393
 31
0.0
  0
LINE
  5
8D
330
1F
100
AcDbEntity
  8
0
  6
Continuous
 62
     7
370
     0
100
AcDbLine
 10
1.2106231823
 20
15.5642401737
 30
0.0
 11
1.2601674653
 21
15.5642401737
 31
0.0
  0
LINE
  5
8E
330
1F
100
AcDbEntity
  8
0
  6
Continuous
 62
     7
370
     0
100
AcDbLine
 10
1.3995732113
 20
15.7036459196
 30
0.0
 11
1.3995732113
 21
15.823136559
 31
0.0
  0
LINE
  5
8F
330
1F
100
AcDbEntity
  8
0
  6
Continuous
 62
     7
370
     0
100
AcDbLine
 10
1.3263156445
 20
15.753433686
 30
0.0
 11
1.3263156445
 21
15.7733487926
 31
0.0
  0
LINE
  5
90
330
1F
100
AcDbEntity
  8
0
  6
Continuous
 62
     7
370
     0
100
AcDbLine
 10
1.2643692603
 20
15.753433686
 30
0.0
 11
1.2643692603
 21
15.7733487926
 31
0.0
  0
LINE
  5
91
330
1F
100
AcDbEntity
  8
0
  6
Continuous
 62
     7
370
     0
100
AcDbLine
 10
1.3263156445
 20
15.753433686
 30
0.0
 11
1.2643692603
 21
15.753433686
 31
0.0
  0
LINE
  5
92
330
1F
100
AcDbEntity
  8
0
  6
Continuous
 62
     7
370
     0
100
AcDbLine
 10
1.3263156445
 20
15.7733487926
 30
0.0
 11
1.2643692603
 21
15.7733487926
 31
0.0
  0
LINE
  5
93
330
1F
100
AcDbEntity
  8
0
  6
Continuous
 62
     7
370
     0
100
AcDbLine
 10
1.0563508797
 20
15.9625423049
 30
0.0
 11
1.1291573129
 21
15.9625423049
 31
0.0
  0
LINE
  5
94
330
1F
100
AcDbEntity
  8
0
  6
Continuous
 62
     7
370
     0
100
AcDbLine
 10
0.6715168758
 20
15.9625423049
 30
0.0
 11
0.7997948771
 21
15.9625423049
 31
0.0
  0
LINE
  5
95
330
1F
100
AcDbEntity
  8
0
  6
Continuous
 62
     7
370
     0
100
AcDbLine
 10
0.9488747165
 20
15.9625423049
 30
0.0
 11
1.0216811497
 21
15.9625423049
 31
0.0
  0
LINE
  5
96
330
1F
100
AcDbEntity
  8
0
  6
Continuous
 62
     7
370
     0
100
AcDbLine
 10
1.2106231823
 20
15.9625423049
 30
0.0
 11
1.2601674653
 21
15.9625423049
 31
0.0
  0
LINE
  5
97
330
1F
100
AcDbEntity
  8
0
  6
Continuous
 62
     7
370
     0
100
AcDbLine
 10
1.575150039
 20
16.0576097561
 30
0.0
 11
1.575150039
 21
15.4486097561
 31
0.0
  0
LINE
  5
98
330
1F
100
AcDbEntity
  8
0
  6
Continuous
 62
     7
370
     0
100
AcDbLine
 10
12.5747930654
 20
15.4486097561
 30
0.0
 11
12.5747930654
 21
16.0576097561
 31
0.0
  0
LINE
  5
99
330
1F
100
AcDbEntity
  8
0
  6
Continuous
 62
     7
370
     0
100
AcDbLine
 10
12.6677930654
 20
15.4486097561
 30
0.0
 11
12.6677930654
 21
16.0576097561
 31
0.0
  0
LINE
  5
9A
330
1F
100
AcDbEntity
  8
0
  6
Continuous
 62
     7
370
     0
100
AcDbLine
 10
13.7927930654
 20
15.4486097561
 30
0.0
 11
13.7927930654
 21
16.0576097561
 31
0.0
  0
ARC
  5
9B
330
1F
100
AcDbEntity
  8
0
  6
Continuous
 62
     7
370
     0
100
AcDbCircle
 10
0.7997948771
 20
15.8679455487
 30
0.0
 40
0.0945967561478671
100
AcDbArc
 50
270.0
 51
90.0
  0
ARC
  5
9C
330
1F
100
AcDbEntity
  8
0
  6
Continuous
 62
     7
370
     0
100
AcDbCircle
 10
1.2601674653
 20
15.823136559
 30
0.0
 40
0.1394057459021187
100
AcDbArc
 50
0.0
 51
90.0
  0
ARC
  5
9D
330
1F
100
AcDbEntity
  8
0
  6
Continuous
 62
     7
370
     0
100
AcDbCircle
 10
0.7997948771
 20
15.6588369299
 30
0.0
 40
0.0945967561478671
100
AcDbArc
 50
270.0
 51
90.0
  0
ARC
  5
9E
330
1F
100
AcDbEntity
  8
0
  6
Continuous
 62
     7
370
     0
100
AcDbCircle
 10
0.9737685997
 20
15.5891340569
 30
0.0
 40
0.0248938831968141
100
AcDbArc
 50
180.0
 51
270.0
  0
ARC
  5
9F
330
1F
100
AcDbEntity
  8
0
  6
Continuous
 62
     7
370
     0
100
AcDbCircle
 10
1.0364357732
 20
15.6292259294
 30
0.0
 40
0.0199151065574398
100
AcDbArc
 50
277.4442840975
 51
0.0
  0
ARC
  5
A0
330
1F
100
AcDbEntity
  8
0
  6
Continuous
 62
     7
370
     0
100
AcDbCircle
 10
1.0415962562
 20
15.6292259294
 30
0.0
 40
0.0199151065574563
100
AcDbArc
 50
180.0
 51
262.5557159021
  0
ARC
  5
A1
330
1F
100
AcDbEntity
  8
0
  6
Continuous
 62
     7
370
     0
100
AcDbCircle
 10
1.2601674653
 20
15.7036459196
 30
0.0
 40
0.1394057459021187
100
AcDbArc
 50
270.0
 51
0.0
  0
ARC
  5
A2
330
1F
100
AcDbEntity
  8
0
  6
Continuous
 62
     7
370
     0
100
AcDbCircle
 10
1.1042634297
 20
15.5891340569
 30
0.0
 40
0.0248938831968104
100
AcDbArc
 50
270.0
 51
0.0
  0
INSERT
  5
A9
330
1F
100
AcDbEntity
  8
0
  6
Continuous
 62
     7
370
     0
100
AcDbBlockReference
  2
SW_NOTE_0
 10
19.2966191201
 20
0.7626932561
 30
0.0
  0
INSERT
  5
AF
330
1F
100
AcDbEntity
  8
0
  6
Continuous
 62
     7
370
     0
100
AcDbBlockReference
  2
SW_NOTE_1
 10
10.226801783
 20
13.9853450688
 30
0.0
  0
INSERT
  5
C0
330
1F
100
AcDbEntity
  8
0
  6
Continuous
 62
     7
370
     0
100
AcDbBlockReference
  2
SW_NOTE_2
 10
10.399019826
 20
4.8694498958
 30
0.0
  0
INSERT
  5
CA
330
1F
100
AcDbEntity
  8
0
  6
Continuous
 62
     7
370
     0
100
AcDbBlockReference
  2
SW_NOTE_3
 10
0.6503041561
 20
15.0424719248
 30
0.0
  0
MTEXT
  5
CB
330
1F
100
AcDbEntity
  8
0
  6
Continuous
 62
     7
370
     0
100
AcDbMText
 10
12.93312201
 20
15.3320253038
 30
0.0
 40
0.1875
 41
0.0
 71
     1
 72
     1
  1
UPDATE REPLACES PART NO. AN-2815 & AN-2815-B
  7
SLDTEXTSTYLE0
 73
     1
 44
1.0
  0
INSERT
  5
D3
330
1F
100
AcDbEntity
  8
0
  6
Continuous
 62
     7
370
     0
100
AcDbBlockReference
  2
SW_NOTE_4
 10
10.399019826
 20
1.7489137307
 30
0.0
  0
INSERT
  5
DB
330
1F
100
AcDbEntity
  8
0
  6
Continuous
 62
     7
370
     0
100
AcDbBlockReference
  2
SW_NOTE_5
 10
21.5789303327
 20
15.0903251025
 30
0.0
  0
MTEXT
  5
DC
330
1F
100
AcDbEntity
  8
0
  6
Continuous
 62
     7
370
     0
100
AcDbMText
 10
6.7431512697
 20
5.8154407142
 30
0.0
 40
0.1875
 41
0.0
 71
     1
 72
     1
  1
[9.9]
  7
SLDTEXTSTYLE0
 73
     1
 44
1.0
  0
MTEXT
  5
DD
330
1F
100
AcDbEntity
  8
0
  6
Continuous
 62
     7
370
     0
100
AcDbMText
 10
24.1035157217
 20
15.9139745161
 30
0.0
 40
0.28125
 41
0.0
 71
     2
 72
     1
  1
9-30-15
  7
SLDTEXTSTYLE0
 73
     1
 44
1.0
  0
MTEXT
  5
DE
330
1F
100
AcDbEntity
  8
0
  6
Continuous
 62
     7
370
     0
100
AcDbMText
 10
7.7140963942
 20
15.9371571412
 30
0.0
 40
0.28125
 41
0.0
 71
     2
 72
     1
  1
NEMA DIE CAST ALUM. ENCLOSURE W/MTG. BRKT
  7
SLDTEXTSTYLE0
 73
     1
 44
1.0
  0
MTEXT
  5
DF
330
1F
100
AcDbEntity
  8
0
  6
Continuous
 62
     7
370
     0
100
AcDbMText
 10
16.1509514609
 20
15.8939843181
 30
0.0
 40
0.28125
 41
0.0
 71
     2
 72
     1
  1
AN-2815-A
  7
SLDTEXTSTYLE0
 73
     1
 44
1.0
  0
INSERT
  5
E5
330
1F
100
AcDbEntity
  8
0
  6
Continuous
 62
     7
370
     0
100
AcDbBlockReference
  2
SW_NOTE_6
 10
1.9026511869
 20
15.7592073569
 30
0.0
  0
INSERT
  5
EB
330
1F
100
AcDbEntity
  8
0
  6
Continuous
 62
     7
370
     0
100
AcDbBlockReference
  2
SW_NOTE_7
 10
12.9657697845
 20
15.7481817837
 30
0.0
  0
INSERT
  5
F1
330
1F
100
AcDbEntity
  8
0
  6
Continuous
 62
     7
370
     0
100
AcDbBlockReference
  2
SW_NOTE_8
 10
22.0629579411
 20
15.7550752943
 30
0.0
  0
MTEXT
  5
F2
330
1F
100
AcDbEntity
  8
0
  6
Continuous
 62
     7
370
     0
100
AcDbMText
 10
19.5837615982
 20
15.9139745299
 30
0.0
 40
0.28125
 41
0.0
 71
     2
 72
     1
  1
AN-2815-AB
  7
SLDTEXTSTYLE0
 73
     1
 44
1.0
  0
MTEXT
  5
F3
330
1F
100
AcDbEntity
  8
0
  6
Continuous
 62
     7
370
     0
100
AcDbMText
 10
17.7339878158
 20
15.8939843043
 30
0.0
 40
0.28125
 41
0.0
 71
     2
 72
     1
  1
&
  7
SLDTEXTSTYLE0
 73
     1
 44
1.0
  0
CIRCLE
  5
F4
330
1F
100
AcDbEntity
  8
0
  6
Continuous
 62
     7
370
    15
100
AcDbCircle
 10
3.5887051447
 20
13.1756869524
 30
0.0
 40
0.0965000000000007
  0
CIRCLE
  5
F5
330
1F
100
AcDbEntity
  8
0
  6
Continuous
 62
     7
370
    15
100
AcDbCircle
 10
3.5887051447
 20
6.6136869524
 30
0.0
 40
0.0965000000000007
  0
CIRCLE
  5
F6
330
1F
100
AcDbEntity
  8
0
  6
Continuous
 62
     7
370
    15
100
AcDbCircle
 10
5.2137051447
 20
13.1756869524
 30
0.0
 40
0.0965000000000007
  0
ARC
  5
F7
330
1F
100
AcDbEntity
  8
0
  6
Continuous
 62
     7
370
    15
100
AcDbCircle
 10
3.4007051447
 20
6.4886869524
 30
0.0
 40
0.1870000000000003
100
AcDbArc
 50
180.0
 51
270.0
  0
LINE
  5
F8
330
1F
100
AcDbEntity
  8
0
  6
Continuous
 62
     7
370
    15
100
AcDbLine
 10
3.2137051362
 20
13.3006870193
 30
0.0
 11
3.2137051362
 21
12.8030870877
 31
0.0
  0
LINE
  5
F9
330
1F
100
AcDbEntity
  8
0
  6
Continuous
 62
     7
370
    15
100
AcDbLine
 10
3.2137051362
 20
6.9862868172
 30
0.0
 11
3.2137051362
 21
6.4886868855
 31
0.0
  0
ARC
  5
FA
330
1F
100
AcDbEntity
  8
0
  6
Continuous
 62
     7
370
    15
100
AcDbCircle
 10
3.4007051447
 20
13.3006869524
 30
0.0
 40
0.1870000000000012
100
AcDbArc
 50
90.0
 51
180.0
  0
LINE
  5
FB
330
1F
100
AcDbEntity
  8
0
  6
Continuous
 62
     7
370
    15
100
AcDbLine
 10
5.4017051136
 20
13.4876869124
 30
0.0
 11
3.4007051759
 21
13.4876869124
 31
0.0
  0
ARC
  5
FC
330
1F
100
AcDbEntity
  8
0
  6
Continuous
 62
     7
370
    15
100
AcDbCircle
 10
5.4017051447
 20
13.3006869524
 30
0.0
 40
0.1870000000000012
100
AcDbArc
 50
0.0
 51
90.0
  0
LINE
  5
FD
330
1F
100
AcDbEntity
  8
0
  6
Continuous
 62
     7
370
    15
100
AcDbLine
 10
5.5887051533
 20
13.3006870193
 30
0.0
 11
5.5887051533
 21
12.8030870877
 31
0.0
  0
LINE
  5
FE
330
1F
100
AcDbEntity
  8
0
  6
Continuous
 62
     7
370
    15
100
AcDbLine
 10
5.5887051533
 20
6.9862868172
 30
0.0
 11
5.5887051533
 21
6.4886868855
 31
0.0
  0
ARC
  5
FF
330
1F
100
AcDbEntity
  8
0
  6
Continuous
 62
     7
370
    15
100
AcDbCircle
 10
5.4017051447
 20
6.4886869524
 30
0.0
 40
0.1869999999999994
100
AcDbArc
 50
270.0
 51
0.0
  0
LINE
  5
100
330
1F
100
AcDbEntity
  8
0
  6
Continuous
 62
     7
370
    15
100
AcDbLine
 10
5.4017051136
 20
6.3016869924
 30
0.0
 11
3.4007051759
 21
6.3016869924
 31
0.0
  0
CIRCLE
  5
101
330
1F
100
AcDbEntity
  8
0
  6
Continuous
 62
     7
370
    15
100
AcDbCircle
 10
5.2137051447
 20
6.6136869524
 30
0.0
 40
0.0965000000000007
  0
LINE
  5
102
330
1F
100
AcDbEntity
  8
0
  6
Continuous
 62
     7
370
    15
100
AcDbLine
 10
5.0783705221
 20
12.7588602652
 30
0.0
 11
4.0271894087
 21
12.7588602652
 31
0.0
  0
ARC
  5
103
330
1F
100
AcDbEntity
  8
0
  6
Continuous
 62
     7
370
    15
100
AcDbCircle
 10
5.0783704991
 20
12.6013798658
 30
0.0
 40
0.1574803149606314
100
AcDbArc
 50
0.0
 51
90.0
  0
LINE
  5
104
330
1F
100
AcDbEntity
  8
0
  6
Continuous
 62
     7
370
    15
100
AcDbLine
 10
5.2358507895
 20
12.5994113872
 30
0.0
 11
5.2358507895
 21
12.6013799245
 31
0.0
  0
ARC
  5
105
330
1F
100
AcDbEntity
  8
0
  6
Continuous
 62
     7
370
    15
100
AcDbCircle
 10
5.4130161684
 20
12.5994113619
 30
0.0
 40
0.1771653543307092
100
AcDbArc
 50
180.0
 51
270.0
  0
LINE
  5
106
330
1F
100
AcDbEntity
  8
0
  6
Continuous
 62
     7
370
    15
100
AcDbLine
 10
5.4149846735
 20
12.4222459672
 30
0.0
 11
5.4130161362
 21
12.4222459672
 31
0.0
  0
ARC
  5
107
330
1F
100
AcDbEntity
  8
0
  6
Continuous
 62
     7
370
    15
100
AcDbCircle
 10
5.4149846723
 20
12.2647656926
 30
0.0
 40
0.1574803149606296
100
AcDbArc
 50
0.0
 51
90.0
  0
LINE
  5
108
330
1F
100
AcDbEntity
  8
0
  6
Continuous
 62
     7
370
    15
100
AcDbLine
 10
5.5724650143
 20
7.5246082784
 30
0.0
 11
5.5724650143
 21
12.2647656264
 31
0.0
  0
ARC
  5
109
330
1F
100
AcDbEntity
  8
0
  6
Continuous
 62
     7
370
    15
100
AcDbCircle
 10
5.4149846723
 20
7.5246082123
 30
0.0
 40
0.1574803149606305
100
AcDbArc
 50
270.0
 51
0.0
  0
LINE
  5
10A
330
1F
100
AcDbEntity
  8
0
  6
Continuous
 62
     7
370
    15
100
AcDbLine
 10
5.1098665316
 20
7.3671279377
 30
0.0
 11
5.4149846735
 21
7.3671279377
 31
0.0
  0
ARC
  5
10B
330
1F
100
AcDbEntity
  8
0
  6
Continuous
 62
     7
370
    15
100
AcDbCircle
 10
5.1098665621
 20
7.189962543
 30
0.0
 40
0.1771653543307083
100
AcDbArc
 50
90.0
 51
180.0
  0
LINE
  5
10C
330
1F
100
AcDbEntity
  8
0
  6
Continuous
 62
     7
370
    15
100
AcDbLine
 10
4.9327012215
 20
7.1879939804
 30
0.0
 11
4.9327012215
 21
7.1899625176
 31
0.0
  0
ARC
  5
10D
330
1F
100
AcDbEntity
  8
0
  6
Continuous
 62
     7
370
    15
100
AcDbCircle
 10
4.7752208928
 20
7.187994039
 30
0.0
 40
0.1574803149606296
100
AcDbArc
 50
270.0
 51
0.0
  0
LINE
  5
10E
330
1F
100
AcDbEntity
  8
0
  6
Continuous
 62
     7
370
    15
100
AcDbLine
 10
3.7240397674
 20
7.0305136396
 30
0.0
 11
4.7752208807
 21
7.0305136396
 31
0.0
  0
ARC
  5
10F
330
1F
100
AcDbEntity
  8
0
  6
Continuous
 62
     7
370
    15
100
AcDbCircle
 10
3.7240397904
 20
7.187994039
 30
0.0
 40
0.1574803149606296
100
AcDbArc
 50
180.0
 51
270.0
  0
LINE
  5
110
330
1F
100
AcDbEntity
  8
0
  6
Continuous
 62
     7
370
    15
100
AcDbLine
 10
3.5665595
 20
7.1899625176
 30
0.0
 11
3.5665595
 21
7.1879939804
 31
0.0
  0
ARC
  5
111
330
1F
100
AcDbEntity
  8
0
  6
Continuous
 62
     7
370
    15
100
AcDbCircle
 10
3.3893941211
 20
7.189962543
 30
0.0
 40
0.1771653543307088
100
AcDbArc
 50
0.0
 51
90.0
  0
LINE
  5
112
330
1F
100
AcDbEntity
  8
0
  6
Continuous
 62
     7
370
    15
100
AcDbLine
 10
3.387425616
 20
7.3671279377
 30
0.0
 11
3.3893941533
 21
7.3671279377
 31
0.0
  0
ARC
  5
113
330
1F
100
AcDbEntity
  8
0
  6
Continuous
 62
     7
370
    15
100
AcDbCircle
 10
3.3874256172
 20
7.5246082123
 30
0.0
 40
0.1574803149606305
100
AcDbArc
 50
180.0
 51
270.0
  0
LINE
  5
114
330
1F
100
AcDbEntity
  8
0
  6
Continuous
 62
     7
370
    15
100
AcDbLine
 10
3.2299452752
 20
12.2647656264
 30
0.0
 11
3.2299452752
 21
7.5246082784
 31
0.0
  0
ARC
  5
115
330
1F
100
AcDbEntity
  8
0
  6
Continuous
 62
     7
370
    15
100
AcDbCircle
 10
3.3874256172
 20
12.2647656926
 30
0.0
 40
0.1574803149606296
100
AcDbArc
 50
90.0
 51
180.0
  0
LINE
  5
116
330
1F
100
AcDbEntity
  8
0
  6
Continuous
 62
     7
370
    15
100
AcDbLine
 10
3.6925437579
 20
12.4222459672
 30
0.0
 11
3.387425616
 21
12.4222459672
 31
0.0
  0
ARC
  5
117
330
1F
100
AcDbEntity
  8
0
  6
Continuous
 62
     7
370
    15
100
AcDbCircle
 10
3.6925437274
 20
12.5994113619
 30
0.0
 40
0.1771653543307092
100
AcDbArc
 50
270.0
 51
0.0
  0
LINE
  5
118
330
1F
100
AcDbEntity
  8
0
  6
Continuous
 62
     7
370
    15
100
AcDbLine
 10
3.869709068
 20
12.6013799245
 30
0.0
 11
3.869709068
 21
12.5994113872
 31
0.0
  0
ARC
  5
119
330
1F
100
AcDbEntity
  8
0
  6
Continuous
 62
     7
370
    15
100
AcDbCircle
 10
4.0271893967
 20
12.6013798658
 30
0.0
 40
0.1574803149606314
100
AcDbArc
 50
90.0
 51
180.0
  0
ARC
  5
11A
330
1F
100
AcDbEntity
  8
0
  6
Continuous
 62
     7
370
    15
100
AcDbCircle
 10
3.3874256172
 20
7.5246082123
 30
0.0
 40
0.0984251968504002
100
AcDbArc
 50
179.9999999997
 51
270.0
  0
LINE
  5
11B
330
1F
100
AcDbEntity
  8
0
  6
Continuous
 62
     7
370
    15
100
AcDbLine
 10
3.387425616
 20
7.4261828821
 30
0.0
 11
3.3893941533
 21
7.4261828821
 31
0.0
  0
ARC
  5
11C
330
1F
100
AcDbEntity
  8
0
  6
Continuous
 62
     7
370
    15
100
AcDbCircle
 10
3.3893941211
 20
7.189962543
 30
0.0
 40
0.2362204724409711
100
AcDbArc
 50
0.0000000005
 51
90.0
  0
LINE
  5
11D
330
1F
100
AcDbEntity
  8
0
  6
Continuous
 62
     7
370
    15
100
AcDbLine
 10
3.6256145911
 20
7.1899625176
 30
0.0
 11
3.6256145911
 21
7.1879939804
 31
0.0
  0
ARC
  5
11E
330
1F
100
AcDbEntity
  8
0
  6
Continuous
 62
     7
370
    15
100
AcDbCircle
 10
3.7240397904
 20
7.187994039
 30
0.0
 40
0.0984251968503935
100
AcDbArc
 50
179.9999999984
 51
270.0
  0
LINE
  5
11F
330
1F
100
AcDbEntity
  8
0
  6
Continuous
 62
     7
370
    15
100
AcDbLine
 10
4.7752208807
 20
7.0895688774
 30
0.0
 11
3.7240397674
 21
7.0895688774
 31
0.0
  0
ARC
  5
120
330
1F
100
AcDbEntity
  8
0
  6
Continuous
 62
     7
370
    15
100
AcDbCircle
 10
4.7752208928
 20
7.187994039
 30
0.0
 40
0.0984251968504406
100
AcDbArc
 50
270.0
 51
0.0000000016
  0
LINE
  5
121
330
1F
100
AcDbEntity
  8
0
  6
Continuous
 62
     7
370
    15
100
AcDbLine
 10
4.8736460937
 20
7.1879939804
 30
0.0
 11
4.8736460937
 21
7.1899625176
 31
0.0
  0
ARC
  5
122
330
1F
100
AcDbEntity
  8
0
  6
Continuous
 62
     7
370
    15
100
AcDbCircle
 10
5.1098665621
 20
7.189962543
 30
0.0
 40
0.2362204724409622
100
AcDbArc
 50
90.0
 51
180.0000000005
  0
LINE
  5
123
330
1F
100
AcDbEntity
  8
0
  6
Continuous
 62
     7
370
    15
100
AcDbLine
 10
5.4149846735
 20
7.4261828821
 30
0.0
 11
5.1098665316
 21
7.4261828821
 31
0.0
  0
ARC
  5
124
330
1F
100
AcDbEntity
  8
0
  6
Continuous
 62
     7
370
    15
100
AcDbCircle
 10
5.4149846723
 20
7.5246082123
 30
0.0
 40
0.0984251968504006
100
AcDbArc
 50
270.0
 51
0.0000000016
  0
LINE
  5
125
330
1F
100
AcDbEntity
  8
0
  6
Continuous
 62
     7
370
    15
100
AcDbLine
 10
5.5134098498
 20
12.2647656264
 30
0.0
 11
5.5134098498
 21
7.5246082784
 31
0.0
  0
ARC
  5
126
330
1F
100
AcDbEntity
  8
0
  6
Continuous
 62
     7
370
    15
100
AcDbCircle
 10
5.4149846723
 20
12.2647656926
 30
0.0
 40
0.0984251968504006
100
AcDbArc
 50
359.9999999997
 51
90.0
  0
LINE
  5
127
330
1F
100
AcDbEntity
  8
0
  6
Continuous
 62
     7
370
    15
100
AcDbLine
 10
5.4149846735
 20
12.3631910227
 30
0.0
 11
5.4130161362
 21
12.3631910227
 31
0.0
  0
ARC
  5
128
330
1F
100
AcDbEntity
  8
0
  6
Continuous
 62
     7
370
    15
100
AcDbCircle
 10
5.4130161684
 20
12.5994113619
 30
0.0
 40
0.2362204724410155
100
AcDbArc
 50
179.9999999995
 51
270.0
  0
LINE
  5
129
330
1F
100
AcDbEntity
  8
0
  6
Continuous
 62
     7
370
    15
100
AcDbLine
 10
5.1767956984
 20
12.5994113872
 30
0.0
 11
5.1767956984
 21
12.6013799245
 31
0.0
  0
ARC
  5
12A
330
1F
100
AcDbEntity
  8
0
  6
Continuous
 62
     7
370
    15
100
AcDbCircle
 10
5.0783704991
 20
12.6013798658
 30
0.0
 40
0.0984251968504477
100
AcDbArc
 50
0.0000000016
 51
90.0
  0
LINE
  5
12B
330
1F
100
AcDbEntity
  8
0
  6
Continuous
 62
     7
370
    15
100
AcDbLine
 10
4.0271894087
 20
12.6998050275
 30
0.0
 11
5.0783705221
 21
12.6998050275
 31
0.0
  0
ARC
  5
12C
330
1F
100
AcDbEntity
  8
0
  6
Continuous
 62
     7
370
    15
100
AcDbCircle
 10
4.0271893967
 20
12.6013798658
 30
0.0
 40
0.0984251968504406
100
AcDbArc
 50
90.0
 51
179.9999999984
  0
LINE
  5
12D
330
1F
100
AcDbEntity
  8
0
  6
Continuous
 62
     7
370
    15
100
AcDbLine
 10
3.9287641958
 20
12.6013799245
 30
0.0
 11
3.9287641958
 21
12.5994113872
 31
0.0
  0
ARC
  5
12E
330
1F
100
AcDbEntity
  8
0
  6
Continuous
 62
     7
370
    15
100
AcDbCircle
 10
3.6925437274
 20
12.5994113619
 30
0.0
 40
0.2362204724409622
100
AcDbArc
 50
270.0
 51
0.0000000005
  0
LINE
  5
12F
330
1F
100
AcDbEntity
  8
0
  6
Continuous
 62
     7
370
    15
100
AcDbLine
 10
3.387425616
 20
12.3631910227
 30
0.0
 11
3.6925437579
 21
12.3631910227
 31
0.0
  0
ARC
  5
130
330
1F
100
AcDbEntity
  8
0
  6
Continuous
 62
     7
370
    15
100
AcDbCircle
 10
3.3874256172
 20
12.2647656926
 30
0.0
 40
0.0984251968504157
100
AcDbArc
 50
90.0
 51
179.9999999984
  0
LINE
  5
131
330
1F
100
AcDbEntity
  8
0
  6
Continuous
 62
     7
370
    15
100
AcDbLine
 10
3.2890004397
 20
7.5246082784
 30
0.0
 11
3.2890004397
 21
12.2647656264
 31
0.0
  0
LINE
  5
132
330
1F
100
AcDbEntity
  8
0
  6
Continuous
 62
     7
370
    15
100
AcDbLine
 10
3.63523552
 20
7.1879939804
 30
0.0
 11
3.63523552
 21
7.1899625176
 31
0.0
  0
LINE
  5
133
330
1F
100
AcDbEntity
  8
0
  6
Continuous
 62
     7
370
    15
100
AcDbLine
 10
3.6256145911
 20
7.1879939804
 30
0.0
 11
3.63523552
 21
7.1879939804
 31
0.0
  0
LINE
  5
134
330
1F
100
AcDbEntity
  8
0
  6
Continuous
 62
     7
370
    15
100
AcDbLine
 10
3.6256145911
 20
7.1899625176
 30
0.0
 11
3.63523552
 21
7.1899625176
 31
0.0
  0
LINE
  5
135
330
1F
100
AcDbEntity
  8
0
  6
Continuous
 62
     7
370
    15
100
AcDbLine
 10
3.387425616
 20
7.4426759449
 30
0.0
 11
3.387425616
 21
7.4261828821
 31
0.0
  0
LINE
  5
136
330
1F
100
AcDbEntity
  8
0
  6
Continuous
 62
     7
370
    15
100
AcDbLine
 10
3.387425616
 20
7.4426759449
 30
0.0
 11
3.7799220552
 21
7.4426759449
 31
0.0
  0
LINE
  5
137
330
1F
100
AcDbEntity
  8
0
  6
Continuous
 62
     7
370
    15
100
AcDbLine
 10
3.7730499946
 20
7.4358039576
 30
0.0
 11
3.7799220552
 21
7.4426759449
 31
0.0
  0
LINE
  5
138
330
1F
100
AcDbEntity
  8
0
  6
Continuous
 62
     7
370
    15
100
AcDbLine
 10
3.3893941533
 20
7.4358039576
 30
0.0
 11
3.7730499946
 21
7.4358039576
 31
0.0
  0
LINE
  5
139
330
1F
100
AcDbEntity
  8
0
  6
Continuous
 62
     7
370
    15
100
AcDbLine
 10
3.3893941533
 20
7.4358039576
 30
0.0
 11
3.3893941533
 21
7.4261828821
 31
0.0
  0
LINE
  5
13A
330
1F
100
AcDbEntity
  8
0
  6
Continuous
 62
     7
370
    15
100
AcDbLine
 10
5.4130161362
 20
12.3535699472
 30
0.0
 11
5.4130161362
 21
12.3631910227
 31
0.0
  0
ARC
  5
13B
330
1F
100
AcDbEntity
  8
0
  6
Continuous
 62
     7
370
    15
100
AcDbCircle
 10
5.4130161684
 20
12.5994113619
 30
0.0
 40
0.2458413743699399
100
AcDbArc
 50
179.9999999994
 51
270.0
  0
LINE
  5
13C
330
1F
100
AcDbEntity
  8
0
  6
Continuous
 62
     7
370
    15
100
AcDbLine
 10
5.1767956984
 20
12.5994113872
 30
0.0
 11
5.1671747695
 21
12.5994113872
 31
0.0
  0
LINE
  5
13D
330
1F
100
AcDbEntity
  8
0
  6
Continuous
 62
     7
370
    15
100
AcDbLine
 10
3.6925437579
 20
12.3631910227
 30
0.0
 11
3.6925437579
 21
12.3466979599
 31
0.0
  0
LINE
  5
13E
330
1F
100
AcDbEntity
  8
0
  6
Continuous
 62
     7
370
    15
100
AcDbLine
 10
3.387425616
 20
12.3466979599
 30
0.0
 11
3.6925437579
 21
12.3466979599
 31
0.0
  0
LINE
  5
13F
330
1F
100
AcDbEntity
  8
0
  6
Continuous
 62
     7
370
    15
100
AcDbLine
 10
3.387425616
 20
12.3631910227
 30
0.0
 11
3.387425616
 21
12.3466979599
 31
0.0
  0
LINE
  5
140
330
1F
100
AcDbEntity
  8
0
  6
Continuous
 62
     7
370
    15
100
AcDbLine
 10
3.9452571852
 20
12.5994113872
 30
0.0
 11
3.9287641958
 21
12.5994113872
 31
0.0
  0
ARC
  5
141
330
1F
100
AcDbEntity
  8
0
  6
Continuous
 62
     7
370
    15
100
AcDbCircle
 10
3.6925437274
 20
12.5994113619
 30
0.0
 40
0.25271344717624
100
AcDbArc
 50
270.0
 51
0.0000000003
  0
LINE
  5
142
330
1F
100
AcDbEntity
  8
0
  6
Continuous
 62
     7
370
    15
100
AcDbLine
 10
4.8571531043
 20
7.1879939804
 30
0.0
 11
4.8736460937
 21
7.1879939804
 31
0.0
  0
LINE
  5
143
330
1F
100
AcDbEntity
  8
0
  6
Continuous
 62
     7
370
    15
100
AcDbLine
 10
4.8571531043
 20
7.1879939804
 30
0.0
 11
4.8571531043
 21
7.1899625176
 31
0.0
  0
LINE
  5
144
330
1F
100
AcDbEntity
  8
0
  6
Continuous
 62
     7
370
    15
100
AcDbLine
 10
4.8571531043
 20
7.1899625176
 30
0.0
 11
4.8736460937
 21
7.1899625176
 31
0.0
  0
LINE
  5
145
330
1F
100
AcDbEntity
  8
0
  6
Continuous
 62
     7
370
    15
100
AcDbLine
 10
3.9452571852
 20
12.6013799245
 30
0.0
 11
3.9287641958
 21
12.6013799245
 31
0.0
  0
LINE
  5
146
330
1F
100
AcDbEntity
  8
0
  6
Continuous
 62
     7
370
    15
100
AcDbLine
 10
3.9452571852
 20
12.6013799245
 30
0.0
 11
3.9452571852
 21
12.5994113872
 31
0.0
  0
ARC
  5
147
330
1F
100
AcDbEntity
  8
0
  6
Continuous
 62
     7
370
    15
100
AcDbCircle
 10
5.1098665621
 20
7.189962543
 30
0.0
 40
0.25271344717624
100
AcDbArc
 50
90.0
 51
180.0000000003
  0
LINE
  5
148
330
1F
100
AcDbEntity
  8
0
  6
Continuous
 62
     7
370
    15
100
AcDbLine
 10
5.1098665316
 20
7.4261828821
 30
0.0
 11
5.1098665316
 21
7.4426759449
 31
0.0
  0
ARC
  5
149
330
1F
100
AcDbEntity
  8
0
  6
Continuous
 62
     7
370
    15
100
AcDbCircle
 10
3.3893941211
 20
7.189962543
 30
0.0
 40
0.2458413743698946
100
AcDbArc
 50
0.0000000006
 51
90.0
  0
LINE
  5
14A
330
1F
100
AcDbEntity
  8
0
  6
Continuous
 62
     7
370
    15
100
AcDbLine
 10
5.1671747695
 20
12.6013799245
 30
0.0
 11
5.1671747695
 21
12.5994113872
 31
0.0
  0
LINE
  5
14B
330
1F
100
AcDbEntity
  8
0
  6
Continuous
 62
     7
370
    15
100
AcDbLine
 10
5.1767956984
 20
12.6013799245
 30
0.0
 11
5.1671747695
 21
12.6013799245
 31
0.0
  0
LINE
  5
14C
330
1F
100
AcDbEntity
  8
0
  6
Continuous
 62
     7
370
    15
100
AcDbLine
 10
5.4149846735
 20
12.3466979599
 30
0.0
 11
5.4149846735
 21
12.3631910227
 31
0.0
  0
LINE
  5
14D
330
1F
100
AcDbEntity
  8
0
  6
Continuous
 62
     7
370
    15
100
AcDbLine
 10
5.4149846735
 20
12.3466979599
 30
0.0
 11
5.0224882343
 21
12.3466979599
 31
0.0
  0
LINE
  5
14E
330
1F
100
AcDbEntity
  8
0
  6
Continuous
 62
     7
370
    15
100
AcDbLine
 10
5.0293602949
 20
12.3535699472
 30
0.0
 11
5.0224882343
 21
12.3466979599
 31
0.0
  0
LINE
  5
14F
330
1F
100
AcDbEntity
  8
0
  6
Continuous
 62
     7
370
    15
100
AcDbLine
 10
5.4130161362
 20
12.3535699472
 30
0.0
 11
5.0293602949
 21
12.3535699472
 31
0.0
  0
LINE
  5
150
330
1F
100
AcDbEntity
  8
0
  6
Continuous
 62
     7
370
    15
100
AcDbLine
 10
5.4149846735
 20
7.4426759449
 30
0.0
 11
5.1098665316
 21
7.4426759449
 31
0.0
  0
LINE
  5
151
330
1F
100
AcDbEntity
  8
0
  6
Continuous
 62
     7
370
    15
100
AcDbLine
 10
5.4149846735
 20
7.4261828821
 30
0.0
 11
5.4149846735
 21
7.4426759449
 31
0.0
  0
LINE
  5
152
330
1F
100
AcDbEntity
  8
0
  6
Continuous
 62
     7
370
    15
100
AcDbLine
 10
3.7240397674
 20
7.0991898062
 30
0.0
 11
3.7240397674
 21
7.0895688774
 31
0.0
  0
LINE
  5
153
330
1F
100
AcDbEntity
  8
0
  6
Continuous
 62
     7
370
    15
100
AcDbLine
 10
3.8990150394
 20
7.0991898062
 30
0.0
 11
3.7240397674
 21
7.0991898062
 31
0.0
  0
LINE
  5
154
330
1F
100
AcDbEntity
  8
0
  6
Continuous
 62
     7
370
    15
100
AcDbLine
 10
3.9058871
 20
7.1060619402
 30
0.0
 11
3.8990150394
 21
7.0991898062
 31
0.0
  0
LINE
  5
155
330
1F
100
AcDbEntity
  8
0
  6
Continuous
 62
     7
370
    15
100
AcDbLine
 10
4.7752208807
 20
7.1060619402
 30
0.0
 11
3.9058871
 21
7.1060619402
 31
0.0
  0
LINE
  5
156
330
1F
100
AcDbEntity
  8
0
  6
Continuous
 62
     7
370
    15
100
AcDbLine
 10
4.7752208807
 20
7.0895688774
 30
0.0
 11
4.7752208807
 21
7.1060619402
 31
0.0
  0
LINE
  5
157
330
1F
100
AcDbEntity
  8
0
  6
Continuous
 62
     7
370
    15
100
AcDbLine
 10
3.3054934292
 20
12.2647656264
 30
0.0
 11
3.2890004397
 21
12.2647656264
 31
0.0
  0
LINE
  5
158
330
1F
100
AcDbEntity
  8
0
  6
Continuous
 62
     7
370
    15
100
AcDbLine
 10
3.3054934292
 20
7.5246082784
 30
0.0
 11
3.3054934292
 21
12.2647656264
 31
0.0
  0
LINE
  5
159
330
1F
100
AcDbEntity
  8
0
  6
Continuous
 62
     7
370
    15
100
AcDbLine
 10
3.2890004397
 20
7.5246082784
 30
0.0
 11
3.3054934292
 21
7.5246082784
 31
0.0
  0
ARC
  5
15A
330
1F
100
AcDbEntity
  8
0
  6
Continuous
 62
     7
370
    15
100
AcDbCircle
 10
4.7752208928
 20
7.187994039
 30
0.0
 40
0.0819322221151522
100
AcDbArc
 50
270.0
 51
0.0000000008
  0
ARC
  5
15B
330
1F
100
AcDbEntity
  8
0
  6
Continuous
 62
     7
370
    15
100
AcDbCircle
 10
3.3874256172
 20
7.5246082123
 30
0.0
 40
0.0819322221151104
100
AcDbArc
 50
179.9999999996
 51
270.0
  0
ARC
  5
15C
330
1F
100
AcDbEntity
  8
0
  6
Continuous
 62
     7
370
    15
100
AcDbCircle
 10
5.4149846723
 20
12.2647656926
 30
0.0
 40
0.0819322221151086
100
AcDbArc
 50
359.9999999996
 51
90.0
  0
LINE
  5
15D
330
1F
100
AcDbEntity
  8
0
  6
Continuous
 62
     7
370
    15
100
AcDbLine
 10
5.5134098498
 20
12.2647656264
 30
0.0
 11
5.4969168603
 21
12.2647656264
 31
0.0
  0
ARC
  5
15E
330
1F
100
AcDbEntity
  8
0
  6
Continuous
 62
     7
370
    15
100
AcDbCircle
 10
4.0271893967
 20
12.6013798658
 30
0.0
 40
0.0819322221151522
100
AcDbArc
 50
90.0
 51
179.9999999992
  0
LINE
  5
15F
330
1F
100
AcDbEntity
  8
0
  6
Continuous
 62
     7
370
    15
100
AcDbLine
 10
4.0271894087
 20
12.6998050275
 30
0.0
 11
4.0271894087
 21
12.6833119647
 31
0.0
  0
ARC
  5
160
330
1F
100
AcDbEntity
  8
0
  6
Continuous
 62
     7
370
    15
100
AcDbCircle
 10
5.4149846723
 20
7.5246082123
 30
0.0
 40
0.0819322221150944
100
AcDbArc
 50
270.0
 51
0.000000002
  0
LINE
  5
161
330
1F
100
AcDbEntity
  8
0
  6
Continuous
 62
     7
370
    15
100
AcDbLine
 10
5.4969168603
 20
7.5246082784
 30
0.0
 11
5.5134098498
 21
7.5246082784
 31
0.0
  0
LINE
  5
162
330
1F
100
AcDbEntity
  8
0
  6
Continuous
 62
     7
370
    15
100
AcDbLine
 10
5.0783705221
 20
12.6901840986
 30
0.0
 11
5.0783705221
 21
12.6998050275
 31
0.0
  0
LINE
  5
163
330
1F
100
AcDbEntity
  8
0
  6
Continuous
 62
     7
370
    15
100
AcDbLine
 10
4.9033952501
 20
12.6901840986
 30
0.0
 11
5.0783705221
 21
12.6901840986
 31
0.0
  0
LINE
  5
164
330
1F
100
AcDbEntity
  8
0
  6
Continuous
 62
     7
370
    15
100
AcDbLine
 10
4.8965231895
 20
12.6833119647
 30
0.0
 11
4.9033952501
 21
12.6901840986
 31
0.0
  0
LINE
  5
165
330
1F
100
AcDbEntity
  8
0
  6
Continuous
 62
     7
370
    15
100
AcDbLine
 10
4.0271894087
 20
12.6833119647
 30
0.0
 11
4.8965231895
 21
12.6833119647
 31
0.0
  0
LINE
  5
166
330
1F
100
AcDbEntity
  8
0
  6
Continuous
 62
     7
370
    15
100
AcDbLine
 10
5.4969168603
 20
12.2647656264
 30
0.0
 11
5.4969168603
 21
7.5246082784
 31
0.0
  0
ARC
  5
167
330
1F
100
AcDbEntity
  8
0
  6
Continuous
 62
     7
370
    15
100
AcDbCircle
 10
3.3874256172
 20
12.2647656926
 30
0.0
 40
0.0819322221150944
100
AcDbArc
 50
90.0
 51
179.999999998
  0
ARC
  5
168
330
1F
100
AcDbEntity
  8
0
  6
Continuous
 62
     7
370
    15
100
AcDbCircle
 10
5.0783704991
 20
12.6013798658
 30
0.0
 40
0.0888042949215215
100
AcDbArc
 50
0.0000000017
 51
90.0
  0
ARC
  5
169
330
1F
100
AcDbEntity
  8
0
  6
Continuous
 62
     7
370
    15
100
AcDbCircle
 10
3.7240397904
 20
7.187994039
 30
0.0
 40
0.0888042949214682
100
AcDbArc
 50
179.9999999983
 51
270.0
  0
CIRCLE
  5
16A
330
1F
100
AcDbEntity
  8
0
  6
Continuous
 62
     7
370
    15
100
AcDbCircle
 10
3.6964807353
 20
12.5915373461
 30
0.0
 40
0.1614173228346614
  0
CIRCLE
  5
16B
330
1F
100
AcDbEntity
  8
0
  6
Continuous
 62
     7
370
    15
100
AcDbCircle
 10
5.1059295542
 20
7.1978365587
 30
0.0
 40
0.1614173228346631
  0
CIRCLE
  5
16C
330
1F
100
AcDbEntity
  8
0
  6
Continuous
 62
     7
370
    15
100
AcDbCircle
 10
5.424827192
 20
12.6112223855
 30
0.0
 40
0.0669291338582685
  0
CIRCLE
  5
16D
330
1F
100
AcDbEntity
  8
0
  6
Continuous
 62
     7
370
    15
100
AcDbCircle
 10
3.3775830975
 20
7.1781515193
 30
0.0
 40
0.0669291338582672
  0
CIRCLE
  5
16E
330
1F
100
AcDbEntity
  8
0
  6
Continuous
 62
     7
370
    15
100
AcDbCircle
 10
5.424827192
 20
7.1781515193
 30
0.0
 40
0.0669291338582685
  0
CIRCLE
  5
16F
330
1F
100
AcDbEntity
  8
0
  6
Continuous
 62
     7
370
    15
100
AcDbCircle
 10
3.3775830975
 20
12.6112223855
 30
0.0
 40
0.0669291338582672
  0
ELLIPSE
  5
170
330
1F
100
AcDbEntity
  8
0
  6
Continuous
 62
     7
370
    15
100
AcDbEllipse
 10
5.4641672849
 20
7.1388114264
 30
0.0
 11
-0.139236651411335
 21
0.139236651411335
 31
0.0
210
0.0
220
0.0
230
1.0
 40
0.9996954599
 41
2.356346783439924
 42
3.926838523739676
  0
LINE
  5
171
330
1F
100
AcDbEntity
  8
0
  6
Continuous
 62
     7
370
    15
100
AcDbLine
 10
3.1413625652
 20
7.1387515092
 30
0.0
 11
3.1413625652
 21
12.6506223956
 31
0.0
  0
ELLIPSE
  5
172
330
1F
100
AcDbEntity
  8
0
  6
Continuous
 62
     7
370
    15
100
AcDbEllipse
 10
3.3382430046
 20
12.6505624784
 30
0.0
 11
0.139236651411335
 21
-0.1392366514113341
 31
0.0
210
0.0
220
0.0
230
1.0
 40
0.9996954599
 41
2.35634678343992
 42
3.92683852373966
  0
LINE
  5
173
330
1F
100
AcDbEntity
  8
0
  6
Continuous
 62
     7
370
    15
100
AcDbLine
 10
3.3381830715
 20
12.8474429753
 30
0.0
 11
5.464227218
 21
12.8474429753
 31
0.0
  0
ELLIPSE
  5
174
330
1F
100
AcDbEntity
  8
0
  6
Continuous
 62
     7
370
    15
100
AcDbEllipse
 10
5.4641672849
 20
12.6505624784
 30
0.0
 11
-0.1392366514113341
 21
-0.1392366514113359
 31
0.0
210
0.0
220
0.0
230
1.0
 40
0.9996954599
 41
2.356346783439923
 42
3.92683852373967
  0
LINE
  5
175
330
1F
100
AcDbEntity
  8
0
  6
Continuous
 62
     7
370
    15
100
AcDbLine
 10
5.6610477243
 20
12.6506223956
 30
0.0
 11
5.6610477243
 21
7.1387515092
 31
0.0
  0
LINE
  5
176
330
1F
100
AcDbEntity
  8
0
  6
Continuous
 62
     7
370
    15
100
AcDbLine
 10
5.464227218
 20
6.9419309296
 30
0.0
 11
3.3381830715
 21
6.9419309296
 31
0.0
  0
ELLIPSE
  5
177
330
1F
100
AcDbEntity
  8
0
  6
Continuous
 62
     7
370
    15
100
AcDbEllipse
 10
3.3382430046
 20
7.1388114264
 30
0.0
 11
0.1392366514113355
 21
0.1392366514113341
 31
0.0
210
0.0
220
0.0
230
1.0
 40
0.9996954599
 41
2.356346783439931
 42
3.926838523739679
  0
CIRCLE
  5
178
330
1F
100
AcDbEntity
  8
0
  6
Continuous
 62
     7
370
    15
100
AcDbCircle
 10
5.1059295542
 20
7.1978365587
 30
0.0
 40
0.1466423663009451
  0
CIRCLE
  5
179
330
1F
100
AcDbEntity
  8
0
  6
Continuous
 62
     7
370
    15
100
AcDbCircle
 10
3.6964807353
 20
12.5915373461
 30
0.0
 40
0.1466423663009437
  0
LINE
  5
17A
330
1F
100
AcDbEntity
  8
0
  6
Continuous
 62
     7
370
    15
100
AcDbLine
 10
4.8965231895
 20
12.4726629314
 30
0.0
 11
4.9033952501
 21
12.4795350654
 31
0.0
  0
LINE
  5
17B
330
1F
100
AcDbEntity
  8
0
  6
Continuous
 62
     7
370
    15
100
AcDbLine
 10
4.8965231895
 20
12.4726629314
 30
0.0
 11
4.8965231895
 21
12.6833119647
 31
0.0
  0
LINE
  5
17C
330
1F
100
AcDbEntity
  8
0
  6
Continuous
 62
     7
370
    15
100
AcDbLine
 10
4.9033952501
 20
12.6901840986
 30
0.0
 11
4.9033952501
 21
12.4795350654
 31
0.0
  0
LINE
  5
17D
330
1F
100
AcDbEntity
  8
0
  6
Continuous
 62
     7
370
    15
100
AcDbLine
 10
3.9058871
 20
7.3167109734
 30
0.0
 11
3.8990150394
 21
7.3098388395
 31
0.0
  0
LINE
  5
17E
330
1F
100
AcDbEntity
  8
0
  6
Continuous
 62
     7
370
    15
100
AcDbLine
 10
3.9058871
 20
7.3167109734
 30
0.0
 11
3.9058871
 21
7.1060619402
 31
0.0
  0
LINE
  5
17F
330
1F
100
AcDbEntity
  8
0
  6
Continuous
 62
     7
370
    15
100
AcDbLine
 10
3.8990150394
 20
7.0991898062
 30
0.0
 11
3.8990150394
 21
7.3098388395
 31
0.0
  0
ELLIPSE
  5
180
330
1F
100
AcDbEntity
  8
0
  6
Continuous
 62
     7
370
    15
100
AcDbEllipse
 10
5.0293987093
 20
12.4795734304
 30
0.0
 11
-0.0891114569032556
 21
-0.08911145690325382
 31
0.0
210
0.0
220
0.0
230
1.0
 40
0.9996954599
 41
5.497939437029747
 42
7.068431177329466
  0
CIRCLE
  5
181
330
1F
100
AcDbEntity
  8
0
  6
Continuous
 62
     7
370
    15
100
AcDbCircle
 10
5.0390004203
 20
12.5127971886
 30
0.0
 40
0.0629921259842527
  0
ELLIPSE
  5
182
330
1F
100
AcDbEntity
  8
0
  6
Continuous
 62
     7
370
    15
100
AcDbEllipse
 10
3.7730115801
 20
7.3098004744
 30
0.0
 11
0.08911145690325384
 21
0.08911145690325384
 31
0.0
210
0.0
220
0.0
230
1.0
 40
0.9996954599
 41
5.497939437029733
 42
7.06843117732945
  0
CIRCLE
  5
183
330
1F
100
AcDbEntity
  8
0
  6
Continuous
 62
     7
370
    15
100
AcDbCircle
 10
3.7634098692
 20
7.2765767162
 30
0.0
 40
0.0629921259842519
  0
ELLIPSE
  5
184
330
1F
100
AcDbEntity
  8
0
  6
Continuous
 62
     7
370
    15
100
AcDbEllipse
 10
5.0225266365
 20
12.4727013576
 30
0.0
 11
-0.08911145690325473
 21
-0.08911145690325384
 31
0.0
210
0.0
220
0.0
230
1.0
 40
0.9996954599
 41
5.497939437029736
 42
7.068431177329454
  0
ELLIPSE
  5
185
330
1F
100
AcDbEntity
  8
0
  6
Continuous
 62
     7
370
    15
100
AcDbEllipse
 10
3.779883653
 20
7.3166725472
 30
0.0
 11
0.08911145690325384
 21
0.08911145690325384
 31
0.0
210
0.0
220
0.0
230
1.0
 40
0.9996954599
 41
5.497939437029731
 42
7.068431177329451
  0
CIRCLE
  5
186
330
1F
100
AcDbEntity
  8
0
  6
Continuous
 62
     7
370
    15
100
AcDbCircle
 10
5.1059295542
 20
7.1978365587
 30
0.0
 40
0.0885826771653537
  0
CIRCLE
  5
187
330
1F
100
AcDbEntity
  8
0
  6
Continuous
 62
     7
370
    15
100
AcDbCircle
 10
3.6964807353
 20
12.5915373461
 30
0.0
 40
0.0885826771653542
  0
DIMENSION
  5
188
330
1F
100
AcDbEntity
  8
0
  6
Continuous
 62
     7
370
     0
100
AcDbDimension
  2
_D
 10
7.6800503636
 20
12.5127971886
 30
0.0
 11
7.6800503636
 21
9.8946869524
 31
0.0
 70
   160
  1
<>
 71
     2
 42
-1.0
  3
SLDDIMSTYLE0
100
AcDbAlignedDimension
 13
3.7634098692
 23
7.2765767162
 33
0.0
 14
5.0390004203
 24
12.5127971886
 34
0.0
 50
90.0
100
AcDbRotatedDimension
  0
DIMENSION
  5
19D
330
1F
100
AcDbEntity
  8
0
  6
Continuous
 62
     7
370
     0
100
AcDbDimension
  2
_D_1
 10
3.7634098692
 20
13.7128265846
 30
0.0
 11
6.6930118817
 21
13.7128265846
 31
0.0
 70
   160
  1
<>
 71
     2
 42
-1.0
  3
SLDDIMSTYLE0
100
AcDbAlignedDimension
 13
5.0390004203
 23
12.5127971886
 33
0.0
 14
3.7634098692
 24
7.2765767162
 34
0.0
100
AcDbRotatedDimension
  0
DIMENSION
  5
1B1
330
1F
100
AcDbEntity
  8
0
  6
Continuous
 62
     7
370
     0
100
AcDbDimension
  2
_D_2
 10
4.6900752049
 20
12.6833120879
 30
0.0
 11
4.6900752049
 21
9.2283525821
 31
0.0
 70
   160
  1
<>
 71
     2
 42
-1.0
  3
SLDDIMSTYLE0
100
AcDbAlignedDimension
 13
4.7752208928
 23
7.1060618169
 33
0.0
 14
4.0271893967
 24
12.6833120879
 34
0.0
 50
90.0
100
AcDbRotatedDimension
  0
DIMENSION
  5
1C5
330
1F
100
AcDbEntity
  8
0
  6
Continuous
 62
     7
370
     0
100
AcDbDimension
  2
_D_3
 10
5.4969168944
 20
11.2188300418
 30
0.0
 11
4.1958684686
 21
11.2188300418
 31
0.0
 70
   160
  1
<>
 71
     2
 42
-1.0
  3
SLDDIMSTYLE0
100
AcDbAlignedDimension
 13
3.3054933951
 23
12.2647656926
 33
0.0
 14
5.4969168944
 24
12.2647656926
 34
0.0
 50
0.0
100
AcDbRotatedDimension
  0
DIMENSION
  5
1D9
330
1F
100
AcDbEntity
  8
0
  6
Continuous
 62
     7
370
     0
100
AcDbDimension
  2
_D_4
 10
6.8389853732
 20
7.4426759901
 30
0.0
 11
6.8389853732
 21
9.8946869524
 31
0.0
 70
   160
  1
<>
 71
     2
 42
-1.0
  3
SLDDIMSTYLE1
100
AcDbAlignedDimension
 13
5.4149846723
 23
12.3466979147
 33
0.0
 14
5.1098665621
 24
7.4426759901
 34
0.0
 50
90.0
100
AcDbRotatedDimension
  0
DIMENSION
  5
1EE
330
1F
100
AcDbEntity
  8
0
  6
Continuous
 62
     7
370
     0
100
AcDbDimension
  2
_D_5
 10
4.8571531149
 20
5.4508930538
 30
0.0
 11
4.3815201054
 21
5.4508930538
 31
0.0
 70
   160
  1
<>
 71
     2
 42
-1.0
  3
SLDDIMSTYLE2
100
AcDbAlignedDimension
 13
3.9058870959
 23
7.3167109262
 33
0.0
 14
4.8571531149
 24
7.189962543
 34
0.0
100
AcDbRotatedDimension
  0
DIMENSION
  5
203
330
1F
100
AcDbEntity
  8
0
  6
Continuous
 62
     7
370
     0
100
AcDbDimension
  2
_D_6
 10
4.8571531149
 20
4.6991741765
 30
0.0
 11
4.2461943052
 21
4.6991741765
 31
0.0
 70
   160
  1
<>
 71
     2
 42
-1.0
  3
SLDDIMSTYLE0
100
AcDbAlignedDimension
 13
3.6352354955
 23
7.189962543
 33
0.0
 14
4.8571531149
 24
7.189962543
 34
0.0
 50
0.0
100
AcDbRotatedDimension
  0
DIMENSION
  5
217
330
1F
100
AcDbEntity
  8
0
  6
Continuous
 62
     7
370
     0
100
AcDbDimension
  2
_D_7
 10
1.8310213432
 20
7.4426759901
 30
0.0
 11
1.8310213432
 21
9.8946869524
 31
0.0
 70
   160
  1
<>
 71
     2
 42
-1.0
  3
SLDDIMSTYLE1
100
AcDbAlignedDimension
 13
3.3874256172
 23
12.3466979147
 33
0.0
 14
3.3874256172
 24
7.4426759901
 34
0.0
 50
90.0
100
AcDbRotatedDimension
  0
INSERT
  5
23E
102
{ACAD_REACTORS
330
240
102
}
330
1F
100
AcDbEntity
  8
0
  6
Continuous
 62
     7
370
     0
100
AcDbBlockReference
  2
SW_NOTE_9
 10
5.6270798858
 20
6.0074678449
 30
0.0
  0
LEADER
  5
240
330
1F
100
AcDbEntity
  8
0
  6
Continuous
 62
     7
370
     0
100
AcDbLeader
  3
SLDDIMSTYLE3
 73
     2
 76
     3
 10
3.8224859221
 20
7.2547128671
 30
0.0
 10
5.2520798858
 20
6.0074678449
 30
0.0
 10
5.6270798858
 20
6.0074678449
 30
0.0
340
23E
  0
LINE
  5
241
330
1F
100
AcDbEntity
  8
0
  6
PHANTOM
 62
     7
370
    30
100
AcDbLine
 10
3.7653699277
 20
5.8789218138
 30
0.0
 11
3.7653699277
 21
13.9027580045
 31
0.0
  0
LINE
  5
242
330
1F
100
AcDbEntity
  8
0
  6
Continuous
 62
     7
370
    30
100
AcDbLine
 10
3.7653699277
 20
5.8789218138
 30
0.0
 11
3.0153699277
 21
5.8789218138
 31
0.0
  0
SOLID
  5
243
330
1F
100
AcDbEntity
  8
0
  6
Continuous
 62
     7
370
    30
100
AcDbTrace
 10
3.0153699277
 20
5.8789218138
 30
0.0
 11
3.3903699277
 21
5.8189218138
 31
0.0
 12
3.3903699277
 22
5.9389218138
 32
0.0
 13
3.3903699277
 23
5.9389218138
 33
0.0
  0
LINE
  5
244
330
1F
100
AcDbEntity
  8
0
  6
Continuous
 62
     7
370
    30
100
AcDbLine
 10
3.7653699277
 20
13.9027580045
 30
0.0
 11
3.0153699277
 21
13.9027580045
 31
0.0
  0
SOLID
  5
245
330
1F
100
AcDbEntity
  8
0
  6
Continuous
 62
     7
370
    30
100
AcDbTrace
 10
3.0153699277
 20
13.9027580045
 30
0.0
 11
3.3903699277
 21
13.8427580045
 31
0.0
 12
3.3903699277
 22
13.9627580045
 32
0.0
 13
3.3903699277
 23
13.9627580045
 33
0.0
  0
MTEXT
  5
246
330
1F
100
AcDbEntity
  8
0
  6
Continuous
 62
     7
100
AcDbMText
 10
2.8639776644
 20
5.9379045505
 30
0.0
 40
0.1875
 41
0.0
 71
     1
 72
     1
  1
A
  7
SLDTEXTSTYLE0
 73
     1
 44
1.0
  0
MTEXT
  5
247
330
1F
100
AcDbEntity
  8
0
  6
Continuous
 62
     7
100
AcDbMText
 10
2.8639776644
 20
13.9617407412
 30
0.0
 40
0.1875
 41
0.0
 71
     1
 72
     1
  1
A
  7
SLDTEXTSTYLE0
 73
     1
 44
1.0
  0
LINE
  5
248
330
1F
100
AcDbEntity
  8
0
  6
PHANTOM
 62
     7
370
    30
100
AcDbLine
 10
2.492428533
 20
9.9845550469
 30
0.0
 11
6.1908543408
 21
9.9845550469
 31
0.0
  0
LINE
  5
249
330
1F
100
AcDbEntity
  8
0
  6
Continuous
 62
     7
370
    30
100
AcDbLine
 10
2.492428533
 20
9.9845550469
 30
0.0
 11
2.492428533
 21
10.7345550469
 31
0.0
  0
SOLID
  5
24A
330
1F
100
AcDbEntity
  8
0
  6
Continuous
 62
     7
370
    30
100
AcDbTrace
 10
2.492428533
 20
10.7345550469
 30
0.0
 11
2.432428533
 21
10.3595550469
 31
0.0
 12
2.552428533
 22
10.3595550469
 32
0.0
 13
2.552428533
 23
10.3595550469
 33
0.0
  0
LINE
  5
24B
330
1F
100
AcDbEntity
  8
0
  6
Continuous
 62
     7
370
    30
100
AcDbLine
 10
6.1908543408
 20
9.9845550469
 30
0.0
 11
6.1908543408
 21
10.7345550469
 31
0.0
  0
SOLID
  5
24C
330
1F
100
AcDbEntity
  8
0
  6
Continuous
 62
     7
370
    30
100
AcDbTrace
 10
6.1908543408
 20
10.7345550469
 30
0.0
 11
6.1308543408
 21
10.3595550469
 31
0.0
 12
6.2508543408
 22
10.3595550469
 32
0.0
 13
6.2508543408
 23
10.3595550469
 33
0.0
  0
MTEXT
  5
24D
330
1F
100
AcDbEntity
  8
0
  6
Continuous
 62
     7
100
AcDbMText
 10
2.4185623433
 20
10.9896013022
 30
0.0
 40
0.1875
 41
0.0
 71
     1
 72
     1
  1
B
  7
SLDTEXTSTYLE0
 73
     1
 44
1.0
  0
MTEXT
  5
24E
330
1F
100
AcDbEntity
  8
0
  6
Continuous
 62
     7
100
AcDbMText
 10
6.1343024757
 20
10.9982325221
 30
0.0
 40
0.1875
 41
0.0
 71
     1
 72
     1
  1
B
  7
SLDTEXTSTYLE0
 73
     1
 44
1.0
  0
ARC
  5
24F
330
1F
100
AcDbEntity
  8
0
  6
Continuous
 62
     7
370
    15
100
AcDbCircle
 10
20.8171360472
 20
7.5169206428
 30
0.0
 40
0.059055118110237
100
AcDbArc
 50
90.0
 51
180.0
  0
ARC
  5
250
330
1F
100
AcDbEntity
  8
0
  6
Continuous
 62
     7
370
    15
100
AcDbCircle
 10
21.784343438
 20
7.5449757609
 30
0.0
 40
0.0310000000000006
100
AcDbArc
 50
315.0
 51
90.0
  0
ARC
  5
251
330
1F
100
AcDbEntity
  8
0
  6
Continuous
 62
     7
370
    15
100
AcDbCircle
 10
21.9498695341
 20
7.3722709693
 30
0.0
 40
0.0310000000000002
100
AcDbArc
 50
29.8378000838
 51
135.0
  0
ARC
  5
252
330
1F
100
AcDbEntity
  8
0
  6
Continuous
 62
     7
370
    15
100
AcDbCircle
 10
22.2108368346
 20
7.1864156802
 30
0.0
 40
0.0590551181102361
100
AcDbArc
 50
0.0
 51
88.0238917143
  0
ARC
  5
253
330
1F
100
AcDbEntity
  8
0
  6
Continuous
 62
     7
370
    15
100
AcDbCircle
 10
22.2108368346
 20
2.4342434774
 30
0.0
 40
0.059055118110237
100
AcDbArc
 50
270.0
 51
0.0
  0
ARC
  5
254
330
1F
100
AcDbEntity
  8
0
  6
Continuous
 62
     7
370
    15
100
AcDbCircle
 10
21.5769785669
 20
2.103534816
 30
0.0
 40
0.059055118110237
100
AcDbArc
 50
270.0
 51
0.0
  0
ARC
  5
255
330
1F
100
AcDbEntity
  8
0
  6
Continuous
 62
     7
370
    15
100
AcDbCircle
 10
20.6097711761
 20
2.0754796979
 30
0.0
 40
0.0310000000000017
100
AcDbArc
 50
135.0
 51
270.0
  0
ARC
  5
256
330
1F
100
AcDbEntity
  8
0
  6
Continuous
 62
     7
370
    15
100
AcDbCircle
 10
20.44424508
 20
2.2481844895
 30
0.0
 40
0.0310000000000018
100
AcDbArc
 50
209.8378000838
 51
315.0
  0
ARC
  5
257
330
1F
100
AcDbEntity
  8
0
  6
Continuous
 62
     7
370
    15
100
AcDbCircle
 10
20.1832777795
 20
2.4340397785
 30
0.0
 40
0.059055118110237
100
AcDbArc
 50
180.0
 51
268.0238917143
  0
ARC
  5
258
330
1F
100
AcDbEntity
  8
0
  6
Continuous
 62
     7
370
    15
100
AcDbCircle
 10
20.1832777795
 20
7.1862119813
 30
0.0
 40
0.059055118110237
100
AcDbArc
 50
90.0
 51
180.0
  0
LINE
  5
259
330
1F
100
AcDbEntity
  8
0
  6
Continuous
 62
     7
370
    15
100
AcDbLine
 10
20.4903643842
 20
7.2452671063
 30
0.0
 11
20.1832777783
 21
7.2452671063
 31
0.0
  0
LINE
  5
25A
330
1F
100
AcDbEntity
  8
0
  6
Continuous
 62
     7
370
    15
100
AcDbLine
 10
20.1242226872
 20
7.1862120151
 30
0.0
 11
20.1242226872
 21
2.434039726
 31
0.0
  0
ARC
  5
25B
330
1F
100
AcDbEntity
  8
0
  6
Continuous
 62
     7
370
    15
100
AcDbCircle
 10
20.1714667559
 20
2.0917237924
 30
0.0
 40
0.2834645669291341
100
AcDbArc
 50
29.8378000838
 51
88.0238917143
  0
LINE
  5
25C
330
1F
100
AcDbEntity
  8
0
  6
Continuous
 62
     7
370
    15
100
AcDbLine
 10
20.466165397
 20
2.2262642995
 30
0.0
 11
20.4946560946
 21
2.2547548504
 31
0.0
  0
ARC
  5
25D
330
1F
100
AcDbEntity
  8
0
  6
Continuous
 62
     7
370
    15
100
AcDbCircle
 10
20.5572935275
 20
2.1921174932
 30
0.0
 40
0.0885826771653536
100
AcDbArc
 50
315.0
 51
135.0
  0
LINE
  5
25E
330
1F
100
AcDbEntity
  8
0
  6
Continuous
 62
     7
370
    15
100
AcDbLine
 10
20.6199309341
 20
2.1294800843
 30
0.0
 11
20.587850868
 21
2.0974000549
 31
0.0
  0
LINE
  5
25F
330
1F
100
AcDbEntity
  8
0
  6
Continuous
 62
     7
370
    15
100
AcDbLine
 10
20.6097711581
 20
2.0444798129
 30
0.0
 11
21.5769785815
 21
2.0444798129
 31
0.0
  0
LINE
  5
260
330
1F
100
AcDbEntity
  8
0
  6
Continuous
 62
     7
370
    15
100
AcDbLine
 10
21.6360336726
 20
2.1035347573
 30
0.0
 11
21.6360336726
 21
2.1074718318
 31
0.0
  0
ARC
  5
261
330
1F
100
AcDbEntity
  8
0
  6
Continuous
 62
     7
370
    15
100
AcDbCircle
 10
21.9037502204
 20
2.1074718239
 30
0.0
 40
0.2677165354330713
100
AcDbArc
 50
90.0
 51
180.0
  0
LINE
  5
262
330
1F
100
AcDbEntity
  8
0
  6
Continuous
 62
     7
370
    15
100
AcDbLine
 10
21.9037502299
 20
2.3751883525
 30
0.0
 11
22.2108368358
 21
2.3751883525
 31
0.0
  0
LINE
  5
263
330
1F
100
AcDbEntity
  8
0
  6
Continuous
 62
     7
370
    15
100
AcDbLine
 10
22.2698919269
 20
2.4342434436
 30
0.0
 11
22.2698919269
 21
7.1864157328
 31
0.0
  0
ARC
  5
264
330
1F
100
AcDbEntity
  8
0
  6
Continuous
 62
     7
370
    15
100
AcDbCircle
 10
22.2226478582
 20
7.5287316664
 30
0.0
 40
0.2834645669291379
100
AcDbArc
 50
209.8378000838
 51
268.0238917143
  0
LINE
  5
265
330
1F
100
AcDbEntity
  8
0
  6
Continuous
 62
     7
370
    15
100
AcDbLine
 10
21.9279492171
 20
7.3941911592
 30
0.0
 11
21.8994585195
 21
7.3657006083
 31
0.0
  0
ARC
  5
266
330
1F
100
AcDbEntity
  8
0
  6
Continuous
 62
     7
370
    15
100
AcDbCircle
 10
21.8368210866
 20
7.4283379656
 30
0.0
 40
0.0885826771653539
100
AcDbArc
 50
135.0
 51
315.0
  0
LINE
  5
267
330
1F
100
AcDbEntity
  8
0
  6
Continuous
 62
     7
370
    15
100
AcDbLine
 10
21.77418368
 20
7.4909753745
 30
0.0
 11
21.8062637461
 21
7.5230554039
 31
0.0
  0
LINE
  5
268
330
1F
100
AcDbEntity
  8
0
  6
Continuous
 62
     7
370
    15
100
AcDbLine
 10
21.784343456
 20
7.5759756459
 30
0.0
 11
20.8171360326
 21
7.5759756459
 31
0.0
  0
LINE
  5
269
330
1F
100
AcDbEntity
  8
0
  6
Continuous
 62
     7
370
    15
100
AcDbLine
 10
20.7580809415
 20
7.5169207014
 30
0.0
 11
20.7580809415
 21
7.5129836269
 31
0.0
  0
ARC
  5
26A
330
1F
100
AcDbEntity
  8
0
  6
Continuous
 62
     7
370
    15
100
AcDbCircle
 10
20.4903643937
 20
7.5129836349
 30
0.0
 40
0.2677165354330704
100
AcDbArc
 50
270.0
 51
0.0
  0
DIMENSION
  5
26B
330
1F
100
AcDbEntity
  8
0
  6
Continuous
 62
     7
370
     0
100
AcDbDimension
  2
_D_8
 10
22.2698919527
 20
9.0570808069
 30
0.0
 11
21.1970573071
 21
9.0570808069
 31
0.0
 70
   160
  1
<>
 71
     2
 42
-1.0
  3
SLDDIMSTYLE0
100
AcDbAlignedDimension
 13
20.1242226614
 23
7.1862119813
 33
0.0
 14
22.2698919527
 24
7.1864156802
 34
0.0
 50
0.0
100
AcDbRotatedDimension
  0
DIMENSION
  5
27F
330
1F
100
AcDbEntity
  8
0
  6
Continuous
 62
     7
370
     0
100
AcDbDimension
  2
_D_9
 10
23.8750154776
 20
2.0444796979
 30
0.0
 11
23.8750154776
 21
4.8102277294
 31
0.0
 70
   160
  1
<>
 71
     2
 42
-1.0
  3
SLDDIMSTYLE0
100
AcDbAlignedDimension
 13
21.784343438
 23
7.5759757609
 33
0.0
 14
21.5769785669
 24
2.0444796979
 34
0.0
 50
90.0
100
AcDbRotatedDimension
  0
DIMENSION
  5
293
330
1F
100
AcDbEntity
  8
0
  6
Continuous
 62
     7
370
     0
100
AcDbDimension
  2
_D_10
 10
21.8368210866
 20
5.1597817809
 30
0.0
 11
21.1970573071
 21
5.1597817809
 31
0.0
 70
   160
  1
<>
 71
     2
 42
-1.0
  3
SLDDIMSTYLE2
100
AcDbAlignedDimension
 13
20.5572935275
 23
2.1921174932
 33
0.0
 14
21.8368210866
 24
7.4283379656
 34
0.0
100
AcDbRotatedDimension
  0
DIMENSION
  5
2A7
330
1F
100
AcDbEntity
  8
0
  6
Continuous
 62
     7
370
     0
100
AcDbDimension
  2
_D_11
 10
22.9240139449
 20
7.4283379656
 30
0.0
 11
22.9240139449
 21
4.8102277294
 31
0.0
 70
   160
  1
<>
 71
     2
 42
-1.0
  3
SLDDIMSTYLE0
100
AcDbAlignedDimension
 13
20.5572935275
 23
2.1921174932
 33
0.0
 14
21.8368210866
 24
7.4283379656
 34
0.0
 50
90.0
100
AcDbRotatedDimension
  0
DIMENSION
  5
2BB
330
1F
100
AcDbEntity
  8
0
  6
Continuous
 62
     7
370
     0
100
AcDbDimension
  2
_D_12
 10
19.4364162424
 20
7.5759757609
 30
0.0
 11
19.4364162424
 21
8.1655289884
 31
0.0
 70
   160
  1
<>
 71
     2
 42
-1.0
  3
SLDDIMSTYLE2
100
AcDbAlignedDimension
 13
20.1832777795
 23
7.2452670994
 33
0.0
 14
20.8171360472
 24
7.5759757609
 34
0.0
 50
90.0
100
AcDbRotatedDimension
  0
DIMENSION
  5
2D0
330
1F
100
AcDbEntity
  8
0
  6
Continuous
 62
     7
370
     0
100
AcDbDimension
  2
_D_13
 10
20.1242226614
 20
8.2764520454
 30
0.0
 11
21.5736602894
 21
8.2764520454
 31
0.0
 70
   160
  1
<>
 71
     2
 42
-1.0
  3
SLDDIMSTYLE0
100
AcDbAlignedDimension
 13
20.7580809291
 23
7.5169206428
 33
0.0
 14
20.1242226614
 24
7.1862119813
 34
0.0
 50
0.0
100
AcDbRotatedDimension
  0
DIMENSION
  5
2E4
330
1F
100
AcDbEntity
  8
0
  6
Continuous
 62
     7
370
     0
100
AcDbDimension
  2
_D_14
 10
22.2226478582
 20
7.5287316664
 30
0.0
 11
23.9937949407
 21
8.0687277961
 31
0.0
 70
   164
  1
<>
 71
     1
 42
-1.0
  3
SLDDIMSTYLE4
100
AcDbRadialDimension
 15
22.4833228046
 25
7.640090245
 35
0.0
 40
0.0
  0
DIMENSION
  5
2F5
330
1F
100
AcDbEntity
  8
0
  6
Continuous
 62
     7
370
     0
100
AcDbDimension
  2
_D_15
 10
20.1714667559
 20
2.0917237924
 30
0.0
 11
18.4967414434
 21
1.0578166037
 31
0.0
 70
   164
  1
<>
 71
     1
 42
-1.0
  3
SLDDIMSTYLE5
100
AcDbRadialDimension
 15
20.3874186124
 25
2.2753455677
 35
0.0
 40
0.0
  0
DIMENSION
  5
306
330
1F
100
AcDbEntity
  8
0
  6
Continuous
 62
     7
370
     0
100
AcDbDimension
  2
_D_16
 10
21.9037502204
 20
2.1074718239
 30
0.0
 11
23.7742863206
 21
1.0578166037
 31
0.0
 70
   164
  1
<>
 71
     1
 42
-1.0
  3
SLDDIMSTYLE5
100
AcDbRadialDimension
 15
21.6887824064
 25
2.2670368021
 35
0.0
 40
0.0
  0
DIMENSION
  5
316
330
1F
100
AcDbEntity
  8
0
  6
Continuous
 62
     7
370
     0
100
AcDbDimension
  2
_D_17
 10
22.2698919527
 20
3.2507827987
 30
0.0
 11
21.0118835736
 21
3.2507827987
 31
0.0
 70
   160
  1
<>
 71
     2
 42
-1.0
  3
SLDDIMSTYLE0
100
AcDbAlignedDimension
 13
21.636033685
 23
2.103534816
 33
0.0
 14
22.2698919527
 24
2.4342434774
 34
0.0
 50
0.0
100
AcDbRotatedDimension
  0
DIMENSION
  5
329
330
1F
100
AcDbEntity
  8
0
  6
Continuous
 62
     7
370
     0
100
AcDbDimension
  2
_D_18
 10
20.1242226614
 20
1.5236151988
 30
0.0
 11
21.4133636878
 21
1.5236151988
 31
0.0
 70
   160
  1
<>
 71
     2
 42
-1.0
  3
SLDDIMSTYLE2
100
AcDbAlignedDimension
 13
20.5572935275
 23
2.1921174932
 33
0.0
 14
20.1242226614
 24
2.4340397785
 34
0.0
 50
0.0
100
AcDbRotatedDimension
  0
DIMENSION
  5
33D
330
1F
100
AcDbEntity
  8
0
  6
Continuous
 62
     7
370
     0
100
AcDbDimension
  2
_D_19
 10
19.4145882704
 20
2.1921174932
 30
0.0
 11
19.4145882704
 21
2.6990003129
 31
0.0
 70
   160
  1
<>
 71
     2
 42
-1.0
  3
SLDDIMSTYLE2
100
AcDbAlignedDimension
 13
20.6097711761
 23
2.0444796979
 33
0.0
 14
20.5572935275
 24
2.1921174932
 34
0.0
 50
90.0
100
AcDbRotatedDimension
  0
DIMENSION
  5
352
330
1F
100
AcDbEntity
  8
0
  6
Continuous
 62
     7
370
     0
100
AcDbDimension
  2
_D_20
 10
21.8368210866
 20
7.4283379656
 30
0.0
 11
23.1695229206
 21
8.6817940128
 31
0.0
 70
   164
  1
<>
 71
     1
 42
-1.0
  3
SLDDIMSTYLE5
100
AcDbRadialDimension
 15
21.7871656153
 25
7.3549811332
 35
0.0
 40
0.0
  0
DIMENSION
  5
362
330
1F
100
AcDbEntity
  8
0
  6
Continuous
 62
     7
370
     0
100
AcDbDimension
  2
_D_21
 10
23.481490443
 20
2.3751883593
 30
0.0
 11
23.481490443
 21
3.0189673642
 31
0.0
 70
   160
  1
<>
 71
     2
 42
-1.0
  3
SLDDIMSTYLE2
100
AcDbAlignedDimension
 13
21.5769785669
 23
2.0444796979
 33
0.0
 14
22.2108368346
 24
2.3751883593
 34
0.0
 50
90.0
100
AcDbRotatedDimension
  0
INSERT
  5
382
330
1F
100
AcDbEntity
  8
0
  6
Continuous
 62
     7
370
     0
100
AcDbBlockReference
  2
SW_CENTERMARKSYMBOL_0
 10
21.8368210866
 20
7.4283379656
 30
0.0
  0
INSERT
  5
38E
330
1F
100
AcDbEntity
  8
0
  6
Continuous
 62
     7
370
     0
100
AcDbBlockReference
  2
SW_CENTERMARKSYMBOL_1
 10
20.5572935275
 20
2.1921174932
 30
0.0
  0
LINE
  5
38F
330
1F
100
AcDbEntity
  8
0
  6
Continuous
 62
     7
370
    15
100
AcDbLine
 10
24.1562190662
 20
11.7061922717
 30
0.0
 11
24.1562190662
 21
11.7423580306
 31
0.0
  0
LINE
  5
390
330
1F
100
AcDbEntity
  8
0
  6
Continuous
 62
     7
370
    15
100
AcDbLine
 10
24.0137461574
 20
11.845411086
 30
0.0
 11
24.0137461574
 21
11.8092453271
 31
0.0
  0
LINE
  5
391
330
1F
100
AcDbEntity
  8
0
  6
Continuous
 62
     7
370
    15
100
AcDbLine
 10
24.3169885193
 20
12.0051133045
 30
0.0
 11
24.3169885193
 21
12.0412790634
 31
0.0
  0
LINE
  5
392
330
1F
100
AcDbEntity
  8
0
  6
Continuous
 62
     7
370
    15
100
AcDbLine
 10
20.4680222643
 20
12.8717493713
 30
0.0
 11
20.4680222643
 21
12.8355836125
 31
0.0
  0
LINE
  5
393
330
1F
100
AcDbEntity
  8
0
  6
Continuous
 62
     7
370
    15
100
AcDbLine
 10
20.7712646067
 20
13.0314515786
 30
0.0
 11
20.7712646067
 21
13.0676173375
 31
0.0
  0
LINE
  5
394
330
1F
100
AcDbEntity
  8
0
  6
Continuous
 62
     7
370
    15
100
AcDbLine
 10
20.6287916979
 20
13.1706703929
 30
0.0
 11
20.6287916979
 21
13.134504634
 31
0.0
  0
ARC
  5
395
330
1F
100
AcDbEntity
  8
0
  6
Continuous
 62
     7
370
    15
100
AcDbCircle
 10
24.457575276
 20
12.6785478651
 30
0.0
 40
0.1020937245758193
100
AcDbArc
 50
3.6868247613
 51
62.1755358086
  0
LINE
  5
396
330
1F
100
AcDbEntity
  8
0
  6
Continuous
 62
     7
370
    15
100
AcDbLine
 10
24.5635988795
 20
12.4914114493
 30
0.0
 11
24.5594579828
 21
12.6851068314
 31
0.0
  0
LINE
  5
397
330
1F
100
AcDbEntity
  8
0
  6
Continuous
 62
     7
370
    15
100
AcDbLine
 10
24.5052159921
 20
12.7688452834
 30
0.0
 11
21.5821050315
 21
14.456321322
 31
0.0
  0
ARC
  5
398
330
1F
100
AcDbEntity
  8
0
  6
Continuous
 62
     7
370
    15
100
AcDbCircle
 10
20.323724968
 20
13.7151714036
 30
0.0
 40
0.1020254622621356
100
AcDbArc
 50
117.8027881498
 51
176.3348082378
  0
LINE
  5
399
330
1F
100
AcDbEntity
  8
0
  6
Continuous
 62
     7
370
    15
100
AcDbLine
 10
20.2219083403
 20
13.7216880098
 30
0.0
 11
20.2177674046
 21
13.5279926052
 31
0.0
  0
LINE
  5
39A
330
1F
100
AcDbEntity
  8
0
  6
Continuous
 62
     7
370
    15
100
AcDbLine
 10
21.4036555057
 20
14.4563212996
 30
0.0
 11
20.2761503309
 21
13.8054264169
 31
0.0
  0
ARC
  5
39B
330
1F
100
AcDbEntity
  8
0
  6
Continuous
 62
     7
370
    15
100
AcDbCircle
 10
21.4928801258
 20
14.2840944432
 30
0.0
 40
0.1939661200257987
100
AcDbArc
 50
62.6084338288
 51
117.3915229268
  0
LINE
  5
39C
330
1F
100
AcDbEntity
  8
0
  6
Continuous
 62
     7
370
    15
100
AcDbLine
 10
24.8678327528
 20
9.9705841431
 30
0.0
 11
24.8678327528
 21
10.0257006466
 31
0.0
  0
LINE
  5
39D
330
1F
100
AcDbEntity
  8
0
  6
Continuous
 62
     7
370
    15
100
AcDbLine
 10
19.9135335313
 20
11.4986029914
 30
0.0
 11
19.9135335313
 21
11.4434864879
 31
0.0
  0
ARC
  5
39E
330
1F
100
AcDbEntity
  8
0
  6
Continuous
 62
     7
370
    15
100
AcDbCircle
 10
23.2884859961
 20
9.7417965532
 30
0.0
 40
0.2000706891830394
100
AcDbArc
 50
242.5723083031
 51
297.4276916969
  0
LINE
  5
39F
330
1F
100
AcDbEntity
  8
0
  6
Continuous
 62
     7
370
    15
100
AcDbLine
 10
20.2911053711
 20
11.2413643666
 30
0.0
 11
23.1963329593
 21
9.5642121791
 31
0.0
  0
LINE
  5
3A0
330
1F
100
AcDbEntity
  8
0
  6
Continuous
 62
     7
370
    15
100
AcDbLine
 10
23.3806390329
 20
9.5642121791
 30
0.0
 11
24.490260913
 21
10.2047832556
 31
0.0
  0
LINE
  5
3A1
330
1F
100
AcDbEntity
  8
0
  6
Continuous
 62
     7
370
    15
100
AcDbLine
 10
24.142585892
 20
10.6869227027
 30
0.0
 11
24.142585892
 21
10.7230884166
 31
0.0
  0
LINE
  5
3A2
330
1F
100
AcDbEntity
  8
0
  6
Continuous
 62
     7
370
    15
100
AcDbLine
 10
24.0237524106
 20
10.8274060674
 30
0.0
 11
24.0201808891
 21
10.6603428112
 31
0.0
  0
LINE
  5
3A3
330
1F
100
AcDbEntity
  8
0
  6
Continuous
 62
     7
370
    15
100
AcDbLine
 10
24.5456400597
 20
10.2876164488
 30
0.0
 11
24.5635879124
 21
10.8813015974
 31
0.0
  0
LINE
  5
3A4
330
1F
100
AcDbEntity
  8
0
  6
Continuous
 62
     7
370
    15
100
AcDbLine
 10
24.3033551701
 20
10.985843814
 30
0.0
 11
24.3033551701
 21
11.022009528
 31
0.0
  0
ARC
  5
3A5
330
1F
100
AcDbEntity
  8
0
  6
Continuous
 62
     7
370
    15
100
AcDbCircle
 10
24.4416611503
 20
10.2970871822
 30
0.0
 40
0.1043163756736792
100
AcDbArc
 50
297.7709995611
 51
355.7718198704
  0
LINE
  5
3A6
330
1F
100
AcDbEntity
  8
0
  6
Continuous
 62
     7
370
    15
100
AcDbLine
 10
20.478011114
 20
11.8524797461
 30
0.0
 11
20.478011114
 21
11.8163140322
 31
0.0
  0
LINE
  5
3A7
330
1F
100
AcDbEntity
  8
0
  6
Continuous
 62
     7
370
    15
100
AcDbLine
 10
20.217778255
 20
11.9178827758
 30
0.0
 11
20.2357262634
 21
11.3241976272
 31
0.0
  0
LINE
  5
3A8
330
1F
100
AcDbEntity
  8
0
  6
Continuous
 62
     7
370
    15
100
AcDbLine
 10
20.7652032814
 20
11.6946044539
 30
0.0
 11
20.7576137958
 21
12.0496075481
 31
0.0
  0
LINE
  5
3A9
330
1F
100
AcDbEntity
  8
0
  6
Continuous
 62
     7
370
    15
100
AcDbLine
 10
20.6387803921
 20
12.1514008575
 30
0.0
 11
20.6387803921
 21
12.1152351435
 31
0.0
  0
ARC
  5
3AA
330
1F
100
AcDbEntity
  8
0
  6
Continuous
 62
     7
370
    15
100
AcDbCircle
 10
20.3397042625
 20
11.3336676196
 30
0.0
 40
0.104315335685545
100
AcDbArc
 50
184.2278142885
 51
242.2292646944
  0
LINE
  5
3AB
330
1F
100
AcDbEntity
  8
0
  6
Continuous
 62
     7
370
    15
100
AcDbLine
 10
24.2309134334
 20
12.0159672182
 30
0.0
 11
24.069100103
 21
11.9225543709
 31
0.0
  0
ARC
  5
3AC
330
1F
100
AcDbEntity
  8
0
  6
Continuous
 62
     7
370
    15
100
AcDbCircle
 10
24.2213067217
 20
12.0412790897
 30
0.0
 40
0.0270735986703819
100
AcDbArc
 50
290.7834484645
 51
69.2166395676
  0
LINE
  5
3AD
330
1F
100
AcDbEntity
  8
0
  6
Continuous
 62
     7
370
    15
100
AcDbLine
 10
24.0608035701
 20
12.1647932872
 30
0.0
 11
24.2309133946
 21
12.0665909758
 31
0.0
  0
LINE
  5
3AE
330
1F
100
AcDbEntity
  8
0
  6
Continuous
 62
     7
370
    15
100
AcDbLine
 10
20.714866706
 20
13.1959822829
 30
0.0
 11
20.7223849638
 21
13.2003224808
 31
0.0
  0
ARC
  5
3AF
330
1F
100
AcDbEntity
  8
0
  6
Continuous
 62
     7
370
    15
100
AcDbCircle
 10
20.72447338
 20
13.1706704192
 30
0.0
 40
0.0270735781093826
100
AcDbArc
 50
110.7833796841
 51
249.2165322838
  0
LWPOLYLINE
  5
3B0
330
1F
100
AcDbEntity
  8
0
  6
Continuous
 62
     7
370
    15
100
AcDbPolyline
 90
       10
 70
   128
 43
0.0
 10
20.7159106416
 20
12.9904740413
 10
20.7371796977
 20
13.0051189172
 10
20.753695605
 20
13.0216816667
 10
20.7649511937
 20
13.039654157
 10
20.7706012333
 20
13.0584847906
 10
20.7704724866
 20
13.0775956234
 10
20.7645687063
 20
13.0964002475
 10
20.7530710637
 20
13.1143216395
 10
20.7363325087
 20
13.1308097395
 10
20.7148666671
 20
13.1453585702
  0
LINE
  5
3B1
330
1F
100
AcDbEntity
  8
0
  6
Continuous
 62
     7
370
    15
100
AcDbLine
 10
20.5540973501
 20
12.8970612165
 30
0.0
 11
20.7159106416
 21
12.9904740413
 31
0.0
  0
ARC
  5
3B2
330
1F
100
AcDbEntity
  8
0
  6
Continuous
 62
     7
370
    15
100
AcDbCircle
 10
20.5637039843
 20
12.8717493527
 30
0.0
 40
0.0270735639784357
100
AcDbArc
 50
110.7833008889
 51
249.2166110789
  0
LINE
  5
3B3
330
1F
100
AcDbEntity
  8
0
  6
Continuous
 62
     7
370
    15
100
AcDbLine
 10
23.0679454425
 20
11.3952238675
 30
0.0
 11
20.5540973112
 21
12.8464375038
 31
0.0
  0
ARC
  5
3B4
330
1F
100
AcDbEntity
  8
0
  6
Continuous
 62
     7
370
    15
100
AcDbCircle
 10
23.1117916751
 20
11.4798464641
 30
0.0
 40
0.0953072713222921
100
AcDbArc
 50
242.6095831411
 51
297.3903875212
  0
ARC
  5
3B5
330
1F
100
AcDbEntity
  8
0
  6
Continuous
 62
     7
370
    15
100
AcDbCircle
 10
23.2903608442
 20
11.1397488616
 30
0.0
 40
0.2888213088733733
100
AcDbArc
 50
62.4527808896
 51
117.8046153953
  0
LINE
  5
3B6
330
1F
100
AcDbEntity
  8
0
  6
Continuous
 62
     7
370
    15
100
AcDbLine
 10
23.4249787439
 20
11.3952238226
 30
0.0
 11
23.4239347694
 21
11.3958264963
 31
0.0
  0
ARC
  5
3B7
330
1F
100
AcDbEntity
  8
0
  6
Continuous
 62
     7
370
    15
100
AcDbCircle
 10
23.4688248943
 20
11.479846663
 30
0.0
 40
0.0953074499644501
100
AcDbArc
 50
242.6096944553
 51
297.3903348824
  0
LINE
  5
3B8
330
1F
100
AcDbEntity
  8
0
  6
Continuous
 62
     7
370
    15
100
AcDbLine
 10
24.0701440581
 20
11.7170461406
 30
0.0
 11
23.512671088
 21
11.3952238451
 31
0.0
  0
ARC
  5
3B9
330
1F
100
AcDbEntity
  8
0
  6
Continuous
 62
     7
370
    15
100
AcDbCircle
 10
24.0605373916
 20
11.7423580043
 30
0.0
 40
0.0270735754290383
100
AcDbArc
 50
290.7833647383
 51
69.2165472295
  0
LWPOLYLINE
  5
3BA
330
1F
100
AcDbEntity
  8
0
  6
Continuous
 62
     7
370
    15
100
AcDbPolyline
 90
       10
 70
   128
 43
0.0
 10
24.069100103
 20
11.9225543709
 10
24.0478309692
 20
11.9079095399
 10
24.0313151785
 20
11.891346768
 10
24.0200595704
 20
11.8733742664
 10
24.0144093752
 20
11.8545437227
 10
24.014538297
 20
11.8354328113
 10
24.0204420577
 20
11.8166281759
 10
24.0319397004
 20
11.7987067839
 10
24.0486782749
 20
11.7822186951
 10
24.070144097
 20
11.7676698533
  0
LINE
  5
3BB
330
1F
100
AcDbEntity
  8
0
  6
Continuous
 62
     7
370
    15
100
AcDbLine
 10
24.1088255819
 20
12.1925158046
 30
0.0
 11
24.2789354064
 21
12.0943134932
 31
0.0
  0
ARC
  5
3BC
330
1F
100
AcDbEntity
  8
0
  6
Continuous
 62
     7
370
    15
100
AcDbCircle
 10
24.2588072067
 20
12.0412791083
 30
0.0
 40
0.0567255710150586
100
AcDbArc
 50
290.7833124651
 51
69.2166875349
  0
LINE
  5
3BD
330
1F
100
AcDbEntity
  8
0
  6
Continuous
 62
     7
370
    15
100
AcDbLine
 10
24.2789354064
 20
11.9882447233
 30
0.0
 11
24.117122076
 21
11.894831876
 31
0.0
  0
ARC
  5
3BE
330
1F
100
AcDbEntity
  8
0
  6
Continuous
 62
     7
370
    15
100
AcDbCircle
 10
24.1360422489
 20
11.8453279539
 30
0.0
 40
0.0529963323798878
100
AcDbArc
 50
110.9166278394
 51
250.0474174737
  0
LINE
  5
3BF
330
1F
100
AcDbEntity
  8
0
  6
Continuous
 62
     7
370
    15
100
AcDbLine
 10
24.1179576562
 20
11.7955127078
 30
0.0
 11
24.1181661089
 21
11.7953923706
 31
0.0
  0
ARC
  5
3C0
330
1F
100
AcDbEntity
  8
0
  6
Continuous
 62
     7
370
    15
100
AcDbCircle
 10
24.0980377115
 20
11.7423579857
 30
0.0
 40
0.0567256411773338
100
AcDbArc
 50
290.783499188
 51
69.216500812
  0
LINE
  5
3C1
330
1F
100
AcDbEntity
  8
0
  6
Continuous
 62
     7
370
    15
100
AcDbLine
 10
24.1181661089
 20
11.6893236008
 30
0.0
 11
23.5606931388
 21
11.3675013053
 31
0.0
  0
ARC
  5
3C2
330
1F
100
AcDbEntity
  8
0
  6
Continuous
 62
     7
370
    15
100
AcDbCircle
 10
23.4688249354
 20
11.5448066227
 30
0.0
 40
0.1996921189921826
100
AcDbArc
 50
242.6097164482
 51
297.3902835518
  0
LINE
  5
3C3
330
1F
100
AcDbEntity
  8
0
  6
Continuous
 62
     7
370
    15
100
AcDbLine
 10
23.376956732
 20
11.3675013053
 30
0.0
 11
23.3759127575
 21
11.368103979
 31
0.0
  0
ARC
  5
3C4
330
1F
100
AcDbEntity
  8
0
  6
Continuous
 62
     7
370
    15
100
AcDbCircle
 10
23.2902568005
 20
11.2026122836
 30
0.0
 40
0.1863449602451394
100
AcDbArc
 50
62.6346108942
 51
117.0409296111
  0
LINE
  5
3C5
330
1F
100
AcDbEntity
  8
0
  6
Continuous
 62
     7
370
    15
100
AcDbLine
 10
23.2055393726
 20
11.3685863828
 30
0.0
 11
23.2036598373
 21
11.3675013502
 31
0.0
  0
ARC
  5
3C6
330
1F
100
AcDbEntity
  8
0
  6
Continuous
 62
     7
370
    15
100
AcDbCircle
 10
23.111791634
 20
11.5448058795
 30
0.0
 40
0.1996914191700323
100
AcDbArc
 50
242.6096124096
 51
297.3903875904
  0
LINE
  5
3C7
330
1F
100
AcDbEntity
  8
0
  6
Continuous
 62
     7
370
    15
100
AcDbLine
 10
23.0199234306
 20
11.3675013502
 30
0.0
 11
20.5060752993
 21
12.8187149864
 31
0.0
  0
ARC
  5
3C8
330
1F
100
AcDbEntity
  8
0
  6
Continuous
 62
     7
370
    15
100
AcDbCircle
 10
20.5262035638
 20
12.8717493341
 30
0.0
 40
0.056725559224297
100
AcDbArc
 50
110.7833029783
 51
249.216612991
  0
LINE
  5
3C9
330
1F
100
AcDbEntity
  8
0
  6
Continuous
 62
     7
370
    15
100
AcDbLine
 10
20.5060753771
 20
12.9247837114
 30
0.0
 11
20.6678886686
 21
13.0181965362
 31
0.0
  0
ARC
  5
3CA
330
1F
100
AcDbEntity
  8
0
  6
Continuous
 62
     7
370
    15
100
AcDbCircle
 10
20.6489684452
 20
13.067700467
 30
0.0
 40
0.0529963585816126
100
AcDbArc
 50
290.9166754711
 51
70.0473472993
  0
LINE
  5
3CB
330
1F
100
AcDbEntity
  8
0
  6
Continuous
 62
     7
370
    15
100
AcDbLine
 10
20.6670531079
 20
13.1175157157
 30
0.0
 11
20.6668446552
 21
13.1176360529
 31
0.0
  0
ARC
  5
3CC
330
1F
100
AcDbEntity
  8
0
  6
Continuous
 62
     7
370
    15
100
AcDbCircle
 10
20.6869730678
 20
13.1706704378
 30
0.0
 40
0.0567256465639524
100
AcDbArc
 50
110.7835135233
 51
249.2164864767
  0
LINE
  5
3CD
330
1F
100
AcDbEntity
  8
0
  6
Continuous
 62
     7
370
    15
100
AcDbLine
 10
20.6668446552
 20
13.2237048227
 30
0.0
 11
20.674362913
 21
13.2280450206
 31
0.0
  0
LINE
  5
3CE
330
1F
100
AcDbEntity
  8
0
  6
Continuous
 62
     7
370
    15
100
AcDbLine
 10
23.5606931388
 20
11.3313355464
 30
0.0
 11
23.5606931388
 21
11.3675013053
 31
0.0
  0
LINE
  5
3CF
330
1F
100
AcDbEntity
  8
0
  6
Continuous
 62
     7
370
    15
100
AcDbLine
 10
23.376956732
 20
11.3313355464
 30
0.0
 11
23.376956732
 21
11.3675013053
 31
0.0
  0
ARC
  5
3D0
330
1F
100
AcDbEntity
  8
0
  6
Continuous
 62
     7
370
    15
100
AcDbCircle
 10
23.4688249354
 20
11.5086408639
 30
0.0
 40
0.1996921189921842
100
AcDbArc
 50
242.6097164482
 51
297.3902835518
  0
LINE
  5
3D1
330
1F
100
AcDbEntity
  8
0
  6
Continuous
 62
     7
370
    15
100
AcDbLine
 10
23.2036598373
 20
11.3313355913
 30
0.0
 11
23.2036598373
 21
11.3675013502
 31
0.0
  0
LINE
  5
3D2
330
1F
100
AcDbEntity
  8
0
  6
Continuous
 62
     7
370
    15
100
AcDbLine
 10
23.0199234306
 20
11.3313355913
 30
0.0
 11
23.0199234306
 21
11.3675013502
 31
0.0
  0
ARC
  5
3D3
330
1F
100
AcDbEntity
  8
0
  6
Continuous
 62
     7
370
    15
100
AcDbCircle
 10
23.111791634
 20
11.5086401206
 30
0.0
 40
0.1996914191700008
100
AcDbArc
 50
242.6096124096
 51
297.3903875904
  0
LINE
  5
3D4
330
1F
100
AcDbEntity
  8
0
  6
Continuous
 62
     7
370
    15
100
AcDbLine
 10
23.3759127575
 20
11.3319382201
 30
0.0
 11
23.3759127575
 21
11.368103979
 31
0.0
  0
LINE
  5
3D5
330
1F
100
AcDbEntity
  8
0
  6
Continuous
 62
     7
370
    15
100
AcDbLine
 10
23.2055393726
 20
11.332420624
 30
0.0
 11
23.2055393726
 21
11.3685863828
 31
0.0
  0
ARC
  5
3D6
330
1F
100
AcDbEntity
  8
0
  6
Continuous
 62
     7
370
    15
100
AcDbCircle
 10
23.2902568005
 20
11.1664465247
 30
0.0
 40
0.1863449602451378
100
AcDbArc
 50
62.6346108942
 51
117.0409296111
  0
LINE
  5
3D7
330
1F
100
AcDbEntity
  8
0
  6
Continuous
 62
     7
370
    15
100
AcDbLine
 10
23.2055393726
 20
11.332420624
 30
0.0
 11
23.2036598373
 21
11.3313355913
 31
0.0
  0
LINE
  5
3D8
330
1F
100
AcDbEntity
  8
0
  6
Continuous
 62
     7
370
    15
100
AcDbLine
 10
24.1181661089
 20
11.6531578419
 30
0.0
 11
24.1181661089
 21
11.6893236008
 31
0.0
  0
LINE
  5
3D9
330
1F
100
AcDbEntity
  8
0
  6
Continuous
 62
     7
370
    15
100
AcDbLine
 10
24.1181661089
 20
11.6531578419
 30
0.0
 11
23.5606931388
 21
11.3313355464
 31
0.0
  0
LINE
  5
3DA
330
1F
100
AcDbEntity
  8
0
  6
Continuous
 62
     7
370
    15
100
AcDbLine
 10
23.376956732
 20
11.3313355464
 30
0.0
 11
23.3759127575
 21
11.3319382201
 31
0.0
  0
LINE
  5
3DB
330
1F
100
AcDbEntity
  8
0
  6
Continuous
 62
     7
370
    15
100
AcDbLine
 10
20.5060752993
 20
12.7825492276
 30
0.0
 11
20.5060752993
 21
12.8187149864
 31
0.0
  0
LINE
  5
3DC
330
1F
100
AcDbEntity
  8
0
  6
Continuous
 62
     7
370
    15
100
AcDbLine
 10
23.0199234306
 20
11.3313355913
 30
0.0
 11
20.5060752993
 21
12.7825492276
 31
0.0
  0
ARC
  5
3DD
330
1F
100
AcDbEntity
  8
0
  6
Continuous
 62
     7
370
    15
100
AcDbCircle
 10
24.091198988
 20
11.7126761183
 30
0.0
 40
0.0653425652978479
100
AcDbArc
 50
294.3747929029
 51
354.305252542
  0
LINE
  5
3DE
330
1F
100
AcDbEntity
  8
0
  6
Continuous
 62
     7
370
    15
100
AcDbLine
 10
24.070144097
 20
11.7315040944
 30
0.0
 11
24.070144097
 21
11.7676698533
 31
0.0
  0
LWPOLYLINE
  5
3DF
330
1F
100
AcDbEntity
  8
0
  6
Continuous
 62
     7
370
    15
100
AcDbPolyline
 90
        3
 70
   128
 43
0.0
 10
24.070144097
 20
11.7315040944
 10
24.0778554652
 20
11.7260796834
 10
24.0798123147
 20
11.7242750974
  0
ARC
  5
3E0
330
1F
100
AcDbEntity
  8
0
  6
Continuous
 62
     7
370
    15
100
AcDbCircle
 10
24.1088452051
 20
11.8189078562
 30
0.0
 40
0.0955886674615898
100
AcDbArc
 50
185.8016220811
 51
246.1169375903
  0
LINE
  5
3E1
330
1F
100
AcDbEntity
  8
0
  6
Continuous
 62
     7
370
    15
100
AcDbLine
 10
24.117122076
 20
11.8586661172
 30
0.0
 11
24.117122076
 21
11.894831876
 31
0.0
  0
ARC
  5
3E2
330
1F
100
AcDbEntity
  8
0
  6
Continuous
 62
     7
370
    15
100
AcDbCircle
 10
24.1505429619
 20
11.7939029368
 30
0.0
 40
0.072878152763293
100
AcDbArc
 50
117.2958892962
 51
152.7002500737
  0
LINE
  5
3E3
330
1F
100
AcDbEntity
  8
0
  6
Continuous
 62
     7
370
    15
100
AcDbLine
 10
24.2789354064
 20
11.9520789645
 30
0.0
 11
24.2789354064
 21
11.9882447233
 31
0.0
  0
LINE
  5
3E4
330
1F
100
AcDbEntity
  8
0
  6
Continuous
 62
     7
370
    15
100
AcDbLine
 10
24.2789354064
 20
11.9520789645
 30
0.0
 11
24.117122076
 21
11.8586661172
 31
0.0
  0
ARC
  5
3E5
330
1F
100
AcDbEntity
  8
0
  6
Continuous
 62
     7
370
    15
100
AcDbCircle
 10
24.2519686378
 20
12.0115971898
 30
0.0
 40
0.0653423733587623
100
AcDbArc
 50
294.3745300013
 51
354.3052016466
  0
LINE
  5
3E6
330
1F
100
AcDbEntity
  8
0
  6
Continuous
 62
     7
370
    15
100
AcDbLine
 10
24.2309133946
 20
12.030425217
 30
0.0
 11
24.2309133946
 21
12.0665909758
 31
0.0
  0
LWPOLYLINE
  5
3E7
330
1F
100
AcDbEntity
  8
0
  6
Continuous
 62
     7
370
    15
100
AcDbPolyline
 90
        3
 70
   128
 43
0.0
 10
24.2309133946
 20
12.030425217
 10
24.2386248989
 20
12.0250007049
 10
24.2405816706
 20
12.0231961638
  0
LINE
  5
3E8
330
1F
100
AcDbEntity
  8
0
  6
Continuous
 62
     7
370
    15
100
AcDbLine
 10
24.029479745
 20
12.1467103877
 30
0.0
 11
24.2309133946
 21
12.030425217
 31
0.0
  0
ARC
  5
3E9
330
1F
100
AcDbEntity
  8
0
  6
Continuous
 62
     7
370
    15
100
AcDbCircle
 10
20.5330421465
 20
12.8420674084
 30
0.0
 40
0.0653423652558882
100
AcDbArc
 50
185.6947202926
 51
245.625391161
  0
LINE
  5
3EA
330
1F
100
AcDbEntity
  8
0
  6
Continuous
 62
     7
370
    15
100
AcDbLine
 10
20.5540973501
 20
12.8608954576
 30
0.0
 11
20.5540973501
 21
12.8970612165
 31
0.0
  0
LWPOLYLINE
  5
3EB
330
1F
100
AcDbEntity
  8
0
  6
Continuous
 62
     7
370
    15
100
AcDbPolyline
 90
        3
 70
   128
 43
0.0
 10
20.5444290741
 20
12.8536664493
 10
20.5463858847
 20
12.855470968
 10
20.5540973501
 20
12.8608954576
  0
LINE
  5
3EC
330
1F
100
AcDbEntity
  8
0
  6
Continuous
 62
     7
370
    15
100
AcDbLine
 10
20.7159106416
 20
12.9543082825
 30
0.0
 11
20.7159106416
 21
12.9904740413
 31
0.0
  0
LINE
  5
3ED
330
1F
100
AcDbEntity
  8
0
  6
Continuous
 62
     7
370
    15
100
AcDbLine
 10
20.5540973501
 20
12.8608954576
 30
0.0
 11
20.7159106416
 21
12.9543082825
 31
0.0
  0
ARC
  5
3EE
330
1F
100
AcDbEntity
  8
0
  6
Continuous
 62
     7
370
    15
100
AcDbCircle
 10
20.6791596795
 20
13.0391100293
 30
0.0
 40
0.0924227757782392
100
AcDbArc
 50
293.4307055724
 51
355.2468360006
  0
LINE
  5
3EF
330
1F
100
AcDbEntity
  8
0
  6
Continuous
 62
     7
370
    15
100
AcDbLine
 10
20.6670531079
 20
13.0813499568
 30
0.0
 11
20.6670531079
 21
13.1175157157
 31
0.0
  0
ARC
  5
3F0
330
1F
100
AcDbEntity
  8
0
  6
Continuous
 62
     7
370
    15
100
AcDbCircle
 10
20.6338465512
 20
13.0155898834
 30
0.0
 40
0.0736686002287461
100
AcDbArc
 50
27.4369861029
 51
63.2078075313
  0
LINE
  5
3F1
330
1F
100
AcDbEntity
  8
0
  6
Continuous
 62
     7
370
    15
100
AcDbLine
 10
20.6668446552
 20
13.081470294
 30
0.0
 11
20.6668446552
 21
13.1176360529
 31
0.0
  0
LINE
  5
3F2
330
1F
100
AcDbEntity
  8
0
  6
Continuous
 62
     7
370
    15
100
AcDbLine
 10
20.6670531079
 20
13.0813499568
 30
0.0
 11
20.6668446552
 21
13.081470294
 31
0.0
  0
ARC
  5
3F3
330
1F
100
AcDbEntity
  8
0
  6
Continuous
 62
     7
370
    15
100
AcDbCircle
 10
20.6938114317
 20
13.1409883343
 30
0.0
 40
0.0653422080450377
100
AcDbArc
 50
185.694649731
 51
245.625396733
  0
LINE
  5
3F4
330
1F
100
AcDbEntity
  8
0
  6
Continuous
 62
     7
370
    15
100
AcDbLine
 10
20.714866706
 20
13.1598165241
 30
0.0
 11
20.714866706
 21
13.1959822829
 31
0.0
  0
LWPOLYLINE
  5
3F5
330
1F
100
AcDbEntity
  8
0
  6
Continuous
 62
     7
370
    15
100
AcDbPolyline
 90
        3
 70
   128
 43
0.0
 10
20.7051985077
 20
13.1525874709
 10
20.70715526
 20
13.1543920457
 10
20.714866706
 20
13.1598165241
  0
LINE
  5
3F6
330
1F
100
AcDbEntity
  8
0
  6
Continuous
 62
     7
370
    15
100
AcDbLine
 10
20.714866706
 20
13.1598165241
 30
0.0
 11
20.7537087597
 21
13.1822395644
 31
0.0
  0
ARC
  5
3F7
330
1F
100
AcDbEntity
  8
0
  6
Continuous
 62
     7
370
    15
100
AcDbCircle
 10
23.2792656458
 20
11.9689809594
 30
0.0
 40
0.0924031719852005
100
AcDbArc
 50
127.1311121831
 51
176.5033742767
  0
LWPOLYLINE
  5
3F8
330
1F
100
AcDbEntity
  8
0
  6
Continuous
 62
     7
370
    15
100
AcDbPolyline
 90
        3
 70
   128
 43
0.0
 10
23.2694663622
 20
12.033079454
 10
23.2312489761
 20
12.0401709138
 10
23.2234873031
 20
12.042649967
  0
ARC
  5
3F9
330
1F
100
AcDbEntity
  8
0
  6
Continuous
 62
     7
370
    15
100
AcDbCircle
 10
23.2884863283
 20
12.2486486674
 30
0.0
 40
0.2164066655618492
100
AcDbArc
 50
264.9577722533
 51
275.0420924823
  0
LWPOLYLINE
  5
3FA
330
1F
100
AcDbEntity
  8
0
  6
Continuous
 62
     7
370
    15
100
AcDbPolyline
 90
        3
 70
   128
 43
0.0
 10
23.353484689
 20
12.0426500119
 10
23.3181613339
 20
12.0342952847
 10
23.3075057856
 20
12.0330794091
  0
ARC
  5
3FB
330
1F
100
AcDbEntity
  8
0
  6
Continuous
 62
     7
370
    15
100
AcDbCircle
 10
23.2977062847
 20
11.9689808187
 30
0.0
 40
0.0924033572080399
100
AcDbArc
 50
3.4966921829
 51
52.8689268118
  0
ARC
  5
3FC
330
1F
100
AcDbEntity
  8
0
  6
Continuous
 62
     7
370
    15
100
AcDbCircle
 10
23.2884860761
 20
12.1704098669
 30
0.0
 40
0.2205162685576127
100
AcDbArc
 50
242.6087663614
 51
297.3912209592
  0
LINE
  5
3FD
330
1F
100
AcDbEntity
  8
0
  6
Continuous
 62
     7
370
    15
100
AcDbLine
 10
23.3899376166
 20
11.974616584
 30
0.0
 11
23.3928659099
 21
11.779201009
 31
0.0
  0
ARC
  5
3FE
330
1F
100
AcDbEntity
  8
0
  6
Continuous
 62
     7
370
    15
100
AcDbCircle
 10
23.2884860757
 20
11.9771018547
 30
0.0
 40
0.2237406858812319
100
AcDbArc
 50
242.1912540384
 51
297.8087336379
  0
LINE
  5
3FF
330
1F
100
AcDbEntity
  8
0
  6
Continuous
 62
     7
370
    15
100
AcDbLine
 10
23.184106199
 20
11.7792010314
 30
0.0
 11
23.1870344923
 21
11.9746166064
 31
0.0
  0
ARC
  5
400
330
1F
100
AcDbEntity
  8
0
  6
Continuous
 62
     7
370
    15
100
AcDbCircle
 10
23.3220018223
 20
12.1436754495
 30
0.0
 40
0.1058173423234362
100
AcDbArc
 50
287.3087609446
 51
322.7304418791
  0
ARC
  5
401
330
1F
100
AcDbEntity
  8
0
  6
Continuous
 62
     7
370
    15
100
AcDbCircle
 10
23.2502799583
 20
12.136981726
 30
0.0
 40
0.0980628733403113
100
AcDbArc
 50
215.8165676572
 51
254.1440846241
  0
LWPOLYLINE
  5
402
330
1F
100
AcDbEntity
  8
0
  6
Continuous
 62
     7
370
    15
100
AcDbPolyline
 90
       19
 70
   128
 43
0.0
 10
23.1707613001
 20
12.0795960996
 10
23.1642190363
 20
12.0945892348
 10
23.1633372349
 20
12.1100422781
 10
23.1681557195
 20
12.1252515263
 10
23.1784553815
 20
12.139524008
 10
23.1937667747
 20
12.1522097455
 10
23.2133925936
 20
12.1627308957
 10
23.2364390198
 20
12.1706081082
 10
23.2618560507
 20
12.1754827288
 10
23.2884861128
 20
12.1771326501
 10
23.3151160971
 20
12.1754827737
 10
23.3405331668
 20
12.1706081306
 10
23.3635795541
 20
12.1627308508
 10
23.383205412
 20
12.152209723
 10
23.3985167274
 20
12.1395240305
 10
23.4088163894
 20
12.1252514589
 10
23.413634874
 20
12.1100423454
 10
23.4127530336
 20
12.0945891899
 10
23.4062107699
 20
12.0795960996
  0
LWPOLYLINE
  5
403
330
1F
100
AcDbEntity
  8
0
  6
Continuous
 62
     7
370
    15
100
AcDbPolyline
 90
       15
 70
   128
 43
0.0
 10
23.3496259034
 20
12.0414597464
 10
23.3526592398
 20
12.0465402423
 10
23.3548766551
 20
12.0579008117
 10
23.3511948598
 20
12.0691340391
 10
23.341941039
 20
12.0792417773
 10
23.3279376864
 20
12.0873257407
 10
23.3104288287
 20
12.0926677679
 10
23.2909701997
 20
12.0947932231
 10
23.2712908286
 20
12.0935132263
 10
23.2531394623
 20
12.0889414243
 10
23.2381286921
 20
12.0814841122
 10
23.2275924207
 20
12.0718039302
 10
23.2224667795
 20
12.0607609971
 10
23.2232072143
 20
12.0493364874
 10
23.2278512754
 20
12.0407916057
  0
LWPOLYLINE
  5
404
330
1F
100
AcDbEntity
  8
0
  6
Continuous
 62
     7
370
    15
100
AcDbPolyline
 90
       19
 70
   128
 43
0.0
 10
24.4176656758
 20
12.6634965881
 10
24.3916940675
 20
12.6597198197
 10
24.3649255167
 20
12.6592107441
 10
24.3385797047
 20
12.661992396
 10
24.3138562068
 20
12.6679382644
 10
24.2918815618
 20
12.6767772986
 10
24.2736564592
 20
12.6881070652
 10
24.2600111318
 20
12.7014114614
 10
24.2515670874
 20
12.7160844234
 10
24.248709108
 20
12.7314575861
 10
24.2515671652
 20
12.7468307937
 10
24.2600111707
 20
12.7615037333
 10
24.2736563814
 20
12.774808152
 10
24.2918815229
 20
12.7861378961
 10
24.3138562457
 20
12.7949769752
 10
24.338579588
 20
12.8009228435
 10
24.3649256334
 20
12.8037044955
 10
24.3916939898
 20
12.8031954423
 10
24.4176656758
 20
12.7994186739
  0
LINE
  5
405
330
1F
100
AcDbEntity
  8
0
  6
Continuous
 62
     7
370
    15
100
AcDbLine
 10
23.4062107699
 20
12.0795960996
 30
0.0
 11
24.4176656758
 21
12.6634965881
 31
0.0
  0
LINE
  5
406
330
1F
100
AcDbEntity
  8
0
  6
Continuous
 62
     7
370
    15
100
AcDbLine
 10
20.3637006083
 20
13.7000777441
 30
0.0
 11
23.1707613001
 21
12.0795960996
 31
0.0
  0
LWPOLYLINE
  5
407
330
1F
100
AcDbEntity
  8
0
  6
Continuous
 62
     7
370
    15
100
AcDbPolyline
 90
       19
 70
   128
 43
0.0
 10
20.3637006083
 20
13.8359998298
 10
20.3896722166
 20
13.8397765982
 10
20.4164407675
 20
13.8402856739
 10
20.4427865794
 20
13.8375040219
 10
20.4675100774
 20
13.8315581536
 10
20.4894847224
 20
13.8227191193
 10
20.507709825
 20
13.8113893528
 10
20.5213551524
 20
13.7980849566
 10
20.5297991967
 20
13.7834119945
 10
20.5326571762
 20
13.7680388318
 10
20.5297991189
 20
13.7526656242
 10
20.5213551135
 20
13.7379926846
 10
20.5077099027
 20
13.724688266
 10
20.4894847613
 20
13.7133585218
 10
20.4675100385
 20
13.7045194427
 10
20.4427866961
 20
13.6985735744
 10
20.4164406508
 20
13.6957919224
 10
20.3896722944
 20
13.6963009756
 10
20.3637006083
 20
13.7000777441
  0
LINE
  5
408
330
1F
100
AcDbEntity
  8
0
  6
Continuous
 62
     7
370
    15
100
AcDbLine
 10
21.3751555143
 20
14.4199003183
 30
0.0
 11
20.3637006083
 21
13.8359998298
 31
0.0
  0
LWPOLYLINE
  5
409
330
1F
100
AcDbEntity
  8
0
  6
Continuous
 62
     7
370
    15
100
AcDbPolyline
 90
       19
 70
   128
 43
0.0
 10
21.6106049841
 20
14.4199003183
 10
21.6171472478
 20
14.4049071831
 10
21.6180290493
 20
14.3894541399
 10
21.6132105647
 20
14.3742448916
 10
21.6029109026
 20
14.3599724099
 10
21.5875995095
 20
14.3472866724
 10
21.5679736905
 20
14.3367655222
 10
21.5449272643
 20
14.3288883097
 10
21.5195102335
 20
14.3240136891
 10
21.4928801714
 20
14.3223637678
 10
21.4662501871
 20
14.3240136442
 10
21.4408331174
 20
14.3288882873
 10
21.41778673
 20
14.3367655671
 10
21.3981608722
 20
14.3472866949
 10
21.3828495568
 20
14.3599723874
 10
21.3725498948
 20
14.374244959
 10
21.3677314102
 20
14.3894540725
 10
21.3686132505
 20
14.404907228
 10
21.3751555143
 20
14.4199003183
  0
LINE
  5
40A
330
1F
100
AcDbEntity
  8
0
  6
Continuous
 62
     7
370
    15
100
AcDbLine
 10
24.4176656758
 20
12.7994186739
 30
0.0
 11
21.6106049841
 21
14.4199003183
 31
0.0
  0
LINE
  5
40B
330
1F
100
AcDbEntity
  8
0
  6
Continuous
 62
     7
370
    15
100
AcDbLine
 10
20.2639235317
 20
13.662092645
 30
0.0
 11
23.1870344923
 21
11.9746166064
 31
0.0
  0
ARC
  5
40C
330
1F
100
AcDbEntity
  8
0
  6
Continuous
 62
     7
370
    15
100
AcDbCircle
 10
20.3561546852
 20
13.656456998
 30
0.0
 40
0.0924031719852041
100
AcDbArc
 50
127.1311121831
 51
176.5033742767
  0
ARC
  5
40D
330
1F
100
AcDbEntity
  8
0
  6
Continuous
 62
     7
370
    15
100
AcDbCircle
 10
20.3855885584
 20
13.8279543164
 30
0.0
 40
0.1297362714344521
100
AcDbArc
 50
228.9428840439
 51
260.2871113898
  0
ARC
  5
40E
330
1F
100
AcDbEntity
  8
0
  6
Continuous
 62
     7
370
    15
100
AcDbCircle
 10
24.3961993139
 20
12.7904843334
 30
0.0
 40
0.128789332439344
100
AcDbArc
 50
279.5947329188
 51
311.1753924832
  0
ARC
  5
40F
330
1F
100
AcDbEntity
  8
0
  6
Continuous
 62
     7
370
    15
100
AcDbCircle
 10
24.4252114595
 20
12.6198757014
 30
0.0
 40
0.0924033572080064
100
AcDbArc
 50
3.4966921829
 51
52.8689268118
  0
LINE
  5
410
330
1F
100
AcDbEntity
  8
0
  6
Continuous
 62
     7
370
    15
100
AcDbLine
 10
23.3899376166
 20
11.974616584
 30
0.0
 11
24.5174427913
 21
12.6255114667
 31
0.0
  0
LINE
  5
411
330
1F
100
AcDbEntity
  8
0
  6
Continuous
 62
     7
370
    15
100
AcDbLine
 10
20.2609952384
 20
13.4666770701
 30
0.0
 11
23.184106199
 21
11.7792010314
 31
0.0
  0
LINE
  5
412
330
1F
100
AcDbEntity
  8
0
  6
Continuous
 62
     7
370
    15
100
AcDbLine
 10
20.2639235317
 20
13.662092645
 30
0.0
 11
20.2609952384
 21
13.4666770701
 31
0.0
  0
LINE
  5
413
330
1F
100
AcDbEntity
  8
0
  6
Continuous
 62
     7
370
    15
100
AcDbLine
 10
24.5203710847
 20
12.4300958917
 30
0.0
 11
24.5174427913
 21
12.6255114667
 31
0.0
  0
LINE
  5
414
330
1F
100
AcDbEntity
  8
0
  6
Continuous
 62
     7
370
    15
100
AcDbLine
 10
23.3928659099
 20
11.779201009
 30
0.0
 11
24.5203710847
 21
12.4300958917
 31
0.0
  0
LWPOLYLINE
  5
415
330
1F
100
AcDbEntity
  8
0
  6
Continuous
 62
     7
370
    15
100
AcDbPolyline
 90
       15
 70
   128
 43
0.0
 10
24.4358784891
 20
12.6689813125
 10
24.4383743598
 20
12.6733102399
 10
24.440591814
 20
12.6846708317
 10
24.4369100187
 20
12.6959040591
 10
24.427656159
 20
12.7060117749
 10
24.4136528064
 20
12.7140957383
 10
24.3961439876
 20
12.7194377879
 10
24.3766853586
 20
12.7215632431
 10
24.3570059486
 20
12.7202832239
 10
24.3388545822
 20
12.7157114219
 10
24.3238438509
 20
12.7082541322
 10
24.3133075796
 20
12.6985739502
 10
24.3081818995
 20
12.6875309947
 10
24.3089223732
 20
12.6761065075
 10
24.3130975324
 20
12.6681805315
  0
LWPOLYLINE
  5
416
330
1F
100
AcDbEntity
  8
0
  6
Continuous
 62
     7
370
    15
100
AcDbPolyline
 90
        3
 70
   128
 43
0.0
 10
24.4809899416
 20
12.7685907881
 10
24.4961250834
 20
12.7485816085
 10
24.4982436003
 20
12.7424374544
  0
ARC
  5
417
330
1F
100
AcDbEntity
  8
0
  6
Continuous
 62
     7
370
    15
100
AcDbCircle
 10
24.4573076019
 20
12.7314574636
 30
0.0
 40
0.042382970207569
100
AcDbArc
 50
344.9857507472
 51
15.0146551342
  0
LWPOLYLINE
  5
418
330
1F
100
AcDbEntity
  8
0
  6
Continuous
 62
     7
370
    15
100
AcDbPolyline
 90
        3
 70
   128
 43
0.0
 10
24.4982436781
 20
12.7204777627
 10
24.4855729447
 20
12.6981922263
 10
24.4809898638
 20
12.6935448946
  0
ARC
  5
419
330
1F
100
AcDbEntity
  8
0
  6
Continuous
 62
     7
370
    15
100
AcDbCircle
 10
24.3805947544
 20
12.6428185907
 30
0.0
 40
0.1609280561523196
100
AcDbArc
 50
51.4020698399
 51
76.6819029514
  0
ARC
  5
41A
330
1F
100
AcDbEntity
  8
0
  6
Continuous
 62
     7
370
    15
100
AcDbCircle
 10
24.4930684926
 20
12.49479025
 30
0.0
 40
0.0702195950515636
100
AcDbArc
 50
292.8809272314
 51
357.2472246835
  0
ARC
  5
41B
330
1F
100
AcDbEntity
  8
0
  6
Continuous
 62
     7
370
    15
100
AcDbCircle
 10
21.5248418744
 20
14.351386043
 30
0.0
 40
0.1097702914985221
100
AcDbArc
 50
38.6205937378
 51
72.484377835
  0
LWPOLYLINE
  5
41C
330
1F
100
AcDbEntity
  8
0
  6
Continuous
 62
     7
370
    15
100
AcDbPolyline
 90
        3
 70
   128
 43
0.0
 10
20.3003763425
 20
13.7301260056
 10
20.2852412008
 20
13.7509004385
 10
20.2831226839
 20
13.7570589635
  0
ARC
  5
41D
330
1F
100
AcDbEntity
  8
0
  6
Continuous
 62
     7
370
    15
100
AcDbCircle
 10
20.3240586822
 20
13.7680389544
 30
0.0
 40
0.0423829702075704
100
AcDbArc
 50
164.9857507472
 51
195.0146551342
  0
LWPOLYLINE
  5
41E
330
1F
100
AcDbEntity
  8
0
  6
Continuous
 62
     7
370
    15
100
AcDbPolyline
 90
        3
 70
   128
 43
0.0
 10
20.2831226061
 20
13.7790186552
 10
20.2957933395
 20
13.8008579735
 10
20.3003764203
 20
13.8051718991
  0
ARC
  5
41F
330
1F
100
AcDbEntity
  8
0
  6
Continuous
 62
     7
370
    15
100
AcDbCircle
 10
20.4001520301
 20
13.6806727083
 30
0.0
 40
0.1595469235657592
100
AcDbArc
 50
103.2069136452
 51
128.7092346439
  0
LWPOLYLINE
  5
420
330
1F
100
AcDbEntity
  8
0
  6
Continuous
 62
     7
370
    15
100
AcDbPolyline
 90
       15
 70
   128
 43
0.0
 10
20.468268674
 20
13.7047616874
 10
20.4713383729
 20
13.7098913734
 10
20.4735556326
 20
13.7212520325
 10
20.4698738373
 20
13.7324852599
 10
20.4606201721
 20
13.7425929083
 10
20.4466168195
 20
13.7506768717
 10
20.4291078063
 20
13.7560189887
 10
20.4096491772
 20
13.7581444439
 10
20.3899699617
 20
13.7568643573
 10
20.3718184398
 20
13.7522926451
 10
20.3568076696
 20
13.744835333
 10
20.3462713982
 20
13.735155151
 10
20.3411459126
 20
13.7241121281
 10
20.3418863474
 20
13.7126876185
 10
20.3457452108
 20
13.7051968993
  0
ARC
  5
421
330
1F
100
AcDbEntity
  8
0
  6
Continuous
 62
     7
370
    15
100
AcDbCircle
 10
20.2884978401
 20
13.5313936408
 30
0.0
 40
0.0703180462476164
100
AcDbArc
 50
182.7788327833
 51
246.9759634151
  0
ARC
  5
422
330
1F
100
AcDbEntity
  8
0
  6
Continuous
 62
     7
370
    15
100
AcDbCircle
 10
21.4730836555
 20
14.3336507809
 30
0.0
 40
0.1304948410491917
100
AcDbArc
 50
110.2666473574
 51
138.6282358542
  0
LWPOLYLINE
  5
423
330
1F
100
AcDbEntity
  8
0
  6
Continuous
 62
     7
370
    15
100
AcDbPolyline
 90
        3
 70
   128
 43
0.0
 10
21.4278815951
 20
14.4560667818
 10
21.4632049503
 20
14.4651867622
 10
21.4738604986
 20
14.4664170089
  0
ARC
  5
424
330
1F
100
AcDbEntity
  8
0
  6
Continuous
 62
     7
370
    15
100
AcDbCircle
 10
21.4928799558
 20
14.2508477505
 30
0.0
 40
0.2164066655621138
100
AcDbArc
 50
84.9577722533
 51
95.0420924823
  0
LWPOLYLINE
  5
425
330
1F
100
AcDbEntity
  8
0
  6
Continuous
 62
     7
370
    15
100
AcDbPolyline
 90
        3
 70
   128
 43
0.0
 10
21.511899922
 20
14.466416964
 10
21.550117308
 20
14.4588792861
 10
21.557878981
 20
14.4560668267
  0
LWPOLYLINE
  5
426
330
1F
100
AcDbEntity
  8
0
  6
Continuous
 62
     7
370
    15
100
AcDbPolyline
 90
       15
 70
   128
 43
0.0
 10
21.553983794
 20
14.331531685
 10
21.5570534929
 20
14.336661371
 10
21.5592707915
 20
14.3480220525
 10
21.5555889962
 20
14.35925528
 10
21.5463352921
 20
14.3693629059
 10
21.5323319395
 20
14.3774468693
 10
21.5148229651
 20
14.3827890088
 10
21.4953643361
 20
14.384914464
 10
21.4756850817
 20
14.3836343549
 10
21.4575335598
 20
14.3790626427
 10
21.4425228285
 20
14.3716053531
 10
21.4319865571
 20
14.361925171
 10
21.4268610326
 20
14.3508821257
 10
21.4276015063
 20
14.3394576385
 10
21.4317766655
 20
14.3315316625
  0
LWPOLYLINE
  5
427
330
1F
100
AcDbEntity
  8
0
  6
Continuous
 62
     7
370
    15
100
AcDbPolyline
 90
       23
 70
   128
 43
0.0
 10
24.6127662533
 20
9.9768692168
 10
24.6251114349
 20
9.9863893908
 10
24.6323103635
 20
9.9975318041
 10
24.6337799159
 20
10.0093937034
 10
24.6294010487
 20
10.0210140752
 10
24.6195284813
 20
10.0314516181
 10
24.6049621508
 20
10.0398605816
 10
24.5868818373
 20
10.0455598935
 10
24.5667525818
 20
10.0480877598
 10
24.5462049431
 20
10.0472394052
 10
24.5269036258
 20
10.0430835522
 10
24.5104124139
 20
10.0359568305
 10
24.4980672711
 20
10.026436679
 10
24.4908683426
 20
10.0152942657
 10
24.4893987901
 20
10.0034323663
 10
24.4937776574
 20
9.9918119945
 10
24.5036502248
 20
9.9813744516
 10
24.5182165552
 20
9.9729654881
 10
24.5362968687
 20
9.9672661762
 10
24.5564261243
 20
9.96473831
 10
24.5769737629
 20
9.9655866645
 10
24.5962750802
 20
9.9697425175
 10
24.6127662533
 20
9.9768692168
  0
LWPOLYLINE
  5
428
330
1F
100
AcDbEntity
  8
0
  6
Continuous
 62
     7
370
    15
100
AcDbPolyline
 90
       23
 70
   128
 43
0.0
 10
23.7509798984
 20
9.4793705437
 10
23.7344886865
 20
9.472243822
 10
23.7151873692
 20
9.468087969
 10
23.6946397305
 20
9.4672396144
 10
23.674510475
 20
9.4697674807
 10
23.6564301615
 20
9.4754667925
 10
23.641863831
 20
9.4838757561
 10
23.6319912636
 20
9.4943132989
 10
23.6276123964
 20
9.5059336708
 10
23.6290819488
 20
9.5177955701
 10
23.6362808774
 20
9.5289379834
 10
23.648626059
 20
9.5384581574
 10
23.6651172321
 20
9.5455848566
 10
23.6844185494
 20
9.5497407096
 10
23.704966188
 20
9.5505890642
 10
23.7250954436
 20
9.5480611979
 10
23.7431757571
 20
9.5423618861
 10
23.7577420875
 20
9.5339529225
 10
23.7676146549
 20
9.5235153797
 10
23.7719935222
 20
9.5118950078
 10
23.7705239697
 20
9.5000331085
 10
23.7633250412
 20
9.4888906952
 10
23.7509798984
 20
9.4793705437
  0
LINE
  5
429
330
1F
100
AcDbEntity
  8
0
  6
Continuous
 62
     7
370
    15
100
AcDbLine
 10
24.8267544317
 20
10.0829512776
 30
0.0
 11
24.5348144436
 21
10.2514846454
 31
0.0
  0
ARC
  5
42A
330
1F
100
AcDbEntity
  8
0
  6
Continuous
 62
     7
370
    15
100
AcDbCircle
 10
24.8050259256
 20
10.0257006838
 30
0.0
 40
0.0612352714323866
100
AcDbArc
 50
290.7833430256
 51
69.2165791322
  0
LINE
  5
42B
330
1F
100
AcDbEntity
  8
0
  6
Continuous
 62
     7
370
    15
100
AcDbLine
 10
23.7655638851
 20
9.3558378427
 30
0.0
 11
24.8267543539
 21
9.9684500605
 31
0.0
  0
ARC
  5
42C
330
1F
100
AcDbEntity
  8
0
  6
Continuous
 62
     7
370
    15
100
AcDbCircle
 10
23.6663921335
 20
9.5472383296
 30
0.0
 40
0.2155671188520575
100
AcDbArc
 50
242.6096624801
 51
297.3903634617
  0
LINE
  5
42D
330
1F
100
AcDbEntity
  8
0
  6
Continuous
 62
     7
370
    15
100
AcDbLine
 10
23.5672204686
 20
9.3558377977
 30
0.0
 11
23.2106691751
 21
9.5616704782
 31
0.0
  0
LINE
  5
42E
330
1F
100
AcDbEntity
  8
0
  6
Continuous
 62
     7
370
    15
100
AcDbLine
 10
20.2651175066
 20
11.2621012617
 30
0.0
 11
19.9546118525
 21
11.4413523604
 31
0.0
  0
ARC
  5
42F
330
1F
100
AcDbEntity
  8
0
  6
Continuous
 62
     7
370
    15
100
AcDbCircle
 10
19.9763403586
 20
11.4986029542
 30
0.0
 40
0.0612352714323852
100
AcDbArc
 50
110.7833430256
 51
249.2165791322
  0
LINE
  5
430
330
1F
100
AcDbEntity
  8
0
  6
Continuous
 62
     7
370
    15
100
AcDbLine
 10
19.9546119303
 20
11.5558535775
 30
0.0
 11
20.2240212181
 21
11.7113802489
 31
0.0
  0
LWPOLYLINE
  5
431
330
1F
100
AcDbEntity
  8
0
  6
Continuous
 62
     7
370
    15
100
AcDbPolyline
 90
       10
 70
   128
 43
0.0
 10
20.1686000309
 20
11.5474344212
 10
20.1562548492
 20
11.5379142472
 10
20.1490559207
 20
11.5267718339
 10
20.1475863682
 20
11.5149099346
 10
20.1519652355
 20
11.5032895627
 10
20.1618378029
 20
11.4928520199
 10
20.1764041333
 20
11.4844430563
 10
20.1944844469
 20
11.4787437445
 10
20.2146137024
 20
11.4762158782
 10
20.2311181759
 20
11.4766255634
  0
ARC
  5
432
330
1F
100
AcDbEntity
  8
0
  6
Continuous
 62
     7
370
    15
100
AcDbCircle
 10
20.2192505265
 20
11.4495041248
 30
0.0
 40
0.1102534156565373
100
AcDbArc
 50
85.1266093953
 51
117.3484421294
  0
LINE
  5
433
330
1F
100
AcDbEntity
  8
0
  6
Continuous
 62
     7
370
    15
100
AcDbLine
 10
23.5672204686
 20
9.3558377977
 30
0.0
 11
23.5672204686
 21
9.3007212943
 31
0.0
  0
LINE
  5
434
330
1F
100
AcDbEntity
  8
0
  6
Continuous
 62
     7
370
    15
100
AcDbLine
 10
23.7655638851
 20
9.3007213392
 30
0.0
 11
23.7655638851
 21
9.3558378427
 31
0.0
  0
ARC
  5
435
330
1F
100
AcDbEntity
  8
0
  6
Continuous
 62
     7
370
    15
100
AcDbCircle
 10
23.6663921335
 20
9.4921218262
 30
0.0
 40
0.2155671188520608
100
AcDbArc
 50
242.6096624801
 51
297.3903634617
  0
LINE
  5
436
330
1F
100
AcDbEntity
  8
0
  6
Continuous
 62
     7
370
    15
100
AcDbLine
 10
24.8267543539
 20
9.913333557
 30
0.0
 11
24.8267543539
 21
9.9684500605
 31
0.0
  0
LINE
  5
437
330
1F
100
AcDbEntity
  8
0
  6
Continuous
 62
     7
370
    15
100
AcDbLine
 10
23.7655638851
 20
9.3007213392
 30
0.0
 11
24.8267543539
 21
9.913333557
 31
0.0
  0
LINE
  5
438
330
1F
100
AcDbEntity
  8
0
  6
Continuous
 62
     7
370
    15
100
AcDbLine
 10
19.9546118525
 20
11.4413523604
 30
0.0
 11
19.9546118525
 21
11.3862358569
 31
0.0
  0
LINE
  5
439
330
1F
100
AcDbEntity
  8
0
  6
Continuous
 62
     7
370
    15
100
AcDbLine
 10
23.5672204686
 20
9.3007212943
 30
0.0
 11
19.9546118525
 21
11.3862358569
 31
0.0
  0
ARC
  5
43A
330
1F
100
AcDbEntity
  8
0
  6
Continuous
 62
     7
370
    15
100
AcDbCircle
 10
23.699802978
 20
9.3889544157
 30
0.0
 40
0.1072256737748076
100
AcDbArc
 50
59.5136396503
 51
120.4864076425
  0
ARC
  5
43B
330
1F
100
AcDbEntity
  8
0
  6
Continuous
 62
     7
370
    15
100
AcDbCircle
 10
24.5615893714
 20
9.8872128992
 30
0.0
 40
0.1065716237429508
100
AcDbArc
 50
59.3064022871
 51
120.6936450058
  0
ARC
  5
43C
330
1F
100
AcDbEntity
  8
0
  6
Continuous
 62
     7
370
    15
100
AcDbCircle
 10
24.797643692
 20
9.9775835824
 30
0.0
 40
0.0705371987143525
100
AcDbArc
 50
294.3745220663
 51
354.3051407832
  0
ARC
  5
43D
330
1F
100
AcDbEntity
  8
0
  6
Continuous
 62
     7
370
    15
100
AcDbCircle
 10
19.9837231173
 20
11.4504862142
 30
0.0
 40
0.070537749774897
100
AcDbArc
 50
185.695048766
 51
245.6251430409
  0
LINE
  5
43E
330
1F
100
AcDbEntity
  8
0
  6
Continuous
 62
     7
370
    15
100
AcDbLine
 10
20.1686000309
 20
11.4923179177
 30
0.0
 11
20.1653777259
 21
11.4903323545
 31
0.0
  0
ARC
  5
43F
330
1F
100
AcDbEntity
  8
0
  6
Continuous
 62
     7
370
    15
100
AcDbCircle
 10
20.2193519181
 20
11.3940914264
 30
0.0
 40
0.1105630935338263
100
AcDbArc
 50
84.3238988951
 51
117.3245972536
  0
ARC
  5
440
330
1F
100
AcDbEntity
  8
0
  6
Continuous
 62
     7
370
    15
100
AcDbCircle
 10
23.2884860766
 20
9.7839681288
 30
0.0
 40
0.2199067874440062
100
AcDbArc
 50
241.6631041575
 51
298.3368711951
  0
LINE
  5
441
330
1F
100
AcDbEntity
  8
0
  6
Continuous
 62
     7
370
    15
100
AcDbLine
 10
23.184106199
 20
9.5904123583
 30
0.0
 11
23.184106199
 21
10.1716362657
 31
0.0
  0
ELLIPSE
  5
442
330
1F
100
AcDbEntity
  8
0
  6
Continuous
 62
     7
370
    15
100
AcDbEllipse
 10
23.2884860434
 20
10.2319301625
 30
0.0
 11
0.147637795275589
 21
0.0
 31
0.0
210
0.0
220
0.0
230
1.0
 40
0.5774635729
 41
3.927143110234826
 42
5.497634850534603
  0
LINE
  5
443
330
1F
100
AcDbEntity
  8
0
  6
Continuous
 62
     7
370
    15
100
AcDbLine
 10
23.3928659099
 20
10.1716362433
 30
0.0
 11
23.392865871
 21
9.5904123134
 31
0.0
  0
LWPOLYLINE
  5
444
330
1F
100
AcDbEntity
  8
0
  6
Continuous
 62
     7
370
    15
100
AcDbPolyline
 90
       25
 70
   128
 43
0.0
 10
24.0749565536
 20
10.8017016494
 10
24.0789101346
 20
10.8116972563
 10
24.0892548318
 20
10.8255797648
 10
24.1045271789
 20
10.8378539312
 10
24.1240131091
 20
10.8479458863
 10
24.1468014973
 20
10.855383711
 10
24.1718268238
 20
10.85981955
 10
24.1979188369
 20
10.8610460686
 10
24.2238576994
 20
10.8590058372
 10
24.2484303025
 20
10.8537943848
 10
24.2704877452
 20
10.8456553043
 10
24.2889986536
 20
10.8349691844
 10
24.3030976378
 20
10.8222356039
 10
24.3121251162
 20
10.8080501421
 10
24.3156591279
 20
10.7930760453
 10
24.3135346608
 20
10.778013357
 10
24.3058505742
 20
10.7635666333
 10
24.2929666435
 20
10.750411087
 10
24.2754849702
 20
10.739162099
 10
24.2542231867
 20
10.7303455606
 10
24.230175371
 20
10.7243736941
 10
24.2044659814
 20
10.721525823
 10
24.1782970431
 20
10.7219351265
 10
24.1528924377
 20
10.7255823417
 10
24.142256529
 20
10.7281766853
  0
LWPOLYLINE
  5
445
330
1F
100
AcDbEntity
  8
0
  6
Continuous
 62
     7
370
    15
100
AcDbPolyline
 90
       19
 70
   128
 43
0.0
 10
20.5011212816
 20
11.9615559171
 10
20.4847201788
 20
11.9733348152
 10
20.4730888309
 20
11.9868736444
 10
20.4667710038
 20
12.0015394221
 10
20.4660619924
 20
12.0166464286
 10
20.4709952038
 20
12.0314881546
 10
20.4813398621
 20
12.0453706406
 10
20.4966122481
 20
12.0576448294
 10
20.5160981393
 20
12.0677367621
 10
20.5388866831
 20
12.075174497
 10
20.5639118541
 20
12.0796104258
 10
20.5900040422
 20
12.0808368658
 10
20.6159427492
 20
12.0787967243
 10
20.6405153328
 20
12.0735852606
 10
20.6625729311
 20
12.0654460903
 10
20.6810838394
 20
12.0547599704
 10
20.695182668
 20
12.0420264798
 10
20.704210166
 20
12.0278410292
 10
20.7059461567
 20
12.0231210733
  0
ARC
  5
446
330
1F
100
AcDbEntity
  8
0
  6
Continuous
 62
     7
370
    15
100
AcDbCircle
 10
20.5832260792
 20
12.1163149175
 30
0.0
 40
0.1751900282864979
100
AcDbArc
 50
242.0525621966
 51
269.8098123854
  0
LWPOLYLINE
  5
447
330
1F
100
AcDbEntity
  8
0
  6
Continuous
 62
     7
370
    15
100
AcDbPolyline
 90
       19
 70
   128
 43
0.0
 10
20.3716706173
 20
11.898878933
 10
20.361671306
 20
11.9071228596
 10
20.3571592779
 20
11.9168438799
 10
20.3586787268
 20
11.9268695373
 10
20.3660462453
 20
11.935990623
 10
20.3783733818
 20
11.9431069274
 10
20.3941732776
 20
11.9473601054
 10
20.4115400685
 20
11.9482372421
 10
20.4283791942
 20
11.9456325037
 10
20.44265968
 20
11.9398600466
 10
20.4526589524
 20
11.9316160976
 10
20.4571709805
 20
11.9218950773
 10
20.4556515705
 20
11.9118694423
 10
20.4482838964
 20
11.9027484464
 10
20.4359567599
 20
11.895632142
 10
20.4201570197
 20
11.8913788743
 10
20.4027901899
 20
11.8905017151
 10
20.3859510642
 20
11.8931064535
 10
20.3716706173
 20
11.898878933
  0
LWPOLYLINE
  5
448
330
1F
100
AcDbEntity
  8
0
  6
Continuous
 62
     7
370
    15
100
AcDbPolyline
 90
       19
 70
   128
 43
0.0
 10
23.2529914842
 20
10.235527802
 10
23.2429921729
 20
10.2437717285
 10
23.2384801448
 20
10.2534927488
 10
23.2399995937
 20
10.2635184063
 10
23.2473672678
 20
10.2726394022
 10
23.2596944043
 20
10.2797557066
 10
23.2754941445
 20
10.2840089743
 10
23.2928609354
 20
10.284886111
 10
23.3097000611
 20
10.2822813727
 10
23.3239805469
 20
10.2765089156
 10
23.3339798193
 20
10.2682649666
 10
23.3384918474
 20
10.2585439463
 10
23.3369724374
 20
10.2485183113
 10
23.3296049189
 20
10.2393972256
 10
23.3172777824
 20
10.2322809212
 10
23.3014778866
 20
10.2280277432
 10
23.2841110568
 20
10.2271505841
 10
23.2672719311
 20
10.2297553225
 10
23.2529914842
 20
10.235527802
  0
LWPOLYLINE
  5
449
330
1F
100
AcDbEntity
  8
0
  6
Continuous
 62
     7
370
    15
100
AcDbPolyline
 90
       19
 70
   128
 43
0.0
 10
24.3387066042
 20
10.8622977996
 10
24.3287073318
 20
10.8705417486
 10
24.3241953037
 20
10.8802627689
 10
24.3257147137
 20
10.8902884039
 10
24.3330823878
 20
10.8994093998
 10
24.3454095243
 20
10.9065257042
 10
24.3612092645
 20
10.9107789719
 10
24.3785760943
 20
10.9116561311
 10
24.39541522
 20
10.9090513927
 10
24.4096956669
 20
10.9032789132
 10
24.4196949782
 20
10.8950349866
 10
24.4242070062
 20
10.8853139663
 10
24.4226875574
 20
10.8752883089
 10
24.4153200388
 20
10.8661672232
 10
24.4029929023
 20
10.8590509188
 10
24.3871930066
 20
10.8547977408
 10
24.3698262156
 20
10.8539206041
 10
24.35298709
 20
10.8565253425
 10
24.3387066042
 20
10.8622977996
  0
LWPOLYLINE
  5
44A
330
1F
100
AcDbEntity
  8
0
  6
Continuous
 62
     7
370
    15
100
AcDbPolyline
 90
       19
 70
   128
 43
0.0
 10
21.4573857373
 20
12.5256489306
 10
21.4473864649
 20
12.5338928796
 10
21.4428744368
 20
12.5436138999
 10
21.4443938468
 20
12.5536395349
 10
21.4517613653
 20
12.5627606206
 10
21.4640885018
 20
12.569876925
 10
21.4798883976
 20
12.574130103
 10
21.4972552274
 20
12.5750072621
 10
21.5140943531
 20
12.5724025237
 10
21.5283748
 20
12.5666300442
 10
21.5383741113
 20
12.5583861177
 10
21.5428861393
 20
12.5486650974
 10
21.5413666905
 20
12.5386394399
 10
21.5339990164
 20
12.529518444
 10
21.5216718799
 20
12.5224021396
 10
21.5058721397
 20
12.5181488719
 10
21.4885053487
 20
12.5172717352
 10
21.4716662231
 20
12.5198764735
 10
21.4573857373
 20
12.5256489306
  0
ELLIPSE
  5
44B
330
1F
100
AcDbEntity
  8
0
  6
Continuous
 62
     7
370
    15
100
AcDbEllipse
 10
24.4159276496
 20
10.8827883478
 30
0.0
 11
0.1476827706039963
 21
0.0
 31
0.0
210
0.0
220
0.0
230
1.0
 40
0.5771119048
 41
5.497939437029718
 42
7.068431177329471
  0
LINE
  5
44C
330
1F
100
AcDbEntity
  8
0
  6
Continuous
 62
     7
370
    15
100
AcDbLine
 10
24.5203710847
 20
10.822531126
 30
0.0
 11
23.3928659099
 21
10.1716362433
 31
0.0
  0
LINE
  5
44D
330
1F
100
AcDbEntity
  8
0
  6
Continuous
 62
     7
370
    15
100
AcDbLine
 10
23.184106199
 20
10.1716362657
 30
0.0
 11
20.2609952384
 21
11.8591123043
 31
0.0
  0
ELLIPSE
  5
44E
330
1F
100
AcDbEntity
  8
0
  6
Continuous
 62
     7
370
    15
100
AcDbEllipse
 10
20.3654386346
 20
11.9193695134
 30
0.0
 11
0.1476827706039927
 21
0.0
 31
0.0
210
0.0
220
0.0
230
1.0
 40
0.5771119048
 41
2.35634678343992
 42
3.926838523739697
  0
LINE
  5
44F
330
1F
100
AcDbEntity
  8
0
  6
Continuous
 62
     7
370
    15
100
AcDbLine
 10
20.2609951995
 20
11.9796267202
 30
0.0
 11
21.0789619055
 21
12.4518288485
 31
0.0
  0
LINE
  5
450
330
1F
100
AcDbEntity
  8
0
  6
Continuous
 62
     7
370
    15
100
AcDbLine
 10
21.158307723
 20
12.497634214
 30
0.0
 11
21.3885003743
 21
12.6305216029
 31
0.0
  0
ELLIPSE
  5
451
330
1F
100
AcDbEntity
  8
0
  6
Continuous
 62
     7
370
    15
100
AcDbEllipse
 10
21.4928802408
 20
12.5702276988
 30
0.0
 11
0.1476377952755925
 21
0.0
 31
0.0
210
0.0
220
0.0
230
1.0
 40
0.5774635729
 41
0.7855504566450113
 42
2.356042196944765
  0
LINE
  5
452
330
1F
100
AcDbEntity
  8
0
  6
Continuous
 62
     7
370
    15
100
AcDbLine
 10
21.5972600852
 20
12.6305215805
 30
0.0
 11
23.6248807719
 21
11.4600010733
 31
0.0
  0
LINE
  5
453
330
1F
100
AcDbEntity
  8
0
  6
Continuous
 62
     7
370
    15
100
AcDbLine
 10
23.70422657
 20
11.414195719
 30
0.0
 11
24.5203710458
 21
10.9430455419
 31
0.0
  0
ARC
  5
454
330
1F
100
AcDbEntity
  8
0
  6
Continuous
 62
     7
370
    15
100
AcDbCircle
 10
20.697889784
 20
12.1211298024
 30
0.0
 40
0.0594025859099997
100
AcDbArc
 50
185.694968118
 51
245.625155103
  0
LINE
  5
455
330
1F
100
AcDbEntity
  8
0
  6
Continuous
 62
     7
370
    15
100
AcDbLine
 10
20.6744180402
 20
12.0664193957
 30
0.0
 11
20.6733740657
 21
12.0670220694
 31
0.0
  0
ARC
  5
456
330
1F
100
AcDbEntity
  8
0
  6
Continuous
 62
     7
370
    15
100
AcDbCircle
 10
20.6383312794
 20
11.9961281767
 30
0.0
 40
0.0790133518698778
100
AcDbArc
 50
25.5950080213
 51
62.8245203255
  0
ARC
  5
457
330
1F
100
AcDbEntity
  8
0
  6
Continuous
 62
     7
370
    15
100
AcDbCircle
 10
20.537120201
 20
11.8222084497
 30
0.0
 40
0.0594022585219764
100
AcDbArc
 50
185.6947657193
 51
245.6253143546
  0
LINE
  5
458
330
1F
100
AcDbEntity
  8
0
  6
Continuous
 62
     7
370
    15
100
AcDbLine
 10
23.0264528216
 20
10.3168873555
 30
0.0
 11
20.5126047681
 21
11.7681009468
 31
0.0
  0
ARC
  5
459
330
1F
100
AcDbEntity
  8
0
  6
Continuous
 62
     7
370
    15
100
AcDbCircle
 10
23.1099693843
 20
10.4780738871
 30
0.0
 40
0.1815381893881105
100
AcDbArc
 50
242.6096949693
 51
297.3903050307
  0
LINE
  5
45A
330
1F
100
AcDbEntity
  8
0
  6
Continuous
 62
     7
370
    15
100
AcDbLine
 10
23.1945299215
 20
10.3174900292
 30
0.0
 11
23.1934859469
 21
10.3168873555
 31
0.0
  0
ARC
  5
45B
330
1F
100
AcDbEntity
  8
0
  6
Continuous
 62
     7
370
    15
100
AcDbCircle
 10
23.2884860328
 20
10.1361552714
 30
0.0
 40
0.204230372911834
100
AcDbArc
 50
62.6096750197
 51
117.3903112894
  0
LINE
  5
45C
330
1F
100
AcDbEntity
  8
0
  6
Continuous
 62
     7
370
    15
100
AcDbLine
 10
23.3834861619
 20
10.316887333
 30
0.0
 11
23.3824421874
 21
10.3174900067
 31
0.0
  0
ARC
  5
45D
330
1F
100
AcDbEntity
  8
0
  6
Continuous
 62
     7
370
    15
100
AcDbCircle
 10
23.4670027268
 20
10.4780738246
 30
0.0
 40
0.1815381548182975
100
AcDbArc
 50
242.609688527
 51
297.3902960707
  0
LINE
  5
45E
330
1F
100
AcDbEntity
  8
0
  6
Continuous
 62
     7
370
    15
100
AcDbLine
 10
24.1079922185
 20
10.6387096061
 30
0.0
 11
23.5505192484
 21
10.3168873106
 31
0.0
  0
ARC
  5
45F
330
1F
100
AcDbEntity
  8
0
  6
Continuous
 62
     7
370
    15
100
AcDbCircle
 10
24.0834767542
 20
10.692817154
 30
0.0
 40
0.0594023125385897
100
AcDbArc
 50
294.3746953599
 51
354.305206694
  0
ARC
  5
460
330
1F
100
AcDbEntity
  8
0
  6
Continuous
 62
     7
370
    15
100
AcDbCircle
 10
24.1430338159
 20
10.7739279643
 30
0.0
 40
0.079011677260608
100
AcDbArc
 50
117.1751815602
 51
154.4054661929
  0
LINE
  5
461
330
1F
100
AcDbEntity
  8
0
  6
Continuous
 62
     7
370
    15
100
AcDbLine
 10
24.268761516
 20
10.9376307286
 30
0.0
 11
24.1069481856
 21
10.8442178813
 31
0.0
  0
ARC
  5
462
330
1F
100
AcDbEntity
  8
0
  6
Continuous
 62
     7
370
    15
100
AcDbCircle
 10
24.2442460779
 20
10.9917382353
 30
0.0
 40
0.0594022641249895
100
AcDbArc
 50
294.3746887612
 51
354.3052311649
  0
LINE
  5
463
330
1F
100
AcDbEntity
  8
0
  6
Continuous
 62
     7
370
    15
100
AcDbLine
 10
23.5505192484
 20
10.3530530245
 30
0.0
 11
24.1079922185
 21
10.67487532
 31
0.0
  0
ARC
  5
464
330
1F
100
AcDbEntity
  8
0
  6
Continuous
 62
     7
370
    15
100
AcDbCircle
 10
23.4670027268
 20
10.5142395385
 30
0.0
 40
0.1815381548182989
100
AcDbArc
 50
242.609688527
 51
297.3902960707
  0
LINE
  5
465
330
1F
100
AcDbEntity
  8
0
  6
Continuous
 62
     7
370
    15
100
AcDbLine
 10
23.3824421874
 20
10.3536557207
 30
0.0
 11
23.3834861619
 21
10.353053047
 31
0.0
  0
ARC
  5
466
330
1F
100
AcDbEntity
  8
0
  6
Continuous
 62
     7
370
    15
100
AcDbCircle
 10
23.2884860328
 20
10.1723209854
 30
0.0
 40
0.2042303729118246
100
AcDbArc
 50
62.6096750197
 51
117.3903112894
  0
LINE
  5
467
330
1F
100
AcDbEntity
  8
0
  6
Continuous
 62
     7
370
    15
100
AcDbLine
 10
23.1934859469
 20
10.3530530694
 30
0.0
 11
23.1945299215
 21
10.3536557431
 31
0.0
  0
ARC
  5
468
330
1F
100
AcDbEntity
  8
0
  6
Continuous
 62
     7
370
    15
100
AcDbCircle
 10
23.1099693843
 20
10.514239601
 30
0.0
 40
0.1815381893881042
100
AcDbArc
 50
242.6096949693
 51
297.3903050307
  0
LINE
  5
469
330
1F
100
AcDbEntity
  8
0
  6
Continuous
 62
     7
370
    15
100
AcDbLine
 10
20.5126047681
 20
11.8042666608
 30
0.0
 11
23.0264528216
 21
10.3530530694
 31
0.0
  0
ARC
  5
46A
330
1F
100
AcDbEntity
  8
0
  6
Continuous
 62
     7
370
    15
100
AcDbCircle
 10
20.5309032755
 20
11.8524797461
 30
0.0
 40
0.0515687596433448
100
AcDbArc
 50
110.7834588027
 51
249.2165411973
  0
LINE
  5
46B
330
1F
100
AcDbEntity
  8
0
  6
Continuous
 62
     7
370
    15
100
AcDbLine
 10
20.6744180986
 20
11.9941056788
 30
0.0
 11
20.5126047681
 21
11.9006928315
 31
0.0
  0
ARC
  5
46C
330
1F
100
AcDbEntity
  8
0
  6
Continuous
 62
     7
370
    15
100
AcDbCircle
 10
20.6538322992
 20
12.0483453832
 30
0.0
 40
0.0580148314189212
100
AcDbArc
 50
290.7834449181
 51
69.2166167044
  0
LINE
  5
46D
330
1F
100
AcDbEntity
  8
0
  6
Continuous
 62
     7
370
    15
100
AcDbLine
 10
20.6733740657
 20
12.1031877833
 30
0.0
 11
20.6744180402
 21
12.1025851097
 31
0.0
  0
ARC
  5
46E
330
1F
100
AcDbEntity
  8
0
  6
Continuous
 62
     7
370
    15
100
AcDbCircle
 10
20.6916726012
 20
12.1514008687
 30
0.0
 40
0.0515687696355364
100
AcDbArc
 50
110.783488054
 51
249.216511946
  0
LINE
  5
46F
330
1F
100
AcDbEntity
  8
0
  6
Continuous
 62
     7
370
    15
100
AcDbLine
 10
21.2308470358
 20
12.5214362496
 30
0.0
 11
21.1739620131
 21
12.4885972249
 31
0.0
  0
LINE
  5
470
330
1F
100
AcDbEntity
  8
0
  6
Continuous
 62
     7
370
    15
100
AcDbLine
 10
21.0946161956
 20
12.4427918595
 30
0.0
 11
20.6733740657
 21
12.1996139541
 31
0.0
  0
ARC
  5
471
330
1F
100
AcDbEntity
  8
0
  6
Continuous
 62
     7
370
    15
100
AcDbCircle
 10
21.3143635573
 20
12.3602497356
 30
0.0
 40
0.1815381548182897
100
AcDbArc
 50
62.609688527
 51
117.3902960707
  0
LINE
  5
472
330
1F
100
AcDbEntity
  8
0
  6
Continuous
 62
     7
370
    15
100
AcDbLine
 10
21.3989240967
 20
12.5208335534
 30
0.0
 11
21.3978801222
 21
12.5214362271
 31
0.0
  0
ARC
  5
473
330
1F
100
AcDbEntity
  8
0
  6
Continuous
 62
     7
370
    15
100
AcDbCircle
 10
21.4928802514
 20
12.7021682887
 30
0.0
 40
0.2042303729118324
100
AcDbArc
 50
242.6096750197
 51
297.3903112894
  0
LINE
  5
474
330
1F
100
AcDbEntity
  8
0
  6
Continuous
 62
     7
370
    15
100
AcDbLine
 10
21.5878803372
 20
12.5214362047
 30
0.0
 11
21.5868363627
 21
12.520833531
 31
0.0
  0
ARC
  5
475
330
1F
100
AcDbEntity
  8
0
  6
Continuous
 62
     7
370
    15
100
AcDbCircle
 10
21.6713968999
 20
12.3602496731
 30
0.0
 40
0.1815381893880979
100
AcDbArc
 50
62.6096949693
 51
117.3903050307
  0
LINE
  5
476
330
1F
100
AcDbEntity
  8
0
  6
Continuous
 62
     7
370
    15
100
AcDbLine
 10
24.268761516
 20
11.0702226133
 30
0.0
 11
23.6885723188
 21
11.4051587075
 31
0.0
  0
LINE
  5
477
330
1F
100
AcDbEntity
  8
0
  6
Continuous
 62
     7
370
    15
100
AcDbLine
 10
23.6092264819
 20
11.4509640842
 30
0.0
 11
21.7549134625
 21
12.5214362047
 31
0.0
  0
ARC
  5
478
330
1F
100
AcDbEntity
  8
0
  6
Continuous
 62
     7
370
    15
100
AcDbCircle
 10
24.2504630087
 20
11.022009528
 30
0.0
 40
0.051568759643346
100
AcDbArc
 50
290.7834588027
 51
69.2165411973
  0
LINE
  5
479
330
1F
100
AcDbEntity
  8
0
  6
Continuous
 62
     7
370
    15
100
AcDbLine
 10
24.1069481856
 20
10.8803835953
 30
0.0
 11
24.268761516
 21
10.9737964426
 31
0.0
  0
ARC
  5
47A
330
1F
100
AcDbEntity
  8
0
  6
Continuous
 62
     7
370
    15
100
AcDbCircle
 10
24.127533985
 20
10.8261438909
 30
0.0
 40
0.0580148314189221
100
AcDbArc
 50
110.7834449181
 51
249.2166167044
  0
LINE
  5
47B
330
1F
100
AcDbEntity
  8
0
  6
Continuous
 62
     7
370
    15
100
AcDbLine
 10
24.1079922185
 20
10.7713014908
 30
0.0
 11
24.1069482439
 21
10.7719041644
 31
0.0
  0
ARC
  5
47C
330
1F
100
AcDbEntity
  8
0
  6
Continuous
 62
     7
370
    15
100
AcDbCircle
 10
24.089693683
 20
10.7230884054
 30
0.0
 40
0.0515687696355376
100
AcDbArc
 50
290.783488054
 51
69.216511946
  0
ARC
  5
47D
330
1F
100
AcDbEntity
  8
0
  6
Continuous
 62
     7
370
    15
100
AcDbCircle
 10
21.6713967766
 20
12.4026146977
 30
0.0
 40
0.1134614218644707
100
AcDbArc
 50
62.6096498827
 51
117.3902761864
  0
LINE
  5
47E
330
1F
100
AcDbEntity
  8
0
  6
Continuous
 62
     7
370
    15
100
AcDbLine
 10
21.619198951
 20
12.5033563538
 30
0.0
 11
21.6181549765
 21
12.5027536801
 31
0.0
  0
ARC
  5
47F
330
1F
100
AcDbEntity
  8
0
  6
Continuous
 62
     7
370
    15
100
AcDbCircle
 10
21.4928801692
 20
12.7445328527
 30
0.0
 40
0.2723067124675579
100
AcDbArc
 50
242.6096516098
 51
297.3903586584
  0
LINE
  5
480
330
1F
100
AcDbEntity
  8
0
  6
Continuous
 62
     7
370
    15
100
AcDbLine
 10
21.3676054052
 20
12.5027536576
 30
0.0
 11
21.3665614307
 21
12.5033563313
 31
0.0
  0
ARC
  5
481
330
1F
100
AcDbEntity
  8
0
  6
Continuous
 62
     7
370
    15
100
AcDbCircle
 10
21.3143636396
 20
12.4026146359
 30
0.0
 40
0.1134614409954788
100
AcDbArc
 50
62.6097484127
 51
117.390276231
  0
LINE
  5
482
330
1F
100
AcDbEntity
  8
0
  6
Continuous
 62
     7
370
    15
100
AcDbLine
 10
20.704692835
 20
12.1815340134
 30
0.0
 11
21.1259349649
 21
12.4247119188
 31
0.0
  0
LINE
  5
483
330
1F
100
AcDbEntity
  8
0
  6
Continuous
 62
     7
370
    15
100
AcDbLine
 10
21.2052807824
 20
12.4705172842
 30
0.0
 11
21.2621658051
 21
12.5033563089
 31
0.0
  0
ARC
  5
484
330
1F
100
AcDbEntity
  8
0
  6
Continuous
 62
     7
370
    15
100
AcDbCircle
 10
20.7161294057
 20
12.1514008408
 30
0.0
 40
0.0322304706580046
100
AcDbArc
 50
110.7834684064
 51
249.2164206731
  0
LINE
  5
485
330
1F
100
AcDbEntity
  8
0
  6
Continuous
 62
     7
370
    15
100
AcDbLine
 10
20.7046927767
 20
12.1212676904
 30
0.0
 11
20.7057367512
 21
12.1206650167
 31
0.0
  0
ARC
  5
486
330
1F
100
AcDbEntity
  8
0
  6
Continuous
 62
     7
370
    15
100
AcDbCircle
 10
20.6782891032
 20
12.0483454297
 30
0.0
 40
0.0773530609831855
100
AcDbArc
 50
290.7833605284
 51
69.2166086603
  0
LINE
  5
487
330
1F
100
AcDbEntity
  8
0
  6
Continuous
 62
     7
370
    15
100
AcDbLine
 10
20.5439233819
 20
11.8826129806
 30
0.0
 11
20.7057367123
 21
11.9760258279
 31
0.0
  0
ARC
  5
488
330
1F
100
AcDbEntity
  8
0
  6
Continuous
 62
     7
370
    15
100
AcDbCircle
 10
20.5553600078
 20
11.852479802
 30
0.0
 40
0.0322304959491067
100
AcDbArc
 50
110.7835564133
 51
249.2166654274
  0
LINE
  5
489
330
1F
100
AcDbEntity
  8
0
  6
Continuous
 62
     7
370
    15
100
AcDbLine
 10
23.0577715521
 20
10.3711329877
 30
0.0
 11
20.5439234986
 21
11.822346579
 31
0.0
  0
ARC
  5
48A
330
1F
100
AcDbEntity
  8
0
  6
Continuous
 62
     7
370
    15
100
AcDbCircle
 10
23.1099695076
 20
10.4718745764
 30
0.0
 40
0.1134614218644914
100
AcDbArc
 50
242.6096498827
 51
297.3902761864
  0
LINE
  5
48B
330
1F
100
AcDbEntity
  8
0
  6
Continuous
 62
     7
370
    15
100
AcDbLine
 10
23.1621673332
 20
10.3711329203
 30
0.0
 11
23.1632113077
 21
10.371735594
 31
0.0
  0
ARC
  5
48C
330
1F
100
AcDbEntity
  8
0
  6
Continuous
 62
     7
370
    15
100
AcDbCircle
 10
23.288486115
 20
10.1299564214
 30
0.0
 40
0.2723067124675705
100
AcDbArc
 50
62.6096516098
 51
117.3903586584
  0
LINE
  5
48D
330
1F
100
AcDbEntity
  8
0
  6
Continuous
 62
     7
370
    15
100
AcDbLine
 10
23.413760879
 20
10.3717356165
 30
0.0
 11
23.4148048535
 21
10.3711329428
 31
0.0
  0
ARC
  5
48E
330
1F
100
AcDbEntity
  8
0
  6
Continuous
 62
     7
370
    15
100
AcDbCircle
 10
23.4670026446
 20
10.4718746382
 30
0.0
 40
0.1134614409954786
100
AcDbArc
 50
242.6097484127
 51
297.390276231
  0
LINE
  5
48F
330
1F
100
AcDbEntity
  8
0
  6
Continuous
 62
     7
370
    15
100
AcDbLine
 10
24.0766734491
 20
10.6929552607
 30
0.0
 11
23.519200479
 21
10.3711329652
 31
0.0
  0
ARC
  5
490
330
1F
100
AcDbEntity
  8
0
  6
Continuous
 62
     7
370
    15
100
AcDbCircle
 10
24.0652368785
 20
10.7230884333
 30
0.0
 40
0.0322304706580111
100
AcDbArc
 50
290.7834684064
 51
69.2164206731
  0
LINE
  5
491
330
1F
100
AcDbEntity
  8
0
  6
Continuous
 62
     7
370
    15
100
AcDbLine
 10
24.0766735075
 20
10.7532215837
 30
0.0
 11
24.0756295329
 21
10.7538242574
 31
0.0
  0
ARC
  5
492
330
1F
100
AcDbEntity
  8
0
  6
Continuous
 62
     7
370
    15
100
AcDbCircle
 10
24.1030771809
 20
10.8261438444
 30
0.0
 40
0.0773530609831888
100
AcDbArc
 50
110.7833605284
 51
249.2166086603
  0
LINE
  5
493
330
1F
100
AcDbEntity
  8
0
  6
Continuous
 62
     7
370
    15
100
AcDbLine
 10
24.2374429022
 20
10.9918762935
 30
0.0
 11
24.0756295718
 21
10.8984634462
 31
0.0
  0
ARC
  5
494
330
1F
100
AcDbEntity
  8
0
  6
Continuous
 62
     7
370
    15
100
AcDbCircle
 10
24.2260062763
 20
11.0220094721
 30
0.0
 40
0.032230495949108
100
AcDbArc
 50
290.7835564133
 51
69.2166654274
  0
LINE
  5
495
330
1F
100
AcDbEntity
  8
0
  6
Continuous
 62
     7
370
    15
100
AcDbLine
 10
21.7235947321
 20
12.5033562864
 30
0.0
 11
23.5779077515
 21
11.432884166
 31
0.0
  0
LINE
  5
496
330
1F
100
AcDbEntity
  8
0
  6
Continuous
 62
     7
370
    15
100
AcDbLine
 10
23.6572535884
 20
11.3870787893
 30
0.0
 11
24.2374427856
 21
11.0521426951
 31
0.0
  0
LINE
  5
497
330
1F
100
AcDbEntity
  8
0
  6
Continuous
 62
     7
370
    15
100
AcDbLine
 10
24.5024877511
 20
10.2309833899
 30
0.0
 11
23.392865871
 21
9.5904123134
 31
0.0
  0
LINE
  5
498
330
1F
100
AcDbEntity
  8
0
  6
Continuous
 62
     7
370
    15
100
AcDbLine
 10
24.5203710847
 20
10.822531126
 30
0.0
 11
24.5024877511
 21
10.2309833899
 31
0.0
  0
LINE
  5
499
330
1F
100
AcDbEntity
  8
0
  6
Continuous
 62
     7
370
    15
100
AcDbLine
 10
23.184106199
 20
9.5904123583
 30
0.0
 11
20.2788786108
 21
11.2675645458
 31
0.0
  0
LINE
  5
49A
330
1F
100
AcDbEntity
  8
0
  6
Continuous
 62
     7
370
    15
100
AcDbLine
 10
20.2609952384
 20
11.8591123043
 30
0.0
 11
20.2788786108
 21
11.2675645458
 31
0.0
  0
LINE
  5
49B
330
1F
100
AcDbEntity
  8
0
  6
Continuous
 62
     7
370
    15
100
AcDbLine
 10
23.1945299215
 20
10.3174900292
 30
0.0
 11
23.1945299215
 21
10.3536557431
 31
0.0
  0
LINE
  5
49C
330
1F
100
AcDbEntity
  8
0
  6
Continuous
 62
     7
370
    15
100
AcDbLine
 10
23.3824421874
 20
10.3536557207
 30
0.0
 11
23.3824421874
 21
10.3174900067
 31
0.0
  0
LINE
  5
49D
330
1F
100
AcDbEntity
  8
0
  6
Continuous
 62
     7
370
    15
100
AcDbLine
 10
23.5505192484
 20
10.3168873106
 30
0.0
 11
23.5505192484
 21
10.3530530245
 31
0.0
  0
LINE
  5
49E
330
1F
100
AcDbEntity
  8
0
  6
Continuous
 62
     7
370
    15
100
AcDbLine
 10
23.3834861619
 20
10.353053047
 30
0.0
 11
23.3834861619
 21
10.316887333
 31
0.0
  0
LINE
  5
49F
330
1F
100
AcDbEntity
  8
0
  6
Continuous
 62
     7
370
    15
100
AcDbLine
 10
23.1934859469
 20
10.3168873555
 30
0.0
 11
23.1934859469
 21
10.3530530694
 31
0.0
  0
LINE
  5
4A0
330
1F
100
AcDbEntity
  8
0
  6
Continuous
 62
     7
370
    15
100
AcDbLine
 10
23.0264528216
 20
10.3530530694
 30
0.0
 11
23.0264528216
 21
10.3168873555
 31
0.0
  0
LINE
  5
4A1
330
1F
100
AcDbEntity
  8
0
  6
Continuous
 62
     7
370
    15
100
AcDbLine
 10
24.1079922185
 20
10.67487532
 30
0.0
 11
24.1079922185
 21
10.6387096061
 31
0.0
  0
LINE
  5
4A2
330
1F
100
AcDbEntity
  8
0
  6
Continuous
 62
     7
370
    15
100
AcDbLine
 10
20.5126047681
 20
11.7681009468
 30
0.0
 11
20.5126047681
 21
11.8042666608
 31
0.0
  0
LINE
  5
4A3
330
1F
100
AcDbEntity
  8
0
  6
Continuous
 62
     7
370
    15
100
AcDbLine
 10
20.8231365177
 20
11.661160308
 30
0.0
 11
21.174473461
 21
11.8639828082
 31
0.0
  0
LINE
  5
4A4
330
1F
100
AcDbEntity
  8
0
  6
Continuous
 62
     7
370
    15
100
AcDbLine
 10
21.2861869809
 20
11.7994919659
 30
0.0
 11
21.174473461
 21
11.8639828082
 31
0.0
  0
ELLIPSE
  5
4A5
330
1F
100
AcDbEntity
  8
0
  6
Continuous
 62
     7
370
    15
100
AcDbEllipse
 10
21.3529900213
 20
11.8380800642
 30
0.0
 11
0.09448818897638134
 21
0.0
 31
0.0
210
0.0
220
0.0
230
1.0
 40
0.5774635729
 41
3.927143110234846
 42
5.497634850534592
  0
LINE
  5
4A6
330
1F
100
AcDbEntity
  8
0
  6
Continuous
 62
     7
370
    15
100
AcDbLine
 10
21.6279457184
 20
11.9196559671
 30
0.0
 11
21.4197930481
 21
11.7994919883
 31
0.0
  0
ARC
  5
4A7
330
1F
100
AcDbEntity
  8
0
  6
Continuous
 62
     7
370
    15
100
AcDbCircle
 10
21.6713968177
 20
11.8357955203
 30
0.0
 40
0.0944487827168631
100
AcDbArc
 50
62.6096500416
 51
117.3902907496
  0
LINE
  5
4A8
330
1F
100
AcDbEntity
  8
0
  6
Continuous
 62
     7
370
    15
100
AcDbLine
 10
21.7148480036
 20
11.9196559222
 30
0.0
 11
23.9582298053
 21
10.6245791745
 31
0.0
  0
LINE
  5
4A9
330
1F
100
AcDbEntity
  8
0
  6
Continuous
 62
     7
370
    15
100
AcDbLine
 10
24.1069481856
 20
10.8803835953
 30
0.0
 11
24.1069481856
 21
10.8442178813
 31
0.0
  0
LINE
  5
4AA
330
1F
100
AcDbEntity
  8
0
  6
Continuous
 62
     7
370
    15
100
AcDbLine
 10
24.268761516
 20
10.9737964426
 30
0.0
 11
24.268761516
 21
10.9376307286
 31
0.0
  0
LINE
  5
4AB
330
1F
100
AcDbEntity
  8
0
  6
Continuous
 62
     7
370
    15
100
AcDbLine
 10
20.6744180402
 20
12.0664193957
 30
0.0
 11
20.6744180402
 21
12.1025851097
 31
0.0
  0
LINE
  5
4AC
330
1F
100
AcDbEntity
  8
0
  6
Continuous
 62
     7
370
    15
100
AcDbLine
 10
20.6733740657
 20
12.0670220694
 30
0.0
 11
20.6733740657
 21
12.1031877833
 31
0.0
  0
LINE
  5
4AD
330
1F
100
AcDbEntity
  8
0
  6
Continuous
 62
     7
370
    15
100
AcDbLine
 10
21.1744734221
 20
12.1092952114
 30
0.0
 11
21.2672680732
 21
12.1628644232
 31
0.0
  0
LINE
  5
4AE
330
1F
100
AcDbEntity
  8
0
  6
Continuous
 62
     7
370
    15
100
AcDbLine
 10
21.174473461
 20
11.8639828082
 30
0.0
 11
21.1744734221
 21
12.1092952114
 31
0.0
  0
LINE
  5
4AF
330
1F
100
AcDbEntity
  8
0
  6
Continuous
 62
     7
370
    15
100
AcDbLine
 10
21.419793087
 20
12.0448043467
 30
0.0
 11
21.4197930481
 21
11.7994919883
 31
0.0
  0
LINE
  5
4B0
330
1F
100
AcDbEntity
  8
0
  6
Continuous
 62
     7
370
    15
100
AcDbLine
 10
21.6019092798
 20
12.1499377869
 30
0.0
 11
21.419793087
 21
12.0448043467
 31
0.0
  0
ARC
  5
4B1
330
1F
100
AcDbEntity
  8
0
  6
Continuous
 62
     7
370
    15
100
AcDbCircle
 10
21.4937522778
 20
12.4177435782
 30
0.0
 40
0.2872234151573949
100
AcDbArc
 50
242.8089905125
 51
291.7423958351
  0
ARC
  5
4B2
330
1F
100
AcDbEntity
  8
0
  6
Continuous
 62
     7
370
    15
100
AcDbCircle
 10
21.3143636396
 20
12.0719703517
 30
0.0
 40
0.1023705260753033
100
AcDbArc
 50
62.6096896482
 51
117.3903376654
  0
LINE
  5
4B3
330
1F
100
AcDbEntity
  8
0
  6
Continuous
 62
     7
370
    15
100
AcDbLine
 10
21.3614591626
 20
12.1628644456
 30
0.0
 11
21.3625031372
 21
12.162261772
 31
0.0
  0
LINE
  5
4B4
330
1F
100
AcDbEntity
  8
0
  6
Continuous
 62
     7
370
    15
100
AcDbLine
 10
21.2861869809
 20
11.7994919659
 30
0.0
 11
21.286186942
 21
12.0448043691
 31
0.0
  0
ELLIPSE
  5
4B5
330
1F
100
AcDbEntity
  8
0
  6
Continuous
 62
     7
370
    15
100
AcDbEllipse
 10
21.3529900213
 20
12.0833924466
 30
0.0
 11
0.09448818897638134
 21
0.0
 31
0.0
210
0.0
220
0.0
230
1.0
 40
0.5774635729
 41
3.927143110234869
 42
5.497634850534569
  0
LINE
  5
4B6
330
1F
100
AcDbEntity
  8
0
  6
Continuous
 62
     7
370
    15
100
AcDbLine
 10
21.1744734221
 20
12.1092952114
 30
0.0
 11
21.286186942
 21
12.0448043691
 31
0.0
  0
LWPOLYLINE
  5
4B7
330
1F
100
AcDbEntity
  8
0
  6
Continuous
 62
     7
370
    15
100
AcDbPolyline
 90
       19
 70
   128
 43
0.0
 10
21.3738691357
 20
12.1157888384
 10
21.3832801905
 20
12.1080298975
 10
21.3875269081
 20
12.0988806135
 10
21.3860969072
 20
12.0894446979
 10
21.379162628
 20
12.0808601903
 10
21.3675606423
 20
12.0741625065
 10
21.3526902666
 20
12.0701594548
 10
21.3363449909
 20
12.0693339216
 10
21.3204962683
 20
12.0717855107
 10
21.3070559128
 20
12.0772183858
 10
21.2976448775
 20
12.0849773378
 10
21.2933981405
 20
12.0941266107
 10
21.2948283164
 20
12.1035624476
 10
21.3017624011
 20
12.1121470226
 10
21.3133643868
 20
12.1188447064
 10
21.328234957
 20
12.1228476908
 10
21.3445800576
 20
12.1236733025
 10
21.3604287997
 20
12.1212217246
 10
21.3738691357
 20
12.1157888384
  0
ARC
  5
4B8
330
1F
100
AcDbEntity
  8
0
  6
Continuous
 62
     8
370
    15
100
AcDbCircle
 10
24.4933472396
 20
12.74506859
 30
0.0
 40
0.0265705968317607
100
AcDbArc
 50
63.3439145489
 51
117.7150215446
  0
ARC
  5
4B9
330
1F
100
AcDbEntity
  8
0
  6
Continuous
 62
     8
370
    15
100
AcDbCircle
 10
24.4952076838
 20
12.6856147044
 30
0.0
 40
0.0640843131738257
100
AcDbArc
 50
290.3018823095
 51
359.5720573231
  0
ARC
  5
4BA
330
1F
100
AcDbEntity
  8
0
  6
Continuous
 62
     8
370
    15
100
AcDbCircle
 10
21.5702406503
 20
14.4325250165
 30
0.0
 40
0.0265899924598275
100
AcDbArc
 50
63.5000368252
 51
117.7037062146
  0
ARC
  5
4BB
330
1F
100
AcDbEntity
  8
0
  6
Continuous
 62
     8
370
    15
100
AcDbCircle
 10
20.2880154211
 20
13.7816341294
 30
0.0
 40
0.0265861036416811
100
AcDbArc
 50
62.2935241371
 51
116.5212099594
  0
ARC
  5
4BC
330
1F
100
AcDbEntity
  8
0
  6
Continuous
 62
     8
370
    15
100
AcDbCircle
 10
20.2881662734
 20
13.7236004457
 30
0.0
 40
0.066112934199675
100
AcDbArc
 50
181.6320382877
 51
248.4885705551
  0
ARC
  5
4BD
330
1F
100
AcDbEntity
  8
0
  6
Continuous
 62
     8
370
    15
100
AcDbCircle
 10
21.4155198914
 20
14.4325256122
 30
0.0
 40
0.0265894412795645
100
AcDbArc
 50
62.2955864804
 51
116.5005662287
  0
ARC
  5
4BE
330
1F
100
AcDbEntity
  8
0
  6
Continuous
 62
     8
370
    15
100
AcDbCircle
 10
23.3637186246
 20
9.5880624475
 30
0.0
 40
0.0292418166637759
100
AcDbArc
 50
305.3349554757
 51
4.6092461441
  0
ARC
  5
4BF
330
1F
100
AcDbEntity
  8
0
  6
Continuous
 62
     8
370
    15
100
AcDbCircle
 10
23.21326098
 20
9.588063828
 30
0.0
 40
0.0292492196361591
100
AcDbArc
 50
175.3945477234
 51
234.6151947517
  0
ARC
  5
4C0
330
1F
100
AcDbEntity
  8
0
  6
Continuous
 62
     8
370
    15
100
AcDbCircle
 10
20.3080292959
 20
11.2652152073
 30
0.0
 40
0.0292452019166115
100
AcDbArc
 50
175.3923253023
 51
234.6414976463
  0
ARC
  5
4C1
330
1F
100
AcDbEntity
  8
0
  6
Continuous
 62
     8
370
    15
100
AcDbCircle
 10
24.4733368474
 20
10.2286342445
 30
0.0
 40
0.029245404309466
100
AcDbArc
 50
305.3585593114
 51
4.6072631293
  0
LINE
  5
4C2
330
1F
100
AcDbEntity
  8
0
  6
Continuous
 62
     8
370
    15
100
AcDbLine
 10
24.0757625382
 20
10.6924293076
 30
0.0
 11
24.0766735075
 21
10.7532215837
 31
0.0
  0
LINE
  5
4C3
330
1F
100
AcDbEntity
  8
0
  6
Continuous
 62
     8
370
    15
100
AcDbLine
 10
24.0747003435
 20
10.6918161443
 30
0.0
 11
24.0756295329
 21
10.7538242574
 31
0.0
  0
ARC
  5
4C4
330
1F
100
AcDbEntity
  8
0
  6
Continuous
 62
     8
370
    15
100
AcDbCircle
 10
24.4706712637
 20
10.2991054481
 30
0.0
 40
0.0751857944935848
100
AcDbArc
 50
295.0349817763
 51
352.6295521522
  0
LINE
  5
4C5
330
1F
100
AcDbEntity
  8
0
  6
Continuous
 62
     8
370
    15
100
AcDbLine
 10
24.2365318163
 20
10.991350419
 30
0.0
 11
24.2374427856
 21
11.0521426951
 31
0.0
  0
LINE
  5
4C6
330
1F
100
AcDbEntity
  8
0
  6
Continuous
 62
     8
370
    15
100
AcDbLine
 10
21.7235947321
 20
12.5033562864
 30
0.0
 11
21.7186615985
 21
12.1741488383
 31
0.0
  0
LINE
  5
4C7
330
1F
100
AcDbEntity
  8
0
  6
Continuous
 62
     8
370
    15
100
AcDbLine
 10
21.7173005893
 20
12.0833238067
 30
0.0
 11
21.7148480036
 21
11.9196559222
 31
0.0
  0
LINE
  5
4C8
330
1F
100
AcDbEntity
  8
0
  6
Continuous
 62
     8
370
    15
100
AcDbLine
 10
20.5439233819
 20
11.8826129806
 30
0.0
 11
20.5448343512
 21
11.8218207045
 31
0.0
  0
LINE
  5
4C9
330
1F
100
AcDbEntity
  8
0
  6
Continuous
 62
     8
370
    15
100
AcDbLine
 10
20.7057367123
 20
11.9760258279
 30
0.0
 11
20.7094717486
 21
11.7267775947
 31
0.0
  0
ARC
  5
4CA
330
1F
100
AcDbEntity
  8
0
  6
Continuous
 62
     8
370
    15
100
AcDbCircle
 10
20.3106948385
 20
11.3356866051
 30
0.0
 40
0.0751856855896493
100
AcDbArc
 50
187.370424925
 51
244.965197896
  0
LINE
  5
4CB
330
1F
100
AcDbEntity
  8
0
  6
Continuous
 62
     8
370
    15
100
AcDbLine
 10
20.704692835
 20
12.1815340134
 30
0.0
 11
20.7056038043
 21
12.1207417373
 31
0.0
  0
LINE
  5
4CC
330
1F
100
AcDbEntity
  8
0
  6
Continuous
 62
     8
370
    15
100
AcDbLine
 10
21.2672680732
 20
12.1628644232
 30
0.0
 11
21.2645432545
 21
12.3446950663
 31
0.0
  0
LINE
  5
4CD
330
1F
100
AcDbEntity
  8
0
  6
Continuous
 62
     8
370
    15
100
AcDbLine
 10
21.2631585999
 20
12.4371050995
 30
0.0
 11
21.2621658051
 21
12.5033563089
 31
0.0
  0
LINE
  5
4CE
330
1F
100
AcDbEntity
  8
0
  6
Continuous
 62
     8
370
    15
100
AcDbLine
 10
21.6279457184
 20
11.9196559671
 30
0.0
 11
21.6246920678
 21
12.1367855377
 31
0.0
  0
LINE
  5
4CF
330
1F
100
AcDbEntity
  8
0
  6
Continuous
 62
     8
370
    15
100
AcDbLine
 10
21.6233073354
 20
12.2291956607
 30
0.0
 11
21.619198951
 21
12.5033563538
 31
0.0
  0
LINE
  5
4D0
330
1F
100
AcDbEntity
  8
0
  6
Continuous
 62
     8
370
    15
100
AcDbLine
 10
21.6222451601
 20
12.2298088128
 30
0.0
 11
21.6181549765
 21
12.5027536801
 31
0.0
  0
LINE
  5
4D1
330
1F
100
AcDbEntity
  8
0
  6
Continuous
 62
     8
370
    15
100
AcDbLine
 10
21.3676054052
 20
12.5027536576
 30
0.0
 11
21.3657343091
 21
12.3778893893
 31
0.0
  0
LINE
  5
4D2
330
1F
100
AcDbEntity
  8
0
  6
Continuous
 62
     8
370
    15
100
AcDbLine
 10
21.3643732999
 20
12.2870643801
 30
0.0
 11
21.3625031372
 21
12.162261772
 31
0.0
  0
LINE
  5
4D3
330
1F
100
AcDbEntity
  8
0
  6
Continuous
 62
     8
370
    15
100
AcDbLine
 10
21.3665614307
 20
12.5033563313
 30
0.0
 11
21.3646903346
 21
12.378492063
 31
0.0
  0
LINE
  5
4D4
330
1F
100
AcDbEntity
  8
0
  6
Continuous
 62
     8
370
    15
100
AcDbLine
 10
21.3633293253
 20
12.2876670537
 30
0.0
 11
21.3614591626
 21
12.1628644456
 31
0.0
  0
INSERT
  5
4DC
102
{ACAD_REACTORS
330
4DD
102
}
330
1F
100
AcDbEntity
  8
0
  6
Continuous
 62
     7
370
     0
100
AcDbBlockReference
  2
SW_NOTE_10
 10
18.788922865
 20
13.2291041127
 30
0.0
  0
LEADER
  5
4DD
330
1F
100
AcDbEntity
  8
0
  6
Continuous
 62
     7
370
     0
100
AcDbLeader
  3
SLDDIMSTYLE3
 73
     2
 76
     3
 10
20.46802227
 20
12.8717493175
 30
0.0
 10
20.1493396614
 20
13.2291041127
 30
0.0
 10
18.788922865
 20
13.2291041127
 30
0.0
340
4DC
  0
LINE
  5
4DE
330
1F
100
AcDbEntity
  8
0
  6
Continuous
 62
     7
370
    15
100
AcDbLine
 10
11.169888143
 20
6.3016869524
 30
0.0
 11
11.169888143
 21
13.4876869524
 31
0.0
  0
LINE
  5
4DF
330
1F
100
AcDbEntity
  8
0
  6
Continuous
 62
     7
370
    15
100
AcDbLine
 10
11.169888143
 20
6.3016869524
 30
0.0
 11
11.259888143
 21
6.3016869524
 31
0.0
  0
LINE
  5
4E0
330
1F
100
AcDbEntity
  8
0
  6
Continuous
 62
     7
370
    15
100
AcDbLine
 10
11.259888143
 20
6.3016869524
 30
0.0
 11
11.259888143
 21
13.4876869524
 31
0.0
  0
LINE
  5
4E1
330
1F
100
AcDbEntity
  8
0
  6
Continuous
 62
     7
370
    15
100
AcDbLine
 10
11.259888143
 20
13.4876869524
 30
0.0
 11
11.169888143
 21
13.4876869524
 31
0.0
  0
LINE
  5
4E2
330
1F
100
AcDbEntity
  8
0
  6
Continuous
 62
     7
370
    15
100
AcDbLine
 10
11.169888143
 20
12.6472254945
 30
0.0
 11
10.9730377493
 21
12.6472254945
 31
0.0
  0
LINE
  5
4E3
330
1F
100
AcDbEntity
  8
0
  6
Continuous
 62
     7
370
    15
100
AcDbLine
 10
10.9730377493
 20
12.5358491978
 30
0.0
 11
11.169888143
 21
12.5358491978
 31
0.0
  0
LINE
  5
4E4
330
1F
100
AcDbEntity
  8
0
  6
Continuous
 62
     7
370
    15
100
AcDbLine
 10
10.9730377493
 20
12.5358491978
 30
0.0
 11
10.9730377493
 21
12.6472254945
 31
0.0
  0
LINE
  5
4E5
330
1F
100
AcDbEntity
  8
0
  6
Continuous
 62
     7
370
    15
100
AcDbLine
 10
10.9730377493
 20
12.7209910551
 30
0.0
 11
10.9730377493
 21
12.6472254945
 31
0.0
  0
LWPOLYLINE
  5
4E6
330
1F
100
AcDbEntity
  8
0
  6
Continuous
 62
     7
370
    15
100
AcDbPolyline
 90
        4
 70
   128
 43
0.0
 10
10.9730377493
 20
12.7209910551
 10
10.9203235934
 20
12.7220324387
 10
10.6303168638
 20
12.7277303786
 10
10.1265810564
 20
12.7375162188
  0
LINE
  5
4E7
330
1F
100
AcDbEntity
  8
0
  6
Continuous
 62
     7
370
    15
100
AcDbLine
 10
10.1265810564
 20
12.8474428579
 30
0.0
 11
10.1265810564
 21
12.7375162188
 31
0.0
  0
LINE
  5
4E8
330
1F
100
AcDbEntity
  8
0
  6
Continuous
 62
     7
370
    15
100
AcDbLine
 10
11.0925221908
 20
12.8305822927
 30
0.0
 11
10.1265810564
 21
12.8474428579
 31
0.0
  0
ARC
  5
4E9
330
1F
100
AcDbEntity
  8
0
  6
Continuous
 62
     7
370
    15
100
AcDbCircle
 10
11.0911479855
 20
12.7518541277
 30
0.0
 40
0.0787401574803144
100
AcDbArc
 50
0.0
 51
89.0
  0
LINE
  5
4EA
330
1F
100
AcDbEntity
  8
0
  6
Continuous
 62
     7
370
    15
100
AcDbLine
 10
11.169888143
 20
12.7518541277
 30
0.0
 11
11.169888143
 21
12.6472254945
 31
0.0
  0
LINE
  5
4EB
330
1F
100
AcDbEntity
  8
0
  6
Continuous
 62
     7
370
    15
100
AcDbLine
 10
10.6187070407
 20
7.4358039173
 30
0.0
 11
10.6187070407
 21
7.3395383403
 31
0.0
  0
LINE
  5
4EC
330
1F
100
AcDbEntity
  8
0
  6
Continuous
 62
     7
370
    15
100
AcDbLine
 10
11.0124078281
 20
7.4426759901
 30
0.0
 11
10.6187070407
 21
7.4358039173
 31
0.0
  0
LINE
  5
4ED
330
1F
100
AcDbEntity
  8
0
  6
Continuous
 62
     7
370
    15
100
AcDbLine
 10
11.0124078281
 20
12.3574187361
 30
0.0
 11
11.0124078281
 21
7.4426759901
 31
0.0
  0
LWPOLYLINE
  5
4EE
330
1F
100
AcDbEntity
  8
0
  6
Continuous
 62
     7
370
    15
100
AcDbPolyline
 90
        4
 70
   128
 43
0.0
 10
10.0675259383
 20
12.3746971964
 10
10.5980764593
 20
12.3649814222
 10
10.8933582132
 20
12.3595896311
 10
11.0124078281
 20
12.3574187361
  0
LINE
  5
4EF
330
1F
100
AcDbEntity
  8
0
  6
Continuous
 62
     7
370
    15
100
AcDbLine
 10
10.0675259383
 20
12.4379062309
 30
0.0
 11
10.0675259383
 21
12.3746971964
 31
0.0
  0
LINE
  5
4F0
330
1F
100
AcDbEntity
  8
0
  6
Continuous
 62
     7
370
    15
100
AcDbLine
 10
10.0675259383
 20
12.4379062309
 30
0.0
 11
10.1265810564
 21
12.4379062309
 31
0.0
  0
LINE
  5
4F1
330
1F
100
AcDbEntity
  8
0
  6
Continuous
 62
     7
370
    15
100
AcDbLine
 10
10.1265810564
 20
12.4455584734
 30
0.0
 11
10.1265810564
 21
12.4379062309
 31
0.0
  0
LWPOLYLINE
  5
4F2
330
1F
100
AcDbEntity
  8
0
  6
Continuous
 62
     7
370
    15
100
AcDbPolyline
 90
        3
 70
   128
 43
0.0
 10
10.1265810564
 20
12.4455584734
 10
10.9203235934
 20
12.4610422535
 10
10.9730377493
 20
12.4620836372
  0
LINE
  5
4F3
330
1F
100
AcDbEntity
  8
0
  6
Continuous
 62
     7
370
    15
100
AcDbLine
 10
10.9730377493
 20
12.5358491978
 30
0.0
 11
10.9730377493
 21
12.4620836372
 31
0.0
  0
LINE
  5
4F4
330
1F
100
AcDbEntity
  8
0
  6
Continuous
 62
     7
370
    15
100
AcDbLine
 10
10.1265810564
 20
7.0305137241
 30
0.0
 11
10.1265810564
 21
6.9419310469
 31
0.0
  0
LINE
  5
4F5
330
1F
100
AcDbEntity
  8
0
  6
Continuous
 62
     7
370
    15
100
AcDbLine
 10
10.1265810564
 20
7.0305137241
 30
0.0
 11
10.0675259383
 21
7.0305137241
 31
0.0
  0
LINE
  5
4F6
330
1F
100
AcDbEntity
  8
0
  6
Continuous
 62
     7
370
    15
100
AcDbLine
 10
10.0675259383
 20
7.0895688422
 30
0.0
 11
10.0675259383
 21
7.0305137241
 31
0.0
  0
LINE
  5
4F7
330
1F
100
AcDbEntity
  8
0
  6
Continuous
 62
     7
370
    15
100
AcDbLine
 10
10.6187070407
 20
7.0991897441
 30
0.0
 11
10.0675259383
 21
7.0895688422
 31
0.0
  0
LINE
  5
4F8
330
1F
100
AcDbEntity
  8
0
  6
Continuous
 62
     7
370
    15
100
AcDbLine
 10
10.6187070407
 20
7.2136150921
 30
0.0
 11
10.6187070407
 21
7.0991897441
 31
0.0
  0
LINE
  5
4F9
330
1F
100
AcDbEntity
  8
0
  6
Continuous
 62
     7
370
    15
100
AcDbLine
 10
10.6187070407
 20
7.2136150921
 30
0.0
 11
11.0124078281
 21
7.2136150921
 31
0.0
  0
LINE
  5
4FA
330
1F
100
AcDbEntity
  8
0
  6
Continuous
 62
     7
370
    15
100
AcDbLine
 10
11.0124078281
 20
7.3395383403
 30
0.0
 11
11.0124078281
 21
7.2136150921
 31
0.0
  0
LINE
  5
4FB
330
1F
100
AcDbEntity
  8
0
  6
Continuous
 62
     7
370
    15
100
AcDbLine
 10
11.0124078281
 20
7.3395383403
 30
0.0
 11
10.6187070407
 21
7.3395383403
 31
0.0
  0
LINE
  5
4FC
330
1F
100
AcDbEntity
  8
0
  6
Continuous
 62
     7
370
    15
100
AcDbLine
 10
10.1265810564
 20
6.9419310469
 30
0.0
 11
11.0925221908
 21
6.9587916121
 31
0.0
  0
LINE
  5
4FD
330
1F
100
AcDbEntity
  8
0
  6
Continuous
 62
     7
370
    15
100
AcDbLine
 10
11.169888143
 20
12.5358491978
 30
0.0
 11
11.169888143
 21
7.0375197771
 31
0.0
  0
ARC
  5
4FE
330
1F
100
AcDbEntity
  8
0
  6
Continuous
 62
     7
370
    15
100
AcDbCircle
 10
11.0911479855
 20
7.0375197771
 30
0.0
 40
0.0787401574803153
100
AcDbArc
 50
271.0
 51
0.0
  0
LINE
  5
4FF
330
1F
100
AcDbEntity
  8
0
  6
Continuous
 62
     7
370
    15
100
AcDbLine
 10
10.6187070407
 20
7.2136150921
 30
0.0
 11
10.6187070407
 21
7.3395383403
 31
0.0
  0
LINE
  5
500
330
1F
100
AcDbEntity
  8
0
  6
Continuous
 62
     7
370
    15
100
AcDbLine
 10
10.0675259383
 20
12.3631908894
 30
0.0
 11
11.0124078281
 21
12.3466979147
 31
0.0
  0
LINE
  5
501
330
1F
100
AcDbEntity
  8
0
  6
Continuous
 62
     7
370
    15
100
AcDbLine
 10
10.0675259383
 20
12.3631908894
 30
0.0
 11
10.0675259383
 21
12.3746971964
 31
0.0
  0
LINE
  5
502
330
1F
100
AcDbEntity
  8
0
  6
Continuous
 62
     7
370
    15
100
AcDbLine
 10
10.1265810564
 20
12.4455584734
 30
0.0
 11
10.1265810564
 21
12.737983395
 31
0.0
  0
LINE
  5
503
330
1F
100
AcDbEntity
  8
0
  6
Continuous
 62
     7
370
    15
100
AcDbLine
 10
10.0675259383
 20
7.187994039
 30
0.0
 11
10.6187070407
 21
7.187994039
 31
0.0
  0
LINE
  5
504
330
1F
100
AcDbEntity
  8
0
  6
Continuous
 62
     7
370
    15
100
AcDbLine
 10
10.0675259383
 20
7.0895688422
 30
0.0
 11
10.0675259383
 21
7.187994039
 31
0.0
  0
LINE
  5
505
330
1F
100
AcDbEntity
  8
0
  6
Continuous
 62
     7
370
    15
100
AcDbLine
 10
10.0675259383
 20
7.189962543
 30
0.0
 11
10.6187070407
 21
7.189962543
 31
0.0
  0
LINE
  5
506
330
1F
100
AcDbEntity
  8
0
  6
Continuous
 62
     7
370
    15
100
AcDbLine
 10
10.0675259383
 20
7.189962543
 30
0.0
 11
10.0675259383
 21
7.187994039
 31
0.0
  0
LINE
  5
507
330
1F
100
AcDbEntity
  8
0
  6
Continuous
 62
     7
370
    15
100
AcDbLine
 10
10.0675259383
 20
7.189962543
 30
0.0
 11
10.0675259383
 21
7.4261830154
 31
0.0
  0
LINE
  5
508
330
1F
100
AcDbEntity
  8
0
  6
Continuous
 62
     7
370
    15
100
AcDbLine
 10
10.6187070407
 20
7.4358039173
 30
0.0
 11
10.0675259383
 21
7.4261830154
 31
0.0
  0
LINE
  5
509
330
1F
100
AcDbEntity
  8
0
  6
Continuous
 62
     7
370
    15
100
AcDbLine
 10
11.0124078281
 20
12.2647656926
 30
0.0
 11
10.0675259383
 21
12.2647656926
 31
0.0
  0
LINE
  5
50A
330
1F
100
AcDbEntity
  8
0
  6
Continuous
 62
     7
370
    15
100
AcDbLine
 10
10.0675259383
 20
12.2647656926
 30
0.0
 11
10.0675259383
 21
12.3631908894
 31
0.0
  0
LINE
  5
50B
330
1F
100
AcDbEntity
  8
0
  6
Continuous
 62
     7
370
    15
100
AcDbLine
 10
10.0675259383
 20
7.5246082123
 30
0.0
 11
11.0124078281
 21
7.5246082123
 31
0.0
  0
LINE
  5
50C
330
1F
100
AcDbEntity
  8
0
  6
Continuous
 62
     7
370
    15
100
AcDbLine
 10
10.0675259383
 20
7.4261830154
 30
0.0
 11
10.0675259383
 21
7.5246082123
 31
0.0
  0
LINE
  5
50D
330
1F
100
AcDbEntity
  8
0
  6
Continuous
 62
     7
370
    15
100
AcDbLine
 10
10.0675259383
 20
7.5246082123
 30
0.0
 11
10.0675259383
 21
12.2647656926
 31
0.0
  0
HATCH
  5
50E
330
1F
100
AcDbEntity
  8
0
  6
Continuous
 62
     7
370
     0
100
AcDbHatch
 10
0.0
 20
0.0
 30
0.0
210
0.0
220
0.0
230
1.0
  2
ANSI31
 70
     0
 71
     0
 91
        1
 92
        0
 93
        7
 72
     1
 10
11.09252219078054
 20
12.83058229271382
 11
10.12658105641539
 21
12.847442857931
 72
     1
 10
10.12658105641539
 20
12.847442857931
 11
10.12658105641545
 21
12.73751621884533
 72
     4
 94
        3
 73
     1
 74
     0
 95
       14
 96
       10
 40
0.0166730678972428
 40
0.0166730678972428
 40
0.0166730678972428
 40
0.0166730678972428
 40
0.0294703713647754
 40
0.0294703713647754
 40
0.0294703713647754
 40
0.0368379636662226
 40
0.0368379636662226
 40
0.0368379636662226
 40
0.0381771644226133
 40
0.0381771644226133
 40
0.0381771644226133
 40
0.0381771644226133
 10
10.12658105641545
 20
12.73751621884533
 42
1.0
 10
10.29449339995197
 20
12.73427532932745
 42
1.0
 10
10.4624053679678
 20
12.73101489541238
 42
1.0
 10
10.63031686377968
 20
12.72773037855124
 42
1.0
 10
10.72698593774098
 20
12.72583943474278
 42
1.0
 10
10.82365485556115
 20
12.72394048686707
 42
1.0
 10
10.92032359343083
 20
12.72203243872725
 42
1.0
 10
10.9378949847263
 20
12.7216856144983
 42
1.0
 10
10.95546637007922
 20
12.72133848906071
 42
1.0
 10
10.97303774932896
 20
12.7209910550873
 42
1.0
 72
     1
 10
10.97303774932896
 20
12.7209910550873
 11
10.97303774932878
 21
12.6472254944537
 72
     1
 10
10.97303774932878
 20
12.6472254944537
 11
11.16988814302957
 21
12.6472254944537
 72
     1
 10
11.16988814302957
 20
12.6472254944537
 11
11.16988814302957
 21
12.75185412774088
 72
     2
 10
11.09114798554925
 20
12.75185412774088
 40
0.078740157480315
 50
0.0
 51
88.99999999999952
 73
     1
 97
        0
 75
     0
 76
     1
 52
0.0
 41
1.5
 77
     0
 78
     1
 53
45.0
 43
0.0
 44
0.0
 45
-0.1325825214724776
 46
0.1325825214724777
 79
     0
 98
        1
 10
0.0
 20
0.0
  0
HATCH
  5
50F
330
1F
100
AcDbEntity
  8
0
  6
Continuous
 62
     7
370
     0
100
AcDbHatch
 10
0.0
 20
0.0
 30
0.0
210
0.0
220
0.0
230
1.0
  2
ANSI31
 70
     0
 71
     0
 91
        1
 92
        0
 93
       21
 72
     1
 10
10.61870704066738
 20
7.339538340276763
 11
11.01240782806896
 21
7.339538340276764
 72
     1
 10
11.01240782806896
 20
7.339538340276764
 11
11.01240782806896
 21
7.213615092120669
 72
     1
 10
11.01240782806896
 20
7.213615092120669
 11
10.61870704066738
 21
7.213615092120667
 72
     1
 10
10.61870704066738
 20
7.213615092120667
 11
10.61870704066738
 21
7.099189744111906
 72
     1
 10
10.61870704066738
 20
7.099189744111906
 11
10.06752593830518
 21
7.089568842182961
 72
     1
 10
10.06752593830518
 20
7.089568842182961
 11
10.06752593830518
 21
7.03051372407273
 72
     1
 10
10.06752593830518
 20
7.03051372407273
 11
10.12658105641541
 21
7.03051372407273
 72
     1
 10
10.12658105641541
 20
7.03051372407273
 11
10.12658105641541
 21
6.941931046907375
 72
     1
 10
10.12658105641541
 20
6.941931046907375
 11
11.09252219078056
 21
6.958791612124558
 72
     2
 10
11.09114798554927
 20
7.037519777097502
 40
0.078740157480315
 50
271.0000000000013
 51
360.0000000000014
 73
     1
 72
     1
 10
11.16988814302959
 20
7.037519777097502
 11
11.16988814302957
 21
12.53584919778626
 72
     1
 10
11.16988814302957
 20
12.53584919778626
 11
10.97303774932878
 21
12.53584919778626
 72
     1
 10
10.97303774932878
 20
12.53584919778626
 11
10.97303774932896
 21
12.46208363715265
 72
     4
 94
        3
 73
     1
 74
     0
 95
       11
 96
        7
 40
0.0354987652901866
 40
0.0354987652901866
 40
0.0354987652901866
 40
0.0354987652901866
 40
0.0368379659129059
 40
0.0368379659129059
 40
0.0368379659129059
 40
0.0570028600443771
 40
0.0570028600443771
 40
0.0570028600443771
 40
0.0570028600443771
 10
10.97303774932896
 20
12.46208363715265
 42
1.0
 10
10.95546637007922
 20
12.46173620317924
 42
1.0
 10
10.9378949847263
 20
12.46138907774165
 42
1.0
 10
10.92032359343083
 20
12.46104225351269
 42
1.0
 10
10.65574394502917
 20
12.45581997879296
 42
1.0
 10
10.39116296046247
 20
12.45066518980026
 42
1.0
 10
10.12658105641545
 20
12.44555847339461
 42
1.0
 72
     1
 10
10.12658105641545
 20
12.44555847339461
 11
10.1265810564154
 21
12.43790623089877
 72
     1
 10
10.1265810564154
 20
12.43790623089877
 11
10.06752593830516
 21
12.43790623089877
 72
     1
 10
10.06752593830516
 20
12.43790623089877
 11
10.06752593830437
 21
12.37469719641665
 72
     4
 94
        3
 73
     1
 74
     0
 95
       14
 96
       10
 40
0.0388318522924634
 40
0.0388318522924634
 40
0.0388318522924634
 40
0.0388318522924634
 40
0.0523100950042627
 40
0.0523100950042627
 40
0.0523100950042627
 40
0.0598115018153812
 40
0.0598115018153812
 40
0.0598115018153812
 40
0.0628358647475397
 40
0.0628358647475397
 40
0.0628358647475397
 40
0.0628358647475397
 10
10.06752593830437
 20
12.37469719641665
 42
1.0
 10
10.24437599462866
 20
12.3714522034886
 42
1.0
 10
10.42122617337799
 20
12.36821387736797
 42
1.0
 10
10.59807645931052
 20
12.36498142217275
 42
1.0
 10
10.69650367806968
 20
12.36318237744431
 42
1.0
 10
10.79493093012924
 20
12.36138515380487
 42
1.0
 10
10.89335821320122
 20
12.3595896311323
 42
1.0
 10
10.93304141315663
 20
12.35886572529018
 42
1.0
 10
10.97272461815901
 20
12.35814209606391
 42
1.0
 10
11.01240782806819
 20
12.35741873607549
 42
1.0
 72
     1
 10
11.01240782806819
 20
12.35741873607549
 11
11.01240782806896
 21
7.44267599014662
 72
     1
 10
11.01240782806896
 20
7.44267599014662
 11
10.6187070406664
 21
7.435803917340236
 72
     1
 10
10.6187070406664
 20
7.435803917340236
 11
10.61870704066738
 21
7.339538340276763
 97
        0
 75
     0
 76
     1
 52
0.0
 41
1.5
 77
     0
 78
     1
 53
45.0
 43
0.0
 44
0.0
 45
-0.1325825214724776
 46
0.1325825214724777
 79
     0
 98
        1
 10
0.0
 20
0.0
  0
HATCH
  5
510
330
1F
100
AcDbEntity
  8
0
  6
Continuous
 62
     7
370
     0
100
AcDbHatch
 10
0.0
 20
0.0
 30
0.0
210
0.0
220
0.0
230
1.0
  2
ANSI31
 70
     0
 71
     0
 91
        1
 92
        0
 93
        4
 72
     1
 10
11.16988814302957
 20
13.48768695241919
 11
11.16988814302959
 21
6.30168695241919
 72
     1
 10
11.16988814302959
 20
6.30168695241919
 11
11.25988814302959
 21
6.301686952419191
 72
     1
 10
11.25988814302959
 20
6.301686952419191
 11
11.25988814302957
 21
13.48768695241919
 72
     1
 10
11.25988814302957
 20
13.48768695241919
 11
11.16988814302957
 21
13.48768695241919
 97
        0
 75
     0
 76
     1
 52
0.0
 41
1.5
 77
     0
 78
     1
 53
45.0
 43
0.0
 44
0.0
 45
-0.1325825214724776
 46
0.1325825214724777
 79
     0
 98
        1
 10
0.0
 20
0.0
  0
DIMENSION
  5
511
330
1F
100
AcDbEntity
  8
0
  6
Continuous
 62
     7
370
     0
100
AcDbDimension
  2
_D_22
 10
11.169888143
 20
10.8281054365
 30
0.0
 11
11.8553254437
 21
10.8281054365
 31
0.0
 70
   160
  1
<>
 71
     2
 42
-1.0
  3
SLDDIMSTYLE2
100
AcDbAlignedDimension
 13
11.0124078281
 23
12.3574187361
 33
0.0
 14
11.169888143
 24
12.5358491978
 34
0.0
 50
0.0
100
AcDbRotatedDimension
  0
DIMENSION
  5
523
330
1F
100
AcDbEntity
  8
0
  6
Continuous
 62
     7
370
     0
100
AcDbDimension
  2
_D_23
 10
11.0124078281
 20
8.2752481438
 30
0.0
 11
12.0167369599
 21
8.2752481438
 31
0.0
 70
   160
  1
<>
 71
     2
 42
-1.0
  3
SLDDIMSTYLE2
100
AcDbAlignedDimension
 13
10.6187070407
 23
7.4358039173
 33
0.0
 14
11.0124078281
 24
7.4426759901
 34
0.0
 50
0.0
100
AcDbRotatedDimension
  0
MTEXT
  5
536
330
1F
100
AcDbEntity
  8
0
  6
Continuous
 62
     7
370
     0
100
AcDbMText
 10
10.590892648
 20
6.1919303128
 30
0.0
 40
0.1875
 41
0.0
 71
     2
 72
     1
  1
SECTION A-A
  7
SLDTEXTSTYLE0
 73
     1
 44
1.0
  0
ARC
  5
537
330
1F
100
AcDbEntity
  8
0
  6
Continuous
 62
     7
370
    15
100
AcDbCircle
 10
14.4853157983
 20
12.6543511736
 30
0.0
 40
0.1875849298145189
100
AcDbArc
 50
127.8902080302
 51
181.1389745278
  0
ARC
  5
538
330
1F
100
AcDbEntity
  8
0
  6
Continuous
 62
     7
370
    15
100
AcDbCircle
 10
16.6216939655
 20
12.6508963824
 30
0.0
 40
0.1957591966616704
100
AcDbArc
 50
359.9198227417
 51
50.9166318512
  0
LINE
  5
539
330
1F
100
AcDbEntity
  8
0
  6
Continuous
 62
     7
370
    15
100
AcDbLine
 10
14.2977679312
 20
7.1387514593
 30
0.0
 11
14.2977679312
 21
12.6506224455
 31
0.0
  0
ARC
  5
53A
330
1F
100
AcDbEntity
  8
0
  6
Continuous
 62
     7
370
    15
100
AcDbCircle
 10
14.4935269362
 20
7.1384775224
 30
0.0
 40
0.1957591966615655
100
AcDbArc
 50
179.9198227417
 51
230.9166318512
  0
LINE
  5
53B
330
1F
100
AcDbEntity
  8
0
  6
Continuous
 62
     7
370
    15
100
AcDbLine
 10
16.8174529705
 20
12.6506224455
 30
0.0
 11
16.8174529705
 21
7.1387514593
 31
0.0
  0
ARC
  5
53C
330
1F
100
AcDbEntity
  8
0
  6
Continuous
 62
     7
370
    15
100
AcDbCircle
 10
16.6299051034
 20
7.1350227312
 30
0.0
 40
0.1875849298147755
100
AcDbArc
 50
307.8902080302
 51
1.1389745278
  0
CIRCLE
  5
53D
330
1F
100
AcDbEntity
  8
0
  6
Continuous
 62
     7
370
    15
100
AcDbCircle
 10
16.3701104509
 20
13.1756869524
 30
0.0
 40
0.0964999999999989
  0
CIRCLE
  5
53E
330
1F
100
AcDbEntity
  8
0
  6
Continuous
 62
     7
370
    15
100
AcDbCircle
 10
16.3701104509
 20
6.6136869524
 30
0.0
 40
0.0964999999999998
  0
CIRCLE
  5
53F
330
1F
100
AcDbEntity
  8
0
  6
Continuous
 62
     7
370
    15
100
AcDbCircle
 10
14.7451104509
 20
13.1756869524
 30
0.0
 40
0.0964999999999989
  0
ARC
  5
540
330
1F
100
AcDbEntity
  8
0
  6
Continuous
 62
     7
370
    15
100
AcDbCircle
 10
14.5571104509
 20
13.3006869524
 30
0.0
 40
0.1869999999999994
100
AcDbArc
 50
90.0
 51
180.0
  0
LINE
  5
541
330
1F
100
AcDbEntity
  8
0
  6
Continuous
 62
     7
370
    15
100
AcDbLine
 10
14.5571104509
 20
13.4876869524
 30
0.0
 11
16.5581104509
 21
13.4876869524
 31
0.0
  0
ARC
  5
542
330
1F
100
AcDbEntity
  8
0
  6
Continuous
 62
     7
370
    15
100
AcDbCircle
 10
16.5581104509
 20
13.3006869524
 30
0.0
 40
0.1870000000000012
100
AcDbArc
 50
0.0
 51
90.0
  0
LINE
  5
543
330
1F
100
AcDbEntity
  8
0
  6
Continuous
 62
     7
370
    15
100
AcDbLine
 10
16.7451104509
 20
13.3006869524
 30
0.0
 11
16.7451104509
 21
6.4886869524
 31
0.0
  0
LINE
  5
544
330
1F
100
AcDbEntity
  8
0
  6
Continuous
 62
     7
370
    15
100
AcDbLine
 10
14.5571104509
 20
6.3016869524
 30
0.0
 11
16.5581104509
 21
6.3016869524
 31
0.0
  0
ARC
  5
545
330
1F
100
AcDbEntity
  8
0
  6
Continuous
 62
     7
370
    15
100
AcDbCircle
 10
14.5571104509
 20
6.4886869524
 30
0.0
 40
0.1870000000000003
100
AcDbArc
 50
180.0
 51
270.0
  0
LINE
  5
546
330
1F
100
AcDbEntity
  8
0
  6
Continuous
 62
     7
370
    15
100
AcDbLine
 10
14.3701104509
 20
13.3006869524
 30
0.0
 11
14.3701104509
 21
6.4886869524
 31
0.0
  0
CIRCLE
  5
547
330
1F
100
AcDbEntity
  8
0
  6
Continuous
 62
     7
370
    15
100
AcDbCircle
 10
14.7451104509
 20
6.6136869524
 30
0.0
 40
0.0964999999999998
  0
ARC
  5
548
330
1F
100
AcDbEntity
  8
0
  6
Continuous
 62
     7
370
    15
100
AcDbCircle
 10
16.5581104509
 20
6.4886869524
 30
0.0
 40
0.1870000000000012
100
AcDbArc
 50
270.0
 51
0.0
  0
LINE
  5
549
330
1F
100
AcDbEntity
  8
0
  6
Continuous
 62
     7
370
    15
100
AcDbLine
 10
16.8005924053
 20
7.1556120246
 30
0.0
 11
16.8005924053
 21
12.6337618803
 31
0.0
  0
LINE
  5
54A
330
1F
100
AcDbEntity
  8
0
  6
Continuous
 62
     7
370
    15
100
AcDbLine
 10
14.3146284964
 20
12.6337618803
 30
0.0
 11
14.3146284964
 21
7.1556120246
 31
0.0
  0
ELLIPSE
  5
54B
330
1F
100
AcDbEntity
  8
0
  6
Continuous
 62
     7
370
    15
100
AcDbEllipse
 10
14.4946483107
 20
7.1388114264
 30
0.0
 11
0.1392366514113341
 21
0.139236651411335
 31
0.0
210
0.0
220
0.0
230
1.0
 40
0.9996954599
 41
2.356346783439929
 42
3.242294232889539
  0
LINE
  5
54C
330
1F
100
AcDbEntity
  8
0
  6
Continuous
 62
     7
370
    15
100
AcDbLine
 10
14.2977679312
 20
7.1387514593
 30
0.0
 11
14.3146284964
 21
7.1556120246
 31
0.0
  0
LINE
  5
54D
330
1F
100
AcDbEntity
  8
0
  6
Continuous
 62
     7
370
    15
100
AcDbLine
 10
14.3146284964
 20
12.6337618803
 30
0.0
 11
14.2977679312
 21
12.6506224455
 31
0.0
  0
ELLIPSE
  5
54E
330
1F
100
AcDbEntity
  8
0
  6
Continuous
 62
     7
370
    15
100
AcDbEllipse
 10
14.4946483107
 20
12.6505624784
 30
0.0
 11
0.1392366514113341
 21
-0.1392366514113341
 31
0.0
210
0.0
220
0.0
230
1.0
 40
0.9996954599
 41
3.040891074290061
 42
3.926838523739685
  0
LINE
  5
54F
330
1F
100
AcDbEntity
  8
0
  6
Continuous
 62
     7
370
    15
100
AcDbLine
 10
16.8174529705
 20
7.1387514593
 30
0.0
 11
16.8005924053
 21
7.1556120246
 31
0.0
  0
ELLIPSE
  5
550
330
1F
100
AcDbEntity
  8
0
  6
Continuous
 62
     7
370
    15
100
AcDbEllipse
 10
16.620572591
 20
7.1388114264
 30
0.0
 11
-0.1392366514113377
 21
0.139236651411335
 31
0.0
210
0.0
220
0.0
230
1.0
 40
0.9996954599
 41
3.040891074289932
 42
3.92683852373968
  0
ELLIPSE
  5
551
330
1F
100
AcDbEntity
  8
0
  6
Continuous
 62
     7
370
    15
100
AcDbEllipse
 10
16.620572591
 20
12.6505624784
 30
0.0
 11
-0.1392366514113377
 21
-0.1392366514113359
 31
0.0
210
0.0
220
0.0
230
1.0
 40
0.9996954599
 41
2.356346783439927
 42
3.242294232889671
  0
LINE
  5
552
330
1F
100
AcDbEntity
  8
0
  6
Continuous
 62
     7
370
    15
100
AcDbLine
 10
16.8174529705
 20
12.6506224455
 30
0.0
 11
16.8005924053
 21
12.6337618803
 31
0.0
  0
LINE
  5
553
330
1F
100
AcDbEntity
  8
0
  6
Continuous
 62
     8
370
    15
100
AcDbLine
 10
16.8005924053
 20
12.6337618803
 30
0.0
 11
16.7451104509
 21
12.6337618803
 31
0.0
  0
LINE
  5
554
330
1F
100
AcDbEntity
  8
0
  6
Continuous
 62
     8
370
    15
100
AcDbLine
 10
16.8005924053
 20
7.1556120246
 30
0.0
 11
16.7451104509
 21
7.1556120246
 31
0.0
  0
LINE
  5
555
330
1F
100
AcDbEntity
  8
0
  6
Continuous
 62
     8
370
    15
100
AcDbLine
 10
14.3701104509
 20
12.6337618803
 30
0.0
 11
14.3146284964
 21
12.6337618803
 31
0.0
  0
LINE
  5
556
330
1F
100
AcDbEntity
  8
0
  6
Continuous
 62
     8
370
    15
100
AcDbLine
 10
14.3146284964
 20
7.1556120246
 30
0.0
 11
14.3701104509
 21
7.1556120246
 31
0.0
  0
ARC
  5
557
330
1F
100
AcDbEntity
  8
0
  6
Continuous
 62
     8
370
    15
100
AcDbCircle
 10
16.6063178605
 20
7.1550094029
 30
0.0
 40
0.1942754794668556
100
AcDbArc
 50
315.5949706633
 51
0.1777256233
  0
ARC
  5
558
330
1F
100
AcDbEntity
  8
0
  6
Continuous
 62
     8
370
    15
100
AcDbCircle
 10
16.6063178494
 20
12.634364504
 30
0.0
 40
0.194275490594018
100
AcDbArc
 50
359.8222737806
 51
44.405028
  0
ARC
  5
559
330
1F
100
AcDbEntity
  8
0
  6
Continuous
 62
     8
370
    15
100
AcDbCircle
 10
14.5089030594
 20
7.1550094004
 30
0.0
 40
0.1942754976369544
100
AcDbArc
 50
179.8222736506
 51
224.4050271528
  0
ARC
  5
55A
330
1F
100
AcDbEntity
  8
0
  6
Continuous
 62
     8
370
    15
100
AcDbCircle
 10
14.5089030412
 20
12.6343645019
 30
0.0
 40
0.1942754794764473
100
AcDbArc
 50
135.5949706645
 51
180.1777256235
  0
DIMENSION
  5
55B
330
1F
100
AcDbEntity
  8
0
  6
Continuous
 62
     7
370
     0
100
AcDbDimension
  2
_D_24
 10
16.7451104509
 20
14.292396068
 30
0.0
 11
15.5576104509
 21
14.292396068
 31
0.0
 70
   160
  1
<>
 71
     2
 42
-1.0
  3
SLDDIMSTYLE0
100
AcDbAlignedDimension
 13
14.3701104509
 23
13.3006869524
 33
0.0
 14
16.7451104509
 24
13.3006869524
 34
0.0
100
AcDbRotatedDimension
  0
DIMENSION
  5
56F
330
1F
100
AcDbEntity
  8
0
  6
Continuous
 62
     7
370
     0
100
AcDbDimension
  2
_D_25
 10
13.341757358
 20
6.3016869524
 30
0.0
 11
13.341757358
 21
9.8946869524
 31
0.0
 70
   160
  1
<>
 71
     2
 42
-1.0
  3
SLDDIMSTYLE0
100
AcDbAlignedDimension
 13
14.5571104509
 23
13.4876869524
 33
0.0
 14
14.5571104509
 24
6.3016869524
 34
0.0
 50
90.0
100
AcDbRotatedDimension
  0
DIMENSION
  5
583
330
1F
100
AcDbEntity
  8
0
  6
Continuous
 62
     7
370
     0
100
AcDbDimension
  2
_D_26
 10
16.2865389994
 20
6.6619369524
 30
0.0
 11
18.5410146133
 21
6.3264801699
 31
0.0
 70
   163
  1
<> (4X)\PACCEPTS #10 SCREW\P(NOT SUPPLIED)
 71
     1
 42
-1.0
  3
SLDDIMSTYLE6
100
AcDbDiametricDimension
 15
16.4536819023
 25
6.5654369524
 35
0.0
 40
0.0
  0
DIMENSION
  5
597
330
1F
100
AcDbEntity
  8
0
  6
Continuous
 62
     7
370
     0
100
AcDbDimension
  2
_D_27
 10
16.3701104509
 20
8.6172067164
 30
0.0
 11
15.4867387203
 21
8.6172067164
 31
0.0
 70
   160
  1
<>
 71
     2
 42
-1.0
  3
SLDDIMSTYLE0
100
AcDbAlignedDimension
 13
14.7451104509
 23
6.6136869524
 33
0.0
 14
16.3701104509
 24
6.6136869524
 34
0.0
100
AcDbRotatedDimension
  0
DIMENSION
  5
5AB
330
1F
100
AcDbEntity
  8
0
  6
Continuous
 62
     7
370
     0
100
AcDbDimension
  2
_D_28
 10
16.1597804996
 20
13.1756869524
 30
0.0
 11
16.1597804996
 21
9.8946869524
 31
0.0
 70
   160
  1
<>
 71
     2
 42
-1.0
  3
SLDDIMSTYLE0
100
AcDbAlignedDimension
 13
14.7451104509
 23
6.6136869524
 33
0.0
 14
14.7451104509
 24
13.1756869524
 34
0.0
 50
90.0
100
AcDbRotatedDimension
  0
LINE
  5
5BF
330
1F
100
AcDbEntity
  8
0
  6
Continuous
 62
     7
370
    15
100
AcDbLine
 10
3.2159152889
 20
2.4443135149
 30
0.0
 11
3.3030304336
 21
2.4443135149
 31
0.0
  0
LINE
  5
5C0
330
1F
100
AcDbEntity
  8
0
  6
Continuous
 62
     7
370
    15
100
AcDbLine
 10
5.5767978544
 20
2.7395891054
 30
0.0
 11
3.2256124351
 21
2.7395891054
 31
0.0
  0
LINE
  5
5C1
330
1F
100
AcDbEntity
  8
0
  6
Continuous
 62
     7
370
    15
100
AcDbLine
 10
5.4993798559
 20
2.4443135149
 30
0.0
 11
5.5864950006
 21
2.4443135149
 31
0.0
  0
LINE
  5
5C2
330
1F
100
AcDbEntity
  8
0
  6
Continuous
 62
     7
370
    15
100
AcDbLine
 10
3.3600527979
 20
2.5821087905
 30
0.0
 11
5.4423574916
 21
2.5821087905
 31
0.0
  0
LINE
  5
5C3
330
1F
100
AcDbEntity
  8
0
  6
Continuous
 62
     7
370
    15
100
AcDbLine
 10
3.3030304336
 20
2.4443135149
 30
0.0
 11
3.3047484518
 21
2.345888318
 31
0.0
  0
LINE
  5
5C4
330
1F
100
AcDbEntity
  8
0
  6
Continuous
 62
     7
370
    15
100
AcDbLine
 10
5.4976618377
 20
2.345888318
 30
0.0
 11
5.4993798559
 21
2.4443135149
 31
0.0
  0
LINE
  5
5C5
330
1F
100
AcDbEntity
  8
0
  6
Continuous
 62
     7
370
    15
100
AcDbLine
 10
3.3559295542
 20
2.345888318
 30
0.0
 11
3.3600527979
 21
2.5821087905
 31
0.0
  0
LINE
  5
5C6
330
1F
100
AcDbEntity
  8
0
  6
Continuous
 62
     7
370
    15
100
AcDbLine
 10
3.2141972707
 20
2.345888318
 30
0.0
 11
3.1413626251
 21
2.345888318
 31
0.0
  0
LINE
  5
5C7
330
1F
100
AcDbEntity
  8
0
  6
Continuous
 62
     7
370
    15
100
AcDbLine
 10
5.6610476644
 20
2.345888318
 30
0.0
 11
5.5882130188
 21
2.345888318
 31
0.0
  0
LINE
  5
5C8
330
1F
100
AcDbEntity
  8
0
  6
Continuous
 62
     7
370
    15
100
AcDbLine
 10
5.5864950006
 20
2.4443135149
 30
0.0
 11
5.5882130188
 21
2.345888318
 31
0.0
  0
LINE
  5
5C9
330
1F
100
AcDbEntity
  8
0
  6
Continuous
 62
     7
370
    15
100
AcDbLine
 10
5.4423574916
 20
2.5821087905
 30
0.0
 11
5.4464807353
 21
2.345888318
 31
0.0
  0
LINE
  5
5CA
330
1F
100
AcDbEntity
  8
0
  6
Continuous
 62
     7
370
    15
100
AcDbLine
 10
3.2141972707
 20
2.345888318
 30
0.0
 11
3.2159152889
 21
2.4443135149
 31
0.0
  0
LINE
  5
5CB
330
1F
100
AcDbEntity
  8
0
  6
Continuous
 62
     7
370
    15
100
AcDbLine
 10
3.3559295542
 20
2.345888318
 30
0.0
 11
3.3047484518
 21
2.345888318
 31
0.0
  0
LINE
  5
5CC
330
1F
100
AcDbEntity
  8
0
  6
Continuous
 62
     7
370
    15
100
AcDbLine
 10
5.4976618377
 20
2.345888318
 30
0.0
 11
5.4464807353
 21
2.345888318
 31
0.0
  0
ARC
  5
5CD
330
1F
100
AcDbEntity
  8
0
  6
Continuous
 62
     7
370
    15
100
AcDbCircle
 10
3.2256124351
 20
2.660848948
 30
0.0
 40
0.0787401574803153
100
AcDbArc
 50
90.0000000002
 51
179.0
  0
ARC
  5
5CE
330
1F
100
AcDbEntity
  8
0
  6
Continuous
 62
     7
370
    15
100
AcDbCircle
 10
5.5767978544
 20
2.660848948
 30
0.0
 40
0.0787401574803153
100
AcDbArc
 50
1.0
 51
90.0
  0
LINE
  5
5CF
330
1F
100
AcDbEntity
  8
0
  6
Continuous
 62
     7
370
    15
100
AcDbLine
 10
5.6610476644
 20
2.345888318
 30
0.0
 11
5.6555260193
 21
2.6622231532
 31
0.0
  0
LINE
  5
5D0
330
1F
100
AcDbEntity
  8
0
  6
Continuous
 62
     7
370
    15
100
AcDbLine
 10
3.1468842701
 20
2.6622231532
 30
0.0
 11
3.1413626251
 21
2.345888318
 31
0.0
  0
LINE
  5
5D1
330
1F
100
AcDbEntity
  8
0
  6
Continuous
 62
     7
370
    15
100
AcDbLine
 10
5.4149846723
 20
2.345888318
 30
0.0
 11
5.4149846723
 21
2.5821087905
 31
0.0
  0
LINE
  5
5D2
330
1F
100
AcDbEntity
  8
0
  6
Continuous
 62
     7
370
    15
100
AcDbLine
 10
5.4464807353
 20
2.345888318
 30
0.0
 11
5.4149846723
 21
2.345888318
 31
0.0
  0
LINE
  5
5D3
330
1F
100
AcDbEntity
  8
0
  6
Continuous
 62
     7
370
    15
100
AcDbLine
 10
3.3874256172
 20
2.5821087905
 30
0.0
 11
3.3874256172
 21
2.345888318
 31
0.0
  0
LINE
  5
5D4
330
1F
100
AcDbEntity
  8
0
  6
Continuous
 62
     7
370
    15
100
AcDbLine
 10
3.3874256172
 20
2.345888318
 30
0.0
 11
3.3559295542
 21
2.345888318
 31
0.0
  0
LINE
  5
5D5
330
1F
100
AcDbEntity
  8
0
  6
Continuous
 62
     7
370
    15
100
AcDbLine
 10
5.4130161684
 20
2.345888318
 30
0.0
 11
5.4130161684
 21
2.5821087905
 31
0.0
  0
LINE
  5
5D6
330
1F
100
AcDbEntity
  8
0
  6
Continuous
 62
     7
370
    15
100
AcDbLine
 10
5.4130161684
 20
2.345888318
 30
0.0
 11
5.4149846723
 21
2.345888318
 31
0.0
  0
LINE
  5
5D7
330
1F
100
AcDbEntity
  8
0
  6
Continuous
 62
     7
370
    15
100
AcDbLine
 10
3.6925437274
 20
2.345888318
 30
0.0
 11
3.6925437274
 21
2.5821087905
 31
0.0
  0
LINE
  5
5D8
330
1F
100
AcDbEntity
  8
0
  6
Continuous
 62
     7
370
    15
100
AcDbLine
 10
3.3874256172
 20
2.345888318
 30
0.0
 11
3.6925437274
 21
2.345888318
 31
0.0
  0
LINE
  5
5D9
330
1F
100
AcDbEntity
  8
0
  6
Continuous
 62
     7
370
    15
100
AcDbLine
 10
3.9956933337
 20
2.345888318
 30
0.0
 11
3.9998165774
 21
2.5821087905
 31
0.0
  0
LINE
  5
5DA
330
1F
100
AcDbEntity
  8
0
  6
Continuous
 62
     7
370
    15
100
AcDbLine
 10
3.6925437274
 20
2.345888318
 30
0.0
 11
3.9956933337
 21
2.345888318
 31
0.0
  0
LINE
  5
5DB
330
1F
100
AcDbEntity
  8
0
  6
Continuous
 62
     7
370
    15
100
AcDbLine
 10
5.1057433184
 20
2.5821087905
 30
0.0
 11
5.1098665621
 21
2.345888318
 31
0.0
  0
LINE
  5
5DC
330
1F
100
AcDbEntity
  8
0
  6
Continuous
 62
     7
370
    15
100
AcDbLine
 10
5.1098665621
 20
2.345888318
 30
0.0
 11
5.4130161684
 21
2.345888318
 31
0.0
  0
LINE
  5
5DD
330
1F
100
AcDbEntity
  8
0
  6
Continuous
 62
     7
370
    15
100
AcDbLine
 10
4.0271893967
 20
2.5821087905
 30
0.0
 11
4.0271893967
 21
2.345888318
 31
0.0
  0
LINE
  5
5DE
330
1F
100
AcDbEntity
  8
0
  6
Continuous
 62
     7
370
    15
100
AcDbLine
 10
4.0271893967
 20
2.345888318
 30
0.0
 11
3.9956933337
 21
2.345888318
 31
0.0
  0
LINE
  5
5DF
330
1F
100
AcDbEntity
  8
0
  6
Continuous
 62
     7
370
    15
100
AcDbLine
 10
5.0783704991
 20
2.345888318
 30
0.0
 11
5.0783704991
 21
2.5821087905
 31
0.0
  0
LINE
  5
5E0
330
1F
100
AcDbEntity
  8
0
  6
Continuous
 62
     7
370
    15
100
AcDbLine
 10
5.1098665621
 20
2.345888318
 30
0.0
 11
5.0783704991
 21
2.345888318
 31
0.0
  0
LINE
  5
5E1
330
1F
100
AcDbEntity
  8
0
  6
Continuous
 62
     7
370
    15
100
AcDbLine
 10
4.0271893967
 20
2.345888318
 30
0.0
 11
5.0783704991
 21
2.345888318
 31
0.0
  0
LINE
  5
5E2
330
1F
100
AcDbEntity
  8
0
  6
Continuous
 62
     7
370
    15
100
AcDbLine
 10
3.2137051447
 20
1.2125812314
 30
0.0
 11
5.5887051447
 21
1.2125812314
 31
0.0
  0
LINE
  5
5E3
330
1F
100
AcDbEntity
  8
0
  6
Continuous
 62
     7
370
    15
100
AcDbLine
 10
3.2137051447
 20
1.2125812314
 30
0.0
 11
3.2137051447
 21
1.3025812314
 31
0.0
  0
LINE
  5
5E4
330
1F
100
AcDbEntity
  8
0
  6
Continuous
 62
     7
370
    15
100
AcDbLine
 10
3.2137051447
 20
1.3025812314
 30
0.0
 11
5.5887051447
 21
1.3025812314
 31
0.0
  0
LINE
  5
5E5
330
1F
100
AcDbEntity
  8
0
  6
Continuous
 62
     7
370
    15
100
AcDbLine
 10
5.5887051447
 20
1.3025812314
 30
0.0
 11
5.5887051447
 21
1.2125812314
 31
0.0
  0
LINE
  5
5E6
330
1F
100
AcDbEntity
  8
0
  6
Continuous
 62
     7
370
    15
100
AcDbLine
 10
5.5724649873
 20
2.4049434362
 30
0.0
 11
5.5134098692
 21
2.4049434362
 31
0.0
  0
LINE
  5
5E7
330
1F
100
AcDbEntity
  8
0
  6
Continuous
 62
     7
370
    15
100
AcDbLine
 10
5.5724649873
 20
2.4049434362
 30
0.0
 11
5.5724649873
 21
2.345888318
 31
0.0
  0
LINE
  5
5E8
330
1F
100
AcDbEntity
  8
0
  6
Continuous
 62
     7
370
    15
100
AcDbLine
 10
5.6610476644
 20
2.345888318
 30
0.0
 11
5.5724649873
 21
2.345888318
 31
0.0
  0
LINE
  5
5E9
330
1F
100
AcDbEntity
  8
0
  6
Continuous
 62
     7
370
    15
100
AcDbLine
 10
3.2299453022
 20
2.345888318
 30
0.0
 11
3.1413626251
 21
2.345888318
 31
0.0
  0
LINE
  5
5EA
330
1F
100
AcDbEntity
  8
0
  6
Continuous
 62
     7
370
    15
100
AcDbLine
 10
3.2299453022
 20
2.345888318
 30
0.0
 11
3.2299453022
 21
2.4049434362
 31
0.0
  0
LINE
  5
5EB
330
1F
100
AcDbEntity
  8
0
  6
Continuous
 62
     7
370
    15
100
AcDbLine
 10
3.2890004203
 20
2.4049434362
 30
0.0
 11
3.2299453022
 21
2.4049434362
 31
0.0
  0
LINE
  5
5EC
330
1F
100
AcDbEntity
  8
0
  6
Continuous
 62
     7
370
    15
100
AcDbLine
 10
3.3054933951
 20
1.4600615464
 30
0.0
 11
3.2890004203
 21
2.4049434362
 31
0.0
  0
LINE
  5
5ED
330
1F
100
AcDbEntity
  8
0
  6
Continuous
 62
     7
370
    15
100
AcDbLine
 10
5.4969168944
 20
1.4600615464
 30
0.0
 11
3.3054933951
 21
1.4600615464
 31
0.0
  0
LINE
  5
5EE
330
1F
100
AcDbEntity
  8
0
  6
Continuous
 62
     7
370
    15
100
AcDbLine
 10
5.5134098692
 20
2.4049434362
 30
0.0
 11
5.4969168944
 21
1.4600615464
 31
0.0
  0
LINE
  5
5EF
330
1F
100
AcDbEntity
  8
0
  6
Continuous
 62
     7
370
    15
100
AcDbLine
 10
3.1413626251
 20
2.345888318
 30
0.0
 11
3.1582231903
 21
1.3799471837
 31
0.0
  0
LINE
  5
5F0
330
1F
100
AcDbEntity
  8
0
  6
Continuous
 62
     7
370
    15
100
AcDbLine
 10
5.6441870992
 20
1.3799471837
 30
0.0
 11
5.6610476644
 21
2.345888318
 31
0.0
  0
ARC
  5
5F1
330
1F
100
AcDbEntity
  8
0
  6
Continuous
 62
     7
370
    15
100
AcDbCircle
 10
3.2369513552
 20
1.3813213889
 30
0.0
 40
0.078740157480315
100
AcDbArc
 50
181.0
 51
270.0
  0
ARC
  5
5F2
330
1F
100
AcDbEntity
  8
0
  6
Continuous
 62
     7
370
    15
100
AcDbCircle
 10
5.5654589342
 20
1.3813213889
 30
0.0
 40
0.0787401574803153
100
AcDbArc
 50
270.0
 51
359.0
  0
LINE
  5
5F3
330
1F
100
AcDbEntity
  8
0
  6
Continuous
 62
     7
370
    15
100
AcDbLine
 10
5.5654589342
 20
1.3025812314
 30
0.0
 11
3.2369513552
 21
1.3025812314
 31
0.0
  0
LINE
  5
5F4
330
1F
100
AcDbEntity
  8
0
  6
Continuous
 62
     7
370
    15
100
AcDbLine
 10
3.2890004203
 20
2.4049434362
 30
0.0
 11
3.3037176409
 21
2.4049434362
 31
0.0
  0
LINE
  5
5F5
330
1F
100
AcDbEntity
  8
0
  6
Continuous
 62
     7
370
    15
100
AcDbLine
 10
5.4986926486
 20
2.4049434362
 30
0.0
 11
5.5134098692
 21
2.4049434362
 31
0.0
  0
LINE
  5
5F6
330
1F
100
AcDbEntity
  8
0
  6
Continuous
 62
     7
370
    15
100
AcDbLine
 10
4.8965231936
 20
1.4600615464
 30
0.0
 11
4.9033952664
 21
1.8537623338
 31
0.0
  0
LINE
  5
5F7
330
1F
100
AcDbEntity
  8
0
  6
Continuous
 62
     7
370
    15
100
AcDbLine
 10
4.9033952664
 20
1.8537623338
 30
0.0
 11
5.0293603304
 21
1.8537623338
 31
0.0
  0
LINE
  5
5F8
330
1F
100
AcDbEntity
  8
0
  6
Continuous
 62
     7
370
    15
100
AcDbLine
 10
5.0293603304
 20
1.8537623338
 30
0.0
 11
5.0224882576
 21
1.4600615464
 31
0.0
  0
LINE
  5
5F9
330
1F
100
AcDbEntity
  8
0
  6
Continuous
 62
     7
370
    15
100
AcDbLine
 10
5.4130161684
 20
1.8537623338
 30
0.0
 11
5.0293603304
 21
1.8537623338
 31
0.0
  0
LINE
  5
5FA
330
1F
100
AcDbEntity
  8
0
  6
Continuous
 62
     7
370
    15
100
AcDbLine
 10
3.9452571746
 20
1.4600615464
 30
0.0
 11
3.9297950108
 21
2.3458883181
 31
0.0
  0
LINE
  5
5FB
330
1F
100
AcDbEntity
  8
0
  6
Continuous
 62
     7
370
    15
100
AcDbLine
 10
5.175764885
 20
2.3458883181
 30
0.0
 11
5.167174794
 21
1.8537623338
 31
0.0
  0
LINE
  5
5FC
330
1F
100
AcDbEntity
  8
0
  6
Continuous
 62
     8
370
    15
100
AcDbLine
 10
3.3874256172
 20
2.345888318
 30
0.0
 11
3.3874256172
 21
1.4600615464
 31
0.0
  0
LINE
  5
5FD
330
1F
100
AcDbEntity
  8
0
  6
Continuous
 62
     8
370
    15
100
AcDbLine
 10
5.4149846723
 20
1.4600615464
 30
0.0
 11
5.4149846723
 21
2.345888318
 31
0.0
  0
LINE
  5
5FE
330
1F
100
AcDbEntity
  8
0
  6
Continuous
 62
     8
370
    15
100
AcDbLine
 10
5.4130161684
 20
1.8537623338
 30
0.0
 11
5.4130161684
 21
2.3458883181
 31
0.0
  0
LINE
  5
5FF
330
1F
100
AcDbEntity
  8
0
  6
Continuous
 62
     8
370
    15
100
AcDbLine
 10
3.6925437274
 20
2.3458883181
 30
0.0
 11
3.6925437274
 21
1.4600615464
 31
0.0
  0
LINE
  5
600
330
1F
100
AcDbEntity
  8
0
  6
Continuous
 62
     8
370
    15
100
AcDbLine
 10
4.0271893967
 20
2.345888318
 30
0.0
 11
4.0271893967
 21
1.4600615464
 31
0.0
  0
LINE
  5
601
330
1F
100
AcDbEntity
  8
0
  6
Continuous
 62
     8
370
    15
100
AcDbLine
 10
5.0783704991
 20
1.8537623338
 30
0.0
 11
5.0783704991
 21
2.345888318
 31
0.0
  0
HATCH
  5
602
330
1F
100
AcDbEntity
  8
0
  6
Continuous
 62
     7
370
     0
100
AcDbHatch
 10
0.0
 20
0.0
 30
0.0
210
0.0
220
0.0
230
1.0
  2
ANSI31
 70
     0
 71
     0
 91
        1
 92
        0
 93
       14
 72
     1
 10
5.513409869154309
 20
2.404943436155968
 11
5.496916894418962
 21
1.460061546391074
 72
     1
 10
5.496916894418962
 20
1.460061546391074
 11
3.305493395070751
 21
1.460061546391066
 72
     1
 10
3.305493395070751
 20
1.460061546391066
 11
3.289000420335397
 21
2.404943436155961
 72
     1
 10
3.289000420335397
 20
2.404943436155961
 11
3.229945302225168
 21
2.40494343615596
 72
     1
 10
3.229945302225168
 20
2.40494343615596
 11
3.229945302225168
 21
2.345888318045724
 72
     1
 10
3.229945302225168
 20
2.345888318045724
 11
3.141362625059815
 21
2.345888318045724
 72
     1
 10
3.141362625059815
 20
2.345888318045724
 11
3.158223190276997
 21
1.379947183680583
 72
     2
 10
3.236951355249941
 20
1.381321388911865
 40
0.0787401574803149
 50
181.0000000000013
 51
270.0000000000011
 73
     1
 72
     1
 10
3.236951355249942
 20
1.302581231431551
 11
5.565458934239772
 21
1.302581231431559
 72
     2
 10
5.565458934239772
 20
1.381321388911873
 40
0.0787401574803149
 50
270.0000000000008
 51
359.000000000001
 73
     1
 72
     1
 10
5.644187099212716
 20
1.379947183680591
 11
5.661047664429892
 21
2.345888318045732
 72
     1
 10
5.661047664429892
 20
2.345888318045732
 11
5.572464987264539
 21
2.345888318045732
 72
     1
 10
5.572464987264539
 20
2.345888318045732
 11
5.572464987264539
 21
2.404943436155968
 72
     1
 10
5.572464987264539
 20
2.404943436155968
 11
5.513409869154309
 21
2.404943436155968
 97
        0
 75
     0
 76
     1
 52
0.0
 41
1.5
 77
     0
 78
     1
 53
45.0
 43
0.0
 44
0.0
 45
-0.1325825214724776
 46
0.1325825214724777
 79
     0
 98
        1
 10
0.0
 20
0.0
  0
HATCH
  5
603
330
1F
100
AcDbEntity
  8
0
  6
Continuous
 62
     7
370
     0
100
AcDbHatch
 10
0.0
 20
0.0
 30
0.0
210
0.0
220
0.0
230
1.0
  2
ANSI31
 70
     0
 71
     0
 91
        1
 92
        0
 93
        4
 72
     1
 10
5.588705144744857
 20
1.212581231431559
 11
5.588705144744856
 21
1.302581231431559
 72
     1
 10
5.588705144744856
 20
1.302581231431559
 11
3.213705144744857
 21
1.30258123143155
 72
     1
 10
3.213705144744857
 20
1.30258123143155
 11
3.213705144744857
 21
1.21258123143155
 72
     1
 10
3.213705144744857
 20
1.21258123143155
 11
5.588705144744857
 21
1.212581231431559
 97
        0
 75
     0
 76
     1
 52
0.0
 41
1.5
 77
     0
 78
     1
 53
45.0
 43
0.0
 44
0.0
 45
-0.1325825214724776
 46
0.1325825214724777
 79
     0
 98
        1
 10
0.0
 20
0.0
  0
HATCH
  5
604
330
1F
100
AcDbEntity
  8
0
  6
Continuous
 62
     7
370
     0
100
AcDbHatch
 10
0.0
 20
0.0
 30
0.0
210
0.0
220
0.0
230
1.0
  2
ANSI31
 70
     0
 71
     0
 91
        1
 92
        0
 93
       18
 72
     1
 10
3.355929554193672
 20
2.345888318045724
 11
3.360052797877502
 21
2.582108790486669
 72
     1
 10
3.360052797877502
 20
2.582108790486669
 11
5.442357491612203
 21
2.582108790486676
 72
     1
 10
5.442357491612203
 20
2.582108790486676
 11
5.446480735296033
 21
2.345888318045732
 72
     1
 10
5.446480735296033
 20
2.345888318045732
 11
5.497661837658239
 21
2.345888318045732
 72
     1
 10
5.497661837658239
 20
2.345888318045732
 11
5.499379855859836
 21
2.444313514896125
 72
     1
 10
5.499379855859836
 20
2.444313514896125
 11
5.586495000559005
 21
2.444313514896126
 72
     1
 10
5.586495000559005
 20
2.444313514896126
 11
5.588213018760602
 21
2.345888318045732
 72
     1
 10
5.588213018760602
 20
2.345888318045732
 11
5.661047664429892
 21
2.345888318045732
 72
     1
 10
5.661047664429892
 20
2.345888318045732
 11
5.655526019343246
 21
2.662223153198274
 72
     2
 10
5.576797854370303
 20
2.660848947966992
 40
0.0787401574803149
 50
1.000000000000176
 51
90.0
 73
     1
 72
     1
 10
5.576797854370303
 20
2.739589105447306
 11
3.225612435119166
 21
2.739589105447298
 72
     2
 10
3.225612435119402
 20
2.660848947966984
 40
0.0787401574803149
 50
90.00000000017192
 51
179.0000000000005
 73
     1
 72
     1
 10
3.146884270146457
 20
2.662223153198265
 11
3.141362625059815
 21
2.345888318045724
 72
     1
 10
3.141362625059815
 20
2.345888318045724
 11
3.214197270729105
 21
2.345888318045724
 72
     1
 10
3.214197270729105
 20
2.345888318045724
 11
3.215915288930701
 21
2.444313514896117
 72
     1
 10
3.215915288930701
 20
2.444313514896117
 11
3.30303043362987
 21
2.444313514896117
 72
     1
 10
3.30303043362987
 20
2.444313514896117
 11
3.304748451831467
 21
2.345888318045724
 72
     1
 10
3.304748451831467
 20
2.345888318045724
 11
3.355929554193672
 21
2.345888318045724
 97
        0
 75
     0
 76
     1
 52
0.0
 41
1.5
 77
     0
 78
     1
 53
45.0
 43
0.0
 44
0.0
 45
-0.1325825214724776
 46
0.1325825214724777
 79
     0
 98
        1
 10
0.0
 20
0.0
  0
DIMENSION
  5
605
330
1F
100
AcDbEntity
  8
0
  6
Continuous
 62
     7
370
     0
100
AcDbDimension
  2
_D_29
 10
4.304453244
 20
2.5821087905
 30
0.0
 11
4.304453244
 21
3.3394145695
 31
0.0
 70
   160
  1
<>
 71
     2
 42
-1.0
  3
SLDDIMSTYLE0
100
AcDbAlignedDimension
 13
3.3054933951
 23
1.4600615464
 33
0.0
 14
3.3600527979
 24
2.5821087905
 34
0.0
 50
90.0
100
AcDbRotatedDimension
  0
DIMENSION
  5
618
330
1F
100
AcDbEntity
  8
0
  6
Continuous
 62
     7
370
     0
100
AcDbDimension
  2
_D_30
 10
4.7374259917
 20
2.7395891054
 30
0.0
 11
4.7374259917
 21
3.3394145695
 31
0.0
 70
   160
  1
<>
 71
     2
 42
-1.0
  3
SLDDIMSTYLE2
100
AcDbAlignedDimension
 13
5.4423574916
 23
2.5821087905
 33
0.0
 14
5.5767978544
 24
2.7395891054
 34
0.0
 50
90.0
100
AcDbRotatedDimension
  0
DIMENSION
  5
62B
330
1F
100
AcDbEntity
  8
0
  6
Continuous
 62
     7
370
     0
100
AcDbDimension
  2
_D_31
 10
6.9713889463
 20
2.7395891054
 30
0.0
 11
6.9713889463
 21
2.0210851684
 31
0.0
 70
   160
  1
<>
 71
     2
 42
-1.0
  3
SLDDIMSTYLE0
100
AcDbAlignedDimension
 13
5.5654589342
 23
1.3025812314
 33
0.0
 14
5.5767978544
 24
2.7395891054
 34
0.0
 50
90.0
100
AcDbRotatedDimension
  0
DIMENSION
  5
63F
330
1F
100
AcDbEntity
  8
0
  6
Continuous
 62
     7
370
     0
100
AcDbDimension
  2
_D_32
 10
6.3330269566
 20
2.7395891054
 30
0.0
 11
6.3330269566
 21
3.3394145695
 31
0.0
 70
   160
  1
<> COVER
 71
     2
 42
-1.0
  3
SLDDIMSTYLE2
100
AcDbAlignedDimension
 13
5.6610476644
 23
2.345888318
 33
0.0
 14
5.5767978544
 24
2.7395891054
 34
0.0
 50
90.0
100
AcDbRotatedDimension
  0
DIMENSION
  5
653
330
1F
100
AcDbEntity
  8
0
  6
Continuous
 62
     7
370
     0
100
AcDbDimension
  2
_D_33
 10
2.0649369753
 20
2.7395891054
 30
0.0
 11
2.0649369753
 21
1.9760851684
 31
0.0
 70
   160
  1
<>
 71
     2
 42
-1.0
  3
SLDDIMSTYLE0
100
AcDbAlignedDimension
 13
3.2137051447
 23
1.2125812314
 33
0.0
 14
3.2256124351
 24
2.7395891054
 34
0.0
 50
90.0
100
AcDbRotatedDimension
  0
MTEXT
  5
667
330
1F
100
AcDbEntity
  8
0
  6
Continuous
 62
     7
370
     0
100
AcDbMText
 10
4.4281912063
 20
1.0200500506
 30
0.0
 40
0.1875
 41
0.0
 71
     2
 72
     1
  1
SECTION B-B
  7
SLDTEXTSTYLE0
 73
     1
 44
1.0
  0
ENDSEC
  0
SECTION
  2
OBJECTS
  0
DICTIONARY
  5
C
330
0
100
AcDbDictionary
281
     1
  3
ACAD_GROUP
350
D
  3
ACAD_LAYOUT
350
1A
  3
ACAD_MLINESTYLE
350
17
  3
ACAD_PLOTSETTINGS
350
19
  3
ACAD_PLOTSTYLENAME
350
E
  3
ACAD_SCALELIST
350
47
  0
DICTIONARY
  5
D
102
{ACAD_REACTORS
330
C
102
}
330
C
100
AcDbDictionary
281
     1
  0
DICTIONARY
  5
1A
102
{ACAD_REACTORS
330
C
102
}
330
C
100
AcDbDictionary
281
     1
  3
Layout1
350
1E
  3
Layout2
350
26
  3
Model
350
22
  0
DICTIONARY
  5
17
102
{ACAD_REACTORS
330
C
102
}
330
C
100
AcDbDictionary
281
     1
  3
Standard
350
18
  0
DICTIONARY
  5
19
102
{ACAD_REACTORS
330
C
102
}
330
C
100
AcDbDictionary
281
     1
  0
ACDBDICTIONARYWDFLT
  5
E
102
{ACAD_REACTORS
330
C
102
}
330
C
100
AcDbDictionary
281
     1
  3
Normal
350
F
100
AcDbDictionaryWithDefault
340
F
  0
DICTIONARY
  5
47
102
{ACAD_REACTORS
330
C
102
}
330
C
100
AcDbDictionary
281
     1
  3
A0
350
48
  3
A1
350
49
  3
A2
350
4A
  3
A3
350
4B
  3
A4
350
4C
  3
A5
350
4D
  3
A6
350
4E
  3
A7
350
4F
  3
A8
350
50
  3
A9
350
51
  3
B0
350
52
  3
B1
350
53
  3
B2
350
54
  3
B3
350
55
  3
B4
350
56
  3
B5
350
57
  3
B6
350
58
  3
B7
350
59
  3
B8
350
5A
  3
B9
350
5B
  3
C0
350
5C
  3
C1
350
5D
  3
C2
350
5E
  3
C3
350
5F
  3
C4
350
60
  3
C5
350
61
  3
C6
350
62
  3
C7
350
63
  3
C8
350
64
  3
C9
350
65
  3
D0
350
66
  3
D1
350
67
  3
D2
350
68
  0
LAYOUT
  5
1E
102
{ACAD_REACTORS
330
1A
102
}
330
1A
100
AcDbPlotSettings
  1

  2
none_device
  4

  6

 40
0.0
 41
0.0
 42
0.0
 43
0.0
 44
0.0
 45
0.0
 46
0.0
 47
0.0
 48
0.0
 49
0.0
140
0.0
141
0.0
142
1.0
143
1.0
 70
   688
 72
     0
 73
     0
 74
     5
  7

 75
    16
147
1.0
148
0.0
149
0.0
100
AcDbLayout
  1
Layout1
 70
     1
 71
     1
 10
0.0
 20
0.0
 11
12.0
 21
9.0
 12
0.0
 22
0.0
 32
0.0
 14
1.0000000000E+20
 24
1.0000000000E+20
 34
1.0000000000E+20
 15
-1.0000000000E+20
 25
-1.0000000000E+20
 35
-1.0000000000E+20
146
0.0
 13
0.0
 23
0.0
 33
0.0
 16
1.0
 26
0.0
 36
0.0
 17
0.0
 27
1.0
 37
0.0
 76
     0
330
1B
  0
LAYOUT
  5
26
102
{ACAD_REACTORS
330
1A
102
}
330
1A
100
AcDbPlotSettings
  1

  2
none_device
  4

  6

 40
0.0
 41
0.0
 42
0.0
 43
0.0
 44
0.0
 45
0.0
 46
0.0
 47
0.0
 48
0.0
 49
0.0
140
0.0
141
0.0
142
1.0
143
1.0
 70
   688
 72
     0
 73
     0
 74
     5
  7

 75
    16
147
1.0
148
0.0
149
0.0
100
AcDbLayout
  1
Layout2
 70
     1
 71
     2
 10
0.0
 20
0.0
 11
0.0
 21
0.0
 12
0.0
 22
0.0
 32
0.0
 14
0.0
 24
0.0
 34
0.0
 15
0.0
 25
0.0
 35
0.0
146
0.0
 13
0.0
 23
0.0
 33
0.0
 16
1.0
 26
0.0
 36
0.0
 17
0.0
 27
1.0
 37
0.0
 76
     0
330
23
  0
LAYOUT
  5
22
102
{ACAD_REACTORS
330
1A
102
}
330
1A
100
AcDbPlotSettings
  1

  2
none_device
  4
Letter_(8.50_x_11.00_Inches)
  6

 40
6.35
 41
6.35
 42
6.35000508
 43
6.35000508
 44
215.9
 45
279.4
 46
0.0
 47
0.0
 48
0.0
 49
0.0
140
0.0
141
0.0
142
1.0
143
1.0
 70
  1712
 72
     0
 73
     0
 74
     0
  7

 75
     0
147
1.0
148
0.0
149
0.0
100
AcDbLayout
  1
Model
 70
     1
 71
     0
 10
0.0
 20
0.0
 11
25.5
 21
16.5
 12
0.0
 22
0.0
 32
0.0
 14
0.0
 24
0.0
 34
0.0
 15
25.5
 25
16.5
 35
0.0
146
0.0
 13
0.0
 23
0.0
 33
0.0
 16
1.0
 26
0.0
 36
0.0
 17
0.0
 27
1.0
 37
0.0
 76
     0
330
1F
331
29
  0
MLINESTYLE
  5
18
102
{ACAD_REACTORS
330
17
102
}
330
17
100
AcDbMlineStyle
  2
Standard
 70
     0
  3

 62
   256
 51
90.0
 52
90.0
 71
     2
 49
0.5
 62
   256
  6
BYLAYER
 49
-0.5
 62
   256
  6
BYLAYER
  0
ACDBPLACEHOLDER
  5
F
102
{ACAD_REACTORS
330
E
102
}
330
E
  0
SCALE
  5
48
102
{ACAD_REACTORS
330
47
102
}
330
47
100
AcDbScale
 70
     0
300
1:1
140
1.0
141
1.0
290
     1
  0
SCALE
  5
49
102
{ACAD_REACTORS
330
47
102
}
330
47
100
AcDbScale
 70
     0
300
1:2
140
1.0
141
2.0
290
     0
  0
SCALE
  5
4A
102
{ACAD_REACTORS
330
47
102
}
330
47
100
AcDbScale
 70
     0
300
1:4
140
1.0
141
4.0
290
     0
  0
SCALE
  5
4B
102
{ACAD_REACTORS
330
47
102
}
330
47
100
AcDbScale
 70
     0
300
1:5
140
1.0
141
5.0
290
     0
  0
SCALE
  5
4C
102
{ACAD_REACTORS
330
47
102
}
330
47
100
AcDbScale
 70
     0
300
1:8
140
1.0
141
8.0
290
     0
  0
SCALE
  5
4D
102
{ACAD_REACTORS
330
47
102
}
330
47
100
AcDbScale
 70
     0
300
1:10
140
1.0
141
10.0
290
     0
  0
SCALE
  5
4E
102
{ACAD_REACTORS
330
47
102
}
330
47
100
AcDbScale
 70
     0
300
1:16
140
1.0
141
16.0
290
     0
  0
SCALE
  5
4F
102
{ACAD_REACTORS
330
47
102
}
330
47
100
AcDbScale
 70
     0
300
1:20
140
1.0
141
20.0
290
     0
  0
SCALE
  5
50
102
{ACAD_REACTORS
330
47
102
}
330
47
100
AcDbScale
 70
     0
300
1:30
140
1.0
141
30.0
290
     0
  0
SCALE
  5
51
102
{ACAD_REACTORS
330
47
102
}
330
47
100
AcDbScale
 70
     0
300
1:40
140
1.0
141
40.0
290
     0
  0
SCALE
  5
52
102
{ACAD_REACTORS
330
47
102
}
330
47
100
AcDbScale
 70
     0
300
1:50
140
1.0
141
50.0
290
     0
  0
SCALE
  5
53
102
{ACAD_REACTORS
330
47
102
}
330
47
100
AcDbScale
 70
     0
300
1:100
140
1.0
141
100.0
290
     0
  0
SCALE
  5
54
102
{ACAD_REACTORS
330
47
102
}
330
47
100
AcDbScale
 70
     0
300
2:1
140
2.0
141
1.0
290
     0
  0
SCALE
  5
55
102
{ACAD_REACTORS
330
47
102
}
330
47
100
AcDbScale
 70
     0
300
4:1
140
4.0
141
1.0
290
     0
  0
SCALE
  5
56
102
{ACAD_REACTORS
330
47
102
}
330
47
100
AcDbScale
 70
     0
300
8:1
140
8.0
141
1.0
290
     0
  0
SCALE
  5
57
102
{ACAD_REACTORS
330
47
102
}
330
47
100
AcDbScale
 70
     0
300
10:1
140
10.0
141
1.0
290
     0
  0
SCALE
  5
58
102
{ACAD_REACTORS
330
47
102
}
330
47
100
AcDbScale
 70
     0
300
100:1
140
100.0
141
1.0
290
     0
  0
SCALE
  5
59
102
{ACAD_REACTORS
330
47
102
}
330
47
100
AcDbScale
 70
     0
300
1/128" = 1'-0"
140
0.0078125
141
12.0
290
     0
  0
SCALE
  5
5A
102
{ACAD_REACTORS
330
47
102
}
330
47
100
AcDbScale
 70
     0
300
1/64" = 1'-0"
140
0.015625
141
12.0
290
     0
  0
SCALE
  5
5B
102
{ACAD_REACTORS
330
47
102
}
330
47
100
AcDbScale
 70
     0
300
1/32" = 1'-0"
140
0.03125
141
12.0
290
     0
  0
SCALE
  5
5C
102
{ACAD_REACTORS
330
47
102
}
330
47
100
AcDbScale
 70
     0
300
1/16" = 1'-0"
140
0.0625
141
12.0
290
     0
  0
SCALE
  5
5D
102
{ACAD_REACTORS
330
47
102
}
330
47
100
AcDbScale
 70
     0
300
3/32" = 1'-0"
140
0.09375
141
12.0
290
     0
  0
SCALE
  5
5E
102
{ACAD_REACTORS
330
47
102
}
330
47
100
AcDbScale
 70
     0
300
1/8" = 1'-0"
140
0.125
141
12.0
290
     0
  0
SCALE
  5
5F
102
{ACAD_REACTORS
330
47
102
}
330
47
100
AcDbScale
 70
     0
300
3/16" = 1'-0"
140
0.1875
141
12.0
290
     0
  0
SCALE
  5
60
102
{ACAD_REACTORS
330
47
102
}
330
47
100
AcDbScale
 70
     0
300
1/4" = 1'-0"
140
0.25
141
12.0
290
     0
  0
SCALE
  5
61
102
{ACAD_REACTORS
330
47
102
}
330
47
100
AcDbScale
 70
     0
300
3/8" = 1'-0"
140
0.375
141
12.0
290
     0
  0
SCALE
  5
62
102
{ACAD_REACTORS
330
47
102
}
330
47
100
AcDbScale
 70
     0
300
1/2" = 1'-0"
140
0.5
141
12.0
290
     0
  0
SCALE
  5
63
102
{ACAD_REACTORS
330
47
102
}
330
47
100
AcDbScale
 70
     0
300
3/4" = 1'-0"
140
0.75
141
12.0
290
     0
  0
SCALE
  5
64
102
{ACAD_REACTORS
330
47
102
}
330
47
100
AcDbScale
 70
     0
300
1" = 1'-0"
140
1.0
141
12.0
290
     0
  0
SCALE
  5
65
102
{ACAD_REACTORS
330
47
102
}
330
47
100
AcDbScale
 70
     0
300
1-1/2" = 1'-0"
140
1.5
141
12.0
290
     0
  0
SCALE
  5
66
102
{ACAD_REACTORS
330
47
102
}
330
47
100
AcDbScale
 70
     0
300
3" = 1'-0"
140
3.0
141
12.0
290
     0
  0
SCALE
  5
67
102
{ACAD_REACTORS
330
47
102
}
330
47
100
AcDbScale
 70
     0
300
6" = 1'-0"
140
6.0
141
12.0
290
     0
  0
SCALE
  5
68
102
{ACAD_REACTORS
330
47
102
}
330
47
100
AcDbScale
 70
     0
300
1'-0" = 1'-0"
140
12.0
141
12.0
290
     0
  0
ENDSEC
  0
EOF
