  0
SECTION
  2
HEADER
  9
$ACADVER
  1
AC1014
  9
$ACADMAINTVER
 70
     9
  9
$DWGCODEPAGE
  3
ANSI_1252
  9
$INSBASE
 10
0.0
 20
0.0
 30
0.0
  9
$EXTMIN
 10
0.0
 20
-0.0000000000000089
 30
0.0
  9
$EXTMAX
 10
50.59999999999998
 20
77.5
 30
0.0
  9
$LIMMIN
 10
0.0
 20
0.0
  9
$LIMMAX
 10
50.59999999999998
 20
77.49999999999999
  9
$ORTHOMODE
 70
     0
  9
$REGENMODE
 70
     1
  9
$FILLMODE
 70
     1
  9
$QTEXTMODE
 70
     0
  9
$MIRRTEXT
 70
     0
  9
$DRAGMODE
 70
     2
  9
$LTSCALE
 40
2.0
  9
$OSMODE
 70
   229
  9
$ATTMODE
 70
     1
  9
$TEXTSIZE
 40
0.2
  9
$TRACEWID
 40
0.05
  9
$TEXTSTYLE
  7
TXT
  9
$CLAYER
  8
OBJECT
  9
$CELTYPE
  6
BYLAYER
  9
$CECOLOR
 62
   256
  9
$CELTSCALE
 40
1.0
  9
$DELOBJ
 70
     1
  9
$DISPSILH
 70
     0
  9
$DIMSCALE
 40
5.0
  9
$DIMASZ
 40
0.18
  9
$DIMEXO
 40
0.063
  9
$DIMDLI
 40
0.281
  9
$DIMRND
 40
0.0
  9
$DIMDLE
 40
0.0
  9
$DIMEXE
 40
0.093
  9
$DIMTP
 40
0.0
  9
$DIMTM
 40
0.0
  9
$DIMTXT
 40
0.125
  9
$DIMCEN
 40
0.09
  9
$DIMTSZ
 40
0.0
  9
$DIMTOL
 70
     0
  9
$DIMLIM
 70
     0
  9
$DIMTIH
 70
     1
  9
$DIMTOH
 70
     1
  9
$DIMSE1
 70
     0
  9
$DIMSE2
 70
     0
  9
$DIMTAD
 70
     0
  9
$DIMZIN
 70
     0
  9
$DIMBLK
  1

  9
$DIMASO
 70
     1
  9
$DIMSHO
 70
     1
  9
$DIMPOST
  1

  9
$DIMAPOST
  1
ction
  9
$DIMALT
 70
     0
  9
$DIMALTD
 70
     2
  9
$DIMALTF
 40
25.4
  9
$DIMLFAC
 40
1.0
  9
$DIMTOFL
 70
     0
  9
$DIMTVP
 40
0.0
  9
$DIMTIX
 70
     0
  9
$DIMSOXD
 70
     0
  9
$DIMSAH
 70
     0
  9
$DIMBLK1
  1

  9
$DIMBLK2
  1

  9
$DIMSTYLE
  2
23NSTD
  9
$DIMCLRD
 70
     0
  9
$DIMCLRE
 70
     0
  9
$DIMCLRT
 70
     0
  9
$DIMTFAC
 40
1.0
  9
$DIMGAP
 40
0.09
  9
$DIMJUST
 70
     0
  9
$DIMSD1
 70
     0
  9
$DIMSD2
 70
     0
  9
$DIMTOLJ
 70
     1
  9
$DIMTZIN
 70
     0
  9
$DIMALTZ
 70
     0
  9
$DIMALTTZ
 70
     0
  9
$DIMFIT
 70
     1
  9
$DIMUPT
 70
     0
  9
$DIMUNIT
 70
     2
  9
$DIMDEC
 70
     3
  9
$DIMTDEC
 70
     3
  9
$DIMALTU
 70
     2
  9
$DIMALTTD
 70
     2
  9
$DIMTXSTY
  7
TXT
  9
$DIMAUNIT
 70
     0
  9
$LUNITS
 70
     2
  9
$LUPREC
 70
     3
  9
$SKETCHINC
 40
0.1
  9
$FILLETRAD
 40
0.0
  9
$AUNITS
 70
     0
  9
$AUPREC
 70
     0
  9
$MENU
  1
acad
  9
$ELEVATION
 40
0.0
  9
$PELEVATION
 40
0.0
  9
$THICKNESS
 40
0.0
  9
$LIMCHECK
 70
     0
  9
$BLIPMODE
 70
     0
  9
$CHAMFERA
 40
0.0
  9
$CHAMFERB
 40
0.0
  9
$CHAMFERC
 40
0.0
  9
$CHAMFERD
 40
0.0
  9
$SKPOLY
 70
     0
  9
$TDCREATE
 40
2450896.498739352
  9
$TDUPDATE
 40
2455439.617476388
  9
$TDINDWG
 40
0.1154064120
  9
$TDUSRTIMER
 40
0.1154064120
  9
$USRTIMER
 70
     1
  9
$ANGBASE
 50
0.0
  9
$ANGDIR
 70
     0
  9
$PDMODE
 70
     0
  9
$PDSIZE
 40
0.0
  9
$PLINEWID
 40
0.0
  9
$COORDS
 70
     2
  9
$SPLFRAME
 70
     0
  9
$SPLINETYPE
 70
     6
  9
$SPLINESEGS
 70
     8
  9
$ATTDIA
 70
     0
  9
$ATTREQ
 70
     1
  9
$HANDLING
 70
  4097
  9
$HANDSEED
  5
AE7
  9
$SURFTAB1
 70
     6
  9
$SURFTAB2
 70
     6
  9
$SURFTYPE
 70
     6
  9
$SURFU
 70
     6
  9
$SURFV
 70
     6
  9
$UCSNAME
  2

  9
$UCSORG
 10
0.0
 20
0.0
 30
0.0
  9
$UCSXDIR
 10
1.0
 20
0.0
 30
0.0
  9
$UCSYDIR
 10
0.0
 20
1.0
 30
0.0
  9
$PUCSNAME
  2

  9
$PUCSORG
 10
0.0
 20
0.0
 30
0.0
  9
$PUCSXDIR
 10
1.0
 20
0.0
 30
0.0
  9
$PUCSYDIR
 10
0.0
 20
1.0
 30
0.0
  9
$USERI1
 70
     0
  9
$USERI2
 70
     0
  9
$USERI3
 70
     0
  9
$USERI4
 70
     0
  9
$USERI5
 70
     0
  9
$USERR1
 40
0.0
  9
$USERR2
 40
0.0
  9
$USERR3
 40
0.0
  9
$USERR4
 40
0.0
  9
$USERR5
 40
0.0
  9
$WORLDVIEW
 70
     1
  9
$SHADEDGE
 70
     3
  9
$SHADEDIF
 70
    70
  9
$TILEMODE
 70
     1
  9
$MAXACTVP
 70
    16
  9
$PINSBASE
 10
0.0
 20
0.0
 30
0.0
  9
$PLIMCHECK
 70
     0
  9
$PEXTMIN
 10
1.000000000000000E+20
 20
1.000000000000000E+20
 30
1.000000000000000E+20
  9
$PEXTMAX
 10
-1.000000000000000E+20
 20
-1.000000000000000E+20
 30
-1.000000000000000E+20
  9
$PLIMMIN
 10
0.0
 20
0.0
  9
$PLIMMAX
 10
12.0
 20
9.0
  9
$UNITMODE
 70
     0
  9
$VISRETAIN
 70
     0
  9
$PLINEGEN
 70
     0
  9
$PSLTSCALE
 70
     1
  9
$TREEDEPTH
 70
  3020
  9
$PICKSTYLE
 70
     1
  9
$CMLSTYLE
  2
STANDARD
  9
$CMLJUST
 70
     0
  9
$CMLSCALE
 40
1.0
  9
$PROXYGRAPHICS
 70
     1
  9
$MEASUREMENT
 70
     0
  0
ENDSEC
  0
SECTION
  2
CLASSES
  0
CLASS
  1
ACDBDICTIONARYWDFLT
  2
AcDbDictionaryWithDefault
  3
AutoCAD 2000
 90
        0
280
     0
281
     0
  0
CLASS
  1
ACDBPLACEHOLDER
  2
AcDbPlaceHolder
  3
AutoCAD 2000
 90
        0
280
     0
281
     0
  0
CLASS
  1
LAYOUT
  2
AcDbLayout
  3
AutoCAD 2000
 90
        0
280
     0
281
     0
  0
CLASS
  1
LONG_TRANSACTION
  2
AcDbLongTransaction
  3
AutoCAD 2000
 90
        0
280
     0
281
     0
  0
CLASS
  1
LWPOLYLINE
  2
AcDbPolyline
  3
AutoCAD 2000
 90
        0
280
     0
281
     1
  0
CLASS
  1
HATCH
  2
AcDbHatch
  3
AutoCAD 2000
 90
        0
280
     0
281
     1
  0
CLASS
  1
XRECORD
  2
AcDbXrecord
  3
AutoCAD 2000
 90
        0
280
     0
281
     0
  0
ENDSEC
  0
SECTION
  2
TABLES
  0
TABLE
  2
VPORT
  5
8
330
0
100
AcDbSymbolTable
 70
     2
  0
VPORT
  5
AC1
330
8
100
AcDbSymbolTableRecord
100
AcDbViewportTableRecord
  2
*ACTIVE
 70
     0
 10
0.0
 20
0.0
 11
1.0
 21
1.0
 12
25.30000011781231
 22
38.75000018044371
 13
0.0
 23
0.0
 14
1.0
 24
1.0
 15
0.0
 25
0.0
 16
0.0
 26
0.0
 36
1.0
 17
0.0
 27
0.0
 37
0.0
 40
78.28497918660764
 41
1.836974789915966
 42
50.0
 43
0.0
 44
0.0
 50
0.0
 51
0.0
 71
     0
 72
   100
 73
     1
 74
     0
 75
     0
 76
     0
 77
     0
 78
     0
  0
ENDTAB
  0
TABLE
  2
LTYPE
  5
5
330
0
100
AcDbSymbolTable
 70
     5
  0
LTYPE
  5
13
330
5
100
AcDbSymbolTableRecord
100
AcDbLinetypeTableRecord
  2
BYBLOCK
 70
     0
  3

 72
    65
 73
     0
 40
0.0
  0
LTYPE
  5
14
330
5
100
AcDbSymbolTableRecord
100
AcDbLinetypeTableRecord
  2
BYLAYER
 70
     0
  3

 72
    65
 73
     0
 40
0.0
  0
LTYPE
  5
15
330
5
100
AcDbSymbolTableRecord
100
AcDbLinetypeTableRecord
  2
CONTINUOUS
 70
     0
  3
Solid line
 72
    65
 73
     0
 40
0.0
  0
LTYPE
  5
38
330
5
100
AcDbSymbolTableRecord
100
AcDbLinetypeTableRecord
  2
HIDDEN
 70
     0
  3
_ _ _ _ _ _ _ _ _ _ _ _ _ _ _ _ _ _ _ _ _ _ _
 72
    65
 73
     2
 40
0.375
 49
0.25
 74
     0
 49
-0.125
 74
     0
  0
LTYPE
  5
39
330
5
100
AcDbSymbolTableRecord
100
AcDbLinetypeTableRecord
  2
PHANTOM
 70
     0
  3
_____ _ _ _____ _ _ _____ _ _ _____ _ _ ____
 72
    65
 73
     6
 40
2.5
 49
1.25
 74
     0
 49
-0.25
 74
     0
 49
0.25
 74
     0
 49
-0.25
 74
     0
 49
0.25
 74
     0
 49
-0.25
 74
     0
  0
LTYPE
  5
3A
330
5
100
AcDbSymbolTableRecord
100
AcDbLinetypeTableRecord
  2
CENTER
 70
     0
  3
____ _ ____ _ ____ _ ____ _ ____ _ ____ _ ____
 72
    65
 73
     4
 40
2.0
 49
1.25
 74
     0
 49
-0.25
 74
     0
 49
0.25
 74
     0
 49
-0.25
 74
     0
  0
LTYPE
  5
3B
330
5
100
AcDbSymbolTableRecord
100
AcDbLinetypeTableRecord
  2
PHANTOM2
 70
     0
  3
___ _ _ ___ _ _ ___ _ _ ___ _ _ ___ _ _ ___ _ _
 72
    65
 73
     6
 40
1.25
 49
0.625
 74
     0
 49
-0.125
 74
     0
 49
0.125
 74
     0
 49
-0.125
 74
     0
 49
0.125
 74
     0
 49
-0.125
 74
     0
  0
ENDTAB
  0
TABLE
  2
LAYER
  5
2
330
0
100
AcDbSymbolTable
 70
     9
  0
LAYER
  5
10
330
2
100
AcDbSymbolTableRecord
100
AcDbLayerTableRecord
  2
0
 70
     0
 62
     7
  6
CONTINUOUS
  0
LAYER
  5
3F
330
2
100
AcDbSymbolTableRecord
100
AcDbLayerTableRecord
  2
OBJECT
 70
     0
 62
     7
  6
CONTINUOUS
  0
LAYER
  5
40
330
2
100
AcDbSymbolTableRecord
100
AcDbLayerTableRecord
  2
DIM
 70
     0
 62
     7
  6
CONTINUOUS
  0
LAYER
  5
41
330
2
100
AcDbSymbolTableRecord
100
AcDbLayerTableRecord
  2
HIDDEN
 70
     0
 62
     7
  6
HIDDEN
  0
LAYER
  5
42
330
2
100
AcDbSymbolTableRecord
100
AcDbLayerTableRecord
  2
BEND
 70
     0
 62
     7
  6
PHANTOM
  0
LAYER
  5
43
330
2
100
AcDbSymbolTableRecord
100
AcDbLayerTableRecord
  2
TEXT
 70
     0
 62
     7
  6
CONTINUOUS
  0
LAYER
  5
44
330
2
100
AcDbSymbolTableRecord
100
AcDbLayerTableRecord
  2
TITLE
 70
     0
 62
     7
  6
CONTINUOUS
  0
LAYER
  5
45
330
2
100
AcDbSymbolTableRecord
100
AcDbLayerTableRecord
  2
CENTER
 70
     0
 62
     7
  6
CENTER
  0
LAYER
  5
46
330
2
100
AcDbSymbolTableRecord
100
AcDbLayerTableRecord
  2
DEFPOINTS
 70
     0
 62
     7
  6
CONTINUOUS
  0
ENDTAB
  0
TABLE
  2
STYLE
  5
3
330
0
100
AcDbSymbolTable
 70
     1
  0
STYLE
  5
11
330
3
100
AcDbSymbolTableRecord
100
AcDbTextStyleTableRecord
  2
TXT
 70
     0
 40
0.0
 41
0.75
 50
0.0
 71
     0
 42
0.2
  3
txt.shx
  4

  0
ENDTAB
  0
TABLE
  2
VIEW
  5
6
330
0
100
AcDbSymbolTable
 70
     0
  0
ENDTAB
  0
TABLE
  2
UCS
  5
7
330
0
100
AcDbSymbolTable
 70
     0
  0
ENDTAB
  0
TABLE
  2
APPID
  5
9
330
0
100
AcDbSymbolTable
 70
     2
  0
APPID
  5
12
330
9
100
AcDbSymbolTableRecord
100
AcDbRegAppTableRecord
  2
ACAD
 70
     0
  0
APPID
  5
847
330
9
100
AcDbSymbolTableRecord
100
AcDbRegAppTableRecord
  2
DCO15
 70
     0
  0
ENDTAB
  0
TABLE
  2
DIMSTYLE
  5
A
330
0
100
AcDbSymbolTable
 70
     1
  0
DIMSTYLE
105
3E
102
{ACAD_REACTORS
330
20C
330
20D
330
20E
330
20F
330
210
330
211
330
212
330
213
330
214
330
217
330
218
330
22A
330
22B
330
22C
330
22D
330
254
330
255
330
29E
330
2AF
330
3FB
330
7F2
330
9B2
330
96D
330
953
102
}
330
A
100
AcDbSymbolTableRecord
100
AcDbDimStyleTableRecord
  2
23NSTD
 70
     0
  3

  4
ction
  5

  6

  7

 40
5.0
 41
0.18
 42
0.063
 43
0.281
 44
0.093
 45
0.0
 46
0.0
 47
0.0
 48
0.0
140
0.125
141
0.09
142
0.0
143
25.4
144
1.0
145
0.0
146
1.0
147
0.09
 71
     0
 72
     0
 73
     1
 74
     1
 75
     0
 76
     0
 77
     0
 78
     0
170
     0
171
     2
172
     0
173
     0
174
     0
175
     0
176
     0
177
     0
178
     0
270
     2
271
     3
272
     3
273
     2
274
     2
340
11
275
     0
280
     0
281
     0
282
     0
283
     1
284
     0
285
     0
286
     0
287
     1
288
     0
  0
ENDTAB
  0
TABLE
  2
BLOCK_RECORD
  5
1
330
0
100
AcDbSymbolTable
 70
    23
  0
BLOCK_RECORD
  5
1E
102
{ACAD_XDICTIONARY
360
AE5
102
}
330
1
100
AcDbSymbolTableRecord
100
AcDbBlockTableRecord
  2
*MODEL_SPACE
  0
BLOCK_RECORD
  5
1A
102
{ACAD_XDICTIONARY
360
AE3
102
}
330
1
100
AcDbSymbolTableRecord
100
AcDbBlockTableRecord
  2
*PAPER_SPACE
  0
BLOCK_RECORD
  5
2B7
330
1
100
AcDbSymbolTableRecord
100
AcDbBlockTableRecord
  2
*D0
  0
BLOCK_RECORD
  5
2C4
330
1
100
AcDbSymbolTableRecord
100
AcDbBlockTableRecord
  2
*D1
  0
BLOCK_RECORD
  5
2D1
330
1
100
AcDbSymbolTableRecord
100
AcDbBlockTableRecord
  2
*D2
  0
BLOCK_RECORD
  5
2DE
330
1
100
AcDbSymbolTableRecord
100
AcDbBlockTableRecord
  2
*D3
  0
BLOCK_RECORD
  5
2EB
330
1
100
AcDbSymbolTableRecord
100
AcDbBlockTableRecord
  2
*D4
  0
BLOCK_RECORD
  5
2F8
330
1
100
AcDbSymbolTableRecord
100
AcDbBlockTableRecord
  2
*D5
  0
BLOCK_RECORD
  5
306
330
1
100
AcDbSymbolTableRecord
100
AcDbBlockTableRecord
  2
*D6
  0
BLOCK_RECORD
  5
313
330
1
100
AcDbSymbolTableRecord
100
AcDbBlockTableRecord
  2
*D7
  0
BLOCK_RECORD
  5
32A
330
1
100
AcDbSymbolTableRecord
100
AcDbBlockTableRecord
  2
*D8
  0
BLOCK_RECORD
  5
338
330
1
100
AcDbSymbolTableRecord
100
AcDbBlockTableRecord
  2
*D9
  0
BLOCK_RECORD
  5
346
330
1
100
AcDbSymbolTableRecord
100
AcDbBlockTableRecord
  2
*D10
  0
BLOCK_RECORD
  5
382
330
1
100
AcDbSymbolTableRecord
100
AcDbBlockTableRecord
  2
*D11
  0
BLOCK_RECORD
  5
38F
330
1
100
AcDbSymbolTableRecord
100
AcDbBlockTableRecord
  2
*D12
  0
BLOCK_RECORD
  5
39C
330
1
100
AcDbSymbolTableRecord
100
AcDbBlockTableRecord
  2
*D13
  0
BLOCK_RECORD
  5
3A9
330
1
100
AcDbSymbolTableRecord
100
AcDbBlockTableRecord
  2
*D14
  0
BLOCK_RECORD
  5
3B6
330
1
100
AcDbSymbolTableRecord
100
AcDbBlockTableRecord
  2
*D15
  0
BLOCK_RECORD
  5
3C3
330
1
100
AcDbSymbolTableRecord
100
AcDbBlockTableRecord
  2
*D16
  0
BLOCK_RECORD
  5
3D0
330
1
100
AcDbSymbolTableRecord
100
AcDbBlockTableRecord
  2
*D17
  0
BLOCK_RECORD
  5
3DD
330
1
100
AcDbSymbolTableRecord
100
AcDbBlockTableRecord
  2
*D18
  0
BLOCK_RECORD
  5
3FC
330
1
100
AcDbSymbolTableRecord
100
AcDbBlockTableRecord
  2
*D19
  0
BLOCK_RECORD
  5
954
330
1
100
AcDbSymbolTableRecord
100
AcDbBlockTableRecord
  2
*D20
  0
BLOCK_RECORD
  5
96E
330
1
100
AcDbSymbolTableRecord
100
AcDbBlockTableRecord
  2
*D21
  0
BLOCK_RECORD
  5
9B3
330
1
100
AcDbSymbolTableRecord
100
AcDbBlockTableRecord
  2
*D22
  0
ENDTAB
  0
ENDSEC
  0
SECTION
  2
BLOCKS
  0
BLOCK
  5
49
330
1E
100
AcDbEntity
  8
0
100
AcDbBlockBegin
  2
*MODEL_SPACE
 70
     0
 10
0.0
 20
0.0
 30
0.0
  3
*MODEL_SPACE
  1

  0
ENDBLK
  5
4A
330
1E
100
AcDbEntity
  8
0
100
AcDbBlockEnd
  0
BLOCK
  5
47
330
1A
100
AcDbEntity
 67
     1
  8
0
100
AcDbBlockBegin
  2
*PAPER_SPACE
 70
     0
 10
0.0
 20
0.0
 30
0.0
  3
*PAPER_SPACE
  1

  0
ENDBLK
  5
48
330
1A
100
AcDbEntity
 67
     1
  8
0
100
AcDbBlockEnd
  0
BLOCK
  5
2C2
330
2B7
100
AcDbEntity
  8
0
100
AcDbBlockBegin
  2
*D0
 70
     1
 10
0.0
 20
0.0
 30
0.0
  3
*D0
  1

  0
LINE
  5
8B1
330
2B7
100
AcDbEntity
  8
DIM
 62
     0
100
AcDbLine
 10
20.79794553672394
 20
38.92157870792789
 30
0.0
 11
20.79794553672394
 21
40.59953665467211
 31
0.0
  0
LINE
  5
8B2
330
2B7
100
AcDbEntity
  8
DIM
 62
     0
100
AcDbLine
 10
3.735945536723948
 20
38.92157870792789
 30
0.0
 11
3.735945536723948
 21
40.59953665467211
 31
0.0
  0
LINE
  5
8B3
330
2B7
100
AcDbEntity
  8
DIM
 62
     0
100
AcDbLine
 10
19.89794553672394
 20
40.1345366546721
 30
0.0
 11
12.87319553672394
 21
40.1345366546721
 31
0.0
  0
LINE
  5
8B4
330
2B7
100
AcDbEntity
  8
DIM
 62
     0
100
AcDbLine
 10
4.635945536723948
 20
40.1345366546721
 30
0.0
 11
11.66069553672394
 21
40.1345366546721
 31
0.0
  0
SOLID
  5
8B5
330
2B7
100
AcDbEntity
  8
DIM
 62
     0
100
AcDbTrace
 10
19.89794553672394
 20
40.2845366546721
 30
0.0
 11
19.89794553672394
 21
39.9845366546721
 31
0.0
 12
20.79794553672394
 22
40.1345366546721
 32
0.0
 13
20.79794553672394
 23
40.1345366546721
 33
0.0
  0
SOLID
  5
8B6
330
2B7
100
AcDbEntity
  8
DIM
 62
     0
100
AcDbTrace
 10
4.635945536723948
 20
40.2845366546721
 30
0.0
 11
4.635945536723948
 21
39.9845366546721
 31
0.0
 12
3.735945536723948
 22
40.1345366546721
 32
0.0
 13
3.735945536723948
 23
40.1345366546721
 33
0.0
  0
MTEXT
  5
8B7
330
2B7
100
AcDbEntity
  8
DIM
 62
     0
100
AcDbMText
 10
12.26694553672394
 20
40.1345366546721
 30
0.0
 40
0.625
 41
0.0
 71
     5
 72
     1
  1
\A1;A
1001
ACAD
1000
MTEXTBEGIN
1070
    73
1070
     1
1070
    44
1040
1.0
1070
    74
1070
     0
1000
MTEXTEND
  0
POINT
  5
8B8
330
2B7
100
AcDbEntity
  8
DEFPOINTS
 62
     0
100
AcDbPoint
 10
20.79794553672394
 20
38.6065787079279
 30
0.0
  0
POINT
  5
8B9
330
2B7
100
AcDbEntity
  8
DEFPOINTS
 62
     0
100
AcDbPoint
 10
3.735945536723948
 20
38.6065787079279
 30
0.0
  0
POINT
  5
8BA
330
2B7
100
AcDbEntity
  8
DEFPOINTS
 62
     0
100
AcDbPoint
 10
3.735945536723948
 20
40.1345366546721
 30
0.0
  0
ENDBLK
  5
2C3
330
2B7
100
AcDbEntity
  8
0
100
AcDbBlockEnd
  0
BLOCK
  5
2CF
330
2C4
100
AcDbEntity
  8
0
100
AcDbBlockBegin
  2
*D1
 70
     1
 10
0.0
 20
0.0
 30
0.0
  3
*D1
  1

  0
LINE
  5
8DC
330
2C4
100
AcDbEntity
  8
DIM
 62
     0
100
AcDbLine
 10
28.68527936696357
 20
22.34057492538868
 30
0.0
 11
28.68527936696357
 21
18.19486907398625
 31
0.0
  0
LINE
  5
8DD
330
2C4
100
AcDbEntity
  8
DIM
 62
     0
100
AcDbLine
 10
27.15427936696356
 20
21.38282492538871
 30
0.0
 11
27.15427936696356
 21
18.19486907398625
 31
0.0
  0
LINE
  5
8DE
330
2C4
100
AcDbEntity
  8
DIM
 62
     0
100
AcDbLine
 10
29.58527936696357
 20
18.65986907398625
 30
0.0
 11
30.48527936696357
 21
18.65986907398625
 31
0.0
  0
LINE
  5
8DF
330
2C4
100
AcDbEntity
  8
DIM
 62
     0
100
AcDbLine
 10
26.25427936696356
 20
18.65986907398625
 30
0.0
 11
25.35427936696355
 21
18.65986907398625
 31
0.0
  0
SOLID
  5
8E0
330
2C4
100
AcDbEntity
  8
DIM
 62
     0
100
AcDbTrace
 10
29.58527936696357
 20
18.80986907398624
 30
0.0
 11
29.58527936696357
 21
18.50986907398625
 31
0.0
 12
28.68527936696357
 22
18.65986907398625
 32
0.0
 13
28.68527936696357
 23
18.65986907398625
 33
0.0
  0
SOLID
  5
8E1
330
2C4
100
AcDbEntity
  8
DIM
 62
     0
100
AcDbTrace
 10
26.25427936696356
 20
18.80986907398624
 30
0.0
 11
26.25427936696356
 21
18.50986907398625
 31
0.0
 12
27.15427936696356
 22
18.65986907398625
 32
0.0
 13
27.15427936696356
 23
18.65986907398625
 33
0.0
  0
MTEXT
  5
8E2
330
2C4
100
AcDbEntity
  8
DIM
 62
     0
100
AcDbMText
 10
27.91977936696357
 20
18.65986907398625
 30
0.0
 40
0.625
 41
0.0
 71
     5
 72
     1
  1
\A1;F
1001
ACAD
1000
MTEXTBEGIN
1070
    73
1070
     1
1070
    44
1040
1.0
1070
    74
1070
     0
1000
MTEXTEND
  0
POINT
  5
8E3
330
2C4
100
AcDbEntity
  8
DEFPOINTS
 62
     0
100
AcDbPoint
 10
28.68527936696357
 20
22.65557492538869
 30
0.0
  0
POINT
  5
8E4
330
2C4
100
AcDbEntity
  8
DEFPOINTS
 62
     0
100
AcDbPoint
 10
27.15427936696356
 20
21.69782492538871
 30
0.0
  0
POINT
  5
8E5
330
2C4
100
AcDbEntity
  8
DEFPOINTS
 62
     0
100
AcDbPoint
 10
27.15427936696356
 20
18.65986907398625
 30
0.0
  0
ENDBLK
  5
2D0
330
2C4
100
AcDbEntity
  8
0
100
AcDbBlockEnd
  0
BLOCK
  5
2DC
330
2D1
100
AcDbEntity
  8
0
100
AcDbBlockBegin
  2
*D2
 70
     1
 10
0.0
 20
0.0
 30
0.0
  3
*D2
  1

  0
LINE
  5
8E6
330
2D1
100
AcDbEntity
  8
DIM
 62
     0
100
AcDbLine
 10
28.68527936696357
 20
22.34057492538868
 30
0.0
 11
28.68527936696357
 21
18.19486907398625
 31
0.0
  0
LINE
  5
8E7
330
2D1
100
AcDbEntity
  8
DIM
 62
     0
100
AcDbLine
 10
42.68527936696357
 20
22.34057492538868
 30
0.0
 11
42.68527936696357
 21
18.19486907398625
 31
0.0
  0
LINE
  5
8E8
330
2D1
100
AcDbEntity
  8
DIM
 62
     0
100
AcDbLine
 10
29.58527936696357
 20
18.65986907398625
 30
0.0
 11
30.66496686696357
 21
18.65986907398625
 31
0.0
  0
LINE
  5
8E9
330
2D1
100
AcDbEntity
  8
DIM
 62
     0
100
AcDbLine
 10
41.78527936696357
 20
18.65986907398625
 30
0.0
 11
40.70559186696357
 21
18.65986907398625
 31
0.0
  0
SOLID
  5
8EA
330
2D1
100
AcDbEntity
  8
DIM
 62
     0
100
AcDbTrace
 10
29.58527936696357
 20
18.80986907398624
 30
0.0
 11
29.58527936696357
 21
18.50986907398625
 31
0.0
 12
28.68527936696357
 22
18.65986907398625
 32
0.0
 13
28.68527936696357
 23
18.65986907398625
 33
0.0
  0
SOLID
  5
8EB
330
2D1
100
AcDbEntity
  8
DIM
 62
     0
100
AcDbTrace
 10
41.78527936696357
 20
18.80986907398624
 30
0.0
 11
41.78527936696357
 21
18.50986907398625
 31
0.0
 12
42.68527936696357
 22
18.65986907398625
 32
0.0
 13
42.68527936696357
 23
18.65986907398625
 33
0.0
  0
MTEXT
  5
8EC
330
2D1
100
AcDbEntity
  8
DIM
 62
     0
100
AcDbMText
 10
35.68527936696357
 20
18.65986907398625
 30
0.0
 40
0.625
 41
0.0
 71
     5
 72
     1
  1
\A1;(G) SPACES @ 1.000 = H
1001
ACAD
1000
MTEXTBEGIN
1070
    73
1070
     1
1070
    44
1040
1.0
1070
    74
1070
     0
1000
MTEXTEND
  0
POINT
  5
8ED
330
2D1
100
AcDbEntity
  8
DEFPOINTS
 62
     0
100
AcDbPoint
 10
28.68527936696357
 20
22.65557492538869
 30
0.0
  0
POINT
  5
8EE
330
2D1
100
AcDbEntity
  8
DEFPOINTS
 62
     0
100
AcDbPoint
 10
42.68527936696357
 20
22.65557492538869
 30
0.0
  0
POINT
  5
8EF
330
2D1
100
AcDbEntity
  8
DEFPOINTS
 62
     0
100
AcDbPoint
 10
42.68527936696357
 20
18.65986907398625
 30
0.0
  0
ENDBLK
  5
2DD
330
2D1
100
AcDbEntity
  8
0
100
AcDbBlockEnd
  0
BLOCK
  5
2E9
330
2DE
100
AcDbEntity
  8
0
100
AcDbBlockBegin
  2
*D3
 70
     1
 10
0.0
 20
0.0
 30
0.0
  3
*D3
  1

  0
LINE
  5
A56
330
2DE
100
AcDbEntity
  8
DIM
 62
     0
100
AcDbLine
 10
7.148382979249632
 20
68.47597399607664
 30
0.0
 11
7.148382979249632
 21
70.42659149217737
 31
0.0
  0
LINE
  5
A57
330
2DE
100
AcDbEntity
  8
DIM
 62
     0
100
AcDbLine
 10
23.96038297924963
 20
68.47597399607664
 30
0.0
 11
23.96038297924963
 21
70.42659149217737
 31
0.0
  0
LINE
  5
A58
330
2DE
100
AcDbEntity
  8
DIM
 62
     0
100
AcDbLine
 10
8.048382979249632
 20
69.96159149217736
 30
0.0
 11
14.08875797924963
 21
69.96159149217736
 31
0.0
  0
LINE
  5
A59
330
2DE
100
AcDbEntity
  8
DIM
 62
     0
100
AcDbLine
 10
23.06038297924963
 20
69.96159149217736
 30
0.0
 11
17.02000797924963
 21
69.96159149217736
 31
0.0
  0
SOLID
  5
A5A
330
2DE
100
AcDbEntity
  8
DIM
 62
     0
100
AcDbTrace
 10
8.048382979249632
 20
70.11159149217736
 30
0.0
 11
8.048382979249632
 21
69.81159149217735
 31
0.0
 12
7.148382979249632
 22
69.96159149217736
 32
0.0
 13
7.148382979249632
 23
69.96159149217736
 33
0.0
  0
SOLID
  5
A5B
330
2DE
100
AcDbEntity
  8
DIM
 62
     0
100
AcDbTrace
 10
23.06038297924963
 20
70.11159149217736
 30
0.0
 11
23.06038297924963
 21
69.81159149217735
 31
0.0
 12
23.96038297924963
 22
69.96159149217736
 32
0.0
 13
23.96038297924963
 23
69.96159149217736
 33
0.0
  0
MTEXT
  5
A5C
330
2DE
100
AcDbEntity
  8
DIM
 62
     0
100
AcDbMText
 10
15.55438297924963
 20
69.96159149217736
 30
0.0
 40
0.625
 41
0.0
 71
     5
 72
     1
  1
\A1;16.812
1001
ACAD
1000
MTEXTBEGIN
1070
    73
1070
     1
1070
    44
1040
1.0
1070
    74
1070
     0
1000
MTEXTEND
  0
POINT
  5
A5D
330
2DE
100
AcDbEntity
  8
DEFPOINTS
 62
     0
100
AcDbPoint
 10
7.148382979249632
 20
68.16097399607665
 30
0.0
  0
POINT
  5
A5E
330
2DE
100
AcDbEntity
  8
DEFPOINTS
 62
     0
100
AcDbPoint
 10
23.96038297924963
 20
68.16097399607665
 30
0.0
  0
POINT
  5
A5F
330
2DE
100
AcDbEntity
  8
DEFPOINTS
 62
     0
100
AcDbPoint
 10
23.96038297924963
 20
69.96159149217736
 30
0.0
  0
ENDBLK
  5
2EA
330
2DE
100
AcDbEntity
  8
0
100
AcDbBlockEnd
  0
BLOCK
  5
2F6
330
2EB
100
AcDbEntity
  8
0
100
AcDbBlockBegin
  2
*D4
 70
     1
 10
0.0
 20
0.0
 30
0.0
  3
*D4
  1

  0
LINE
  5
A60
330
2EB
100
AcDbEntity
  8
DIM
 62
     0
100
AcDbLine
 10
6.833382979249631
 20
68.16097399607665
 30
0.0
 11
4.867208699240221
 21
68.16097399607665
 31
0.0
  0
LINE
  5
A61
330
2EB
100
AcDbEntity
  8
DIM
 62
     0
100
AcDbLine
 10
6.833382979249631
 20
58.62997399607666
 30
0.0
 11
4.867208699240219
 21
58.62997399607666
 31
0.0
  0
LINE
  5
A62
330
2EB
100
AcDbEntity
  8
DIM
 62
     0
100
AcDbLine
 10
5.33220869924022
 20
67.26097399607664
 30
0.0
 11
5.33220869924022
 21
64.15797399607665
 31
0.0
  0
LINE
  5
A63
330
2EB
100
AcDbEntity
  8
DIM
 62
     0
100
AcDbLine
 10
5.332208699240219
 20
59.52997399607665
 30
0.0
 11
5.33220869924022
 21
62.63297399607664
 31
0.0
  0
SOLID
  5
A64
330
2EB
100
AcDbEntity
  8
DIM
 62
     0
100
AcDbTrace
 10
5.18220869924022
 20
67.26097399607664
 30
0.0
 11
5.482208699240221
 21
67.26097399607664
 31
0.0
 12
5.33220869924022
 22
68.16097399607665
 32
0.0
 13
5.33220869924022
 23
68.16097399607665
 33
0.0
  0
SOLID
  5
A65
330
2EB
100
AcDbEntity
  8
DIM
 62
     0
100
AcDbTrace
 10
5.182208699240218
 20
59.52997399607665
 30
0.0
 11
5.482208699240219
 21
59.52997399607665
 31
0.0
 12
5.332208699240219
 22
58.62997399607666
 32
0.0
 13
5.332208699240219
 23
58.62997399607666
 33
0.0
  0
MTEXT
  5
A66
330
2EB
100
AcDbEntity
  8
DIM
 62
     0
100
AcDbMText
 10
5.332208699240209
 20
63.39547399607664
 30
0.0
 40
0.625
 41
0.0
 71
     5
 72
     1
  1
\A1;A
1001
ACAD
1000
MTEXTBEGIN
1070
    73
1070
     1
1070
    44
1040
1.0
1070
    74
1070
     0
1000
MTEXTEND
  0
POINT
  5
A67
330
2EB
100
AcDbEntity
  8
DEFPOINTS
 62
     0
100
AcDbPoint
 10
7.148382979249632
 20
68.16097399607665
 30
0.0
  0
POINT
  5
A68
330
2EB
100
AcDbEntity
  8
DEFPOINTS
 62
     0
100
AcDbPoint
 10
7.148382979249632
 20
58.62997399607666
 30
0.0
  0
POINT
  5
A69
330
2EB
100
AcDbEntity
  8
DEFPOINTS
 62
     0
100
AcDbPoint
 10
5.332208699240219
 20
58.62997399607666
 30
0.0
  0
ENDBLK
  5
2F7
330
2EB
100
AcDbEntity
  8
0
100
AcDbBlockEnd
  0
BLOCK
  5
304
330
2F8
100
AcDbEntity
  8
0
100
AcDbBlockBegin
  2
*D5
 70
     1
 10
0.0
 20
0.0
 30
0.0
  3
*D5
  1

  0
LINE
  5
A6A
330
2F8
100
AcDbEntity
  8
DIM
 62
     0
100
AcDbLine
 10
33.9334525161911
 20
67.77097399607666
 30
0.0
 11
37.02257105111964
 21
67.77097399607666
 31
0.0
  0
LINE
  5
A6B
330
2F8
100
AcDbEntity
  8
DIM
 62
     0
100
AcDbLine
 10
34.2134525161911
 20
68.16097399607665
 30
0.0
 11
37.02257105111964
 21
68.16097399607665
 31
0.0
  0
LINE
  5
A6C
330
2F8
100
AcDbEntity
  8
DIM
 62
     0
100
AcDbLine
 10
36.55757105111964
 20
66.87097399607665
 30
0.0
 11
36.55757105111964
 21
65.97097399607666
 31
0.0
  0
LINE
  5
A6D
330
2F8
100
AcDbEntity
  8
DIM
 62
     0
100
AcDbLine
 10
36.55757105111964
 20
69.06097399607665
 30
0.0
 11
36.55757105111964
 21
69.96097399607664
 31
0.0
  0
LINE
  5
A6E
330
2F8
100
AcDbEntity
  8
DIM
 62
     0
100
AcDbLine
 10
36.55757105111964
 20
69.96097399607664
 30
0.0
 11
37.45757105111964
 21
69.96097399607664
 31
0.0
  0
SOLID
  5
A6F
330
2F8
100
AcDbEntity
  8
DIM
 62
     0
100
AcDbTrace
 10
36.40757105111964
 20
66.87097399607665
 30
0.0
 11
36.70757105111964
 21
66.87097399607665
 31
0.0
 12
36.55757105111964
 22
67.77097399607666
 32
0.0
 13
36.55757105111964
 23
67.77097399607666
 33
0.0
  0
SOLID
  5
A70
330
2F8
100
AcDbEntity
  8
DIM
 62
     0
100
AcDbTrace
 10
36.40757105111964
 20
69.06097399607665
 30
0.0
 11
36.70757105111964
 21
69.06097399607665
 31
0.0
 12
36.55757105111964
 22
68.16097399607665
 32
0.0
 13
36.55757105111964
 23
68.16097399607665
 33
0.0
  0
MTEXT
  5
A71
330
2F8
100
AcDbEntity
  8
DIM
 62
     0
100
AcDbMText
 10
38.76694605111964
 20
69.96097399607666
 30
0.0
 40
0.625
 41
0.0
 71
     5
 72
     1
  1
\A1;0.390
1001
ACAD
1000
MTEXTBEGIN
1070
    73
1070
     1
1070
    44
1040
1.0
1070
    74
1070
     0
1000
MTEXTEND
  0
POINT
  5
A72
330
2F8
100
AcDbEntity
  8
DEFPOINTS
 62
     0
100
AcDbPoint
 10
33.6184525161911
 20
67.77097399607666
 30
0.0
  0
POINT
  5
A73
330
2F8
100
AcDbEntity
  8
DEFPOINTS
 62
     0
100
AcDbPoint
 10
33.8984525161911
 20
68.16097399607665
 30
0.0
  0
POINT
  5
A74
330
2F8
100
AcDbEntity
  8
DEFPOINTS
 62
     0
100
AcDbPoint
 10
36.55757105111964
 20
68.16097399607665
 30
0.0
  0
ENDBLK
  5
305
330
2F8
100
AcDbEntity
  8
0
100
AcDbBlockEnd
  0
BLOCK
  5
311
330
306
100
AcDbEntity
  8
0
100
AcDbBlockBegin
  2
*D6
 70
     1
 10
0.0
 20
0.0
 30
0.0
  3
*D6
  1

  0
LINE
  5
A75
330
306
100
AcDbEntity
  8
DIM
 62
     0
100
AcDbLine
 10
33.9334525161911
 20
59.01997399607667
 30
0.0
 11
37.02257105111964
 21
59.01997399607667
 31
0.0
  0
LINE
  5
A76
330
306
100
AcDbEntity
  8
DIM
 62
     0
100
AcDbLine
 10
33.9334525161911
 20
67.77097399607666
 30
0.0
 11
37.02257105111964
 21
67.77097399607666
 31
0.0
  0
LINE
  5
A77
330
306
100
AcDbEntity
  8
DIM
 62
     0
100
AcDbLine
 10
36.55757105111964
 20
59.91997399607667
 30
0.0
 11
36.55757105111964
 21
62.63297399607666
 31
0.0
  0
LINE
  5
A78
330
306
100
AcDbEntity
  8
DIM
 62
     0
100
AcDbLine
 10
36.55757105111964
 20
66.87097399607665
 30
0.0
 11
36.55757105111964
 21
64.15797399607666
 31
0.0
  0
SOLID
  5
A79
330
306
100
AcDbEntity
  8
DIM
 62
     0
100
AcDbTrace
 10
36.40757105111964
 20
59.91997399607667
 30
0.0
 11
36.70757105111964
 21
59.91997399607667
 31
0.0
 12
36.55757105111964
 22
59.01997399607667
 32
0.0
 13
36.55757105111964
 23
59.01997399607667
 33
0.0
  0
SOLID
  5
A7A
330
306
100
AcDbEntity
  8
DIM
 62
     0
100
AcDbTrace
 10
36.40757105111964
 20
66.87097399607665
 30
0.0
 11
36.70757105111964
 21
66.87097399607665
 31
0.0
 12
36.55757105111964
 22
67.77097399607666
 32
0.0
 13
36.55757105111964
 23
67.77097399607666
 33
0.0
  0
MTEXT
  5
A7B
330
306
100
AcDbEntity
  8
DIM
 62
     0
100
AcDbMText
 10
36.55757105111963
 20
63.39547399607667
 30
0.0
 40
0.625
 41
0.0
 71
     5
 72
     1
  1
\A1;B
1001
ACAD
1000
MTEXTBEGIN
1070
    73
1070
     1
1070
    44
1040
1.0
1070
    74
1070
     0
1000
MTEXTEND
  0
POINT
  5
A7C
330
306
100
AcDbEntity
  8
DEFPOINTS
 62
     0
100
AcDbPoint
 10
33.6184525161911
 20
59.01997399607667
 30
0.0
  0
POINT
  5
A7D
330
306
100
AcDbEntity
  8
DEFPOINTS
 62
     0
100
AcDbPoint
 10
33.6184525161911
 20
67.77097399607666
 30
0.0
  0
POINT
  5
A7E
330
306
100
AcDbEntity
  8
DEFPOINTS
 62
     0
100
AcDbPoint
 10
36.55757105111964
 20
67.77097399607666
 30
0.0
  0
ENDBLK
  5
312
330
306
100
AcDbEntity
  8
0
100
AcDbBlockEnd
  0
BLOCK
  5
31E
330
313
100
AcDbEntity
  8
0
100
AcDbBlockBegin
  2
*D7
 70
     1
 10
0.0
 20
0.0
 30
0.0
  3
*D7
  1

  0
LINE
  5
8A7
330
313
100
AcDbEntity
  8
DIM
 62
     0
100
AcDbLine
 10
3.420945536723948
 20
38.6065787079279
 30
0.0
 11
1.484946002274688
 21
38.6065787079279
 31
0.0
  0
LINE
  5
8A8
330
313
100
AcDbEntity
  8
DIM
 62
     0
100
AcDbLine
 10
3.420945536723948
 20
21.81657870792791
 30
0.0
 11
1.484946002274685
 21
21.81657870792791
 31
0.0
  0
LINE
  5
8A9
330
313
100
AcDbEntity
  8
DIM
 62
     0
100
AcDbLine
 10
1.949946002274688
 20
37.7065787079279
 30
0.0
 11
1.949946002274687
 21
30.9740787079279
 31
0.0
  0
LINE
  5
8AA
330
313
100
AcDbEntity
  8
DIM
 62
     0
100
AcDbLine
 10
1.949946002274685
 20
22.71657870792791
 30
0.0
 11
1.949946002274686
 21
29.44907870792791
 31
0.0
  0
SOLID
  5
8AB
330
313
100
AcDbEntity
  8
DIM
 62
     0
100
AcDbTrace
 10
1.799946002274688
 20
37.7065787079279
 30
0.0
 11
2.099946002274688
 21
37.7065787079279
 31
0.0
 12
1.949946002274689
 22
38.6065787079279
 32
0.0
 13
1.949946002274689
 23
38.6065787079279
 33
0.0
  0
SOLID
  5
8AC
330
313
100
AcDbEntity
  8
DIM
 62
     0
100
AcDbTrace
 10
1.799946002274685
 20
22.71657870792791
 30
0.0
 11
2.099946002274685
 21
22.71657870792791
 31
0.0
 12
1.949946002274685
 22
21.81657870792791
 32
0.0
 13
1.949946002274685
 23
21.81657870792791
 33
0.0
  0
MTEXT
  5
8AD
330
313
100
AcDbEntity
  8
DIM
 62
     0
100
AcDbMText
 10
1.949946002274682
 20
30.2115787079279
 30
0.0
 40
0.625
 41
0.0
 71
     5
 72
     1
  1
\A1;16.790
1001
ACAD
1000
MTEXTBEGIN
1070
    73
1070
     1
1070
    44
1040
1.0
1070
    74
1070
     0
1000
MTEXTEND
  0
POINT
  5
8AE
330
313
100
AcDbEntity
  8
DEFPOINTS
 62
     0
100
AcDbPoint
 10
3.735945536723948
 20
38.6065787079279
 30
0.0
  0
POINT
  5
8AF
330
313
100
AcDbEntity
  8
DEFPOINTS
 62
     0
100
AcDbPoint
 10
3.735945536723948
 20
21.81657870792791
 30
0.0
  0
POINT
  5
8B0
330
313
100
AcDbEntity
  8
DEFPOINTS
 62
     0
100
AcDbPoint
 10
1.949946002274685
 20
21.81657870792791
 30
0.0
  0
ENDBLK
  5
31F
330
313
100
AcDbEntity
  8
0
100
AcDbBlockEnd
  0
BLOCK
  5
336
330
32A
100
AcDbEntity
  8
0
100
AcDbBlockBegin
  2
*D8
 70
     1
 10
0.0
 20
0.0
 30
0.0
  3
*D8
  1

  0
LINE
  5
8BB
330
32A
100
AcDbEntity
  8
DIM
 62
     0
100
AcDbLine
 10
43.37527937705147
 20
37.46807492538869
 30
0.0
 11
47.37365370602137
 21
37.46807492538869
 31
0.0
  0
LINE
  5
8BC
330
32A
100
AcDbEntity
  8
DIM
 62
     0
100
AcDbLine
 10
44.53127936696355
 20
38.4878249253887
 30
0.0
 11
47.37365370602137
 21
38.4878249253887
 31
0.0
  0
LINE
  5
8BD
330
32A
100
AcDbEntity
  8
DIM
 62
     0
100
AcDbLine
 10
46.90865370602138
 20
36.56807492538869
 30
0.0
 11
46.90865370602138
 21
35.66807492538869
 31
0.0
  0
LINE
  5
8BE
330
32A
100
AcDbEntity
  8
DIM
 62
     0
100
AcDbLine
 10
46.90865370602138
 20
39.38782492538869
 30
0.0
 11
46.90865370602138
 21
40.28782492538869
 31
0.0
  0
LINE
  5
8BF
330
32A
100
AcDbEntity
  8
DIM
 62
     0
100
AcDbLine
 10
46.90865370602138
 20
40.28782492538869
 30
0.0
 11
47.80865370602138
 21
40.28782492538869
 31
0.0
  0
SOLID
  5
8C0
330
32A
100
AcDbEntity
  8
DIM
 62
     0
100
AcDbTrace
 10
46.75865370602138
 20
36.56807492538869
 30
0.0
 11
47.05865370602138
 21
36.56807492538869
 31
0.0
 12
46.90865370602138
 22
37.46807492538869
 32
0.0
 13
46.90865370602138
 23
37.46807492538869
 33
0.0
  0
SOLID
  5
8C1
330
32A
100
AcDbEntity
  8
DIM
 62
     0
100
AcDbTrace
 10
46.75865370602138
 20
39.38782492538869
 30
0.0
 11
47.05865370602138
 21
39.38782492538869
 31
0.0
 12
46.90865370602138
 22
38.4878249253887
 32
0.0
 13
46.90865370602138
 23
38.4878249253887
 33
0.0
  0
MTEXT
  5
8C2
330
32A
100
AcDbEntity
  8
DIM
 62
     0
100
AcDbMText
 10
49.03990370602137
 20
40.2878249253887
 30
0.0
 40
0.625
 41
0.0
 71
     5
 72
     1
  1
\A1;1.020
1001
ACAD
1000
MTEXTBEGIN
1070
    73
1070
     1
1070
    44
1040
1.0
1070
    74
1070
     0
1000
MTEXTEND
  0
POINT
  5
8C3
330
32A
100
AcDbEntity
  8
DEFPOINTS
 62
     0
100
AcDbPoint
 10
43.06027937705148
 20
37.46807492538869
 30
0.0
  0
POINT
  5
8C4
330
32A
100
AcDbEntity
  8
DEFPOINTS
 62
     0
100
AcDbPoint
 10
44.21627936696356
 20
38.4878249253887
 30
0.0
  0
POINT
  5
8C5
330
32A
100
AcDbEntity
  8
DEFPOINTS
 62
     0
100
AcDbPoint
 10
46.90865370602138
 20
38.4878249253887
 30
0.0
  0
ENDBLK
  5
337
330
32A
100
AcDbEntity
  8
0
100
AcDbBlockEnd
  0
BLOCK
  5
344
330
338
100
AcDbEntity
  8
0
100
AcDbBlockBegin
  2
*D9
 70
     1
 10
0.0
 20
0.0
 30
0.0
  3
*D9
  1

  0
LINE
  5
8C6
330
338
100
AcDbEntity
  8
DIM
 62
     0
100
AcDbLine
 10
44.53127936696354
 20
9.983343644625012
 30
0.0
 11
46.54202732646189
 21
9.983343644625012
 31
0.0
  0
LINE
  5
8C7
330
338
100
AcDbEntity
  8
DIM
 62
     0
100
AcDbLine
 10
44.53127936696354
 20
10.420343644625
 30
0.0
 11
46.54202732646189
 21
10.420343644625
 31
0.0
  0
LINE
  5
8C8
330
338
100
AcDbEntity
  8
DIM
 62
     0
100
AcDbLine
 10
46.07702732646188
 20
9.083343644625012
 30
0.0
 11
46.07702732646188
 21
8.183343644625011
 31
0.0
  0
LINE
  5
8C9
330
338
100
AcDbEntity
  8
DIM
 62
     0
100
AcDbLine
 10
46.07702732646188
 20
11.32034364462499
 30
0.0
 11
46.07702732646188
 21
12.220343644625
 31
0.0
  0
LINE
  5
8CA
330
338
100
AcDbEntity
  8
DIM
 62
     0
100
AcDbLine
 10
46.07702732646188
 20
12.220343644625
 30
0.0
 11
46.97702732646188
 21
12.220343644625
 31
0.0
  0
SOLID
  5
8CB
330
338
100
AcDbEntity
  8
DIM
 62
     0
100
AcDbTrace
 10
45.92702732646189
 20
9.083343644625012
 30
0.0
 11
46.22702732646188
 21
9.083343644625012
 31
0.0
 12
46.07702732646188
 22
9.983343644625012
 32
0.0
 13
46.07702732646188
 23
9.983343644625012
 33
0.0
  0
SOLID
  5
8CC
330
338
100
AcDbEntity
  8
DIM
 62
     0
100
AcDbTrace
 10
45.92702732646189
 20
11.32034364462499
 30
0.0
 11
46.22702732646188
 21
11.32034364462499
 31
0.0
 12
46.07702732646188
 22
10.420343644625
 32
0.0
 13
46.07702732646188
 23
10.420343644625
 33
0.0
  0
MTEXT
  5
8CD
330
338
100
AcDbEntity
  8
DIM
 62
     0
100
AcDbMText
 10
48.32546482646189
 20
12.220343644625
 30
0.0
 40
0.625
 41
0.0
 71
     5
 72
     1
  1
\A1;0.437
1001
ACAD
1000
MTEXTBEGIN
1070
    73
1070
     1
1070
    44
1040
1.0
1070
    74
1070
     0
1000
MTEXTEND
  0
POINT
  5
8CE
330
338
100
AcDbEntity
  8
DEFPOINTS
 62
     0
100
AcDbPoint
 10
44.21627936696355
 20
9.983343644625012
 30
0.0
  0
POINT
  5
8CF
330
338
100
AcDbEntity
  8
DEFPOINTS
 62
     0
100
AcDbPoint
 10
44.21627936696355
 20
10.420343644625
 30
0.0
  0
POINT
  5
8D0
330
338
100
AcDbEntity
  8
DEFPOINTS
 62
     0
100
AcDbPoint
 10
46.07702732646188
 20
10.420343644625
 30
0.0
  0
ENDBLK
  5
345
330
338
100
AcDbEntity
  8
0
100
AcDbBlockEnd
  0
BLOCK
  5
352
330
346
100
AcDbEntity
  8
0
100
AcDbBlockBegin
  2
*D10
 70
     1
 10
0.0
 20
0.0
 30
0.0
  3
*D10
  1

  0
LINE
  5
8D1
330
346
100
AcDbEntity
  8
DIM
 62
     0
100
AcDbLine
 10
27.74527936696356
 20
10.20134364462501
 30
0.0
 11
24.78025485000287
 21
10.20134364462501
 31
0.0
  0
LINE
  5
8D2
330
346
100
AcDbEntity
  8
DIM
 62
     0
100
AcDbLine
 10
26.83927936696355
 20
9.983343644625012
 30
0.0
 11
24.78025485000287
 21
9.983343644625012
 31
0.0
  0
LINE
  5
8D3
330
346
100
AcDbEntity
  8
DIM
 62
     0
100
AcDbLine
 10
25.24525485000287
 20
11.10134364462501
 30
0.0
 11
25.24525485000287
 21
12.00134364462501
 31
0.0
  0
LINE
  5
8D4
330
346
100
AcDbEntity
  8
DIM
 62
     0
100
AcDbLine
 10
25.24525485000287
 20
9.083343644625012
 30
0.0
 11
25.24525485000287
 21
8.183343644625013
 31
0.0
  0
LINE
  5
8D5
330
346
100
AcDbEntity
  8
DIM
 62
     0
100
AcDbLine
 10
25.24525485000287
 20
8.183343644625013
 30
0.0
 11
24.34525485000287
 21
8.183343644625013
 31
0.0
  0
SOLID
  5
8D6
330
346
100
AcDbEntity
  8
DIM
 62
     0
100
AcDbTrace
 10
25.09525485000287
 20
11.10134364462501
 30
0.0
 11
25.39525485000286
 21
11.10134364462501
 31
0.0
 12
25.24525485000287
 22
10.20134364462501
 32
0.0
 13
25.24525485000287
 23
10.20134364462501
 33
0.0
  0
SOLID
  5
8D7
330
346
100
AcDbEntity
  8
DIM
 62
     0
100
AcDbTrace
 10
25.09525485000287
 20
9.083343644625012
 30
0.0
 11
25.39525485000286
 21
9.083343644625012
 31
0.0
 12
25.24525485000287
 22
9.983343644625012
 32
0.0
 13
25.24525485000287
 23
9.983343644625012
 33
0.0
  0
MTEXT
  5
8D8
330
346
100
AcDbEntity
  8
DIM
 62
     0
100
AcDbMText
 10
23.07494235000286
 20
8.183343644625017
 30
0.0
 40
0.625
 41
0.0
 71
     5
 72
     1
  1
\A1;0.218
1001
ACAD
1000
MTEXTBEGIN
1070
    73
1070
     1
1070
    44
1040
1.0
1070
    74
1070
     0
1000
MTEXTEND
  0
POINT
  5
8D9
330
346
100
AcDbEntity
  8
DEFPOINTS
 62
     0
100
AcDbPoint
 10
28.06027936696356
 20
10.201343644625
 30
0.0
  0
POINT
  5
8DA
330
346
100
AcDbEntity
  8
DEFPOINTS
 62
     0
100
AcDbPoint
 10
27.15427936696356
 20
9.983343644625012
 30
0.0
  0
POINT
  5
8DB
330
346
100
AcDbEntity
  8
DEFPOINTS
 62
     0
100
AcDbPoint
 10
25.24525485000287
 20
9.983343644625012
 30
0.0
  0
ENDBLK
  5
353
330
346
100
AcDbEntity
  8
0
100
AcDbBlockEnd
  0
BLOCK
  5
38D
330
382
100
AcDbEntity
  8
0
100
AcDbBlockBegin
  2
*D11
 70
     1
 10
0.0
 20
0.0
 30
0.0
  3
*D11
  1

  0
LINE
  5
8F0
330
382
100
AcDbEntity
  8
DIM
 62
     0
100
AcDbLine
 10
43.84127936696355
 20
9.668343644625013
 30
0.0
 11
43.84127936696355
 21
7.118953942965386
 31
0.0
  0
LINE
  5
8F1
330
382
100
AcDbEntity
  8
DIM
 62
     0
100
AcDbLine
 10
44.21627936696356
 20
9.668343644625013
 30
0.0
 11
44.21627936696356
 21
7.118953942965386
 31
0.0
  0
LINE
  5
8F2
330
382
100
AcDbEntity
  8
DIM
 62
     0
100
AcDbLine
 10
42.94127936696355
 20
7.583953942965386
 30
0.0
 11
42.04127936696355
 21
7.583953942965386
 31
0.0
  0
LINE
  5
8F3
330
382
100
AcDbEntity
  8
DIM
 62
     0
100
AcDbLine
 10
45.11627936696355
 20
7.583953942965386
 30
0.0
 11
46.01627936696355
 21
7.583953942965386
 31
0.0
  0
SOLID
  5
8F4
330
382
100
AcDbEntity
  8
DIM
 62
     0
100
AcDbTrace
 10
42.94127936696355
 20
7.733953942965387
 30
0.0
 11
42.94127936696355
 21
7.433953942965386
 31
0.0
 12
43.84127936696355
 22
7.583953942965386
 32
0.0
 13
43.84127936696355
 23
7.583953942965386
 33
0.0
  0
SOLID
  5
8F5
330
382
100
AcDbEntity
  8
DIM
 62
     0
100
AcDbTrace
 10
45.11627936696355
 20
7.733953942965387
 30
0.0
 11
45.11627936696355
 21
7.433953942965386
 31
0.0
 12
44.21627936696356
 22
7.583953942965386
 32
0.0
 13
44.21627936696356
 23
7.583953942965386
 33
0.0
  0
MTEXT
  5
8F6
330
382
100
AcDbEntity
  8
DIM
 62
     0
100
AcDbMText
 10
47.36471686696355
 20
7.583953942965386
 30
0.0
 40
0.625
 41
0.0
 71
     5
 72
     1
  1
\A1;0.375
1001
ACAD
1000
MTEXTBEGIN
1070
    73
1070
     1
1070
    44
1040
1.0
1070
    74
1070
     0
1000
MTEXTEND
  0
POINT
  5
8F7
330
382
100
AcDbEntity
  8
DEFPOINTS
 62
     0
100
AcDbPoint
 10
43.84127936696355
 20
9.983343644625012
 30
0.0
  0
POINT
  5
8F8
330
382
100
AcDbEntity
  8
DEFPOINTS
 62
     0
100
AcDbPoint
 10
44.21627936696356
 20
9.983343644625012
 30
0.0
  0
POINT
  5
8F9
330
382
100
AcDbEntity
  8
DEFPOINTS
 62
     0
100
AcDbPoint
 10
44.21627936696356
 20
7.583953942965386
 30
0.0
  0
ENDBLK
  5
38E
330
382
100
AcDbEntity
  8
0
100
AcDbBlockEnd
  0
BLOCK
  5
39A
330
38F
100
AcDbEntity
  8
0
100
AcDbBlockBegin
  2
*D12
 70
     1
 10
0.0
 20
0.0
 30
0.0
  3
*D12
  1

  0
LINE
  5
8FA
330
38F
100
AcDbEntity
  8
DIM
 62
     0
100
AcDbLine
 10
28.06027936696354
 20
10.516343644625
 30
0.0
 11
28.06027936696354
 21
13.73342810076954
 31
0.0
  0
LINE
  5
8FB
330
38F
100
AcDbEntity
  8
DIM
 62
     0
100
AcDbLine
 10
27.15427936696356
 20
10.73534364462499
 30
0.0
 11
27.15427936696356
 21
13.73342810076954
 31
0.0
  0
LINE
  5
8FC
330
38F
100
AcDbEntity
  8
DIM
 62
     0
100
AcDbLine
 10
28.96027936696354
 20
13.26842810076954
 30
0.0
 11
29.86027936696355
 21
13.26842810076954
 31
0.0
  0
LINE
  5
8FD
330
38F
100
AcDbEntity
  8
DIM
 62
     0
100
AcDbLine
 10
26.25427936696356
 20
13.26842810076954
 30
0.0
 11
25.35427936696355
 21
13.26842810076954
 31
0.0
  0
SOLID
  5
8FE
330
38F
100
AcDbEntity
  8
DIM
 62
     0
100
AcDbTrace
 10
28.96027936696354
 20
13.41842810076953
 30
0.0
 11
28.96027936696354
 21
13.11842810076953
 31
0.0
 12
28.06027936696354
 22
13.26842810076954
 32
0.0
 13
28.06027936696354
 23
13.26842810076954
 33
0.0
  0
SOLID
  5
8FF
330
38F
100
AcDbEntity
  8
DIM
 62
     0
100
AcDbTrace
 10
26.25427936696356
 20
13.41842810076953
 30
0.0
 11
26.25427936696356
 21
13.11842810076953
 31
0.0
 12
27.15427936696356
 22
13.26842810076954
 32
0.0
 13
27.15427936696356
 23
13.26842810076954
 33
0.0
  0
MTEXT
  5
900
330
38F
100
AcDbEntity
  8
DIM
 62
     0
100
AcDbMText
 10
24.74802936696355
 20
13.26842810076954
 30
0.0
 40
0.625
 41
0.0
 71
     5
 72
     1
  1
\A1;B
1001
ACAD
1000
MTEXTBEGIN
1070
    73
1070
     1
1070
    44
1040
1.0
1070
    74
1070
     0
1000
MTEXTEND
  0
POINT
  5
901
330
38F
100
AcDbEntity
  8
DEFPOINTS
 62
     0
100
AcDbPoint
 10
28.06027936696354
 20
10.201343644625
 30
0.0
  0
POINT
  5
902
330
38F
100
AcDbEntity
  8
DEFPOINTS
 62
     0
100
AcDbPoint
 10
27.15427936696356
 20
10.420343644625
 30
0.0
  0
POINT
  5
903
330
38F
100
AcDbEntity
  8
DEFPOINTS
 62
     0
100
AcDbPoint
 10
27.15427936696356
 20
13.26842810076954
 30
0.0
  0
ENDBLK
  5
39B
330
38F
100
AcDbEntity
  8
0
100
AcDbBlockEnd
  0
BLOCK
  5
3A7
330
39C
100
AcDbEntity
  8
0
100
AcDbBlockBegin
  2
*D13
 70
     1
 10
0.0
 20
0.0
 30
0.0
  3
*D13
  1

  0
LINE
  5
904
330
39C
100
AcDbEntity
  8
DIM
 62
     0
100
AcDbLine
 10
29.06027937705149
 20
37.78307492538869
 30
0.0
 11
29.06027937705149
 21
40.59953665467211
 31
0.0
  0
LINE
  5
905
330
39C
100
AcDbEntity
  8
DIM
 62
     0
100
AcDbLine
 10
28.31027935705149
 20
37.78307492538869
 30
0.0
 11
28.31027935705149
 21
40.59953665467211
 31
0.0
  0
LINE
  5
906
330
39C
100
AcDbEntity
  8
DIM
 62
     0
100
AcDbLine
 10
29.96027937705148
 20
40.1345366546721
 30
0.0
 11
30.86027937705148
 21
40.1345366546721
 31
0.0
  0
LINE
  5
907
330
39C
100
AcDbEntity
  8
DIM
 62
     0
100
AcDbLine
 10
27.41027935705149
 20
40.1345366546721
 30
0.0
 11
26.51027935705148
 21
40.1345366546721
 31
0.0
  0
SOLID
  5
908
330
39C
100
AcDbEntity
  8
DIM
 62
     0
100
AcDbTrace
 10
29.96027937705148
 20
40.2845366546721
 30
0.0
 11
29.96027937705148
 21
39.9845366546721
 31
0.0
 12
29.06027937705149
 22
40.1345366546721
 32
0.0
 13
29.06027937705149
 23
40.1345366546721
 33
0.0
  0
SOLID
  5
909
330
39C
100
AcDbEntity
  8
DIM
 62
     0
100
AcDbTrace
 10
27.41027935705149
 20
40.2845366546721
 30
0.0
 11
27.41027935705149
 21
39.9845366546721
 31
0.0
 12
28.31027935705149
 22
40.1345366546721
 32
0.0
 13
28.31027935705149
 23
40.1345366546721
 33
0.0
  0
MTEXT
  5
90A
330
39C
100
AcDbEntity
  8
DIM
 62
     0
100
AcDbMText
 10
24.18527935705149
 20
40.1345366546721
 30
0.0
 40
0.625
 41
0.0
 71
     5
 72
     1
  1
\A1;0.750 REF.
1001
ACAD
1000
MTEXTBEGIN
1070
    73
1070
     1
1070
    44
1040
1.0
1070
    74
1070
     0
1000
MTEXTEND
  0
POINT
  5
90B
330
39C
100
AcDbEntity
  8
DEFPOINTS
 62
     0
100
AcDbPoint
 10
29.06027937705149
 20
37.46807492538869
 30
0.0
  0
POINT
  5
90C
330
39C
100
AcDbEntity
  8
DEFPOINTS
 62
     0
100
AcDbPoint
 10
28.31027935705149
 20
37.46807492538869
 30
0.0
  0
POINT
  5
90D
330
39C
100
AcDbEntity
  8
DEFPOINTS
 62
     0
100
AcDbPoint
 10
28.31027935705149
 20
40.1345366546721
 30
0.0
  0
ENDBLK
  5
3A8
330
39C
100
AcDbEntity
  8
0
100
AcDbBlockEnd
  0
BLOCK
  5
3B4
330
3A9
100
AcDbEntity
  8
0
100
AcDbBlockBegin
  2
*D14
 70
     1
 10
0.0
 20
0.0
 30
0.0
  3
*D14
  1

  0
LINE
  5
90E
330
3A9
100
AcDbEntity
  8
DIM
 62
     0
100
AcDbLine
 10
37.0602793770515
 20
37.78307492538869
 30
0.0
 11
37.0602793770515
 21
40.59953665467211
 31
0.0
  0
LINE
  5
90F
330
3A9
100
AcDbEntity
  8
DIM
 62
     0
100
AcDbLine
 10
37.31027935705149
 20
37.78307492538869
 30
0.0
 11
37.31027935705149
 21
40.59953665467211
 31
0.0
  0
LINE
  5
910
330
3A9
100
AcDbEntity
  8
DIM
 62
     0
100
AcDbLine
 10
36.1602793770515
 20
40.1345366546721
 30
0.0
 11
35.2602793770515
 21
40.1345366546721
 31
0.0
  0
LINE
  5
911
330
3A9
100
AcDbEntity
  8
DIM
 62
     0
100
AcDbLine
 10
38.21027935705149
 20
40.1345366546721
 30
0.0
 11
39.11027935705149
 21
40.1345366546721
 31
0.0
  0
SOLID
  5
912
330
3A9
100
AcDbEntity
  8
DIM
 62
     0
100
AcDbTrace
 10
36.1602793770515
 20
40.2845366546721
 30
0.0
 11
36.1602793770515
 21
39.9845366546721
 31
0.0
 12
37.0602793770515
 22
40.1345366546721
 32
0.0
 13
37.0602793770515
 23
40.1345366546721
 33
0.0
  0
SOLID
  5
913
330
3A9
100
AcDbEntity
  8
DIM
 62
     0
100
AcDbTrace
 10
38.21027935705149
 20
40.2845366546721
 30
0.0
 11
38.21027935705149
 21
39.9845366546721
 31
0.0
 12
37.31027935705149
 22
40.1345366546721
 32
0.0
 13
37.31027935705149
 23
40.1345366546721
 33
0.0
  0
MTEXT
  5
914
330
3A9
100
AcDbEntity
  8
DIM
 62
     0
100
AcDbMText
 10
41.43527935705149
 20
40.1345366546721
 30
0.0
 40
0.625
 41
0.0
 71
     5
 72
     1
  1
\A1;0.250 TYP.
1001
ACAD
1000
MTEXTBEGIN
1070
    73
1070
     1
1070
    44
1040
1.0
1070
    74
1070
     0
1000
MTEXTEND
  0
POINT
  5
915
330
3A9
100
AcDbEntity
  8
DEFPOINTS
 62
     0
100
AcDbPoint
 10
37.0602793770515
 20
37.46807492538869
 30
0.0
  0
POINT
  5
916
330
3A9
100
AcDbEntity
  8
DEFPOINTS
 62
     0
100
AcDbPoint
 10
37.31027935705149
 20
37.46807492538869
 30
0.0
  0
POINT
  5
917
330
3A9
100
AcDbEntity
  8
DEFPOINTS
 62
     0
100
AcDbPoint
 10
37.31027935705149
 20
40.1345366546721
 30
0.0
  0
ENDBLK
  5
3B5
330
3A9
100
AcDbEntity
  8
0
100
AcDbBlockEnd
  0
BLOCK
  5
3C1
330
3B6
100
AcDbEntity
  8
0
100
AcDbBlockBegin
  2
*D15
 70
     1
 10
0.0
 20
0.0
 30
0.0
  3
*D15
  1

  0
LINE
  5
A7F
330
3B6
100
AcDbEntity
  8
DIM
 62
     0
100
AcDbLine
 10
33.4304525161911
 20
58.31497399607667
 30
0.0
 11
33.4304525161911
 21
56.0014211026209
 31
0.0
  0
LINE
  5
A80
330
3B6
100
AcDbEntity
  8
DIM
 62
     0
100
AcDbLine
 10
33.6184525161911
 20
58.70497399607665
 30
0.0
 11
33.6184525161911
 21
56.0014211026209
 31
0.0
  0
LINE
  5
A81
330
3B6
100
AcDbEntity
  8
DIM
 62
     0
100
AcDbLine
 10
32.5304525161911
 20
56.4664211026209
 30
0.0
 11
31.6304525161911
 21
56.4664211026209
 31
0.0
  0
LINE
  5
A82
330
3B6
100
AcDbEntity
  8
DIM
 62
     0
100
AcDbLine
 10
34.5184525161911
 20
56.4664211026209
 30
0.0
 11
35.4184525161911
 21
56.4664211026209
 31
0.0
  0
SOLID
  5
A83
330
3B6
100
AcDbEntity
  8
DIM
 62
     0
100
AcDbTrace
 10
32.5304525161911
 20
56.61642110262089
 30
0.0
 11
32.5304525161911
 21
56.3164211026209
 31
0.0
 12
33.4304525161911
 22
56.4664211026209
 32
0.0
 13
33.4304525161911
 23
56.4664211026209
 33
0.0
  0
SOLID
  5
A84
330
3B6
100
AcDbEntity
  8
DIM
 62
     0
100
AcDbTrace
 10
34.5184525161911
 20
56.61642110262089
 30
0.0
 11
34.5184525161911
 21
56.3164211026209
 31
0.0
 12
33.6184525161911
 22
56.4664211026209
 32
0.0
 13
33.6184525161911
 23
56.4664211026209
 33
0.0
  0
MTEXT
  5
A85
330
3B6
100
AcDbEntity
  8
DIM
 62
     0
100
AcDbMText
 10
36.6887650161911
 20
56.4664211026209
 30
0.0
 40
0.625
 41
0.0
 71
     5
 72
     1
  1
\A1;0.188
1001
ACAD
1000
MTEXTBEGIN
1070
    73
1070
     1
1070
    44
1040
1.0
1070
    74
1070
     0
1000
MTEXTEND
  0
POINT
  5
A86
330
3B6
100
AcDbEntity
  8
DEFPOINTS
 62
     0
100
AcDbPoint
 10
33.4304525161911
 20
58.62997399607667
 30
0.0
  0
POINT
  5
A87
330
3B6
100
AcDbEntity
  8
DEFPOINTS
 62
     0
100
AcDbPoint
 10
33.6184525161911
 20
59.01997399607665
 30
0.0
  0
POINT
  5
A88
330
3B6
100
AcDbEntity
  8
DEFPOINTS
 62
     0
100
AcDbPoint
 10
33.6184525161911
 20
56.4664211026209
 30
0.0
  0
ENDBLK
  5
3C2
330
3B6
100
AcDbEntity
  8
0
100
AcDbBlockEnd
  0
BLOCK
  5
3CE
330
3C3
100
AcDbEntity
  8
0
100
AcDbBlockBegin
  2
*D16
 70
     1
 10
0.0
 20
0.0
 30
0.0
  3
*D16
  1

  0
LINE
  5
AA9
330
3C3
100
AcDbEntity
  8
DIM
 62
     0
100
AcDbLine
 10
33.8984525161911
 20
68.47597399607664
 30
0.0
 11
33.8984525161911
 21
70.7257095108891
 31
0.0
  0
LINE
  5
AAA
330
3C3
100
AcDbEntity
  8
DIM
 62
     0
100
AcDbLine
 10
33.4304525161911
 20
68.47597399607664
 30
0.0
 11
33.4304525161911
 21
70.7257095108891
 31
0.0
  0
LINE
  5
AAB
330
3C3
100
AcDbEntity
  8
DIM
 62
     0
100
AcDbLine
 10
34.7984525161911
 20
70.2607095108891
 30
0.0
 11
35.6984525161911
 21
70.2607095108891
 31
0.0
  0
LINE
  5
AAC
330
3C3
100
AcDbEntity
  8
DIM
 62
     0
100
AcDbLine
 10
32.5304525161911
 20
70.2607095108891
 30
0.0
 11
31.6304525161911
 21
70.2607095108891
 31
0.0
  0
SOLID
  5
AAD
330
3C3
100
AcDbEntity
  8
DIM
 62
     0
100
AcDbTrace
 10
34.7984525161911
 20
70.41070951088911
 30
0.0
 11
34.7984525161911
 21
70.11070951088909
 31
0.0
 12
33.8984525161911
 22
70.2607095108891
 32
0.0
 13
33.8984525161911
 23
70.2607095108891
 33
0.0
  0
SOLID
  5
AAE
330
3C3
100
AcDbEntity
  8
DIM
 62
     0
100
AcDbTrace
 10
32.5304525161911
 20
70.41070951088911
 30
0.0
 11
32.5304525161911
 21
70.11070951088909
 31
0.0
 12
33.4304525161911
 22
70.2607095108891
 32
0.0
 13
33.4304525161911
 23
70.2607095108891
 33
0.0
  0
MTEXT
  5
AAF
330
3C3
100
AcDbEntity
  8
DIM
 62
     0
100
AcDbMText
 10
30.2820150161911
 20
70.2607095108891
 30
0.0
 40
0.625
 41
0.0
 71
     5
 72
     1
  1
\A1;0.468
1001
ACAD
1000
MTEXTBEGIN
1070
    73
1070
     1
1070
    44
1040
1.0
1070
    74
1070
     0
1000
MTEXTEND
  0
POINT
  5
AB0
330
3C3
100
AcDbEntity
  8
DEFPOINTS
 62
     0
100
AcDbPoint
 10
33.8984525161911
 20
68.16097399607665
 30
0.0
  0
POINT
  5
AB1
330
3C3
100
AcDbEntity
  8
DEFPOINTS
 62
     0
100
AcDbPoint
 10
33.4304525161911
 20
68.16097399607665
 30
0.0
  0
POINT
  5
AB2
330
3C3
100
AcDbEntity
  8
DEFPOINTS
 62
     0
100
AcDbPoint
 10
33.4304525161911
 20
70.2607095108891
 30
0.0
  0
ENDBLK
  5
3CF
330
3C3
100
AcDbEntity
  8
0
100
AcDbBlockEnd
  0
BLOCK
  5
3DB
330
3D0
100
AcDbEntity
  8
0
100
AcDbBlockBegin
  2
*D17
 70
     1
 10
0.0
 20
0.0
 30
0.0
  3
*D17
  1

  0
LINE
  5
92C
330
3D0
100
AcDbEntity
  8
DIM
 62
     0
100
AcDbLine
 10
28.68527936696357
 20
22.34057492538868
 30
0.0
 11
28.68527936696357
 21
19.76232901134798
 31
0.0
  0
LINE
  5
92D
330
3D0
100
AcDbEntity
  8
DIM
 62
     0
100
AcDbLine
 10
29.68527936696357
 20
22.34057492538868
 30
0.0
 11
29.68527936696357
 21
19.76232901134798
 31
0.0
  0
LINE
  5
92E
330
3D0
100
AcDbEntity
  8
DIM
 62
     0
100
AcDbLine
 10
27.78527936696357
 20
20.22732901134798
 30
0.0
 11
26.88527936696357
 21
20.22732901134798
 31
0.0
  0
LINE
  5
92F
330
3D0
100
AcDbEntity
  8
DIM
 62
     0
100
AcDbLine
 10
30.58527936696357
 20
20.22732901134798
 30
0.0
 11
31.48527936696357
 21
20.22732901134798
 31
0.0
  0
SOLID
  5
930
330
3D0
100
AcDbEntity
  8
DIM
 62
     0
100
AcDbTrace
 10
27.78527936696357
 20
20.37732901134798
 30
0.0
 11
27.78527936696357
 21
20.07732901134799
 31
0.0
 12
28.68527936696357
 22
20.22732901134798
 32
0.0
 13
28.68527936696357
 23
20.22732901134798
 33
0.0
  0
SOLID
  5
931
330
3D0
100
AcDbEntity
  8
DIM
 62
     0
100
AcDbTrace
 10
30.58527936696357
 20
20.37732901134798
 30
0.0
 11
30.58527936696357
 21
20.07732901134799
 31
0.0
 12
29.68527936696357
 22
20.22732901134798
 32
0.0
 13
29.68527936696357
 23
20.22732901134798
 33
0.0
  0
MTEXT
  5
932
330
3D0
100
AcDbEntity
  8
DIM
 62
     0
100
AcDbMText
 10
33.69309186696357
 20
20.22732901134798
 30
0.0
 40
0.625
 41
0.0
 71
     5
 72
     1
  1
\A1;1.000 TYP.
1001
ACAD
1000
MTEXTBEGIN
1070
    73
1070
     1
1070
    44
1040
1.0
1070
    74
1070
     0
1000
MTEXTEND
  0
POINT
  5
933
330
3D0
100
AcDbEntity
  8
DEFPOINTS
 62
     0
100
AcDbPoint
 10
28.68527936696357
 20
22.65557492538869
 30
0.0
  0
POINT
  5
934
330
3D0
100
AcDbEntity
  8
DEFPOINTS
 62
     0
100
AcDbPoint
 10
29.68527936696357
 20
22.65557492538869
 30
0.0
  0
POINT
  5
935
330
3D0
100
AcDbEntity
  8
DEFPOINTS
 62
     0
100
AcDbPoint
 10
29.68527936696357
 20
20.22732901134798
 30
0.0
  0
ENDBLK
  5
3DC
330
3D0
100
AcDbEntity
  8
0
100
AcDbBlockEnd
  0
BLOCK
  5
3E9
330
3DD
100
AcDbEntity
  8
0
100
AcDbBlockBegin
  2
*D18
 70
     1
 10
0.0
 20
0.0
 30
0.0
  3
*D18
  1

  0
LINE
  5
936
330
3DD
100
AcDbEntity
  8
DIM
 62
     0
100
AcDbLine
 10
27.99527935705148
 20
22.96807492538869
 30
0.0
 11
25.57875671459699
 21
22.96807492538869
 31
0.0
  0
LINE
  5
937
330
3DD
100
AcDbEntity
  8
DIM
 62
     0
100
AcDbLine
 10
27.99527935705148
 20
22.71807492538868
 30
0.0
 11
25.57875671459699
 21
22.71807492538868
 31
0.0
  0
LINE
  5
938
330
3DD
100
AcDbEntity
  8
DIM
 62
     0
100
AcDbLine
 10
26.04375671459699
 20
23.86807492538868
 30
0.0
 11
26.04375671459699
 21
24.76807492538869
 31
0.0
  0
LINE
  5
939
330
3DD
100
AcDbEntity
  8
DIM
 62
     0
100
AcDbLine
 10
26.04375671459699
 20
21.81807492538868
 30
0.0
 11
26.04375671459699
 21
20.91807492538868
 31
0.0
  0
LINE
  5
93A
330
3DD
100
AcDbEntity
  8
DIM
 62
     0
100
AcDbLine
 10
26.04375671459699
 20
20.91807492538868
 30
0.0
 11
25.14375671459699
 21
20.91807492538868
 31
0.0
  0
SOLID
  5
93B
330
3DD
100
AcDbEntity
  8
DIM
 62
     0
100
AcDbTrace
 10
25.89375671459698
 20
23.86807492538868
 30
0.0
 11
26.19375671459698
 21
23.86807492538868
 31
0.0
 12
26.04375671459699
 22
22.96807492538869
 32
0.0
 13
26.04375671459699
 23
22.96807492538869
 33
0.0
  0
SOLID
  5
93C
330
3DD
100
AcDbEntity
  8
DIM
 62
     0
100
AcDbTrace
 10
25.89375671459698
 20
21.81807492538868
 30
0.0
 11
26.19375671459698
 21
21.81807492538868
 31
0.0
 12
26.04375671459699
 22
22.71807492538868
 32
0.0
 13
26.04375671459699
 23
22.71807492538868
 33
0.0
  0
MTEXT
  5
93D
330
3DD
100
AcDbEntity
  8
DIM
 62
     0
100
AcDbMText
 10
22.81875671459698
 20
20.91807492538869
 30
0.0
 40
0.625
 41
0.0
 71
     5
 72
     1
  1
\A1;0.250 TYP.
1001
ACAD
1000
MTEXTBEGIN
1070
    73
1070
     1
1070
    44
1040
1.0
1070
    74
1070
     0
1000
MTEXTEND
  0
POINT
  5
93E
330
3DD
100
AcDbEntity
  8
DEFPOINTS
 62
     0
100
AcDbPoint
 10
28.31027935705149
 20
22.96807492538869
 30
0.0
  0
POINT
  5
93F
330
3DD
100
AcDbEntity
  8
DEFPOINTS
 62
     0
100
AcDbPoint
 10
28.31027935705149
 20
22.71807492538868
 30
0.0
  0
POINT
  5
940
330
3DD
100
AcDbEntity
  8
DEFPOINTS
 62
     0
100
AcDbPoint
 10
26.04375671459699
 20
22.71807492538868
 30
0.0
  0
ENDBLK
  5
3EA
330
3DD
100
AcDbEntity
  8
0
100
AcDbBlockEnd
  0
BLOCK
  5
407
330
3FC
100
AcDbEntity
  8
0
100
AcDbBlockBegin
  2
*D19
 70
     1
 10
0.0
 20
0.0
 30
0.0
  3
*D19
  1

  0
LINE
  5
941
330
3FC
100
AcDbEntity
  8
DIM
 62
     0
100
AcDbLine
 10
28.06027936696354
 20
10.516343644625
 30
0.0
 11
28.06027936696354
 21
13.73342810076954
 31
0.0
  0
LINE
  5
942
330
3FC
100
AcDbEntity
  8
DIM
 62
     0
100
AcDbLine
 10
43.31027936696354
 20
10.516343644625
 30
0.0
 11
43.31027936696354
 21
13.73342810076954
 31
0.0
  0
LINE
  5
943
330
3FC
100
AcDbEntity
  8
DIM
 62
     0
100
AcDbLine
 10
28.96027936696354
 20
13.26842810076954
 30
0.0
 11
31.25090436696355
 21
13.26842810076954
 31
0.0
  0
LINE
  5
944
330
3FC
100
AcDbEntity
  8
DIM
 62
     0
100
AcDbLine
 10
42.41027936696355
 20
13.26842810076954
 30
0.0
 11
40.11965436696355
 21
13.26842810076954
 31
0.0
  0
SOLID
  5
945
330
3FC
100
AcDbEntity
  8
DIM
 62
     0
100
AcDbTrace
 10
28.96027936696354
 20
13.41842810076953
 30
0.0
 11
28.96027936696354
 21
13.11842810076953
 31
0.0
 12
28.06027936696354
 22
13.26842810076954
 32
0.0
 13
28.06027936696354
 23
13.26842810076954
 33
0.0
  0
SOLID
  5
946
330
3FC
100
AcDbEntity
  8
DIM
 62
     0
100
AcDbTrace
 10
42.41027936696355
 20
13.41842810076953
 30
0.0
 11
42.41027936696355
 21
13.11842810076953
 31
0.0
 12
43.31027936696354
 22
13.26842810076954
 32
0.0
 13
43.31027936696354
 23
13.26842810076954
 33
0.0
  0
MTEXT
  5
947
330
3FC
100
AcDbEntity
  8
DIM
 62
     0
100
AcDbMText
 10
35.68527936696355
 20
13.26842810076954
 30
0.0
 40
0.625
 41
0.0
 71
     5
 72
     1
  1
\A1;(C) SPACES @ D = E
1001
ACAD
1000
MTEXTBEGIN
1070
    73
1070
     1
1070
    44
1040
1.0
1070
    74
1070
     0
1000
MTEXTEND
  0
POINT
  5
948
330
3FC
100
AcDbEntity
  8
DEFPOINTS
 62
     0
100
AcDbPoint
 10
28.06027936696354
 20
10.201343644625
 30
0.0
  0
POINT
  5
949
330
3FC
100
AcDbEntity
  8
DEFPOINTS
 62
     0
100
AcDbPoint
 10
43.31027936696354
 20
10.201343644625
 30
0.0
  0
POINT
  5
94A
330
3FC
100
AcDbEntity
  8
DEFPOINTS
 62
     0
100
AcDbPoint
 10
43.31027936696354
 20
13.26842810076954
 30
0.0
  0
ENDBLK
  5
408
330
3FC
100
AcDbEntity
  8
0
100
AcDbBlockEnd
  0
BLOCK
  5
960
330
954
100
AcDbEntity
  8
0
100
AcDbBlockBegin
  2
*D20
 70
     1
 10
0.0
 20
0.0
 30
0.0
  3
*D20
  1

  0
LINE
  5
A93
330
954
100
AcDbEntity
  8
DIM
 62
     0
100
AcDbLine
 10
33.3034525161911
 20
67.77097399607666
 30
0.0
 11
29.56874953029896
 21
67.77097399607668
 31
0.0
  0
LINE
  5
A94
330
954
100
AcDbEntity
  8
DIM
 62
     0
100
AcDbLine
 10
33.1154525161911
 20
67.14597399607666
 30
0.0
 11
29.56874953029896
 21
67.14597399607668
 31
0.0
  0
LINE
  5
A95
330
954
100
AcDbEntity
  8
DIM
 62
     0
100
AcDbLine
 10
30.03374953029896
 20
68.67097399607668
 30
0.0
 11
30.03374953029896
 21
69.57097399607667
 31
0.0
  0
LINE
  5
A96
330
954
100
AcDbEntity
  8
DIM
 62
     0
100
AcDbLine
 10
30.03374953029896
 20
66.24597399607667
 30
0.0
 11
30.03374953029896
 21
65.34597399607668
 31
0.0
  0
LINE
  5
A97
330
954
100
AcDbEntity
  8
DIM
 62
     0
100
AcDbLine
 10
30.03374953029896
 20
65.34597399607668
 30
0.0
 11
29.13374953029896
 21
65.34597399607668
 31
0.0
  0
SOLID
  5
A98
330
954
100
AcDbEntity
  8
DIM
 62
     0
100
AcDbTrace
 10
29.88374953029897
 20
68.67097399607668
 30
0.0
 11
30.18374953029896
 21
68.67097399607668
 31
0.0
 12
30.03374953029896
 22
67.77097399607668
 32
0.0
 13
30.03374953029896
 23
67.77097399607668
 33
0.0
  0
SOLID
  5
A99
330
954
100
AcDbEntity
  8
DIM
 62
     0
100
AcDbTrace
 10
29.88374953029897
 20
66.24597399607667
 30
0.0
 11
30.18374953029896
 21
66.24597399607667
 31
0.0
 12
30.03374953029896
 22
67.14597399607668
 32
0.0
 13
30.03374953029896
 23
67.14597399607668
 33
0.0
  0
MTEXT
  5
A9A
330
954
100
AcDbEntity
  8
DIM
 62
     0
100
AcDbMText
 10
26.76968703029895
 20
65.34597399607668
 30
0.0
 40
0.625
 41
0.0
 71
     5
 72
     1
  1
\A1;0.625 TYP.
1001
ACAD
1000
MTEXTBEGIN
1070
    73
1070
     1
1070
    44
1040
1.0
1070
    74
1070
     0
1000
MTEXTEND
  0
POINT
  5
A9B
330
954
100
AcDbEntity
  8
DEFPOINTS
 62
     0
100
AcDbPoint
 10
33.6184525161911
 20
67.77097399607666
 30
0.0
  0
POINT
  5
A9C
330
954
100
AcDbEntity
  8
DEFPOINTS
 62
     0
100
AcDbPoint
 10
33.4304525161911
 20
67.14597399607666
 30
0.0
  0
POINT
  5
A9D
330
954
100
AcDbEntity
  8
DEFPOINTS
 62
     0
100
AcDbPoint
 10
30.03374953029896
 20
67.14597399607668
 30
0.0
  0
ENDBLK
  5
961
330
954
100
AcDbEntity
  8
0
100
AcDbBlockEnd
  0
BLOCK
  5
97A
330
96E
100
AcDbEntity
  8
0
100
AcDbBlockBegin
  2
*D21
 70
     1
 10
0.0
 20
0.0
 30
0.0
  3
*D21
  1

  0
LINE
  5
A9E
330
96E
100
AcDbEntity
  8
DIM
 62
     0
100
AcDbLine
 10
33.1154525161911
 20
67.14597399607666
 30
0.0
 11
31.31106888844099
 21
67.14597399607668
 31
0.0
  0
LINE
  5
A9F
330
96E
100
AcDbEntity
  8
DIM
 62
     0
100
AcDbLine
 10
33.1154525161911
 20
66.64597399607666
 30
0.0
 11
31.31106888844099
 21
66.64597399607668
 31
0.0
  0
LINE
  5
AA0
330
96E
100
AcDbEntity
  8
DIM
 62
     0
100
AcDbLine
 10
31.77606888844099
 20
68.04597399607668
 30
0.0
 11
31.77606888844099
 21
68.94597399607667
 31
0.0
  0
LINE
  5
AA1
330
96E
100
AcDbEntity
  8
DIM
 62
     0
100
AcDbLine
 10
31.77606888844099
 20
65.74597399607667
 30
0.0
 11
31.77606888844099
 21
64.09817885819243
 31
0.0
  0
LINE
  5
AA2
330
96E
100
AcDbEntity
  8
DIM
 62
     0
100
AcDbLine
 10
31.77606888844099
 20
64.09817885819243
 30
0.0
 11
30.87606888844099
 21
64.09817885819243
 31
0.0
  0
SOLID
  5
AA3
330
96E
100
AcDbEntity
  8
DIM
 62
     0
100
AcDbTrace
 10
31.62606888844099
 20
68.04597399607668
 30
0.0
 11
31.92606888844099
 21
68.04597399607668
 31
0.0
 12
31.77606888844099
 22
67.14597399607668
 32
0.0
 13
31.77606888844099
 23
67.14597399607668
 33
0.0
  0
SOLID
  5
AA4
330
96E
100
AcDbEntity
  8
DIM
 62
     0
100
AcDbTrace
 10
31.62606888844099
 20
65.74597399607667
 30
0.0
 11
31.92606888844099
 21
65.74597399607667
 31
0.0
 12
31.77606888844099
 22
66.64597399607668
 32
0.0
 13
31.77606888844099
 23
66.64597399607668
 33
0.0
  0
MTEXT
  5
AA5
330
96E
100
AcDbEntity
  8
DIM
 62
     0
100
AcDbMText
 10
28.59013138844098
 20
64.09817885819243
 30
0.0
 40
0.625
 41
0.0
 71
     5
 72
     1
  1
\A1;0.500 TYP.
1001
ACAD
1000
MTEXTBEGIN
1070
    73
1070
     1
1070
    44
1040
1.0
1070
    74
1070
     0
1000
MTEXTEND
  0
POINT
  5
AA6
330
96E
100
AcDbEntity
  8
DEFPOINTS
 62
     0
100
AcDbPoint
 10
33.4304525161911
 20
67.14597399607666
 30
0.0
  0
POINT
  5
AA7
330
96E
100
AcDbEntity
  8
DEFPOINTS
 62
     0
100
AcDbPoint
 10
33.4304525161911
 20
66.64597399607666
 30
0.0
  0
POINT
  5
AA8
330
96E
100
AcDbEntity
  8
DEFPOINTS
 62
     0
100
AcDbPoint
 10
31.77606888844099
 20
66.64597399607668
 30
0.0
  0
ENDBLK
  5
97B
330
96E
100
AcDbEntity
  8
0
100
AcDbBlockEnd
  0
BLOCK
  5
9BE
330
9B3
100
AcDbEntity
  8
0
100
AcDbBlockBegin
  2
*D22
 70
     1
 10
0.0
 20
0.0
 30
0.0
  3
*D22
  1

  0
LINE
  5
A89
330
9B3
100
AcDbEntity
  8
DIM
 62
     0
100
AcDbLine
 10
33.6184525161911
 20
60.45997399607668
 30
0.0
 11
33.6184525161911
 21
61.71114531601896
 31
0.0
  0
LINE
  5
A8A
330
9B3
100
AcDbEntity
  8
DIM
 62
     0
100
AcDbLine
 10
33.4304525161911
 20
61.39994574083885
 30
0.0
 11
33.4304525161911
 21
61.71114531601896
 31
0.0
  0
LINE
  5
A8B
330
9B3
100
AcDbEntity
  8
DIM
 62
     0
100
AcDbLine
 10
34.5184525161911
 20
61.24614531601896
 30
0.0
 11
35.4184525161911
 21
61.24614531601896
 31
0.0
  0
LINE
  5
A8C
330
9B3
100
AcDbEntity
  8
DIM
 62
     0
100
AcDbLine
 10
32.5304525161911
 20
61.24614531601896
 30
0.0
 11
31.6304525161911
 21
61.24614531601896
 31
0.0
  0
SOLID
  5
A8D
330
9B3
100
AcDbEntity
  8
DIM
 62
     0
100
AcDbTrace
 10
34.5184525161911
 20
61.39614531601895
 30
0.0
 11
34.5184525161911
 21
61.09614531601895
 31
0.0
 12
33.6184525161911
 22
61.24614531601896
 32
0.0
 13
33.6184525161911
 23
61.24614531601896
 33
0.0
  0
SOLID
  5
A8E
330
9B3
100
AcDbEntity
  8
DIM
 62
     0
100
AcDbTrace
 10
32.5304525161911
 20
61.39614531601895
 30
0.0
 11
32.5304525161911
 21
61.09614531601895
 31
0.0
 12
33.4304525161911
 22
61.24614531601896
 32
0.0
 13
33.4304525161911
 23
61.24614531601896
 33
0.0
  0
MTEXT
  5
A8F
330
9B3
100
AcDbEntity
  8
DIM
 62
     0
100
AcDbMText
 10
30.3601400161911
 20
61.24614531601896
 30
0.0
 40
0.625
 41
0.0
 71
     5
 72
     1
  1
\A1;0.188
1001
ACAD
1000
MTEXTBEGIN
1070
    73
1070
     1
1070
    44
1040
1.0
1070
    74
1070
     0
1000
MTEXTEND
  0
POINT
  5
A90
330
9B3
100
AcDbEntity
  8
DEFPOINTS
 62
     0
100
AcDbPoint
 10
33.6184525161911
 20
60.14497399607669
 30
0.0
  0
POINT
  5
A91
330
9B3
100
AcDbEntity
  8
DEFPOINTS
 62
     0
100
AcDbPoint
 10
33.4304525161911
 20
61.08494574083886
 30
0.0
  0
POINT
  5
A92
330
9B3
100
AcDbEntity
  8
DEFPOINTS
 62
     0
100
AcDbPoint
 10
33.4304525161911
 20
61.24614531601896
 30
0.0
  0
ENDBLK
  5
9BF
330
9B3
100
AcDbEntity
  8
0
100
AcDbBlockEnd
  0
ENDSEC
  0
SECTION
  2
ENTITIES
  0
LINE
  5
152
330
1E
100
AcDbEntity
  8
OBJECT
100
AcDbLine
 10
7.148382979249632
 20
58.62997399607666
 30
0.0
 11
23.96038297924963
 21
58.62997399607666
 31
0.0
  0
LINE
  5
153
330
1E
100
AcDbEntity
  8
OBJECT
100
AcDbLine
 10
23.96038297924963
 20
58.62997399607666
 30
0.0
 11
23.96038297924963
 21
68.16097399607665
 31
0.0
  0
LINE
  5
154
330
1E
100
AcDbEntity
  8
OBJECT
100
AcDbLine
 10
23.96038297924963
 20
68.16097399607665
 30
0.0
 11
7.148382979249632
 21
68.16097399607665
 31
0.0
  0
LINE
  5
155
330
1E
100
AcDbEntity
  8
OBJECT
100
AcDbLine
 10
7.148382979249632
 20
68.16097399607665
 30
0.0
 11
7.148382979249632
 21
58.62997399607666
 31
0.0
  0
LINE
  5
156
330
1E
100
AcDbEntity
  8
OBJECT
100
AcDbLine
 10
33.4304525161911
 20
68.16097399607665
 30
0.0
 11
33.4304525161911
 21
67.14597399607666
 31
0.0
  0
LINE
  5
157
330
1E
100
AcDbEntity
  8
OBJECT
100
AcDbLine
 10
33.4304525161911
 20
58.62997399607667
 30
0.0
 11
33.8984525161911
 21
58.62997399607667
 31
0.0
  0
LINE
  5
158
330
1E
100
AcDbEntity
  8
OBJECT
100
AcDbLine
 10
33.8984525161911
 20
58.62997399607667
 30
0.0
 11
33.8984525161911
 21
68.16097399607665
 31
0.0
  0
LINE
  5
159
330
1E
100
AcDbEntity
  8
OBJECT
100
AcDbLine
 10
33.8984525161911
 20
68.16097399607665
 30
0.0
 11
33.4304525161911
 21
68.16097399607665
 31
0.0
  0
LINE
  5
15A
330
1E
100
AcDbEntity
  8
OBJECT
100
AcDbLine
 10
27.15427936696356
 20
38.4878249253887
 30
0.0
 11
27.15427936696356
 21
21.69782492538871
 31
0.0
  0
LINE
  5
15B
330
1E
100
AcDbEntity
  8
OBJECT
100
AcDbLine
 10
27.15427936696356
 20
21.69782492538871
 30
0.0
 11
44.21627936696356
 21
21.69782492538871
 31
0.0
  0
LINE
  5
15C
330
1E
100
AcDbEntity
  8
OBJECT
100
AcDbLine
 10
44.21627936696356
 20
21.69782492538871
 30
0.0
 11
44.21627936696356
 21
38.4878249253887
 31
0.0
  0
LINE
  5
15D
330
1E
100
AcDbEntity
  8
OBJECT
100
AcDbLine
 10
44.21627936696356
 20
38.4878249253887
 30
0.0
 11
27.15427936696356
 21
38.4878249253887
 31
0.0
  0
CIRCLE
  5
15E
330
1E
100
AcDbEntity
  8
OBJECT
100
AcDbCircle
 10
28.06027936696354
 20
10.201343644625
 30
0.0
 40
0.06
  0
CIRCLE
  5
160
330
1E
100
AcDbEntity
  8
OBJECT
100
AcDbCircle
 10
43.31027936696354
 20
10.201343644625
 30
0.0
 40
0.06
  0
LINE
  5
161
330
1E
100
AcDbEntity
  8
OBJECT
100
AcDbLine
 10
27.81027936696359
 20
9.983343644625007
 30
0.0
 11
43.56027936696356
 21
9.983343644625007
 31
0.0
  0
LINE
  5
162
330
1E
100
AcDbEntity
  8
OBJECT
100
AcDbLine
 10
27.15427936696359
 20
9.983343644625007
 30
0.0
 11
27.15427936696359
 21
10.420343644625
 31
0.0
  0
LINE
  5
163
330
1E
100
AcDbEntity
  8
OBJECT
100
AcDbLine
 10
27.81027936696359
 20
10.420343644625
 30
0.0
 11
27.81027936696359
 21
9.983343644625007
 31
0.0
  0
LINE
  5
164
330
1E
100
AcDbEntity
  8
OBJECT
100
AcDbLine
 10
27.81027936696361
 20
10.37034364462501
 30
0.0
 11
27.20427936696359
 21
10.37034364462501
 31
0.0
  0
LINE
  5
165
330
1E
100
AcDbEntity
  8
OBJECT
100
AcDbLine
 10
27.20427936696359
 20
10.03334364462499
 30
0.0
 11
27.20427936696359
 21
10.37034364462501
 31
0.0
  0
LINE
  5
166
330
1E
100
AcDbEntity
  8
OBJECT
100
AcDbLine
 10
27.52927936696359
 20
9.983343644625007
 30
0.0
 11
27.52927936696359
 21
10.03334364462499
 31
0.0
  0
LINE
  5
167
330
1E
100
AcDbEntity
  8
OBJECT
100
AcDbLine
 10
27.52927936696359
 20
10.03334364462499
 30
0.0
 11
27.20427936696359
 21
10.03334364462499
 31
0.0
  0
LINE
  5
168
330
1E
100
AcDbEntity
  8
OBJECT
100
AcDbLine
 10
27.52927936696357
 20
9.983343644625007
 30
0.0
 11
27.15427936696359
 21
9.983343644625007
 31
0.0
  0
LINE
  5
169
330
1E
100
AcDbEntity
  8
OBJECT
100
AcDbLine
 10
43.84127936696358
 20
9.983343644625007
 30
0.0
 11
44.21627936696356
 21
9.983343644625007
 31
0.0
  0
LINE
  5
16A
330
1E
100
AcDbEntity
  8
OBJECT
100
AcDbLine
 10
43.84127936696355
 20
10.03334364462499
 30
0.0
 11
44.16627936696357
 21
10.03334364462499
 31
0.0
  0
LINE
  5
16B
330
1E
100
AcDbEntity
  8
OBJECT
100
AcDbLine
 10
43.84127936696355
 20
9.983343644625007
 30
0.0
 11
43.84127936696355
 21
10.03334364462499
 31
0.0
  0
LINE
  5
16C
330
1E
100
AcDbEntity
  8
OBJECT
100
AcDbLine
 10
44.16627936696357
 20
10.03334364462499
 30
0.0
 11
44.16627936696357
 21
10.37034364462501
 31
0.0
  0
LINE
  5
16D
330
1E
100
AcDbEntity
  8
OBJECT
100
AcDbLine
 10
43.56027936696354
 20
10.37034364462501
 30
0.0
 11
44.16627936696357
 21
10.37034364462501
 31
0.0
  0
LINE
  5
16E
330
1E
100
AcDbEntity
  8
OBJECT
100
AcDbLine
 10
43.56027936696356
 20
10.420343644625
 30
0.0
 11
43.56027936696356
 21
9.983343644625007
 31
0.0
  0
LINE
  5
16F
330
1E
100
AcDbEntity
  8
OBJECT
100
AcDbLine
 10
44.21627936696356
 20
9.983343644625007
 30
0.0
 11
44.21627936696356
 21
10.420343644625
 31
0.0
  0
LINE
  5
170
330
1E
100
AcDbEntity
  8
OBJECT
100
AcDbLine
 10
27.15427936696356
 20
10.420343644625
 30
0.0
 11
27.15427936696356
 21
9.983343644625007
 31
0.0
  0
LINE
  5
171
330
1E
100
AcDbEntity
  8
OBJECT
100
AcDbLine
 10
44.21627936696356
 20
10.420343644625
 30
0.0
 11
27.15427936696356
 21
10.420343644625
 31
0.0
  0
LINE
  5
172
330
1E
100
AcDbEntity
  8
OBJECT
100
AcDbLine
 10
20.79794553672394
 20
38.6065787079279
 30
0.0
 11
3.735945536723946
 21
38.6065787079279
 31
0.0
  0
LINE
  5
173
330
1E
100
AcDbEntity
  8
OBJECT
100
AcDbLine
 10
20.79794553672394
 20
21.81657870792791
 30
0.0
 11
20.79794553672394
 21
38.6065787079279
 31
0.0
  0
LINE
  5
174
330
1E
100
AcDbEntity
  8
OBJECT
100
AcDbLine
 10
3.735945536723946
 20
21.81657870792791
 30
0.0
 11
20.79794553672394
 21
21.81657870792791
 31
0.0
  0
LINE
  5
175
330
1E
100
AcDbEntity
  8
OBJECT
100
AcDbLine
 10
3.735945536723946
 20
38.6065787079279
 30
0.0
 11
3.735945536723946
 21
21.81657870792791
 31
0.0
  0
LINE
  5
176
330
1E
100
AcDbEntity
  8
OBJECT
100
AcDbLine
 10
23.87038297924962
 20
68.07097399607664
 30
0.0
 11
7.238382979249642
 21
68.07097399607664
 31
0.0
  0
LINE
  5
177
330
1E
100
AcDbEntity
  8
OBJECT
100
AcDbLine
 10
7.238382979249642
 20
68.07097399607664
 30
0.0
 11
7.238382979249632
 21
58.71997399607666
 31
0.0
  0
LINE
  5
178
330
1E
100
AcDbEntity
  8
OBJECT
100
AcDbLine
 10
7.238382979249632
 20
58.71997399607666
 30
0.0
 11
23.87038297924962
 21
58.71997399607666
 31
0.0
  0
LINE
  5
179
330
1E
100
AcDbEntity
  8
OBJECT
100
AcDbLine
 10
23.87038297924962
 20
58.71997399607666
 30
0.0
 11
23.87038297924962
 21
68.07097399607664
 31
0.0
  0
CIRCLE
  5
17A
330
1E
100
AcDbEntity
  8
OBJECT
100
AcDbCircle
 10
33.6184525161911
 20
67.77097399607666
 30
0.0
 40
0.094
  0
CIRCLE
  5
17B
330
1E
100
AcDbEntity
  8
OBJECT
100
AcDbCircle
 10
33.6184525161911
 20
59.01997399607667
 30
0.0
 40
0.094
  0
LINE
  5
17C
330
1E
100
AcDbEntity
  8
OBJECT
100
AcDbLine
 10
42.37274401096754
 20
22.78057492538868
 30
0.0
 11
42.99781472295959
 21
22.78057492538868
 31
0.0
  0
LINE
  5
17D
330
1E
100
AcDbEntity
  8
OBJECT
100
AcDbLine
 10
42.37274401096754
 20
22.65557492538869
 30
0.0
 11
42.99781472295959
 21
22.65557492538869
 31
0.0
  0
ARC
  5
17E
330
1E
100
AcDbEntity
  8
OBJECT
100
AcDbCircle
 10
42.37277936705149
 20
22.71807492538868
 30
0.0
 40
0.0625000100000008
100
AcDbArc
 50
90.00000000000005
 51
270.0
  0
ARC
  5
17F
330
1E
100
AcDbEntity
  8
OBJECT
100
AcDbCircle
 10
42.9977793670515
 20
22.71807492538868
 30
0.0
 40
0.0625000100000008
100
AcDbArc
 50
270.0
 51
89.99999999999998
  0
LINE
  5
180
330
1E
100
AcDbEntity
  8
OBJECT
100
AcDbLine
 10
41.37274401096752
 20
22.78057492538868
 30
0.0
 11
41.99781472295959
 21
22.78057492538868
 31
0.0
  0
LINE
  5
181
330
1E
100
AcDbEntity
  8
OBJECT
100
AcDbLine
 10
41.37274401096752
 20
22.65557492538869
 30
0.0
 11
41.99781472295959
 21
22.65557492538869
 31
0.0
  0
ARC
  5
182
330
1E
100
AcDbEntity
  8
OBJECT
100
AcDbCircle
 10
41.37277936705149
 20
22.71807492538868
 30
0.0
 40
0.0625000100000008
100
AcDbArc
 50
90.00000000000005
 51
270.0
  0
ARC
  5
183
330
1E
100
AcDbEntity
  8
OBJECT
100
AcDbCircle
 10
41.99777936705149
 20
22.71807492538868
 30
0.0
 40
0.0625000100000008
100
AcDbArc
 50
270.0
 51
89.99999999999998
  0
LINE
  5
184
330
1E
100
AcDbEntity
  8
OBJECT
100
AcDbLine
 10
40.37274401096754
 20
22.78057492538868
 30
0.0
 11
40.99781472295958
 21
22.78057492538868
 31
0.0
  0
LINE
  5
185
330
1E
100
AcDbEntity
  8
OBJECT
100
AcDbLine
 10
40.37274401096754
 20
22.65557492538869
 30
0.0
 11
40.99781472295958
 21
22.65557492538869
 31
0.0
  0
ARC
  5
186
330
1E
100
AcDbEntity
  8
OBJECT
100
AcDbCircle
 10
40.37277936705149
 20
22.71807492538868
 30
0.0
 40
0.0625000100000008
100
AcDbArc
 50
90.00000000000005
 51
270.0
  0
ARC
  5
187
330
1E
100
AcDbEntity
  8
OBJECT
100
AcDbCircle
 10
40.99777936705149
 20
22.71807492538868
 30
0.0
 40
0.0625000100000008
100
AcDbArc
 50
270.0
 51
89.99999999999998
  0
LINE
  5
188
330
1E
100
AcDbEntity
  8
OBJECT
100
AcDbLine
 10
39.37274401096754
 20
22.78057492538868
 30
0.0
 11
39.99781472295959
 21
22.78057492538868
 31
0.0
  0
LINE
  5
189
330
1E
100
AcDbEntity
  8
OBJECT
100
AcDbLine
 10
39.37274401096754
 20
22.65557492538869
 30
0.0
 11
39.99781472295959
 21
22.65557492538869
 31
0.0
  0
ARC
  5
18A
330
1E
100
AcDbEntity
  8
OBJECT
100
AcDbCircle
 10
39.37277936705149
 20
22.71807492538868
 30
0.0
 40
0.0625000100000008
100
AcDbArc
 50
90.00000000000005
 51
270.0
  0
ARC
  5
18B
330
1E
100
AcDbEntity
  8
OBJECT
100
AcDbCircle
 10
39.99777936705149
 20
22.71807492538868
 30
0.0
 40
0.0625000100000008
100
AcDbArc
 50
270.0
 51
89.99999999999998
  0
LINE
  5
18C
330
1E
100
AcDbEntity
  8
OBJECT
100
AcDbLine
 10
38.37274401096754
 20
22.78057492538868
 30
0.0
 11
38.99781472295959
 21
22.78057492538868
 31
0.0
  0
LINE
  5
18D
330
1E
100
AcDbEntity
  8
OBJECT
100
AcDbLine
 10
38.37274401096754
 20
22.65557492538869
 30
0.0
 11
38.99781472295959
 21
22.65557492538869
 31
0.0
  0
ARC
  5
18E
330
1E
100
AcDbEntity
  8
OBJECT
100
AcDbCircle
 10
38.3727793670515
 20
22.71807492538868
 30
0.0
 40
0.0625000100000008
100
AcDbArc
 50
90.00000000000005
 51
270.0
  0
ARC
  5
18F
330
1E
100
AcDbEntity
  8
OBJECT
100
AcDbCircle
 10
38.99777936705149
 20
22.71807492538868
 30
0.0
 40
0.0625000100000008
100
AcDbArc
 50
270.0
 51
89.99999999999998
  0
LINE
  5
190
330
1E
100
AcDbEntity
  8
OBJECT
100
AcDbLine
 10
37.37274401096754
 20
22.78057492538868
 30
0.0
 11
37.99781472295959
 21
22.78057492538868
 31
0.0
  0
LINE
  5
191
330
1E
100
AcDbEntity
  8
OBJECT
100
AcDbLine
 10
37.37274401096754
 20
22.65557492538869
 30
0.0
 11
37.99781472295959
 21
22.65557492538869
 31
0.0
  0
ARC
  5
192
330
1E
100
AcDbEntity
  8
OBJECT
100
AcDbCircle
 10
37.3727793670515
 20
22.71807492538868
 30
0.0
 40
0.0625000100000008
100
AcDbArc
 50
90.00000000000005
 51
270.0
  0
ARC
  5
193
330
1E
100
AcDbEntity
  8
OBJECT
100
AcDbCircle
 10
37.9977793670515
 20
22.71807492538868
 30
0.0
 40
0.0625000100000008
100
AcDbArc
 50
270.0
 51
89.99999999999998
  0
LINE
  5
194
330
1E
100
AcDbEntity
  8
OBJECT
100
AcDbLine
 10
36.37274401096754
 20
22.78057492538868
 30
0.0
 11
36.99781472295959
 21
22.78057492538868
 31
0.0
  0
LINE
  5
195
330
1E
100
AcDbEntity
  8
OBJECT
100
AcDbLine
 10
36.37274401096754
 20
22.65557492538869
 30
0.0
 11
36.99781472295959
 21
22.65557492538869
 31
0.0
  0
ARC
  5
196
330
1E
100
AcDbEntity
  8
OBJECT
100
AcDbCircle
 10
36.37277936705149
 20
22.71807492538868
 30
0.0
 40
0.0625000100000008
100
AcDbArc
 50
90.00000000000005
 51
270.0
  0
ARC
  5
197
330
1E
100
AcDbEntity
  8
OBJECT
100
AcDbCircle
 10
36.99777936705149
 20
22.71807492538868
 30
0.0
 40
0.0625000100000008
100
AcDbArc
 50
270.0
 51
89.99999999999998
  0
LINE
  5
198
330
1E
100
AcDbEntity
  8
OBJECT
100
AcDbLine
 10
35.37274401096754
 20
22.78057492538868
 30
0.0
 11
35.99781472295959
 21
22.78057492538868
 31
0.0
  0
LINE
  5
199
330
1E
100
AcDbEntity
  8
OBJECT
100
AcDbLine
 10
35.37274401096754
 20
22.65557492538869
 30
0.0
 11
35.99781472295959
 21
22.65557492538869
 31
0.0
  0
ARC
  5
19A
330
1E
100
AcDbEntity
  8
OBJECT
100
AcDbCircle
 10
35.3727793670515
 20
22.71807492538868
 30
0.0
 40
0.0625000100000008
100
AcDbArc
 50
90.00000000000005
 51
270.0
  0
ARC
  5
19B
330
1E
100
AcDbEntity
  8
OBJECT
100
AcDbCircle
 10
35.9977793670515
 20
22.71807492538868
 30
0.0
 40
0.0625000100000008
100
AcDbArc
 50
270.0
 51
89.99999999999998
  0
LINE
  5
19C
330
1E
100
AcDbEntity
  8
OBJECT
100
AcDbLine
 10
34.37274401096754
 20
22.78057492538868
 30
0.0
 11
34.99781472295959
 21
22.78057492538868
 31
0.0
  0
LINE
  5
19D
330
1E
100
AcDbEntity
  8
OBJECT
100
AcDbLine
 10
34.37274401096754
 20
22.65557492538869
 30
0.0
 11
34.99781472295959
 21
22.65557492538869
 31
0.0
  0
ARC
  5
19E
330
1E
100
AcDbEntity
  8
OBJECT
100
AcDbCircle
 10
34.3727793670515
 20
22.71807492538868
 30
0.0
 40
0.0625000100000008
100
AcDbArc
 50
90.00000000000005
 51
270.0
  0
ARC
  5
19F
330
1E
100
AcDbEntity
  8
OBJECT
100
AcDbCircle
 10
34.9977793670515
 20
22.71807492538868
 30
0.0
 40
0.0625000100000008
100
AcDbArc
 50
270.0
 51
89.99999999999998
  0
LINE
  5
1A0
330
1E
100
AcDbEntity
  8
OBJECT
100
AcDbLine
 10
33.37274401096754
 20
22.78057492538868
 30
0.0
 11
33.99781472295959
 21
22.78057492538868
 31
0.0
  0
LINE
  5
1A1
330
1E
100
AcDbEntity
  8
OBJECT
100
AcDbLine
 10
33.37274401096754
 20
22.65557492538869
 30
0.0
 11
33.99781472295959
 21
22.65557492538869
 31
0.0
  0
ARC
  5
1A2
330
1E
100
AcDbEntity
  8
OBJECT
100
AcDbCircle
 10
33.3727793670515
 20
22.71807492538868
 30
0.0
 40
0.0625000100000008
100
AcDbArc
 50
90.00000000000005
 51
270.0
  0
ARC
  5
1A3
330
1E
100
AcDbEntity
  8
OBJECT
100
AcDbCircle
 10
33.9977793670515
 20
22.71807492538868
 30
0.0
 40
0.0625000100000008
100
AcDbArc
 50
270.0
 51
89.99999999999998
  0
LINE
  5
1A4
330
1E
100
AcDbEntity
  8
OBJECT
100
AcDbLine
 10
32.37274401096754
 20
22.78057492538868
 30
0.0
 11
32.99781472295959
 21
22.78057492538868
 31
0.0
  0
LINE
  5
1A5
330
1E
100
AcDbEntity
  8
OBJECT
100
AcDbLine
 10
32.37274401096754
 20
22.65557492538869
 30
0.0
 11
32.99781472295959
 21
22.65557492538869
 31
0.0
  0
ARC
  5
1A6
330
1E
100
AcDbEntity
  8
OBJECT
100
AcDbCircle
 10
32.3727793670515
 20
22.71807492538868
 30
0.0
 40
0.0625000100000008
100
AcDbArc
 50
90.00000000000005
 51
270.0
  0
ARC
  5
1A7
330
1E
100
AcDbEntity
  8
OBJECT
100
AcDbCircle
 10
32.9977793670515
 20
22.71807492538868
 30
0.0
 40
0.0625000100000008
100
AcDbArc
 50
270.0
 51
89.99999999999998
  0
LINE
  5
1A8
330
1E
100
AcDbEntity
  8
OBJECT
100
AcDbLine
 10
31.37274401096754
 20
22.78057492538868
 30
0.0
 11
31.99781472295958
 21
22.78057492538868
 31
0.0
  0
LINE
  5
1A9
330
1E
100
AcDbEntity
  8
OBJECT
100
AcDbLine
 10
31.37274401096754
 20
22.65557492538869
 30
0.0
 11
31.99781472295958
 21
22.65557492538869
 31
0.0
  0
ARC
  5
1AA
330
1E
100
AcDbEntity
  8
OBJECT
100
AcDbCircle
 10
31.37277936705148
 20
22.71807492538868
 30
0.0
 40
0.0625000100000008
100
AcDbArc
 50
90.00000000000005
 51
270.0
  0
ARC
  5
1AB
330
1E
100
AcDbEntity
  8
OBJECT
100
AcDbCircle
 10
31.99777936705148
 20
22.71807492538868
 30
0.0
 40
0.0625000100000008
100
AcDbArc
 50
270.0
 51
89.99999999999998
  0
LINE
  5
1AC
330
1E
100
AcDbEntity
  8
OBJECT
100
AcDbLine
 10
30.37274401096754
 20
22.78057492538868
 30
0.0
 11
30.99781472295958
 21
22.78057492538868
 31
0.0
  0
LINE
  5
1AD
330
1E
100
AcDbEntity
  8
OBJECT
100
AcDbLine
 10
30.37274401096754
 20
22.65557492538869
 30
0.0
 11
30.99781472295958
 21
22.65557492538869
 31
0.0
  0
ARC
  5
1AE
330
1E
100
AcDbEntity
  8
OBJECT
100
AcDbCircle
 10
30.3727793670515
 20
22.71807492538868
 30
0.0
 40
0.0625000100000008
100
AcDbArc
 50
90.00000000000005
 51
270.0
  0
ARC
  5
1AF
330
1E
100
AcDbEntity
  8
OBJECT
100
AcDbCircle
 10
30.9977793670515
 20
22.71807492538868
 30
0.0
 40
0.0625000100000008
100
AcDbArc
 50
270.0
 51
89.99999999999998
  0
LINE
  5
1B0
330
1E
100
AcDbEntity
  8
OBJECT
100
AcDbLine
 10
29.37274401096754
 20
22.78057492538868
 30
0.0
 11
29.99781472295959
 21
22.78057492538868
 31
0.0
  0
LINE
  5
1B1
330
1E
100
AcDbEntity
  8
OBJECT
100
AcDbLine
 10
29.37274401096754
 20
22.65557492538869
 30
0.0
 11
29.99781472295959
 21
22.65557492538869
 31
0.0
  0
ARC
  5
1B2
330
1E
100
AcDbEntity
  8
OBJECT
100
AcDbCircle
 10
29.37277936705148
 20
22.71807492538868
 30
0.0
 40
0.0625000100000008
100
AcDbArc
 50
90.00000000000005
 51
270.0
  0
ARC
  5
1B3
330
1E
100
AcDbEntity
  8
OBJECT
100
AcDbCircle
 10
29.99777936705148
 20
22.71807492538868
 30
0.0
 40
0.0625000100000008
100
AcDbArc
 50
270.0
 51
89.99999999999998
  0
LINE
  5
1B4
330
1E
100
AcDbEntity
  8
OBJECT
100
AcDbLine
 10
42.37274401096754
 20
37.53057492538869
 30
0.0
 11
42.99781472295959
 21
37.53057492538869
 31
0.0
  0
LINE
  5
1B5
330
1E
100
AcDbEntity
  8
OBJECT
100
AcDbLine
 10
42.37274401096754
 20
37.40557492538869
 30
0.0
 11
42.99781472295959
 21
37.40557492538869
 31
0.0
  0
ARC
  5
1B6
330
1E
100
AcDbEntity
  8
OBJECT
100
AcDbCircle
 10
42.37277936705149
 20
37.46807492538869
 30
0.0
 40
0.0625000100000008
100
AcDbArc
 50
90.00000000000005
 51
270.0
  0
ARC
  5
1B7
330
1E
100
AcDbEntity
  8
OBJECT
100
AcDbCircle
 10
42.9977793670515
 20
37.46807492538869
 30
0.0
 40
0.0625000100000008
100
AcDbArc
 50
270.0
 51
89.99999999999998
  0
LINE
  5
1B8
330
1E
100
AcDbEntity
  8
OBJECT
100
AcDbLine
 10
41.37274401096752
 20
37.53057492538869
 30
0.0
 11
41.99781472295959
 21
37.53057492538869
 31
0.0
  0
LINE
  5
1B9
330
1E
100
AcDbEntity
  8
OBJECT
100
AcDbLine
 10
41.37274401096752
 20
37.40557492538869
 30
0.0
 11
41.99781472295959
 21
37.40557492538869
 31
0.0
  0
ARC
  5
1BA
330
1E
100
AcDbEntity
  8
OBJECT
100
AcDbCircle
 10
41.37277936705149
 20
37.46807492538869
 30
0.0
 40
0.0625000100000008
100
AcDbArc
 50
90.00000000000005
 51
270.0
  0
ARC
  5
1BB
330
1E
100
AcDbEntity
  8
OBJECT
100
AcDbCircle
 10
41.99777936705149
 20
37.46807492538869
 30
0.0
 40
0.0625000100000008
100
AcDbArc
 50
270.0
 51
89.99999999999998
  0
LINE
  5
1BC
330
1E
100
AcDbEntity
  8
OBJECT
100
AcDbLine
 10
40.37274401096754
 20
37.53057492538869
 30
0.0
 11
40.99781472295958
 21
37.53057492538869
 31
0.0
  0
LINE
  5
1BD
330
1E
100
AcDbEntity
  8
OBJECT
100
AcDbLine
 10
40.37274401096754
 20
37.40557492538869
 30
0.0
 11
40.99781472295958
 21
37.40557492538869
 31
0.0
  0
ARC
  5
1BE
330
1E
100
AcDbEntity
  8
OBJECT
100
AcDbCircle
 10
40.37277936705149
 20
37.46807492538869
 30
0.0
 40
0.0625000100000008
100
AcDbArc
 50
90.00000000000005
 51
270.0
  0
ARC
  5
1BF
330
1E
100
AcDbEntity
  8
OBJECT
100
AcDbCircle
 10
40.99777936705149
 20
37.46807492538869
 30
0.0
 40
0.0625000100000008
100
AcDbArc
 50
270.0
 51
89.99999999999998
  0
LINE
  5
1C0
330
1E
100
AcDbEntity
  8
OBJECT
100
AcDbLine
 10
39.37274401096754
 20
37.53057492538869
 30
0.0
 11
39.99781472295959
 21
37.53057492538869
 31
0.0
  0
LINE
  5
1C1
330
1E
100
AcDbEntity
  8
OBJECT
100
AcDbLine
 10
39.37274401096754
 20
37.40557492538869
 30
0.0
 11
39.99781472295959
 21
37.40557492538869
 31
0.0
  0
ARC
  5
1C2
330
1E
100
AcDbEntity
  8
OBJECT
100
AcDbCircle
 10
39.37277936705149
 20
37.46807492538869
 30
0.0
 40
0.0625000100000008
100
AcDbArc
 50
90.00000000000005
 51
270.0
  0
ARC
  5
1C3
330
1E
100
AcDbEntity
  8
OBJECT
100
AcDbCircle
 10
39.99777936705149
 20
37.46807492538869
 30
0.0
 40
0.0625000100000008
100
AcDbArc
 50
270.0
 51
89.99999999999998
  0
LINE
  5
1C4
330
1E
100
AcDbEntity
  8
OBJECT
100
AcDbLine
 10
38.37274401096754
 20
37.53057492538869
 30
0.0
 11
38.99781472295959
 21
37.53057492538869
 31
0.0
  0
LINE
  5
1C5
330
1E
100
AcDbEntity
  8
OBJECT
100
AcDbLine
 10
38.37274401096754
 20
37.40557492538869
 30
0.0
 11
38.99781472295959
 21
37.40557492538869
 31
0.0
  0
ARC
  5
1C6
330
1E
100
AcDbEntity
  8
OBJECT
100
AcDbCircle
 10
38.3727793670515
 20
37.46807492538869
 30
0.0
 40
0.0625000100000008
100
AcDbArc
 50
90.00000000000005
 51
270.0
  0
ARC
  5
1C7
330
1E
100
AcDbEntity
  8
OBJECT
100
AcDbCircle
 10
38.99777936705149
 20
37.46807492538869
 30
0.0
 40
0.0625000100000008
100
AcDbArc
 50
270.0
 51
89.99999999999998
  0
LINE
  5
1C8
330
1E
100
AcDbEntity
  8
OBJECT
100
AcDbLine
 10
37.37274401096754
 20
37.53057492538869
 30
0.0
 11
37.99781472295959
 21
37.53057492538869
 31
0.0
  0
LINE
  5
1C9
330
1E
100
AcDbEntity
  8
OBJECT
100
AcDbLine
 10
37.37274401096754
 20
37.40557492538869
 30
0.0
 11
37.99781472295959
 21
37.40557492538869
 31
0.0
  0
ARC
  5
1CA
330
1E
100
AcDbEntity
  8
OBJECT
100
AcDbCircle
 10
37.3727793670515
 20
37.46807492538869
 30
0.0
 40
0.0625000100000008
100
AcDbArc
 50
90.00000000000005
 51
270.0
  0
ARC
  5
1CB
330
1E
100
AcDbEntity
  8
OBJECT
100
AcDbCircle
 10
37.9977793670515
 20
37.46807492538869
 30
0.0
 40
0.0625000100000008
100
AcDbArc
 50
270.0
 51
89.99999999999998
  0
LINE
  5
1CC
330
1E
100
AcDbEntity
  8
OBJECT
100
AcDbLine
 10
36.37274401096754
 20
37.53057492538869
 30
0.0
 11
36.99781472295959
 21
37.53057492538869
 31
0.0
  0
LINE
  5
1CD
330
1E
100
AcDbEntity
  8
OBJECT
100
AcDbLine
 10
36.37274401096754
 20
37.40557492538869
 30
0.0
 11
36.99781472295959
 21
37.40557492538869
 31
0.0
  0
ARC
  5
1CE
330
1E
100
AcDbEntity
  8
OBJECT
100
AcDbCircle
 10
36.37277936705149
 20
37.46807492538869
 30
0.0
 40
0.0625000100000008
100
AcDbArc
 50
90.00000000000005
 51
270.0
  0
ARC
  5
1CF
330
1E
100
AcDbEntity
  8
OBJECT
100
AcDbCircle
 10
36.99777936705149
 20
37.46807492538869
 30
0.0
 40
0.0625000100000008
100
AcDbArc
 50
270.0
 51
89.99999999999998
  0
LINE
  5
1D0
330
1E
100
AcDbEntity
  8
OBJECT
100
AcDbLine
 10
35.37274401096754
 20
37.53057492538869
 30
0.0
 11
35.99781472295959
 21
37.53057492538869
 31
0.0
  0
LINE
  5
1D1
330
1E
100
AcDbEntity
  8
OBJECT
100
AcDbLine
 10
35.37274401096754
 20
37.40557492538869
 30
0.0
 11
35.99781472295959
 21
37.40557492538869
 31
0.0
  0
ARC
  5
1D2
330
1E
100
AcDbEntity
  8
OBJECT
100
AcDbCircle
 10
35.3727793670515
 20
37.46807492538869
 30
0.0
 40
0.0625000100000008
100
AcDbArc
 50
90.00000000000005
 51
270.0
  0
ARC
  5
1D3
330
1E
100
AcDbEntity
  8
OBJECT
100
AcDbCircle
 10
35.9977793670515
 20
37.46807492538869
 30
0.0
 40
0.0625000100000008
100
AcDbArc
 50
270.0
 51
89.99999999999998
  0
LINE
  5
1D4
330
1E
100
AcDbEntity
  8
OBJECT
100
AcDbLine
 10
34.37274401096754
 20
37.53057492538869
 30
0.0
 11
34.99781472295959
 21
37.53057492538869
 31
0.0
  0
LINE
  5
1D5
330
1E
100
AcDbEntity
  8
OBJECT
100
AcDbLine
 10
34.37274401096754
 20
37.40557492538869
 30
0.0
 11
34.99781472295959
 21
37.40557492538869
 31
0.0
  0
ARC
  5
1D6
330
1E
100
AcDbEntity
  8
OBJECT
100
AcDbCircle
 10
34.3727793670515
 20
37.46807492538869
 30
0.0
 40
0.0625000100000008
100
AcDbArc
 50
90.00000000000005
 51
270.0
  0
ARC
  5
1D7
330
1E
100
AcDbEntity
  8
OBJECT
100
AcDbCircle
 10
34.9977793670515
 20
37.46807492538869
 30
0.0
 40
0.0625000100000008
100
AcDbArc
 50
270.0
 51
89.99999999999998
  0
LINE
  5
1D8
330
1E
100
AcDbEntity
  8
OBJECT
100
AcDbLine
 10
33.37274401096754
 20
37.53057492538869
 30
0.0
 11
33.99781472295959
 21
37.53057492538869
 31
0.0
  0
LINE
  5
1D9
330
1E
100
AcDbEntity
  8
OBJECT
100
AcDbLine
 10
33.37274401096754
 20
37.40557492538869
 30
0.0
 11
33.99781472295959
 21
37.40557492538869
 31
0.0
  0
ARC
  5
1DA
330
1E
100
AcDbEntity
  8
OBJECT
100
AcDbCircle
 10
33.3727793670515
 20
37.46807492538869
 30
0.0
 40
0.0625000100000008
100
AcDbArc
 50
90.00000000000005
 51
270.0
  0
ARC
  5
1DB
330
1E
100
AcDbEntity
  8
OBJECT
100
AcDbCircle
 10
33.9977793670515
 20
37.46807492538869
 30
0.0
 40
0.0625000100000008
100
AcDbArc
 50
270.0
 51
89.99999999999998
  0
LINE
  5
1DC
330
1E
100
AcDbEntity
  8
OBJECT
100
AcDbLine
 10
32.37274401096754
 20
37.53057492538869
 30
0.0
 11
32.99781472295959
 21
37.53057492538869
 31
0.0
  0
LINE
  5
1DD
330
1E
100
AcDbEntity
  8
OBJECT
100
AcDbLine
 10
32.37274401096754
 20
37.40557492538869
 30
0.0
 11
32.99781472295959
 21
37.40557492538869
 31
0.0
  0
ARC
  5
1DE
330
1E
100
AcDbEntity
  8
OBJECT
100
AcDbCircle
 10
32.3727793670515
 20
37.46807492538869
 30
0.0
 40
0.0625000100000008
100
AcDbArc
 50
90.00000000000005
 51
270.0
  0
ARC
  5
1DF
330
1E
100
AcDbEntity
  8
OBJECT
100
AcDbCircle
 10
32.9977793670515
 20
37.46807492538869
 30
0.0
 40
0.0625000100000008
100
AcDbArc
 50
270.0
 51
89.99999999999998
  0
LINE
  5
1E0
330
1E
100
AcDbEntity
  8
OBJECT
100
AcDbLine
 10
31.37274401096754
 20
37.53057492538869
 30
0.0
 11
31.99781472295958
 21
37.53057492538869
 31
0.0
  0
LINE
  5
1E1
330
1E
100
AcDbEntity
  8
OBJECT
100
AcDbLine
 10
31.37274401096754
 20
37.40557492538869
 30
0.0
 11
31.99781472295958
 21
37.40557492538869
 31
0.0
  0
ARC
  5
1E2
330
1E
100
AcDbEntity
  8
OBJECT
100
AcDbCircle
 10
31.37277936705148
 20
37.46807492538869
 30
0.0
 40
0.0625000100000008
100
AcDbArc
 50
90.00000000000005
 51
270.0
  0
ARC
  5
1E3
330
1E
100
AcDbEntity
  8
OBJECT
100
AcDbCircle
 10
31.99777936705148
 20
37.46807492538869
 30
0.0
 40
0.0625000100000008
100
AcDbArc
 50
270.0
 51
89.99999999999998
  0
LINE
  5
1E4
330
1E
100
AcDbEntity
  8
OBJECT
100
AcDbLine
 10
30.37274401096754
 20
37.53057492538869
 30
0.0
 11
30.99781472295958
 21
37.53057492538869
 31
0.0
  0
LINE
  5
1E5
330
1E
100
AcDbEntity
  8
OBJECT
100
AcDbLine
 10
30.37274401096754
 20
37.40557492538869
 30
0.0
 11
30.99781472295958
 21
37.40557492538869
 31
0.0
  0
ARC
  5
1E6
330
1E
100
AcDbEntity
  8
OBJECT
100
AcDbCircle
 10
30.3727793670515
 20
37.46807492538869
 30
0.0
 40
0.0625000100000008
100
AcDbArc
 50
90.00000000000005
 51
270.0
  0
ARC
  5
1E7
330
1E
100
AcDbEntity
  8
OBJECT
100
AcDbCircle
 10
30.9977793670515
 20
37.46807492538869
 30
0.0
 40
0.0625000100000008
100
AcDbArc
 50
270.0
 51
89.99999999999998
  0
LINE
  5
1E8
330
1E
100
AcDbEntity
  8
OBJECT
100
AcDbLine
 10
29.37274401096754
 20
37.53057492538869
 30
0.0
 11
29.99781472295959
 21
37.53057492538869
 31
0.0
  0
LINE
  5
1E9
330
1E
100
AcDbEntity
  8
OBJECT
100
AcDbLine
 10
29.37274401096754
 20
37.40557492538869
 30
0.0
 11
29.99781472295959
 21
37.40557492538869
 31
0.0
  0
ARC
  5
1EA
330
1E
100
AcDbEntity
  8
OBJECT
100
AcDbCircle
 10
29.37277936705148
 20
37.46807492538869
 30
0.0
 40
0.0625000100000008
100
AcDbArc
 50
90.00000000000005
 51
270.0
  0
ARC
  5
1EB
330
1E
100
AcDbEntity
  8
OBJECT
100
AcDbCircle
 10
29.99777936705148
 20
37.46807492538869
 30
0.0
 40
0.0625000100000008
100
AcDbArc
 50
270.0
 51
89.99999999999998
  0
ARC
  5
1EC
330
1E
100
AcDbEntity
  8
OBJECT
100
AcDbCircle
 10
28.99777936705148
 20
37.46807492538869
 30
0.0
 40
0.0625000100000008
100
AcDbArc
 50
270.0
 51
89.99999999999998
  0
ARC
  5
1ED
330
1E
100
AcDbEntity
  8
OBJECT
100
AcDbCircle
 10
28.37277936705148
 20
37.46807492538869
 30
0.0
 40
0.0625000100000008
100
AcDbArc
 50
90.00000000000005
 51
270.0
  0
LINE
  5
1EE
330
1E
100
AcDbEntity
  8
OBJECT
100
AcDbLine
 10
28.37274401096754
 20
37.40557492538869
 30
0.0
 11
28.99781472295959
 21
37.40557492538869
 31
0.0
  0
LINE
  5
1EF
330
1E
100
AcDbEntity
  8
OBJECT
100
AcDbLine
 10
28.37274401096754
 20
37.53057492538869
 30
0.0
 11
28.99781472295959
 21
37.53057492538869
 31
0.0
  0
LINE
  5
1F0
330
1E
100
AcDbEntity
  8
OBJECT
  6
PHANTOM2
100
AcDbLine
 10
43.06027937705148
 20
37.28205437486329
 30
0.0
 11
43.06027937705148
 21
22.88650267930012
 31
0.0
  0
LINE
  5
1F1
330
1E
100
AcDbEntity
  8
OBJECT
  6
PHANTOM2
100
AcDbLine
 10
42.31027935687563
 20
37.28205437486329
 30
0.0
 11
42.31027935687563
 21
22.88650267930012
 31
0.0
  0
LINE
  5
1F2
330
1E
100
AcDbEntity
  8
OBJECT
  6
PHANTOM2
100
AcDbLine
 10
42.06027937705147
 20
37.28205437486329
 30
0.0
 11
42.06027937705147
 21
22.88650267930012
 31
0.0
  0
LINE
  5
1F3
330
1E
100
AcDbEntity
  8
OBJECT
  6
PHANTOM2
100
AcDbLine
 10
41.31027935687564
 20
37.28205437486329
 30
0.0
 11
41.31027935687564
 21
22.88650267930012
 31
0.0
  0
LINE
  5
1F4
330
1E
100
AcDbEntity
  8
OBJECT
  6
PHANTOM2
100
AcDbLine
 10
41.06027937705149
 20
37.28205437486329
 30
0.0
 11
41.06027937705149
 21
22.88650267930012
 31
0.0
  0
LINE
  5
1F5
330
1E
100
AcDbEntity
  8
OBJECT
  6
PHANTOM2
100
AcDbLine
 10
40.31027935687563
 20
37.28205437486329
 30
0.0
 11
40.31027935687563
 21
22.88650267930012
 31
0.0
  0
LINE
  5
1F6
330
1E
100
AcDbEntity
  8
OBJECT
  6
PHANTOM2
100
AcDbLine
 10
40.06027937705147
 20
37.28205437486329
 30
0.0
 11
40.06027937705147
 21
22.88650267930012
 31
0.0
  0
LINE
  5
1F7
330
1E
100
AcDbEntity
  8
OBJECT
  6
PHANTOM2
100
AcDbLine
 10
39.31027935687564
 20
37.28205437486329
 30
0.0
 11
39.31027935687564
 21
22.88650267930012
 31
0.0
  0
LINE
  5
1F8
330
1E
100
AcDbEntity
  8
OBJECT
  6
PHANTOM2
100
AcDbLine
 10
39.06027937705149
 20
37.28205437486329
 30
0.0
 11
39.06027937705149
 21
22.88650267930012
 31
0.0
  0
LINE
  5
1F9
330
1E
100
AcDbEntity
  8
OBJECT
  6
PHANTOM2
100
AcDbLine
 10
38.31027935687565
 20
37.28205437486329
 30
0.0
 11
38.31027935687565
 21
22.88650267930012
 31
0.0
  0
LINE
  5
1FA
330
1E
100
AcDbEntity
  8
OBJECT
  6
PHANTOM2
100
AcDbLine
 10
38.06027937705149
 20
37.28205437486329
 30
0.0
 11
38.06027937705149
 21
22.88650267930012
 31
0.0
  0
LINE
  5
1FB
330
1E
100
AcDbEntity
  8
OBJECT
  6
PHANTOM2
100
AcDbLine
 10
37.31027935687563
 20
37.28205437486329
 30
0.0
 11
37.31027935687563
 21
22.88650267930012
 31
0.0
  0
LINE
  5
1FC
330
1E
100
AcDbEntity
  8
OBJECT
  6
PHANTOM2
100
AcDbLine
 10
37.06027937705149
 20
37.28205437486329
 30
0.0
 11
37.06027937705149
 21
22.88650267930012
 31
0.0
  0
LINE
  5
1FD
330
1E
100
AcDbEntity
  8
OBJECT
  6
PHANTOM2
100
AcDbLine
 10
36.31027935687564
 20
37.28205437486329
 30
0.0
 11
36.31027935687564
 21
22.88650267930012
 31
0.0
  0
LINE
  5
1FE
330
1E
100
AcDbEntity
  8
OBJECT
  6
PHANTOM2
100
AcDbLine
 10
36.06027937705149
 20
37.28205437486329
 30
0.0
 11
36.06027937705149
 21
22.88650267930012
 31
0.0
  0
LINE
  5
1FF
330
1E
100
AcDbEntity
  8
OBJECT
  6
PHANTOM2
100
AcDbLine
 10
35.31027935687564
 20
37.28205437486329
 30
0.0
 11
35.31027935687564
 21
22.88650267930012
 31
0.0
  0
LINE
  5
200
330
1E
100
AcDbEntity
  8
OBJECT
  6
PHANTOM2
100
AcDbLine
 10
35.06027937705148
 20
37.28205437486329
 30
0.0
 11
35.06027937705148
 21
22.88650267930012
 31
0.0
  0
LINE
  5
201
330
1E
100
AcDbEntity
  8
OBJECT
  6
PHANTOM2
100
AcDbLine
 10
34.31027935687565
 20
37.28205437486329
 30
0.0
 11
34.31027935687565
 21
22.88650267930012
 31
0.0
  0
LINE
  5
202
330
1E
100
AcDbEntity
  8
OBJECT
  6
PHANTOM2
100
AcDbLine
 10
34.06027937705149
 20
37.28205437486329
 30
0.0
 11
34.06027937705149
 21
22.88650267930012
 31
0.0
  0
LINE
  5
203
330
1E
100
AcDbEntity
  8
OBJECT
  6
PHANTOM2
100
AcDbLine
 10
33.31027935687564
 20
37.28205437486329
 30
0.0
 11
33.31027935687564
 21
22.88650267930012
 31
0.0
  0
LINE
  5
204
330
1E
100
AcDbEntity
  8
OBJECT
  6
PHANTOM2
100
AcDbLine
 10
33.06027937705148
 20
37.28205437486329
 30
0.0
 11
33.06027937705148
 21
22.88650267930012
 31
0.0
  0
LINE
  5
205
330
1E
100
AcDbEntity
  8
OBJECT
  6
PHANTOM2
100
AcDbLine
 10
32.31027935687563
 20
37.28205437486329
 30
0.0
 11
32.31027935687563
 21
22.88650267930012
 31
0.0
  0
LINE
  5
206
330
1E
100
AcDbEntity
  8
OBJECT
  6
PHANTOM2
100
AcDbLine
 10
32.06027937705148
 20
37.28205437486329
 30
0.0
 11
32.06027937705148
 21
22.88650267930012
 31
0.0
  0
LINE
  5
207
330
1E
100
AcDbEntity
  8
OBJECT
  6
PHANTOM2
100
AcDbLine
 10
31.31027935687564
 20
37.28205437486329
 30
0.0
 11
31.31027935687564
 21
22.88650267930012
 31
0.0
  0
LINE
  5
208
330
1E
100
AcDbEntity
  8
OBJECT
  6
PHANTOM2
100
AcDbLine
 10
31.06027937705148
 20
37.28205437486329
 30
0.0
 11
31.06027937705148
 21
22.88650267930012
 31
0.0
  0
LINE
  5
209
330
1E
100
AcDbEntity
  8
OBJECT
  6
PHANTOM2
100
AcDbLine
 10
30.31027935687564
 20
37.28205437486329
 30
0.0
 11
30.31027935687564
 21
22.88650267930012
 31
0.0
  0
LINE
  5
20A
330
1E
100
AcDbEntity
  8
OBJECT
  6
PHANTOM2
100
AcDbLine
 10
30.06027937705148
 20
37.28205437486329
 30
0.0
 11
30.06027937705148
 21
22.88650267930012
 31
0.0
  0
LINE
  5
20B
330
1E
100
AcDbEntity
  8
OBJECT
  6
PHANTOM2
100
AcDbLine
 10
29.31027935687565
 20
37.28205437486329
 30
0.0
 11
29.31027935687565
 21
22.88650267930012
 31
0.0
  0
DIMENSION
  5
20C
330
1E
100
AcDbEntity
  8
DIM
100
AcDbDimension
  2
*D3
 10
23.96038297924963
 20
69.96159149217736
 30
0.0
 11
15.55438297924963
 21
69.96159149217736
 31
0.0
 70
    32
  3
23NSTD
100
AcDbAlignedDimension
 13
7.148382979249632
 23
68.16097399607665
 33
0.0
 14
23.96038297924963
 24
68.16097399607665
 34
0.0
100
AcDbRotatedDimension
  0
DIMENSION
  5
20D
330
1E
100
AcDbEntity
  8
DIM
100
AcDbDimension
  2
*D4
 10
5.332208699240219
 20
58.62997399607666
 30
0.0
 11
5.332208699240209
 21
63.39547399607664
 31
0.0
 70
    32
  1
A
  3
23NSTD
100
AcDbAlignedDimension
 13
7.148382979249632
 23
68.16097399607665
 33
0.0
 14
7.148382979249632
 24
58.62997399607666
 34
0.0
 50
90.0
100
AcDbRotatedDimension
  0
DIMENSION
  5
20E
330
1E
100
AcDbEntity
  8
DIM
100
AcDbDimension
  2
*D5
 10
36.55757105111964
 20
68.16097399607665
 30
0.0
 11
38.76694605111964
 21
69.96097399607666
 31
0.0
 70
    32
  3
23NSTD
100
AcDbAlignedDimension
 13
33.6184525161911
 23
67.77097399607666
 33
0.0
 14
33.8984525161911
 24
68.16097399607665
 34
0.0
 50
90.0
100
AcDbRotatedDimension
  0
DIMENSION
  5
20F
330
1E
100
AcDbEntity
  8
DIM
100
AcDbDimension
  2
*D6
 10
36.55757105111964
 20
67.77097399607666
 30
0.0
 11
36.55757105111963
 21
63.39547399607667
 31
0.0
 70
    32
  1
B
  3
23NSTD
100
AcDbAlignedDimension
 13
33.6184525161911
 23
59.01997399607667
 33
0.0
 14
33.6184525161911
 24
67.77097399607666
 34
0.0
 50
90.0
100
AcDbRotatedDimension
  0
DIMENSION
  5
210
330
1E
100
AcDbEntity
  8
DIM
100
AcDbDimension
  2
*D7
 10
1.949946002274685
 20
21.81657870792791
 30
0.0
 11
1.949946002274682
 21
30.2115787079279
 31
0.0
 70
    32
  3
23NSTD
100
AcDbAlignedDimension
 13
3.735945536723948
 23
38.6065787079279
 33
0.0
 14
3.735945536723948
 24
21.81657870792791
 34
0.0
 50
270.0
100
AcDbRotatedDimension
  0
DIMENSION
  5
211
330
1E
100
AcDbEntity
  8
DIM
100
AcDbDimension
  2
*D0
 10
3.735945536723948
 20
40.1345366546721
 30
0.0
 11
12.26694553672394
 21
40.1345366546721
 31
0.0
 70
    32
  1
A
  3
23NSTD
100
AcDbAlignedDimension
 13
20.79794553672394
 23
38.6065787079279
 33
0.0
 14
3.735945536723948
 24
38.6065787079279
 34
0.0
100
AcDbRotatedDimension
  0
DIMENSION
  5
212
330
1E
100
AcDbEntity
  8
DIM
100
AcDbDimension
  2
*D8
 10
46.90865370602138
 20
38.4878249253887
 30
0.0
 11
49.03990370602137
 21
40.2878249253887
 31
0.0
 70
    32
  3
23NSTD
100
AcDbAlignedDimension
 13
43.06027937705148
 23
37.46807492538869
 33
0.0
 14
44.21627936696356
 24
38.4878249253887
 34
0.0
 50
270.0
100
AcDbRotatedDimension
  0
DIMENSION
  5
213
330
1E
100
AcDbEntity
  8
DIM
100
AcDbDimension
  2
*D9
 10
46.07702732646188
 20
10.420343644625
 30
0.0
 11
48.32546482646189
 21
12.220343644625
 31
0.0
 70
    32
  3
23NSTD
100
AcDbAlignedDimension
 13
44.21627936696355
 23
9.983343644625012
 33
0.0
 14
44.21627936696355
 24
10.420343644625
 34
0.0
 50
90.0
100
AcDbRotatedDimension
  0
DIMENSION
  5
214
330
1E
100
AcDbEntity
  8
DIM
100
AcDbDimension
  2
*D10
 10
25.24525485000287
 20
9.983343644625012
 30
0.0
 11
23.07494235000286
 21
8.183343644625017
 31
0.0
 70
    32
  3
23NSTD
100
AcDbAlignedDimension
 13
28.06027936696356
 23
10.201343644625
 33
0.0
 14
27.15427936696356
 24
9.983343644625012
 34
0.0
 50
90.0
100
AcDbRotatedDimension
  0
DIMENSION
  5
217
330
1E
100
AcDbEntity
  8
DIM
100
AcDbDimension
  2
*D1
 10
27.15427936696356
 20
18.65986907398625
 30
0.0
 11
27.91977936696357
 21
18.65986907398625
 31
0.0
 70
    32
  1
F
  3
23NSTD
100
AcDbAlignedDimension
 13
28.68527936696357
 23
22.65557492538869
 33
0.0
 14
27.15427936696356
 24
21.69782492538871
 34
0.0
100
AcDbRotatedDimension
  0
DIMENSION
  5
218
330
1E
100
AcDbEntity
  8
DIM
100
AcDbDimension
  2
*D2
 10
42.68527936696357
 20
18.65986907398625
 30
0.0
 11
35.68527936696357
 21
18.65986907398625
 31
0.0
 70
    32
  1
(G) SPACES @ 1.000 = H
  3
23NSTD
100
AcDbAlignedDimension
 13
28.68527936696357
 23
22.65557492538869
 33
0.0
 14
42.68527936696357
 24
22.65557492538869
 34
0.0
100
AcDbRotatedDimension
  0
TEXT
  5
219
330
1E
100
AcDbEntity
  8
TEXT
100
AcDbText
 10
1.325625000000014
 20
75.30039597820041
 30
0.0
 40
0.625
  1
NAME
 41
0.75
 72
     1
 11
2.185000000000014
 21
75.30039597820041
 31
0.0
100
AcDbText
  0
TEXT
  5
21A
330
1E
100
AcDbEntity
  8
TEXT
100
AcDbText
 10
1.325625000000014
 20
76.34206264486706
 30
0.0
 40
0.625
  1
PART
 41
0.75
 72
     1
 11
2.185000000000014
 21
76.34206264486706
 31
0.0
100
AcDbText
  0
TEXT
  5
21B
330
1E
100
AcDbEntity
  8
TEXT
100
AcDbText
 10
22.96624999999999
 20
75.30039597820041
 30
0.0
 40
0.625
  1
No.
 41
0.75
 72
     1
 11
23.43499999999999
 21
75.30039597820041
 31
0.0
100
AcDbText
  0
TEXT
  5
21C
330
1E
100
AcDbEntity
  8
TEXT
100
AcDbText
 10
22.57562499999999
 20
76.34206264486706
 30
0.0
 40
0.625
  1
PART
 41
0.75
 72
     1
 11
23.43499999999999
 21
76.34206264486706
 31
0.0
100
AcDbText
  0
LINE
  5
21D
330
1E
100
AcDbEntity
  8
TITLE
100
AcDbLine
 10
25.31
 20
77.19
 30
0.0
 11
25.31
 21
75.09999999999998
 31
0.0
  0
LINE
  5
21E
330
1E
100
AcDbEntity
  8
TITLE
100
AcDbLine
 10
21.56
 20
77.19
 30
0.0
 11
21.56
 21
75.09999999999998
 31
0.0
  0
LINE
  5
21F
330
1E
100
AcDbEntity
  8
TITLE
100
AcDbLine
 10
21.25
 20
77.19
 30
0.0
 11
21.25
 21
75.09999999999998
 31
0.0
  0
LINE
  5
220
330
1E
100
AcDbEntity
  8
TITLE
100
AcDbLine
 10
4.060000000000013
 20
75.09999999999998
 30
0.0
 11
4.060000000000004
 21
77.19
 31
0.0
  0
LINE
  5
221
330
1E
100
AcDbEntity
  8
TITLE
100
AcDbLine
 10
0.3100000000000058
 20
75.09999999999998
 30
0.0
 11
50.28999999999999
 21
75.09999999999998
 31
0.0
  0
LINE
  5
222
330
1E
100
AcDbEntity
  8
TITLE
100
AcDbLine
 10
50.28999999999999
 20
0.3099999999999969
 30
0.0
 11
0.3099999999999881
 21
0.3100000000000058
 31
0.0
  0
LINE
  5
223
330
1E
100
AcDbEntity
  8
TITLE
100
AcDbLine
 10
50.28999999999999
 20
77.19
 30
0.0
 11
50.29000000000002
 21
48.754878226618
 31
0.0
  0
LINE
  5
224
330
1E
100
AcDbEntity
  8
TITLE
100
AcDbLine
 10
0.3100000000000058
 20
77.19
 30
0.0
 11
50.28999999999999
 21
77.19
 31
0.0
  0
LINE
  5
225
330
1E
100
AcDbEntity
  8
TITLE
100
AcDbLine
 10
0.3099999999999881
 20
0.3100000000000058
 30
0.0
 11
0.3099999999999982
 21
48.444878226618
 31
0.0
  0
LINE
  5
226
330
1E
100
AcDbEntity
  8
TITLE
100
AcDbLine
 10
0.0
 20
0.0
 30
0.0
 11
0.0
 21
77.5
 31
0.0
  0
LINE
  5
227
330
1E
100
AcDbEntity
  8
TITLE
100
AcDbLine
 10
50.59999999999998
 20
-0.0000000000000089
 30
0.0
 11
0.0
 21
0.0
 31
0.0
  0
LINE
  5
228
330
1E
100
AcDbEntity
  8
TITLE
100
AcDbLine
 10
50.59999999999998
 20
77.49999999999999
 30
0.0
 11
50.59999999999998
 21
-0.0000000000000089
 31
0.0
  0
LINE
  5
229
330
1E
100
AcDbEntity
  8
TITLE
100
AcDbLine
 10
0.0
 20
77.5
 30
0.0
 11
50.59999999999998
 21
77.49999999999999
 31
0.0
  0
DIMENSION
  5
22A
330
1E
100
AcDbEntity
  8
DIM
100
AcDbDimension
  2
*D11
 10
44.21627936696356
 20
7.583953942965386
 30
0.0
 11
47.36471686696355
 21
7.583953942965386
 31
0.0
 70
    32
  3
23NSTD
100
AcDbAlignedDimension
 13
43.84127936696355
 23
9.983343644625012
 33
0.0
 14
44.21627936696356
 24
9.983343644625012
 34
0.0
100
AcDbRotatedDimension
  0
DIMENSION
  5
22B
330
1E
100
AcDbEntity
  8
DIM
100
AcDbDimension
  2
*D12
 10
27.15427936696356
 20
13.26842810076954
 30
0.0
 11
24.74802936696355
 21
13.26842810076954
 31
0.0
 70
    32
  1
B
  3
23NSTD
100
AcDbAlignedDimension
 13
28.06027936696354
 23
10.201343644625
 33
0.0
 14
27.15427936696356
 24
10.420343644625
 34
0.0
100
AcDbRotatedDimension
  0
DIMENSION
  5
22C
330
1E
100
AcDbEntity
  8
DIM
100
AcDbDimension
  2
*D13
 10
28.31027935705149
 20
40.1345366546721
 30
0.0
 11
24.18527935705149
 21
40.1345366546721
 31
0.0
 70
    32
  1
<> REF.
  3
23NSTD
100
AcDbAlignedDimension
 13
29.06027937705149
 23
37.46807492538869
 33
0.0
 14
28.31027935705149
 24
37.46807492538869
 34
0.0
100
AcDbRotatedDimension
  0
DIMENSION
  5
22D
330
1E
100
AcDbEntity
  8
DIM
100
AcDbDimension
  2
*D14
 10
37.31027935705149
 20
40.1345366546721
 30
0.0
 11
41.43527935705149
 21
40.1345366546721
 31
0.0
 70
    32
  1
<> TYP.
  3
23NSTD
100
AcDbAlignedDimension
 13
37.0602793770515
 23
37.46807492538869
 33
0.0
 14
37.31027935705149
 24
37.46807492538869
 34
0.0
100
AcDbRotatedDimension
  0
LINE
  5
22E
330
1E
100
AcDbEntity
  8
TITLE
100
AcDbLine
 10
0.3100000000000094
 20
46.354878226618
 30
0.0
 11
50.28999999999999
 21
46.354878226618
 31
0.0
  0
TEXT
  5
22F
330
1E
100
AcDbEntity
  8
TEXT
100
AcDbText
 10
1.325625000000015
 20
47.59694087148507
 30
0.0
 40
0.625
  1
PART
 41
0.75
 72
     1
 11
2.185000000000015
 21
47.59694087148507
 31
0.0
100
AcDbText
  0
TEXT
  5
230
330
1E
100
AcDbEntity
  8
TEXT
100
AcDbText
 10
1.325625000000015
 20
46.5552742048184
 30
0.0
 40
0.625
  1
NAME
 41
0.75
 72
     1
 11
2.185000000000015
 21
46.5552742048184
 31
0.0
100
AcDbText
  0
LINE
  5
231
330
1E
100
AcDbEntity
  8
TITLE
100
AcDbLine
 10
4.060000000000016
 20
46.354878226618
 30
0.0
 11
4.060000000000009
 21
48.444878226618
 31
0.0
  0
LINE
  5
232
330
1E
100
AcDbEntity
  8
TITLE
100
AcDbLine
 10
25.3
 20
48.444878226618
 30
0.0
 11
25.3
 21
46.354878226618
 31
0.0
  0
LINE
  5
233
330
1E
100
AcDbEntity
  8
TITLE
100
AcDbLine
 10
25.60999999999999
 20
48.444878226618
 30
0.0
 11
25.60999999999999
 21
46.354878226618
 31
0.0
  0
TEXT
  5
234
330
1E
100
AcDbEntity
  8
TEXT
100
AcDbText
 10
26.62562499999999
 20
47.59694087148507
 30
0.0
 40
0.625
  1
PART
 41
0.75
 72
     1
 11
27.48499999999999
 21
47.59694087148507
 31
0.0
100
AcDbText
  0
TEXT
  5
235
330
1E
100
AcDbEntity
  8
TEXT
100
AcDbText
 10
27.01624999999999
 20
46.5552742048184
 30
0.0
 40
0.625
  1
No.
 41
0.75
 72
     1
 11
27.48499999999999
 21
46.5552742048184
 31
0.0
100
AcDbText
  0
LINE
  5
236
330
1E
100
AcDbEntity
  8
TITLE
100
AcDbLine
 10
29.35999999999999
 20
48.444878226618
 30
0.0
 11
29.35999999999999
 21
46.354878226618
 31
0.0
  0
TEXT
  5
237
330
1E
100
AcDbEntity
  8
TEXT
100
AcDbText
 10
28.75666918731713
 20
16.08044537144073
 30
0.0
 40
0.625
  1
VENTILATED TOP OR BOTTOM COVER
 41
0.75
 72
     1
 11
35.78791918731713
 21
16.08044537144073
 31
0.0
100
AcDbText
  0
TEXT
  5
238
330
1E
100
AcDbEntity
  8
TEXT
100
AcDbText
 10
31.10041918731713
 20
15.03877870477406
 30
0.0
 40
0.625
  1
TBC-14262 & TBC-14263
 41
0.75
 72
     1
 11
35.78791918731713
 21
15.03877870477406
 31
0.0
100
AcDbText
  0
TEXT
  5
239
330
1E
100
AcDbEntity
  8
TEXT
100
AcDbText
 10
7.712448368909869
 20
15.00950549581758
 30
0.0
 40
0.625
  1
TBC-14252 & TBC-14253
 41
0.75
 72
     1
 11
12.39994836890986
 21
15.00950549581758
 31
0.0
100
AcDbText
  0
TEXT
  5
23A
330
1E
100
AcDbEntity
  8
TEXT
100
AcDbText
 10
6.618698368909869
 20
16.05117216248425
 30
0.0
 40
0.625
  1
SOLID TOP OR BOTTOM COVER
 41
0.75
 72
     1
 11
12.39994836890986
 21
16.05117216248425
 31
0.0
100
AcDbText
  0
TEXT
  5
23B
330
1E
100
AcDbEntity
  8
TEXT
100
AcDbText
 10
2.964373129888968
 20
44.16778896220961
 30
0.0
 40
0.625
  1
MATERIAL
 41
0.75
100
AcDbText
  0
TEXT
  5
23C
330
1E
100
AcDbEntity
  8
TEXT
100
AcDbText
 10
2.964373129888968
 20
43.12612229554296
 30
0.0
 40
0.625
  1
FINISH
 41
0.75
100
AcDbText
  0
TEXT
  5
23D
330
1E
100
AcDbEntity
  8
TEXT
100
AcDbText
 10
10.40798226831714
 20
44.16778896220961
 30
0.0
 40
0.625
  1
0.050 THK. ALUMINUM
 41
0.75
 72
     2
 11
18.14235726831714
 21
44.16778896220961
 31
0.0
100
AcDbText
  0
TEXT
  5
23E
330
1E
100
AcDbEntity
  8
TEXT
100
AcDbText
 10
15.01735726831714
 20
43.12612229554296
 30
0.0
 40
0.625
  1
NATURAL
 41
0.75
 72
     2
 11
18.14235726831714
 21
43.12612229554296
 31
0.0
100
AcDbText
  0
LINE
  5
23F
330
1E
100
AcDbEntity
  8
TEXT
100
AcDbLine
 10
6.73523574551465
 20
44.13663616404106
 30
0.0
 11
10.14707365812343
 21
44.13663616404106
 31
0.0
  0
LINE
  5
240
330
1E
100
AcDbEntity
  8
TEXT
100
AcDbLine
 10
5.625556516540938
 20
43.07557138834617
 30
0.0
 11
14.53754295536751
 21
43.07557138834617
 31
0.0
  0
LINE
  5
241
330
1E
100
AcDbEntity
  8
TITLE
100
AcDbLine
 10
0.3100000000000023
 20
48.444878226618
 30
0.0
 11
50.28999999999999
 21
48.444878226618
 31
0.0
  0
LINE
  5
242
330
1E
100
AcDbEntity
  8
TITLE
100
AcDbLine
 10
0.3100000000000023
 20
48.754878226618
 30
0.0
 11
50.28999999999999
 21
48.754878226618
 31
0.0
  0
LINE
  5
243
330
1E
100
AcDbEntity
  8
TITLE
100
AcDbLine
 10
0.3099999999999983
 20
48.754878226618
 30
0.0
 11
0.3100000000000058
 21
77.19
 31
0.0
  0
LINE
  5
244
330
1E
100
AcDbEntity
  8
TITLE
100
AcDbLine
 10
50.29
 20
48.444878226618
 30
0.0
 11
50.28999999999999
 21
0.3099999999999969
 31
0.0
  0
TEXT
  5
245
330
1E
100
AcDbEntity
  8
TEXT
100
AcDbText
 10
2.964373129888971
 20
73.13513760881021
 30
0.0
 40
0.625
  1
MATERIAL
 41
0.75
100
AcDbText
  0
TEXT
  5
246
330
1E
100
AcDbEntity
  8
TEXT
100
AcDbText
 10
2.964373129888971
 20
72.09347094214354
 30
0.0
 40
0.625
  1
FINISH
 41
0.75
100
AcDbText
  0
TEXT
  5
247
330
1E
100
AcDbEntity
  8
TEXT
100
AcDbText
 10
10.38141241249354
 20
73.13513760881021
 30
0.0
 40
0.625
  1
0.090 THK. ALUMINUM
 41
0.75
 72
     2
 11
18.11578741249355
 21
73.13513760881021
 31
0.0
100
AcDbText
  0
TEXT
  5
248
330
1E
100
AcDbEntity
  8
TEXT
100
AcDbText
 10
14.99078741249355
 20
72.09347094214354
 30
0.0
 40
0.625
  1
NATURAL
 41
0.75
 72
     2
 11
18.11578741249355
 21
72.09347094214354
 31
0.0
100
AcDbText
  0
LINE
  5
249
330
1E
100
AcDbEntity
  8
TEXT
100
AcDbLine
 10
6.73523574551465
 20
73.10398481064169
 30
0.0
 11
10.12050380229984
 21
73.10398481064169
 31
0.0
  0
LINE
  5
24A
330
1E
100
AcDbEntity
  8
TEXT
100
AcDbLine
 10
5.625556516540934
 20
72.04292003494678
 30
0.0
 11
14.51097309954391
 21
72.04292003494678
 31
0.0
  0
TEXT
  5
24B
330
1E
100
AcDbEntity
  8
TEXT
100
AcDbText
 10
8.126621110707489
 20
46.91399329413427
 30
0.0
 40
0.812
  1
TOP OR BOTTOM COVER
 41
0.75
 72
     1
 11
13.91212111070749
 21
46.91399329413427
 31
0.0
100
AcDbText
  0
TEXT
  5
24C
330
1E
100
AcDbEntity
  8
TEXT
100
AcDbText
 10
34.76843646996029
 20
47.51358438893332
 30
0.0
 40
0.625
  1
TBC-14252  &  TBC-14262
 41
0.75
 72
     1
 11
39.92468646996029
 21
47.51358438893332
 31
0.0
100
AcDbText
  0
TEXT
  5
24D
330
1E
100
AcDbEntity
  8
TEXT
100
AcDbText
 10
26.91956430611001
 20
75.73899999999998
 30
0.0
 40
0.812
  1
C-14242  TO  C-14245
 41
0.75
 72
     4
 11
32.70506430611001
 21
76.14499999999998
 31
0.0
100
AcDbText
  0
TEXT
  5
24E
330
1E
100
AcDbEntity
  8
TEXT
100
AcDbText
 10
8.087500000000002
 20
75.73899999999998
 30
0.0
 40
0.812
  1
INTERNAL CHASSIS
 41
0.75
 72
     4
 11
12.655
 21
76.14499999999998
 31
0.0
100
AcDbText
  0
LINE
  5
24F
330
1E
100
AcDbEntity
  8
TITLE
100
AcDbLine
 10
0.3100000000000023
 20
49.794878226618
 30
0.0
 11
50.28999999999999
 21
49.794878226618
 31
0.0
  0
LINE
  5
250
330
1E
100
AcDbEntity
  8
TITLE
100
AcDbLine
 10
0.3100000000000023
 20
50.834878226618
 30
0.0
 11
50.28999999999999
 21
50.834878226618
 31
0.0
  0
LINE
  5
251
330
1E
100
AcDbEntity
  8
TITLE
100
AcDbLine
 10
0.3100000000000023
 20
51.874878226618
 30
0.0
 11
50.28999999999999
 21
51.874878226618
 31
0.0
  0
LINE
  5
252
330
1E
100
AcDbEntity
  8
TITLE
100
AcDbLine
 10
0.3100000000000023
 20
52.914878226618
 30
0.0
 11
50.28999999999999
 21
52.914878226618
 31
0.0
  0
LINE
  5
253
330
1E
100
AcDbEntity
  8
TITLE
100
AcDbLine
 10
0.3100000000000023
 20
53.95487822661801
 30
0.0
 11
50.28999999999999
 21
53.95487822661801
 31
0.0
  0
DIMENSION
  5
254
330
1E
100
AcDbEntity
  8
DIM
100
AcDbDimension
  2
*D15
 10
33.6184525161911
 20
56.4664211026209
 30
0.0
 11
36.6887650161911
 21
56.4664211026209
 31
0.0
 70
    32
  3
23NSTD
100
AcDbAlignedDimension
 13
33.4304525161911
 23
58.62997399607667
 33
0.0
 14
33.6184525161911
 24
59.01997399607665
 34
0.0
 50
180.0
100
AcDbRotatedDimension
  0
DIMENSION
  5
255
330
1E
100
AcDbEntity
  8
DIM
100
AcDbDimension
  2
*D16
 10
33.4304525161911
 20
70.2607095108891
 30
0.0
 11
30.2820150161911
 21
70.2607095108891
 31
0.0
 70
    32
  3
23NSTD
100
AcDbAlignedDimension
 13
33.8984525161911
 23
68.16097399607665
 33
0.0
 14
33.4304525161911
 24
68.16097399607665
 34
0.0
100
AcDbRotatedDimension
  0
LINE
  5
256
330
1E
100
AcDbEntity
  8
HIDDEN
100
AcDbLine
 10
33.8084525161911
 20
58.71997399607667
 30
0.0
 11
33.8084525161911
 21
68.07097399607664
 31
0.0
  0
LINE
  5
257
330
1E
100
AcDbEntity
  8
HIDDEN
100
AcDbLine
 10
33.4304525161911
 20
58.71997399607668
 30
0.0
 11
33.8084525161911
 21
58.71997399607667
 31
0.0
  0
LINE
  5
258
330
1E
100
AcDbEntity
  8
HIDDEN
100
AcDbLine
 10
33.8084525161911
 20
68.07097399607664
 30
0.0
 11
33.4304525161911
 21
68.07097399607664
 31
0.0
  0
LWPOLYLINE
  5
259
330
1E
100
AcDbEntity
  8
DIM
100
AcDbPolyline
 90
        4
 70
     0
 10
30.60894088108554
 20
37.55595988675171
 40
0.0
 41
0.3375
 10
31.04002273877312
 20
38.3460031969396
 40
0.0
 41
0.0
 10
33.13449658656615
 20
42.18454342382048
 40
0.0
 41
0.0
 10
34.03449658656615
 20
42.18454342382048
 40
0.0
 41
0.0
  0
TEXT
  5
25F
330
1E
100
AcDbEntity
  8
DIM
100
AcDbText
 10
34.48449658656614
 20
41.87204342382048
 30
0.0
 40
0.625
  1
0.125 x 0.750 OBLONG HOLES
 41
0.75
 11
34.48449658656614
 21
42.18454342382048
 31
0.0
100
AcDbText
 73
     2
  0
LWPOLYLINE
  5
260
330
1E
100
AcDbEntity
  8
DIM
100
AcDbPolyline
 90
        4
 70
     0
 10
28.14177201782424
 20
10.11901617137215
 40
0.0
 41
0.3375
 10
28.56541555226799
 20
9.324959400275789
 40
0.0
 41
0.0
 10
29.44052650741676
 20
7.684694123221858
 40
0.0
 41
0.0
 10
30.34052650741676
 20
7.684694123221858
 40
0.0
 41
0.0
  0
TEXT
  5
266
330
1E
100
AcDbEntity
  8
DIM
100
AcDbText
 10
30.79052650741676
 20
7.372194123221858
 30
0.0
 40
0.625
  1
0.120 DIA.
 41
0.75
 11
30.79052650741676
 21
7.684694123221858
 31
0.0
100
AcDbText
 73
     2
  0
LINE
  5
267
330
1E
100
AcDbEntity
  8
OBJECT
100
AcDbLine
 10
20.79794553672394
 20
38.5565787079279
 30
0.0
 11
3.735945536723946
 21
38.5565787079279
 31
0.0
  0
LINE
  5
268
330
1E
100
AcDbEntity
  8
HIDDEN
100
AcDbLine
 10
43.84127936696355
 20
21.69782492538871
 30
0.0
 11
43.84127936696355
 21
38.4878249253887
 31
0.0
  0
LINE
  5
269
330
1E
100
AcDbEntity
  8
HIDDEN
100
AcDbLine
 10
27.52927936696355
 20
38.4878249253887
 30
0.0
 11
27.52927936696355
 21
21.69782492538871
 31
0.0
  0
LINE
  5
26A
330
1E
100
AcDbEntity
  8
HIDDEN
100
AcDbLine
 10
27.20427936696355
 20
38.4878249253887
 30
0.0
 11
27.20427936696355
 21
21.69782492538871
 31
0.0
  0
LINE
  5
26B
330
1E
100
AcDbEntity
  8
HIDDEN
100
AcDbLine
 10
27.81027936696355
 20
21.74782492538871
 30
0.0
 11
43.56027936696356
 21
21.74782492538871
 31
0.0
  0
LINE
  5
26C
330
1E
100
AcDbEntity
  8
HIDDEN
100
AcDbLine
 10
44.16627936696357
 20
21.69782492538871
 30
0.0
 11
44.16627936696357
 21
38.4878249253887
 31
0.0
  0
LINE
  5
26D
330
1E
100
AcDbEntity
  8
HIDDEN
100
AcDbLine
 10
43.56027936696356
 20
21.69782492538871
 30
0.0
 11
43.56027936696356
 21
21.74782492538871
 31
0.0
  0
LINE
  5
26E
330
1E
100
AcDbEntity
  8
HIDDEN
100
AcDbLine
 10
27.81027936696355
 20
21.69782492538871
 30
0.0
 11
27.81027936696355
 21
21.74782492538871
 31
0.0
  0
LINE
  5
26F
330
1E
100
AcDbEntity
  8
HIDDEN
100
AcDbLine
 10
27.974433764146
 20
10.37034364462501
 30
0.0
 11
43.44854310459401
 21
10.37034364462501
 31
0.0
  0
LINE
  5
270
330
1E
100
AcDbEntity
  8
HIDDEN
100
AcDbLine
 10
27.81027936696355
 20
38.4378249253887
 30
0.0
 11
43.56027936696356
 21
38.4378249253887
 31
0.0
  0
LINE
  5
271
330
1E
100
AcDbEntity
  8
HIDDEN
100
AcDbLine
 10
27.81027936696355
 20
38.4878249253887
 30
0.0
 11
27.81027936696355
 21
38.4378249253887
 31
0.0
  0
LINE
  5
272
330
1E
100
AcDbEntity
  8
HIDDEN
100
AcDbLine
 10
43.56027936696356
 20
38.4878249253887
 30
0.0
 11
43.56027936696356
 21
38.4378249253887
 31
0.0
  0
LINE
  5
273
330
1E
100
AcDbEntity
  8
HIDDEN
100
AcDbLine
 10
4.391945536723951
 20
21.86657870792791
 30
0.0
 11
20.14194553672393
 21
21.86657870792791
 31
0.0
  0
LINE
  5
274
330
1E
100
AcDbEntity
  8
HIDDEN
100
AcDbLine
 10
4.391945536723951
 20
21.81657870792791
 30
0.0
 11
4.391945536723951
 21
21.86657870792791
 31
0.0
  0
LINE
  5
275
330
1E
100
AcDbEntity
  8
HIDDEN
100
AcDbLine
 10
20.14194553672393
 20
21.81657870792791
 30
0.0
 11
20.14194553672393
 21
21.86657870792791
 31
0.0
  0
LINE
  5
276
330
1E
100
AcDbEntity
  8
HIDDEN
100
AcDbLine
 10
4.391945536723951
 20
38.5565787079279
 30
0.0
 11
20.14194553672393
 21
38.5565787079279
 31
0.0
  0
LINE
  5
277
330
1E
100
AcDbEntity
  8
HIDDEN
100
AcDbLine
 10
4.391945536723951
 20
38.6065787079279
 30
0.0
 11
4.391945536723951
 21
38.5565787079279
 31
0.0
  0
LINE
  5
278
330
1E
100
AcDbEntity
  8
HIDDEN
100
AcDbLine
 10
20.14194553672393
 20
38.6065787079279
 30
0.0
 11
20.14194553672393
 21
38.5565787079279
 31
0.0
  0
LINE
  5
279
330
1E
100
AcDbEntity
  8
HIDDEN
100
AcDbLine
 10
20.42294553672394
 20
21.81657870792791
 30
0.0
 11
20.42294553672394
 21
38.6065787079279
 31
0.0
  0
LINE
  5
27A
330
1E
100
AcDbEntity
  8
HIDDEN
100
AcDbLine
 10
4.110945536723946
 20
38.6065787079279
 30
0.0
 11
4.110945536723946
 21
21.81657870792791
 31
0.0
  0
LINE
  5
27B
330
1E
100
AcDbEntity
  8
HIDDEN
100
AcDbLine
 10
3.78594553672395
 20
38.6065787079279
 30
0.0
 11
3.78594553672395
 21
21.81657870792791
 31
0.0
  0
LINE
  5
27C
330
1E
100
AcDbEntity
  8
HIDDEN
100
AcDbLine
 10
20.74794553672393
 20
21.81657870792791
 30
0.0
 11
20.74794553672393
 21
38.6065787079279
 31
0.0
  0
LINE
  5
27D
330
1E
100
AcDbEntity
  8
TITLE
100
AcDbLine
 10
16.97
 20
48.754878226618
 30
0.0
 11
16.97
 21
53.95487822661801
 31
0.0
  0
LINE
  5
27E
330
1E
100
AcDbEntity
  8
TITLE
100
AcDbLine
 10
33.62999999999999
 20
48.754878226618
 30
0.0
 11
33.63
 21
53.95487822661801
 31
0.0
  0
TEXT
  5
27F
330
1E
100
AcDbEntity
  8
TEXT
100
AcDbText
 10
7.038693220198002
 20
53.1469687222269
 30
0.0
 40
0.625
  1
PART No.
 41
0.75
 72
     1
 11
8.679318220198002
 21
53.1469687222269
 31
0.0
100
AcDbText
  0
TEXT
  5
280
330
1E
100
AcDbEntity
  8
TEXT
100
AcDbText
 10
7.194943220198002
 20
52.13509372222688
 30
0.0
 40
0.625
  1
C-14242
 41
0.75
 72
     1
 11
8.679318220198002
 21
52.13509372222688
 31
0.0
100
AcDbText
  0
TEXT
  5
281
330
1E
100
AcDbEntity
  8
TEXT
100
AcDbText
 10
7.194943220198002
 20
51.09342705556023
 30
0.0
 40
0.625
  1
C-14243
 41
0.75
 72
     1
 11
8.679318220198002
 21
51.09342705556023
 31
0.0
100
AcDbText
  0
TEXT
  5
282
330
1E
100
AcDbEntity
  8
TEXT
100
AcDbText
 10
7.194943220198002
 20
50.05176038889357
 30
0.0
 40
0.625
  1
C-14244
 41
0.75
 72
     1
 11
8.679318220198002
 21
50.05176038889357
 31
0.0
100
AcDbText
  0
TEXT
  5
283
330
1E
100
AcDbEntity
  8
TEXT
100
AcDbText
 10
7.194943220198002
 20
49.0100937222269
 30
0.0
 40
0.625
  1
C-14245
 41
0.75
 72
     1
 11
8.679318220198002
 21
49.0100937222269
 31
0.0
100
AcDbText
  0
TEXT
  5
284
330
1E
100
AcDbEntity
  8
TEXT
100
AcDbText
 10
24.479943220198
 20
52.13509372222688
 30
0.0
 40
0.625
  1
4.281
 41
0.75
 72
     1
 11
25.339318220198
 21
52.13509372222688
 31
0.0
100
AcDbText
  0
TEXT
  5
285
330
1E
100
AcDbEntity
  8
TEXT
100
AcDbText
 10
24.479943220198
 20
49.0100937222269
 30
0.0
 40
0.625
  1
9.531
 41
0.75
 72
     1
 11
25.339318220198
 21
49.0100937222269
 31
0.0
100
AcDbText
  0
TEXT
  5
286
330
1E
100
AcDbEntity
  8
TEXT
100
AcDbText
 10
24.479943220198
 20
50.05176038889357
 30
0.0
 40
0.625
  1
7.781
 41
0.75
 72
     1
 11
25.339318220198
 21
50.05176038889357
 31
0.0
100
AcDbText
  0
TEXT
  5
287
330
1E
100
AcDbEntity
  8
TEXT
100
AcDbText
 10
24.519005720198
 20
51.09342705556023
 30
0.0
 40
0.625
  1
6.031
 41
0.75
 72
     1
 11
25.339318220198
 21
51.09342705556023
 31
0.0
100
AcDbText
  0
TEXT
  5
288
330
1E
100
AcDbEntity
  8
TEXT
100
AcDbText
 10
22.995568220198
 20
53.1469687222269
 30
0.0
 40
0.625
  1
DIMENSION A
 41
0.75
 72
     1
 11
25.339318220198
 21
53.1469687222269
 31
0.0
100
AcDbText
  0
TEXT
  5
289
330
1E
100
AcDbEntity
  8
TEXT
100
AcDbText
 10
41.139943220198
 20
52.13509372222688
 30
0.0
 40
0.625
  1
3.500
 41
0.75
 72
     1
 11
41.999318220198
 21
52.13509372222688
 31
0.0
100
AcDbText
  0
TEXT
  5
28A
330
1E
100
AcDbEntity
  8
TEXT
100
AcDbText
 10
41.179005720198
 20
50.05176038889357
 30
0.0
 40
0.625
  1
7.000
 41
0.75
 72
     1
 11
41.999318220198
 21
50.05176038889357
 31
0.0
100
AcDbText
  0
TEXT
  5
28B
330
1E
100
AcDbEntity
  8
TEXT
100
AcDbText
 10
41.100880720198
 20
49.0100937222269
 30
0.0
 40
0.625
  1
8.750
 41
0.75
 72
     1
 11
41.999318220198
 21
49.0100937222269
 31
0.0
100
AcDbText
  0
TEXT
  5
28C
330
1E
100
AcDbEntity
  8
TEXT
100
AcDbText
 10
41.100880720198
 20
51.09342705556023
 30
0.0
 40
0.625
  1
5.250
 41
0.75
 72
     1
 11
41.999318220198
 21
51.09342705556023
 31
0.0
100
AcDbText
  0
TEXT
  5
28D
330
1E
100
AcDbEntity
  8
TEXT
100
AcDbText
 10
39.655568220198
 20
53.1469687222269
 30
0.0
 40
0.625
  1
DIMENSION B
 41
0.75
 72
     1
 11
41.999318220198
 21
53.1469687222269
 31
0.0
100
AcDbText
  0
LINE
  5
295
330
1E
100
AcDbEntity
  8
DIM
100
AcDbLine
 10
43.37527937705147
 20
22.71807492538868
 30
0.0
 11
47.37365370602138
 21
22.71807492538868
 31
0.0
  0
LINE
  5
296
330
1E
100
AcDbEntity
  8
DIM
100
AcDbLine
 10
46.90865370602138
 20
36.56807492538868
 30
0.0
 11
46.90865370602138
 21
31.74629489248268
 31
0.0
  0
LINE
  5
297
330
1E
100
AcDbEntity
  8
DIM
100
AcDbLine
 10
46.90865370602138
 20
23.61807492538869
 30
0.0
 11
46.90865370602138
 21
28.93232991313369
 31
0.0
  0
SOLID
  5
298
330
1E
100
AcDbEntity
  8
DIM
100
AcDbTrace
 10
46.75865370602138
 20
23.61807492538869
 30
0.0
 11
47.05865370602139
 21
23.61807492538869
 31
0.0
 12
46.90865370602138
 22
22.71807492538868
 32
0.0
 13
46.90865370602138
 23
22.71807492538868
 33
0.0
  0
TEXT
  5
299
330
1E
100
AcDbEntity
  8
DIM
100
AcDbText
 10
44.95552870602138
 20
30.67129489248268
 30
0.0
 40
0.625
  1
(59) SP. @
 41
0.75
 72
     1
 11
46.90865370602138
 21
30.98379489248268
 31
0.0
100
AcDbText
 73
     2
  0
POINT
  5
29A
330
1E
100
AcDbEntity
  8
DEFPOINTS
  6
BYBLOCK
 62
     0
100
AcDbPoint
 10
43.06027937705148
 20
37.46807492538869
 30
0.0
  0
POINT
  5
29B
330
1E
100
AcDbEntity
  8
DEFPOINTS
  6
BYBLOCK
 62
     0
100
AcDbPoint
 10
43.06027937705148
 20
22.71807492538868
 30
0.0
  0
POINT
  5
29C
330
1E
100
AcDbEntity
  8
DIM
100
AcDbPoint
 10
46.90865370602138
 20
22.71807492538868
 30
0.0
  0
TEXT
  5
29D
330
1E
100
AcDbEntity
  8
DIM
100
AcDbText
 10
44.47178948442174
 20
29.37459844415096
 30
0.0
 40
0.625
  1
0.250 = 14.750
 41
0.7232632463032102
 72
     5
 11
49.67024406722607
 21
29.37459844415096
 31
0.0
100
AcDbText
  0
DIMENSION
  5
29E
330
1E
100
AcDbEntity
  8
DIM
100
AcDbDimension
  2
*D17
 10
29.68527936696357
 20
20.22732901134798
 30
0.0
 11
33.69309186696357
 21
20.22732901134798
 31
0.0
 70
    32
  1
<> TYP.
  3
23NSTD
100
AcDbAlignedDimension
 13
28.68527936696357
 23
22.65557492538869
 33
0.0
 14
29.68527936696357
 24
22.65557492538869
 34
0.0
100
AcDbRotatedDimension
  0
ARC
  5
29F
330
1E
100
AcDbEntity
  8
OBJECT
100
AcDbCircle
 10
28.99777936705148
 20
23.46807492538868
 30
0.0
 40
0.0625000100000008
100
AcDbArc
 50
270.0
 51
89.99999999999998
  0
LINE
  5
2A0
330
1E
100
AcDbEntity
  8
OBJECT
100
AcDbLine
 10
28.37274401096754
 20
23.53057492538868
 30
0.0
 11
28.99781472295959
 21
23.53057492538868
 31
0.0
  0
LINE
  5
2A1
330
1E
100
AcDbEntity
  8
OBJECT
100
AcDbLine
 10
28.37274401096754
 20
23.40557492538868
 30
0.0
 11
28.99781472295959
 21
23.40557492538868
 31
0.0
  0
ARC
  5
2A2
330
1E
100
AcDbEntity
  8
OBJECT
100
AcDbCircle
 10
28.37277936705148
 20
23.46807492538868
 30
0.0
 40
0.0625000100000008
100
AcDbArc
 50
90.00000000000005
 51
270.0
  0
ARC
  5
2A3
330
1E
100
AcDbEntity
  8
OBJECT
100
AcDbCircle
 10
28.99777936705148
 20
23.21807492538868
 30
0.0
 40
0.0625000100000008
100
AcDbArc
 50
270.0
 51
89.99999999999998
  0
LINE
  5
2A4
330
1E
100
AcDbEntity
  8
OBJECT
100
AcDbLine
 10
28.37274401096754
 20
23.28057492538869
 30
0.0
 11
28.99781472295959
 21
23.28057492538869
 31
0.0
  0
LINE
  5
2A5
330
1E
100
AcDbEntity
  8
OBJECT
100
AcDbLine
 10
28.37274401096754
 20
23.15557492538868
 30
0.0
 11
28.99781472295959
 21
23.15557492538868
 31
0.0
  0
ARC
  5
2A6
330
1E
100
AcDbEntity
  8
OBJECT
100
AcDbCircle
 10
28.37277936705148
 20
23.21807492538868
 30
0.0
 40
0.0625000100000008
100
AcDbArc
 50
90.00000000000005
 51
270.0
  0
ARC
  5
2A7
330
1E
100
AcDbEntity
  8
OBJECT
100
AcDbCircle
 10
28.99777936705148
 20
22.96807492538869
 30
0.0
 40
0.0625000100000008
100
AcDbArc
 50
270.0
 51
89.99999999999998
  0
LINE
  5
2A8
330
1E
100
AcDbEntity
  8
OBJECT
100
AcDbLine
 10
28.37274401096754
 20
23.03057492538868
 30
0.0
 11
28.99781472295959
 21
23.03057492538868
 31
0.0
  0
LINE
  5
2A9
330
1E
100
AcDbEntity
  8
OBJECT
100
AcDbLine
 10
28.37274401096754
 20
22.90557492538868
 30
0.0
 11
28.99781472295959
 21
22.90557492538868
 31
0.0
  0
ARC
  5
2AA
330
1E
100
AcDbEntity
  8
OBJECT
100
AcDbCircle
 10
28.37277936705148
 20
22.96807492538869
 30
0.0
 40
0.0625000100000008
100
AcDbArc
 50
90.00000000000005
 51
270.0
  0
ARC
  5
2AB
330
1E
100
AcDbEntity
  8
OBJECT
100
AcDbCircle
 10
28.99777936705148
 20
22.71807492538868
 30
0.0
 40
0.0625000100000008
100
AcDbArc
 50
270.0
 51
89.99999999999998
  0
LINE
  5
2AC
330
1E
100
AcDbEntity
  8
OBJECT
100
AcDbLine
 10
28.37274401096754
 20
22.78057492538868
 30
0.0
 11
28.99781472295959
 21
22.78057492538868
 31
0.0
  0
LINE
  5
2AD
330
1E
100
AcDbEntity
  8
OBJECT
100
AcDbLine
 10
28.37274401096754
 20
22.65557492538869
 30
0.0
 11
28.99781472295959
 21
22.65557492538869
 31
0.0
  0
ARC
  5
2AE
330
1E
100
AcDbEntity
  8
OBJECT
100
AcDbCircle
 10
28.37277936705148
 20
22.71807492538868
 30
0.0
 40
0.0625000100000008
100
AcDbArc
 50
90.00000000000005
 51
270.0
  0
DIMENSION
  5
2AF
330
1E
100
AcDbEntity
  8
DIM
100
AcDbDimension
  2
*D18
 10
26.04375671459699
 20
22.71807492538868
 30
0.0
 11
22.81875671459698
 21
20.91807492538869
 31
0.0
 70
    32
  1
<> TYP.
  3
23NSTD
100
AcDbAlignedDimension
 13
28.31027935705149
 23
22.96807492538869
 33
0.0
 14
28.31027935705149
 24
22.71807492538868
 34
0.0
 50
90.0
100
AcDbRotatedDimension
  0
LINE
  5
2B0
330
1E
100
AcDbEntity
  8
OBJECT
  6
PHANTOM2
100
AcDbLine
 10
28.31027935687565
 20
37.28205437486329
 30
0.0
 11
28.31027935687565
 21
23.6817017379192
 31
0.0
  0
LINE
  5
2B1
330
1E
100
AcDbEntity
  8
OBJECT
  6
PHANTOM2
100
AcDbLine
 10
29.06027937705149
 20
37.28205437486329
 30
0.0
 11
29.06027937705149
 21
23.69723036607062
 31
0.0
  0
CIRCLE
  5
3F9
330
1E
100
AcDbEntity
  8
OBJECT
100
AcDbCircle
 10
33.14361266696355
 20
10.201343644625
 30
0.0
 40
0.06
  0
CIRCLE
  5
3FA
330
1E
100
AcDbEntity
  8
OBJECT
100
AcDbCircle
 10
38.22694596696354
 20
10.201343644625
 30
0.0
 40
0.06
  0
DIMENSION
  5
3FB
330
1E
100
AcDbEntity
  8
DIM
100
AcDbDimension
  2
*D19
 10
43.31027936696354
 20
13.26842810076954
 30
0.0
 11
35.68527936696355
 21
13.26842810076954
 31
0.0
 70
    32
  1
(C) SPACES @ D = E
  3
23NSTD
100
AcDbAlignedDimension
 13
28.06027936696354
 23
10.201343644625
 33
0.0
 14
43.31027936696354
 24
10.201343644625
 34
0.0
100
AcDbRotatedDimension
  0
TEXT
  5
432
330
1E
100
AcDbEntity
  8
TEXT
100
AcDbText
 10
34.76843646996029
 20
46.5475765747907
 30
0.0
 40
0.625
  1
TBC-14253  &  TBC-14263
 41
0.75
 72
     1
 11
39.92468646996029
 21
46.5475765747907
 31
0.0
100
AcDbText
  0
LINE
  5
623
330
1E
100
AcDbEntity
  8
TITLE
100
AcDbLine
 10
0.3099999999999881
 20
1.35
 30
0.0
 11
50.28999999999999
 21
1.35
 31
0.0
  0
LINE
  5
624
330
1E
100
AcDbEntity
  8
TITLE
100
AcDbLine
 10
0.3099999999999881
 20
2.39
 30
0.0
 11
50.28999999999999
 21
2.39
 31
0.0
  0
LINE
  5
625
330
1E
100
AcDbEntity
  8
TITLE
100
AcDbLine
 10
0.3099999999999881
 20
3.429999999999998
 30
0.0
 11
50.28999999999999
 21
3.429999999999998
 31
0.0
  0
LINE
  5
626
330
1E
100
AcDbEntity
  8
TITLE
100
AcDbLine
 10
0.3099999999999881
 20
4.469999999999997
 30
0.0
 11
50.28999999999999
 21
4.469999999999997
 31
0.0
  0
LINE
  5
627
330
1E
100
AcDbEntity
  8
TITLE
100
AcDbLine
 10
0.3099999999999881
 20
5.509999999999998
 30
0.0
 11
50.28999999999999
 21
5.509999999999998
 31
0.0
  0
TEXT
  5
628
330
1E
100
AcDbEntity
  8
TEXT
100
AcDbText
 10
1.529076026000868
 20
2.648548828942224
 30
0.0
 40
0.625
  1
TBC-14253
 41
0.75
 72
     1
 11
3.482201026000868
 21
2.648548828942224
 31
0.0
100
AcDbText
  0
TEXT
  5
629
330
1E
100
AcDbEntity
  8
TEXT
100
AcDbText
 10
1.529076026000868
 20
1.60688216227556
 30
0.0
 40
0.625
  1
TBC-14262
 41
0.75
 72
     1
 11
3.482201026000868
 21
1.60688216227556
 31
0.0
100
AcDbText
  0
TEXT
  5
62A
330
1E
100
AcDbEntity
  8
TEXT
100
AcDbText
 10
1.529076026000868
 20
0.5652154956088964
 30
0.0
 40
0.625
  1
TBC-14263
 41
0.75
 72
     1
 11
3.482201026000868
 21
0.5652154956088964
 31
0.0
100
AcDbText
  0
TEXT
  5
62B
330
1E
100
AcDbEntity
  8
TEXT
100
AcDbText
 10
1.841576026000868
 20
4.702090495608891
 30
0.0
 40
0.625
  1
PART No.
 41
0.75
 72
     1
 11
3.482201026000868
 21
4.702090495608891
 31
0.0
100
AcDbText
  0
TEXT
  5
62C
330
1E
100
AcDbEntity
  8
TEXT
100
AcDbText
 10
1.529076026000868
 20
3.690215495608888
 30
0.0
 40
0.625
  1
TBC-14252
 41
0.75
 72
     1
 11
3.482201026000868
 21
3.690215495608888
 31
0.0
100
AcDbText
  0
LINE
  5
63D
330
1E
100
AcDbEntity
  8
TITLE
100
AcDbLine
 10
6.764166976994146
 20
5.509999999999998
 30
0.0
 11
6.764166976994147
 21
0.3100000000000049
 31
0.0
  0
TEXT
  5
64C
330
1E
100
AcDbEntity
  8
TEXT
100
AcDbText
 10
8.401708883704632
 20
0.5652154956088964
 30
0.0
 40
0.625
  1
21.875
 41
0.75
 72
     1
 11
9.495458883704632
 21
0.5652154956088964
 31
0.0
100
AcDbText
  0
TEXT
  5
64D
330
1E
100
AcDbEntity
  8
TEXT
100
AcDbText
 10
8.440771383704632
 20
1.60688216227556
 30
0.0
 40
0.625
  1
17.062
 41
0.75
 72
     1
 11
9.495458883704632
 21
1.60688216227556
 31
0.0
100
AcDbText
  0
TEXT
  5
64E
330
1E
100
AcDbEntity
  8
TEXT
100
AcDbText
 10
8.401708883704632
 20
2.648548828942224
 30
0.0
 40
0.625
  1
21.875
 41
0.75
 72
     1
 11
9.495458883704632
 21
2.648548828942224
 31
0.0
100
AcDbText
  0
TEXT
  5
64F
330
1E
100
AcDbEntity
  8
TEXT
100
AcDbText
 10
8.440771383704632
 20
3.690215495608888
 30
0.0
 40
0.625
  1
17.062
 41
0.75
 72
     1
 11
9.495458883704632
 21
3.690215495608888
 31
0.0
100
AcDbText
  0
TEXT
  5
650
330
1E
100
AcDbEntity
  8
TEXT
100
AcDbText
 10
8.401708883704632
 20
4.702090495608891
 30
0.0
 40
0.625
  1
DIM. A
 41
0.75
 72
     1
 11
9.495458883704632
 21
4.702090495608891
 31
0.0
100
AcDbText
  0
LINE
  5
653
330
1E
100
AcDbEntity
  8
TITLE
100
AcDbLine
 10
12.20416697699413
 20
5.509999999999998
 30
0.0
 11
12.20416697699413
 21
0.310000000000004
 31
0.0
  0
LINE
  5
654
330
1E
100
AcDbEntity
  8
TITLE
100
AcDbLine
 10
17.64416697699414
 20
5.509999999999998
 30
0.0
 11
17.64416697699414
 21
0.310000000000004
 31
0.0
  0
TEXT
  5
655
330
1E
100
AcDbEntity
  8
TEXT
100
AcDbText
 10
14.19327138370463
 20
0.5652154956088964
 30
0.0
 40
0.625
  1
1.000
 41
0.75
 72
     1
 11
14.93545888370463
 21
0.5652154956088964
 31
0.0
100
AcDbText
  0
TEXT
  5
656
330
1E
100
AcDbEntity
  8
TEXT
100
AcDbText
 10
14.19327138370463
 20
2.648548828942224
 30
0.0
 40
0.625
  1
1.000
 41
0.75
 72
     1
 11
14.93545888370463
 21
2.648548828942224
 31
0.0
100
AcDbText
  0
TEXT
  5
657
330
1E
100
AcDbEntity
  8
TEXT
100
AcDbText
 10
14.07608388370463
 20
1.60688216227556
 30
0.0
 40
0.625
  1
0.906
 41
0.75
 72
     1
 11
14.93545888370463
 21
1.60688216227556
 31
0.0
100
AcDbText
  0
TEXT
  5
658
330
1E
100
AcDbEntity
  8
TEXT
100
AcDbText
 10
14.07608388370463
 20
3.690215495608888
 30
0.0
 40
0.625
  1
0.906
 41
0.75
 72
     1
 11
14.93545888370463
 21
3.690215495608888
 31
0.0
100
AcDbText
  0
TEXT
  5
659
330
1E
100
AcDbEntity
  8
TEXT
100
AcDbText
 10
13.84170888370463
 20
4.702090495608891
 30
0.0
 40
0.625
  1
DIM. B
 41
0.75
 72
     1
 11
14.93545888370463
 21
4.702090495608891
 31
0.0
100
AcDbText
  0
LINE
  5
65A
330
1E
100
AcDbEntity
  8
TITLE
100
AcDbLine
 10
23.08416697699414
 20
5.509999999999998
 30
0.0
 11
23.08416697699414
 21
0.310000000000004
 31
0.0
  0
TEXT
  5
65B
330
1E
100
AcDbEntity
  8
TEXT
100
AcDbText
 10
20.21920888370462
 20
0.5652154956088964
 30
0.0
 40
0.625
  1
3
 41
0.75
 72
     1
 11
20.37545888370462
 21
0.5652154956088964
 31
0.0
100
AcDbText
  0
TEXT
  5
65C
330
1E
100
AcDbEntity
  8
TEXT
100
AcDbText
 10
20.21920888370462
 20
2.648548828942224
 30
0.0
 40
0.625
  1
3
 41
0.75
 72
     1
 11
20.37545888370462
 21
2.648548828942224
 31
0.0
100
AcDbText
  0
TEXT
  5
65D
330
1E
100
AcDbEntity
  8
TEXT
100
AcDbText
 10
20.21920888370462
 20
1.60688216227556
 30
0.0
 40
0.625
  1
2
 41
0.75
 72
     1
 11
20.37545888370462
 21
1.60688216227556
 31
0.0
100
AcDbText
  0
TEXT
  5
65E
330
1E
100
AcDbEntity
  8
TEXT
100
AcDbText
 10
20.21920888370462
 20
3.690215495608888
 30
0.0
 40
0.625
  1
2
 41
0.75
 72
     1
 11
20.37545888370462
 21
3.690215495608888
 31
0.0
100
AcDbText
  0
TEXT
  5
65F
330
1E
100
AcDbEntity
  8
TEXT
100
AcDbText
 10
19.20358388370462
 20
4.702090495608891
 30
0.0
 40
0.625
  1
QTY. C
 41
0.75
 72
     1
 11
20.37545888370462
 21
4.702090495608891
 31
0.0
100
AcDbText
  0
LINE
  5
660
330
1E
100
AcDbEntity
  8
TITLE
100
AcDbLine
 10
28.52416697699414
 20
5.509999999999998
 30
0.0
 11
28.52416697699414
 21
0.310000000000004
 31
0.0
  0
TEXT
  5
661
330
1E
100
AcDbEntity
  8
TEXT
100
AcDbText
 10
24.87795888370463
 20
0.5652154956088964
 30
0.0
 40
0.625
  1
6.625
 41
0.75
 72
     1
 11
25.81545888370463
 21
0.5652154956088964
 31
0.0
100
AcDbText
  0
TEXT
  5
662
330
1E
100
AcDbEntity
  8
TEXT
100
AcDbText
 10
24.87795888370463
 20
2.648548828942224
 30
0.0
 40
0.625
  1
6.625
 41
0.75
 72
     1
 11
25.81545888370463
 21
2.648548828942224
 31
0.0
100
AcDbText
  0
TEXT
  5
663
330
1E
100
AcDbEntity
  8
TEXT
100
AcDbText
 10
24.87795888370463
 20
1.60688216227556
 30
0.0
 40
0.625
  1
7.625
 41
0.75
 72
     1
 11
25.81545888370463
 21
1.60688216227556
 31
0.0
100
AcDbText
  0
TEXT
  5
664
330
1E
100
AcDbEntity
  8
TEXT
100
AcDbText
 10
24.87795888370463
 20
3.690215495608888
 30
0.0
 40
0.625
  1
7.625
 41
0.75
 72
     1
 11
25.81545888370463
 21
3.690215495608888
 31
0.0
100
AcDbText
  0
TEXT
  5
665
330
1E
100
AcDbEntity
  8
TEXT
100
AcDbText
 10
24.72170888370463
 20
4.702090495608891
 30
0.0
 40
0.625
  1
DIM. D
 41
0.75
 72
     1
 11
25.81545888370463
 21
4.702090495608891
 31
0.0
100
AcDbText
  0
LINE
  5
666
330
1E
100
AcDbEntity
  8
TITLE
100
AcDbLine
 10
33.96416697699415
 20
5.509999999999998
 30
0.0
 11
33.96416697699415
 21
0.310000000000004
 31
0.0
  0
TEXT
  5
667
330
1E
100
AcDbEntity
  8
TEXT
100
AcDbText
 10
30.16170888370463
 20
0.5652154956088964
 30
0.0
 40
0.625
  1
19.875
 41
0.75
 72
     1
 11
31.25545888370463
 21
0.5652154956088964
 31
0.0
100
AcDbText
  0
TEXT
  5
668
330
1E
100
AcDbEntity
  8
TEXT
100
AcDbText
 10
30.16170888370463
 20
2.648548828942224
 30
0.0
 40
0.625
  1
19.875
 41
0.75
 72
     1
 11
31.25545888370463
 21
2.648548828942224
 31
0.0
100
AcDbText
  0
TEXT
  5
669
330
1E
100
AcDbEntity
  8
TEXT
100
AcDbText
 10
30.20077138370463
 20
1.60688216227556
 30
0.0
 40
0.625
  1
15.250
 41
0.75
 72
     1
 11
31.25545888370463
 21
1.60688216227556
 31
0.0
100
AcDbText
  0
TEXT
  5
66A
330
1E
100
AcDbEntity
  8
TEXT
100
AcDbText
 10
30.20077138370463
 20
3.690215495608888
 30
0.0
 40
0.625
  1
15.250
 41
0.75
 72
     1
 11
31.25545888370463
 21
3.690215495608888
 31
0.0
100
AcDbText
  0
TEXT
  5
66B
330
1E
100
AcDbEntity
  8
TEXT
100
AcDbText
 10
30.16170888370463
 20
4.702090495608891
 30
0.0
 40
0.625
  1
DIM. E
 41
0.75
 72
     1
 11
31.25545888370463
 21
4.702090495608891
 31
0.0
100
AcDbText
  0
LINE
  5
66C
330
1E
100
AcDbEntity
  8
TITLE
100
AcDbLine
 10
39.40416697699415
 20
5.509999999999998
 30
0.0
 11
39.40416697699415
 21
0.310000000000004
 31
0.0
  0
TEXT
  5
66D
330
1E
100
AcDbEntity
  8
TEXT
100
AcDbText
 10
35.83608388370463
 20
0.5652154956088964
 30
0.0
 40
0.625
  1
1.937
 41
0.75
 72
     1
 11
36.69545888370463
 21
0.5652154956088964
 31
0.0
100
AcDbText
  0
TEXT
  5
66E
330
1E
100
AcDbEntity
  8
TEXT
100
AcDbText
 10
35.83608388370463
 20
2.648548828942224
 30
0.0
 40
0.625
  1
1.937
 41
0.75
 72
     1
 11
36.69545888370463
 21
2.648548828942224
 31
0.0
100
AcDbText
  0
TEXT
  5
66F
330
1E
100
AcDbEntity
  8
TEXT
100
AcDbText
 10
35.91420888370463
 20
1.60688216227556
 30
0.0
 40
0.625
  1
1.531
 41
0.75
 72
     1
 11
36.69545888370463
 21
1.60688216227556
 31
0.0
100
AcDbText
  0
TEXT
  5
670
330
1E
100
AcDbEntity
  8
TEXT
100
AcDbText
 10
35.91420888370463
 20
3.690215495608888
 30
0.0
 40
0.625
  1
1.531
 41
0.75
 72
     1
 11
36.69545888370463
 21
3.690215495608888
 31
0.0
100
AcDbText
  0
TEXT
  5
671
330
1E
100
AcDbEntity
  8
TEXT
100
AcDbText
 10
35.60170888370463
 20
4.702090495608891
 30
0.0
 40
0.625
  1
DIM. F
 41
0.75
 72
     1
 11
36.69545888370463
 21
4.702090495608891
 31
0.0
100
AcDbText
  0
LINE
  5
672
330
1E
100
AcDbEntity
  8
TITLE
100
AcDbLine
 10
44.84416697699415
 20
5.509999999999998
 30
0.0
 11
44.84416697699415
 21
0.310000000000004
 31
0.0
  0
TEXT
  5
673
330
1E
100
AcDbEntity
  8
TEXT
100
AcDbText
 10
41.82295888370464
 20
0.5652154956088964
 30
0.0
 40
0.625
  1
18
 41
0.75
 72
     1
 11
42.13545888370464
 21
0.5652154956088964
 31
0.0
100
AcDbText
  0
TEXT
  5
674
330
1E
100
AcDbEntity
  8
TEXT
100
AcDbText
 10
41.82295888370464
 20
2.648548828942224
 30
0.0
 40
0.625
  1
18
 41
0.75
 72
     1
 11
42.13545888370464
 21
2.648548828942224
 31
0.0
100
AcDbText
  0
TEXT
  5
675
330
1E
100
AcDbEntity
  8
TEXT
100
AcDbText
 10
41.82295888370464
 20
1.60688216227556
 30
0.0
 40
0.625
  1
14
 41
0.75
 72
     1
 11
42.13545888370464
 21
1.60688216227556
 31
0.0
100
AcDbText
  0
TEXT
  5
676
330
1E
100
AcDbEntity
  8
TEXT
100
AcDbText
 10
41.82295888370464
 20
3.690215495608888
 30
0.0
 40
0.625
  1
14
 41
0.75
 72
     1
 11
42.13545888370464
 21
3.690215495608888
 31
0.0
100
AcDbText
  0
TEXT
  5
677
330
1E
100
AcDbEntity
  8
TEXT
100
AcDbText
 10
40.96358388370464
 20
4.702090495608891
 30
0.0
 40
0.625
  1
QTY. G
 41
0.75
 72
     1
 11
42.13545888370464
 21
4.702090495608891
 31
0.0
100
AcDbText
  0
TEXT
  5
679
330
1E
100
AcDbEntity
  8
TEXT
100
AcDbText
 10
46.59889638370464
 20
0.5652154956088964
 30
0.0
 40
0.625
  1
18.000
 41
0.75
 72
     1
 11
47.57545888370464
 21
0.5652154956088964
 31
0.0
100
AcDbText
  0
TEXT
  5
67A
330
1E
100
AcDbEntity
  8
TEXT
100
AcDbText
 10
46.59889638370464
 20
2.648548828942224
 30
0.0
 40
0.625
  1
18.000
 41
0.75
 72
     1
 11
47.57545888370464
 21
2.648548828942224
 31
0.0
100
AcDbText
  0
TEXT
  5
67B
330
1E
100
AcDbEntity
  8
TEXT
100
AcDbText
 10
46.59889638370464
 20
1.60688216227556
 30
0.0
 40
0.625
  1
14.000
 41
0.75
 72
     1
 11
47.57545888370464
 21
1.60688216227556
 31
0.0
100
AcDbText
  0
TEXT
  5
67C
330
1E
100
AcDbEntity
  8
TEXT
100
AcDbText
 10
46.59889638370464
 20
3.690215495608888
 30
0.0
 40
0.625
  1
14.000
 41
0.75
 72
     1
 11
47.57545888370464
 21
3.690215495608888
 31
0.0
100
AcDbText
  0
TEXT
  5
67D
330
1E
100
AcDbEntity
  8
TEXT
100
AcDbText
 10
46.48170888370464
 20
4.702090495608891
 30
0.0
 40
0.625
  1
DIM. H
 41
0.75
 72
     1
 11
47.57545888370464
 21
4.702090495608891
 31
0.0
100
AcDbText
  0
LINE
  5
71A
330
1E
100
AcDbEntity
  8
OBJECT
100
AcDbLine
 10
33.6184525161911
 20
67.14597399607666
 30
0.0
 11
33.4304525161911
 21
67.14597399607666
 31
0.0
  0
LINE
  5
71B
330
1E
100
AcDbEntity
  8
OBJECT
100
AcDbLine
 10
33.6184525161911
 20
66.64597399607666
 30
0.0
 11
33.4304525161911
 21
66.64597399607666
 31
0.0
  0
LINE
  5
71C
330
1E
100
AcDbEntity
  8
OBJECT
100
AcDbLine
 10
33.6184525161911
 20
67.14597399607666
 30
0.0
 11
33.6184525161911
 21
66.64597399607666
 31
0.0
  0
LINE
  5
71D
330
1E
100
AcDbEntity
  8
OBJECT
100
AcDbLine
 10
33.6184525161911
 20
60.14497399607669
 30
0.0
 11
33.4304525161911
 21
60.14497399607669
 31
0.0
  0
LINE
  5
71E
330
1E
100
AcDbEntity
  8
OBJECT
100
AcDbLine
 10
33.6184525161911
 20
59.64497399607669
 30
0.0
 11
33.4304525161911
 21
59.64497399607669
 31
0.0
  0
LINE
  5
71F
330
1E
100
AcDbEntity
  8
OBJECT
100
AcDbLine
 10
33.6184525161911
 20
59.64497399607669
 30
0.0
 11
33.6184525161911
 21
60.14497399607669
 31
0.0
  0
LINE
  5
720
330
1E
100
AcDbEntity
  8
OBJECT
100
AcDbLine
 10
33.4304525161911
 20
66.64597399607666
 30
0.0
 11
33.4304525161911
 21
60.14497399607669
 31
0.0
  0
LINE
  5
721
330
1E
100
AcDbEntity
  8
OBJECT
100
AcDbLine
 10
33.4304525161911
 20
59.64497399607669
 30
0.0
 11
33.4304525161911
 21
58.62997399607667
 31
0.0
  0
LEADER
  5
7F2
330
1E
100
AcDbEntity
  8
DIM
100
AcDbLeader
  3
23NSTD
 73
     0
 75
     1
 40
0.6250000000000001
 41
5.859375
 76
     3
 10
33.59576121840755
 20
58.92875390506104
 30
0.0
 10
31.04351156066163
 20
57.02088340853936
 30
0.0
 10
30.14351156066163
 20
57.02088340853936
 30
0.0
340
7F3
213
0.0
223
-0.3125
233
0.0
1001
ACAD
1000
DSTYLE
1002
{
1070
     5
1000

1070
    77
1070
     0
1070
   147
1040
0.09
1002
}
  0
MTEXT
  5
7F3
102
{ACAD_REACTORS
330
7F2
102
}
330
1E
100
AcDbEntity
  8
DIM
100
AcDbMText
 10
29.69351156066163
 20
57.33338340853936
 30
0.0
 40
0.625
 41
0.0
 71
     3
 72
     1
  1
\A1;0.188 DIA. HOLE
1001
ACAD
1000
MTEXTBEGIN
1070
    73
1070
     1
1070
    44
1040
1.0
1070
    74
1070
     0
1000
MTEXTEND
  0
LINE
  5
862
330
1E
100
AcDbEntity
  8
TITLE
100
AcDbLine
 10
40.10012861222
 20
77.19
 30
0.0
 11
40.10012861222
 21
75.09999999999998
 31
0.0
  0
TEXT
  5
863
330
1E
100
AcDbEntity
  8
TEXT
100
AcDbText
 10
41.42575361221999
 20
75.30039597820041
 30
0.0
 40
0.625
  1
DATE
 41
0.75
 72
     1
 11
42.28512861221999
 21
75.30039597820041
 31
0.0
100
AcDbText
  0
TEXT
  5
864
330
1E
100
AcDbEntity
  8
TEXT
100
AcDbText
 10
41.50387861221999
 20
76.34206264486706
 30
0.0
 40
0.625
  1
REV.
 41
0.75
 72
     1
 11
42.28512861221999
 21
76.34206264486706
 31
0.0
100
AcDbText
  0
LINE
  5
865
330
1E
100
AcDbEntity
  8
TITLE
100
AcDbLine
 10
40.41012861222003
 20
77.19
 30
0.0
 11
40.41012861222003
 21
75.09999999999998
 31
0.0
  0
LINE
  5
866
330
1E
100
AcDbEntity
  8
TITLE
100
AcDbLine
 10
44.16012861222002
 20
77.19
 30
0.0
 11
44.16012861222002
 21
75.09999999999998
 31
0.0
  0
TEXT
  5
86B
330
1E
100
AcDbEntity
  8
TEXT
100
AcDbText
 10
45.39806430611001
 20
75.73899999999998
 30
0.0
 40
0.812
  1
8-30-10
 41
0.75
 72
     4
 11
47.22506430611001
 21
76.14499999999998
 31
0.0
100
AcDbText
  0
LINE
  5
94B
330
1E
100
AcDbEntity
  8
OBJECT
100
AcDbLine
 10
23.96038297924963
 20
67.14597399607666
 30
0.0
 11
23.87038297924962
 21
67.14597399607666
 31
0.0
  0
LINE
  5
94C
330
1E
100
AcDbEntity
  8
OBJECT
100
AcDbLine
 10
23.96038297924963
 20
66.64597399607666
 30
0.0
 11
23.87038297924962
 21
66.64597399607666
 31
0.0
  0
LINE
  5
94D
330
1E
100
AcDbEntity
  8
OBJECT
100
AcDbLine
 10
23.96038297924963
 20
59.64497399607664
 30
0.0
 11
23.87038297924962
 21
59.64497399607664
 31
0.0
  0
LINE
  5
94E
330
1E
100
AcDbEntity
  8
OBJECT
100
AcDbLine
 10
23.96038297924963
 20
60.14497399607664
 30
0.0
 11
23.87038297924962
 21
60.14497399607664
 31
0.0
  0
LINE
  5
94F
330
1E
100
AcDbEntity
  8
OBJECT
100
AcDbLine
 10
7.148382979249628
 20
59.64497399607664
 30
0.0
 11
7.238382979249632
 21
59.64497399607664
 31
0.0
  0
LINE
  5
950
330
1E
100
AcDbEntity
  8
OBJECT
100
AcDbLine
 10
7.148382979249632
 20
60.14497399607664
 30
0.0
 11
7.238382979249632
 21
60.14497399607664
 31
0.0
  0
LINE
  5
951
330
1E
100
AcDbEntity
  8
OBJECT
100
AcDbLine
 10
7.148382979249628
 20
67.14597399607666
 30
0.0
 11
7.238382979249632
 21
67.14597399607666
 31
0.0
  0
LINE
  5
952
330
1E
100
AcDbEntity
  8
OBJECT
100
AcDbLine
 10
7.148382979249632
 20
66.64597399607666
 30
0.0
 11
7.238382979249632
 21
66.64597399607666
 31
0.0
  0
DIMENSION
  5
953
330
1E
100
AcDbEntity
  8
DIM
100
AcDbDimension
  2
*D20
 10
30.03374953029896
 20
67.14597399607668
 30
0.0
 11
26.76968703029895
 21
65.34597399607668
 31
0.0
 70
   160
  1
<> TYP.
  3
23NSTD
100
AcDbAlignedDimension
 13
33.6184525161911
 23
67.77097399607666
 33
0.0
 14
33.4304525161911
 24
67.14597399607666
 34
0.0
 50
90.0
100
AcDbRotatedDimension
  0
DIMENSION
  5
96D
330
1E
100
AcDbEntity
  8
DIM
100
AcDbDimension
  2
*D21
 10
31.77606888844099
 20
66.64597399607668
 30
0.0
 11
28.59013138844098
 21
64.09817885819243
 31
0.0
 70
   160
  1
<> TYP.
  3
23NSTD
100
AcDbAlignedDimension
 13
33.4304525161911
 23
67.14597399607666
 33
0.0
 14
33.4304525161911
 24
66.64597399607666
 34
0.0
 50
90.0
100
AcDbRotatedDimension
  0
DIMENSION
  5
9B2
330
1E
100
AcDbEntity
  8
DIM
100
AcDbDimension
  2
*D22
 10
33.4304525161911
 20
61.24614531601896
 30
0.0
 11
30.3601400161911
 21
61.24614531601896
 31
0.0
 70
    32
  3
23NSTD
100
AcDbAlignedDimension
 13
33.6184525161911
 23
60.14497399607669
 33
0.0
 14
33.4304525161911
 24
61.08494574083886
 34
0.0
100
AcDbRotatedDimension
  0
MTEXT
  5
AB3
102
{ACAD_REACTORS
330
AB5
102
}
330
1E
100
AcDbEntity
  8
DIM
100
AcDbMText
 10
41.18867656043734
 20
63.6972661394266
 30
0.0
 40
0.625
 41
0.0
 71
     1
 72
     1
  1
CLEARANCE NOTCH\P(FOR MOUNTING SLIDES\PTO THE SIDE PANELS\POF CHASSIS)
1001
ACAD
1000
MTEXTBEGIN
1070
    73
1070
     1
1070
    44
1040
1.0
1070
    74
1070
     0
1000
MTEXTEND
  0
LEADER
  5
AB4
330
1E
100
AcDbEntity
  8
DIM
100
AcDbLeader
  3
23NSTD
 76
     2
 10
33.64832892608746
 20
59.90580537877099
 30
0.0
 10
39.83867656043734
 20
63.3847661394266
 30
0.0
211
-1.0
221
0.0
231
0.0
210
0.0
220
0.0
230
-1.0
1001
ACAD
1000
DSTYLE
1002
{
1070
     5
1000

1070
    77
1070
     0
1070
   147
1040
0.09
1002
}
  0
LEADER
  5
AB5
330
1E
100
AcDbEntity
  8
DIM
100
AcDbLeader
  3
23NSTD
 73
     0
 74
     0
 75
     1
 40
2.708333333333333
 41
6.875
 76
     3
 10
33.64832892608746
 20
66.92500411033657
 30
0.0
 10
39.83867656043734
 20
63.3847661394266
 30
0.0
 10
40.73867656043733
 20
63.3847661394266
 30
0.0
340
AB3
210
0.0
220
0.0
230
-1.0
213
0.0
223
-0.3125
233
0.0
1001
ACAD
1000
DSTYLE
1002
{
1070
     5
1000

1070
    77
1070
     0
1070
   147
1040
0.09
1002
}
  0
ENDSEC
  0
SECTION
  2
OBJECTS
  0
DICTIONARY
  5
C
330
0
100
AcDbDictionary
  3
ACAD_GROUP
350
D
  3
ACAD_LAYOUT
350
19
  3
ACAD_MLINESTYLE
350
16
  3
ACAD_PLOTSETTINGS
350
18
  3
ACAD_PLOTSTYLENAME
350
E
  3
ACADDIM
350
824
  3
ACDBHEADERROUNDTRIPXREC
350
AC2
  0
DICTIONARY
  5
AE5
330
1E
100
AcDbDictionary
280
     1
  3
ACAD_LAYOUTSELFREF
360
AE6
  0
DICTIONARY
  5
AE3
330
1A
100
AcDbDictionary
280
     1
  3
ACAD_LAYOUTSELFREF
360
AE4
  0
DICTIONARY
  5
D
102
{ACAD_REACTORS
330
C
102
}
330
C
100
AcDbDictionary
  0
DICTIONARY
  5
19
102
{ACAD_REACTORS
330
C
102
}
330
C
100
AcDbDictionary
  0
DICTIONARY
  5
16
102
{ACAD_REACTORS
330
C
102
}
330
C
100
AcDbDictionary
  3
STANDARD
350
17
  0
DICTIONARY
  5
18
102
{ACAD_REACTORS
330
C
102
}
330
C
100
AcDbDictionary
  0
ACDBDICTIONARYWDFLT
  5
E
102
{ACAD_REACTORS
330
C
102
}
330
C
100
AcDbDictionary
281
     1
  3
Normal
350
F
100
AcDbDictionaryWithDefault
340
F
  0
XRECORD
  5
824
102
{ACAD_REACTORS
330
C
102
}
330
C
100
AcDbXrecord
 90
   990106
  3

 60
     0
 61
     0
 62
     1
 63
     1
 64
     0
 65
     0
 66
     0
 67
     3
 68
     1
 69
     0
 70
     0
 71
     0
 72
     0
 40
0.0
170
     2
340
0
  0
DICTIONARY
  5
AC2
102
{ACAD_REACTORS
330
C
102
}
330
C
100
AcDbDictionary
  3
TSTACKALIGN
350
AC3
  3
TSTACKSIZE
350
AC4
  3
HYPERLINKBASE
350
AC5
  3
STYLESHEET
350
AC6
  3
LAYOUTDICT
350
AC7
  3
PLOTSETDICT
350
AC8
  3
PLOTSTYLNAMDICT
350
AC9
  3
LWETCUNION
350
ACA
  3
INSUNITS
350
ACB
  3
CEPSNTYPE
350
ACC
  3
FINGERPRINTGUID
350
ACD
  3
VERSIONGUID
350
ACE
  3
PSVPSCALE
350
ACF
  3
DIMSTYLEDATA
350
AD0
  3
PUCSORTHOREF
350
AD1
  3
PUCSORTHOVIEW
350
AD2
  3
PUCSBASE
350
AD3
  3
PUCSORGTOP
350
AD4
  3
PUCSORGBOTTOM
350
AD5
  3
PUCSORGLEFT
350
AD6
  3
PUCSORGRIGHT
350
AD7
  3
PUCSORGFRONT
350
AD8
  3
PUCSORGBACK
350
AD9
  3
UCSORTHOREF
350
ADA
  3
UCSORTHOVIEW
350
ADB
  3
UCSBASE
350
ADC
  3
UCSORGTOP
350
ADD
  3
UCSORGBOTTOM
350
ADE
  3
UCSORGLEFT
350
ADF
  3
UCSORGRIGHT
350
AE0
  3
UCSORGFRONT
350
AE1
  3
UCSORGBACK
350
AE2
  0
XRECORD
  5
AE6
102
{ACAD_REACTORS
330
AE5
102
}
330
AE5
100
AcDbXrecord
340
1E
  0
XRECORD
  5
AE4
102
{ACAD_REACTORS
330
AE3
102
}
330
AE3
100
AcDbXrecord
340
1A
  0
MLINESTYLE
  5
17
102
{ACAD_REACTORS
330
16
102
}
330
16
100
AcDbMlineStyle
  2
STANDARD
 70
     0
  3

 62
   256
 51
90.0
 52
90.0
 71
     2
 49
0.5
 62
   256
  6
BYLAYER
 49
-0.5
 62
   256
  6
BYLAYER
  0
ACDBPLACEHOLDER
  5
F
102
{ACAD_REACTORS
330
E
102
}
330
E
100
AcDbPlaceHolder
280
     0
  0
XRECORD
  5
AC3
102
{ACAD_REACTORS
330
AC2
102
}
330
AC2
100
AcDbXrecord
 90
        1
  0
XRECORD
  5
AC4
102
{ACAD_REACTORS
330
AC2
102
}
330
AC2
100
AcDbXrecord
 90
       70
  0
XRECORD
  5
AC5
102
{ACAD_REACTORS
330
AC2
102
}
330
AC2
100
AcDbXrecord
  1

  0
XRECORD
  5
AC6
102
{ACAD_REACTORS
330
AC2
102
}
330
AC2
100
AcDbXrecord
  1
monochrome.ctb
  0
XRECORD
  5
AC7
102
{ACAD_REACTORS
330
AC2
102
}
330
AC2
100
AcDbXrecord
340
19
  0
XRECORD
  5
AC8
102
{ACAD_REACTORS
330
AC2
102
}
330
AC2
100
AcDbXrecord
340
18
  0
XRECORD
  5
AC9
102
{ACAD_REACTORS
330
AC2
102
}
330
AC2
100
AcDbXrecord
340
E
  0
XRECORD
  5
ACA
102
{ACAD_REACTORS
330
AC2
102
}
330
AC2
100
AcDbXrecord
 90
    10781
  0
XRECORD
  5
ACB
102
{ACAD_REACTORS
330
AC2
102
}
330
AC2
100
AcDbXrecord
 90
        0
  0
XRECORD
  5
ACC
102
{ACAD_REACTORS
330
AC2
102
}
330
AC2
100
AcDbXrecord
 90
        0
  0
XRECORD
  5
ACD
102
{ACAD_REACTORS
330
AC2
102
}
330
AC2
100
AcDbXrecord
  1
{A435905E-9ABA-11D4-81CD-00C04F604D1B}
  0
XRECORD
  5
ACE
102
{ACAD_REACTORS
330
AC2
102
}
330
AC2
100
AcDbXrecord
  1
{825D20FC-1D49-4EC1-B914-1D3D2FEBA4E5}
  0
XRECORD
  5
ACF
102
{ACAD_REACTORS
330
AC2
102
}
330
AC2
100
AcDbXrecord
 40
0.0
  0
XRECORD
  5
AD0
102
{ACAD_REACTORS
330
AC2
102
}
330
AC2
100
AcDbXrecord
1000
DSTYLE
1002
{
1070
   289
 70
     1
1002
}
  0
XRECORD
  5
AD1
102
{ACAD_REACTORS
330
AC2
102
}
330
AC2
100
AcDbXrecord
340
0
  0
XRECORD
  5
AD2
102
{ACAD_REACTORS
330
AC2
102
}
330
AC2
100
AcDbXrecord
 70
     0
  0
XRECORD
  5
AD3
102
{ACAD_REACTORS
330
AC2
102
}
330
AC2
100
AcDbXrecord
340
0
  0
XRECORD
  5
AD4
102
{ACAD_REACTORS
330
AC2
102
}
330
AC2
100
AcDbXrecord
 10
0.0
 20
0.0
 30
0.0
  0
XRECORD
  5
AD5
102
{ACAD_REACTORS
330
AC2
102
}
330
AC2
100
AcDbXrecord
 10
0.0
 20
0.0
 30
0.0
  0
XRECORD
  5
AD6
102
{ACAD_REACTORS
330
AC2
102
}
330
AC2
100
AcDbXrecord
 10
0.0
 20
0.0
 30
0.0
  0
XRECORD
  5
AD7
102
{ACAD_REACTORS
330
AC2
102
}
330
AC2
100
AcDbXrecord
 10
0.0
 20
0.0
 30
0.0
  0
XRECORD
  5
AD8
102
{ACAD_REACTORS
330
AC2
102
}
330
AC2
100
AcDbXrecord
 10
0.0
 20
0.0
 30
0.0
  0
XRECORD
  5
AD9
102
{ACAD_REACTORS
330
AC2
102
}
330
AC2
100
AcDbXrecord
 10
0.0
 20
0.0
 30
0.0
  0
XRECORD
  5
ADA
102
{ACAD_REACTORS
330
AC2
102
}
330
AC2
100
AcDbXrecord
340
0
  0
XRECORD
  5
ADB
102
{ACAD_REACTORS
330
AC2
102
}
330
AC2
100
AcDbXrecord
 70
     0
  0
XRECORD
  5
ADC
102
{ACAD_REACTORS
330
AC2
102
}
330
AC2
100
AcDbXrecord
340
0
  0
XRECORD
  5
ADD
102
{ACAD_REACTORS
330
AC2
102
}
330
AC2
100
AcDbXrecord
 10
0.0
 20
0.0
 30
0.0
  0
XRECORD
  5
ADE
102
{ACAD_REACTORS
330
AC2
102
}
330
AC2
100
AcDbXrecord
 10
0.0
 20
0.0
 30
0.0
  0
XRECORD
  5
ADF
102
{ACAD_REACTORS
330
AC2
102
}
330
AC2
100
AcDbXrecord
 10
0.0
 20
0.0
 30
0.0
  0
XRECORD
  5
AE0
102
{ACAD_REACTORS
330
AC2
102
}
330
AC2
100
AcDbXrecord
 10
0.0
 20
0.0
 30
0.0
  0
XRECORD
  5
AE1
102
{ACAD_REACTORS
330
AC2
102
}
330
AC2
100
AcDbXrecord
 10
0.0
 20
0.0
 30
0.0
  0
XRECORD
  5
AE2
102
{ACAD_REACTORS
330
AC2
102
}
330
AC2
100
AcDbXrecord
 10
0.0
 20
0.0
 30
0.0
  0
ENDSEC
  0
EOF
