  0
SECTION
  2
HEADER
  9
$ACADVER
  1
AC1009
  9
$INSBASE
 10
0.0
 20
0.0
 30
0.0
  9
$EXTMIN
 10
0.0
 20
0.0
 30
0.0
  9
$EXTMAX
 10
13.156
 20
20.15
 30
0.0
  9
$LIMMIN
 10
0.0
 20
0.0
  9
$LIMMAX
 10
13.156
 20
20.15
  9
$ORTHOMODE
 70
     0
  9
$REGENMODE
 70
     1
  9
$FILLMODE
 70
     1
  9
$QTEXTMODE
 70
     0
  9
$MIRRTEXT
 70
     0
  9
$DRAGMODE
 70
     2
  9
$LTSCALE
 40
1.0
  9
$OSMODE
 70
     1
  9
$ATTMODE
 70
     1
  9
$TEXTSIZE
 40
0.163
  9
$TRACEWID
 40
0.05
  9
$TEXTSTYLE
  7
TXT
  9
$CLAYER
  8
TEXT
  9
$CELTYPE
  6
BYLAYER
  9
$CECOLOR
 62
   256
  9
$DIMSCALE
 40
1.3
  9
$DIMASZ
 40
0.18
  9
$DIMEXO
 40
0.0625
  9
$DIMDLI
 40
0.38
  9
$DIMRND
 40
0.0
  9
$DIMDLE
 40
0.0
  9
$DIMEXE
 40
0.093
  9
$DIMTP
 40
0.0
  9
$DIMTM
 40
0.0
  9
$DIMTXT
 40
0.125
  9
$DIMCEN
 40
0.09
  9
$DIMTSZ
 40
0.0
  9
$DIMTOL
 70
     0
  9
$DIMLIM
 70
     0
  9
$DIMTIH
 70
     1
  9
$DIMTOH
 70
     1
  9
$DIMSE1
 70
     0
  9
$DIMSE2
 70
     0
  9
$DIMTAD
 70
     0
  9
$DIMZIN
 70
     0
  9
$DIMBLK
  1

  9
$DIMASO
 70
     1
  9
$DIMSHO
 70
     1
  9
$DIMPOST
  1

  9
$DIMAPOST
  1

  9
$DIMALT
 70
     0
  9
$DIMALTD
 70
     2
  9
$DIMALTF
 40
25.4
  9
$DIMLFAC
 40
1.0
  9
$DIMTOFL
 70
     0
  9
$DIMTVP
 40
0.0
  9
$DIMTIX
 70
     1
  9
$DIMSOXD
 70
     0
  9
$DIMSAH
 70
     0
  9
$DIMBLK1
  1

  9
$DIMBLK2
  1

  9
$DIMSTYLE
  2
DIM
  9
$DIMCLRD
 70
     0
  9
$DIMCLRE
 70
     0
  9
$DIMCLRT
 70
     0
  9
$DIMTFAC
 40
1.0
  9
$DIMGAP
 40
0.09
  9
$LUNITS
 70
     2
  9
$LUPREC
 70
     3
  9
$SKETCHINC
 40
0.1
  9
$FILLETRAD
 40
0.0
  9
$AUNITS
 70
     0
  9
$AUPREC
 70
     0
  9
$MENU
  1
acad
  9
$ELEVATION
 40
0.0
  9
$PELEVATION
 40
0.0
  9
$THICKNESS
 40
0.0
  9
$LIMCHECK
 70
     0
  9
$BLIPMODE
 70
     1
  9
$CHAMFERA
 40
0.0
  9
$CHAMFERB
 40
0.0
  9
$SKPOLY
 70
     0
  9
$TDCREATE
 40
2448866.401840972
  9
$TDUPDATE
 40
2450865.319277314
  9
$TDINDWG
 40
0.0103546296
  9
$TDUSRTIMER
 40
0.0103546296
  9
$USRTIMER
 70
     1
  9
$ANGBASE
 50
0.0
  9
$ANGDIR
 70
     0
  9
$PDMODE
 70
     0
  9
$PDSIZE
 40
0.0
  9
$PLINEWID
 40
0.0
  9
$COORDS
 70
     0
  9
$SPLFRAME
 70
     0
  9
$SPLINETYPE
 70
     6
  9
$SPLINESEGS
 70
     8
  9
$ATTDIA
 70
     0
  9
$ATTREQ
 70
     1
  9
$HANDLING
 70
     0
  9
$HANDSEED
  5
0
  9
$SURFTAB1
 70
     6
  9
$SURFTAB2
 70
     6
  9
$SURFTYPE
 70
     6
  9
$SURFU
 70
     6
  9
$SURFV
 70
     6
  9
$UCSNAME
  2

  9
$UCSORG
 10
0.0
 20
0.0
 30
0.0
  9
$UCSXDIR
 10
1.0
 20
0.0
 30
0.0
  9
$UCSYDIR
 10
0.0
 20
1.0
 30
0.0
  9
$PUCSNAME
  2

  9
$PUCSORG
 10
0.0
 20
0.0
 30
0.0
  9
$PUCSXDIR
 10
1.0
 20
0.0
 30
0.0
  9
$PUCSYDIR
 10
0.0
 20
1.0
 30
0.0
  9
$USERI1
 70
     0
  9
$USERI2
 70
     0
  9
$USERI3
 70
     0
  9
$USERI4
 70
     0
  9
$USERI5
 70
     0
  9
$USERR1
 40
0.0
  9
$USERR2
 40
0.0
  9
$USERR3
 40
0.0
  9
$USERR4
 40
0.0
  9
$USERR5
 40
0.0
  9
$WORLDVIEW
 70
     1
  9
$SHADEDGE
 70
     3
  9
$SHADEDIF
 70
    70
  9
$TILEMODE
 70
     1
  9
$MAXACTVP
 70
    16
  9
$PINSBASE
 10
0.0
 20
0.0
 30
0.0
  9
$PLIMCHECK
 70
     0
  9
$PEXTMIN
 10
1.000000E+20
 20
1.000000E+20
 30
1.000000E+20
  9
$PEXTMAX
 10
-1.000000E+20
 20
-1.000000E+20
 30
-1.000000E+20
  9
$PLIMMIN
 10
0.0
 20
0.0
  9
$PLIMMAX
 10
12.0
 20
9.0
  9
$UNITMODE
 70
     0
  9
$VISRETAIN
 70
     0
  9
$PLINEGEN
 70
     0
  9
$PSLTSCALE
 70
     0
  9
$TREEDEPTH
 70
  3020
  9
$DWGCODEPAGE
  3
undefined
  0
ENDSEC
  0
SECTION
  2
TABLES
  0
TABLE
  2
VPORT
 70
     2
  0
VPORT
  2
*ACTIVE
 70
     0
 10
0.0
 20
0.0
 11
1.0
 21
1.0
 12
13.725571
 22
10.075
 13
0.0
 23
0.0
 14
1.0
 24
1.0
 15
0.25
 25
0.25
 16
0.0
 26
0.0
 36
1.0
 17
0.0
 27
0.0
 37
0.0
 40
20.15
 41
1.36234
 42
50.0
 43
0.0
 44
0.0
 50
0.0
 51
0.0
 71
     0
 72
  1000
 73
     1
 74
     0
 75
     0
 76
     0
 77
     0
 78
     0
  0
ENDTAB
  0
TABLE
  2
LTYPE
 70
     4
  0
LTYPE
  2
CONTINUOUS
 70
    64
  3
Solid line
 72
    65
 73
     0
 40
0.0
  0
LTYPE
  2
HIDDEN
 70
    64
  3
_ _ _ _ _ _ _ _ _ _ _ _ _ _ _ _ _ _ _ _ _ _ _
 72
    65
 73
     2
 40
0.375
 49
0.25
 49
-0.125
  0
LTYPE
  2
PHANTOM
 70
    64
  3
_____ _ _ _____ _ _ _____ _ _ _____ _ _ ____
 72
    65
 73
     6
 40
2.5
 49
1.25
 49
-0.25
 49
0.25
 49
-0.25
 49
0.25
 49
-0.25
  0
LTYPE
  2
CENTER
 70
    64
  3
____ _ ____ _ ____ _ ____ _ ____ _ ____ _ ____
 72
    65
 73
     4
 40
2.0
 49
1.25
 49
-0.25
 49
0.25
 49
-0.25
  0
ENDTAB
  0
TABLE
  2
LAYER
 70
     9
  0
LAYER
  2
0
 70
    64
 62
     7
  6
CONTINUOUS
  0
LAYER
  2
OBJECT
 70
    64
 62
     7
  6
CONTINUOUS
  0
LAYER
  2
DIM
 70
    64
 62
     7
  6
CONTINUOUS
  0
LAYER
  2
HIDDEN
 70
    64
 62
     7
  6
HIDDEN
  0
LAYER
  2
BEND
 70
    64
 62
     7
  6
PHANTOM
  0
LAYER
  2
TEXT
 70
    64
 62
     7
  6
CONTINUOUS
  0
LAYER
  2
TITLE
 70
    64
 62
     7
  6
CONTINUOUS
  0
LAYER
  2
CENTER
 70
    64
 62
     7
  6
CENTER
  0
LAYER
  2
DEFPOINTS
 70
    64
 62
    -7
  6
CONTINUOUS
  0
ENDTAB
  0
TABLE
  2
STYLE
 70
     1
  0
STYLE
  2
TXT
 70
    64
 40
0.0
 41
0.75
 50
0.0
 71
     0
 42
0.163
  3
TXT
  4

  0
ENDTAB
  0
TABLE
  2
VIEW
 70
     0
  0
ENDTAB
  0
TABLE
  2
UCS
 70
     0
  0
ENDTAB
  0
TABLE
  2
APPID
 70
     1
  0
APPID
  2
ACAD
 70
    64
  0
ENDTAB
  0
TABLE
  2
DIMSTYLE
 70
     2
  0
DIMSTYLE
  2
STD
 70
     0
  3

  4

  5

  6

  7

 40
1.3
 41
0.18
 42
0.0625
 43
0.38
 44
0.093
 45
0.0
 46
0.0
 47
0.0
 48
0.0
140
0.125
141
0.09
142
0.0
143
25.4
144
1.0
145
0.0
146
1.0
147
0.09
 71
     0
 72
     0
 73
     1
 74
     1
 75
     0
 76
     0
 77
     0
 78
     0
170
     0
171
     2
172
     0
173
     0
174
     0
175
     0
176
     0
177
     0
178
     0
  0
DIMSTYLE
  2
DIM
 70
    64
  3

  4

  5

  6

  7

 40
1.3
 41
0.18
 42
0.0625
 43
0.38
 44
0.093
 45
0.0
 46
0.0
 47
0.0
 48
0.0
140
0.125
141
0.09
142
0.0
143
25.4
144
1.0
145
0.0
146
1.0
147
0.09
 71
     0
 72
     0
 73
     1
 74
     1
 75
     0
 76
     0
 77
     0
 78
     0
170
     0
171
     2
172
     0
173
     0
174
     1
175
     0
176
     0
177
     0
178
     0
  0
ENDTAB
  0
ENDSEC
  0
SECTION
  2
BLOCKS
  0
BLOCK
  8
0
  2
*D0
 70
    65
 10
0.0
 20
0.0
 30
0.0
  3
*D
  0
LINE
  8
0
  6
BYBLOCK
 62
     0
 10
1.659286
 20
15.814243
 30
0.0
 11
1.659286
 21
17.650238
 31
0.0
  0
LINE
  8
0
  6
BYBLOCK
 62
     0
 10
11.659286
 20
15.814243
 30
0.0
 11
11.659286
 21
17.650238
 31
0.0
  0
LINE
  8
0
  6
BYBLOCK
 62
     0
 10
1.893286
 20
17.529338
 30
0.0
 11
4.186036
 21
17.529338
 31
0.0
  0
LINE
  8
0
  6
BYBLOCK
 62
     0
 10
11.425286
 20
17.529338
 30
0.0
 11
9.132536
 21
17.529338
 31
0.0
  0
SOLID
  8
0
  6
BYBLOCK
 62
     0
 10
1.893286
 20
17.568338
 30
0.0
 11
1.893286
 21
17.490338
 31
0.0
 12
1.659286
 22
17.529338
 32
0.0
 13
1.659286
 23
17.529338
 33
0.0
  0
SOLID
  8
0
  6
BYBLOCK
 62
     0
 10
11.425286
 20
17.568338
 30
0.0
 11
11.425286
 21
17.490338
 31
0.0
 12
11.659286
 22
17.529338
 32
0.0
 13
11.659286
 23
17.529338
 33
0.0
  0
TEXT
  8
0
  6
BYBLOCK
 62
     0
 10
4.303036
 20
17.448088
 30
0.0
 40
0.1625
  1
"D" HOLES ON E.I.A. UNIVERSAL SPACING = "E"
 41
0.75
 72
     1
 11
6.659286
 21
17.529338
 31
0.0
 73
     2
  0
POINT
  8
DEFPOINTS
  6
BYBLOCK
 62
     0
 10
1.659286
 20
15.732993
 30
0.0
  0
POINT
  8
DEFPOINTS
  6
BYBLOCK
 62
     0
 10
11.659286
 20
15.732993
 30
0.0
  0
POINT
  8
DEFPOINTS
  6
BYBLOCK
 62
     0
 10
11.659286
 20
17.529338
 30
0.0
  0
ENDBLK
  8
0
  0
BLOCK
  8
0
  2
*D1
 70
    65
 10
0.0
 20
0.0
 30
0.0
  3
*D
  0
LINE
  8
0
  6
BYBLOCK
 62
     0
 10
2.909286
 20
15.151743
 30
0.0
 11
2.909286
 21
14.111302
 31
0.0
  0
LINE
  8
0
  6
BYBLOCK
 62
     0
 10
5.159286
 20
15.151743
 30
0.0
 11
5.159286
 21
14.111302
 31
0.0
  0
LINE
  8
0
  6
BYBLOCK
 62
     0
 10
3.143286
 20
14.232202
 30
0.0
 11
3.876661
 21
14.232202
 31
0.0
  0
LINE
  8
0
  6
BYBLOCK
 62
     0
 10
4.925286
 20
14.232202
 30
0.0
 11
4.191911
 21
14.232202
 31
0.0
  0
SOLID
  8
0
  6
BYBLOCK
 62
     0
 10
3.143286
 20
14.271202
 30
0.0
 11
3.143286
 21
14.193202
 31
0.0
 12
2.909286
 22
14.232202
 32
0.0
 13
2.909286
 23
14.232202
 33
0.0
  0
SOLID
  8
0
  6
BYBLOCK
 62
     0
 10
4.925286
 20
14.271202
 30
0.0
 11
4.925286
 21
14.193202
 31
0.0
 12
5.159286
 22
14.232202
 32
0.0
 13
5.159286
 23
14.232202
 33
0.0
  0
TEXT
  8
0
  6
BYBLOCK
 62
     0
 10
3.993661
 20
14.150952
 30
0.0
 40
0.1625
  1
C
 41
0.75
 72
     1
 11
4.034286
 21
14.232202
 31
0.0
 73
     2
  0
POINT
  8
DEFPOINTS
  6
BYBLOCK
 62
     0
 10
2.909286
 20
15.232993
 30
0.0
  0
POINT
  8
DEFPOINTS
  6
BYBLOCK
 62
     0
 10
5.159286
 20
15.232993
 30
0.0
  0
POINT
  8
DEFPOINTS
  6
BYBLOCK
 62
     0
 10
5.159286
 20
14.232202
 30
0.0
  0
ENDBLK
  8
0
  0
BLOCK
  8
0
  2
*D2
 70
    65
 10
0.0
 20
0.0
 30
0.0
  3
*D
  0
LINE
  8
0
  6
BYBLOCK
 62
     0
 10
10.409286
 20
15.151743
 30
0.0
 11
10.409286
 21
14.111302
 31
0.0
  0
LINE
  8
0
  6
BYBLOCK
 62
     0
 10
8.159286
 20
15.151743
 30
0.0
 11
8.159286
 21
14.111302
 31
0.0
  0
LINE
  8
0
  6
BYBLOCK
 62
     0
 10
10.175286
 20
14.232202
 30
0.0
 11
9.441911
 21
14.232202
 31
0.0
  0
LINE
  8
0
  6
BYBLOCK
 62
     0
 10
8.393286
 20
14.232202
 30
0.0
 11
9.126661
 21
14.232202
 31
0.0
  0
SOLID
  8
0
  6
BYBLOCK
 62
     0
 10
10.175286
 20
14.271202
 30
0.0
 11
10.175286
 21
14.193202
 31
0.0
 12
10.409286
 22
14.232202
 32
0.0
 13
10.409286
 23
14.232202
 33
0.0
  0
SOLID
  8
0
  6
BYBLOCK
 62
     0
 10
8.393286
 20
14.271202
 30
0.0
 11
8.393286
 21
14.193202
 31
0.0
 12
8.159286
 22
14.232202
 32
0.0
 13
8.159286
 23
14.232202
 33
0.0
  0
TEXT
  8
0
  6
BYBLOCK
 62
     0
 10
9.243661
 20
14.150952
 30
0.0
 40
0.1625
  1
C
 41
0.75
 72
     1
 11
9.284286
 21
14.232202
 31
0.0
 73
     2
  0
POINT
  8
DEFPOINTS
  6
BYBLOCK
 62
     0
 10
10.409286
 20
15.232993
 30
0.0
  0
POINT
  8
DEFPOINTS
  6
BYBLOCK
 62
     0
 10
8.159286
 20
15.232993
 30
0.0
  0
POINT
  8
DEFPOINTS
  6
BYBLOCK
 62
     0
 10
8.159286
 20
14.232202
 30
0.0
  0
ENDBLK
  8
0
  0
BLOCK
  8
0
  2
*D3
 70
    65
 10
0.0
 20
0.0
 30
0.0
  3
*D
  0
LINE
  8
0
  6
BYBLOCK
 62
     0
 10
1.425286
 20
14.808743
 30
0.0
 11
1.425286
 21
14.111302
 31
0.0
  0
LINE
  8
0
  6
BYBLOCK
 62
     0
 10
2.909286
 20
15.151743
 30
0.0
 11
2.909286
 21
14.111302
 31
0.0
  0
LINE
  8
0
  6
BYBLOCK
 62
     0
 10
1.659286
 20
14.232202
 30
0.0
 11
2.009661
 21
14.232202
 31
0.0
  0
LINE
  8
0
  6
BYBLOCK
 62
     0
 10
2.675286
 20
14.232202
 30
0.0
 11
2.324911
 21
14.232202
 31
0.0
  0
SOLID
  8
0
  6
BYBLOCK
 62
     0
 10
1.659286
 20
14.271202
 30
0.0
 11
1.659286
 21
14.193202
 31
0.0
 12
1.425286
 22
14.232202
 32
0.0
 13
1.425286
 23
14.232202
 33
0.0
  0
SOLID
  8
0
  6
BYBLOCK
 62
     0
 10
2.675286
 20
14.271202
 30
0.0
 11
2.675286
 21
14.193202
 31
0.0
 12
2.909286
 22
14.232202
 32
0.0
 13
2.909286
 23
14.232202
 33
0.0
  0
TEXT
  8
0
  6
BYBLOCK
 62
     0
 10
2.126661
 20
14.150952
 30
0.0
 40
0.1625
  1
B
 41
0.75
 72
     1
 11
2.167286
 21
14.232202
 31
0.0
 73
     2
  0
POINT
  8
DEFPOINTS
  6
BYBLOCK
 62
     0
 10
1.425286
 20
14.889993
 30
0.0
  0
POINT
  8
DEFPOINTS
  6
BYBLOCK
 62
     0
 10
2.909286
 20
15.232993
 30
0.0
  0
POINT
  8
DEFPOINTS
  6
BYBLOCK
 62
     0
 10
2.909286
 20
14.232202
 30
0.0
  0
ENDBLK
  8
0
  0
BLOCK
  8
0
  2
*D4
 70
    65
 10
0.0
 20
0.0
 30
0.0
  3
*D
  0
LINE
  8
0
  6
BYBLOCK
 62
     0
 10
11.893286
 20
14.808743
 30
0.0
 11
11.893286
 21
14.111302
 31
0.0
  0
LINE
  8
0
  6
BYBLOCK
 62
     0
 10
10.409286
 20
15.151743
 30
0.0
 11
10.409286
 21
14.111302
 31
0.0
  0
LINE
  8
0
  6
BYBLOCK
 62
     0
 10
11.659286
 20
14.232202
 30
0.0
 11
11.308911
 21
14.232202
 31
0.0
  0
LINE
  8
0
  6
BYBLOCK
 62
     0
 10
10.643286
 20
14.232202
 30
0.0
 11
10.993661
 21
14.232202
 31
0.0
  0
SOLID
  8
0
  6
BYBLOCK
 62
     0
 10
11.659286
 20
14.271202
 30
0.0
 11
11.659286
 21
14.193202
 31
0.0
 12
11.893286
 22
14.232202
 32
0.0
 13
11.893286
 23
14.232202
 33
0.0
  0
SOLID
  8
0
  6
BYBLOCK
 62
     0
 10
10.643286
 20
14.271202
 30
0.0
 11
10.643286
 21
14.193202
 31
0.0
 12
10.409286
 22
14.232202
 32
0.0
 13
10.409286
 23
14.232202
 33
0.0
  0
TEXT
  8
0
  6
BYBLOCK
 62
     0
 10
11.110661
 20
14.150952
 30
0.0
 40
0.1625
  1
B
 41
0.75
 72
     1
 11
11.151286
 21
14.232202
 31
0.0
 73
     2
  0
POINT
  8
DEFPOINTS
  6
BYBLOCK
 62
     0
 10
11.893286
 20
14.889993
 30
0.0
  0
POINT
  8
DEFPOINTS
  6
BYBLOCK
 62
     0
 10
10.409286
 20
15.232993
 30
0.0
  0
POINT
  8
DEFPOINTS
  6
BYBLOCK
 62
     0
 10
10.409286
 20
14.232202
 30
0.0
  0
ENDBLK
  8
0
  0
BLOCK
  8
0
  2
*D5
 70
    65
 10
0.0
 20
0.0
 30
0.0
  3
*D
  0
LINE
  8
0
  6
BYBLOCK
 62
     0
 10
11.893286
 20
14.808743
 30
0.0
 11
11.893286
 21
13.618901
 31
0.0
  0
LINE
  8
0
  6
BYBLOCK
 62
     0
 10
1.425286
 20
14.808743
 30
0.0
 11
1.425286
 21
13.618901
 31
0.0
  0
LINE
  8
0
  6
BYBLOCK
 62
     0
 10
11.659286
 20
13.739801
 30
0.0
 11
6.816911
 21
13.739801
 31
0.0
  0
LINE
  8
0
  6
BYBLOCK
 62
     0
 10
1.659286
 20
13.739801
 30
0.0
 11
6.501661
 21
13.739801
 31
0.0
  0
SOLID
  8
0
  6
BYBLOCK
 62
     0
 10
11.659286
 20
13.778801
 30
0.0
 11
11.659286
 21
13.700801
 31
0.0
 12
11.893286
 22
13.739801
 32
0.0
 13
11.893286
 23
13.739801
 33
0.0
  0
SOLID
  8
0
  6
BYBLOCK
 62
     0
 10
1.659286
 20
13.778801
 30
0.0
 11
1.659286
 21
13.700801
 31
0.0
 12
1.425286
 22
13.739801
 32
0.0
 13
1.425286
 23
13.739801
 33
0.0
  0
TEXT
  8
0
  6
BYBLOCK
 62
     0
 10
6.618661
 20
13.658551
 30
0.0
 40
0.1625
  1
A
 41
0.75
 72
     1
 11
6.659286
 21
13.739801
 31
0.0
 73
     2
  0
POINT
  8
DEFPOINTS
  6
BYBLOCK
 62
     0
 10
11.893286
 20
14.889993
 30
0.0
  0
POINT
  8
DEFPOINTS
  6
BYBLOCK
 62
     0
 10
1.425286
 20
14.889993
 30
0.0
  0
POINT
  8
DEFPOINTS
  6
BYBLOCK
 62
     0
 10
1.425286
 20
13.739801
 30
0.0
  0
ENDBLK
  8
0
  0
BLOCK
  8
0
  2
*D6
 70
    65
 10
0.0
 20
0.0
 30
0.0
  3
*D
  0
LINE
  8
0
  6
BYBLOCK
 62
     0
 10
1.659286
 20
15.814243
 30
0.0
 11
1.659286
 21
17.650238
 31
0.0
  0
LINE
  8
0
  6
BYBLOCK
 62
     0
 10
1.425286
 20
16.158243
 30
0.0
 11
1.425286
 21
17.650238
 31
0.0
  0
LINE
  8
0
  6
BYBLOCK
 62
     0
 10
1.893286
 20
17.529338
 30
0.0
 11
2.127286
 21
17.529338
 31
0.0
  0
LINE
  8
0
  6
BYBLOCK
 62
     0
 10
1.191286
 20
17.529338
 30
0.0
 11
0.957286
 21
17.529338
 31
0.0
  0
SOLID
  8
0
  6
BYBLOCK
 62
     0
 10
1.893286
 20
17.568338
 30
0.0
 11
1.893286
 21
17.490338
 31
0.0
 12
1.659286
 22
17.529338
 32
0.0
 13
1.659286
 23
17.529338
 33
0.0
  0
SOLID
  8
0
  6
BYBLOCK
 62
     0
 10
1.191286
 20
17.568338
 30
0.0
 11
1.191286
 21
17.490338
 31
0.0
 12
1.425286
 22
17.529338
 32
0.0
 13
1.425286
 23
17.529338
 33
0.0
  0
TEXT
  8
0
  6
BYBLOCK
 62
     0
 10
0.373099
 20
17.448088
 30
0.0
 40
0.1625
  1
0.234
 41
0.75
 72
     1
 11
0.606692
 21
17.529338
 31
0.0
 73
     2
  0
POINT
  8
DEFPOINTS
  6
BYBLOCK
 62
     0
 10
1.659286
 20
15.732993
 30
0.0
  0
POINT
  8
DEFPOINTS
  6
BYBLOCK
 62
     0
 10
1.425286
 20
16.076993
 30
0.0
  0
POINT
  8
DEFPOINTS
  6
BYBLOCK
 62
     0
 10
1.425286
 20
17.529338
 30
0.0
  0
ENDBLK
  8
0
  0
BLOCK
  8
0
  2
*D7
 70
    65
 10
0.0
 20
0.0
 30
0.0
  3
*D
  0
LINE
  8
0
  6
BYBLOCK
 62
     0
 10
2.909286
 20
15.814243
 30
0.0
 11
2.909286
 21
16.568493
 31
0.0
  0
LINE
  8
0
  6
BYBLOCK
 62
     0
 10
3.409286
 20
15.814243
 30
0.0
 11
3.409286
 21
16.568493
 31
0.0
  0
LINE
  8
0
  6
BYBLOCK
 62
     0
 10
2.675286
 20
16.447593
 30
0.0
 11
2.441286
 21
16.447593
 31
0.0
  0
LINE
  8
0
  6
BYBLOCK
 62
     0
 10
3.643286
 20
16.447593
 30
0.0
 11
3.877286
 21
16.447593
 31
0.0
  0
SOLID
  8
0
  6
BYBLOCK
 62
     0
 10
2.675286
 20
16.486593
 30
0.0
 11
2.675286
 21
16.408593
 31
0.0
 12
2.909286
 22
16.447593
 32
0.0
 13
2.909286
 23
16.447593
 33
0.0
  0
SOLID
  8
0
  6
BYBLOCK
 62
     0
 10
3.643286
 20
16.486593
 30
0.0
 11
3.643286
 21
16.408593
 31
0.0
 12
3.409286
 22
16.447593
 32
0.0
 13
3.409286
 23
16.447593
 33
0.0
  0
TEXT
  8
0
  6
BYBLOCK
 62
     0
 10
3.994286
 20
16.366343
 30
0.0
 40
0.1625
  1
0.500
 41
0.75
 72
     1
 11
4.207567
 21
16.447593
 31
0.0
 73
     2
  0
POINT
  8
DEFPOINTS
  6
BYBLOCK
 62
     0
 10
2.909286
 20
15.732993
 30
0.0
  0
POINT
  8
DEFPOINTS
  6
BYBLOCK
 62
     0
 10
3.409286
 20
15.732993
 30
0.0
  0
POINT
  8
DEFPOINTS
  6
BYBLOCK
 62
     0
 10
3.409286
 20
16.447593
 30
0.0
  0
ENDBLK
  8
0
  0
BLOCK
  8
0
  2
*D8
 70
    65
 10
0.0
 20
0.0
 30
0.0
  3
*D
  0
LINE
  8
0
  6
BYBLOCK
 62
     0
 10
3.33193
 20
3.702307
 30
0.0
 11
2.486211
 21
3.702307
 31
0.0
  0
LINE
  8
0
  6
BYBLOCK
 62
     0
 10
3.11343
 20
3.202307
 30
0.0
 11
2.486211
 21
3.202307
 31
0.0
  0
LINE
  8
0
  6
BYBLOCK
 62
     0
 10
2.607111
 20
3.936307
 30
0.0
 11
2.607111
 21
4.170307
 31
0.0
  0
LINE
  8
0
  6
BYBLOCK
 62
     0
 10
2.607111
 20
2.968307
 30
0.0
 11
2.607111
 21
2.734307
 31
0.0
  0
LINE
  8
0
  6
BYBLOCK
 62
     0
 10
2.607111
 20
2.734307
 30
0.0
 11
2.373111
 21
2.734307
 31
0.0
  0
SOLID
  8
0
  6
BYBLOCK
 62
     0
 10
2.568111
 20
3.936307
 30
0.0
 11
2.646111
 21
3.936307
 31
0.0
 12
2.607111
 22
3.702307
 32
0.0
 13
2.607111
 23
3.702307
 33
0.0
  0
SOLID
  8
0
  6
BYBLOCK
 62
     0
 10
2.568111
 20
2.968307
 30
0.0
 11
2.646111
 21
2.968307
 31
0.0
 12
2.607111
 22
3.202307
 32
0.0
 13
2.607111
 23
3.202307
 33
0.0
  0
TEXT
  8
0
  6
BYBLOCK
 62
     0
 10
1.301423
 20
2.653057
 30
0.0
 40
0.1625
  1
0.500 TYP.
 41
0.75
 72
     1
 11
1.778767
 21
2.734307
 31
0.0
 73
     2
  0
POINT
  8
DEFPOINTS
  6
BYBLOCK
 62
     0
 10
3.41318
 20
3.702307
 30
0.0
  0
POINT
  8
DEFPOINTS
  6
BYBLOCK
 62
     0
 10
3.19468
 20
3.202307
 30
0.0
  0
POINT
  8
DEFPOINTS
  6
BYBLOCK
 62
     0
 10
2.607111
 20
3.202307
 30
0.0
  0
ENDBLK
  8
0
  0
BLOCK
  8
0
  2
*D9
 70
    65
 10
0.0
 20
0.0
 30
0.0
  3
*D
  0
LINE
  8
0
  6
BYBLOCK
 62
     0
 10
3.17593
 20
5.952307
 30
0.0
 11
1.735645
 21
5.952307
 31
0.0
  0
LINE
  8
0
  6
BYBLOCK
 62
     0
 10
3.17593
 20
3.202307
 30
0.0
 11
1.735645
 21
3.202307
 31
0.0
  0
LINE
  8
0
  6
BYBLOCK
 62
     0
 10
1.856545
 20
5.718307
 30
0.0
 11
1.856545
 21
4.775557
 31
0.0
  0
LINE
  8
0
  6
BYBLOCK
 62
     0
 10
1.856545
 20
3.436307
 30
0.0
 11
1.856545
 21
4.379057
 31
0.0
  0
SOLID
  8
0
  6
BYBLOCK
 62
     0
 10
1.817545
 20
5.718307
 30
0.0
 11
1.895545
 21
5.718307
 31
0.0
 12
1.856545
 22
5.952307
 32
0.0
 13
1.856545
 23
5.952307
 33
0.0
  0
SOLID
  8
0
  6
BYBLOCK
 62
     0
 10
1.817545
 20
3.436307
 30
0.0
 11
1.895545
 21
3.436307
 31
0.0
 12
1.856545
 22
3.202307
 32
0.0
 13
1.856545
 23
3.202307
 33
0.0
  0
TEXT
  8
0
  6
BYBLOCK
 62
     0
 10
1.622951
 20
4.496057
 30
0.0
 40
0.1625
  1
2.750
 41
0.75
 72
     1
 11
1.856545
 21
4.577307
 31
0.0
 73
     2
  0
POINT
  8
DEFPOINTS
  6
BYBLOCK
 62
     0
 10
3.25718
 20
5.952307
 30
0.0
  0
POINT
  8
DEFPOINTS
  6
BYBLOCK
 62
     0
 10
3.25718
 20
3.202307
 30
0.0
  0
POINT
  8
DEFPOINTS
  6
BYBLOCK
 62
     0
 10
1.856545
 20
3.202307
 30
0.0
  0
ENDBLK
  8
0
  0
BLOCK
  8
0
  2
*D10
 70
    65
 10
0.0
 20
0.0
 30
0.0
  3
*D
  0
LINE
  8
0
  6
BYBLOCK
 62
     0
 10
3.33193
 20
5.452307
 30
0.0
 11
2.486211
 21
5.452307
 31
0.0
  0
LINE
  8
0
  6
BYBLOCK
 62
     0
 10
3.33193
 20
3.702307
 30
0.0
 11
2.486211
 21
3.702307
 31
0.0
  0
LINE
  8
0
  6
BYBLOCK
 62
     0
 10
2.607111
 20
5.218307
 30
0.0
 11
2.607111
 21
4.775557
 31
0.0
  0
LINE
  8
0
  6
BYBLOCK
 62
     0
 10
2.607111
 20
3.936307
 30
0.0
 11
2.607111
 21
4.379057
 31
0.0
  0
SOLID
  8
0
  6
BYBLOCK
 62
     0
 10
2.568111
 20
5.218307
 30
0.0
 11
2.646111
 21
5.218307
 31
0.0
 12
2.607111
 22
5.452307
 32
0.0
 13
2.607111
 23
5.452307
 33
0.0
  0
SOLID
  8
0
  6
BYBLOCK
 62
     0
 10
2.568111
 20
3.936307
 30
0.0
 11
2.646111
 21
3.936307
 31
0.0
 12
2.607111
 22
3.702307
 32
0.0
 13
2.607111
 23
3.702307
 33
0.0
  0
TEXT
  8
0
  6
BYBLOCK
 62
     0
 10
2.393829
 20
4.496057
 30
0.0
 40
0.1625
  1
1.750
 41
0.75
 72
     1
 11
2.607111
 21
4.577307
 31
0.0
 73
     2
  0
POINT
  8
DEFPOINTS
  6
BYBLOCK
 62
     0
 10
3.41318
 20
5.452307
 30
0.0
  0
POINT
  8
DEFPOINTS
  6
BYBLOCK
 62
     0
 10
3.41318
 20
3.702307
 30
0.0
  0
POINT
  8
DEFPOINTS
  6
BYBLOCK
 62
     0
 10
2.607111
 20
3.702307
 30
0.0
  0
ENDBLK
  8
0
  0
BLOCK
  8
0
  2
*D11
 70
    65
 10
0.0
 20
0.0
 30
0.0
  3
*D
  0
LINE
  8
0
  6
BYBLOCK
 62
     0
 10
3.41318
 20
5.533557
 30
0.0
 11
3.41318
 21
6.559238
 31
0.0
  0
LINE
  8
0
  6
BYBLOCK
 62
     0
 10
3.00718
 20
5.783557
 30
0.0
 11
3.00718
 21
6.559238
 31
0.0
  0
LINE
  8
0
  6
BYBLOCK
 62
     0
 10
3.64718
 20
6.438338
 30
0.0
 11
3.88118
 21
6.438338
 31
0.0
  0
LINE
  8
0
  6
BYBLOCK
 62
     0
 10
2.77318
 20
6.438338
 30
0.0
 11
2.53918
 21
6.438338
 31
0.0
  0
SOLID
  8
0
  6
BYBLOCK
 62
     0
 10
3.64718
 20
6.477338
 30
0.0
 11
3.64718
 21
6.399338
 31
0.0
 12
3.41318
 22
6.438338
 32
0.0
 13
3.41318
 23
6.438338
 33
0.0
  0
SOLID
  8
0
  6
BYBLOCK
 62
     0
 10
2.77318
 20
6.477338
 30
0.0
 11
2.77318
 21
6.399338
 31
0.0
 12
3.00718
 22
6.438338
 32
0.0
 13
3.00718
 23
6.438338
 33
0.0
  0
TEXT
  8
0
  6
BYBLOCK
 62
     0
 10
1.44718
 20
6.357088
 30
0.0
 40
0.1625
  1
0.406 TYP.
 41
0.75
 72
     1
 11
1.93468
 21
6.438338
 31
0.0
 73
     2
  0
POINT
  8
DEFPOINTS
  6
BYBLOCK
 62
     0
 10
3.41318
 20
5.452307
 30
0.0
  0
POINT
  8
DEFPOINTS
  6
BYBLOCK
 62
     0
 10
3.00718
 20
5.702307
 30
0.0
  0
POINT
  8
DEFPOINTS
  6
BYBLOCK
 62
     0
 10
3.00718
 20
6.438338
 30
0.0
  0
ENDBLK
  8
0
  0
BLOCK
  8
0
  2
*D12
 70
    65
 10
0.0
 20
0.0
 30
0.0
  3
*D
  0
LINE
  8
0
  6
BYBLOCK
 62
     0
 10
7.476694
 20
6.073307
 30
0.0
 11
7.476694
 21
6.982386
 31
0.0
  0
LINE
  8
0
  6
BYBLOCK
 62
     0
 10
10.726694
 20
3.817867
 30
0.0
 11
10.726694
 21
6.982386
 31
0.0
  0
LINE
  8
0
  6
BYBLOCK
 62
     0
 10
7.710694
 20
6.861486
 30
0.0
 11
8.7511
 21
6.861486
 31
0.0
  0
LINE
  8
0
  6
BYBLOCK
 62
     0
 10
10.492694
 20
6.861486
 30
0.0
 11
9.452287
 21
6.861486
 31
0.0
  0
SOLID
  8
0
  6
BYBLOCK
 62
     0
 10
7.710694
 20
6.900486
 30
0.0
 11
7.710694
 21
6.822486
 31
0.0
 12
7.476694
 22
6.861486
 32
0.0
 13
7.476694
 23
6.861486
 33
0.0
  0
SOLID
  8
0
  6
BYBLOCK
 62
     0
 10
10.492694
 20
6.900486
 30
0.0
 11
10.492694
 21
6.822486
 31
0.0
 12
10.726694
 22
6.861486
 32
0.0
 13
10.726694
 23
6.861486
 33
0.0
  0
TEXT
  8
0
  6
BYBLOCK
 62
     0
 10
8.8681
 20
6.780236
 30
0.0
 40
0.1625
  1
3.250
 41
0.75
 72
     1
 11
9.101694
 21
6.861486
 31
0.0
 73
     2
  0
POINT
  8
DEFPOINTS
  6
BYBLOCK
 62
     0
 10
7.476694
 20
5.992057
 30
0.0
  0
POINT
  8
DEFPOINTS
  6
BYBLOCK
 62
     0
 10
10.726694
 20
3.736617
 30
0.0
  0
POINT
  8
DEFPOINTS
  6
BYBLOCK
 62
     0
 10
10.726694
 20
6.861486
 30
0.0
  0
ENDBLK
  8
0
  0
BLOCK
  8
0
  2
*D13
 70
    65
 10
0.0
 20
0.0
 30
0.0
  3
*D
  0
LINE
  8
0
  6
BYBLOCK
 62
     0
 10
3.41318
 20
5.533557
 30
0.0
 11
3.41318
 21
6.559238
 31
0.0
  0
LINE
  8
0
  6
BYBLOCK
 62
     0
 10
6.42415
 20
5.533557
 30
0.0
 11
6.42415
 21
6.559238
 31
0.0
  0
LINE
  8
0
  6
BYBLOCK
 62
     0
 10
3.64718
 20
6.438338
 30
0.0
 11
4.588384
 21
6.438338
 31
0.0
  0
LINE
  8
0
  6
BYBLOCK
 62
     0
 10
6.19015
 20
6.438338
 30
0.0
 11
5.248946
 21
6.438338
 31
0.0
  0
SOLID
  8
0
  6
BYBLOCK
 62
     0
 10
3.64718
 20
6.477338
 30
0.0
 11
3.64718
 21
6.399338
 31
0.0
 12
3.41318
 22
6.438338
 32
0.0
 13
3.41318
 23
6.438338
 33
0.0
  0
SOLID
  8
0
  6
BYBLOCK
 62
     0
 10
6.19015
 20
6.477338
 30
0.0
 11
6.19015
 21
6.399338
 31
0.0
 12
6.42415
 22
6.438338
 32
0.0
 13
6.42415
 23
6.438338
 33
0.0
  0
TEXT
  8
0
  6
BYBLOCK
 62
     0
 10
4.705384
 20
6.357088
 30
0.0
 40
0.1625
  1
3.000
 41
0.75
 72
     1
 11
4.918665
 21
6.438338
 31
0.0
 73
     2
  0
POINT
  8
DEFPOINTS
  6
BYBLOCK
 62
     0
 10
3.41318
 20
5.452307
 30
0.0
  0
POINT
  8
DEFPOINTS
  6
BYBLOCK
 62
     0
 10
6.42415
 20
5.452307
 30
0.0
  0
POINT
  8
DEFPOINTS
  6
BYBLOCK
 62
     0
 10
6.42415
 20
6.438338
 30
0.0
  0
ENDBLK
  8
0
  0
BLOCK
  8
0
  2
*D14
 70
    65
 10
0.0
 20
0.0
 30
0.0
  3
*D
  0
LINE
  8
0
  6
BYBLOCK
 62
     0
 10
3.00718
 20
5.783557
 30
0.0
 11
3.00718
 21
6.982916
 31
0.0
  0
LINE
  8
0
  6
BYBLOCK
 62
     0
 10
6.83015
 20
5.783557
 30
0.0
 11
6.83015
 21
6.982916
 31
0.0
  0
LINE
  8
0
  6
BYBLOCK
 62
     0
 10
3.24118
 20
6.862016
 30
0.0
 11
4.578227
 21
6.862016
 31
0.0
  0
LINE
  8
0
  6
BYBLOCK
 62
     0
 10
6.59615
 20
6.862016
 30
0.0
 11
5.259102
 21
6.862016
 31
0.0
  0
SOLID
  8
0
  6
BYBLOCK
 62
     0
 10
3.24118
 20
6.901016
 30
0.0
 11
3.24118
 21
6.823016
 31
0.0
 12
3.00718
 22
6.862016
 32
0.0
 13
3.00718
 23
6.862016
 33
0.0
  0
SOLID
  8
0
  6
BYBLOCK
 62
     0
 10
6.59615
 20
6.901016
 30
0.0
 11
6.59615
 21
6.823016
 31
0.0
 12
6.83015
 22
6.862016
 32
0.0
 13
6.83015
 23
6.862016
 33
0.0
  0
TEXT
  8
0
  6
BYBLOCK
 62
     0
 10
4.695227
 20
6.780766
 30
0.0
 40
0.1625
  1
3.812
 41
0.75
 72
     1
 11
4.918665
 21
6.862016
 31
0.0
 73
     2
  0
POINT
  8
DEFPOINTS
  6
BYBLOCK
 62
     0
 10
3.00718
 20
5.702307
 30
0.0
  0
POINT
  8
DEFPOINTS
  6
BYBLOCK
 62
     0
 10
6.83015
 20
5.702307
 30
0.0
  0
POINT
  8
DEFPOINTS
  6
BYBLOCK
 62
     0
 10
6.83015
 20
6.862016
 30
0.0
  0
ENDBLK
  8
0
  0
BLOCK
  8
0
  2
*D15
 70
    65
 10
0.0
 20
0.0
 30
0.0
  3
*D
  0
LINE
  8
0
  6
BYBLOCK
 62
     0
 10
4.36215
 20
2.371057
 30
0.0
 11
4.36215
 21
2.022922
 31
0.0
  0
LINE
  8
0
  6
BYBLOCK
 62
     0
 10
5.48615
 20
2.371057
 30
0.0
 11
5.48615
 21
2.022922
 31
0.0
  0
LINE
  8
0
  6
BYBLOCK
 62
     0
 10
4.12815
 20
2.143822
 30
0.0
 11
3.89415
 21
2.143822
 31
0.0
  0
LINE
  8
0
  6
BYBLOCK
 62
     0
 10
5.72015
 20
2.143822
 30
0.0
 11
5.95415
 21
2.143822
 31
0.0
  0
SOLID
  8
0
  6
BYBLOCK
 62
     0
 10
4.12815
 20
2.182822
 30
0.0
 11
4.12815
 21
2.104822
 31
0.0
 12
4.36215
 22
2.143822
 32
0.0
 13
4.36215
 23
2.143822
 33
0.0
  0
SOLID
  8
0
  6
BYBLOCK
 62
     0
 10
5.72015
 20
2.182822
 30
0.0
 11
5.72015
 21
2.104822
 31
0.0
 12
5.48615
 22
2.143822
 32
0.0
 13
5.48615
 23
2.143822
 33
0.0
  0
TEXT
  8
0
  6
BYBLOCK
 62
     0
 10
4.721025
 20
2.062572
 30
0.0
 40
0.1625
  1
1.125
 41
0.75
 72
     1
 11
4.92415
 21
2.143822
 31
0.0
 73
     2
  0
POINT
  8
DEFPOINTS
  6
BYBLOCK
 62
     0
 10
4.36215
 20
2.452307
 30
0.0
  0
POINT
  8
DEFPOINTS
  6
BYBLOCK
 62
     0
 10
5.48615
 20
2.452307
 30
0.0
  0
POINT
  8
DEFPOINTS
  6
BYBLOCK
 62
     0
 10
5.48615
 20
2.143822
 30
0.0
  0
ENDBLK
  8
0
  0
BLOCK
  8
0
  2
*D16
 70
    65
 10
0.0
 20
0.0
 30
0.0
  3
*D
  0
LINE
  8
0
  6
BYBLOCK
 62
     0
 10
11.097908
 20
3.696867
 30
0.0
 11
11.159844
 21
3.696867
 31
0.0
  0
LINE
  8
0
  6
BYBLOCK
 62
     0
 10
11.097908
 20
4.571867
 30
0.0
 11
11.159844
 21
4.571867
 31
0.0
  0
LINE
  8
0
  6
BYBLOCK
 62
     0
 10
11.038944
 20
3.462867
 30
0.0
 11
11.038944
 21
3.228867
 31
0.0
  0
LINE
  8
0
  6
BYBLOCK
 62
     0
 10
11.038944
 20
4.805867
 30
0.0
 11
11.038944
 21
5.039867
 31
0.0
  0
SOLID
  8
0
  6
BYBLOCK
 62
     0
 10
10.999944
 20
3.462867
 30
0.0
 11
11.077944
 21
3.462867
 31
0.0
 12
11.038944
 22
3.696867
 32
0.0
 13
11.038944
 23
3.696867
 33
0.0
  0
SOLID
  8
0
  6
BYBLOCK
 62
     0
 10
10.999944
 20
4.805867
 30
0.0
 11
11.077944
 21
4.805867
 31
0.0
 12
11.038944
 22
4.571867
 32
0.0
 13
11.038944
 23
4.571867
 33
0.0
  0
TEXT
  8
0
  6
BYBLOCK
 62
     0
 10
10.80535
 20
4.053117
 30
0.0
 40
0.1625
  1
0.875
 41
0.75
 72
     1
 11
11.038944
 21
4.134367
 31
0.0
 73
     2
  0
POINT
  8
DEFPOINTS
  6
BYBLOCK
 62
     0
 10
11.016658
 20
3.696867
 30
0.0
  0
POINT
  8
DEFPOINTS
  6
BYBLOCK
 62
     0
 10
11.016658
 20
4.571867
 30
0.0
  0
POINT
  8
DEFPOINTS
  6
BYBLOCK
 62
     0
 10
11.038944
 20
4.571867
 30
0.0
  0
ENDBLK
  8
0
  0
BLOCK
  8
0
  2
*D17
 70
    65
 10
0.0
 20
0.0
 30
0.0
  3
*D
  0
LINE
  8
0
  6
BYBLOCK
 62
     0
 10
2.284286
 20
15.814243
 30
0.0
 11
2.284286
 21
17.259398
 31
0.0
  0
LINE
  8
0
  6
BYBLOCK
 62
     0
 10
1.659286
 20
15.814243
 30
0.0
 11
1.659286
 21
17.259398
 31
0.0
  0
LINE
  8
0
  6
BYBLOCK
 62
     0
 10
2.518286
 20
17.138498
 30
0.0
 11
2.752286
 21
17.138498
 31
0.0
  0
LINE
  8
0
  6
BYBLOCK
 62
     0
 10
1.425286
 20
17.138498
 30
0.0
 11
1.191286
 21
17.138498
 31
0.0
  0
SOLID
  8
0
  6
BYBLOCK
 62
     0
 10
2.518286
 20
17.177498
 30
0.0
 11
2.518286
 21
17.099498
 31
0.0
 12
2.284286
 22
17.138498
 32
0.0
 13
2.284286
 23
17.138498
 33
0.0
  0
SOLID
  8
0
  6
BYBLOCK
 62
     0
 10
1.425286
 20
17.177498
 30
0.0
 11
1.425286
 21
17.099498
 31
0.0
 12
1.659286
 22
17.138498
 32
0.0
 13
1.659286
 23
17.138498
 33
0.0
  0
TEXT
  8
0
  6
BYBLOCK
 62
     0
 10
1.738192
 20
17.057248
 30
0.0
 40
0.1625
  1
0.625
 41
0.75
 72
     1
 11
1.971786
 21
17.138498
 31
0.0
 73
     2
  0
POINT
  8
DEFPOINTS
  6
BYBLOCK
 62
     0
 10
2.284286
 20
15.732993
 30
0.0
  0
POINT
  8
DEFPOINTS
  6
BYBLOCK
 62
     0
 10
1.659286
 20
15.732993
 30
0.0
  0
POINT
  8
DEFPOINTS
  6
BYBLOCK
 62
     0
 10
1.659286
 20
17.138498
 30
0.0
  0
ENDBLK
  8
0
  0
BLOCK
  8
0
  2
*D18
 70
    65
 10
0.0
 20
0.0
 30
0.0
  3
*D
  0
LINE
  8
0
  6
BYBLOCK
 62
     0
 10
2.909286
 20
15.814243
 30
0.0
 11
2.909286
 21
16.893028
 31
0.0
  0
LINE
  8
0
  6
BYBLOCK
 62
     0
 10
2.284286
 20
15.814243
 30
0.0
 11
2.284286
 21
16.893028
 31
0.0
  0
LINE
  8
0
  6
BYBLOCK
 62
     0
 10
3.143286
 20
16.772128
 30
0.0
 11
3.377286
 21
16.772128
 31
0.0
  0
LINE
  8
0
  6
BYBLOCK
 62
     0
 10
2.050286
 20
16.772128
 30
0.0
 11
1.816286
 21
16.772128
 31
0.0
  0
SOLID
  8
0
  6
BYBLOCK
 62
     0
 10
3.143286
 20
16.811128
 30
0.0
 11
3.143286
 21
16.733128
 31
0.0
 12
2.909286
 22
16.772128
 32
0.0
 13
2.909286
 23
16.772128
 33
0.0
  0
SOLID
  8
0
  6
BYBLOCK
 62
     0
 10
2.050286
 20
16.811128
 30
0.0
 11
2.050286
 21
16.733128
 31
0.0
 12
2.284286
 22
16.772128
 32
0.0
 13
2.284286
 23
16.772128
 33
0.0
  0
TEXT
  8
0
  6
BYBLOCK
 62
     0
 10
2.363192
 20
16.690878
 30
0.0
 40
0.1625
  1
0.625
 41
0.75
 72
     1
 11
2.596786
 21
16.772128
 31
0.0
 73
     2
  0
POINT
  8
DEFPOINTS
  6
BYBLOCK
 62
     0
 10
2.909286
 20
15.732993
 30
0.0
  0
POINT
  8
DEFPOINTS
  6
BYBLOCK
 62
     0
 10
2.284286
 20
15.732993
 30
0.0
  0
POINT
  8
DEFPOINTS
  6
BYBLOCK
 62
     0
 10
2.284286
 20
16.772128
 30
0.0
  0
ENDBLK
  8
0
  0
BLOCK
  8
0
  2
*D19
 70
    65
 10
0.0
 20
0.0
 30
0.0
  3
*D
  0
LINE
  8
0
  6
BYBLOCK
 62
     0
 10
1.344036
 20
16.076993
 30
0.0
 11
0.733885
 21
16.076993
 31
0.0
  0
LINE
  8
0
  6
BYBLOCK
 62
     0
 10
1.344036
 20
14.889993
 30
0.0
 11
0.733885
 21
14.889993
 31
0.0
  0
LINE
  8
0
  6
BYBLOCK
 62
     0
 10
0.854785
 20
15.842993
 30
0.0
 11
0.854785
 21
15.681743
 31
0.0
  0
LINE
  8
0
  6
BYBLOCK
 62
     0
 10
0.854785
 20
15.123993
 30
0.0
 11
0.854785
 21
15.285243
 31
0.0
  0
SOLID
  8
0
  6
BYBLOCK
 62
     0
 10
0.815785
 20
15.842993
 30
0.0
 11
0.893785
 21
15.842993
 31
0.0
 12
0.854785
 22
16.076993
 32
0.0
 13
0.854785
 23
16.076993
 33
0.0
  0
SOLID
  8
0
  6
BYBLOCK
 62
     0
 10
0.815785
 20
15.123993
 30
0.0
 11
0.893785
 21
15.123993
 31
0.0
 12
0.854785
 22
14.889993
 32
0.0
 13
0.854785
 23
14.889993
 33
0.0
  0
TEXT
  8
0
  6
BYBLOCK
 62
     0
 10
0.65166
 20
15.402243
 30
0.0
 40
0.1625
  1
1.187
 41
0.75
 72
     1
 11
0.854785
 21
15.483493
 31
0.0
 73
     2
  0
POINT
  8
DEFPOINTS
  6
BYBLOCK
 62
     0
 10
1.425286
 20
16.076993
 30
0.0
  0
POINT
  8
DEFPOINTS
  6
BYBLOCK
 62
     0
 10
1.425286
 20
14.889993
 30
0.0
  0
POINT
  8
DEFPOINTS
  6
BYBLOCK
 62
     0
 10
0.854785
 20
14.889993
 30
0.0
  0
ENDBLK
  8
0
  0
BLOCK
  8
0
  2
*D20
 70
    65
 10
0.0
 20
0.0
 30
0.0
  3
*D
  0
LINE
  8
0
  6
BYBLOCK
 62
     0
 10
9.841406
 20
2.748584
 30
0.0
 11
9.777296
 21
2.915274
 31
0.0
  0
LINE
  8
0
  6
BYBLOCK
 62
     0
 10
9.476694
 20
3.696867
 30
0.0
 11
9.624802
 21
3.311774
 31
0.0
  0
SOLID
  8
0
  6
BYBLOCK
 62
     0
 10
9.805005
 20
2.734584
 30
0.0
 11
9.877806
 21
2.762584
 31
0.0
 12
9.925404
 22
2.53018
 32
0.0
 13
9.925404
 23
2.53018
 33
0.0
  0
TEXT
  8
0
  6
BYBLOCK
 62
     0
 10
9.081518
 20
3.032274
 30
0.0
 40
0.1625
  1
1.250 RADIUS
 41
0.75
 72
     1
 11
9.701049
 21
3.113524
 31
0.0
 73
     2
  0
POINT
  8
DEFPOINTS
  6
BYBLOCK
 62
     0
 10
9.925404
 20
2.53018
 30
0.0
  0
POINT
  8
DEFPOINTS
  6
BYBLOCK
 62
     0
 10
9.476694
 20
3.696867
 30
0.0
  0
ENDBLK
  8
0
  0
BLOCK
  8
0
  2
*D21
 70
    65
 10
0.0
 20
0.0
 30
0.0
  3
*D
  0
LINE
  8
0
  6
BYBLOCK
 62
     0
 10
10.490536
 20
15.232993
 30
0.0
 11
12.872012
 21
15.232993
 31
0.0
  0
LINE
  8
0
  6
BYBLOCK
 62
     0
 10
11.740536
 20
15.732993
 30
0.0
 11
12.872012
 21
15.732993
 31
0.0
  0
LINE
  8
0
  6
BYBLOCK
 62
     0
 10
12.751112
 20
14.998993
 30
0.0
 11
12.751112
 21
14.764993
 31
0.0
  0
LINE
  8
0
  6
BYBLOCK
 62
     0
 10
12.751112
 20
15.966993
 30
0.0
 11
12.751112
 21
16.200993
 31
0.0
  0
SOLID
  8
0
  6
BYBLOCK
 62
     0
 10
12.712112
 20
14.998993
 30
0.0
 11
12.790112
 21
14.998993
 31
0.0
 12
12.751112
 22
15.232993
 32
0.0
 13
12.751112
 23
15.232993
 33
0.0
  0
SOLID
  8
0
  6
BYBLOCK
 62
     0
 10
12.712112
 20
15.966993
 30
0.0
 11
12.790112
 21
15.966993
 31
0.0
 12
12.751112
 22
15.732993
 32
0.0
 13
12.751112
 23
15.732993
 33
0.0
  0
TEXT
  8
0
  6
BYBLOCK
 62
     0
 10
12.53783
 20
15.401743
 30
0.0
 40
0.1625
  1
0.500
 41
0.75
 72
     1
 11
12.751112
 21
15.482993
 31
0.0
 73
     2
  0
POINT
  8
DEFPOINTS
  6
BYBLOCK
 62
     0
 10
10.409286
 20
15.232993
 30
0.0
  0
POINT
  8
DEFPOINTS
  6
BYBLOCK
 62
     0
 10
11.659286
 20
15.732993
 30
0.0
  0
POINT
  8
DEFPOINTS
  6
BYBLOCK
 62
     0
 10
12.751112
 20
15.732993
 30
0.0
  0
ENDBLK
  8
0
  0
BLOCK
  8
0
  2
*D22
 70
    65
 10
0.0
 20
0.0
 30
0.0
  3
*D
  0
LINE
  8
0
  6
BYBLOCK
 62
     0
 10
11.740536
 20
15.732993
 30
0.0
 11
12.39094
 21
15.732993
 31
0.0
  0
LINE
  8
0
  6
BYBLOCK
 62
     0
 10
11.974536
 20
16.076993
 30
0.0
 11
12.39094
 21
16.076993
 31
0.0
  0
LINE
  8
0
  6
BYBLOCK
 62
     0
 10
12.27004
 20
15.498993
 30
0.0
 11
12.27004
 21
15.264993
 31
0.0
  0
LINE
  8
0
  6
BYBLOCK
 62
     0
 10
12.27004
 20
16.310993
 30
0.0
 11
12.27004
 21
16.544993
 31
0.0
  0
SOLID
  8
0
  6
BYBLOCK
 62
     0
 10
12.23104
 20
15.498993
 30
0.0
 11
12.30904
 21
15.498993
 31
0.0
 12
12.27004
 22
15.732993
 32
0.0
 13
12.27004
 23
15.732993
 33
0.0
  0
SOLID
  8
0
  6
BYBLOCK
 62
     0
 10
12.23104
 20
16.310993
 30
0.0
 11
12.30904
 21
16.310993
 31
0.0
 12
12.27004
 22
16.076993
 32
0.0
 13
12.27004
 23
16.076993
 33
0.0
  0
TEXT
  8
0
  6
BYBLOCK
 62
     0
 10
12.036447
 20
15.823743
 30
0.0
 40
0.1625
  1
0.344
 41
0.75
 72
     1
 11
12.27004
 21
15.904993
 31
0.0
 73
     2
  0
POINT
  8
DEFPOINTS
  6
BYBLOCK
 62
     0
 10
11.659286
 20
15.732993
 30
0.0
  0
POINT
  8
DEFPOINTS
  6
BYBLOCK
 62
     0
 10
11.893286
 20
16.076993
 30
0.0
  0
POINT
  8
DEFPOINTS
  6
BYBLOCK
 62
     0
 10
12.27004
 20
16.076993
 30
0.0
  0
ENDBLK
  8
0
  0
ENDSEC
  0
SECTION
  2
ENTITIES
  0
TEXT
  8
TEXT
 10
2.057182
 20
19.674099
 30
0.0
 40
0.2431
  1
ADAPTER BRACKET
 41
0.75
  0
TEXT
  8
TEXT
 10
8.623591
 20
19.683875
 30
0.0
 40
0.2431
  1
AB-1861 TO AB-1866
 41
0.75
  0
LINE
  8
TITLE
 10
4.887904
 20
8.709965
 30
0.0
 11
0.083963
 21
8.709965
 31
0.0
  0
LINE
  8
TITLE
 10
4.887904
 20
9.034965
 30
0.0
 11
0.083963
 21
9.034965
 31
0.0
  0
LINE
  8
TITLE
 10
4.887904
 20
9.359965
 30
0.0
 11
0.083963
 21
9.359965
 31
0.0
  0
LINE
  8
TITLE
 10
4.887904
 20
9.684965
 30
0.0
 11
0.083963
 21
9.684965
 31
0.0
  0
LINE
  8
TITLE
 10
4.887904
 20
10.009965
 30
0.0
 11
0.083963
 21
10.009965
 31
0.0
  0
LINE
  8
TITLE
 10
4.887904
 20
10.334965
 30
0.0
 11
0.083963
 21
10.334965
 31
0.0
  0
TEXT
  8
TEXT
 10
0.179107
 20
10.084386
 30
0.0
 40
0.1625
  1
1866-AB
 41
0.75
  0
TEXT
  8
TEXT
 10
0.179107
 20
9.785879
 30
0.0
 40
0.1625
  1
1865-AB
 41
0.75
  0
TEXT
  8
TEXT
 10
0.179107
 20
9.432026
 30
0.0
 40
0.1625
  1
1864-AB
 41
0.75
  0
TEXT
  8
TEXT
 10
0.179107
 20
9.11999
 30
0.0
 40
0.1625
  1
1863-AB
 41
0.75
  0
TEXT
  8
TEXT
 10
0.179107
 20
8.787045
 30
0.0
 40
0.1625
  1
1862-AB
 41
0.75
  0
TEXT
  8
TEXT
 10
0.179107
 20
8.460249
 30
0.0
 40
0.1625
  1
1861-AB
 41
0.75
  0
LINE
  8
TITLE
 10
1.140497
 20
10.333448
 30
0.0
 11
1.140497
 21
8.377239
 31
0.0
  0
LINE
  8
TITLE
 10
4.887904
 20
10.659965
 30
0.0
 11
0.083963
 21
10.659965
 31
0.0
  0
LINE
  8
TITLE
 10
1.140497
 20
10.333448
 30
0.0
 11
1.140497
 21
10.65815
 31
0.0
  0
TEXT
  8
TEXT
 10
1.313312
 20
10.077622
 30
0.0
 40
0.1625
  1
10.468
 41
0.75
  0
TEXT
  8
TEXT
 10
1.334285
 20
9.752919
 30
0.0
 40
0.1625
  1
8.718
 41
0.75
  0
TEXT
  8
TEXT
 10
1.334285
 20
9.427602
 30
0.0
 40
0.1625
  1
6.968
 41
0.75
  0
TEXT
  8
TEXT
 10
1.347707
 20
9.08937
 30
0.0
 40
0.1625
  1
5.218
 41
0.75
  0
TEXT
  8
TEXT
 10
1.354419
 20
8.791726
 30
0.0
 40
0.1625
  1
3.468
 41
0.75
  0
TEXT
  8
TEXT
 10
1.375391
 20
8.44673
 30
0.0
 40
0.1625
  1
1.718
 41
0.75
  0
LINE
  8
TITLE
 10
2.046519
 20
10.65815
 30
0.0
 11
2.046519
 21
8.377239
 31
0.0
  0
TEXT
  8
TEXT
 10
2.1841
 20
10.077622
 30
0.0
 40
0.1625
  1
1.484
 41
0.75
  0
TEXT
  8
TEXT
 10
2.1841
 20
9.759684
 30
0.0
 40
0.1625
  1
1.484
 41
0.75
  0
TEXT
  8
TEXT
 10
2.1841
 20
9.441746
 30
0.0
 40
0.1625
  1
1.484
 41
0.75
  0
TEXT
  8
TEXT
 10
2.1841
 20
9.123808
 30
0.0
 40
0.1625
  1
1.484
 41
0.75
  0
TEXT
  8
TEXT
 10
2.211784
 20
8.799106
 30
0.0
 40
0.1625
  1
0.234
 41
0.75
  0
TEXT
  8
TEXT
 10
2.211784
 20
8.45288
 30
0.0
 40
0.1625
  1
0.234
 41
0.75
  0
LINE
  8
TITLE
 10
2.785598
 20
10.659965
 30
0.0
 11
2.785598
 21
8.384003
 31
0.0
  0
TEXT
  8
TEXT
 10
2.917306
 20
10.070857
 30
0.0
 40
0.1625
  1
2.250
 41
0.75
  0
LINE
  8
TITLE
 10
3.505382
 20
10.65815
 30
0.0
 11
3.505382
 21
8.384003
 31
0.0
  0
TEXT
  8
TEXT
 10
3.691619
 20
10.094841
 30
0.0
 40
0.1625
  1
18
 41
0.75
  0
TEXT
  8
TEXT
 10
3.698331
 20
9.757224
 30
0.0
 40
0.1625
  1
15
 41
0.75
  0
TEXT
  8
TEXT
 10
3.712592
 20
9.433752
 30
0.0
 40
0.1625
  1
12
 41
0.75
  0
TEXT
  8
TEXT
 10
3.726854
 20
9.123808
 30
0.0
 40
0.1625
  1
9
 41
0.75
  0
TEXT
  8
TEXT
 10
3.726854
 20
8.793571
 30
0.0
 40
0.1625
  1
6
 41
0.75
  0
TEXT
  8
TEXT
 10
3.733565
 20
8.469484
 30
0.0
 40
0.1625
  1
3
 41
0.75
  0
LINE
  8
TITLE
 10
4.113591
 20
10.657535
 30
0.0
 11
4.113591
 21
8.385233
 31
0.0
  0
TEXT
  8
TEXT
 10
4.226005
 20
10.073932
 30
0.0
 40
0.1625
  1
10.000
 41
0.75
  0
TEXT
  8
TEXT
 10
4.240266
 20
9.736315
 30
0.0
 40
0.1625
  1
8.250
 41
0.75
  0
TEXT
  8
TEXT
 10
4.289762
 20
9.433752
 30
0.0
 40
0.1625
  1
6.500
 41
0.75
  0
TEXT
  8
TEXT
 10
4.261239
 20
9.109664
 30
0.0
 40
0.1625
  1
4.750
 41
0.75
  0
TEXT
  8
TEXT
 10
4.317446
 20
8.786192
 30
0.0
 40
0.1625
  1
3.000
 41
0.75
  0
TEXT
  8
TEXT
 10
4.345969
 20
8.44181
 30
0.0
 40
0.1625
  1
1.250
 41
0.75
  0
LINE
  8
TITLE
 10
4.887904
 20
10.659965
 30
0.0
 11
4.887904
 21
8.385233
 31
0.0
  0
TEXT
  8
TEXT
 10
0.20008
 20
10.397404
 30
0.0
 40
0.1625
  1
PART No    A      B     C    D     E
 41
0.75
  0
TEXT
  8
TEXT
 10
3.150523
 20
7.941535
 30
0.0
 40
0.2431
  1
CASTERS                   
 41
0.75
  0
TEXT
  8
TEXT
 10
9.324894
 20
7.92862
 30
0.0
 40
0.2431
  1
RC-7758
 41
0.75
  0
LINE
  8
OBJECT
 10
3.25718
 20
5.952307
 30
0.0
 11
6.58015
 21
5.952307
 31
0.0
  0
LINE
  8
OBJECT
 10
6.83015
 20
5.702307
 30
0.0
 11
6.83015
 21
3.452307
 31
0.0
  0
LINE
  8
OBJECT
 10
6.58015
 20
3.202307
 30
0.0
 11
3.25718
 21
3.202307
 31
0.0
  0
LINE
  8
OBJECT
 10
3.00718
 20
3.452307
 30
0.0
 11
3.00718
 21
5.702307
 31
0.0
  0
LINE
  8
OBJECT
 10
7.476694
 20
5.992057
 30
0.0
 11
7.476694
 21
3.242057
 31
0.0
  0
LINE
  8
OBJECT
 10
7.538694
 20
5.992057
 30
0.0
 11
7.538694
 21
3.242057
 31
0.0
  0
LINE
  8
OBJECT
 10
7.663694
 20
5.992057
 30
0.0
 11
7.663694
 21
3.242057
 31
0.0
  0
LINE
  8
OBJECT
 10
7.476694
 20
5.992057
 30
0.0
 11
7.66612
 21
5.992057
 31
0.0
  0
LINE
  8
OBJECT
 10
7.476694
 20
3.242057
 30
0.0
 11
7.66612
 21
3.242057
 31
0.0
  0
LINE
  8
OBJECT
 10
4.36215
 20
3.202307
 30
0.0
 11
4.36215
 21
2.452307
 31
0.0
  0
LINE
  8
OBJECT
 10
5.48615
 20
3.202307
 30
0.0
 11
5.48615
 21
2.452307
 31
0.0
  0
LINE
  8
OBJECT
 10
5.48615
 20
2.452307
 30
0.0
 11
4.36215
 21
2.452307
 31
0.0
  0
CIRCLE
  8
OBJECT
 10
4.92415
 20
4.571867
 30
0.0
 40
0.25
  0
CIRCLE
  8
OBJECT
 10
4.92415
 20
4.571867
 30
0.0
 40
0.437
  0
CIRCLE
  8
OBJECT
 10
4.92415
 20
4.571867
 30
0.0
 40
1.25
  0
ARC
  8
OBJECT
 10
4.92415
 20
4.571867
 30
0.0
 40
1.5
 50
118.482831
 51
240.657568
  0
ARC
  8
OBJECT
 10
4.92415
 20
4.571867
 30
0.0
 40
1.5
 50
299.342432
 51
61.517169
  0
ARC
  8
OBJECT
 10
6.58015
 20
3.452307
 30
0.0
 40
0.25
 50
270.0
 51
0.0
  0
ARC
  8
OBJECT
 10
6.58015
 20
5.702307
 30
0.0
 40
0.25
 50
0.0
 51
90.0
  0
ARC
  8
OBJECT
 10
3.25718
 20
5.702307
 30
0.0
 40
0.25
 50
90.0
 51
180.0
  0
ARC
  8
OBJECT
 10
3.25718
 20
3.452307
 30
0.0
 40
0.25
 50
180.0
 51
270.0
  0
CIRCLE
  8
OBJECT
 10
6.42415
 20
5.452307
 30
0.0
 40
0.171
  0
CIRCLE
  8
OBJECT
 10
6.42415
 20
3.702307
 30
0.0
 40
0.171
  0
CIRCLE
  8
OBJECT
 10
3.41318
 20
3.702307
 30
0.0
 40
0.171
  0
CIRCLE
  8
OBJECT
 10
3.41318
 20
5.452307
 30
0.0
 40
0.171
  0
ARC
  8
OBJECT
 10
9.476694
 20
3.696867
 30
0.0
 40
1.25
 50
191.536959
 51
121.949364
  0
CIRCLE
  8
OBJECT
 10
9.476694
 20
3.696867
 30
0.0
 40
0.125
  0
ARC
  8
OBJECT
 10
9.476694
 20
3.696867
 30
0.0
 40
0.25
 50
270.0
 51
49.461362
  0
ARC
  8
OBJECT
 10
9.476694
 20
3.696867
 30
0.0
 40
0.312
 50
233.252704
 51
79.804114
  0
ARC
  8
OBJECT
 10
9.476694
 20
3.696867
 30
0.0
 40
0.375
 50
221.810315
 51
91.368185
  0
LINE
  8
OBJECT
 10
9.476694
 20
3.446867
 30
0.0
 11
7.795505
 21
3.446867
 31
0.0
  0
LINE
  8
OBJECT
 10
7.694694
 20
5.878526
 30
0.0
 11
7.694694
 21
3.361617
 31
0.0
  0
LINE
  8
OBJECT
 10
7.795505
 20
3.361617
 30
0.0
 11
7.694694
 21
3.361617
 31
0.0
  0
LINE
  8
OBJECT
 10
7.795505
 20
3.361617
 30
0.0
 11
7.795505
 21
3.486617
 31
0.0
  0
LINE
  8
OBJECT
 10
7.663694
 20
3.361617
 30
0.0
 11
7.663196
 21
3.361617
 31
0.0
  0
LINE
  8
OBJECT
 10
7.662473
 20
3.41668
 30
0.0
 11
7.694694
 21
3.41668
 31
0.0
  0
LINE
  8
OBJECT
 10
7.795505
 20
3.486617
 30
0.0
 11
7.795505
 21
5.878526
 31
0.0
  0
LINE
  8
OBJECT
 10
7.694694
 20
5.878526
 30
0.0
 11
7.795505
 21
5.878526
 31
0.0
  0
LINE
  8
OBJECT
 10
7.663196
 20
5.824466
 30
0.0
 11
7.693562
 21
5.824466
 31
0.0
  0
LINE
  8
OBJECT
 10
7.793666
 20
5.836979
 30
0.0
 11
9.659007
 21
3.865913
 31
0.0
  0
DIMENSION
  8
DIM
  2
*D14
 10
6.932238
 20
6.862016
 30
0.0
 11
4.918665
 21
6.862016
 31
0.0
  1
3.812
 13
3.00718
 23
5.702307
 33
0.0
 14
6.83015
 24
5.702307
 34
0.0
  0
DIMENSION
  8
DIM
  2
*D13
 10
6.526238
 20
6.438338
 30
0.0
 11
4.918665
 21
6.438338
 31
0.0
  1
3.000
 13
3.41318
 23
5.452307
 33
0.0
 14
6.42415
 24
5.452307
 34
0.0
  0
DIMENSION
  8
DIM
  2
*D12
 10
10.828781
 20
6.861486
 30
0.0
 11
9.101694
 21
6.861486
 31
0.0
 13
7.476694
 23
5.992057
 33
0.0
 14
10.726694
 24
3.736617
 34
0.0
  0
DIMENSION
  8
DIM
  2
*D15
 10
5.48615
 20
2.143822
 30
0.0
 11
4.92415
 21
2.143822
 31
0.0
  1
1.125
 13
4.36215
 23
2.452307
 33
0.0
 14
5.48615
 24
2.452307
 34
0.0
  3
DIM
  0
DIMENSION
  8
DIM
  2
*D10
 10
2.607111
 20
3.702307
 30
0.0
 11
2.607111
 21
4.577307
 31
0.0
 13
3.41318
 23
5.452307
 33
0.0
 14
3.41318
 24
3.702307
 34
0.0
 50
90.0
  0
DIMENSION
  8
DIM
  2
*D9
 10
1.856545
 20
3.202307
 30
0.0
 11
1.856545
 21
4.577307
 31
0.0
 13
3.25718
 23
5.952307
 33
0.0
 14
3.25718
 24
3.202307
 34
0.0
 50
90.0
  0
DIMENSION
  8
DIM
  2
*D11
 10
3.109267
 20
6.438338
 30
0.0
 11
1.93468
 21
6.438338
 31
0.0
  1
0.406 TYP.
 13
3.41318
 23
5.452307
 33
0.0
 14
3.00718
 24
5.702307
 34
0.0
  0
DIMENSION
  8
DIM
  2
*D8
 10
2.607111
 20
3.202307
 30
0.0
 11
1.778767
 21
2.734307
 31
0.0
  1
0.500 TYP.
 13
3.41318
 23
3.702307
 33
0.0
 14
3.19468
 24
3.202307
 34
0.0
 50
90.0
  0
TEXT
  8
TEXT
 10
0.628882
 20
1.167788
 30
0.0
 40
0.1625
  1
LOAD RATING:
 41
0.75
  0
TEXT
  8
TEXT
 10
0.628882
 20
0.896955
 30
0.0
 40
0.1625
  1
   200LBS. EACH
 41
0.75
  0
TEXT
  8
TEXT
 10
0.628882
 20
0.626122
 30
0.0
 40
0.1625
  1
WHEELS ARE OF HARD COMPOSITION
 41
0.75
  0
TEXT
  8
TEXT
 10
0.628882
 20
0.355288
 30
0.0
 40
0.1625
  1
& SELF LUBRICATING
 41
0.75
  0
LINE
  8
OBJECT
 10
1.345187
 20
12.536183
 30
0.0
 11
11.813187
 21
12.536183
 31
0.0
  0
LINE
  8
OBJECT
 10
1.345187
 20
12.661183
 30
0.0
 11
11.813187
 21
12.661183
 31
0.0
  0
LINE
  8
OBJECT
 10
11.813187
 20
12.536183
 30
0.0
 11
11.813187
 21
12.661183
 31
0.0
  0
LINE
  8
OBJECT
 10
11.813187
 20
16.076993
 30
0.0
 11
1.345187
 21
16.076993
 31
0.0
  0
LINE
  8
OBJECT
 10
1.345187
 20
16.076993
 30
0.0
 11
1.345187
 21
14.889993
 31
0.0
  0
LINE
  8
OBJECT
 10
1.345187
 20
14.889993
 30
0.0
 11
11.813187
 21
14.889993
 31
0.0
  0
LINE
  8
OBJECT
 10
1.345187
 20
12.661183
 30
0.0
 11
1.345187
 21
12.536183
 31
0.0
  0
LINE
  8
OBJECT
 10
11.813187
 20
14.889993
 30
0.0
 11
11.813187
 21
16.076993
 31
0.0
  0
CIRCLE
  8
OBJECT
 10
10.329187
 20
15.232993
 30
0.0
 40
0.19
  0
CIRCLE
  8
OBJECT
 10
10.329187
 20
15.232993
 30
0.0
 40
0.109
  0
CIRCLE
  8
OBJECT
 10
2.829187
 20
15.232993
 30
0.0
 40
0.109
  0
CIRCLE
  8
OBJECT
 10
2.829187
 20
15.232993
 30
0.0
 40
0.19
  0
CIRCLE
  8
OBJECT
 10
11.579187
 20
15.732993
 30
0.0
 40
0.0805
  0
CIRCLE
  8
OBJECT
 10
10.954187
 20
15.732993
 30
0.0
 40
0.0805
  0
CIRCLE
  8
OBJECT
 10
10.329187
 20
15.732993
 30
0.0
 40
0.0805
  0
CIRCLE
  8
OBJECT
 10
2.829187
 20
15.732993
 30
0.0
 40
0.0805
  0
CIRCLE
  8
OBJECT
 10
2.204187
 20
15.732993
 30
0.0
 40
0.0805
  0
CIRCLE
  8
OBJECT
 10
1.579187
 20
15.732993
 30
0.0
 40
0.0805
  0
CIRCLE
  8
OBJECT
 10
9.829187
 20
15.732993
 30
0.0
 40
0.0805
  0
CIRCLE
  8
OBJECT
 10
9.204187
 20
15.732993
 30
0.0
 40
0.0805
  0
CIRCLE
  8
OBJECT
 10
8.579187
 20
15.732993
 30
0.0
 40
0.0805
  0
CIRCLE
  8
OBJECT
 10
8.079187
 20
15.732993
 30
0.0
 40
0.0805
  0
CIRCLE
  8
OBJECT
 10
7.454187
 20
15.732993
 30
0.0
 40
0.0805
  0
CIRCLE
  8
OBJECT
 10
6.829187
 20
15.732993
 30
0.0
 40
0.0805
  0
CIRCLE
  8
OBJECT
 10
6.329187
 20
15.732993
 30
0.0
 40
0.0805
  0
CIRCLE
  8
OBJECT
 10
5.704187
 20
15.732993
 30
0.0
 40
0.0805
  0
CIRCLE
  8
OBJECT
 10
5.079187
 20
15.732993
 30
0.0
 40
0.0805
  0
CIRCLE
  8
OBJECT
 10
4.579187
 20
15.732993
 30
0.0
 40
0.0805
  0
CIRCLE
  8
OBJECT
 10
3.954187
 20
15.732993
 30
0.0
 40
0.0805
  0
CIRCLE
  8
OBJECT
 10
3.329187
 20
15.732993
 30
0.0
 40
0.0805
  0
CIRCLE
  8
HIDDEN
 10
11.579187
 20
15.732993
 30
0.0
 40
0.095
  0
CIRCLE
  8
HIDDEN
 10
10.954187
 20
15.732993
 30
0.0
 40
0.095
  0
CIRCLE
  8
HIDDEN
 10
10.329187
 20
15.732993
 30
0.0
 40
0.095
  0
CIRCLE
  8
HIDDEN
 10
1.579187
 20
15.732993
 30
0.0
 40
0.095
  0
CIRCLE
  8
HIDDEN
 10
2.204187
 20
15.732993
 30
0.0
 40
0.095
  0
CIRCLE
  8
HIDDEN
 10
9.829187
 20
15.732993
 30
0.0
 40
0.095
  0
CIRCLE
  8
HIDDEN
 10
9.204187
 20
15.732993
 30
0.0
 40
0.095
  0
CIRCLE
  8
HIDDEN
 10
8.579187
 20
15.732993
 30
0.0
 40
0.095
  0
CIRCLE
  8
HIDDEN
 10
8.079187
 20
15.732993
 30
0.0
 40
0.095
  0
CIRCLE
  8
HIDDEN
 10
7.454187
 20
15.732993
 30
0.0
 40
0.095
  0
CIRCLE
  8
HIDDEN
 10
6.829187
 20
15.732993
 30
0.0
 40
0.095
  0
CIRCLE
  8
HIDDEN
 10
6.329187
 20
15.732993
 30
0.0
 40
0.095
  0
CIRCLE
  8
HIDDEN
 10
5.704187
 20
15.732993
 30
0.0
 40
0.095
  0
CIRCLE
  8
HIDDEN
 10
5.079187
 20
15.732993
 30
0.0
 40
0.095
  0
CIRCLE
  8
HIDDEN
 10
4.579187
 20
15.732993
 30
0.0
 40
0.095
  0
CIRCLE
  8
HIDDEN
 10
3.954187
 20
15.732993
 30
0.0
 40
0.095
  0
CIRCLE
  8
HIDDEN
 10
3.329187
 20
15.732993
 30
0.0
 40
0.095
  0
DIMENSION
  8
DIM
  2
*D19
 10
0.774685
 20
14.889993
 30
0.0
 11
0.774685
 21
15.483493
 31
0.0
 12
-0.0801
 22
0.0
 32
0.0
 13
1.345187
 23
16.076993
 33
0.0
 14
1.345187
 24
14.889993
 34
0.0
 50
90.0
  3
DIM
  0
DIMENSION
  8
DIM
  2
*D18
 10
2.204187
 20
16.772128
 30
0.0
 11
2.516687
 21
16.772128
 31
0.0
 12
-0.0801
 22
0.0
 32
0.0
 13
2.829187
 23
15.732993
 33
0.0
 14
2.204187
 24
15.732993
 34
0.0
 50
180.0
  0
DIMENSION
  8
DIM
  2
*D17
 10
1.579187
 20
17.138498
 30
0.0
 11
1.891687
 21
17.138498
 31
0.0
 12
-0.0801
 22
0.0
 32
0.0
 13
2.204187
 23
15.732993
 33
0.0
 14
1.579187
 24
15.732993
 34
0.0
 50
180.0
  0
DIMENSION
  8
DIM
  2
*D6
 10
1.345187
 20
17.529338
 30
0.0
 11
0.526593
 21
17.529338
 31
0.0
 12
-0.0801
 22
0.0
 32
0.0
 13
1.579187
 23
15.732993
 33
0.0
 14
1.345187
 24
16.076993
 34
0.0
 50
180.0
  0
LINE
  8
DIM
 10
1.579187
 20
17.496313
 30
0.0
 11
1.579187
 21
17.606014
 31
0.0
  0
DIMENSION
  8
DIM
  2
*D22
 10
12.189941
 20
16.076993
 30
0.0
 11
12.189941
 21
15.904993
 31
0.0
 12
-0.0801
 22
0.0
 32
0.0
 13
11.579187
 23
15.732993
 33
0.0
 14
11.813187
 24
16.076993
 34
0.0
 50
90.0
  3
DIM
  0
DIMENSION
  8
DIM
  2
*D21
 10
12.671012
 20
15.732993
 30
0.0
 11
12.671012
 21
15.482993
 31
0.0
 12
-0.0801
 22
0.0
 32
0.0
 13
10.329187
 23
15.232993
 33
0.0
 14
11.579187
 24
15.732993
 34
0.0
 50
90.0
  3
DIM
  0
CIRCLE
  8
HIDDEN
 10
2.829187
 20
15.732993
 30
0.0
 40
0.095
  0
LINE
  8
HIDDEN
 10
2.639187
 20
12.661183
 30
0.0
 11
2.720187
 21
12.566458
 31
0.0
  0
LINE
  8
HIDDEN
 10
3.019187
 20
12.661183
 30
0.0
 11
2.938187
 21
12.568361
 31
0.0
  0
LINE
  8
HIDDEN
 10
2.720187
 20
12.536183
 30
0.0
 11
2.720187
 21
12.566458
 31
0.0
  0
LINE
  8
HIDDEN
 10
2.938187
 20
12.536183
 30
0.0
 11
2.938187
 21
12.568361
 31
0.0
  0
LINE
  8
HIDDEN
 10
10.519187
 20
12.661183
 30
0.0
 11
10.438187
 21
12.568361
 31
0.0
  0
LINE
  8
HIDDEN
 10
10.438187
 20
12.536183
 30
0.0
 11
10.438187
 21
12.568361
 31
0.0
  0
LINE
  8
HIDDEN
 10
10.139187
 20
12.661183
 30
0.0
 11
10.220187
 21
12.566458
 31
0.0
  0
LINE
  8
HIDDEN
 10
10.220187
 20
12.536183
 30
0.0
 11
10.220187
 21
12.566458
 31
0.0
  0
CIRCLE
  8
OBJECT
 10
10.329187
 20
15.232993
 30
0.0
 40
0.109
  0
CIRCLE
  8
OBJECT
 10
10.329187
 20
15.232993
 30
0.0
 40
0.109
  0
CIRCLE
  8
OBJECT
 10
8.079187
 20
15.232993
 30
0.0
 40
0.109
  0
CIRCLE
  8
OBJECT
 10
8.079187
 20
15.232993
 30
0.0
 40
0.19
  0
CIRCLE
  8
OBJECT
 10
5.079187
 20
15.232993
 30
0.0
 40
0.19
  0
CIRCLE
  8
OBJECT
 10
5.079187
 20
15.232993
 30
0.0
 40
0.109
  0
DIMENSION
  8
DIM
  2
*D5
 10
1.345187
 20
13.739801
 30
0.0
 11
6.579187
 21
13.739801
 31
0.0
 12
-0.0801
 22
0.0
 32
0.0
  1
A
 13
11.813187
 23
14.889993
 33
0.0
 14
1.345187
 24
14.889993
 34
0.0
 50
180.0
  0
DIMENSION
  8
DIM
  2
*D4
 10
10.329187
 20
14.232202
 30
0.0
 11
11.071187
 21
14.232202
 31
0.0
 12
-0.0801
 22
0.0
 32
0.0
  1
B
 13
11.813187
 23
14.889993
 33
0.0
 14
10.329187
 24
15.232993
 34
0.0
 50
180.0
  0
DIMENSION
  8
DIM
  2
*D3
 10
2.829187
 20
14.232202
 30
0.0
 11
2.087187
 21
14.232202
 31
0.0
 12
-0.0801
 22
0.0
 32
0.0
  1
B
 13
1.345187
 23
14.889993
 33
0.0
 14
2.829187
 24
15.232993
 34
0.0
 50
180.0
  0
DIMENSION
  8
DIM
  2
*D2
 10
8.079187
 20
14.232202
 30
0.0
 11
9.204187
 21
14.232202
 31
0.0
 12
-0.0801
 22
0.0
 32
0.0
  1
C
 13
10.329187
 23
15.232993
 33
0.0
 14
8.079187
 24
15.232993
 34
0.0
 50
180.0
  0
DIMENSION
  8
DIM
  2
*D1
 10
5.079187
 20
14.232202
 30
0.0
 11
3.954187
 21
14.232202
 31
0.0
 12
-0.0801
 22
0.0
 32
0.0
  1
C
 13
2.829187
 23
15.232993
 33
0.0
 14
5.079187
 24
15.232993
 34
0.0
 50
180.0
  0
DIMENSION
  8
DIM
  2
*D0
 10
11.579187
 20
17.529338
 30
0.0
 11
6.579187
 21
17.529338
 31
0.0
 12
-0.0801
 22
0.0
 32
0.0
  1
"D" HOLES ON E.I.A. UNIVERSAL SPACING = "E"
 13
1.579187
 23
15.732993
 33
0.0
 14
11.579187
 24
15.732993
 34
0.0
 50
180.0
  0
LINE
  8
CENTER
 10
4.83415
 20
4.571867
 30
0.0
 11
5.01415
 21
4.571867
 31
0.0
  0
LINE
  8
CENTER
 10
4.92415
 20
4.481867
 30
0.0
 11
4.92415
 21
4.661867
 31
0.0
  0
LINE
  8
CENTER
 10
5.07715
 20
4.571867
 30
0.0
 11
11.314431
 21
4.571867
 31
0.0
  0
LINE
  8
CENTER
 10
9.386694
 20
3.696867
 30
0.0
 11
9.566694
 21
3.696867
 31
0.0
  0
LINE
  8
CENTER
 10
9.476694
 20
3.606867
 30
0.0
 11
9.476694
 21
3.786867
 31
0.0
  0
LINE
  8
CENTER
 10
9.629694
 20
3.696867
 30
0.0
 11
11.313193
 21
3.696867
 31
0.0
  0
DIMENSION
  8
DIM
  2
*D16
 10
11.178726
 20
4.571867
 30
0.0
 11
11.178726
 21
4.134367
 31
0.0
 12
0.139782
 22
0.0
 32
0.0
 13
11.156439
 23
3.696867
 33
0.0
 14
11.156439
 24
4.571867
 34
0.0
 50
90.0
  3
DIM
  0
TEXT
  8
TEXT
 10
0.270183
 20
7.813336
 30
0.0
 40
0.1625
  1
NAME
 72
     1
 11
0.5681
 21
7.813336
 31
0.0
  0
TEXT
  8
TEXT
 10
0.270183
 20
8.08417
 30
0.0
 40
0.1625
  1
PART
 72
     1
 11
0.5681
 21
8.08417
 31
0.0
  0
TEXT
  8
TEXT
 10
6.9836
 20
7.813336
 30
0.0
 40
0.1625
  1
No.
 72
     1
 11
7.1461
 21
7.813336
 31
0.0
  0
TEXT
  8
TEXT
 10
6.848183
 20
8.08417
 30
0.0
 40
0.1625
  1
PART
 72
     1
 11
7.1461
 21
8.08417
 31
0.0
  0
LINE
  8
TITLE
 10
7.6336
 20
8.304633
 30
0.0
 11
7.6336
 21
7.761233
 31
0.0
  0
LINE
  8
TITLE
 10
6.6586
 20
8.304633
 30
0.0
 11
6.6586
 21
7.761233
 31
0.0
  0
LINE
  8
TITLE
 10
6.578
 20
8.304633
 30
0.0
 11
6.578
 21
7.761233
 31
0.0
  0
LINE
  8
TITLE
 10
1.0556
 20
7.761233
 30
0.0
 11
1.0556
 21
8.304633
 31
0.0
  0
LINE
  8
TITLE
 10
0.0806
 20
7.761233
 30
0.0
 11
13.0754
 21
7.761233
 31
0.0
  0
LINE
  8
TITLE
 10
0.0806
 20
8.304633
 30
0.0
 11
13.0754
 21
8.304633
 31
0.0
  0
TEXT
  8
TEXT
 10
6.000192
 20
0.582781
 30
0.0
 40
0.1625
  1
SWIVEL RADIUS: 2.125
 41
0.75
  0
LINE
  8
TITLE
 10
0.0806
 20
8.385233
 30
0.0
 11
13.0754
 21
8.385233
 31
0.0
  0
DIMENSION
  8
DIM
  2
*D7
 10
3.329187
 20
16.447593
 30
0.0
 11
4.127468
 21
16.447593
 31
0.0
 12
-0.0801
 22
0.0
 32
0.0
 13
2.829187
 23
15.732993
 33
0.0
 14
3.329187
 24
15.732993
 34
0.0
  0
DIMENSION
  8
DIM
  2
*D20
 10
9.476694
 20
3.696867
 30
0.0
 11
9.701049
 21
3.113524
 31
0.0
 70
     4
  1
1.250 RADIUS
 15
9.925404
 25
2.53018
 35
0.0
  3
DIM
  0
POLYLINE
  8
DIM
 66
     1
 10
0.0
 20
0.0
 30
0.0
 41
0.08775
  0
VERTEX
  8
DIM
 10
6.505652
 20
3.55198
 30
0.0
  0
VERTEX
  8
DIM
 10
6.582016
 20
3.330791
 30
0.0
 41
0.0
  0
VERTEX
  8
DIM
 10
6.896813
 20
2.418972
 30
0.0
 41
0.0
  0
VERTEX
  8
DIM
 10
7.059313
 20
2.418972
 30
0.0
 41
0.0
  0
SEQEND
  8
DIM
  0
TEXT
  8
DIM
 10
7.221813
 20
2.337722
 30
0.0
 40
0.1625
  1
0.344 DIA.
 41
0.75
  0
TEXT
  8
DIM
 10
7.221813
 20
2.066888
 30
0.0
 40
0.1625
  1
(4) HOLES
 41
0.75
  0
LINE
  8
TEXT
 10
2.908323
 20
9.826246
 30
0.0
 11
3.374786
 21
9.826246
 31
0.0
  0
LINE
  8
TEXT
 10
2.908323
 20
9.501246
 30
0.0
 11
3.374786
 21
9.501246
 31
0.0
  0
LINE
  8
TEXT
 10
2.908323
 20
9.176246
 30
0.0
 11
3.374786
 21
9.176246
 31
0.0
  0
LINE
  8
TEXT
 10
2.908323
 20
8.851246
 30
0.0
 11
3.374786
 21
8.851246
 31
0.0
  0
LINE
  8
TEXT
 10
2.908323
 20
8.526246
 30
0.0
 11
3.374786
 21
8.526246
 31
0.0
  0
POLYLINE
  8
DIM
 66
     1
 10
0.0
 20
0.0
 30
0.0
 41
0.08775
  0
VERTEX
  8
DIM
 10
5.198896
 20
15.380538
 30
0.0
  0
VERTEX
  8
DIM
 10
5.279465
 20
15.600231
 30
0.0
 41
0.0
  0
VERTEX
  8
DIM
 10
5.674116
 20
16.67636
 30
0.0
 41
0.0
  0
VERTEX
  8
DIM
 10
5.836616
 20
16.67636
 30
0.0
 41
0.0
  0
SEQEND
  8
DIM
  0
TEXT
  8
DIM
 10
5.999116
 20
16.59511
 30
0.0
 40
0.1625
  1
0.218 DIA. HOLE WITH
 41
0.75
  0
TEXT
  8
DIM
 10
5.999116
 20
16.324277
 30
0.0
 40
0.1625
  1
0.385 x 82%%d C'SINK.
 41
0.75
  0
POLYLINE
  8
DIM
 66
     1
 10
0.0
 20
0.0
 30
0.0
 41
0.08775
  0
VERTEX
  8
DIM
 10
8.129835
 20
15.813365
 30
0.0
  0
VERTEX
  8
DIM
 10
8.215555
 20
16.0311
 30
0.0
 41
0.0
  0
VERTEX
  8
DIM
 10
8.516312
 20
16.795049
 30
0.0
 41
0.0
  0
VERTEX
  8
DIM
 10
8.678812
 20
16.795049
 30
0.0
 41
0.0
  0
SEQEND
  8
DIM
  0
TEXT
  8
DIM
 10
8.841312
 20
16.713799
 30
0.0
 40
0.1625
  1
0.161 DIA. & TAP #10-32
 41
0.75
  0
TEXT
  8
DIM
 10
8.841312
 20
16.442966
 30
0.0
 40
0.1625
  1
(D) HOLES
 41
0.75
  0
TEXT
  8
TEXT
 10
6.728761
 20
10.869845
 30
0.0
 40
0.163
  1
%%uMATERIAL:%%u 11 GA. STEEL
 41
0.75
  0
TEXT
  8
TEXT
 10
6.728761
 20
10.326511
 30
0.0
 40
0.163
  1
%%uFINISH:%%u SMOOTH BLACK
 41
0.75
  0
TEXT
  8
TEXT
 10
0.270183
 20
19.578103
 30
0.0
 40
0.1625
  1
NAME
 72
     1
 11
0.5681
 21
19.578103
 31
0.0
  0
TEXT
  8
TEXT
 10
0.270183
 20
19.848936
 30
0.0
 40
0.1625
  1
PART
 72
     1
 11
0.5681
 21
19.848936
 31
0.0
  0
TEXT
  8
TEXT
 10
6.9836
 20
19.578103
 30
0.0
 40
0.1625
  1
No.
 72
     1
 11
7.1461
 21
19.578103
 31
0.0
  0
TEXT
  8
TEXT
 10
6.848183
 20
19.848936
 30
0.0
 40
0.1625
  1
PART
 72
     1
 11
7.1461
 21
19.848936
 31
0.0
  0
LINE
  8
TITLE
 10
7.6336
 20
20.0694
 30
0.0
 11
7.6336
 21
19.526
 31
0.0
  0
LINE
  8
TITLE
 10
6.6586
 20
20.0694
 30
0.0
 11
6.6586
 21
19.526
 31
0.0
  0
LINE
  8
TITLE
 10
6.578
 20
20.0694
 30
0.0
 11
6.578
 21
19.526
 31
0.0
  0
LINE
  8
TITLE
 10
1.0556
 20
19.526
 30
0.0
 11
1.0556
 21
20.0694
 31
0.0
  0
LINE
  8
TITLE
 10
0.0806
 20
19.526
 30
0.0
 11
13.0754
 21
19.526
 31
0.0
  0
LINE
  8
TITLE
 10
13.0754
 20
0.0806
 30
0.0
 11
0.0806
 21
0.0806
 31
0.0
  0
LINE
  8
TITLE
 10
13.0754
 20
20.0694
 30
0.0
 11
13.0754
 21
8.385233
 31
0.0
  0
LINE
  8
TITLE
 10
0.0806
 20
20.0694
 30
0.0
 11
13.0754
 21
20.0694
 31
0.0
  0
LINE
  8
TITLE
 10
0.0806
 20
0.0806
 30
0.0
 11
0.0806
 21
8.304633
 31
0.0
  0
LINE
  8
TITLE
 10
0.0
 20
0.0
 30
0.0
 11
0.0
 21
20.15
 31
0.0
  0
LINE
  8
TITLE
 10
13.156
 20
0.0
 30
0.0
 11
0.0
 21
0.0
 31
0.0
  0
LINE
  8
TITLE
 10
13.156
 20
20.15
 30
0.0
 11
13.156
 21
0.0
 31
0.0
  0
LINE
  8
TITLE
 10
0.0
 20
20.15
 30
0.0
 11
13.156
 21
20.15
 31
0.0
  0
LINE
  8
TITLE
 10
13.0754
 20
8.304633
 30
0.0
 11
13.0754
 21
0.0806
 31
0.0
  0
LINE
  8
TITLE
 10
0.0806
 20
8.385233
 30
0.0
 11
0.0806
 21
20.0694
 31
0.0
  0
ENDSEC
  0
EOF
