  0
SECTION
  2
HEADER
  9
$ACADVER
  1
AC1009
  9
$INSBASE
 10
0.0
 20
0.0
 30
0.0
  9
$EXTMIN
 10
0.0
 20
0.0
 30
0.0
  9
$EXTMAX
 10
108.4999999999999
 20
70.839999999999975
 30
0.0
  9
$LIMMIN
 10
0.0
 20
0.0
  9
$LIMMAX
 10
83.0
 20
65.0
  9
$ORTHOMODE
 70
     1
  9
$REGENMODE
 70
     0
  9
$FILLMODE
 70
     1
  9
$QTEXTMODE
 70
     0
  9
$MIRRTEXT
 70
     0
  9
$DRAGMODE
 70
     2
  9
$LTSCALE
 40
2.0
  9
$OSMODE
 70
    37
  9
$ATTMODE
 70
     1
  9
$TEXTSIZE
 40
0.875
  9
$TRACEWID
 40
0.05
  9
$TEXTSTYLE
  7
TXT
  9
$CLAYER
  8
OBJECT
  9
$CELTYPE
  6
BYLAYER
  9
$CECOLOR
 62
   256
  9
$DIMSCALE
 40
7.0
  9
$DIMASZ
 40
0.18
  9
$DIMEXO
 40
0.063
  9
$DIMDLI
 40
0.281
  9
$DIMRND
 40
0.0
  9
$DIMDLE
 40
0.0
  9
$DIMEXE
 40
0.093
  9
$DIMTP
 40
0.0
  9
$DIMTM
 40
0.0
  9
$DIMTXT
 40
0.125
  9
$DIMCEN
 40
0.09
  9
$DIMTSZ
 40
0.0
  9
$DIMTOL
 70
     0
  9
$DIMLIM
 70
     0
  9
$DIMTIH
 70
     1
  9
$DIMTOH
 70
     1
  9
$DIMSE1
 70
     0
  9
$DIMSE2
 70
     0
  9
$DIMTAD
 70
     0
  9
$DIMZIN
 70
     0
  9
$DIMBLK
  1

  9
$DIMASO
 70
     1
  9
$DIMSHO
 70
     1
  9
$DIMPOST
  1

  9
$DIMAPOST
  1

  9
$DIMALT
 70
     0
  9
$DIMALTD
 70
     2
  9
$DIMALTF
 40
25.399999999999999
  9
$DIMLFAC
 40
1.0
  9
$DIMTOFL
 70
     0
  9
$DIMTVP
 40
0.0
  9
$DIMTIX
 70
     1
  9
$DIMSOXD
 70
     0
  9
$DIMSAH
 70
     0
  9
$DIMBLK1
  1

  9
$DIMBLK2
  1

  9
$DIMSTYLE
  2
DIM
  9
$DIMCLRD
 70
     0
  9
$DIMCLRE
 70
     0
  9
$DIMCLRT
 70
     0
  9
$DIMTFAC
 40
1.0
  9
$DIMGAP
 40
0.09
  9
$LUNITS
 70
     2
  9
$LUPREC
 70
     3
  9
$SKETCHINC
 40
0.1
  9
$FILLETRAD
 40
0.0
  9
$AUNITS
 70
     0
  9
$AUPREC
 70
     0
  9
$MENU
  1
acad
  9
$ELEVATION
 40
0.0
  9
$PELEVATION
 40
0.0
  9
$THICKNESS
 40
0.0
  9
$LIMCHECK
 70
     0
  9
$BLIPMODE
 70
     0
  9
$CHAMFERA
 40
0.0
  9
$CHAMFERB
 40
0.0
  9
$SKPOLY
 70
     0
  9
$TDCREATE
 40
2449542.5456554391
  9
$TDUPDATE
 40
2451936.310113206
  9
$TDINDWG
 40
0.0891832292
  9
$TDUSRTIMER
 40
0.0891832292
  9
$USRTIMER
 70
     1
  9
$ANGBASE
 50
0.0
  9
$ANGDIR
 70
     0
  9
$PDMODE
 70
     0
  9
$PDSIZE
 40
0.0
  9
$PLINEWID
 40
0.0
  9
$COORDS
 70
     2
  9
$SPLFRAME
 70
     0
  9
$SPLINETYPE
 70
     6
  9
$SPLINESEGS
 70
     8
  9
$ATTDIA
 70
     0
  9
$ATTREQ
 70
     1
  9
$HANDLING
 70
  4097
  9
$HANDSEED
  5
E29
  9
$SURFTAB1
 70
     6
  9
$SURFTAB2
 70
     6
  9
$SURFTYPE
 70
     6
  9
$SURFU
 70
     6
  9
$SURFV
 70
     6
  9
$UCSNAME
  2

  9
$UCSORG
 10
0.0
 20
0.0
 30
0.0
  9
$UCSXDIR
 10
1.0
 20
0.0
 30
0.0
  9
$UCSYDIR
 10
0.0
 20
1.0
 30
0.0
  9
$PUCSNAME
  2

  9
$PUCSORG
 10
0.0
 20
0.0
 30
0.0
  9
$PUCSXDIR
 10
1.0
 20
0.0
 30
0.0
  9
$PUCSYDIR
 10
0.0
 20
1.0
 30
0.0
  9
$USERI1
 70
     0
  9
$USERI2
 70
     0
  9
$USERI3
 70
     0
  9
$USERI4
 70
     0
  9
$USERI5
 70
     0
  9
$USERR1
 40
0.0
  9
$USERR2
 40
0.0
  9
$USERR3
 40
0.0
  9
$USERR4
 40
0.0
  9
$USERR5
 40
0.0
  9
$WORLDVIEW
 70
     1
  9
$SHADEDGE
 70
     3
  9
$SHADEDIF
 70
    70
  9
$TILEMODE
 70
     1
  9
$MAXACTVP
 70
    16
  9
$PLIMCHECK
 70
     0
  9
$PEXTMIN
 10
1.0000000000000000E+020
 20
1.0000000000000000E+020
 30
1.0000000000000000E+020
  9
$PEXTMAX
 10
-1.0000000000000000E+020
 20
-1.0000000000000000E+020
 30
-1.0000000000000000E+020
  9
$PLIMMIN
 10
0.0
 20
0.0
  9
$PLIMMAX
 10
12.0
 20
9.0
  9
$UNITMODE
 70
     0
  9
$VISRETAIN
 70
     0
  9
$PLINEGEN
 70
     0
  9
$PSLTSCALE
 70
     1
  0
ENDSEC
  0
SECTION
  2
TABLES
  0
TABLE
  2
VPORT
 70
     2
  0
VPORT
  2
*ACTIVE
 70
     0
 10
0.0
 20
0.0
 11
1.0
 21
1.0
 12
54.250000252621227
 22
35.420000164937193
 13
0.0
 23
0.0
 14
1.0
 24
1.0
 15
0.0
 25
0.0
 16
0.0
 26
0.0
 36
1.0
 17
0.0
 27
0.0
 37
0.0
 40
71.624261239433082
 41
1.773897058823529
 42
50.0
 43
0.0
 44
0.0
 50
0.0
 51
0.0
 71
     0
 72
   100
 73
     1
 74
     0
 75
     0
 76
     0
 77
     0
 78
     0
  0
ENDTAB
  0
TABLE
  2
LTYPE
 70
     4
  0
LTYPE
  2
CONTINUOUS
 70
     0
  3
Solid line
 72
    65
 73
     0
 40
0.0
  0
LTYPE
  2
HIDDEN
 70
     0
  3
_ _ _ _ _ _ _ _ _ _ _ _ _ _ _ _ _ _ _ _ _ _ _
 72
    65
 73
     2
 40
0.375
 49
0.25
 49
-0.125
  0
LTYPE
  2
PHANTOM
 70
     0
  3
_____ _ _ _____ _ _ _____ _ _ _____ _ _ ____
 72
    65
 73
     6
 40
2.5
 49
1.25
 49
-0.25
 49
0.25
 49
-0.25
 49
0.25
 49
-0.25
  0
LTYPE
  2
CENTER
 70
     0
  3
____ _ ____ _ ____ _ ____ _ ____ _ ____ _ ____
 72
    65
 73
     4
 40
2.0
 49
1.25
 49
-0.25
 49
0.25
 49
-0.25
  0
ENDTAB
  0
TABLE
  2
LAYER
 70
     9
  0
LAYER
  2
0
 70
     0
 62
     7
  6
CONTINUOUS
  0
LAYER
  2
OBJECT
 70
     0
 62
     7
  6
CONTINUOUS
  0
LAYER
  2
DIM
 70
     0
 62
     2
  6
CONTINUOUS
  0
LAYER
  2
HIDDEN
 70
     0
 62
     6
  6
HIDDEN
  0
LAYER
  2
BEND
 70
     0
 62
     4
  6
PHANTOM
  0
LAYER
  2
TEXT
 70
     0
 62
     1
  6
CONTINUOUS
  0
LAYER
  2
TITLE
 70
     0
 62
     8
  6
CONTINUOUS
  0
LAYER
  2
CENTER
 70
     0
 62
     3
  6
CENTER
  0
LAYER
  2
DEFPOINTS
 70
     0
 62
     7
  6
CONTINUOUS
  0
ENDTAB
  0
TABLE
  2
STYLE
 70
     2
  0
STYLE
  2
STANDARD
 70
     0
 40
0.0
 41
1.0
 50
0.0
 71
     0
 42
0.2
  3
txt
  4

  0
STYLE
  2
TXT
 70
     0
 40
0.0
 41
0.75
 50
0.0
 71
     0
 42
0.875
  3
TXT.shx
  4

  0
ENDTAB
  0
TABLE
  2
VIEW
 70
     0
  0
ENDTAB
  0
TABLE
  2
UCS
 70
     0
  0
ENDTAB
  0
TABLE
  2
APPID
 70
     1
  0
APPID
  2
ACAD
 70
     0
  0
ENDTAB
  0
TABLE
  2
DIMSTYLE
 70
     2
  0
DIMSTYLE
  2
STD
 70
     0
  3

  4

  5

  6

  7

 40
7.0
 41
0.18
 42
0.063
 43
0.281
 44
0.093
 45
0.0
 46
0.0
 47
0.0
 48
0.0
140
0.125
141
0.09
142
0.0
143
25.399999999999999
144
1.0
145
0.0
146
1.0
147
0.09
 71
     0
 72
     0
 73
     1
 74
     1
 75
     0
 76
     0
 77
     0
 78
     0
170
     0
171
     2
172
     0
173
     0
174
     0
175
     0
176
     0
177
     0
178
     0
  0
DIMSTYLE
  2
DIM
 70
     0
  3

  4

  5

  6

  7

 40
7.0
 41
0.18
 42
0.063
 43
0.281
 44
0.093
 45
0.0
 46
0.0
 47
0.0
 48
0.0
140
0.125
141
0.09
142
0.0
143
25.399999999999999
144
1.0
145
0.0
146
1.0
147
0.09
 71
     0
 72
     0
 73
     1
 74
     1
 75
     0
 76
     0
 77
     0
 78
     0
170
     0
171
     2
172
     0
173
     0
174
     1
175
     0
176
     0
177
     0
178
     0
  0
ENDTAB
  0
ENDSEC
  0
SECTION
  2
BLOCKS
  0
BLOCK
  8
0
  2
$MODEL_SPACE
 70
     0
 10
0.0
 20
0.0
 30
0.0
  3
$MODEL_SPACE
  1

  0
ENDBLK
  5
4A
  8
0
  0
BLOCK
 67
     1
  8
0
  2
$PAPER_SPACE
 70
     0
 10
0.0
 20
0.0
 30
0.0
  3
$PAPER_SPACE
  1

  0
ENDBLK
  5
48
 67
     1
  8
0
  0
BLOCK
  8
0
  2
*D21
 70
     1
 10
0.0
 20
0.0
 30
0.0
  3
*D21
  1

  0
LINE
  5
888
  8
DIM
 62
     0
 10
46.076050580010516
 20
24.61050410626515
 30
0.0
 11
46.076050580010516
 21
19.4835311532314
 31
0.0
  0
LINE
  5
889
  8
DIM
 62
     0
 10
61.076050580010516
 20
25.649504106265219
 30
0.0
 11
61.076050580010516
 21
19.4835311532314
 31
0.0
  0
LINE
  5
88A
  8
DIM
 62
     0
 10
47.336050580010522
 20
20.1345311532314
 30
0.0
 11
51.578863080010521
 21
20.1345311532314
 31
0.0
  0
LINE
  5
88B
  8
DIM
 62
     0
 10
59.816050580010518
 20
20.1345311532314
 30
0.0
 11
55.573238080010519
 21
20.1345311532314
 31
0.0
  0
SOLID
  5
88C
  8
DIM
 62
     0
 10
47.336050580010522
 20
20.34453115323139
 30
0.0
 11
47.336050580010522
 21
19.924531153231388
 31
0.0
 12
46.076050580010516
 22
20.1345311532314
 32
0.0
 13
46.076050580010516
 23
20.1345311532314
 33
0.0
  0
SOLID
  5
88D
  8
DIM
 62
     0
 10
59.816050580010518
 20
20.34453115323139
 30
0.0
 11
59.816050580010518
 21
19.924531153231388
 31
0.0
 12
61.076050580010516
 22
20.1345311532314
 32
0.0
 13
61.076050580010516
 23
20.1345311532314
 33
0.0
  0
TEXT
  5
88E
  8
OBJECT
 62
     0
 10
52.208863080010516
 20
19.6970311532314
 30
0.0
 40
0.875
  1
15.000
 41
0.75
  7
TXT
  0
POINT
  5
88F
  8
DEFPOINTS
 62
     0
 10
46.076050580010516
 20
25.051504106265149
 30
0.0
  0
POINT
  5
890
  8
DEFPOINTS
 62
     0
 10
61.076050580010516
 20
26.090504106265222
 30
0.0
  0
POINT
  5
891
  8
DEFPOINTS
 62
     0
 10
61.076050580010516
 20
20.1345311532314
 30
0.0
  0
ENDBLK
  5
893
  8
0
  0
BLOCK
  8
0
  2
*D22
 70
     1
 10
0.0
 20
0.0
 30
0.0
  3
*D22
  1

  0
LINE
  5
895
  8
DIM
 62
     0
 10
80.392050580010576
 20
26.785504106265151
 30
0.0
 11
85.050281878796653
 21
26.785504106265151
 31
0.0
  0
LINE
  5
896
  8
DIM
 62
     0
 10
80.897050580010472
 20
28.535504106265162
 30
0.0
 11
85.050281878796653
 21
28.535504106265162
 31
0.0
  0
LINE
  5
897
  8
DIM
 62
     0
 10
84.399281878796671
 20
25.525504106265149
 30
0.0
 11
84.399281878796671
 21
24.265504106265158
 31
0.0
  0
LINE
  5
898
  8
DIM
 62
     0
 10
84.399281878796671
 20
29.795504106265149
 30
0.0
 11
84.399281878796671
 21
31.05550410626515
 31
0.0
  0
SOLID
  5
899
  8
DIM
 62
     0
 10
84.189281878796677
 20
25.525504106265149
 30
0.0
 11
84.609281878796665
 21
25.525504106265149
 31
0.0
 12
84.399281878796671
 22
26.785504106265151
 32
0.0
 13
84.399281878796671
 23
26.785504106265151
 33
0.0
  0
SOLID
  5
89A
  8
DIM
 62
     0
 10
84.189281878796677
 20
29.795504106265149
 30
0.0
 11
84.609281878796665
 21
29.795504106265149
 31
0.0
 12
84.399281878796671
 22
28.535504106265162
 32
0.0
 13
84.399281878796671
 23
28.535504106265162
 33
0.0
  0
TEXT
  5
89B
  8
OBJECT
 62
     0
 10
83.250844378796671
 20
27.223004106265169
 30
0.0
 40
0.875
  1
1.750
 41
0.75
  7
TXT
  0
POINT
  5
89C
  8
DEFPOINTS
 62
     0
 10
79.951050580010559
 20
26.785504106265151
 30
0.0
  0
POINT
  5
89D
  8
DEFPOINTS
 62
     0
 10
80.456050580010469
 20
28.535504106265162
 30
0.0
  0
POINT
  5
89E
  8
DEFPOINTS
 62
     0
 10
84.399281878796671
 20
28.535504106265162
 30
0.0
  0
ENDBLK
  5
8A0
  8
0
  0
BLOCK
  8
0
  2
*D23
 70
     1
 10
0.0
 20
0.0
 30
0.0
  3
*D23
  1

  0
LINE
  5
8A2
  8
DIM
 62
     0
 10
80.580050580010479
 20
28.285504106265151
 30
0.0
 11
91.006795205504304
 21
28.285504106265151
 31
0.0
  0
LINE
  5
8A3
  8
DIM
 62
     0
 10
80.580050580010479
 20
25.28550410626513
 30
0.0
 11
91.006795205504304
 21
25.28550410626513
 31
0.0
  0
LINE
  5
8A4
  8
DIM
 62
     0
 10
90.355795205504307
 20
29.545504106265149
 30
0.0
 11
90.355795205504307
 21
30.80550410626515
 31
0.0
  0
LINE
  5
8A5
  8
DIM
 62
     0
 10
90.355795205504307
 20
24.025504106265132
 30
0.0
 11
90.355795205504307
 21
22.76550410626513
 31
0.0
  0
SOLID
  5
8A6
  8
DIM
 62
     0
 10
90.145795205504314
 20
29.545504106265149
 30
0.0
 11
90.565795205504301
 21
29.545504106265149
 31
0.0
 12
90.355795205504307
 22
28.285504106265151
 32
0.0
 13
90.355795205504307
 23
28.285504106265151
 33
0.0
  0
SOLID
  5
8A7
  8
DIM
 62
     0
 10
90.145795205504314
 20
24.025504106265132
 30
0.0
 11
90.565795205504301
 21
24.025504106265132
 31
0.0
 12
90.355795205504307
 22
25.28550410626513
 32
0.0
 13
90.355795205504307
 23
25.28550410626513
 33
0.0
  0
TEXT
  5
8A8
  8
OBJECT
 62
     0
 10
89.207357705504307
 20
26.348004106265162
 30
0.0
 40
0.875
  1
3.000
 41
0.75
  7
TXT
  0
POINT
  5
8A9
  8
DEFPOINTS
 62
     0
 10
80.139050580010476
 20
28.285504106265151
 30
0.0
  0
POINT
  5
8AA
  8
DEFPOINTS
 62
     0
 10
80.139050580010476
 20
25.28550410626513
 30
0.0
  0
POINT
  5
8AB
  8
DEFPOINTS
 62
     0
 10
90.355795205504307
 20
25.28550410626513
 30
0.0
  0
ENDBLK
  5
8AD
  8
0
  0
BLOCK
  8
0
  2
*D24
 70
     1
 10
0.0
 20
0.0
 30
0.0
  3
*D24
  1

  0
LINE
  5
8AF
  8
DIM
 62
     0
 10
80.897050580010472
 20
25.035504106265162
 30
0.0
 11
94.367609068475787
 21
25.035504106265151
 31
0.0
  0
LINE
  5
8B0
  8
DIM
 62
     0
 10
80.897050580010472
 20
28.535504106265162
 30
0.0
 11
94.367609068475787
 21
28.535504106265151
 31
0.0
  0
LINE
  5
8B1
  8
DIM
 62
     0
 10
93.716609068475805
 20
23.775504106265149
 30
0.0
 11
93.716609068475805
 21
22.515504106265151
 31
0.0
  0
LINE
  5
8B2
  8
DIM
 62
     0
 10
93.716609068475805
 20
29.795504106265149
 30
0.0
 11
93.716609068475805
 21
31.05550410626515
 31
0.0
  0
SOLID
  5
8B3
  8
DIM
 62
     0
 10
93.506609068475811
 20
23.775504106265149
 30
0.0
 11
93.926609068475784
 21
23.775504106265149
 31
0.0
 12
93.716609068475805
 22
25.035504106265151
 32
0.0
 13
93.716609068475805
 23
25.035504106265151
 33
0.0
  0
SOLID
  5
8B4
  8
DIM
 62
     0
 10
93.506609068475811
 20
29.795504106265149
 30
0.0
 11
93.926609068475784
 21
29.795504106265149
 31
0.0
 12
93.716609068475805
 22
28.535504106265151
 32
0.0
 13
93.716609068475805
 23
28.535504106265151
 33
0.0
  0
TEXT
  5
8B5
  8
OBJECT
 62
     0
 10
92.513484068475805
 20
26.348004106265169
 30
0.0
 40
0.875
  1
3.500
 41
0.75
  7
TXT
  0
POINT
  5
8B6
  8
DEFPOINTS
 62
     0
 10
80.456050580010469
 20
25.035504106265162
 30
0.0
  0
POINT
  5
8B7
  8
DEFPOINTS
 62
     0
 10
80.456050580010469
 20
28.535504106265162
 30
0.0
  0
POINT
  5
8B8
  8
DEFPOINTS
 62
     0
 10
93.716609068475805
 20
28.535504106265151
 30
0.0
  0
ENDBLK
  5
8BA
  8
0
  0
BLOCK
  8
0
  2
*D25
 70
     1
 10
0.0
 20
0.0
 30
0.0
  3
*D25
  1

  0
LINE
  5
8BC
  8
DIM
 62
     0
 10
14.434620191067109
 20
10.57912067245276
 30
0.0
 11
8.2643767573090603
 21
10.57912067245276
 31
0.0
  0
LINE
  5
8BD
  8
DIM
 62
     0
 10
14.434620191067109
 20
13.579120672452779
 30
0.0
 11
8.2643767573090621
 21
13.579120672452779
 31
0.0
  0
LINE
  5
8BE
  8
DIM
 62
     0
 10
8.9153767573090601
 20
9.3191206724527689
 30
0.0
 11
8.9153767573090601
 21
8.0591206724527691
 31
0.0
  0
LINE
  5
8BF
  8
DIM
 62
     0
 10
8.9153767573090619
 20
14.839120672452781
 30
0.0
 11
8.9153767573090619
 21
16.099120672452781
 31
0.0
  0
SOLID
  5
8C0
  8
DIM
 62
     0
 10
8.7053767573090592
 20
9.3191206724527689
 30
0.0
 11
9.1253767573090592
 21
9.3191206724527689
 31
0.0
 12
8.9153767573090601
 22
10.57912067245276
 32
0.0
 13
8.9153767573090601
 23
10.57912067245276
 33
0.0
  0
SOLID
  5
8C1
  8
DIM
 62
     0
 10
8.705376757309061
 20
14.839120672452781
 30
0.0
 11
9.1253767573090627
 21
14.839120672452781
 31
0.0
 12
8.9153767573090619
 22
13.579120672452779
 32
0.0
 13
8.9153767573090619
 23
13.579120672452779
 33
0.0
  0
TEXT
  5
8C2
  8
OBJECT
 62
     0
 10
7.7669392573090583
 20
11.64162067245277
 30
0.0
 40
0.875
  1
3.000
 41
0.75
  7
TXT
  0
POINT
  5
8C3
  8
DEFPOINTS
 62
     0
 10
14.87562019106711
 20
10.57912067245276
 30
0.0
  0
POINT
  5
8C4
  8
DEFPOINTS
 62
     0
 10
14.87562019106711
 20
13.579120672452779
 30
0.0
  0
POINT
  5
8C5
  8
DEFPOINTS
 62
     0
 10
8.9153767573090619
 20
13.579120672452779
 30
0.0
  0
ENDBLK
  5
8C7
  8
0
  0
BLOCK
  8
0
  2
*D26
 70
     1
 10
0.0
 20
0.0
 30
0.0
  3
*D26
  1

  0
LINE
  5
8C9
  8
DIM
 62
     0
 10
33.316620191067081
 20
28.519504106265149
 30
0.0
 11
36.765000870835919
 21
28.519504106265149
 31
0.0
  0
LINE
  5
8CA
  8
DIM
 62
     0
 10
33.316620191067088
 20
25.051504106265149
 30
0.0
 11
36.765000870835919
 21
25.051504106265149
 31
0.0
  0
LINE
  5
8CB
  8
DIM
 62
     0
 10
36.114000870835909
 20
29.779504106265151
 30
0.0
 11
36.114000870835909
 21
31.039504106265149
 31
0.0
  0
LINE
  5
8CC
  8
DIM
 62
     0
 10
36.114000870835909
 20
23.79150410626514
 30
0.0
 11
36.114000870835909
 21
22.53150410626515
 31
0.0
  0
SOLID
  5
8CD
  8
DIM
 62
     0
 10
35.904000870835908
 20
29.779504106265151
 30
0.0
 11
36.32400087083591
 21
29.779504106265151
 31
0.0
 12
36.114000870835909
 22
28.519504106265149
 32
0.0
 13
36.114000870835909
 23
28.519504106265149
 33
0.0
  0
SOLID
  5
8CE
  8
DIM
 62
     0
 10
35.904000870835908
 20
23.79150410626514
 30
0.0
 11
36.32400087083591
 21
23.79150410626514
 31
0.0
 12
36.114000870835909
 22
25.051504106265149
 32
0.0
 13
36.114000870835909
 23
25.051504106265149
 33
0.0
  0
TEXT
  5
8CF
  8
OBJECT
 62
     0
 10
34.801500870835909
 20
26.348004106265151
 30
0.0
 40
0.875
  1
3.468
 41
0.75
  7
TXT
  0
POINT
  5
8D0
  8
DEFPOINTS
 62
     0
 10
32.875620191067078
 20
28.519504106265149
 30
0.0
  0
POINT
  5
8D1
  8
DEFPOINTS
 62
     0
 10
32.875620191067092
 20
25.051504106265149
 30
0.0
  0
POINT
  5
8D2
  8
DEFPOINTS
 62
     0
 10
36.114000870835909
 20
25.051504106265149
 30
0.0
  0
ENDBLK
  5
8D4
  8
0
  0
BLOCK
  8
0
  2
*D27
 70
     1
 10
0.0
 20
0.0
 30
0.0
  3
*D27
  1

  0
LINE
  5
8D6
  8
DIM
 62
     0
 10
14.87562019106711
 20
10.138120672452761
 30
0.0
 11
14.87562019106711
 21
7.1663356961185007
 31
0.0
  0
LINE
  5
8D7
  8
DIM
 62
     0
 10
31.875620191067078
 20
10.138120672452789
 30
0.0
 11
31.875620191067078
 21
7.1663356961185007
 31
0.0
  0
LINE
  5
8D8
  8
DIM
 62
     0
 10
16.135620191067112
 20
7.8173356961185014
 30
0.0
 11
21.37843269106709
 21
7.8173356961185014
 31
0.0
  0
LINE
  5
8D9
  8
DIM
 62
     0
 10
30.61562019106707
 20
7.8173356961185014
 30
0.0
 11
25.372807691067091
 21
7.8173356961185014
 31
0.0
  0
SOLID
  5
8DA
  8
DIM
 62
     0
 10
16.135620191067112
 20
8.0273356961185023
 30
0.0
 11
16.135620191067112
 21
7.6073356961185006
 31
0.0
 12
14.87562019106711
 22
7.8173356961185014
 32
0.0
 13
14.87562019106711
 23
7.8173356961185014
 33
0.0
  0
SOLID
  5
8DB
  8
DIM
 62
     0
 10
30.61562019106707
 20
8.0273356961185023
 30
0.0
 11
30.61562019106707
 21
7.6073356961185006
 31
0.0
 12
31.875620191067078
 22
7.8173356961185014
 32
0.0
 13
31.875620191067078
 23
7.8173356961185014
 33
0.0
  0
TEXT
  5
8DC
  8
OBJECT
 62
     0
 10
22.008432691067089
 20
7.3798356961185014
 30
0.0
 40
0.875
  1
17.000
 41
0.75
  7
TXT
  0
POINT
  5
8DD
  8
DEFPOINTS
 62
     0
 10
14.87562019106711
 20
10.57912067245276
 30
0.0
  0
POINT
  5
8DE
  8
DEFPOINTS
 62
     0
 10
31.875620191067078
 20
10.57912067245279
 30
0.0
  0
POINT
  5
8DF
  8
DEFPOINTS
 62
     0
 10
31.875620191067078
 20
7.8173356961185014
 30
0.0
  0
ENDBLK
  5
8E1
  8
0
  0
BLOCK
  8
0
  2
*D28
 70
     1
 10
0.0
 20
0.0
 30
0.0
  3
*D28
  1

  0
LINE
  5
8E3
  8
DIM
 62
     0
 10
60.956050580010533
 20
53.099626329568032
 30
0.0
 11
60.956050580010533
 21
53.768795333673978
 31
0.0
  0
LINE
  5
8E4
  8
DIM
 62
     0
 10
81.076050580010502
 20
55.919720630167568
 30
0.0
 11
81.076050580010502
 21
52.466795333673979
 31
0.0
  0
LINE
  5
8E5
  8
DIM
 62
     0
 10
62.216050580010531
 20
53.117795333673982
 30
0.0
 11
65.686698015745691
 21
53.117795333673982
 31
0.0
  0
LINE
  5
8E6
  8
DIM
 62
     0
 10
79.816050580010497
 20
53.117795333673982
 30
0.0
 11
69.899823015745682
 21
53.117795333673982
 31
0.0
  0
SOLID
  5
8E7
  8
DIM
 62
     0
 10
62.216050580010531
 20
53.327795333673983
 30
0.0
 11
62.216050580010531
 21
52.907795333673981
 31
0.0
 12
60.956050580010533
 22
53.117795333673982
 32
0.0
 13
60.956050580010533
 23
53.117795333673982
 33
0.0
  0
SOLID
  5
8E8
  8
DIM
 62
     0
 10
79.816050580010497
 20
53.327795333673983
 30
0.0
 11
79.816050580010497
 21
52.907795333673981
 31
0.0
 12
81.076050580010502
 22
53.117795333673982
 32
0.0
 13
81.076050580010502
 23
53.117795333673982
 33
0.0
  0
TEXT
  5
8E9
  8
OBJECT
 62
     0
 10
66.316698015745686
 20
52.680295333673982
 30
0.0
 40
0.875
  1
20.125
 41
0.75
  7
TXT
  0
POINT
  5
8EA
  8
DEFPOINTS
 62
     0
 10
60.956050580010533
 20
52.65862632956803
 30
0.0
  0
POINT
  5
8EB
  8
DEFPOINTS
 62
     0
 10
81.076050580010502
 20
56.36072063016757
 30
0.0
  0
POINT
  5
8EC
  8
DEFPOINTS
 62
     0
 10
81.076050580010502
 20
53.117795333673982
 30
0.0
  0
ENDBLK
  5
8EE
  8
0
  0
BLOCK
  8
0
  2
*D29
 70
     1
 10
0.0
 20
0.0
 30
0.0
  3
*D29
  1

  0
LINE
  5
8F0
  8
DIM
 62
     0
 10
61.38805058001055
 20
57.680720630167563
 30
0.0
 11
61.38805058001055
 21
60.941749184909462
 31
0.0
  0
LINE
  5
8F1
  8
DIM
 62
     0
 10
86.874050580010561
 20
57.680720630167563
 30
0.0
 11
86.874050580010561
 21
60.941749184909462
 31
0.0
  0
LINE
  5
8F2
  8
DIM
 62
     0
 10
62.648050580010548
 20
60.290749184909458
 30
0.0
 11
71.860425580010556
 21
60.290749184909458
 31
0.0
  0
LINE
  5
8F3
  8
DIM
 62
     0
 10
85.614050580010556
 20
60.290749184909458
 30
0.0
 11
76.401675580010547
 21
60.290749184909458
 31
0.0
  0
SOLID
  5
8F4
  8
DIM
 62
     0
 10
62.648050580010548
 20
60.500749184909452
 30
0.0
 11
62.648050580010548
 21
60.080749184909457
 31
0.0
 12
61.38805058001055
 22
60.290749184909458
 32
0.0
 13
61.38805058001055
 23
60.290749184909458
 33
0.0
  0
SOLID
  5
8F5
  8
DIM
 62
     0
 10
85.614050580010556
 20
60.500749184909452
 30
0.0
 11
85.614050580010556
 21
60.080749184909457
 31
0.0
 12
86.874050580010561
 22
60.290749184909458
 32
0.0
 13
86.874050580010561
 23
60.290749184909458
 33
0.0
  0
TEXT
  5
8F6
  8
OBJECT
 62
     0
 10
72.490425580010552
 20
59.853249184909451
 30
0.0
 40
0.875
  1
25.484
 41
0.75
  7
TXT
  0
POINT
  5
8F7
  8
DEFPOINTS
 62
     0
 10
61.38805058001055
 20
57.239720630167561
 30
0.0
  0
POINT
  5
8F8
  8
DEFPOINTS
 62
     0
 10
86.874050580010561
 20
57.239720630167561
 30
0.0
  0
POINT
  5
8F9
  8
DEFPOINTS
 62
     0
 10
86.874050580010561
 20
60.290749184909458
 30
0.0
  0
ENDBLK
  5
8FB
  8
0
  0
BLOCK
  8
0
  2
*D30
 70
     1
 10
0.0
 20
0.0
 30
0.0
  3
*D30
  1

  0
LINE
  5
8FD
  8
DIM
 62
     0
 10
60.956050580010533
 20
57.766720630167541
 30
0.0
 11
60.956050580010533
 21
64.382900116844624
 31
0.0
  0
LINE
  5
8FE
  8
DIM
 62
     0
 10
86.936050580010573
 20
57.680720630167563
 30
0.0
 11
86.936050580010573
 21
64.382900116844624
 31
0.0
  0
LINE
  5
8FF
  8
DIM
 62
     0
 10
62.216050580010531
 20
63.731900116844628
 30
0.0
 11
71.675425580010554
 21
63.731900116844628
 31
0.0
  0
LINE
  5
900
  8
DIM
 62
     0
 10
85.676050580010553
 20
63.731900116844628
 30
0.0
 11
76.216675580010545
 21
63.731900116844628
 31
0.0
  0
SOLID
  5
901
  8
DIM
 62
     0
 10
62.216050580010531
 20
63.941900116844629
 30
0.0
 11
62.216050580010531
 21
63.521900116844627
 31
0.0
 12
60.956050580010533
 22
63.731900116844628
 32
0.0
 13
60.956050580010533
 23
63.731900116844628
 33
0.0
  0
SOLID
  5
902
  8
DIM
 62
     0
 10
85.676050580010553
 20
63.941900116844629
 30
0.0
 11
85.676050580010553
 21
63.521900116844627
 31
0.0
 12
86.936050580010573
 22
63.731900116844628
 32
0.0
 13
86.936050580010573
 23
63.731900116844628
 33
0.0
  0
TEXT
  5
903
  8
OBJECT
 62
     0
 10
72.305425580010535
 20
63.294400116844628
 30
0.0
 40
0.875
  1
25.984
 41
0.75
  7
TXT
  0
POINT
  5
904
  8
DEFPOINTS
 62
     0
 10
60.956050580010533
 20
57.325720630167538
 30
0.0
  0
POINT
  5
905
  8
DEFPOINTS
 62
     0
 10
86.936050580010573
 20
57.239720630167561
 30
0.0
  0
POINT
  5
906
  8
DEFPOINTS
 62
     0
 10
86.936050580010573
 20
63.731900116844628
 30
0.0
  0
ENDBLK
  5
908
  8
0
  0
BLOCK
  8
0
  2
*D31
 70
     1
 10
0.0
 20
0.0
 30
0.0
  3
*D31
  1

  0
LINE
  5
90A
  8
DIM
 62
     0
 10
61.38805058001055
 20
37.97072063016757
 30
0.0
 11
61.38805058001055
 21
34.272776071445477
 31
0.0
  0
LINE
  5
90B
  8
DIM
 62
     0
 10
76.325024440380446
 20
37.97072063016757
 30
0.0
 11
76.325024440380446
 21
34.272776071445477
 31
0.0
  0
LINE
  5
90C
  8
DIM
 62
     0
 10
62.648050580010548
 20
34.923776071445467
 30
0.0
 11
66.695287510195499
 21
34.923776071445467
 31
0.0
  0
LINE
  5
90D
  8
DIM
 62
     0
 10
75.065024440380441
 20
34.923776071445467
 30
0.0
 11
71.01778751019549
 21
34.923776071445467
 31
0.0
  0
SOLID
  5
90E
  8
DIM
 62
     0
 10
62.648050580010548
 20
35.133776071445467
 30
0.0
 11
62.648050580010548
 21
34.713776071445473
 31
0.0
 12
61.38805058001055
 22
34.923776071445467
 32
0.0
 13
61.38805058001055
 23
34.923776071445467
 33
0.0
  0
SOLID
  5
90F
  8
DIM
 62
     0
 10
75.065024440380441
 20
35.133776071445467
 30
0.0
 11
75.065024440380441
 21
34.713776071445473
 31
0.0
 12
76.325024440380446
 22
34.923776071445467
 32
0.0
 13
76.325024440380446
 23
34.923776071445467
 33
0.0
  0
TEXT
  5
910
  8
OBJECT
 62
     0
 10
67.325287510195494
 20
34.486276071445467
 30
0.0
 40
0.875
  1
14.938
 41
0.75
  7
TXT
  0
POINT
  5
911
  8
DEFPOINTS
 62
     0
 10
61.38805058001055
 20
38.411720630167572
 30
0.0
  0
POINT
  5
912
  8
DEFPOINTS
 62
     0
 10
76.325024440380446
 20
38.411720630167572
 30
0.0
  0
POINT
  5
913
  8
DEFPOINTS
 62
     0
 10
76.325024440380446
 20
34.923776071445467
 30
0.0
  0
ENDBLK
  5
915
  8
0
  0
BLOCK
  8
0
  2
*D32
 70
     1
 10
0.0
 20
0.0
 30
0.0
  3
*D32
  1

  0
LINE
  5
917
  8
DIM
 62
     0
 10
32.875620191067078
 20
28.960504106265152
 30
0.0
 11
32.875620191067078
 21
31.77267444679778
 31
0.0
  0
LINE
  5
918
  8
DIM
 62
     0
 10
13.87562019106708
 20
28.960504106265152
 30
0.0
 11
13.87562019106708
 21
31.77267444679778
 31
0.0
  0
LINE
  5
919
  8
DIM
 62
     0
 10
31.61562019106707
 20
31.12167444679778
 30
0.0
 11
25.372807691067081
 21
31.12167444679778
 31
0.0
  0
LINE
  5
91A
  8
DIM
 62
     0
 10
15.13562019106708
 20
31.12167444679778
 30
0.0
 11
21.378432691067079
 21
31.12167444679778
 31
0.0
  0
SOLID
  5
91B
  8
DIM
 62
     0
 10
31.61562019106707
 20
31.331674446797781
 30
0.0
 11
31.61562019106707
 21
30.911674446797779
 31
0.0
 12
32.875620191067078
 22
31.12167444679778
 32
0.0
 13
32.875620191067078
 23
31.12167444679778
 33
0.0
  0
SOLID
  5
91C
  8
DIM
 62
     0
 10
15.13562019106708
 20
31.331674446797781
 30
0.0
 11
15.13562019106708
 21
30.911674446797779
 31
0.0
 12
13.87562019106708
 22
31.12167444679778
 32
0.0
 13
13.87562019106708
 23
31.12167444679778
 33
0.0
  0
TEXT
  5
91D
  8
OBJECT
 62
     0
 10
22.008432691067078
 20
30.68417444679778
 30
0.0
 40
0.875
  1
19.000
 41
0.75
  7
TXT
  0
POINT
  5
91E
  8
DEFPOINTS
 62
     0
 10
32.875620191067078
 20
28.519504106265149
 30
0.0
  0
POINT
  5
91F
  8
DEFPOINTS
 62
     0
 10
13.87562019106708
 20
28.519504106265149
 30
0.0
  0
POINT
  5
920
  8
DEFPOINTS
 62
     0
 10
13.87562019106708
 20
31.12167444679778
 30
0.0
  0
ENDBLK
  5
922
  8
0
  0
BLOCK
  8
0
  2
*D33
 70
     1
 10
0.0
 20
0.0
 30
0.0
  3
*D33
  1

  0
LINE
  5
924
  8
DIM
 62
     0
 10
60.076050580010516
 20
24.844504106265131
 30
0.0
 11
60.076050580010516
 21
22.233378341942029
 31
0.0
  0
LINE
  5
925
  8
DIM
 62
     0
 10
46.076050580010516
 20
24.61050410626515
 30
0.0
 11
46.076050580010516
 21
22.233378341942029
 31
0.0
  0
LINE
  5
926
  8
DIM
 62
     0
 10
58.816050580010533
 20
22.884378341942028
 30
0.0
 11
55.073238080010533
 21
22.884378341942028
 31
0.0
  0
LINE
  5
927
  8
DIM
 62
     0
 10
47.336050580010522
 20
22.884378341942028
 30
0.0
 11
51.078863080010521
 21
22.884378341942028
 31
0.0
  0
SOLID
  5
928
  8
DIM
 62
     0
 10
58.816050580010533
 20
23.094378341942029
 30
0.0
 11
58.816050580010533
 21
22.674378341942031
 31
0.0
 12
60.076050580010516
 22
22.884378341942028
 32
0.0
 13
60.076050580010516
 23
22.884378341942028
 33
0.0
  0
SOLID
  5
929
  8
DIM
 62
     0
 10
47.336050580010522
 20
23.094378341942029
 30
0.0
 11
47.336050580010522
 21
22.674378341942031
 31
0.0
 12
46.076050580010516
 22
22.884378341942028
 32
0.0
 13
46.076050580010516
 23
22.884378341942028
 33
0.0
  0
TEXT
  5
92A
  8
OBJECT
 62
     0
 10
51.708863080010516
 20
22.446878341942028
 30
0.0
 40
0.875
  1
14.000
 41
0.75
  7
TXT
  0
POINT
  5
92B
  8
DEFPOINTS
 62
     0
 10
60.076050580010516
 20
25.28550410626513
 30
0.0
  0
POINT
  5
92C
  8
DEFPOINTS
 62
     0
 10
46.076050580010516
 20
25.051504106265149
 30
0.0
  0
POINT
  5
92D
  8
DEFPOINTS
 62
     0
 10
46.076050580010516
 20
22.884378341942028
 30
0.0
  0
ENDBLK
  5
92F
  8
0
  0
BLOCK
  8
0
  2
*D34
 70
     1
 10
0.0
 20
0.0
 30
0.0
  3
*D34
  1

  0
LINE
  5
931
  8
DIM
 62
     0
 10
46.076050580010516
 20
24.61050410626515
 30
0.0
 11
46.076050580010516
 21
22.233378341942029
 31
0.0
  0
LINE
  5
932
  8
DIM
 62
     0
 10
45.967050580010529
 20
24.61050410626515
 30
0.0
 11
45.967050580010529
 21
22.233378341942029
 31
0.0
  0
LINE
  5
933
  8
DIM
 62
     0
 10
47.336050580010522
 20
22.884378341942028
 30
0.0
 11
48.596050580010527
 21
22.884378341942028
 31
0.0
  0
LINE
  5
934
  8
DIM
 62
     0
 10
44.707050580010538
 20
22.884378341942028
 30
0.0
 11
43.447050580010533
 21
22.884378341942028
 31
0.0
  0
SOLID
  5
935
  8
DIM
 62
     0
 10
47.336050580010522
 20
23.094378341942029
 30
0.0
 11
47.336050580010522
 21
22.674378341942031
 31
0.0
 12
46.076050580010516
 22
22.884378341942028
 32
0.0
 13
46.076050580010516
 23
22.884378341942028
 33
0.0
  0
SOLID
  5
936
  8
DIM
 62
     0
 10
44.707050580010538
 20
23.094378341942029
 30
0.0
 11
44.707050580010538
 21
22.674378341942031
 31
0.0
 12
45.967050580010529
 22
22.884378341942028
 32
0.0
 13
45.967050580010529
 23
22.884378341942028
 33
0.0
  0
TEXT
  5
937
  8
OBJECT
 62
     0
 10
40.629550580010537
 20
22.446878341942028
 30
0.0
 40
0.875
  1
0.109
 41
0.75
  7
TXT
  0
POINT
  5
938
  8
DEFPOINTS
 62
     0
 10
46.076050580010516
 20
25.051504106265149
 30
0.0
  0
POINT
  5
939
  8
DEFPOINTS
 62
     0
 10
45.967050580010529
 20
25.051504106265149
 30
0.0
  0
POINT
  5
93A
  8
DEFPOINTS
 62
     0
 10
45.967050580010529
 20
22.884378341942028
 30
0.0
  0
ENDBLK
  5
93C
  8
0
  0
BLOCK
  8
0
  2
*D35
 70
     1
 10
0.0
 20
0.0
 30
0.0
  3
*D35
  1

  0
LINE
  5
93E
  8
DIM
 62
     0
 10
81.076050580010502
 20
25.649504106265251
 30
0.0
 11
81.076050580010502
 21
19.4835311532314
 31
0.0
  0
LINE
  5
93F
  8
DIM
 62
     0
 10
61.076050580010516
 20
25.649504106265251
 30
0.0
 11
61.076050580010516
 21
19.4835311532314
 31
0.0
  0
LINE
  5
940
  8
DIM
 62
     0
 10
79.816050580010497
 20
20.1345311532314
 30
0.0
 11
74.987300580010498
 21
20.1345311532314
 31
0.0
  0
LINE
  5
941
  8
DIM
 62
     0
 10
62.336050580010522
 20
20.1345311532314
 30
0.0
 11
67.164800580010507
 21
20.1345311532314
 31
0.0
  0
SOLID
  5
942
  8
DIM
 62
     0
 10
79.816050580010497
 20
20.34453115323139
 30
0.0
 11
79.816050580010497
 21
19.924531153231388
 31
0.0
 12
81.076050580010502
 22
20.1345311532314
 32
0.0
 13
81.076050580010502
 23
20.1345311532314
 33
0.0
  0
SOLID
  5
943
  8
DIM
 62
     0
 10
62.336050580010522
 20
20.34453115323139
 30
0.0
 11
62.336050580010522
 21
19.924531153231388
 31
0.0
 12
61.076050580010516
 22
20.1345311532314
 32
0.0
 13
61.076050580010516
 23
20.1345311532314
 33
0.0
  0
TEXT
  5
944
  8
OBJECT
 62
     0
 10
67.794800580010502
 20
19.6970311532314
 30
0.0
 40
0.875
  1
20.000 SLIDE
 41
0.75
  7
TXT
  0
POINT
  5
945
  8
DEFPOINTS
 62
     0
 10
81.076050580010502
 20
26.09050410626525
 30
0.0
  0
POINT
  5
946
  8
DEFPOINTS
 62
     0
 10
61.076050580010516
 20
26.09050410626525
 30
0.0
  0
POINT
  5
947
  8
DEFPOINTS
 62
     0
 10
61.076050580010516
 20
20.1345311532314
 30
0.0
  0
ENDBLK
  5
949
  8
0
  0
BLOCK
  8
0
  2
*D36
 70
     1
 10
0.0
 20
0.0
 30
0.0
  3
*D36
  1

  0
LINE
  5
94B
  8
DIM
 62
     0
 10
80.580050580010479
 20
25.28550410626513
 30
0.0
 11
88.083364373481714
 21
25.28550410626513
 31
0.0
  0
LINE
  5
94C
  8
DIM
 62
     0
 10
80.897050580010472
 20
25.035504106265162
 30
0.0
 11
88.083364373481714
 21
25.035504106265151
 31
0.0
  0
LINE
  5
94D
  8
DIM
 62
     0
 10
87.432364373481732
 20
26.545504106265138
 30
0.0
 11
87.432364373481732
 21
27.805504106265129
 31
0.0
  0
LINE
  5
94E
  8
DIM
 62
     0
 10
87.432364373481732
 20
23.775504106265149
 30
0.0
 11
87.432364373481732
 21
22.515504106265151
 31
0.0
  0
LINE
  5
94F
  8
DIM
 62
     0
 10
87.432364373481732
 20
22.515504106265151
 30
0.0
 11
86.172364373481727
 21
22.515504106265151
 31
0.0
  0
SOLID
  5
950
  8
DIM
 62
     0
 10
87.222364373481739
 20
26.545504106265138
 30
0.0
 11
87.642364373481726
 21
26.545504106265138
 31
0.0
 12
87.432364373481732
 22
25.28550410626513
 32
0.0
 13
87.432364373481732
 23
25.28550410626513
 33
0.0
  0
SOLID
  5
951
  8
DIM
 62
     0
 10
87.222364373481739
 20
23.775504106265149
 30
0.0
 11
87.642364373481726
 21
23.775504106265149
 31
0.0
 12
87.432364373481732
 22
25.035504106265162
 32
0.0
 13
87.432364373481732
 23
25.035504106265162
 33
0.0
  0
TEXT
  5
952
  8
OBJECT
 62
     0
 10
83.136114373481732
 20
22.078004106265169
 30
0.0
 40
0.875
  1
0.250
 41
0.75
  7
TXT
  0
POINT
  5
953
  8
DEFPOINTS
 62
     0
 10
80.139050580010476
 20
25.28550410626513
 30
0.0
  0
POINT
  5
954
  8
DEFPOINTS
 62
     0
 10
80.456050580010469
 20
25.035504106265162
 30
0.0
  0
POINT
  5
955
  8
DEFPOINTS
 62
     0
 10
87.432364373481732
 20
25.035504106265162
 30
0.0
  0
ENDBLK
  5
957
  8
0
  0
BLOCK
  8
0
  2
*D37
 70
     1
 10
0.0
 20
0.0
 30
0.0
  3
*D37
  1

  0
LINE
  5
959
  8
DIM
 62
     0
 10
33.116120191066933
 20
11.26712067245292
 30
0.0
 11
42.495085373654071
 21
11.26712067245292
 31
0.0
  0
LINE
  5
95A
  8
DIM
 62
     0
 10
32.754120191066917
 20
10.39212067245292
 30
0.0
 11
42.495085373654071
 21
10.39212067245292
 31
0.0
  0
LINE
  5
95B
  8
DIM
 62
     0
 10
41.844085373654067
 20
12.52712067245292
 30
0.0
 11
41.844085373654067
 21
13.78712067245292
 31
0.0
  0
LINE
  5
95C
  8
DIM
 62
     0
 10
41.844085373654067
 20
9.132120672452924
 30
0.0
 11
41.844085373654067
 21
7.8721206724529189
 31
0.0
  0
LINE
  5
95D
  8
DIM
 62
     0
 10
41.844085373654067
 20
7.8721206724529189
 30
0.0
 11
40.584085373654077
 21
7.8721206724529189
 31
0.0
  0
SOLID
  5
95E
  8
DIM
 62
     0
 10
41.634085373654067
 20
12.52712067245292
 30
0.0
 11
42.054085373654068
 21
12.52712067245292
 31
0.0
 12
41.844085373654067
 22
11.26712067245292
 32
0.0
 13
41.844085373654067
 23
11.26712067245292
 33
0.0
  0
SOLID
  5
95F
  8
DIM
 62
     0
 10
41.634085373654067
 20
9.132120672452924
 30
0.0
 11
42.054085373654068
 21
9.132120672452924
 31
0.0
 12
41.844085373654067
 22
10.39212067245292
 32
0.0
 13
41.844085373654067
 23
10.39212067245292
 33
0.0
  0
TEXT
  5
960
  8
OBJECT
 62
     0
 10
37.438460373654067
 20
7.434620672452926
 30
0.0
 40
0.875
  1
0.875
 41
0.75
  7
TXT
  0
POINT
  5
961
  8
DEFPOINTS
 62
     0
 10
32.675120191066931
 20
11.26712067245292
 30
0.0
  0
POINT
  5
962
  8
DEFPOINTS
 62
     0
 10
32.313120191066922
 20
10.39212067245292
 30
0.0
  0
POINT
  5
963
  8
DEFPOINTS
 62
     0
 10
41.844085373654067
 20
10.39212067245292
 30
0.0
  0
ENDBLK
  5
965
  8
0
  0
BLOCK
  8
0
  2
*D38
 70
     1
 10
0.0
 20
0.0
 30
0.0
  3
*D38
  1

  0
LINE
  5
967
  8
DIM
 62
     0
 10
33.116120191066948
 20
11.267120672452929
 30
0.0
 11
40.609311544209717
 21
11.267120672452929
 31
0.0
  0
LINE
  5
968
  8
DIM
 62
     0
 10
33.116120191066948
 20
11.892120672452929
 30
0.0
 11
40.609311544209717
 21
11.892120672452929
 31
0.0
  0
LINE
  5
969
  8
DIM
 62
     0
 10
39.958311544209707
 20
10.007120672452929
 30
0.0
 11
39.958311544209707
 21
8.7471206724529313
 31
0.0
  0
LINE
  5
96A
  8
DIM
 62
     0
 10
39.958311544209707
 20
13.152120672452931
 30
0.0
 11
39.958311544209707
 21
14.41212067245293
 31
0.0
  0
LINE
  5
96B
  8
DIM
 62
     0
 10
39.958311544209707
 20
14.41212067245293
 30
0.0
 11
41.218311544209712
 21
14.41212067245293
 31
0.0
  0
SOLID
  5
96C
  8
DIM
 62
     0
 10
39.748311544209713
 20
10.007120672452929
 30
0.0
 11
40.168311544209708
 21
10.007120672452929
 31
0.0
 12
39.958311544209707
 22
11.267120672452929
 32
0.0
 13
39.958311544209707
 23
11.267120672452929
 33
0.0
  0
SOLID
  5
96D
  8
DIM
 62
     0
 10
39.748311544209713
 20
13.152120672452931
 30
0.0
 11
40.168311544209708
 21
13.152120672452931
 31
0.0
 12
39.958311544209707
 22
11.892120672452929
 32
0.0
 13
39.958311544209707
 23
11.892120672452929
 33
0.0
  0
TEXT
  5
96E
  8
OBJECT
 62
     0
 10
41.848311544209707
 20
13.97462067245293
 30
0.0
 40
0.875
  1
0.625
 41
0.75
  7
TXT
  0
POINT
  5
96F
  8
DEFPOINTS
 62
     0
 10
32.675120191066938
 20
11.267120672452929
 30
0.0
  0
POINT
  5
970
  8
DEFPOINTS
 62
     0
 10
32.675120191066938
 20
11.892120672452929
 30
0.0
  0
POINT
  5
971
  8
DEFPOINTS
 62
     0
 10
39.958311544209707
 20
11.892120672452929
 30
0.0
  0
ENDBLK
  5
973
  8
0
  0
BLOCK
  8
0
  2
*D39
 70
     1
 10
0.0
 20
0.0
 30
0.0
  3
*D39
  1

  0
LINE
  5
975
  8
DIM
 62
     0
 10
33.116120191066948
 20
11.892120672452929
 30
0.0
 11
45.586038306439981
 21
11.892120672452929
 31
0.0
  0
LINE
  5
976
  8
DIM
 62
     0
 10
33.116120191066948
 20
12.392120672452929
 30
0.0
 11
45.586038306439981
 21
12.392120672452929
 31
0.0
  0
LINE
  5
977
  8
DIM
 62
     0
 10
44.935038306439978
 20
10.63212067245292
 30
0.0
 11
44.935038306439978
 21
9.3721206724529296
 31
0.0
  0
LINE
  5
978
  8
DIM
 62
     0
 10
44.935038306439978
 20
13.65212067245292
 30
0.0
 11
44.935038306439978
 21
14.91212067245292
 31
0.0
  0
LINE
  5
979
  8
DIM
 62
     0
 10
44.935038306439978
 20
14.91212067245292
 30
0.0
 11
46.195038306439983
 21
14.91212067245292
 31
0.0
  0
SOLID
  5
97A
  8
DIM
 62
     0
 10
44.725038306439977
 20
10.63212067245292
 30
0.0
 11
45.145038306439979
 21
10.63212067245292
 31
0.0
 12
44.935038306439978
 22
11.892120672452929
 32
0.0
 13
44.935038306439978
 23
11.892120672452929
 33
0.0
  0
SOLID
  5
97B
  8
DIM
 62
     0
 10
44.725038306439977
 20
13.65212067245292
 30
0.0
 11
45.145038306439979
 21
13.65212067245292
 31
0.0
 12
44.935038306439978
 22
12.392120672452929
 32
0.0
 13
44.935038306439978
 23
12.392120672452929
 33
0.0
  0
TEXT
  5
97C
  8
OBJECT
 62
     0
 10
46.825038306439978
 20
14.47462067245293
 30
0.0
 40
0.875
  1
0.500
 41
0.75
  7
TXT
  0
POINT
  5
97D
  8
DEFPOINTS
 62
     0
 10
32.675120191066938
 20
11.892120672452929
 30
0.0
  0
POINT
  5
97E
  8
DEFPOINTS
 62
     0
 10
32.675120191066938
 20
12.392120672452929
 30
0.0
  0
POINT
  5
97F
  8
DEFPOINTS
 62
     0
 10
44.935038306439978
 20
12.392120672452929
 30
0.0
  0
ENDBLK
  5
981
  8
0
  0
BLOCK
  8
0
  2
*D40
 70
     1
 10
0.0
 20
0.0
 30
0.0
  3
*D40
  1

  0
LINE
  5
983
  8
DIM
 62
     0
 10
33.116120191066948
 20
12.392120672452929
 30
0.0
 11
50.288817029021253
 21
12.39212067245292
 31
0.0
  0
LINE
  5
984
  8
DIM
 62
     0
 10
33.116120191066948
 20
13.01712067245291
 30
0.0
 11
50.288817029021253
 21
13.01712067245291
 31
0.0
  0
LINE
  5
985
  8
DIM
 62
     0
 10
49.637817029021242
 20
11.13212067245292
 30
0.0
 11
49.637817029021242
 21
9.8721206724529278
 31
0.0
  0
LINE
  5
986
  8
DIM
 62
     0
 10
49.637817029021242
 20
14.277120672452909
 30
0.0
 11
49.637817029021242
 21
15.537120672452909
 31
0.0
  0
LINE
  5
987
  8
DIM
 62
     0
 10
49.637817029021242
 20
15.537120672452909
 30
0.0
 11
50.89781702902124
 21
15.537120672452909
 31
0.0
  0
SOLID
  5
988
  8
DIM
 62
     0
 10
49.427817029021242
 20
11.13212067245292
 30
0.0
 11
49.847817029021243
 21
11.13212067245292
 31
0.0
 12
49.637817029021242
 22
12.39212067245292
 32
0.0
 13
49.637817029021242
 23
12.39212067245292
 33
0.0
  0
SOLID
  5
989
  8
DIM
 62
     0
 10
49.427817029021242
 20
14.277120672452909
 30
0.0
 11
49.847817029021243
 21
14.277120672452909
 31
0.0
 12
49.637817029021242
 22
13.01712067245291
 32
0.0
 13
49.637817029021242
 23
13.01712067245291
 33
0.0
  0
TEXT
  5
98A
  8
OBJECT
 62
     0
 10
51.52781702902125
 20
15.09962067245292
 30
0.0
 40
0.875
  1
0.625
 41
0.75
  7
TXT
  0
POINT
  5
98B
  8
DEFPOINTS
 62
     0
 10
32.675120191066938
 20
12.392120672452929
 30
0.0
  0
POINT
  5
98C
  8
DEFPOINTS
 62
     0
 10
32.675120191066938
 20
13.01712067245291
 30
0.0
  0
POINT
  5
98D
  8
DEFPOINTS
 62
     0
 10
49.637817029021242
 20
13.01712067245291
 30
0.0
  0
ENDBLK
  5
98F
  8
0
  0
BLOCK
  8
0
  2
*D41
 70
     1
 10
0.0
 20
0.0
 30
0.0
  3
*D41
  1

  0
LINE
  5
991
  8
DIM
 62
     0
 10
14.438120191067251
 20
14.333120672452919
 30
0.0
 11
14.438120191067251
 21
18.36212156163899
 31
0.0
  0
LINE
  5
992
  8
DIM
 62
     0
 10
32.313120191066929
 20
14.333120672452919
 30
0.0
 11
32.313120191066929
 21
18.36212156163899
 31
0.0
  0
LINE
  5
993
  8
DIM
 62
     0
 10
15.69812019106725
 20
17.71112156163899
 30
0.0
 11
20.177581261779022
 21
17.71112156163899
 31
0.0
  0
LINE
  5
994
  8
DIM
 62
     0
 10
31.053120191066931
 20
17.71112156163899
 30
0.0
 11
24.50008126177902
 21
17.71112156163899
 31
0.0
  0
SOLID
  5
995
  8
DIM
 62
     0
 10
15.69812019106725
 20
17.921121561638991
 30
0.0
 11
15.69812019106725
 21
17.501121561638989
 31
0.0
 12
14.438120191067251
 22
17.71112156163899
 32
0.0
 13
14.438120191067251
 23
17.71112156163899
 33
0.0
  0
SOLID
  5
996
  8
DIM
 62
     0
 10
31.053120191066931
 20
17.921121561638991
 30
0.0
 11
31.053120191066931
 21
17.501121561638989
 31
0.0
 12
32.313120191066929
 22
17.71112156163899
 32
0.0
 13
32.313120191066929
 23
17.71112156163899
 33
0.0
  0
TEXT
  5
997
  8
OBJECT
 62
     0
 10
20.807581261779021
 20
17.273621561638979
 30
0.0
 40
0.875
  1
17.875
 41
0.75
  7
TXT
  0
POINT
  5
998
  8
DEFPOINTS
 62
     0
 10
14.438120191067251
 20
13.89212067245292
 30
0.0
  0
POINT
  5
999
  8
DEFPOINTS
 62
     0
 10
32.313120191066929
 20
13.89212067245292
 30
0.0
  0
POINT
  5
99A
  8
DEFPOINTS
 62
     0
 10
32.313120191066929
 20
17.71112156163899
 30
0.0
  0
ENDBLK
  5
99C
  8
0
  0
ENDSEC
  0
SECTION
  2
ENTITIES
  0
LINE
  5
14D
  8
HIDDEN
 10
61.12405058001054
 20
56.21572063016756
 30
0.0
 11
61.576050580010531
 21
55.763720630167562
 31
0.0
  0
LINE
  5
14E
  8
HIDDEN
 10
61.63805058001055
 20
55.825720630167552
 30
0.0
 11
61.13805058001055
 21
56.325720630167552
 31
0.0
  0
LINE
  5
14F
  8
HIDDEN
 10
61.076050580010538
 20
56.21572063016756
 30
0.0
 11
61.076050580010538
 21
47.825720630167559
 31
0.0
  0
LINE
  5
150
  8
HIDDEN
 10
61.202050580010543
 20
56.325720630167567
 30
0.0
 11
61.202050580010543
 21
56.21572063016756
 31
0.0
  0
LINE
  5
151
  8
HIDDEN
 10
61.576050580010531
 20
55.763720630167562
 30
0.0
 11
61.576050580010531
 21
47.825720630167559
 31
0.0
  0
LINE
  5
152
  8
HIDDEN
 10
74.890050580010524
 20
55.825720630167552
 30
0.0
 11
61.63805058001055
 21
55.825720630167552
 31
0.0
  0
LINE
  5
153
  8
HIDDEN
 10
75.014050580010519
 20
56.325720630167552
 30
0.0
 11
61.138050580010528
 21
56.325720630167567
 31
0.0
  0
LINE
  5
154
  8
HIDDEN
 10
61.202050580010543
 20
56.21572063016756
 30
0.0
 11
61.076050580010538
 21
56.21572063016756
 31
0.0
  0
LINE
  5
155
  8
HIDDEN
 10
61.138050580010528
 20
56.325720630167567
 30
0.0
 11
61.138050580010528
 21
47.825720630167559
 31
0.0
  0
LINE
  5
156
  8
HIDDEN
 10
74.952050580010535
 20
56.263720630167562
 30
0.0
 11
61.21705058001055
 21
56.263720630167562
 31
0.0
  0
LINE
  5
157
  8
HIDDEN
 10
61.200050580010547
 20
55.575720630167538
 30
0.0
 11
61.138050580010528
 21
55.575720630167538
 31
0.0
  0
LINE
  5
158
  8
HIDDEN
 10
61.200050580010533
 20
56.21572063016756
 30
0.0
 11
61.200050580010547
 21
55.575720630167538
 31
0.0
  0
LINE
  5
159
  8
HIDDEN
 10
75.014050580010519
 20
56.325720630167552
 30
0.0
 11
75.014050580010519
 21
47.825720630167538
 31
0.0
  0
LINE
  5
15A
  8
HIDDEN
 10
75.076050580010531
 20
56.21572063016756
 30
0.0
 11
75.076050580010531
 21
47.825720630167559
 31
0.0
  0
LINE
  5
15B
  8
HIDDEN
 10
74.952050580010535
 20
56.263720630167562
 30
0.0
 11
74.952050580010535
 21
55.575720630167538
 31
0.0
  0
LINE
  5
15C
  8
HIDDEN
 10
74.950050580010526
 20
56.325720630167567
 30
0.0
 11
74.950050580010526
 21
56.21572063016756
 31
0.0
  0
LINE
  5
15D
  8
HIDDEN
 10
74.950050580010526
 20
56.21572063016756
 30
0.0
 11
75.076050580010531
 21
56.21572063016756
 31
0.0
  0
LINE
  5
15E
  8
HIDDEN
 10
74.952050580010535
 20
55.575720630167538
 30
0.0
 11
75.014050580010519
 21
55.575720630167538
 31
0.0
  0
LINE
  5
15F
  8
HIDDEN
 10
74.890050580010524
 20
56.325720630167552
 30
0.0
 11
74.890050580010524
 21
55.825720630167552
 31
0.0
  0
LINE
  5
160
  8
OBJECT
 10
31.875620191067089
 20
13.579120672452779
 30
0.0
 11
14.87562019106711
 21
13.579120672452779
 31
0.0
  0
LINE
  5
161
  8
HIDDEN
 10
31.751620191067079
 20
13.517120672452791
 30
0.0
 11
14.9996201910671
 21
13.51712067245276
 31
0.0
  0
LINE
  5
162
  8
HIDDEN
 10
31.813620191067081
 20
10.64112067245277
 30
0.0
 11
14.93762019106709
 21
10.64112067245277
 31
0.0
  0
LINE
  5
163
  8
OBJECT
 10
31.875620191067078
 20
10.57912067245279
 30
0.0
 11
14.87562019106711
 21
10.57912067245276
 31
0.0
  0
LINE
  5
164
  8
HIDDEN
 10
31.813620191067081
 20
13.517120672452791
 30
0.0
 11
31.813620191067081
 21
10.64112067245277
 31
0.0
  0
LINE
  5
165
  8
OBJECT
 10
31.875620191067089
 20
13.579120672452779
 30
0.0
 11
31.875620191067078
 21
10.57912067245279
 31
0.0
  0
LINE
  5
166
  8
OBJECT
 10
31.875620191067089
 20
13.517120672452791
 30
0.0
 11
31.765620191067072
 21
13.517120672452791
 31
0.0
  0
LINE
  5
167
  8
HIDDEN
 10
31.125620191067078
 20
10.68812067245277
 30
0.0
 11
31.875620191067078
 21
10.68812067245277
 31
0.0
  0
LINE
  5
168
  8
OBJECT
 10
31.765620191067072
 20
13.579120672452779
 30
0.0
 11
31.765620191067072
 21
10.57912067245279
 31
0.0
  0
LINE
  5
169
  8
HIDDEN
 10
31.125620191067078
 20
13.517120672452791
 30
0.0
 11
31.125620191067078
 21
10.68812067245277
 31
0.0
  0
LINE
  5
16A
  8
HIDDEN
 10
14.905620191067049
 20
25.33150410626515
 30
0.0
 11
15.62562019106705
 21
25.33150410626515
 31
0.0
  0
LINE
  5
16B
  8
HIDDEN
 10
14.87562019106705
 20
28.222504106265148
 30
0.0
 11
15.62562019106705
 21
27.472504106265148
 31
0.0
  0
LINE
  5
16C
  8
HIDDEN
 10
14.87562019106705
 20
28.222504106265148
 30
0.0
 11
14.87562019106705
 21
25.222504106265141
 31
0.0
  0
LINE
  5
16D
  8
HIDDEN
 10
31.875620191067078
 20
28.222504106265148
 30
0.0
 11
14.87562019106705
 21
28.222504106265148
 31
0.0
  0
LINE
  5
16E
  8
HIDDEN
 10
31.875620191067078
 20
25.222504106265141
 30
0.0
 11
14.87562019106705
 21
25.222504106265141
 31
0.0
  0
LINE
  5
16F
  8
HIDDEN
 10
14.93762019106706
 20
28.160504106265162
 30
0.0
 11
14.93762019106706
 21
25.284504106265128
 31
0.0
  0
LINE
  5
170
  8
HIDDEN
 10
31.813620191067081
 20
28.160504106265162
 30
0.0
 11
14.93762019106706
 21
28.160504106265162
 31
0.0
  0
LINE
  5
171
  8
HIDDEN
 10
31.813620191067081
 20
25.284504106265128
 30
0.0
 11
14.93762019106706
 21
25.284504106265128
 31
0.0
  0
LINE
  5
172
  8
HIDDEN
 10
15.62562019106705
 20
27.472504106265148
 30
0.0
 11
15.62562019106705
 21
25.33150410626515
 31
0.0
  0
LINE
  5
173
  8
HIDDEN
 10
14.87562019106705
 20
25.269504106265131
 30
0.0
 11
14.985620191067071
 21
25.269504106265131
 31
0.0
  0
LINE
  5
174
  8
HIDDEN
 10
15.62562019106708
 20
13.517120672452791
 30
0.0
 11
15.62562019106711
 21
10.68812067245277
 31
0.0
  0
LINE
  5
175
  8
OBJECT
 10
14.87562019106711
 20
13.579120672452779
 30
0.0
 11
14.87562019106711
 21
10.57912067245276
 31
0.0
  0
LINE
  5
176
  8
HIDDEN
 10
14.93762019106709
 20
13.517120672452791
 30
0.0
 11
14.93762019106709
 21
10.64112067245277
 31
0.0
  0
LINE
  5
177
  8
HIDDEN
 10
46.20005058001054
 20
40.075720630167567
 30
0.0
 11
46.138050580010528
 21
40.075720630167567
 31
0.0
  0
LINE
  5
178
  8
HIDDEN
 10
46.202050580010543
 20
39.435720630167552
 30
0.0
 11
46.076050580010538
 21
39.435720630167573
 31
0.0
  0
LINE
  5
179
  8
HIDDEN
 10
46.63805058001055
 20
39.825720630167567
 30
0.0
 11
46.138050580010542
 21
39.325720630167567
 31
0.0
  0
LINE
  5
17A
  8
HIDDEN
 10
46.12405058001054
 20
39.435720630167573
 30
0.0
 11
46.576050580010531
 21
39.887720630167571
 31
0.0
  0
LINE
  5
17B
  8
HIDDEN
 10
31.125620191067078
 20
27.472504106265148
 30
0.0
 11
31.125620191067078
 21
25.33150410626515
 31
0.0
  0
LINE
  5
17C
  8
HIDDEN
 10
31.813620191067081
 20
28.160504106265162
 30
0.0
 11
31.813620191067081
 21
25.284504106265128
 31
0.0
  0
LINE
  5
17D
  8
HIDDEN
 10
31.875620191067078
 20
28.222504106265148
 30
0.0
 11
31.875620191067078
 21
25.222504106265141
 31
0.0
  0
LINE
  5
17E
  8
HIDDEN
 10
31.84562019106707
 20
25.33150410626515
 30
0.0
 11
31.125620191067078
 21
25.33150410626515
 31
0.0
  0
LINE
  5
17F
  8
HIDDEN
 10
31.875620191067078
 20
25.269504106265131
 30
0.0
 11
31.765620191067061
 21
25.269504106265131
 31
0.0
  0
LINE
  5
180
  8
HIDDEN
 10
31.875620191067078
 20
28.222504106265148
 30
0.0
 11
31.125620191067078
 21
27.472504106265148
 31
0.0
  0
LINE
  5
181
  8
HIDDEN
 10
59.952050580010528
 20
39.387720630167571
 30
0.0
 11
46.217050580010543
 21
39.387720630167571
 31
0.0
  0
LINE
  5
182
  8
HIDDEN
 10
59.890050580010531
 20
39.825720630167567
 30
0.0
 11
46.63805058001055
 21
39.825720630167567
 31
0.0
  0
LINE
  5
183
  8
HIDDEN
 10
46.200050580010533
 20
39.435720630167573
 30
0.0
 11
46.20005058001054
 21
40.075720630167567
 31
0.0
  0
LINE
  5
184
  8
HIDDEN
 10
46.202050580010543
 20
39.325720630167559
 30
0.0
 11
46.202050580010543
 21
39.435720630167552
 31
0.0
  0
LINE
  5
185
  8
HIDDEN
 10
59.890050580010531
 20
39.325720630167567
 30
0.0
 11
59.890050580010531
 21
39.825720630167567
 31
0.0
  0
LINE
  5
186
  8
HIDDEN
 10
59.952050580010528
 20
39.387720630167571
 30
0.0
 11
59.952050580010528
 21
40.075720630167567
 31
0.0
  0
LINE
  5
187
  8
HIDDEN
 10
59.950050580010533
 20
39.435720630167552
 30
0.0
 11
60.076050580010516
 21
39.435720630167573
 31
0.0
  0
LINE
  5
188
  8
HIDDEN
 10
59.950050580010533
 20
39.325720630167559
 30
0.0
 11
59.950050580010533
 21
39.435720630167552
 31
0.0
  0
LINE
  5
189
  8
HIDDEN
 10
59.952050580010528
 20
40.075720630167567
 30
0.0
 11
60.014050580010519
 21
40.075720630167567
 31
0.0
  0
LINE
  5
18A
  8
HIDDEN
 10
15.62562019106711
 20
10.68812067245277
 30
0.0
 11
14.87562019106711
 21
10.68812067245277
 31
0.0
  0
LINE
  5
18B
  8
OBJECT
 10
14.98562019106709
 20
13.579120672452779
 30
0.0
 11
14.98562019106709
 21
10.57912067245279
 31
0.0
  0
LINE
  5
18C
  8
OBJECT
 10
14.87562019106708
 20
13.517120672452791
 30
0.0
 11
14.98562019106709
 21
13.517120672452791
 31
0.0
  0
LINE
  5
18D
  8
HIDDEN
 10
14.985620191067071
 20
28.222504106265148
 30
0.0
 11
14.985620191067071
 21
25.222504106265141
 31
0.0
  0
LINE
  5
18E
  8
HIDDEN
 10
31.765620191067061
 20
28.222504106265148
 30
0.0
 11
31.765620191067061
 21
25.222504106265141
 31
0.0
  0
LINE
  5
18F
  8
OBJECT
 10
46.232050580010537
 20
28.222504106265141
 30
0.0
 11
46.138050580010528
 21
28.12850410626514
 31
0.0
  0
LINE
  5
190
  8
OBJECT
 10
46.202050580010528
 20
25.33150410626515
 30
0.0
 11
46.138050580010521
 21
25.33150410626514
 31
0.0
  0
LINE
  5
191
  8
OBJECT
 10
46.138050580010528
 20
28.160504106265151
 30
0.0
 11
46.138050580010521
 21
25.284504106265128
 31
0.0
  0
LINE
  5
192
  8
OBJECT
 10
60.076050580010538
 20
28.222504106265148
 30
0.0
 11
60.01405058001054
 21
28.222504106265148
 31
0.0
  0
LINE
  5
193
  8
OBJECT
 10
60.076050580010516
 20
25.222504106265131
 30
0.0
 11
46.076050580010516
 21
25.222504106265141
 31
0.0
  0
LINE
  5
194
  8
OBJECT
 10
46.202050580010528
 20
25.33150410626515
 30
0.0
 11
46.202050580010528
 21
25.222504106265141
 31
0.0
  0
LINE
  5
195
  8
OBJECT
 10
60.01405058001054
 20
28.222504106265148
 30
0.0
 11
60.014050580010519
 21
27.22258498516468
 31
0.0
  0
LINE
  5
196
  8
OBJECT
 10
59.950050580010533
 20
25.33150410626515
 30
0.0
 11
59.950050580010533
 21
25.222504106265141
 31
0.0
  0
LINE
  5
197
  8
OBJECT
 10
59.950050580010533
 20
25.33150410626515
 30
0.0
 11
60.014050580010519
 21
25.33150410626515
 31
0.0
  0
LINE
  5
198
  8
OBJECT
 10
59.890050580010531
 20
28.16050410626513
 30
0.0
 11
59.890050580010531
 21
28.222504106265148
 31
0.0
  0
LINE
  5
199
  8
OBJECT
 10
60.01405058001054
 20
28.16050410626513
 30
0.0
 11
59.890050580010531
 21
28.16050410626513
 31
0.0
  0
LINE
  5
19A
  8
HIDDEN
 10
59.952050580010528
 20
28.160504106265119
 30
0.0
 11
59.952050580010528
 21
25.33150410626514
 31
0.0
  0
LINE
  5
19B
  8
HIDDEN
 10
59.890050580010531
 20
28.160504106265162
 30
0.0
 11
46.138050580010528
 21
28.160504106265151
 31
0.0
  0
LINE
  5
19C
  8
HIDDEN
 10
60.014050580010519
 20
25.284504106265128
 30
0.0
 11
46.138050580010521
 21
25.284504106265128
 31
0.0
  0
LINE
  5
19D
  8
HIDDEN
 10
46.200050580010533
 20
28.160504106265151
 30
0.0
 11
46.200050580010512
 21
25.33150410626515
 31
0.0
  0
LINE
  5
19E
  8
OBJECT
 10
60.076050580010538
 20
28.222504106265148
 30
0.0
 11
60.076050580010516
 21
27.22258498516468
 31
0.0
  0
LINE
  5
19F
  8
OBJECT
 10
59.890050580010531
 20
28.222504106265159
 30
0.0
 11
46.076050580010516
 21
28.222504106265141
 31
0.0
  0
LINE
  5
1A0
  8
OBJECT
 10
46.076050580010516
 20
28.28550410626514
 30
0.0
 11
46.076050580010516
 21
25.051504106265149
 31
0.0
  0
CIRCLE
  5
1A1
  8
HIDDEN
 10
16.875620191067078
 20
26.785504106265151
 30
0.0
 40
0.109
  0
CIRCLE
  5
1A2
  8
HIDDEN
 10
29.875620191067078
 20
26.785504106265151
 30
0.0
 40
0.109
  0
POLYLINE
  5
1A3
  8
HIDDEN
 66
     1
 10
0.0
 20
0.0
 30
0.0
 70
     1
  0
VERTEX
  5
9A7
  8
HIDDEN
 10
25.625620191067078
 20
25.660504106265162
 30
0.0
  0
VERTEX
  5
9A8
  8
HIDDEN
 10
25.625620191067078
 20
27.535504106265162
 30
0.0
  0
VERTEX
  5
9A9
  8
HIDDEN
 10
21.125620191067078
 20
27.535504106265162
 30
0.0
  0
VERTEX
  5
9AA
  8
HIDDEN
 10
21.125620191067078
 20
25.660504106265162
 30
0.0
  0
SEQEND
  5
9AB
  8
HIDDEN
  0
POLYLINE
  5
1A9
  8
OBJECT
  6
HIDDEN
 62
     4
 66
     1
 10
0.0
 20
0.0
 30
0.0
 70
     1
  0
VERTEX
  5
9AC
  8
OBJECT
  6
HIDDEN
 62
     4
 10
25.625620191067078
 20
25.676504106265149
 30
0.0
  0
VERTEX
  5
9AD
  8
OBJECT
  6
HIDDEN
 62
     4
 10
25.625620191067078
 20
27.176504106265138
 30
0.0
  0
VERTEX
  5
9AE
  8
OBJECT
  6
HIDDEN
 62
     4
 10
21.125620191067078
 20
27.176504106265138
 30
0.0
  0
VERTEX
  5
9AF
  8
OBJECT
  6
HIDDEN
 62
     4
 10
21.125620191067078
 20
25.676504106265149
 30
0.0
  0
SEQEND
  5
9B0
  8
OBJECT
  6
HIDDEN
 62
     4
  0
POLYLINE
  5
1AF
  8
OBJECT
 62
     4
 66
     1
 10
0.0
 20
0.0
 30
0.0
 70
     1
  0
VERTEX
  5
9B1
  8
OBJECT
 62
     4
 10
13.87562019106708
 20
28.519504106265149
 30
0.0
  0
VERTEX
  5
9B2
  8
OBJECT
 62
     4
 10
13.87562019106708
 20
25.051504106265149
 30
0.0
  0
VERTEX
  5
9B3
  8
OBJECT
 62
     4
 10
32.875620191067092
 20
25.051504106265149
 30
0.0
  0
VERTEX
  5
9B4
  8
OBJECT
 62
     4
 10
32.875620191067078
 20
28.519504106265149
 30
0.0
  0
SEQEND
  5
9B5
  8
OBJECT
 62
     4
  0
POLYLINE
  5
1B5
  8
OBJECT
 62
    11
 66
     1
 10
0.0
 20
0.0
 30
0.0
 70
     1
  0
VERTEX
  5
9B6
  8
OBJECT
 62
    11
 10
46.098050580010543
 20
28.269504106265138
 30
0.0
  0
VERTEX
  5
9B7
  8
OBJECT
 62
    11
 10
46.098050580010543
 20
28.389504106265139
 30
0.0
  0
VERTEX
  5
9B8
  8
OBJECT
 62
    11
 10
60.036050580010539
 20
28.389504106265139
 30
0.0
  0
VERTEX
  5
9B9
  8
OBJECT
 62
    11
 10
60.036050580010532
 20
28.269504106265138
 30
0.0
  0
SEQEND
  5
9BA
  8
OBJECT
 62
    11
  0
POLYLINE
  5
1BB
  8
OBJECT
 62
    12
 66
     1
 10
0.0
 20
0.0
 30
0.0
  0
VERTEX
  5
9BB
  8
OBJECT
 62
    12
 10
60.11605058001053
 20
28.242393080755871
 30
0.0
  0
VERTEX
  5
9BC
  8
OBJECT
 62
    12
 10
60.11605058001053
 20
27.783504106265148
 30
0.0
  0
VERTEX
  5
9BD
  8
OBJECT
 62
    12
 10
60.076050580010538
 20
27.783504106265148
 30
0.0
  0
VERTEX
  5
9BE
  8
OBJECT
 62
    12
 10
60.076050580010538
 20
28.314504106265151
 30
0.0
  0
SEQEND
  5
9BF
  8
OBJECT
 62
    12
  0
CIRCLE
  5
1C1
  8
OBJECT
 62
    12
 10
60.161050580010532
 20
28.31450410626514
 30
0.0
 40
0.045
  0
POLYLINE
  5
1C2
  8
OBJECT
 62
    12
 66
     1
 10
0.0
 20
0.0
 30
0.0
  0
VERTEX
  5
9C0
  8
OBJECT
 62
    12
 10
60.088939554501259
 20
28.269504106265138
 30
0.0
 42
-3.8643284505408948
  0
VERTEX
  5
9C1
  8
OBJECT
 62
    12
 10
60.161050580010532
 20
28.229504106265139
 30
0.0
  0
VERTEX
  5
9C2
  8
OBJECT
 62
    12
 10
59.630050580010519
 20
28.229504106265139
 30
0.0
  0
VERTEX
  5
9C3
  8
OBJECT
 62
    12
 10
59.630050580010519
 20
28.269504106265138
 30
0.0
  0
VERTEX
  5
9C4
  8
OBJECT
 62
    12
 10
60.161050580010532
 20
28.269504106265138
 30
0.0
  0
SEQEND
  5
9C5
  8
OBJECT
 62
    12
  0
LINE
  5
1C9
  8
OBJECT
 62
    12
 10
75.246050580010547
 20
55.497720630167542
 30
0.0
 11
74.630050580010561
 21
55.497720630167542
 31
0.0
  0
LINE
  5
1CA
  8
HIDDEN
 62
    12
 10
74.630050580010561
 20
55.497720630167542
 30
0.0
 11
74.630050580010561
 21
47.825720630167559
 31
0.0
  0
LINE
  5
1CB
  8
OBJECT
 62
    12
 10
59.630050580010547
 20
40.153720630167562
 30
0.0
 11
60.246050580010547
 21
40.153720630167562
 31
0.0
  0
LINE
  5
1CC
  8
OBJECT
 62
    12
 10
75.246050580010547
 20
55.497720630167542
 30
0.0
 11
75.246050580010547
 21
47.825720630167559
 31
0.0
  0
LINE
  5
1CD
  8
OBJECT
 62
    12
 10
75.076050580010559
 20
55.497720630167542
 30
0.0
 11
75.076050580010559
 21
47.825720630167559
 31
0.0
  0
LINE
  5
1CE
  8
OBJECT
 62
    12
 10
75.246050580010547
 20
55.325720630167538
 30
0.0
 11
75.076050580010559
 21
55.325720630167538
 31
0.0
  0
LINE
  5
1CF
  8
OBJECT
 62
    12
 10
75.246050580010547
 20
54.825720630167538
 30
0.0
 11
75.076050580010559
 21
54.825720630167538
 31
0.0
  0
LINE
  5
1D0
  8
OBJECT
 62
    12
 10
75.246050580010547
 20
54.325720630167538
 30
0.0
 11
75.076050580010559
 21
54.325720630167538
 31
0.0
  0
LINE
  5
1D1
  8
OBJECT
 62
    12
 10
75.246050580010547
 20
53.825720630167552
 30
0.0
 11
75.076050580010559
 21
53.825720630167552
 31
0.0
  0
LINE
  5
1D2
  8
OBJECT
 62
    12
 10
75.246050580010547
 20
53.325720630167552
 30
0.0
 11
75.076050580010559
 21
53.325720630167552
 31
0.0
  0
LINE
  5
1D3
  8
OBJECT
 62
    12
 10
75.246050580010547
 20
52.825720630167538
 30
0.0
 11
75.076050580010559
 21
52.825720630167538
 31
0.0
  0
LINE
  5
1D4
  8
OBJECT
 62
    12
 10
75.246050580010547
 20
52.325720630167538
 30
0.0
 11
75.076050580010559
 21
52.325720630167538
 31
0.0
  0
LINE
  5
1D5
  8
OBJECT
 62
    12
 10
75.246050580010547
 20
51.825720630167538
 30
0.0
 11
75.076050580010559
 21
51.825720630167538
 31
0.0
  0
LINE
  5
1D6
  8
OBJECT
 62
    12
 10
75.246050580010547
 20
51.325720630167552
 30
0.0
 11
75.076050580010559
 21
51.325720630167552
 31
0.0
  0
LINE
  5
1D7
  8
OBJECT
 62
    12
 10
75.246050580010547
 20
50.825720630167552
 30
0.0
 11
75.076050580010559
 21
50.825720630167552
 31
0.0
  0
LINE
  5
1D8
  8
OBJECT
 62
    12
 10
75.246050580010547
 20
50.325720630167538
 30
0.0
 11
75.076050580010559
 21
50.325720630167538
 31
0.0
  0
LINE
  5
1D9
  8
OBJECT
 62
    12
 10
75.246050580010547
 20
49.825720630167538
 30
0.0
 11
75.076050580010559
 21
49.825720630167538
 31
0.0
  0
LINE
  5
1DA
  8
OBJECT
 62
    12
 10
75.246050580010547
 20
49.325720630167538
 30
0.0
 11
75.076050580010559
 21
49.325720630167538
 31
0.0
  0
LINE
  5
1DB
  8
OBJECT
 62
    12
 10
75.246050580010547
 20
48.825720630167552
 30
0.0
 11
75.076050580010559
 21
48.825720630167552
 31
0.0
  0
LINE
  5
1DC
  8
OBJECT
 62
    12
 10
75.246050580010547
 20
48.325720630167552
 30
0.0
 11
75.076050580010559
 21
48.325720630167552
 31
0.0
  0
LINE
  5
1DD
  8
OBJECT
 62
    12
 10
75.246050580010547
 20
47.825720630167538
 30
0.0
 11
75.076050580010559
 21
47.825720630167538
 31
0.0
  0
LINE
  5
1DE
  8
OBJECT
 62
    12
 10
60.246050580010532
 20
47.325720630167538
 30
0.0
 11
60.076050580010552
 21
47.325720630167538
 31
0.0
  0
LINE
  5
1DF
  8
OBJECT
 62
    12
 10
60.246050580010532
 20
46.825720630167552
 30
0.0
 11
60.076050580010552
 21
46.825720630167552
 31
0.0
  0
LINE
  5
1E0
  8
OBJECT
 62
    12
 10
60.246050580010532
 20
46.325720630167552
 30
0.0
 11
60.076050580010552
 21
46.325720630167552
 31
0.0
  0
LINE
  5
1E1
  8
OBJECT
 62
    12
 10
60.246050580010532
 20
45.825720630167552
 30
0.0
 11
60.076050580010552
 21
45.825720630167552
 31
0.0
  0
LINE
  5
1E2
  8
OBJECT
 62
    12
 10
60.246050580010532
 20
45.325720630167559
 30
0.0
 11
60.076050580010552
 21
45.325720630167559
 31
0.0
  0
LINE
  5
1E3
  8
OBJECT
 62
    12
 10
60.246050580010532
 20
44.825720630167559
 30
0.0
 11
60.076050580010552
 21
44.825720630167559
 31
0.0
  0
LINE
  5
1E4
  8
OBJECT
 62
    12
 10
60.246050580010532
 20
44.325720630167552
 30
0.0
 11
60.076050580010552
 21
44.325720630167552
 31
0.0
  0
LINE
  5
1E5
  8
OBJECT
 62
    12
 10
60.246050580010532
 20
43.825720630167552
 30
0.0
 11
60.076050580010552
 21
43.825720630167552
 31
0.0
  0
LINE
  5
1E6
  8
OBJECT
 62
    12
 10
60.246050580010532
 20
43.325720630167559
 30
0.0
 11
60.076050580010552
 21
43.325720630167559
 31
0.0
  0
LINE
  5
1E7
  8
OBJECT
 62
    12
 10
60.246050580010532
 20
42.825720630167559
 30
0.0
 11
60.076050580010552
 21
42.825720630167559
 31
0.0
  0
LINE
  5
1E8
  8
OBJECT
 62
    12
 10
60.246050580010532
 20
42.325720630167559
 30
0.0
 11
60.076050580010552
 21
42.325720630167559
 31
0.0
  0
LINE
  5
1E9
  8
OBJECT
 62
    12
 10
60.246050580010532
 20
41.825720630167552
 30
0.0
 11
60.076050580010552
 21
41.825720630167552
 31
0.0
  0
LINE
  5
1EA
  8
OBJECT
 62
    12
 10
60.246050580010532
 20
41.325720630167552
 30
0.0
 11
60.076050580010552
 21
41.325720630167552
 31
0.0
  0
LINE
  5
1EB
  8
OBJECT
 62
    12
 10
60.246050580010532
 20
40.825720630167559
 30
0.0
 11
60.076050580010552
 21
40.825720630167559
 31
0.0
  0
LINE
  5
1EC
  8
OBJECT
 62
    12
 10
60.246050580010532
 20
40.325720630167559
 30
0.0
 11
60.076050580010552
 21
40.325720630167559
 31
0.0
  0
LINE
  5
1ED
  8
OBJECT
 62
    12
 10
15.70362019106711
 20
13.140120672452779
 30
0.0
 11
31.047620191067079
 21
13.140120672452779
 31
0.0
  0
LINE
  5
1EE
  8
OBJECT
 62
    12
 10
31.047620191067079
 20
13.586120672452781
 30
0.0
 11
15.70362019106711
 21
13.586120672452781
 31
0.0
  0
LINE
  5
1EF
  8
OBJECT
 62
    12
 10
31.047620191067111
 20
13.7561206724528
 30
0.0
 11
15.70362019106711
 21
13.7561206724528
 31
0.0
  0
LINE
  5
1F0
  8
OBJECT
 62
    12
 10
31.047620191067079
 20
13.140120672452779
 30
0.0
 11
31.047620191067111
 21
13.7561206724528
 31
0.0
  0
LINE
  5
1F1
  8
OBJECT
 62
    12
 10
30.875620191067078
 20
13.586120672452781
 30
0.0
 11
30.875620191067078
 21
13.75612067245277
 31
0.0
  0
LINE
  5
1F2
  8
OBJECT
 62
    12
 10
30.375620191067078
 20
13.586120672452781
 30
0.0
 11
30.375620191067078
 21
13.75612067245277
 31
0.0
  0
LINE
  5
1F3
  8
OBJECT
 62
    12
 10
29.875620191067078
 20
13.586120672452781
 30
0.0
 11
29.875620191067078
 21
13.75612067245277
 31
0.0
  0
LINE
  5
1F4
  8
OBJECT
 62
    12
 10
29.375620191067078
 20
13.586120672452781
 30
0.0
 11
29.375620191067078
 21
13.75612067245277
 31
0.0
  0
LINE
  5
1F5
  8
OBJECT
 62
    12
 10
28.875620191067078
 20
13.586120672452781
 30
0.0
 11
28.875620191067078
 21
13.75612067245277
 31
0.0
  0
LINE
  5
1F6
  8
OBJECT
 62
    12
 10
28.375620191067078
 20
13.586120672452781
 30
0.0
 11
28.375620191067078
 21
13.75612067245277
 31
0.0
  0
LINE
  5
1F7
  8
OBJECT
 62
    12
 10
27.875620191067078
 20
13.586120672452781
 30
0.0
 11
27.875620191067078
 21
13.75612067245277
 31
0.0
  0
LINE
  5
1F8
  8
OBJECT
 62
    12
 10
27.375620191067078
 20
13.586120672452781
 30
0.0
 11
27.375620191067078
 21
13.75612067245277
 31
0.0
  0
LINE
  5
1F9
  8
OBJECT
 62
    12
 10
26.875620191067078
 20
13.586120672452781
 30
0.0
 11
26.875620191067078
 21
13.75612067245277
 31
0.0
  0
LINE
  5
1FA
  8
OBJECT
 62
    12
 10
26.375620191067078
 20
13.586120672452781
 30
0.0
 11
26.375620191067078
 21
13.75612067245277
 31
0.0
  0
LINE
  5
1FB
  8
OBJECT
 62
    12
 10
25.875620191067078
 20
13.586120672452781
 30
0.0
 11
25.875620191067078
 21
13.75612067245277
 31
0.0
  0
LINE
  5
1FC
  8
OBJECT
 62
    12
 10
25.375620191067078
 20
13.586120672452781
 30
0.0
 11
25.375620191067078
 21
13.75612067245277
 31
0.0
  0
LINE
  5
1FD
  8
OBJECT
 62
    12
 10
24.875620191067078
 20
13.586120672452781
 30
0.0
 11
24.875620191067078
 21
13.75612067245277
 31
0.0
  0
LINE
  5
1FE
  8
OBJECT
 62
    12
 10
24.375620191067078
 20
13.586120672452781
 30
0.0
 11
24.375620191067078
 21
13.75612067245277
 31
0.0
  0
LINE
  5
1FF
  8
OBJECT
 62
    12
 10
23.875620191067078
 20
13.586120672452781
 30
0.0
 11
23.875620191067078
 21
13.75612067245277
 31
0.0
  0
LINE
  5
200
  8
OBJECT
 62
    12
 10
23.375620191067078
 20
13.586120672452781
 30
0.0
 11
23.375620191067078
 21
13.75612067245277
 31
0.0
  0
LINE
  5
201
  8
OBJECT
 62
    12
 10
22.875620191067078
 20
13.586120672452781
 30
0.0
 11
22.875620191067078
 21
13.75612067245277
 31
0.0
  0
LINE
  5
202
  8
OBJECT
 62
    12
 10
22.375620191067078
 20
13.586120672452781
 30
0.0
 11
22.375620191067078
 21
13.75612067245277
 31
0.0
  0
LINE
  5
203
  8
OBJECT
 62
    12
 10
21.875620191067078
 20
13.586120672452781
 30
0.0
 11
21.875620191067078
 21
13.75612067245277
 31
0.0
  0
LINE
  5
204
  8
OBJECT
 62
    12
 10
21.375620191067078
 20
13.586120672452781
 30
0.0
 11
21.375620191067078
 21
13.75612067245277
 31
0.0
  0
LINE
  5
205
  8
OBJECT
 62
    12
 10
20.875620191067078
 20
13.586120672452781
 30
0.0
 11
20.875620191067078
 21
13.75612067245277
 31
0.0
  0
LINE
  5
206
  8
OBJECT
 62
    12
 10
20.375620191067078
 20
13.586120672452781
 30
0.0
 11
20.375620191067078
 21
13.75612067245277
 31
0.0
  0
LINE
  5
207
  8
OBJECT
 62
    12
 10
19.87562019106711
 20
13.586120672452781
 30
0.0
 11
19.87562019106711
 21
13.75612067245277
 31
0.0
  0
LINE
  5
208
  8
OBJECT
 62
    12
 10
19.37562019106711
 20
13.586120672452781
 30
0.0
 11
19.37562019106711
 21
13.75612067245277
 31
0.0
  0
LINE
  5
209
  8
OBJECT
 62
    12
 10
18.87562019106711
 20
13.586120672452781
 30
0.0
 11
18.87562019106711
 21
13.75612067245277
 31
0.0
  0
LINE
  5
20A
  8
OBJECT
 62
    12
 10
18.37562019106711
 20
13.586120672452781
 30
0.0
 11
18.37562019106711
 21
13.75612067245277
 31
0.0
  0
LINE
  5
20B
  8
OBJECT
 62
    12
 10
17.87562019106711
 20
13.586120672452781
 30
0.0
 11
17.87562019106711
 21
13.75612067245277
 31
0.0
  0
LINE
  5
20C
  8
OBJECT
 62
    12
 10
17.37562019106711
 20
13.586120672452781
 30
0.0
 11
17.37562019106711
 21
13.75612067245277
 31
0.0
  0
LINE
  5
20D
  8
OBJECT
 62
    12
 10
16.87562019106711
 20
13.586120672452781
 30
0.0
 11
16.87562019106711
 21
13.75612067245277
 31
0.0
  0
LINE
  5
20E
  8
OBJECT
 62
    12
 10
16.37562019106711
 20
13.586120672452781
 30
0.0
 11
16.37562019106711
 21
13.75612067245277
 31
0.0
  0
LINE
  5
20F
  8
OBJECT
 62
    12
 10
15.70362019106711
 20
13.7561206724528
 30
0.0
 11
15.70362019106711
 21
13.140120672452779
 31
0.0
  0
LINE
  5
210
  8
OBJECT
 62
    12
 10
15.87562019106711
 20
13.586120672452781
 30
0.0
 11
15.87562019106711
 21
13.75612067245277
 31
0.0
  0
LINE
  5
211
  8
OBJECT
 62
    11
 10
32.000620191067092
 20
13.579120672452779
 30
0.0
 11
32.000620191067092
 21
13.793120672452829
 31
0.0
  0
LINE
  5
212
  8
OBJECT
 62
    11
 10
32.000620191067092
 20
13.746120672452779
 30
0.0
 11
31.047620191067079
 21
13.746120672452779
 31
0.0
  0
LINE
  5
213
  8
OBJECT
 62
    11
 10
31.047620191067111
 20
13.626120672452769
 30
0.0
 11
32.000620191067092
 21
13.626120672452769
 31
0.0
  0
LINE
  5
214
  8
OBJECT
 62
    11
 10
15.70362019106711
 20
13.746120672452779
 30
0.0
 11
14.75062019106711
 21
13.746120672452779
 31
0.0
  0
LINE
  5
215
  8
OBJECT
 62
    11
 10
14.75062019106711
 20
13.79312067245278
 30
0.0
 11
14.75062019106711
 21
13.579120672452779
 31
0.0
  0
LINE
  5
216
  8
OBJECT
 62
    11
 10
14.75062019106711
 20
13.626120672452769
 30
0.0
 11
15.70362019106711
 21
13.626120672452769
 31
0.0
  0
LINE
  5
217
  8
OBJECT
 62
    11
 10
32.000620191067092
 20
13.793120672452829
 30
0.0
 11
14.75062019106711
 21
13.79312067245278
 31
0.0
  0
LINE
  5
218
  8
OBJECT
 62
    11
 10
32.000620191067092
 20
13.579120672452779
 30
0.0
 11
31.875620191067089
 21
13.579120672452779
 31
0.0
  0
LINE
  5
219
  8
OBJECT
 62
    11
 10
14.75062019106711
 20
13.579120672452779
 30
0.0
 11
14.87562019106711
 21
13.579120672452779
 31
0.0
  0
CIRCLE
  5
21A
  8
HIDDEN
 10
73.826050580010531
 20
56.075720630167538
 30
0.0
 40
0.125
  0
CIRCLE
  5
21B
  8
HIDDEN
 10
59.576050580010516
 20
26.78550410626514
 30
0.0
 40
0.08
  0
CIRCLE
  5
21C
  8
HIDDEN
 10
59.076050580010531
 20
26.78550410626514
 30
0.0
 40
0.08
  0
CIRCLE
  5
21D
  8
HIDDEN
 10
58.826050580010516
 20
39.575720630167567
 30
0.0
 40
0.125
  0
CIRCLE
  5
21E
  8
HIDDEN
 10
29.750620191067078
 20
13.296120672452791
 30
0.0
 40
0.08
  0
CIRCLE
  5
21F
  8
HIDDEN
 62
    12
 10
29.750620191067078
 20
13.296120672452791
 30
0.0
 40
0.094
  0
CIRCLE
  5
220
  8
HIDDEN
 62
    12
 10
25.500620191067078
 20
13.296120672452791
 30
0.0
 40
0.094
  0
CIRCLE
  5
221
  8
HIDDEN
 10
25.500620191067078
 20
13.296120672452791
 30
0.0
 40
0.08
  0
CIRCLE
  5
222
  8
HIDDEN
 62
    12
 10
21.250620191067078
 20
13.296120672452791
 30
0.0
 40
0.094
  0
CIRCLE
  5
223
  8
HIDDEN
 10
21.250620191067078
 20
13.296120672452791
 30
0.0
 40
0.08
  0
CIRCLE
  5
224
  8
HIDDEN
 62
    12
 10
17.00062019106711
 20
13.296120672452791
 30
0.0
 40
0.094
  0
CIRCLE
  5
225
  8
HIDDEN
 10
17.00062019106711
 20
13.296120672452791
 30
0.0
 40
0.08
  0
POLYLINE
  5
226
  8
OBJECT
 62
    11
 66
     1
 10
0.0
 20
0.0
 30
0.0
  0
VERTEX
  5
9C6
  8
OBJECT
 62
    11
 10
46.098050580010543
 20
28.389504106265139
 30
0.0
  0
VERTEX
  5
9C7
  8
OBJECT
 62
    11
 10
46.098050580010543
 20
28.43650410626514
 30
0.0
  0
VERTEX
  5
9C8
  8
OBJECT
 62
    11
 10
60.036050580010539
 20
28.436504106265129
 30
0.0
  0
VERTEX
  5
9C9
  8
OBJECT
 62
    11
 10
60.036050580010539
 20
28.389504106265139
 30
0.0
  0
SEQEND
  5
9CA
  8
OBJECT
 62
    11
  0
POLYLINE
  5
22C
  8
OBJECT
 62
    11
 66
     1
 10
0.0
 20
0.0
 30
0.0
  0
VERTEX
  5
9CB
  8
OBJECT
 62
    11
 10
46.098050580010543
 20
28.269504106265138
 30
0.0
  0
VERTEX
  5
9CC
  8
OBJECT
 62
    11
 10
46.098050580010543
 20
28.222504106265141
 30
0.0
  0
VERTEX
  5
9CD
  8
OBJECT
 62
    11
 10
59.630050580010519
 20
28.222504106265148
 30
0.0
  0
VERTEX
  5
9CE
  8
OBJECT
 62
    11
 10
59.630050580010519
 20
28.269504106265138
 30
0.0
  0
SEQEND
  5
9CF
  8
OBJECT
 62
    11
  0
POLYLINE
  5
232
  8
HIDDEN
 66
     1
 10
0.0
 20
0.0
 30
0.0
  0
VERTEX
  5
9D0
  8
HIDDEN
 10
61.076050580010538
 20
54.243720630167552
 30
0.0
  0
VERTEX
  5
9D1
  8
HIDDEN
 10
61.451050580010531
 20
54.243720630167552
 30
0.0
  0
VERTEX
  5
9D2
  8
HIDDEN
 10
61.451050580010531
 20
54.407720630167539
 30
0.0
  0
VERTEX
  5
9D3
  8
HIDDEN
 10
61.076050580010538
 20
54.407720630167539
 30
0.0
  0
SEQEND
  5
9D4
  8
HIDDEN
  0
POLYLINE
  5
238
  8
HIDDEN
 66
     1
 10
0.0
 20
0.0
 30
0.0
  0
VERTEX
  5
9D5
  8
HIDDEN
 10
46.076050580010538
 20
41.407720630167553
 30
0.0
  0
VERTEX
  5
9D6
  8
HIDDEN
 10
46.451050580010531
 20
41.407720630167553
 30
0.0
  0
VERTEX
  5
9D7
  8
HIDDEN
 10
46.451050580010531
 20
41.243720630167552
 30
0.0
  0
VERTEX
  5
9D8
  8
HIDDEN
 10
46.076050580010538
 20
41.243720630167552
 30
0.0
  0
SEQEND
  5
9D9
  8
HIDDEN
  0
TEXT
  5
23E
  8
DIM
 10
71.824970464620904
 20
67.679533070491047
 30
0.0
 40
0.5
  1

  0
TEXT
  5
23F
  8
DIM
 10
54.402970464620907
 20
85.576226946852643
 30
0.0
 40
0.5
  1

  0
TEXT
  5
240
  8
DIM
 10
87.472149699846483
 20
80.094513754609579
 30
0.0
 40
0.5
  1

  0
TEXT
  5
241
  8
DIM
 10
89.999428064870614
 20
78.351030960031835
 30
0.0
 40
0.5
  1

  0
TEXT
  5
242
  8
DIM
 10
31.766405446747441
 20
58.725856820303122
 30
0.0
 40
0.5
  1

  0
TEXT
  5
243
  8
DIM
 10
41.825533180493601
 20
62.641877089419452
 30
0.0
 40
0.5
  1

  0
TEXT
  5
244
  8
DIM
 10
71.09658786364443
 20
72.748106465810437
 30
0.0
 40
0.5
  1

  0
TEXT
  5
245
  8
DIM
 10
52.346587863644451
 20
72.748106465810437
 30
0.0
 40
0.5
  1

  0
TEXT
  5
246
  8
DIM
 10
67.929921196977773
 20
64.604420233554166
 30
0.0
 40
0.5
  1

  0
TEXT
  5
247
  8
DIM
 10
298.99372245857222
 20
116.19763056625619
 30
0.0
 40
0.5
  1

  0
TEXT
  5
248
  8
DIM
 10
281.5717224585722
 20
134.09432444261779
 30
0.0
 40
0.5
  1

  0
TEXT
  5
249
  8
DIM
 10
314.64090169379767
 20
128.6126112503747
 30
0.0
 40
0.5
  1

  0
TEXT
  5
24A
  8
DIM
 10
317.16818005882192
 20
126.869128455797
 30
0.0
 40
0.5
  1

  0
TEXT
  5
24B
  8
DIM
 10
258.93515744069867
 20
107.2439543160682
 30
0.0
 40
0.5
  1

  0
TEXT
  5
24C
  8
DIM
 10
268.99428517444488
 20
111.1599745851846
 30
0.0
 40
0.5
  1

  0
TEXT
  5
24D
  8
DIM
 10
298.26533985759579
 20
121.2662039615755
 30
0.0
 40
0.5
  1

  0
TEXT
  5
24E
  8
DIM
 10
279.51533985759579
 20
121.2662039615755
 30
0.0
 40
0.5
  1

  0
TEXT
  5
24F
  8
DIM
 10
295.09867319092899
 20
113.1225177293193
 30
0.0
 40
0.5
  1

  0
TEXT
  5
250
  8
DIM
 10
185.87122267127299
 20
106.42690556980919
 30
0.0
 40
0.875
  1

 41
0.75
  7
TXT
 72
     2
 11
185.87122267127299
 21
106.86440556980919
 31
0.0
 73
     2
  0
LINE
  5
251
  8
OBJECT
 62
     2
 10
25.175620191067068
 20
26.12550410626514
 30
0.0
 11
21.57562019106707
 21
26.12550410626514
 31
0.0
  0
POLYLINE
  5
252
  8
HIDDEN
 62
     2
 66
     1
 10
0.0
 20
0.0
 30
0.0
 70
     1
  0
VERTEX
  5
9DA
  8
HIDDEN
 62
     2
 10
25.765620191067072
 20
27.868504106265139
 30
0.0
  0
VERTEX
  5
9DB
  8
HIDDEN
 62
     2
 10
25.765620191067072
 20
25.714504106265139
 30
0.0
 42
-0.4142135623730941
  0
VERTEX
  5
9DC
  8
HIDDEN
 62
     2
 10
25.577620191067052
 20
25.52650410626514
 30
0.0
  0
VERTEX
  5
9DD
  8
HIDDEN
 62
     2
 10
21.17362019106708
 20
25.52650410626514
 30
0.0
 42
-0.4142135623730951
  0
VERTEX
  5
9DE
  8
HIDDEN
 62
     2
 10
20.985620191067071
 20
25.714504106265139
 30
0.0
  0
VERTEX
  5
9DF
  8
HIDDEN
 62
     2
 10
20.985620191067071
 20
27.868504106265139
 30
0.0
 42
-0.4142135623730951
  0
VERTEX
  5
9E0
  8
HIDDEN
 62
     2
 10
21.17362019106708
 20
28.056504106265141
 30
0.0
  0
VERTEX
  5
9E1
  8
HIDDEN
 62
     2
 10
25.57762019106708
 20
28.056504106265141
 30
0.0
 42
-0.4142135623730956
  0
SEQEND
  5
9E2
  8
HIDDEN
 62
     2
  0
POLYLINE
  5
25C
  8
HIDDEN
 62
     2
 66
     1
 10
0.0
 20
0.0
 30
0.0
 70
     1
  0
VERTEX
  5
9E3
  8
HIDDEN
 62
     2
 10
25.675620191067068
 20
27.868504106265139
 30
0.0
  0
VERTEX
  5
9E4
  8
HIDDEN
 62
     2
 10
25.675620191067068
 20
25.714504106265139
 30
0.0
 42
-0.4142135623730773
  0
VERTEX
  5
9E5
  8
HIDDEN
 62
     2
 10
25.577620191067052
 20
25.61650410626514
 30
0.0
  0
VERTEX
  5
9E6
  8
HIDDEN
 62
     2
 10
21.17362019106708
 20
25.61650410626514
 30
0.0
 42
-0.4142135623730906
  0
VERTEX
  5
9E7
  8
HIDDEN
 62
     2
 10
21.07562019106707
 20
25.714504106265139
 30
0.0
  0
VERTEX
  5
9E8
  8
HIDDEN
 62
     2
 10
21.07562019106707
 20
27.868504106265139
 30
0.0
 42
-0.41421356237308
  0
VERTEX
  5
9E9
  8
HIDDEN
 62
     2
 10
21.17362019106708
 20
27.966504106265141
 30
0.0
  0
VERTEX
  5
9EA
  8
HIDDEN
 62
     2
 10
25.57762019106708
 20
27.966504106265141
 30
0.0
 42
-0.4142135623730879
  0
SEQEND
  5
9EB
  8
HIDDEN
 62
     2
  0
POLYLINE
  5
266
  8
OBJECT
 62
     2
 66
     1
 10
0.0
 20
0.0
 30
0.0
 70
     1
  0
VERTEX
  5
9EC
  8
OBJECT
 62
     2
 10
20.955620191067069
 20
27.306504106265141
 30
0.0
  0
VERTEX
  5
9ED
  8
OBJECT
 62
     2
 10
20.955620191067069
 20
25.466504106265141
 30
0.0
  0
VERTEX
  5
9EE
  8
OBJECT
 62
     2
 10
25.795620191067069
 20
25.466504106265141
 30
0.0
  0
VERTEX
  5
9EF
  8
OBJECT
 62
     2
 10
25.795620191067069
 20
27.306504106265141
 30
0.0
  0
SEQEND
  5
9F0
  8
OBJECT
 62
     2
  0
POLYLINE
  5
26C
  8
OBJECT
 62
     2
 66
     1
 10
0.0
 20
0.0
 30
0.0
 70
     1
  0
VERTEX
  5
9F1
  8
OBJECT
 62
     2
 10
25.175620191067068
 20
27.025504106265139
 30
0.0
  0
VERTEX
  5
9F2
  8
OBJECT
 62
     2
 10
25.175620191067068
 20
25.681504106265141
 30
0.0
  0
VERTEX
  5
9F3
  8
OBJECT
 62
     2
 10
21.57562019106707
 20
25.681504106265141
 30
0.0
  0
VERTEX
  5
9F4
  8
OBJECT
 62
     2
 10
21.57562019106707
 20
27.025504106265139
 30
0.0
  0
SEQEND
  5
9F5
  8
OBJECT
 62
     2
  0
POLYLINE
  5
272
  8
HIDDEN
 62
     2
 66
     1
 10
0.0
 20
0.0
 30
0.0
 70
     1
  0
VERTEX
  5
9F6
  8
HIDDEN
 62
     2
 10
46.98605058001052
 20
27.868504106265132
 30
0.0
 42
0.4142135623730951
  0
VERTEX
  5
9F7
  8
HIDDEN
 62
     2
 10
46.888050580010521
 20
27.966504106265141
 30
0.0
  0
VERTEX
  5
9F8
  8
HIDDEN
 62
     2
 10
46.076050580010509
 20
27.966504106265141
 30
0.0
  0
VERTEX
  5
9F9
  8
HIDDEN
 62
     2
 10
46.076050580010509
 20
28.05650410626513
 30
0.0
  0
VERTEX
  5
9FA
  8
HIDDEN
 62
     2
 10
46.888050580010521
 20
28.05650410626513
 30
0.0
 42
-0.4142135623730951
  0
VERTEX
  5
9FB
  8
HIDDEN
 62
     2
 10
47.076050580010516
 20
27.868504106265132
 30
0.0
  0
VERTEX
  5
9FC
  8
HIDDEN
 62
     2
 10
47.076050580010516
 20
25.714504106265132
 30
0.0
 42
-0.4142135623730922
  0
VERTEX
  5
9FD
  8
HIDDEN
 62
     2
 10
46.888050580010521
 20
25.526504106265129
 30
0.0
  0
VERTEX
  5
9FE
  8
HIDDEN
 62
     2
 10
46.076050580010516
 20
25.526504106265129
 30
0.0
  0
VERTEX
  5
9FF
  8
HIDDEN
 62
     2
 10
46.076050580010516
 20
25.616504106265129
 30
0.0
  0
VERTEX
  5
A00
  8
HIDDEN
 62
     2
 10
46.888050580010521
 20
25.616504106265129
 30
0.0
 42
0.4142135623730898
  0
VERTEX
  5
A01
  8
HIDDEN
 62
     2
 10
46.98605058001052
 20
25.714504106265132
 30
0.0
  0
SEQEND
  5
A02
  8
HIDDEN
 62
     2
  0
POLYLINE
  5
280
  8
OBJECT
  6
HIDDEN
 62
     2
 66
     1
 10
0.0
 20
0.0
 30
0.0
  0
VERTEX
  5
A03
  8
OBJECT
  6
HIDDEN
 62
     2
 10
46.894050580010521
 20
27.216504106265141
 30
0.0
  0
VERTEX
  5
A04
  8
OBJECT
  6
HIDDEN
 62
     2
 10
46.176050580010532
 20
27.216504106265141
 30
0.0
  0
VERTEX
  5
A05
  8
OBJECT
  6
HIDDEN
 62
     2
 10
46.176050580010532
 20
27.086504106265131
 30
0.0
  0
VERTEX
  5
A06
  8
OBJECT
  6
HIDDEN
 62
     2
 10
45.877050580010533
 20
27.086504106265131
 30
0.0
  0
SEQEND
  5
A07
  8
OBJECT
  6
HIDDEN
 62
     2
  0
LINE
  5
286
  8
OBJECT
  6
HIDDEN
 62
     2
 10
60.86605058001053
 20
50.075720630167567
 30
0.0
 11
61.894050580010521
 21
50.075720630167567
 31
0.0
  0
LINE
  5
287
  8
OBJECT
  6
HIDDEN
 62
     2
 10
45.86605058001053
 20
45.575720630167552
 30
0.0
 11
46.894050580010521
 21
45.575720630167559
 31
0.0
  0
LINE
  5
288
  8
OBJECT
  6
HIDDEN
 62
     2
 10
61.894050580010521
 20
50.075720630167567
 30
0.0
 11
61.894050580010521
 21
47.825720630167559
 31
0.0
  0
LINE
  5
289
  8
OBJECT
  6
HIDDEN
 62
     2
 10
46.894050580010521
 20
46.025720630167548
 30
0.0
 11
46.176050580010539
 21
46.025720630167548
 31
0.0
  0
LINE
  5
28A
  8
OBJECT
  6
HIDDEN
 62
     2
 10
46.176050580010539
 20
46.025720630167548
 30
0.0
 11
46.176050580010539
 21
47.825720630167559
 31
0.0
  0
LINE
  5
28B
  8
OBJECT
  6
HIDDEN
 62
     2
 10
61.176050580010539
 20
49.625720630167557
 30
0.0
 11
61.894050580010521
 21
49.625720630167557
 31
0.0
  0
LINE
  5
28C
  8
OBJECT
 62
     2
 10
45.86605058001053
 20
45.575720630167552
 30
0.0
 11
45.86605058001053
 21
47.825720630167538
 31
0.0
  0
LINE
  5
28D
  8
OBJECT
  6
HIDDEN
 62
     2
 10
45.956050580010533
 20
45.575720630167552
 30
0.0
 11
45.956050580010533
 21
47.676307189651887
 31
0.0
  0
LINE
  5
28E
  8
OBJECT
  6
HIDDEN
 62
     2
 10
46.086050580010543
 20
45.575720630167552
 30
0.0
 11
46.086050580010543
 21
47.825720630167538
 31
0.0
  0
LINE
  5
28F
  8
HIDDEN
 10
61.076050580010516
 20
27.410504106265378
 30
0.0
 11
81.076050580010502
 21
27.410504106265378
 31
0.0
  0
LINE
  5
290
  8
HIDDEN
 10
61.076050580010516
 20
27.376720106154139
 30
0.0
 11
81.076050580010502
 21
27.376720106154139
 31
0.0
  0
LINE
  5
291
  8
HIDDEN
 10
61.076050580010516
 20
26.160504106265211
 30
0.0
 11
81.076050580010502
 21
26.160504106265211
 31
0.0
  0
LINE
  5
292
  8
HIDDEN
 10
61.076050580010516
 20
26.197271548125698
 30
0.0
 11
81.076050580010502
 21
26.197271548125698
 31
0.0
  0
LINE
  5
293
  8
0
 10
61.076050580010516
 20
27.480504106265229
 30
0.0
 11
81.076050580010502
 21
27.480504106265229
 31
0.0
  0
LINE
  5
294
  8
0
 10
61.076050580010516
 20
26.09050410626525
 30
0.0
 11
81.076050580010502
 21
26.09050410626525
 31
0.0
  0
LINE
  5
295
  8
0
 10
46.076050580010516
 20
26.285423227365602
 30
0.0
 11
61.076050580010516
 21
26.285423227365602
 31
0.0
  0
LINE
  5
296
  8
0
 10
46.076050580010516
 20
27.285584985164679
 30
0.0
 11
61.076050580010516
 21
27.285584985164679
 31
0.0
  0
LINE
  5
297
  8
0
 10
46.076050580010516
 20
26.38424041437996
 30
0.0
 11
61.076050580010516
 21
26.384240414379949
 31
0.0
  0
LINE
  5
298
  8
0
 10
46.076050580010516
 20
26.328265032240679
 30
0.0
 11
61.076050580010516
 21
26.328265032240701
 31
0.0
  0
LINE
  5
299
  8
0
 10
46.076050580010516
 20
27.24274318028974
 30
0.0
 11
61.076050580010516
 21
27.24274318028974
 31
0.0
  0
LINE
  5
29A
  8
0
 10
46.076050580010516
 20
27.18676779815047
 30
0.0
 11
61.076050580010516
 21
27.18676779815047
 31
0.0
  0
CIRCLE
  5
29B
  8
0
 10
46.701050580010516
 20
26.78550410626513
 30
0.0
 40
0.1875
  0
LINE
  5
29C
  8
0
 10
46.076050580010516
 20
27.285584985164679
 30
0.0
 11
46.076050580010516
 21
26.285423227365602
 31
0.0
  0
POLYLINE
  5
29D
  8
0
 66
     1
 10
0.0
 20
0.0
 30
0.0
 70
     1
  0
VERTEX
  5
A08
  8
0
 10
46.98605058001052
 20
26.800504106265141
 30
0.0
  0
VERTEX
  5
A09
  8
0
 10
46.98605058001052
 20
26.77050410626514
 30
0.0
 42
0.9999999999999985
  0
VERTEX
  5
A0A
  8
0
 10
47.166050580010513
 20
26.77050410626514
 30
0.0
  0
VERTEX
  5
A0B
  8
0
 10
47.166050580010527
 20
26.800504106265141
 30
0.0
 42
0.9999999999999985
  0
SEQEND
  5
A0C
  8
0
  0
POLYLINE
  5
2A3
  8
0
 66
     1
 10
0.0
 20
0.0
 30
0.0
 70
     1
  0
VERTEX
  5
A0D
  8
0
 10
51.061050580010523
 20
26.695504106265151
 30
0.0
  0
VERTEX
  5
A0E
  8
0
 10
51.091050580010517
 20
26.695504106265151
 30
0.0
 42
0.9999999999999989
  0
VERTEX
  5
A0F
  8
0
 10
51.091050580010517
 20
26.875504106265161
 30
0.0
  0
VERTEX
  5
A10
  8
0
 10
51.061050580010523
 20
26.875504106265129
 30
0.0
 42
0.9999999999999985
  0
SEQEND
  5
A11
  8
0
  0
POLYLINE
  5
2A9
  8
0
 66
     1
 10
0.0
 20
0.0
 30
0.0
 70
     1
  0
VERTEX
  5
A12
  8
0
 10
56.091050580010517
 20
26.875504106265129
 30
0.0
  0
VERTEX
  5
A13
  8
0
 10
56.061050580010523
 20
26.875504106265161
 30
0.0
 42
0.9999999999999985
  0
VERTEX
  5
A14
  8
0
 10
56.061050580010523
 20
26.695504106265151
 30
0.0
  0
VERTEX
  5
A15
  8
0
 10
56.091050580010517
 20
26.695504106265119
 30
0.0
 42
0.9999999999999989
  0
SEQEND
  5
A16
  8
0
  0
LINE
  5
2AF
  8
HIDDEN
 10
61.201050580010516
 20
26.285423227365602
 30
0.0
 11
65.729522782625708
 21
26.285423227365602
 31
0.0
  0
POLYLINE
  5
2B0
  8
0
 66
     1
 10
0.0
 20
0.0
 30
0.0
 70
     1
  0
VERTEX
  5
A17
  8
0
 10
62.686050580010523
 20
26.695504106265211
 30
0.0
  0
VERTEX
  5
A18
  8
0
 10
62.71605058001051
 20
26.695504106265211
 30
0.0
 42
0.9999999999999989
  0
VERTEX
  5
A19
  8
0
 10
62.71605058001051
 20
26.875504106265218
 30
0.0
  0
VERTEX
  5
A1A
  8
0
 10
62.686050580010523
 20
26.875504106265218
 30
0.0
 42
0.9999999999999985
  0
SEQEND
  5
A1B
  8
0
  0
LINE
  5
2B6
  8
HIDDEN
 10
61.201050580010516
 20
27.285584985164679
 30
0.0
 11
65.729522782625651
 21
27.285584985164679
 31
0.0
  0
LINE
  5
2B7
  8
0
 10
61.076050580010516
 20
27.480504106265201
 30
0.0
 11
61.076050580010516
 21
26.090504106265222
 31
0.0
  0
POLYLINE
  5
2B8
  8
0
 66
     1
 10
0.0
 20
0.0
 30
0.0
 70
     1
  0
VERTEX
  5
A1C
  8
0
 10
62.291050580010527
 20
26.800504106265201
 30
0.0
 42
0.9999999999999985
  0
VERTEX
  5
A1D
  8
0
 10
62.11105058001052
 20
26.800504106265201
 30
0.0
  0
VERTEX
  5
A1E
  8
0
 10
62.11105058001052
 20
26.7705041062652
 30
0.0
 42
0.9999999999999985
  0
VERTEX
  5
A1F
  8
0
 10
62.291050580010527
 20
26.7705041062652
 30
0.0
  0
SEQEND
  5
A20
  8
0
  0
POLYLINE
  5
2BE
  8
0
 66
     1
 10
0.0
 20
0.0
 30
0.0
 70
     1
  0
VERTEX
  5
A21
  8
0
 10
61.61105058001052
 20
26.800504106265201
 30
0.0
  0
VERTEX
  5
A22
  8
0
 10
61.61105058001052
 20
26.7705041062652
 30
0.0
 42
0.9999999999999985
  0
VERTEX
  5
A23
  8
0
 10
61.79105058001052
 20
26.7705041062652
 30
0.0
  0
VERTEX
  5
A24
  8
0
 10
61.791050580010513
 20
26.800504106265201
 30
0.0
 42
0.9999999999999985
  0
SEQEND
  5
A25
  8
0
  0
POLYLINE
  5
2C4
  8
HIDDEN
 66
     1
 10
0.0
 20
0.0
 30
0.0
 70
     1
  0
VERTEX
  5
A26
  8
HIDDEN
 10
62.561050580010523
 20
26.695504106265151
 30
0.0
  0
VERTEX
  5
A27
  8
HIDDEN
 10
62.591050580010517
 20
26.695504106265151
 30
0.0
 42
0.9999999999999989
  0
VERTEX
  5
A28
  8
HIDDEN
 10
62.591050580010517
 20
26.875504106265161
 30
0.0
  0
VERTEX
  5
A29
  8
HIDDEN
 10
62.561050580010523
 20
26.875504106265129
 30
0.0
 42
0.9999999999999985
  0
SEQEND
  5
A2A
  8
HIDDEN
  0
POLYLINE
  5
2CA
  8
HIDDEN
 66
     1
 10
0.0
 20
0.0
 30
0.0
  0
VERTEX
  5
A2B
  8
HIDDEN
 10
63.263550580010516
 20
27.023004106265201
 30
0.0
  0
VERTEX
  5
A2C
  8
HIDDEN
 10
63.58355058001046
 20
27.090504106265222
 30
0.0
  0
VERTEX
  5
A2D
  8
HIDDEN
 10
64.033550580010512
 20
27.090504106265222
 30
0.0
  0
VERTEX
  5
A2E
  8
HIDDEN
 10
64.033550580010512
 20
26.928004106265188
 30
0.0
  0
VERTEX
  5
A2F
  8
HIDDEN
 10
64.433550580010518
 20
26.928004106265188
 30
0.0
  0
VERTEX
  5
A30
  8
HIDDEN
 10
64.433550580010518
 20
27.090504106265222
 30
0.0
  0
VERTEX
  5
A31
  8
HIDDEN
 10
67.013550580010531
 20
27.090504106265222
 30
0.0
  0
VERTEX
  5
A32
  8
HIDDEN
 10
67.013550580010531
 20
26.480504106265201
 30
0.0
  0
VERTEX
  5
A33
  8
HIDDEN
 10
64.433550580010518
 20
26.480504106265201
 30
0.0
  0
VERTEX
  5
A34
  8
HIDDEN
 10
64.433550580010518
 20
26.643004106265199
 30
0.0
  0
VERTEX
  5
A35
  8
HIDDEN
 10
64.033550580010512
 20
26.643004106265199
 30
0.0
  0
VERTEX
  5
A36
  8
HIDDEN
 10
64.033550580010512
 20
26.480504106265201
 30
0.0
  0
VERTEX
  5
A37
  8
HIDDEN
 10
63.583550580010566
 20
26.480504106265201
 30
0.0
  0
VERTEX
  5
A38
  8
HIDDEN
 10
63.263550580010516
 20
26.5480041062652
 30
0.0
  0
SEQEND
  5
A39
  8
HIDDEN
  0
POLYLINE
  5
2DA
  8
0
 66
     1
 10
0.0
 20
0.0
 30
0.0
 70
     1
  0
VERTEX
  5
A3A
  8
0
 10
63.363550580010518
 20
26.64331660626523
 30
0.0
  0
VERTEX
  5
A3B
  8
0
 10
63.363550580010532
 20
26.927691606265221
 30
0.0
 42
0.9999999999999982
  0
VERTEX
  5
A3C
  8
0
 10
63.163550580010529
 20
26.927691606265221
 30
0.0
  0
VERTEX
  5
A3D
  8
0
 10
63.163550580010529
 20
26.64331660626523
 30
0.0
 42
0.9999999999999982
  0
SEQEND
  5
A3E
  8
0
  0
POLYLINE
  5
2E0
  8
HIDDEN
 66
     1
 10
0.0
 20
0.0
 30
0.0
 70
     1
  0
VERTEX
  5
A3F
  8
HIDDEN
 10
64.986050580010527
 20
26.800504106265141
 30
0.0
  0
VERTEX
  5
A40
  8
HIDDEN
 10
64.986050580010527
 20
26.77050410626514
 30
0.0
 42
0.9999999999999985
  0
VERTEX
  5
A41
  8
HIDDEN
 10
65.166050580010534
 20
26.77050410626514
 30
0.0
  0
VERTEX
  5
A42
  8
HIDDEN
 10
65.166050580010506
 20
26.800504106265141
 30
0.0
 42
0.9999999999999985
  0
SEQEND
  5
A43
  8
HIDDEN
  0
CIRCLE
  5
2E6
  8
HIDDEN
 10
66.076050580010531
 20
26.785504106265211
 30
0.0
 40
0.1875
  0
LINE
  5
2E7
  8
HIDDEN
 10
65.915550580010517
 20
27.06800410626521
 30
0.0
 11
65.915550580010517
 21
26.503004106265209
 31
0.0
  0
LINE
  5
2E8
  8
HIDDEN
 10
65.665550580010517
 20
27.098004106265211
 30
0.0
 11
65.665550580010517
 21
27.06800410626521
 31
0.0
  0
LINE
  5
2E9
  8
HIDDEN
 10
65.665550580010517
 20
27.098004106265211
 30
0.0
 11
65.915550580010517
 21
27.098004106265211
 31
0.0
  0
LINE
  5
2EA
  8
HIDDEN
 10
65.665550580010517
 20
27.06800410626521
 30
0.0
 11
65.915550580010517
 21
27.06800410626521
 31
0.0
  0
LINE
  5
2EB
  8
HIDDEN
 10
65.915550580010517
 20
27.160504106265211
 30
0.0
 11
65.915550580010517
 21
27.098004106265211
 31
0.0
  0
ARC
  5
2EC
  8
HIDDEN
 10
65.697536681318127
 20
27.037137036288229
 30
0.0
 40
0.250498490969033
 50
29.504128957674538
 51
82.663885199152375
  0
ARC
  5
2ED
  8
HIDDEN
 10
65.697536681318127
 20
26.533871176242052
 30
0.0
 40
0.250498490969033
 50
277.33611480084761
 51
330.4958710423254
  0
LINE
  5
2EE
  8
HIDDEN
 10
65.665550580010517
 20
26.473004106265211
 30
0.0
 11
65.915550580010517
 21
26.473004106265211
 31
0.0
  0
LINE
  5
2EF
  8
HIDDEN
 10
65.665550580010517
 20
26.503004106265209
 30
0.0
 11
65.915550580010517
 21
26.503004106265209
 31
0.0
  0
LINE
  5
2F0
  8
HIDDEN
 10
65.665550580010517
 20
26.503004106265209
 30
0.0
 11
65.665550580010517
 21
26.473004106265211
 31
0.0
  0
POLYLINE
  5
2F1
  8
0
 66
     1
 10
0.0
 20
0.0
 30
0.0
 70
     1
  0
VERTEX
  5
A44
  8
0
 10
66.061050580010516
 20
26.875504106265218
 30
0.0
 42
0.9999999999999985
  0
VERTEX
  5
A45
  8
0
 10
66.061050580010516
 20
26.695504106265211
 30
0.0
  0
VERTEX
  5
A46
  8
0
 10
66.091050580010517
 20
26.695504106265211
 30
0.0
 42
0.9999999999999989
  0
VERTEX
  5
A47
  8
0
 10
66.091050580010517
 20
26.875504106265218
 30
0.0
  0
SEQEND
  5
A48
  8
0
  0
LINE
  5
2F7
  8
HIDDEN
 10
65.915550580010517
 20
26.473004106265211
 30
0.0
 11
65.915550580010517
 21
26.410504106265069
 31
0.0
  0
POLYLINE
  5
2F8
  8
0
 66
     1
 10
0.0
 20
0.0
 30
0.0
 70
     1
  0
VERTEX
  5
A49
  8
0
 10
71.061050580010516
 20
26.87550410626524
 30
0.0
 42
0.9999999999999985
  0
VERTEX
  5
A4A
  8
0
 10
71.061050580010516
 20
26.695504106265229
 30
0.0
  0
VERTEX
  5
A4B
  8
0
 10
71.091050580010517
 20
26.695504106265229
 30
0.0
 42
0.9999999999999989
  0
VERTEX
  5
A4C
  8
0
 10
71.091050580010517
 20
26.87550410626524
 30
0.0
  0
SEQEND
  5
A4D
  8
0
  0
POLYLINE
  5
2FE
  8
0
 66
     1
 10
0.0
 20
0.0
 30
0.0
 70
     1
  0
VERTEX
  5
A4E
  8
0
 10
75.561050580010516
 20
26.695504106265268
 30
0.0
  0
VERTEX
  5
A4F
  8
0
 10
75.591050580010545
 20
26.695504106265268
 30
0.0
 42
0.9999999999999989
  0
VERTEX
  5
A50
  8
0
 10
75.591050580010545
 20
26.875504106265272
 30
0.0
  0
VERTEX
  5
A51
  8
0
 10
75.561050580010516
 20
26.87550410626524
 30
0.0
 42
0.9999999999999985
  0
SEQEND
  5
A52
  8
0
  0
POLYLINE
  5
304
  8
0
 66
     1
 10
0.0
 20
0.0
 30
0.0
 70
     1
  0
VERTEX
  5
A53
  8
0
 10
80.041050580010534
 20
26.7705041062652
 30
0.0
  0
VERTEX
  5
A54
  8
0
 10
80.041050580010506
 20
26.800504106265201
 30
0.0
 42
0.9999999999999985
  0
VERTEX
  5
A55
  8
0
 10
79.861050580010499
 20
26.800504106265201
 30
0.0
  0
VERTEX
  5
A56
  8
0
 10
79.861050580010527
 20
26.7705041062652
 30
0.0
 42
0.9999999999999989
  0
SEQEND
  5
A57
  8
0
  0
POLYLINE
  5
30A
  8
0
 66
     1
 10
0.0
 20
0.0
 30
0.0
 70
     1
  0
VERTEX
  5
A58
  8
0
 10
80.361050580010527
 20
26.800504106265201
 30
0.0
  0
VERTEX
  5
A59
  8
0
 10
80.361050580010499
 20
26.7705041062652
 30
0.0
 42
0.9999999999999989
  0
VERTEX
  5
A5A
  8
0
 10
80.541050580010506
 20
26.7705041062652
 30
0.0
  0
VERTEX
  5
A5B
  8
0
 10
80.541050580010534
 20
26.800504106265201
 30
0.0
 42
0.9999999999999985
  0
SEQEND
  5
A5C
  8
0
  0
LINE
  5
310
  8
HIDDEN
 10
80.976050580010536
 20
27.223004106265211
 30
0.0
 11
80.976050580010536
 21
26.348004106265211
 31
0.0
  0
LINE
  5
311
  8
0
 10
81.076050580010502
 20
27.223004106265211
 30
0.0
 11
81.076050580010502
 21
26.348004106265211
 31
0.0
  0
LINE
  5
312
  8
0
 10
80.976050580010536
 20
27.223004106265211
 30
0.0
 11
81.076050580010502
 21
27.223004106265211
 31
0.0
  0
LINE
  5
313
  8
0
 10
81.076050580010502
 20
27.480504106265229
 30
0.0
 11
81.076050580010502
 21
27.376720106154139
 31
0.0
  0
ARC
  5
314
  8
0
 10
81.049739387761676
 20
27.282542909458041
 30
0.0
 40
0.0947359988252435
 50
96.226196785738196
 51
218.93738633768751
  0
LINE
  5
315
  8
0
 10
81.076050580010502
 20
26.194288106376248
 30
0.0
 11
81.076050580010545
 21
26.09050410626525
 31
0.0
  0
LINE
  5
316
  8
0
 10
80.976050580010536
 20
26.348004106265211
 30
0.0
 11
81.076050580010545
 21
26.348004106265211
 31
0.0
  0
ARC
  5
317
  8
0
 10
81.049739387761676
 20
26.288465303072389
 30
0.0
 40
0.0947359988252435
 50
141.06261366231249
 51
254.28255579590629
  0
POLYLINE
  5
318
  8
OBJECT
 66
     1
 10
0.0
 20
0.0
 30
0.0
 70
     1
  0
VERTEX
  5
A5D
  8
OBJECT
 10
32.0908365022838
 20
12.316543023810871
 30
0.0
 42
0.4142135623730951
  0
VERTEX
  5
A5E
  8
OBJECT
 10
32.068836502283801
 20
12.29454302381091
 30
0.0
  0
VERTEX
  5
A5F
  8
OBJECT
 10
32.068836502283801
 20
11.98969832109465
 30
0.0
 42
0.4142135623730951
  0
VERTEX
  5
A60
  8
OBJECT
 10
32.0908365022838
 20
11.96769832109463
 30
0.0
  0
VERTEX
  5
A61
  8
OBJECT
 10
32.137353510847881
 20
11.96769832109463
 30
0.0
 42
-0.4142135623730951
  0
VERTEX
  5
A62
  8
OBJECT
 10
32.18435351084787
 20
11.92069832109464
 30
0.0
  0
VERTEX
  5
A63
  8
OBJECT
 10
32.18435351084787
 20
11.624620672452791
 30
0.0
 42
-0.4142135623730951
  0
VERTEX
  5
A64
  8
OBJECT
 10
32.137353510847881
 20
11.577620672452779
 30
0.0
  0
VERTEX
  5
A65
  8
OBJECT
 10
31.9451283140491
 20
11.577620672452779
 30
0.0
  0
VERTEX
  5
A66
  8
OBJECT
 10
31.9451283140491
 20
11.602620672452771
 30
0.0
  0
VERTEX
  5
A67
  8
OBJECT
 10
32.137353510847881
 20
11.602620672452799
 30
0.0
 42
0.4142135623730951
  0
VERTEX
  5
A68
  8
OBJECT
 10
32.159353510847879
 20
11.624620672452791
 30
0.0
  0
VERTEX
  5
A69
  8
OBJECT
 10
32.159353510847879
 20
11.92069832109464
 30
0.0
 42
0.4142135623730951
  0
VERTEX
  5
A6A
  8
OBJECT
 10
32.137353510847881
 20
11.94269832109466
 30
0.0
  0
VERTEX
  5
A6B
  8
OBJECT
 10
32.0908365022838
 20
11.94269832109466
 30
0.0
 42
-0.4142135623730951
  0
VERTEX
  5
A6C
  8
OBJECT
 10
32.043836502283803
 20
11.98969832109465
 30
0.0
  0
VERTEX
  5
A6D
  8
OBJECT
 10
32.043836502283803
 20
12.29454302381091
 30
0.0
 42
-0.4142135623730951
  0
VERTEX
  5
A6E
  8
OBJECT
 10
32.0908365022838
 20
12.341543023810869
 30
0.0
  0
VERTEX
  5
A6F
  8
OBJECT
 10
32.137353510847881
 20
12.3415430238109
 30
0.0
 42
0.4142135623730951
  0
VERTEX
  5
A70
  8
OBJECT
 10
32.159353510847879
 20
12.363543023810889
 30
0.0
  0
VERTEX
  5
A71
  8
OBJECT
 10
32.159353510847879
 20
12.65962067245276
 30
0.0
 42
0.4142135623730951
  0
VERTEX
  5
A72
  8
OBJECT
 10
32.137353510847881
 20
12.681620672452761
 30
0.0
  0
VERTEX
  5
A73
  8
OBJECT
 10
31.9451283140491
 20
12.68162067245278
 30
0.0
  0
VERTEX
  5
A74
  8
OBJECT
 10
31.9451283140491
 20
12.706620672452759
 30
0.0
  0
VERTEX
  5
A75
  8
OBJECT
 10
32.137353510847881
 20
12.706620672452759
 30
0.0
 42
-0.4142135623730951
  0
VERTEX
  5
A76
  8
OBJECT
 10
32.18435351084787
 20
12.65962067245276
 30
0.0
  0
VERTEX
  5
A77
  8
OBJECT
 10
32.18435351084787
 20
12.363543023810889
 30
0.0
 42
-0.4142135623730951
  0
VERTEX
  5
A78
  8
OBJECT
 10
32.137353510847881
 20
12.316543023810899
 30
0.0
  0
SEQEND
  5
A79
  8
OBJECT
  0
POLYLINE
  5
336
  8
OBJECT
 66
     1
 10
0.0
 20
0.0
 30
0.0
 70
     1
  0
VERTEX
  5
A7A
  8
OBJECT
 10
32.255620191066939
 20
12.66512067245292
 30
0.0
 42
0.4142135623730887
  0
VERTEX
  5
A7B
  8
OBJECT
 10
32.083620191066927
 20
12.83712067245294
 30
0.0
  0
VERTEX
  5
A7C
  8
OBJECT
 10
32.083620191066927
 20
12.83712067245291
 30
0.0
 42
0.2383634416005031
  0
VERTEX
  5
A7D
  8
OBJECT
 10
31.9451283140491
 20
12.76712067245292
 30
0.0
  0
VERTEX
  5
A7E
  8
OBJECT
 10
31.99231276608656
 20
12.733336672341791
 30
0.0
 42
-0.241913409418767
  0
VERTEX
  5
A7F
  8
OBJECT
 10
32.073620191066908
 20
12.77512067245293
 30
0.0
  0
VERTEX
  5
A80
  8
OBJECT
 10
32.083620191066899
 20
12.7751206724529
 30
0.0
 42
-0.4142135623730951
  0
VERTEX
  5
A81
  8
OBJECT
 10
32.19362019106692
 20
12.66512067245292
 30
0.0
  0
VERTEX
  5
A82
  8
OBJECT
 10
32.19362019106692
 20
11.619120672452921
 30
0.0
 42
-0.4142135623730957
  0
VERTEX
  5
A83
  8
OBJECT
 10
32.083620191066899
 20
11.50912067245293
 30
0.0
 42
-0.2383634416006996
  0
VERTEX
  5
A84
  8
OBJECT
 10
31.995049804601852
 20
11.55388811431337
 30
0.0
  0
VERTEX
  5
A85
  8
OBJECT
 10
31.94512831404888
 20
11.51712067245294
 30
0.0
 42
0.2383634416006981
  0
VERTEX
  5
A86
  8
OBJECT
 10
32.083620191066899
 20
11.447120672452909
 30
0.0
 42
0.4142135623731013
  0
VERTEX
  5
A87
  8
OBJECT
 10
32.255620191066939
 20
11.619120672452921
 30
0.0
  0
SEQEND
  5
A88
  8
OBJECT
  0
POLYLINE
  5
346
  8
0
 66
     1
 10
0.0
 20
0.0
 30
0.0
 70
     1
  0
VERTEX
  5
A89
  8
0
 10
31.964553135673508
 20
12.5744714453261
 30
0.0
 42
0.3296678698157022
  0
VERTEX
  5
A8A
  8
0
 10
32.156988938629098
 20
12.54338436433806
 30
0.0
  0
VERTEX
  5
A8B
  8
0
 10
32.12829453383025
 20
12.597448372716959
 30
0.0
 42
-0.3280870630029919
  0
VERTEX
  5
A8C
  8
0
 10
32.010471503020447
 20
12.61760500001607
 30
0.0
 42
0.679542898302114
  0
VERTEX
  5
A8D
  8
0
 10
31.875620191067089
 20
12.5642015513523
 30
0.0
  0
VERTEX
  5
A8E
  8
0
 10
31.87562019106706
 20
11.72003979355326
 30
0.0
 42
0.679542898302114
  0
VERTEX
  5
A8F
  8
0
 10
32.010471503020447
 20
11.666636344889509
 30
0.0
 42
-0.3280870630029975
  0
VERTEX
  5
A90
  8
0
 10
32.12829453383025
 20
11.686792972188631
 30
0.0
  0
VERTEX
  5
A91
  8
0
 10
32.156988938629098
 20
11.7408569805675
 30
0.0
 42
0.3296678698157051
  0
VERTEX
  5
A92
  8
0
 10
31.964553135673501
 20
11.709769899579429
 30
0.0
 42
-0.6795428983021175
  0
VERTEX
  5
A93
  8
0
 10
31.938620191067109
 20
11.72003979355323
 30
0.0
  0
VERTEX
  5
A94
  8
0
 10
31.938620191067109
 20
12.5642015513523
 30
0.0
 42
-0.679542898302169
  0
SEQEND
  5
A95
  8
0
  0
ARC
  5
354
  8
OBJECT
 10
32.083620191067091
 20
11.602620672452799
 30
0.0
 40
0.0935
 50
195.5084018037862
 51
358.07827053655268
  0
ARC
  5
355
  8
OBJECT
 10
32.083620191067091
 20
11.602620672452799
 30
0.0
 40
0.0935
 50
35.905824288893122
 51
180.00000000001731
  0
ARC
  5
356
  8
OBJECT
 10
32.083620191067091
 20
12.68162067245278
 30
0.0
 40
0.0935
 50
180.0
 51
324.09417571110708
  0
ARC
  5
357
  8
OBJECT
 10
32.083620191067091
 20
12.68162067245278
 30
0.0
 40
0.0935
 50
1.9217294634472351
 51
164.49159819623179
  0
POLYLINE
  5
358
  8
OBJECT
 66
     1
 10
0.0
 20
0.0
 30
0.0
 70
     1
  0
VERTEX
  5
A96
  8
OBJECT
 10
14.49562019106723
 20
12.66512067245292
 30
0.0
 42
-0.4142135623730887
  0
VERTEX
  5
A97
  8
OBJECT
 10
14.66762019106725
 20
12.83712067245294
 30
0.0
  0
VERTEX
  5
A98
  8
OBJECT
 10
14.66762019106725
 20
12.83712067245291
 30
0.0
 42
-0.2383634416005031
  0
VERTEX
  5
A99
  8
OBJECT
 10
14.80611206808508
 20
12.76712067245292
 30
0.0
  0
VERTEX
  5
A9A
  8
OBJECT
 10
14.758927616047609
 20
12.733336672341791
 30
0.0
 42
0.241913409418767
  0
VERTEX
  5
A9B
  8
OBJECT
 10
14.67762019106727
 20
12.77512067245293
 30
0.0
  0
VERTEX
  5
A9C
  8
OBJECT
 10
14.667620191067281
 20
12.7751206724529
 30
0.0
 42
0.4142135623730951
  0
VERTEX
  5
A9D
  8
OBJECT
 10
14.55762019106727
 20
12.66512067245292
 30
0.0
  0
VERTEX
  5
A9E
  8
OBJECT
 10
14.55762019106727
 20
11.619120672452921
 30
0.0
 42
0.4142135623730957
  0
VERTEX
  5
A9F
  8
OBJECT
 10
14.667620191067281
 20
11.50912067245293
 30
0.0
 42
0.2383634416006996
  0
VERTEX
  5
AA0
  8
OBJECT
 10
14.75619057753233
 20
11.55388811431337
 30
0.0
  0
VERTEX
  5
AA1
  8
OBJECT
 10
14.80611206808531
 20
11.51712067245294
 30
0.0
 42
-0.2383634416006981
  0
VERTEX
  5
AA2
  8
OBJECT
 10
14.667620191067281
 20
11.447120672452909
 30
0.0
 42
-0.4142135623731013
  0
VERTEX
  5
AA3
  8
OBJECT
 10
14.49562019106723
 20
11.619120672452921
 30
0.0
  0
SEQEND
  5
AA4
  8
OBJECT
  0
POLYLINE
  5
368
  8
0
 66
     1
 10
0.0
 20
0.0
 30
0.0
 70
     1
  0
VERTEX
  5
AA5
  8
0
 10
14.78668724646065
 20
12.5744714453261
 30
0.0
 42
-0.3296678698157022
  0
VERTEX
  5
AA6
  8
0
 10
14.59425144350508
 20
12.54338436433806
 30
0.0
  0
VERTEX
  5
AA7
  8
0
 10
14.622945848303919
 20
12.597448372716959
 30
0.0
 42
0.3280870630029919
  0
VERTEX
  5
AA8
  8
0
 10
14.74076887911373
 20
12.61760500001607
 30
0.0
 42
-0.679542898302114
  0
VERTEX
  5
AA9
  8
0
 10
14.87562019106708
 20
12.5642015513523
 30
0.0
  0
VERTEX
  5
AAA
  8
0
 10
14.87562019106711
 20
11.72003979355326
 30
0.0
 42
-0.679542898302114
  0
VERTEX
  5
AAB
  8
0
 10
14.74076887911373
 20
11.666636344889509
 30
0.0
 42
0.3280870630029975
  0
VERTEX
  5
AAC
  8
0
 10
14.622945848303919
 20
11.686792972188631
 30
0.0
  0
VERTEX
  5
AAD
  8
0
 10
14.59425144350508
 20
11.7408569805675
 30
0.0
 42
-0.3296678698157051
  0
VERTEX
  5
AAE
  8
0
 10
14.78668724646068
 20
11.709769899579429
 30
0.0
 42
0.6795428983021175
  0
VERTEX
  5
AAF
  8
0
 10
14.81262019106706
 20
11.72003979355323
 30
0.0
  0
VERTEX
  5
AB0
  8
0
 10
14.81262019106706
 20
12.5642015513523
 30
0.0
 42
0.679542898302169
  0
SEQEND
  5
AB1
  8
0
  0
POLYLINE
  5
376
  8
OBJECT
 66
     1
 10
0.0
 20
0.0
 30
0.0
 70
     1
  0
VERTEX
  5
AB2
  8
OBJECT
 10
14.66040387985039
 20
12.316543023810871
 30
0.0
 42
-0.4142135623730951
  0
VERTEX
  5
AB3
  8
OBJECT
 10
14.68240387985038
 20
12.29454302381091
 30
0.0
  0
VERTEX
  5
AB4
  8
OBJECT
 10
14.68240387985038
 20
11.98969832109465
 30
0.0
 42
-0.4142135623730951
  0
VERTEX
  5
AB5
  8
OBJECT
 10
14.66040387985039
 20
11.96769832109463
 30
0.0
  0
VERTEX
  5
AB6
  8
OBJECT
 10
14.61388687128631
 20
11.96769832109463
 30
0.0
 42
0.4142135623730951
  0
VERTEX
  5
AB7
  8
OBJECT
 10
14.566886871286311
 20
11.92069832109464
 30
0.0
  0
VERTEX
  5
AB8
  8
OBJECT
 10
14.566886871286311
 20
11.624620672452791
 30
0.0
 42
0.4142135623730951
  0
VERTEX
  5
AB9
  8
OBJECT
 10
14.61388687128631
 20
11.577620672452779
 30
0.0
  0
VERTEX
  5
ABA
  8
OBJECT
 10
14.80611206808508
 20
11.577620672452779
 30
0.0
  0
VERTEX
  5
ABB
  8
OBJECT
 10
14.80611206808508
 20
11.602620672452771
 30
0.0
  0
VERTEX
  5
ABC
  8
OBJECT
 10
14.61388687128631
 20
11.602620672452799
 30
0.0
 42
-0.4142135623730951
  0
VERTEX
  5
ABD
  8
OBJECT
 10
14.59188687128629
 20
11.624620672452791
 30
0.0
  0
VERTEX
  5
ABE
  8
OBJECT
 10
14.59188687128629
 20
11.92069832109464
 30
0.0
 42
-0.4142135623730951
  0
VERTEX
  5
ABF
  8
OBJECT
 10
14.61388687128631
 20
11.94269832109466
 30
0.0
  0
VERTEX
  5
AC0
  8
OBJECT
 10
14.66040387985039
 20
11.94269832109466
 30
0.0
 42
0.4142135623730951
  0
VERTEX
  5
AC1
  8
OBJECT
 10
14.70740387985038
 20
11.98969832109465
 30
0.0
  0
VERTEX
  5
AC2
  8
OBJECT
 10
14.70740387985038
 20
12.29454302381091
 30
0.0
 42
0.4142135623730951
  0
VERTEX
  5
AC3
  8
OBJECT
 10
14.66040387985039
 20
12.341543023810869
 30
0.0
  0
VERTEX
  5
AC4
  8
OBJECT
 10
14.61388687128631
 20
12.3415430238109
 30
0.0
 42
-0.4142135623730951
  0
VERTEX
  5
AC5
  8
OBJECT
 10
14.59188687128629
 20
12.363543023810889
 30
0.0
  0
VERTEX
  5
AC6
  8
OBJECT
 10
14.59188687128629
 20
12.65962067245276
 30
0.0
 42
-0.4142135623730951
  0
VERTEX
  5
AC7
  8
OBJECT
 10
14.61388687128631
 20
12.681620672452761
 30
0.0
  0
VERTEX
  5
AC8
  8
OBJECT
 10
14.80611206808508
 20
12.68162067245278
 30
0.0
  0
VERTEX
  5
AC9
  8
OBJECT
 10
14.80611206808508
 20
12.706620672452759
 30
0.0
  0
VERTEX
  5
ACA
  8
OBJECT
 10
14.61388687128631
 20
12.706620672452759
 30
0.0
 42
0.4142135623730951
  0
VERTEX
  5
ACB
  8
OBJECT
 10
14.566886871286311
 20
12.65962067245276
 30
0.0
  0
VERTEX
  5
ACC
  8
OBJECT
 10
14.566886871286311
 20
12.363543023810889
 30
0.0
 42
0.4142135623730951
  0
VERTEX
  5
ACD
  8
OBJECT
 10
14.61388687128631
 20
12.316543023810899
 30
0.0
  0
SEQEND
  5
ACE
  8
OBJECT
  0
ARC
  5
394
  8
OBJECT
 10
14.66762019106708
 20
12.68162067245278
 30
0.0
 40
0.0935
 50
15.50840180376818
 51
178.07827053655271
  0
ARC
  5
395
  8
OBJECT
 10
14.66762019106708
 20
12.68162067245278
 30
0.0
 40
0.0935
 50
215.90582428889289
 51
0.0
  0
ARC
  5
396
  8
OBJECT
 10
14.66762019106708
 20
11.602620672452799
 30
0.0
 40
0.0935
 50
359.99999999998261
 51
144.0941757111068
  0
ARC
  5
397
  8
OBJECT
 10
14.66762019106708
 20
11.602620672452799
 30
0.0
 40
0.0935
 50
181.92172946344709
 51
344.49159819621372
  0
POLYLINE
  5
398
  8
HIDDEN
 66
     1
 10
0.0
 20
0.0
 30
0.0
 70
     1
  0
VERTEX
  5
ACF
  8
HIDDEN
 10
14.49562019106723
 20
26.26250410626502
 30
0.0
 42
0.4142135623730887
  0
VERTEX
  5
AD0
  8
HIDDEN
 10
14.66762019106722
 20
26.090504106264991
 30
0.0
  0
VERTEX
  5
AD1
  8
HIDDEN
 10
14.66762019106722
 20
26.090504106265019
 30
0.0
 42
0.2383634416005031
  0
VERTEX
  5
AD2
  8
HIDDEN
 10
14.806112068085049
 20
26.160504106265009
 30
0.0
  0
VERTEX
  5
AD3
  8
HIDDEN
 10
14.758927616047609
 20
26.194288106376131
 30
0.0
 42
-0.241913409418767
  0
VERTEX
  5
AD4
  8
HIDDEN
 10
14.677620191067239
 20
26.152504106264999
 30
0.0
  0
VERTEX
  5
AD5
  8
HIDDEN
 10
14.66762019106725
 20
26.15250410626502
 30
0.0
 42
-0.4142135623730951
  0
VERTEX
  5
AD6
  8
HIDDEN
 10
14.55762019106724
 20
26.26250410626502
 30
0.0
  0
VERTEX
  5
AD7
  8
HIDDEN
 10
14.55762019106724
 20
27.308504106265008
 30
0.0
 42
-0.4142135623730957
  0
VERTEX
  5
AD8
  8
HIDDEN
 10
14.66762019106725
 20
27.418504106265011
 30
0.0
 42
-0.2383634416006996
  0
VERTEX
  5
AD9
  8
HIDDEN
 10
14.756190577532299
 20
27.373736664404561
 30
0.0
  0
VERTEX
  5
ADA
  8
HIDDEN
 10
14.80611206808528
 20
27.410504106264991
 30
0.0
 42
0.2383634416006981
  0
VERTEX
  5
ADB
  8
HIDDEN
 10
14.66762019106725
 20
27.480504106264998
 30
0.0
 42
0.4142135623731013
  0
VERTEX
  5
ADC
  8
HIDDEN
 10
14.49562019106723
 20
27.308504106265008
 30
0.0
  0
SEQEND
  5
ADD
  8
HIDDEN
  0
POLYLINE
  5
3A8
  8
HIDDEN
 66
     1
 10
0.0
 20
0.0
 30
0.0
 70
     1
  0
VERTEX
  5
ADE
  8
HIDDEN
 10
14.78668724646065
 20
26.35315333339182
 30
0.0
 42
0.3296678698157022
  0
VERTEX
  5
ADF
  8
HIDDEN
 10
14.59425144350506
 20
26.384240414379882
 30
0.0
  0
VERTEX
  5
AE0
  8
HIDDEN
 10
14.622945848303919
 20
26.33017640600098
 30
0.0
 42
-0.3280870630029919
  0
VERTEX
  5
AE1
  8
HIDDEN
 10
14.74076887911373
 20
26.310019778701861
 30
0.0
 42
0.679542898302114
  0
VERTEX
  5
AE2
  8
HIDDEN
 10
14.87562019106705
 20
26.363423227365619
 30
0.0
  0
VERTEX
  5
AE3
  8
HIDDEN
 10
14.87562019106708
 20
27.207584985164662
 30
0.0
 42
0.679542898302114
  0
VERTEX
  5
AE4
  8
HIDDEN
 10
14.74076887911373
 20
27.26098843382842
 30
0.0
 42
-0.3280870630029975
  0
VERTEX
  5
AE5
  8
HIDDEN
 10
14.622945848303919
 20
27.240831806529311
 30
0.0
  0
VERTEX
  5
AE6
  8
HIDDEN
 10
14.59425144350506
 20
27.186767798150431
 30
0.0
 42
0.3296678698157051
  0
VERTEX
  5
AE7
  8
HIDDEN
 10
14.78668724646065
 20
27.217854879138489
 30
0.0
 42
-0.6795428983021175
  0
VERTEX
  5
AE8
  8
HIDDEN
 10
14.81262019106706
 20
27.20758498516469
 30
0.0
  0
VERTEX
  5
AE9
  8
HIDDEN
 10
14.81262019106706
 20
26.363423227365619
 30
0.0
 42
-0.679542898302169
  0
SEQEND
  5
AEA
  8
HIDDEN
  0
POLYLINE
  5
3B6
  8
HIDDEN
 66
     1
 10
0.0
 20
0.0
 30
0.0
 70
     1
  0
VERTEX
  5
AEB
  8
HIDDEN
 10
14.66040387985036
 20
26.611081754907051
 30
0.0
 42
0.4142135623730951
  0
VERTEX
  5
AEC
  8
HIDDEN
 10
14.68240387985035
 20
26.63308175490701
 30
0.0
  0
VERTEX
  5
AED
  8
HIDDEN
 10
14.68240387985035
 20
26.93792645762327
 30
0.0
 42
0.4142135623730951
  0
VERTEX
  5
AEE
  8
HIDDEN
 10
14.66040387985036
 20
26.95992645762329
 30
0.0
  0
VERTEX
  5
AEF
  8
HIDDEN
 10
14.61388687128628
 20
26.95992645762329
 30
0.0
 42
-0.4142135623730951
  0
VERTEX
  5
AF0
  8
HIDDEN
 10
14.566886871286281
 20
27.00692645762329
 30
0.0
  0
VERTEX
  5
AF1
  8
HIDDEN
 10
14.566886871286281
 20
27.303004106265121
 30
0.0
 42
-0.4142135623730951
  0
VERTEX
  5
AF2
  8
HIDDEN
 10
14.61388687128628
 20
27.35000410626515
 30
0.0
  0
VERTEX
  5
AF3
  8
HIDDEN
 10
14.806112068085049
 20
27.35000410626515
 30
0.0
  0
VERTEX
  5
AF4
  8
HIDDEN
 10
14.806112068085049
 20
27.325004106265141
 30
0.0
  0
VERTEX
  5
AF5
  8
HIDDEN
 10
14.61388687128628
 20
27.32500410626513
 30
0.0
 42
0.4142135623730951
  0
VERTEX
  5
AF6
  8
HIDDEN
 10
14.59188687128629
 20
27.303004106265121
 30
0.0
  0
VERTEX
  5
AF7
  8
HIDDEN
 10
14.59188687128629
 20
27.00692645762329
 30
0.0
 42
0.4142135623730951
  0
VERTEX
  5
AF8
  8
HIDDEN
 10
14.61388687128628
 20
26.984926457623271
 30
0.0
  0
VERTEX
  5
AF9
  8
HIDDEN
 10
14.66040387985036
 20
26.984926457623271
 30
0.0
 42
-0.4142135623730951
  0
VERTEX
  5
AFA
  8
HIDDEN
 10
14.707403879850361
 20
26.93792645762327
 30
0.0
  0
VERTEX
  5
AFB
  8
HIDDEN
 10
14.707403879850361
 20
26.63308175490701
 30
0.0
 42
-0.4142135623730951
  0
VERTEX
  5
AFC
  8
HIDDEN
 10
14.66040387985036
 20
26.586081754907049
 30
0.0
  0
VERTEX
  5
AFD
  8
HIDDEN
 10
14.61388687128628
 20
26.586081754907021
 30
0.0
 42
0.4142135623730951
  0
VERTEX
  5
AFE
  8
HIDDEN
 10
14.59188687128629
 20
26.564081754907029
 30
0.0
  0
VERTEX
  5
AFF
  8
HIDDEN
 10
14.59188687128629
 20
26.26800410626516
 30
0.0
 42
0.4142135623730951
  0
VERTEX
  5
B00
  8
HIDDEN
 10
14.61388687128628
 20
26.246004106265161
 30
0.0
  0
VERTEX
  5
B01
  8
HIDDEN
 10
14.806112068085049
 20
26.24600410626514
 30
0.0
  0
VERTEX
  5
B02
  8
HIDDEN
 10
14.806112068085049
 20
26.221004106265159
 30
0.0
  0
VERTEX
  5
B03
  8
HIDDEN
 10
14.61388687128628
 20
26.221004106265159
 30
0.0
 42
-0.4142135623730951
  0
VERTEX
  5
B04
  8
HIDDEN
 10
14.566886871286281
 20
26.26800410626516
 30
0.0
  0
VERTEX
  5
B05
  8
HIDDEN
 10
14.566886871286281
 20
26.564081754907029
 30
0.0
 42
-0.4142135623730951
  0
VERTEX
  5
B06
  8
HIDDEN
 10
14.61388687128628
 20
26.611081754907019
 30
0.0
  0
SEQEND
  5
B07
  8
HIDDEN
  0
ARC
  5
3D4
  8
HIDDEN
 10
14.66762019106708
 20
26.24600410626514
 30
0.0
 40
0.0935
 50
181.92172946344721
 51
344.49159819623179
  0
ARC
  5
3D5
  8
HIDDEN
 10
14.66762019106708
 20
26.24600410626514
 30
0.0
 40
0.0935
 50
0.0
 51
144.094175711107
  0
ARC
  5
3D6
  8
HIDDEN
 10
14.66762019106708
 20
27.325004106265119
 30
0.0
 40
0.0935
 50
215.90582428889309
 51
0.0000000000174261
  0
ARC
  5
3D7
  8
HIDDEN
 10
14.66762019106708
 20
27.325004106265119
 30
0.0
 40
0.0935
 50
15.50840180378624
 51
178.07827053655279
  0
POLYLINE
  5
3D8
  8
HIDDEN
 66
     1
 10
0.0
 20
0.0
 30
0.0
 70
     1
  0
VERTEX
  5
B08
  8
HIDDEN
 10
32.090836502283778
 20
26.611081754907051
 30
0.0
 42
-0.4142135623730951
  0
VERTEX
  5
B09
  8
HIDDEN
 10
32.068836502283787
 20
26.63308175490701
 30
0.0
  0
VERTEX
  5
B0A
  8
HIDDEN
 10
32.068836502283787
 20
26.93792645762327
 30
0.0
 42
-0.4142135623730951
  0
VERTEX
  5
B0B
  8
HIDDEN
 10
32.090836502283778
 20
26.95992645762329
 30
0.0
  0
VERTEX
  5
B0C
  8
HIDDEN
 10
32.137353510847859
 20
26.95992645762329
 30
0.0
 42
0.4142135623730951
  0
VERTEX
  5
B0D
  8
HIDDEN
 10
32.184353510847863
 20
27.00692645762329
 30
0.0
  0
VERTEX
  5
B0E
  8
HIDDEN
 10
32.184353510847863
 20
27.303004106265121
 30
0.0
 42
0.4142135623730951
  0
VERTEX
  5
B0F
  8
HIDDEN
 10
32.137353510847859
 20
27.35000410626515
 30
0.0
  0
VERTEX
  5
B10
  8
HIDDEN
 10
31.945128314049089
 20
27.35000410626515
 30
0.0
  0
VERTEX
  5
B11
  8
HIDDEN
 10
31.945128314049089
 20
27.325004106265141
 30
0.0
  0
VERTEX
  5
B12
  8
HIDDEN
 10
32.137353510847859
 20
27.32500410626513
 30
0.0
 42
-0.4142135623730951
  0
VERTEX
  5
B13
  8
HIDDEN
 10
32.159353510847872
 20
27.303004106265121
 30
0.0
  0
VERTEX
  5
B14
  8
HIDDEN
 10
32.159353510847872
 20
27.00692645762329
 30
0.0
 42
-0.4142135623730951
  0
VERTEX
  5
B15
  8
HIDDEN
 10
32.137353510847859
 20
26.984926457623271
 30
0.0
  0
VERTEX
  5
B16
  8
HIDDEN
 10
32.090836502283778
 20
26.984926457623271
 30
0.0
 42
0.4142135623730951
  0
VERTEX
  5
B17
  8
HIDDEN
 10
32.043836502283789
 20
26.93792645762327
 30
0.0
  0
VERTEX
  5
B18
  8
HIDDEN
 10
32.043836502283789
 20
26.63308175490701
 30
0.0
 42
0.4142135623730951
  0
VERTEX
  5
B19
  8
HIDDEN
 10
32.090836502283778
 20
26.586081754907049
 30
0.0
  0
VERTEX
  5
B1A
  8
HIDDEN
 10
32.137353510847859
 20
26.586081754907021
 30
0.0
 42
-0.4142135623730951
  0
VERTEX
  5
B1B
  8
HIDDEN
 10
32.159353510847872
 20
26.564081754907029
 30
0.0
  0
VERTEX
  5
B1C
  8
HIDDEN
 10
32.159353510847872
 20
26.26800410626516
 30
0.0
 42
-0.4142135623730951
  0
VERTEX
  5
B1D
  8
HIDDEN
 10
32.137353510847859
 20
26.246004106265161
 30
0.0
  0
VERTEX
  5
B1E
  8
HIDDEN
 10
31.945128314049089
 20
26.24600410626514
 30
0.0
  0
VERTEX
  5
B1F
  8
HIDDEN
 10
31.945128314049089
 20
26.221004106265159
 30
0.0
  0
VERTEX
  5
B20
  8
HIDDEN
 10
32.137353510847859
 20
26.221004106265159
 30
0.0
 42
0.4142135623730951
  0
VERTEX
  5
B21
  8
HIDDEN
 10
32.184353510847863
 20
26.26800410626516
 30
0.0
  0
VERTEX
  5
B22
  8
HIDDEN
 10
32.184353510847863
 20
26.564081754907029
 30
0.0
 42
0.4142135623730951
  0
VERTEX
  5
B23
  8
HIDDEN
 10
32.137353510847859
 20
26.611081754907019
 30
0.0
  0
SEQEND
  5
B24
  8
HIDDEN
  0
POLYLINE
  5
3F6
  8
HIDDEN
 66
     1
 10
0.0
 20
0.0
 30
0.0
 70
     1
  0
VERTEX
  5
B25
  8
HIDDEN
 10
31.964553135673501
 20
26.35315333339182
 30
0.0
 42
-0.3296678698157022
  0
VERTEX
  5
B26
  8
HIDDEN
 10
32.156988938629091
 20
26.384240414379882
 30
0.0
  0
VERTEX
  5
B27
  8
HIDDEN
 10
32.128294533830228
 20
26.33017640600098
 30
0.0
 42
0.3280870630029919
  0
VERTEX
  5
B28
  8
HIDDEN
 10
32.010471503020433
 20
26.310019778701861
 30
0.0
 42
-0.679542898302114
  0
VERTEX
  5
B29
  8
HIDDEN
 10
31.875620191067078
 20
26.363423227365619
 30
0.0
  0
VERTEX
  5
B2A
  8
HIDDEN
 10
31.87562019106705
 20
27.207584985164662
 30
0.0
 42
-0.679542898302114
  0
VERTEX
  5
B2B
  8
HIDDEN
 10
32.010471503020433
 20
27.26098843382842
 30
0.0
 42
0.3280870630029975
  0
VERTEX
  5
B2C
  8
HIDDEN
 10
32.128294533830228
 20
27.240831806529311
 30
0.0
  0
VERTEX
  5
B2D
  8
HIDDEN
 10
32.156988938629091
 20
27.186767798150431
 30
0.0
 42
-0.3296678698157051
  0
VERTEX
  5
B2E
  8
HIDDEN
 10
31.964553135673491
 20
27.217854879138489
 30
0.0
 42
0.6795428983021175
  0
VERTEX
  5
B2F
  8
HIDDEN
 10
31.938620191067091
 20
27.20758498516469
 30
0.0
  0
VERTEX
  5
B30
  8
HIDDEN
 10
31.938620191067091
 20
26.363423227365619
 30
0.0
 42
0.679542898302169
  0
SEQEND
  5
B31
  8
HIDDEN
  0
POLYLINE
  5
404
  8
HIDDEN
 66
     1
 10
0.0
 20
0.0
 30
0.0
 70
     1
  0
VERTEX
  5
B32
  8
HIDDEN
 10
32.255620191066932
 20
26.26250410626502
 30
0.0
 42
-0.4142135623730887
  0
VERTEX
  5
B33
  8
HIDDEN
 10
32.08362019106692
 20
26.090504106264991
 30
0.0
  0
VERTEX
  5
B34
  8
HIDDEN
 10
32.08362019106692
 20
26.090504106265019
 30
0.0
 42
-0.2383634416005031
  0
VERTEX
  5
B35
  8
HIDDEN
 10
31.945128314049089
 20
26.160504106265009
 30
0.0
  0
VERTEX
  5
B36
  8
HIDDEN
 10
31.992312766086549
 20
26.194288106376131
 30
0.0
 42
0.241913409418767
  0
VERTEX
  5
B37
  8
HIDDEN
 10
32.073620191066901
 20
26.152504106264999
 30
0.0
  0
VERTEX
  5
B38
  8
HIDDEN
 10
32.083620191066892
 20
26.15250410626502
 30
0.0
 42
0.4142135623730951
  0
VERTEX
  5
B39
  8
HIDDEN
 10
32.193620191066898
 20
26.26250410626502
 30
0.0
  0
VERTEX
  5
B3A
  8
HIDDEN
 10
32.193620191066898
 20
27.308504106265008
 30
0.0
 42
0.4142135623730957
  0
VERTEX
  5
B3B
  8
HIDDEN
 10
32.083620191066892
 20
27.418504106265011
 30
0.0
 42
0.2383634416006996
  0
VERTEX
  5
B3C
  8
HIDDEN
 10
31.995049804601841
 20
27.373736664404561
 30
0.0
  0
VERTEX
  5
B3D
  8
HIDDEN
 10
31.945128314048858
 20
27.410504106264991
 30
0.0
 42
-0.2383634416006981
  0
VERTEX
  5
B3E
  8
HIDDEN
 10
32.083620191066892
 20
27.480504106264998
 30
0.0
 42
-0.4142135623731013
  0
VERTEX
  5
B3F
  8
HIDDEN
 10
32.255620191066932
 20
27.308504106265008
 30
0.0
  0
SEQEND
  5
B40
  8
HIDDEN
  0
ARC
  5
414
  8
HIDDEN
 10
32.08362019106707
 20
26.24600410626514
 30
0.0
 40
0.0935
 50
35.905824288892951
 51
180.0
  0
ARC
  5
415
  8
HIDDEN
 10
32.08362019106707
 20
26.24600410626514
 30
0.0
 40
0.0935
 50
195.50840180376809
 51
358.07827053655268
  0
ARC
  5
416
  8
HIDDEN
 10
32.08362019106707
 20
27.325004106265119
 30
0.0
 40
0.0935
 50
1.9217294634472011
 51
164.49159819621369
  0
ARC
  5
417
  8
HIDDEN
 10
32.08362019106707
 20
27.325004106265119
 30
0.0
 40
0.0935
 50
179.99999999998249
 51
324.0941757111068
  0
CIRCLE
  5
418
  8
CENTER
 10
29.750620191067078
 20
13.296120672452791
 30
0.0
 40
0.156
  0
CIRCLE
  5
419
  8
CENTER
 10
25.500620191067078
 20
13.296120672452791
 30
0.0
 40
0.156
  0
CIRCLE
  5
41A
  8
CENTER
 10
21.250620191067078
 20
13.296120672452791
 30
0.0
 40
0.156
  0
CIRCLE
  5
41B
  8
CENTER
 10
17.00062019106711
 20
13.296120672452791
 30
0.0
 40
0.156
  0
CIRCLE
  5
41C
  8
CENTER
 10
47.076050580010516
 20
26.78550410626513
 30
0.0
 40
0.156
  0
CIRCLE
  5
41D
  8
CENTER
 10
51.076050580010516
 20
26.78550410626513
 30
0.0
 40
0.156
  0
CIRCLE
  5
41E
  8
CENTER
 10
56.076050580010516
 20
26.78550410626513
 30
0.0
 40
0.156
  0
LINE
  5
41F
  8
OBJECT
 10
61.076050580010538
 20
56.700720630167567
 30
0.0
 11
81.076050580010502
 21
56.700720630167567
 31
0.0
  0
LINE
  5
420
  8
OBJECT
 10
61.076050580010538
 20
56.36072063016757
 30
0.0
 11
81.076050580010502
 21
56.36072063016757
 31
0.0
  0
LINE
  5
421
  8
HIDDEN
 10
61.076050580010538
 20
56.600720630167579
 30
0.0
 11
80.915550580010517
 21
56.600720630167579
 31
0.0
  0
LINE
  5
422
  8
0
 10
61.076050580010538
 20
56.325720630167567
 30
0.0
 11
80.915550580010517
 21
56.325720630167567
 31
0.0
  0
LINE
  5
423
  8
0
 10
61.076050580010538
 20
56.700720630167567
 30
0.0
 11
61.076050580010538
 21
56.36072063016757
 31
0.0
  0
LINE
  5
424
  8
0
 10
61.076050580010538
 20
56.600720630167579
 30
0.0
 11
61.076050580010538
 21
56.325720630167567
 31
0.0
  0
LINE
  5
425
  8
CENTER
 10
61.701050580010538
 20
56.530720630167558
 30
0.0
 11
61.701050580010538
 21
56.870720630167561
 31
0.0
  0
LINE
  5
426
  8
CENTER
 10
62.201050580010531
 20
56.530720630167558
 30
0.0
 11
62.201050580010531
 21
56.870720630167561
 31
0.0
  0
LINE
  5
427
  8
CENTER
 10
62.076050580010516
 20
56.188220630167557
 30
0.0
 11
62.076050580010516
 21
56.463220630167562
 31
0.0
  0
LINE
  5
428
  8
CENTER
 10
62.701050580010531
 20
56.530720630167558
 30
0.0
 11
62.701050580010531
 21
56.870720630167561
 31
0.0
  0
LINE
  5
429
  8
CENTER
 10
66.076050580010531
 20
56.188220630167557
 30
0.0
 11
66.076050580010531
 21
56.463220630167562
 31
0.0
  0
LINE
  5
42A
  8
CENTER
 10
66.076050580010531
 20
56.530720630167558
 30
0.0
 11
66.076050580010531
 21
56.870720630167561
 31
0.0
  0
LINE
  5
42B
  8
CENTER
 10
71.076050580010502
 20
56.530720630167579
 30
0.0
 11
71.076050580010502
 21
56.87072063016759
 31
0.0
  0
LINE
  5
42C
  8
CENTER
 10
71.076050580010531
 20
56.188220630167557
 30
0.0
 11
71.076050580010531
 21
56.463220630167562
 31
0.0
  0
LINE
  5
42D
  8
CENTER
 10
75.576050580010559
 20
56.530720630167608
 30
0.0
 11
75.576050580010559
 21
56.870720630167618
 31
0.0
  0
LINE
  5
42E
  8
CENTER
 10
80.451050580010502
 20
56.530720630167558
 30
0.0
 11
80.451050580010502
 21
56.870720630167561
 31
0.0
  0
LINE
  5
42F
  8
CENTER
 10
79.951050580010559
 20
56.530720630167558
 30
0.0
 11
79.951050580010559
 21
56.870720630167561
 31
0.0
  0
LINE
  5
430
  8
0
 10
81.076050580010502
 20
56.700720630167567
 30
0.0
 11
81.076050580010502
 21
56.36072063016757
 31
0.0
  0
LINE
  5
431
  8
HIDDEN
 10
80.915550580010517
 20
56.325720630167567
 30
0.0
 11
80.915550580010517
 21
56.600720630167579
 31
0.0
  0
LINE
  5
432
  8
OBJECT
 10
61.076050580010538
 20
38.950720630167567
 30
0.0
 11
81.076050580010502
 21
38.950720630167567
 31
0.0
  0
LINE
  5
433
  8
OBJECT
 10
61.076050580010538
 20
39.29072063016757
 30
0.0
 11
81.076050580010502
 21
39.29072063016757
 31
0.0
  0
LINE
  5
434
  8
0
 10
46.076050580010538
 20
39.050720630167561
 30
0.0
 11
61.076050580010538
 21
39.050720630167561
 31
0.0
  0
LINE
  5
435
  8
0
 10
46.076050580010538
 20
39.325720630167567
 30
0.0
 11
65.915550580010517
 21
39.325720630167567
 31
0.0
  0
LINE
  5
436
  8
0
 10
46.076050580010538
 20
38.950720630167567
 30
0.0
 11
46.076050580010538
 21
39.29072063016757
 31
0.0
  0
LINE
  5
437
  8
0
 10
46.076050580010538
 20
39.050720630167561
 30
0.0
 11
46.076050580010538
 21
39.325720630167567
 31
0.0
  0
LINE
  5
438
  8
CENTER
 10
47.076050580010516
 20
39.463220630167577
 30
0.0
 11
47.076050580010516
 21
39.188220630167571
 31
0.0
  0
LINE
  5
439
  8
CENTER
 10
62.201050580010531
 20
39.120720630167568
 30
0.0
 11
62.201050580010531
 21
38.780720630167572
 31
0.0
  0
LINE
  5
43A
  8
CENTER
 10
61.701050580010538
 20
39.120720630167568
 30
0.0
 11
61.701050580010538
 21
38.780720630167572
 31
0.0
  0
LINE
  5
43B
  8
CENTER
 10
62.701050580010531
 20
39.120720630167568
 30
0.0
 11
62.701050580010531
 21
38.780720630167572
 31
0.0
  0
LINE
  5
43C
  8
CENTER
 10
66.076050580010531
 20
39.120720630167568
 30
0.0
 11
66.076050580010531
 21
38.780720630167572
 31
0.0
  0
LINE
  5
43D
  8
CENTER
 10
56.076050580010516
 20
39.463220630167577
 30
0.0
 11
56.076050580010516
 21
39.188220630167571
 31
0.0
  0
LINE
  5
43E
  8
CENTER
 10
71.076050580010531
 20
39.12072063016754
 30
0.0
 11
71.076050580010531
 21
38.780720630167536
 31
0.0
  0
LINE
  5
43F
  8
CENTER
 10
75.576050580010559
 20
39.120720630167519
 30
0.0
 11
75.576050580010559
 21
38.780720630167508
 31
0.0
  0
LINE
  5
440
  8
CENTER
 10
79.951050580010559
 20
39.120720630167568
 30
0.0
 11
79.951050580010559
 21
38.780720630167572
 31
0.0
  0
LINE
  5
441
  8
0
 10
81.076050580010502
 20
38.950720630167567
 30
0.0
 11
81.076050580010502
 21
39.29072063016757
 31
0.0
  0
LINE
  5
442
  8
CENTER
 10
80.451050580010502
 20
39.120720630167568
 30
0.0
 11
80.451050580010502
 21
38.780720630167572
 31
0.0
  0
LINE
  5
443
  8
HIDDEN
 10
65.915550580010517
 20
39.325720630167567
 30
0.0
 11
65.915550580010517
 21
39.050720630167561
 31
0.0
  0
POLYLINE
  5
444
  8
OBJECT
 62
     4
 66
     1
 10
0.0
 20
0.0
 30
0.0
 70
     1
  0
VERTEX
  5
B41
  8
OBJECT
 62
     4
 10
32.875620191067078
 20
10.40812067245278
 30
0.0
  0
VERTEX
  5
B42
  8
OBJECT
 62
     4
 10
32.875620191067078
 20
13.876120672452791
 30
0.0
  0
VERTEX
  5
B43
  8
OBJECT
 62
     4
 10
13.87562019106708
 20
13.876120672452791
 30
0.0
  0
VERTEX
  5
B44
  8
OBJECT
 62
     4
 10
13.87562019106708
 20
10.40812067245278
 30
0.0
  0
SEQEND
  5
B45
  8
OBJECT
 62
     4
  0
LINE
  5
44A
  8
HIDDEN
 10
60.076050580010516
 20
26.265265032240698
 30
0.0
 11
60.076050580010516
 21
27.179743180289741
 31
0.0
  0
LINE
  5
44B
  8
OBJECT
 10
60.076050580010516
 20
26.222423227365599
 30
0.0
 11
60.076050580010516
 21
25.222504106265131
 31
0.0
  0
LINE
  5
44C
  8
OBJECT
 10
60.014050580010519
 20
26.222423227365599
 30
0.0
 11
60.014050580010519
 21
25.284504106265128
 31
0.0
  0
LINE
  5
44D
  8
HIDDEN
 10
60.014050580010519
 20
26.265265032240698
 30
0.0
 11
60.014050580010519
 21
27.179743180289741
 31
0.0
  0
LINE
  5
44E
  8
HIDDEN
 10
46.138050580010521
 20
41.47462275331803
 30
0.0
 11
46.138050580010528
 21
41.176818507017273
 31
0.0
  0
ARC
  5
44F
  8
HIDDEN
 10
46.467970855298283
 20
41.325720630167567
 30
0.0
 40
0.3299202752877545
 50
162.48264455370369
 51
197.51735544630071
  0
LINE
  5
450
  8
HIDDEN
 10
46.268050580010517
 20
41.47462275331803
 30
0.0
 11
46.268050580010517
 21
41.176818507017273
 31
0.0
  0
ARC
  5
451
  8
HIDDEN
 10
45.938130304722769
 20
41.325720630167567
 30
0.0
 40
0.3299202752877545
 50
342.48264455369912
 51
17.517355446296278
  0
CIRCLE
  5
452
  8
HIDDEN
 10
29.875620191067078
 20
26.785504106265151
 30
0.0
 40
0.172
  0
POLYLINE
  5
453
  8
HIDDEN
 66
     1
 10
0.0
 20
0.0
 30
0.0
 70
     1
  0
VERTEX
  5
B46
  8
HIDDEN
 10
29.776315944766459
 20
26.957504106265151
 30
0.0
  0
VERTEX
  5
B47
  8
HIDDEN
 10
29.67701169846584
 20
26.785504106265151
 30
0.0
  0
VERTEX
  5
B48
  8
HIDDEN
 10
29.776315944766459
 20
26.613504106265161
 30
0.0
  0
VERTEX
  5
B49
  8
HIDDEN
 10
29.974924437367669
 20
26.613504106265161
 30
0.0
  0
VERTEX
  5
B4A
  8
HIDDEN
 10
30.074228683668291
 20
26.785504106265151
 30
0.0
  0
VERTEX
  5
B4B
  8
HIDDEN
 10
29.974924437367701
 20
26.957504106265151
 30
0.0
  0
SEQEND
  5
B4C
  8
HIDDEN
  0
POLYLINE
  5
45B
  8
HIDDEN
 66
     1
 10
0.0
 20
0.0
 30
0.0
 70
     1
  0
VERTEX
  5
B4D
  8
HIDDEN
 10
16.974924437367701
 20
26.957504106265151
 30
0.0
  0
VERTEX
  5
B4E
  8
HIDDEN
 10
17.07422868366832
 20
26.785504106265151
 30
0.0
  0
VERTEX
  5
B4F
  8
HIDDEN
 10
16.974924437367701
 20
26.613504106265161
 30
0.0
  0
VERTEX
  5
B50
  8
HIDDEN
 10
16.776315944766491
 20
26.613504106265161
 30
0.0
  0
VERTEX
  5
B51
  8
HIDDEN
 10
16.677011698465869
 20
26.785504106265151
 30
0.0
  0
VERTEX
  5
B52
  8
HIDDEN
 10
16.776315944766459
 20
26.957504106265151
 30
0.0
  0
SEQEND
  5
B53
  8
HIDDEN
  0
CIRCLE
  5
463
  8
HIDDEN
 10
16.875620191067078
 20
26.785504106265151
 30
0.0
 40
0.172
  0
POLYLINE
  5
464
  8
HIDDEN
 66
     1
 10
0.0
 20
0.0
 30
0.0
 70
     1
  0
VERTEX
  5
B54
  8
HIDDEN
 10
46.252750797876608
 20
41.425024876467923
 30
0.0
 42
0.3084765539483098
  0
VERTEX
  5
B55
  8
HIDDEN
 10
46.252750797876217
 20
41.524220630167576
 30
0.0
  0
VERTEX
  5
B56
  8
HIDDEN
 10
46.153350362144181
 20
41.524220630167576
 30
0.0
 42
0.3084765539483101
  0
VERTEX
  5
B57
  8
HIDDEN
 10
46.153350362144423
 20
41.425024876467923
 30
0.0
  0
SEQEND
  5
B58
  8
HIDDEN
  0
POLYLINE
  5
46A
  8
HIDDEN
 66
     1
 10
0.0
 20
0.0
 30
0.0
 70
     1
  0
VERTEX
  5
B59
  8
HIDDEN
 10
46.252750797877361
 20
41.226416383866443
 30
0.0
 42
-0.3084765539402507
  0
VERTEX
  5
B5A
  8
HIDDEN
 10
46.252750797877837
 20
41.127220630167571
 30
0.0
  0
VERTEX
  5
B5B
  8
HIDDEN
 10
46.153350362144579
 20
41.127220630167571
 30
0.0
 42
-0.3084765539402503
  0
VERTEX
  5
B5C
  8
HIDDEN
 10
46.153350362143691
 20
41.226416383866443
 30
0.0
  0
SEQEND
  5
B5D
  8
HIDDEN
  0
ARC
  5
470
  8
HIDDEN
 10
60.938130304722769
 20
54.325720630167538
 30
0.0
 40
0.3299202752877545
 50
342.48264455370372
 51
17.517355446300801
  0
LINE
  5
471
  8
HIDDEN
 10
61.268050580010531
 20
54.176818507017082
 30
0.0
 11
61.268050580010517
 21
54.474622753317831
 31
0.0
  0
ARC
  5
472
  8
HIDDEN
 10
61.467970855298283
 20
54.325720630167538
 30
0.0
 40
0.3299202752877545
 50
162.4826445536992
 51
197.51735544629619
  0
LINE
  5
473
  8
HIDDEN
 10
61.138050580010521
 20
54.176818507017082
 30
0.0
 11
61.138050580010528
 21
54.474622753317831
 31
0.0
  0
POLYLINE
  5
474
  8
HIDDEN
 66
     1
 10
0.0
 20
0.0
 30
0.0
 70
     1
  0
VERTEX
  5
B5E
  8
HIDDEN
 10
61.252750797877361
 20
54.425024876468648
 30
0.0
 42
0.3084765539402507
  0
VERTEX
  5
B5F
  8
HIDDEN
 10
61.252750797877837
 20
54.524220630167541
 30
0.0
  0
VERTEX
  5
B60
  8
HIDDEN
 10
61.153350362144579
 20
54.524220630167541
 30
0.0
 42
0.3084765539402503
  0
VERTEX
  5
B61
  8
HIDDEN
 10
61.153350362143691
 20
54.425024876468648
 30
0.0
  0
SEQEND
  5
B62
  8
HIDDEN
  0
POLYLINE
  5
47A
  8
HIDDEN
 66
     1
 10
0.0
 20
0.0
 30
0.0
 70
     1
  0
VERTEX
  5
B63
  8
HIDDEN
 10
61.252750797876608
 20
54.226416383867182
 30
0.0
 42
-0.3084765539483098
  0
VERTEX
  5
B64
  8
HIDDEN
 10
61.252750797876217
 20
54.127220630167521
 30
0.0
  0
VERTEX
  5
B65
  8
HIDDEN
 10
61.153350362144181
 20
54.127220630167521
 30
0.0
 42
-0.3084765539483101
  0
VERTEX
  5
B66
  8
HIDDEN
 10
61.153350362144423
 20
54.226416383867182
 30
0.0
  0
SEQEND
  5
B67
  8
HIDDEN
  0
POLYLINE
  5
480
  8
OBJECT
 62
     2
 66
     1
 10
0.0
 20
0.0
 30
0.0
 70
     1
  0
VERTEX
  5
B68
  8
OBJECT
 62
     2
 10
62.872050580010537
 20
38.355720630167561
 30
0.0
 42
-0.4142135623730966
  0
VERTEX
  5
B69
  8
OBJECT
 62
     2
 10
62.857050580010537
 20
38.34072063016756
 30
0.0
  0
VERTEX
  5
B6A
  8
OBJECT
 62
     2
 10
61.512050580010538
 20
38.34072063016756
 30
0.0
 42
-0.4142135623730951
  0
VERTEX
  5
B6B
  8
OBJECT
 62
     2
 10
61.497050580010537
 20
38.355720630167561
 30
0.0
  0
VERTEX
  5
B6C
  8
OBJECT
 62
     2
 10
61.497050580010537
 20
38.856720630167551
 30
0.0
  0
VERTEX
  5
B6D
  8
OBJECT
 62
     2
 10
61.38805058001055
 20
38.856720630167551
 30
0.0
  0
VERTEX
  5
B6E
  8
OBJECT
 62
     2
 10
61.38805058001055
 20
38.356720630167551
 30
0.0
 42
0.4142135623730936
  0
VERTEX
  5
B6F
  8
OBJECT
 62
     2
 10
61.51305058001055
 20
38.231720630167551
 30
0.0
  0
VERTEX
  5
B70
  8
OBJECT
 62
     2
 10
62.856050580010539
 20
38.231720630167551
 30
0.0
 42
0.4142135623730943
  0
VERTEX
  5
B71
  8
OBJECT
 62
     2
 10
62.981050580010539
 20
38.356720630167551
 30
0.0
  0
VERTEX
  5
B72
  8
OBJECT
 62
     2
 10
62.98105058001056
 20
38.732720630167542
 30
0.0
 42
-0.4142135623730951
  0
VERTEX
  5
B73
  8
OBJECT
 62
     2
 10
62.996050580010561
 20
38.747720630167542
 30
0.0
  0
VERTEX
  5
B74
  8
OBJECT
 62
     2
 10
63.560050580010547
 20
38.747720630167542
 30
0.0
  0
VERTEX
  5
B75
  8
OBJECT
 62
     2
 10
63.560050580010547
 20
38.856720630167551
 30
0.0
  0
VERTEX
  5
B76
  8
OBJECT
 62
     2
 10
62.997050580010537
 20
38.856720630167551
 30
0.0
 42
0.4142135623730951
  0
VERTEX
  5
B77
  8
OBJECT
 62
     2
 10
62.872050580010537
 20
38.731720630167551
 30
0.0
  0
SEQEND
  5
B78
  8
OBJECT
 62
     2
  0
POLYLINE
  5
492
  8
OBJECT
 62
     1
 66
     1
 10
0.0
 20
0.0
 30
0.0
 70
     1
  0
VERTEX
  5
B79
  8
OBJECT
 62
     1
 10
62.833884841333187
 20
38.950720630167567
 30
0.0
  0
VERTEX
  5
B7A
  8
OBJECT
 62
     1
 10
61.326050580010538
 20
38.950720630167567
 30
0.0
  0
VERTEX
  5
B7B
  8
OBJECT
 62
     1
 10
61.326050580010538
 20
38.411720630167572
 30
0.0
  0
VERTEX
  5
B7C
  8
OBJECT
 62
     1
 10
61.38805058001055
 20
38.411720630167572
 30
0.0
  0
VERTEX
  5
B7D
  8
OBJECT
 62
     1
 10
61.38805058001055
 20
38.888720630167569
 30
0.0
  0
VERTEX
  5
B7E
  8
OBJECT
 62
     1
 10
68.573050580010545
 20
38.888720630167569
 30
0.0
  0
VERTEX
  5
B7F
  8
OBJECT
 62
     1
 10
68.573050580010545
 20
38.950720630167567
 30
0.0
  0
VERTEX
  5
B80
  8
OBJECT
 62
     1
 10
67.682216318687892
 20
38.950720630167567
 30
0.0
 42
0.3948051417730923
  0
VERTEX
  5
B81
  8
OBJECT
 62
     1
 10
67.308050580010502
 20
39.300720630167568
 30
0.0
  0
VERTEX
  5
B82
  8
OBJECT
 62
     1
 10
66.198050580010573
 20
39.300720630167568
 30
0.0
 42
0.3948051417730947
  0
VERTEX
  5
B83
  8
OBJECT
 62
     1
 10
65.823884841333182
 20
38.950720630167567
 30
0.0
  0
VERTEX
  5
B84
  8
OBJECT
 62
     1
 10
64.692216318687912
 20
38.950720630167567
 30
0.0
 42
0.3948051417730923
  0
VERTEX
  5
B85
  8
OBJECT
 62
     1
 10
64.318050580010521
 20
39.300720630167568
 30
0.0
  0
VERTEX
  5
B86
  8
OBJECT
 62
     1
 10
63.208050580010593
 20
39.300720630167568
 30
0.0
 42
0.3948051417730947
  0
SEQEND
  5
B87
  8
OBJECT
 62
     1
  0
POLYLINE
  5
4A2
  8
OBJECT
 62
     1
 66
     1
 10
0.0
 20
0.0
 30
0.0
 70
     1
  0
VERTEX
  5
B88
  8
OBJECT
 62
     1
 10
74.88019017905782
 20
38.950720630167567
 30
0.0
  0
VERTEX
  5
B89
  8
OBJECT
 62
     1
 10
76.388024440380462
 20
38.950720630167567
 30
0.0
  0
VERTEX
  5
B8A
  8
OBJECT
 62
     1
 10
76.388024440380462
 20
38.411720630167572
 30
0.0
  0
VERTEX
  5
B8B
  8
OBJECT
 62
     1
 10
76.326024440380451
 20
38.411720630167572
 30
0.0
  0
VERTEX
  5
B8C
  8
OBJECT
 62
     1
 10
76.326024440380451
 20
38.888720630167569
 30
0.0
  0
VERTEX
  5
B8D
  8
OBJECT
 62
     1
 10
69.141024440380448
 20
38.888720630167569
 30
0.0
  0
VERTEX
  5
B8E
  8
OBJECT
 62
     1
 10
69.141024440380448
 20
38.950720630167567
 30
0.0
  0
VERTEX
  5
B8F
  8
OBJECT
 62
     1
 10
70.031858701703101
 20
38.950720630167567
 30
0.0
 42
-0.3948051417730923
  0
VERTEX
  5
B90
  8
OBJECT
 62
     1
 10
70.406024440380492
 20
39.300720630167568
 30
0.0
  0
VERTEX
  5
B91
  8
OBJECT
 62
     1
 10
71.51602444038042
 20
39.300720630167568
 30
0.0
 42
-0.3948051417730947
  0
VERTEX
  5
B92
  8
OBJECT
 62
     1
 10
71.890190179057811
 20
38.950720630167567
 30
0.0
  0
VERTEX
  5
B93
  8
OBJECT
 62
     1
 10
73.02185870170311
 20
38.950720630167567
 30
0.0
 42
-0.3948051417730923
  0
VERTEX
  5
B94
  8
OBJECT
 62
     1
 10
73.396024440380501
 20
39.300720630167568
 30
0.0
  0
VERTEX
  5
B95
  8
OBJECT
 62
     1
 10
74.506024440380429
 20
39.300720630167568
 30
0.0
 42
-0.3948051417730947
  0
SEQEND
  5
B96
  8
OBJECT
 62
     1
  0
POLYLINE
  5
4B2
  8
OBJECT
 62
     2
 66
     1
 10
0.0
 20
0.0
 30
0.0
 70
     1
  0
VERTEX
  5
B97
  8
OBJECT
 62
     2
 10
74.842024440380442
 20
38.355720630167561
 30
0.0
 42
0.4142135623730966
  0
VERTEX
  5
B98
  8
OBJECT
 62
     2
 10
74.857024440380457
 20
38.34072063016756
 30
0.0
  0
VERTEX
  5
B99
  8
OBJECT
 62
     2
 10
76.202024440380455
 20
38.34072063016756
 30
0.0
 42
0.4142135623730951
  0
VERTEX
  5
B9A
  8
OBJECT
 62
     2
 10
76.217024440380442
 20
38.355720630167561
 30
0.0
  0
VERTEX
  5
B9B
  8
OBJECT
 62
     2
 10
76.217024440380442
 20
38.856720630167551
 30
0.0
  0
VERTEX
  5
B9C
  8
OBJECT
 62
     2
 10
76.326024440380451
 20
38.856720630167551
 30
0.0
  0
VERTEX
  5
B9D
  8
OBJECT
 62
     2
 10
76.326024440380451
 20
38.356720630167551
 30
0.0
 42
-0.4142135623730936
  0
VERTEX
  5
B9E
  8
OBJECT
 62
     2
 10
76.201024440380451
 20
38.231720630167551
 30
0.0
  0
VERTEX
  5
B9F
  8
OBJECT
 62
     2
 10
74.858024440380461
 20
38.231720630167551
 30
0.0
 42
-0.4142135623730943
  0
VERTEX
  5
BA0
  8
OBJECT
 62
     2
 10
74.733024440380461
 20
38.356720630167551
 30
0.0
  0
VERTEX
  5
BA1
  8
OBJECT
 62
     2
 10
74.733024440380461
 20
38.732720630167542
 30
0.0
 42
0.4142135623730951
  0
VERTEX
  5
BA2
  8
OBJECT
 62
     2
 10
74.718024440380447
 20
38.747720630167542
 30
0.0
  0
VERTEX
  5
BA3
  8
OBJECT
 62
     2
 10
74.154024440380454
 20
38.747720630167542
 30
0.0
  0
VERTEX
  5
BA4
  8
OBJECT
 62
     2
 10
74.154024440380454
 20
38.856720630167551
 30
0.0
  0
VERTEX
  5
BA5
  8
OBJECT
 62
     2
 10
74.717024440380442
 20
38.856720630167551
 30
0.0
 42
-0.4142135623730951
  0
VERTEX
  5
BA6
  8
OBJECT
 62
     2
 10
74.842024440380442
 20
38.731720630167551
 30
0.0
  0
SEQEND
  5
BA7
  8
OBJECT
 62
     2
  0
LINE
  5
4C4
  8
CENTER
 10
63.31005058001054
 20
38.856720630167537
 30
0.0
 11
63.31005058001054
 21
38.516720630167526
 31
0.0
  0
LINE
  5
4C5
  8
CENTER
 10
74.404024440380454
 20
38.856720630167537
 30
0.0
 11
74.404024440380454
 21
38.516720630167526
 31
0.0
  0
POLYLINE
  5
4C6
  8
OBJECT
 62
     1
 66
     1
 10
0.0
 20
0.0
 30
0.0
 70
     1
  0
VERTEX
  5
BA8
  8
OBJECT
 62
     1
 10
62.263050580010528
 20
28.410504106265151
 30
0.0
 42
1.0
  0
VERTEX
  5
BA9
  8
OBJECT
 62
     1
 10
62.263050580010528
 20
28.160504106265162
 30
0.0
  0
VERTEX
  5
BAA
  8
OBJECT
 62
     1
 10
63.38305058001054
 20
28.160504106265162
 30
0.0
 42
1.0
  0
VERTEX
  5
BAB
  8
OBJECT
 62
     1
 10
63.38305058001054
 20
28.410504106265151
 30
0.0
  0
SEQEND
  5
BAC
  8
OBJECT
 62
     1
  0
ARC
  5
4CC
  8
OBJECT
 62
     1
 10
63.208050580010543
 20
26.080504106265138
 30
0.0
 40
0.375
 50
187.97069934185839
 51
270.0
  0
POLYLINE
  5
4CD
  8
OBJECT
 62
     1
 66
     1
 10
0.0
 20
0.0
 30
0.0
 70
     1
  0
VERTEX
  5
BAD
  8
OBJECT
 62
     1
 10
62.263050580010528
 20
25.16050410626514
 30
0.0
 42
-1.0
  0
VERTEX
  5
BAE
  8
OBJECT
 62
     1
 10
62.263050580010528
 20
25.41050410626513
 30
0.0
  0
VERTEX
  5
BAF
  8
OBJECT
 62
     1
 10
63.38305058001054
 20
25.41050410626513
 30
0.0
 42
-1.0
  0
VERTEX
  5
BB0
  8
OBJECT
 62
     1
 10
63.38305058001054
 20
25.16050410626514
 30
0.0
  0
SEQEND
  5
BB1
  8
OBJECT
 62
     1
  0
ARC
  5
4D3
  8
OBJECT
 62
     1
 10
63.208050580010543
 20
27.490504106265149
 30
0.0
 40
0.375
 50
90.0
 51
172.02930065814149
  0
POLYLINE
  5
4D4
  8
OBJECT
 62
     1
 66
     1
 10
0.0
 20
0.0
 30
0.0
 70
     1
  0
VERTEX
  5
BB2
  8
OBJECT
 62
     1
 10
61.946050580010542
 20
28.535504106265162
 30
0.0
  0
VERTEX
  5
BB3
  8
OBJECT
 62
     1
 10
61.571050580010542
 20
28.160504106265162
 30
0.0
  0
VERTEX
  5
BB4
  8
OBJECT
 62
     1
 10
61.326050580010516
 20
28.16050410626514
 30
0.0
  0
VERTEX
  5
BB5
  8
OBJECT
 62
     1
 10
61.326050580010516
 20
25.410504106265162
 30
0.0
  0
VERTEX
  5
BB6
  8
OBJECT
 62
     1
 10
61.571050580010542
 20
25.410504106265162
 30
0.0
  0
VERTEX
  5
BB7
  8
OBJECT
 62
     1
 10
61.946050580010542
 20
25.035504106265162
 30
0.0
  0
VERTEX
  5
BB8
  8
OBJECT
 62
     1
 10
68.386050580010561
 20
25.03550410626514
 30
0.0
 42
0.4142135623730951
  0
VERTEX
  5
BB9
  8
OBJECT
 62
     1
 10
68.573050580010545
 20
25.222504106265141
 30
0.0
  0
VERTEX
  5
BBA
  8
OBJECT
 62
     1
 10
68.573050580010545
 20
28.348504106265139
 30
0.0
 42
0.4142135623730951
  0
VERTEX
  5
BBB
  8
OBJECT
 62
     1
 10
68.386050580010561
 20
28.53550410626514
 30
0.0
  0
SEQEND
  5
BBC
  8
OBJECT
 62
     1
  0
POLYLINE
  5
4E0
  8
OBJECT
 62
     1
 66
     1
 10
0.0
 20
0.0
 30
0.0
 70
     1
  0
VERTEX
  5
BBD
  8
OBJECT
 62
     1
 10
68.29955058001056
 20
26.879004106265139
 30
0.0
 42
-1.0
  0
VERTEX
  5
BBE
  8
OBJECT
 62
     1
 10
68.29955058001056
 20
26.692004106265149
 30
0.0
  0
VERTEX
  5
BBF
  8
OBJECT
 62
     1
 10
62.096550580010522
 20
26.692004106265149
 30
0.0
 42
-1.0
  0
VERTEX
  5
BC0
  8
OBJECT
 62
     1
 10
62.096550580010543
 20
26.87900410626515
 30
0.0
  0
SEQEND
  5
BC1
  8
OBJECT
 62
     1
  0
LINE
  5
4E6
  8
OBJECT
 62
     1
 10
61.388050580010521
 20
25.41050410626514
 30
0.0
 11
61.388050580010521
 21
28.16050410626514
 31
0.0
  0
ARC
  5
4E7
  8
OBJECT
 62
     1
 10
61.525050580010543
 20
26.53550410626514
 30
0.0
 40
0.109
 50
270.0
 51
90.000000000000028
  0
LINE
  5
4E8
  8
OBJECT
 62
     1
 10
61.525050580010543
 20
25.801504106265149
 30
0.0
 11
61.388050580010521
 21
25.801504106265149
 31
0.0
  0
LINE
  5
4E9
  8
OBJECT
 62
     1
 10
61.525050580010543
 20
26.019504106265149
 30
0.0
 11
61.388050580010521
 21
26.019504106265149
 31
0.0
  0
LINE
  5
4EA
  8
OBJECT
 62
     1
 10
61.525050580010543
 20
26.426504106265149
 30
0.0
 11
61.388050580010521
 21
26.426504106265149
 31
0.0
  0
ARC
  5
4EB
  8
OBJECT
 62
     1
 10
61.525050580010543
 20
25.91050410626514
 30
0.0
 40
0.109
 50
270.0
 51
90.000000000000028
  0
LINE
  5
4EC
  8
OBJECT
 62
     1
 10
61.525050580010543
 20
26.644504106265149
 30
0.0
 11
61.388050580010521
 21
26.644504106265149
 31
0.0
  0
LINE
  5
4ED
  8
OBJECT
 62
     1
 10
61.525050580010543
 20
27.144504106265149
 30
0.0
 11
61.388050580010521
 21
27.144504106265149
 31
0.0
  0
LINE
  5
4EE
  8
OBJECT
 62
     1
 10
61.525050580010543
 20
26.926504106265149
 30
0.0
 11
61.388050580010521
 21
26.926504106265149
 31
0.0
  0
LINE
  5
4EF
  8
OBJECT
 62
     1
 10
61.525050580010543
 20
27.551504106265149
 30
0.0
 11
61.388050580010521
 21
27.551504106265149
 31
0.0
  0
LINE
  5
4F0
  8
OBJECT
 62
     1
 10
61.525050580010543
 20
27.769504106265149
 30
0.0
 11
61.388050580010521
 21
27.769504106265149
 31
0.0
  0
ARC
  5
4F1
  8
OBJECT
 62
     1
 10
61.525050580010543
 20
27.035504106265151
 30
0.0
 40
0.109
 50
270.0
 51
89.999999999999986
  0
ARC
  5
4F2
  8
OBJECT
 62
     1
 10
61.525050580010543
 20
27.660504106265151
 30
0.0
 40
0.109
 50
270.0
 51
89.999999999999986
  0
POLYLINE
  5
4F3
  8
OBJECT
 62
     1
 66
     1
 10
0.0
 20
0.0
 30
0.0
  0
VERTEX
  5
BC2
  8
OBJECT
 62
     1
 10
67.679427746781556
 20
27.542504106265142
 30
0.0
  0
VERTEX
  5
BC3
  8
OBJECT
 62
     1
 10
65.82667341323949
 20
27.542504106265142
 30
0.0
  0
VERTEX
  5
BC4
  8
OBJECT
 62
     1
 10
67.679427746782977
 20
27.542504106265351
 30
0.0
 42
0.3740304065646985
  0
VERTEX
  5
BC5
  8
OBJECT
 62
     1
 10
67.308050580010473
 20
27.865504106265149
 30
0.0
  0
VERTEX
  5
BC6
  8
OBJECT
 62
     1
 10
66.198049846364768
 20
27.865504106265149
 30
0.0
  0
SEQEND
  5
BC7
  8
OBJECT
 62
     1
  0
ARC
  5
4FA
  8
OBJECT
 62
     1
 10
66.198050580010545
 20
27.490504106265149
 30
0.0
 40
0.375
 50
90.0
 51
172.02930065814149
  0
POLYLINE
  5
4FB
  8
OBJECT
 62
     1
 66
     1
 10
0.0
 20
0.0
 30
0.0
  0
VERTEX
  5
BC8
  8
OBJECT
 62
     1
 10
64.689427746781547
 20
27.542504106265142
 30
0.0
  0
VERTEX
  5
BC9
  8
OBJECT
 62
     1
 10
62.836673413239481
 20
27.542504106265142
 30
0.0
  0
VERTEX
  5
BCA
  8
OBJECT
 62
     1
 10
64.689427746782997
 20
27.542504106265351
 30
0.0
 42
0.3740304065646985
  0
VERTEX
  5
BCB
  8
OBJECT
 62
     1
 10
64.318050580010464
 20
27.865504106265149
 30
0.0
  0
VERTEX
  5
BCC
  8
OBJECT
 62
     1
 10
63.208049846364773
 20
27.865504106265149
 30
0.0
  0
SEQEND
  5
BCD
  8
OBJECT
 62
     1
  0
ARC
  5
502
  8
OBJECT
 62
     1
 10
66.198050580010545
 20
26.080504106265138
 30
0.0
 40
0.375
 50
187.97069934185839
 51
270.0
  0
POLYLINE
  5
503
  8
OBJECT
 62
     1
 66
     1
 10
0.0
 20
0.0
 30
0.0
  0
VERTEX
  5
BCE
  8
OBJECT
 62
     1
 10
67.679427746781556
 20
26.028504106265139
 30
0.0
  0
VERTEX
  5
BCF
  8
OBJECT
 62
     1
 10
65.82667341323949
 20
26.028504106265139
 30
0.0
  0
VERTEX
  5
BD0
  8
OBJECT
 62
     1
 10
67.679427746782977
 20
26.02850410626494
 30
0.0
 42
-0.3740304065646985
  0
VERTEX
  5
BD1
  8
OBJECT
 62
     1
 10
67.308050580010473
 20
25.705504106265138
 30
0.0
  0
VERTEX
  5
BD2
  8
OBJECT
 62
     1
 10
66.198049846364768
 20
25.705504106265138
 30
0.0
  0
SEQEND
  5
BD3
  8
OBJECT
 62
     1
  0
POLYLINE
  5
50A
  8
OBJECT
 62
     1
 66
     1
 10
0.0
 20
0.0
 30
0.0
 70
     1
  0
VERTEX
  5
BD4
  8
OBJECT
 62
     1
 10
65.503050580010552
 20
25.16050410626514
 30
0.0
 42
-1.0
  0
VERTEX
  5
BD5
  8
OBJECT
 62
     1
 10
65.503050580010552
 20
25.41050410626513
 30
0.0
  0
VERTEX
  5
BD6
  8
OBJECT
 62
     1
 10
66.623050580010513
 20
25.41050410626513
 30
0.0
 42
-1.0
  0
VERTEX
  5
BD7
  8
OBJECT
 62
     1
 10
66.623050580010513
 20
25.16050410626514
 30
0.0
  0
SEQEND
  5
BD8
  8
OBJECT
 62
     1
  0
POLYLINE
  5
510
  8
OBJECT
 62
     1
 66
     1
 10
0.0
 20
0.0
 30
0.0
 70
     1
  0
VERTEX
  5
BD9
  8
OBJECT
 62
     1
 10
63.88305058001054
 20
25.16050410626514
 30
0.0
 42
-1.0
  0
VERTEX
  5
BDA
  8
OBJECT
 62
     1
 10
63.88305058001054
 20
25.41050410626513
 30
0.0
  0
VERTEX
  5
BDB
  8
OBJECT
 62
     1
 10
65.003050580010552
 20
25.41050410626513
 30
0.0
 42
-1.0
  0
VERTEX
  5
BDC
  8
OBJECT
 62
     1
 10
65.003050580010552
 20
25.16050410626514
 30
0.0
  0
SEQEND
  5
BDD
  8
OBJECT
 62
     1
  0
POLYLINE
  5
516
  8
OBJECT
 62
     1
 66
     1
 10
0.0
 20
0.0
 30
0.0
  0
VERTEX
  5
BDE
  8
OBJECT
 62
     1
 10
64.689427746781547
 20
26.028504106265139
 30
0.0
  0
VERTEX
  5
BDF
  8
OBJECT
 62
     1
 10
62.836673413239481
 20
26.028504106265139
 30
0.0
  0
VERTEX
  5
BE0
  8
OBJECT
 62
     1
 10
64.689427746782997
 20
26.02850410626494
 30
0.0
 42
-0.3740304065646985
  0
VERTEX
  5
BE1
  8
OBJECT
 62
     1
 10
64.318050580010464
 20
25.705504106265138
 30
0.0
  0
VERTEX
  5
BE2
  8
OBJECT
 62
     1
 10
63.208049846364773
 20
25.705504106265138
 30
0.0
  0
SEQEND
  5
BE3
  8
OBJECT
 62
     1
  0
POLYLINE
  5
51D
  8
OBJECT
 62
     1
 66
     1
 10
0.0
 20
0.0
 30
0.0
 70
     1
  0
VERTEX
  5
BE4
  8
OBJECT
 62
     1
 10
68.243050580010561
 20
25.41050410626513
 30
0.0
 42
-1.0
  0
VERTEX
  5
BE5
  8
OBJECT
 62
     1
 10
68.243050580010561
 20
25.16050410626514
 30
0.0
  0
VERTEX
  5
BE6
  8
OBJECT
 62
     1
 10
67.123050580010528
 20
25.16050410626514
 30
0.0
 42
-1.0
  0
VERTEX
  5
BE7
  8
OBJECT
 62
     1
 10
67.123050580010528
 20
25.41050410626513
 30
0.0
  0
SEQEND
  5
BE8
  8
OBJECT
 62
     1
  0
POLYLINE
  5
523
  8
OBJECT
 62
     1
 66
     1
 10
0.0
 20
0.0
 30
0.0
 70
     1
  0
VERTEX
  5
BE9
  8
OBJECT
 62
     1
 10
65.503050580010552
 20
28.410504106265151
 30
0.0
 42
1.0
  0
VERTEX
  5
BEA
  8
OBJECT
 62
     1
 10
65.503050580010552
 20
28.160504106265162
 30
0.0
  0
VERTEX
  5
BEB
  8
OBJECT
 62
     1
 10
66.623050580010513
 20
28.160504106265162
 30
0.0
 42
1.0
  0
VERTEX
  5
BEC
  8
OBJECT
 62
     1
 10
66.623050580010513
 20
28.410504106265151
 30
0.0
  0
SEQEND
  5
BED
  8
OBJECT
 62
     1
  0
POLYLINE
  5
529
  8
OBJECT
 62
     1
 66
     1
 10
0.0
 20
0.0
 30
0.0
 70
     1
  0
VERTEX
  5
BEE
  8
OBJECT
 62
     1
 10
63.88305058001054
 20
28.410504106265151
 30
0.0
 42
1.0
  0
VERTEX
  5
BEF
  8
OBJECT
 62
     1
 10
63.88305058001054
 20
28.160504106265162
 30
0.0
  0
VERTEX
  5
BF0
  8
OBJECT
 62
     1
 10
65.003050580010552
 20
28.160504106265162
 30
0.0
 42
1.0
  0
VERTEX
  5
BF1
  8
OBJECT
 62
     1
 10
65.003050580010552
 20
28.410504106265151
 30
0.0
  0
SEQEND
  5
BF2
  8
OBJECT
 62
     1
  0
POLYLINE
  5
52F
  8
OBJECT
 62
     1
 66
     1
 10
0.0
 20
0.0
 30
0.0
 70
     1
  0
VERTEX
  5
BF3
  8
OBJECT
 62
     1
 10
68.243050580010561
 20
28.160504106265162
 30
0.0
 42
1.0
  0
VERTEX
  5
BF4
  8
OBJECT
 62
     1
 10
68.243050580010561
 20
28.410504106265151
 30
0.0
  0
VERTEX
  5
BF5
  8
OBJECT
 62
     1
 10
67.123050580010528
 20
28.410504106265151
 30
0.0
 42
1.0
  0
VERTEX
  5
BF6
  8
OBJECT
 62
     1
 10
67.123050580010528
 20
28.160504106265162
 30
0.0
  0
SEQEND
  5
BF7
  8
OBJECT
 62
     1
  0
POLYLINE
  5
535
  8
OBJECT
 62
     1
 66
     1
 10
0.0
 20
0.0
 30
0.0
 70
     1
  0
VERTEX
  5
BF8
  8
OBJECT
 62
     1
 10
76.899050580010481
 20
28.410504106265151
 30
0.0
 42
-1.0
  0
VERTEX
  5
BF9
  8
OBJECT
 62
     1
 10
76.899050580010481
 20
28.160504106265162
 30
0.0
  0
VERTEX
  5
BFA
  8
OBJECT
 62
     1
 10
75.779050580010477
 20
28.160504106265162
 30
0.0
 42
-1.0
  0
VERTEX
  5
BFB
  8
OBJECT
 62
     1
 10
75.779050580010477
 20
28.410504106265151
 30
0.0
  0
SEQEND
  5
BFC
  8
OBJECT
 62
     1
  0
POLYLINE
  5
53B
  8
OBJECT
 62
     1
 66
     1
 10
0.0
 20
0.0
 30
0.0
  0
VERTEX
  5
BFD
  8
OBJECT
 62
     1
 10
74.722673413239477
 20
26.028504106265139
 30
0.0
  0
VERTEX
  5
BFE
  8
OBJECT
 62
     1
 10
76.575427746781543
 20
26.028504106265139
 30
0.0
  0
VERTEX
  5
BFF
  8
OBJECT
 62
     1
 10
74.722673413238027
 20
26.02850410626494
 30
0.0
 42
0.3740304065646985
  0
VERTEX
  5
C00
  8
OBJECT
 62
     1
 10
75.09405058001056
 20
25.705504106265138
 30
0.0
  0
VERTEX
  5
C01
  8
OBJECT
 62
     1
 10
76.204051313656265
 20
25.705504106265138
 30
0.0
  0
SEQEND
  5
C02
  8
OBJECT
 62
     1
  0
POLYLINE
  5
542
  8
OBJECT
 62
     1
 66
     1
 10
0.0
 20
0.0
 30
0.0
 70
     1
  0
VERTEX
  5
C03
  8
OBJECT
 62
     1
 10
76.899050580010481
 20
25.16050410626514
 30
0.0
 42
1.0
  0
VERTEX
  5
C04
  8
OBJECT
 62
     1
 10
76.899050580010481
 20
25.41050410626513
 30
0.0
  0
VERTEX
  5
C05
  8
OBJECT
 62
     1
 10
75.779050580010477
 20
25.41050410626513
 30
0.0
 42
1.0
  0
VERTEX
  5
C06
  8
OBJECT
 62
     1
 10
75.779050580010477
 20
25.16050410626514
 30
0.0
  0
SEQEND
  5
C07
  8
OBJECT
 62
     1
  0
POLYLINE
  5
548
  8
OBJECT
 62
     1
 66
     1
 10
0.0
 20
0.0
 30
0.0
  0
VERTEX
  5
C08
  8
OBJECT
 62
     1
 10
74.722673413239477
 20
27.542504106265142
 30
0.0
  0
VERTEX
  5
C09
  8
OBJECT
 62
     1
 10
76.575427746781543
 20
27.542504106265142
 30
0.0
  0
VERTEX
  5
C0A
  8
OBJECT
 62
     1
 10
74.722673413238027
 20
27.542504106265351
 30
0.0
 42
-0.3740304065646985
  0
VERTEX
  5
C0B
  8
OBJECT
 62
     1
 10
75.09405058001056
 20
27.865504106265149
 30
0.0
  0
VERTEX
  5
C0C
  8
OBJECT
 62
     1
 10
76.204051313656265
 20
27.865504106265149
 30
0.0
  0
SEQEND
  5
C0D
  8
OBJECT
 62
     1
  0
POLYLINE
  5
54F
  8
OBJECT
 62
     1
 66
     1
 10
0.0
 20
0.0
 30
0.0
 70
     1
  0
VERTEX
  5
C0E
  8
OBJECT
 62
     1
 10
74.102550580010472
 20
26.879004106265139
 30
0.0
 42
1.0
  0
VERTEX
  5
C0F
  8
OBJECT
 62
     1
 10
74.102550580010472
 20
26.692004106265149
 30
0.0
  0
VERTEX
  5
C10
  8
OBJECT
 62
     1
 10
80.305550580010504
 20
26.692004106265149
 30
0.0
 42
1.0
  0
VERTEX
  5
C11
  8
OBJECT
 62
     1
 10
80.305550580010475
 20
26.87900410626515
 30
0.0
  0
SEQEND
  5
C12
  8
OBJECT
 62
     1
  0
POLYLINE
  5
555
  8
OBJECT
 62
     1
 66
     1
 10
0.0
 20
0.0
 30
0.0
 70
     1
  0
VERTEX
  5
C13
  8
OBJECT
 62
     1
 10
80.456050580010469
 20
28.535504106265162
 30
0.0
  0
VERTEX
  5
C14
  8
OBJECT
 62
     1
 10
80.831050580010469
 20
28.160504106265162
 30
0.0
  0
VERTEX
  5
C15
  8
OBJECT
 62
     1
 10
81.076050580010502
 20
28.16050410626514
 30
0.0
  0
VERTEX
  5
C16
  8
OBJECT
 62
     1
 10
81.076050580010502
 20
25.410504106265162
 30
0.0
  0
VERTEX
  5
C17
  8
OBJECT
 62
     1
 10
80.831050580010469
 20
25.410504106265162
 30
0.0
  0
VERTEX
  5
C18
  8
OBJECT
 62
     1
 10
80.456050580010469
 20
25.035504106265162
 30
0.0
  0
VERTEX
  5
C19
  8
OBJECT
 62
     1
 10
74.016050580010472
 20
25.03550410626514
 30
0.0
 42
-0.4142135623730951
  0
VERTEX
  5
C1A
  8
OBJECT
 62
     1
 10
73.829050580010488
 20
25.222504106265141
 30
0.0
  0
VERTEX
  5
C1B
  8
OBJECT
 62
     1
 10
73.829050580010488
 20
28.348504106265139
 30
0.0
 42
-0.4142135623730951
  0
VERTEX
  5
C1C
  8
OBJECT
 62
     1
 10
74.016050580010472
 20
28.53550410626514
 30
0.0
  0
SEQEND
  5
C1D
  8
OBJECT
 62
     1
  0
POLYLINE
  5
561
  8
OBJECT
 62
     1
 66
     1
 10
0.0
 20
0.0
 30
0.0
 70
     1
  0
VERTEX
  5
C1E
  8
OBJECT
 62
     1
 10
74.159050580010472
 20
25.41050410626513
 30
0.0
 42
1.0
  0
VERTEX
  5
C1F
  8
OBJECT
 62
     1
 10
74.159050580010472
 20
25.16050410626514
 30
0.0
  0
VERTEX
  5
C20
  8
OBJECT
 62
     1
 10
75.279050580010477
 20
25.16050410626514
 30
0.0
 42
1.0
  0
VERTEX
  5
C21
  8
OBJECT
 62
     1
 10
75.279050580010477
 20
25.41050410626513
 30
0.0
  0
SEQEND
  5
C22
  8
OBJECT
 62
     1
  0
POLYLINE
  5
567
  8
OBJECT
 62
     1
 66
     1
 10
0.0
 20
0.0
 30
0.0
 70
     1
  0
VERTEX
  5
C23
  8
OBJECT
 62
     1
 10
74.159050580010472
 20
28.160504106265162
 30
0.0
 42
-1.0
  0
VERTEX
  5
C24
  8
OBJECT
 62
     1
 10
74.159050580010472
 20
28.410504106265151
 30
0.0
  0
VERTEX
  5
C25
  8
OBJECT
 62
     1
 10
75.279050580010477
 20
28.410504106265151
 30
0.0
 42
-1.0
  0
VERTEX
  5
C26
  8
OBJECT
 62
     1
 10
75.279050580010477
 20
28.160504106265162
 30
0.0
  0
SEQEND
  5
C27
  8
OBJECT
 62
     1
  0
LINE
  5
56D
  8
OBJECT
 62
     1
 10
81.01405058001049
 20
25.41050410626514
 30
0.0
 11
81.01405058001049
 21
28.16050410626514
 31
0.0
  0
ARC
  5
56E
  8
OBJECT
 62
     1
 10
79.194050580010455
 20
27.490504106265149
 30
0.0
 40
0.375
 50
7.9706993418584391
 51
90.0
  0
ARC
  5
56F
  8
OBJECT
 62
     1
 10
76.204050580010488
 20
27.490504106265149
 30
0.0
 40
0.375
 50
7.9706993418584391
 51
90.0
  0
POLYLINE
  5
570
  8
OBJECT
 62
     1
 66
     1
 10
0.0
 20
0.0
 30
0.0
  0
VERTEX
  5
C28
  8
OBJECT
 62
     1
 10
77.712673413239443
 20
27.542504106265142
 30
0.0
  0
VERTEX
  5
C29
  8
OBJECT
 62
     1
 10
79.565427746781523
 20
27.542504106265142
 30
0.0
  0
VERTEX
  5
C2A
  8
OBJECT
 62
     1
 10
77.712673413238036
 20
27.542504106265351
 30
0.0
 42
-0.3740304065646985
  0
VERTEX
  5
C2B
  8
OBJECT
 62
     1
 10
78.08405058001054
 20
27.865504106265149
 30
0.0
  0
VERTEX
  5
C2C
  8
OBJECT
 62
     1
 10
79.194051313656246
 20
27.865504106265149
 30
0.0
  0
SEQEND
  5
C2D
  8
OBJECT
 62
     1
  0
POLYLINE
  5
577
  8
OBJECT
 62
     1
 66
     1
 10
0.0
 20
0.0
 30
0.0
 70
     1
  0
VERTEX
  5
C2E
  8
OBJECT
 62
     1
 10
80.139050580010476
 20
25.16050410626514
 30
0.0
 42
1.0
  0
VERTEX
  5
C2F
  8
OBJECT
 62
     1
 10
80.139050580010476
 20
25.41050410626513
 30
0.0
  0
VERTEX
  5
C30
  8
OBJECT
 62
     1
 10
79.019050580010486
 20
25.41050410626513
 30
0.0
 42
1.0
  0
VERTEX
  5
C31
  8
OBJECT
 62
     1
 10
79.019050580010486
 20
25.16050410626514
 30
0.0
  0
SEQEND
  5
C32
  8
OBJECT
 62
     1
  0
POLYLINE
  5
57D
  8
OBJECT
 62
     1
 66
     1
 10
0.0
 20
0.0
 30
0.0
  0
VERTEX
  5
C33
  8
OBJECT
 62
     1
 10
77.712673413239443
 20
26.028504106265139
 30
0.0
  0
VERTEX
  5
C34
  8
OBJECT
 62
     1
 10
79.565427746781523
 20
26.028504106265139
 30
0.0
  0
VERTEX
  5
C35
  8
OBJECT
 62
     1
 10
77.712673413238036
 20
26.02850410626494
 30
0.0
 42
0.3740304065646985
  0
VERTEX
  5
C36
  8
OBJECT
 62
     1
 10
78.08405058001054
 20
25.705504106265138
 30
0.0
  0
VERTEX
  5
C37
  8
OBJECT
 62
     1
 10
79.194051313656246
 20
25.705504106265138
 30
0.0
  0
SEQEND
  5
C38
  8
OBJECT
 62
     1
  0
POLYLINE
  5
584
  8
OBJECT
 62
     1
 66
     1
 10
0.0
 20
0.0
 30
0.0
 70
     1
  0
VERTEX
  5
C39
  8
OBJECT
 62
     1
 10
78.519050580010486
 20
25.16050410626514
 30
0.0
 42
1.0
  0
VERTEX
  5
C3A
  8
OBJECT
 62
     1
 10
78.519050580010486
 20
25.41050410626513
 30
0.0
  0
VERTEX
  5
C3B
  8
OBJECT
 62
     1
 10
77.399050580010481
 20
25.41050410626513
 30
0.0
 42
1.0
  0
VERTEX
  5
C3C
  8
OBJECT
 62
     1
 10
77.399050580010481
 20
25.16050410626514
 30
0.0
  0
SEQEND
  5
C3D
  8
OBJECT
 62
     1
  0
ARC
  5
58A
  8
OBJECT
 62
     1
 10
76.204050580010488
 20
26.080504106265138
 30
0.0
 40
0.375
 50
270.0
 51
352.02930065814149
  0
ARC
  5
58B
  8
OBJECT
 62
     1
 10
79.194050580010455
 20
26.080504106265138
 30
0.0
 40
0.375
 50
270.0
 51
352.02930065814149
  0
ARC
  5
58C
  8
OBJECT
 62
     1
 10
80.877050580010476
 20
26.53550410626514
 30
0.0
 40
0.109
 50
89.999999999999986
 51
269.99999999999989
  0
ARC
  5
58D
  8
OBJECT
 62
     1
 10
80.877050580010476
 20
25.91050410626514
 30
0.0
 40
0.109
 50
89.999999999999986
 51
269.99999999999989
  0
LINE
  5
58E
  8
OBJECT
 62
     1
 10
80.877050580010476
 20
26.426504106265149
 30
0.0
 11
81.01405058001049
 21
26.426504106265149
 31
0.0
  0
LINE
  5
58F
  8
OBJECT
 62
     1
 10
80.877050580010476
 20
26.019504106265149
 30
0.0
 11
81.01405058001049
 21
26.019504106265149
 31
0.0
  0
LINE
  5
590
  8
OBJECT
 62
     1
 10
80.877050580010476
 20
25.801504106265149
 30
0.0
 11
81.01405058001049
 21
25.801504106265149
 31
0.0
  0
ARC
  5
591
  8
OBJECT
 62
     1
 10
80.877050580010476
 20
27.660504106265151
 30
0.0
 40
0.109
 50
90.0
 51
270.0
  0
ARC
  5
592
  8
OBJECT
 62
     1
 10
80.877050580010476
 20
27.035504106265151
 30
0.0
 40
0.109
 50
90.0
 51
270.0
  0
LINE
  5
593
  8
OBJECT
 62
     1
 10
80.877050580010476
 20
27.769504106265149
 30
0.0
 11
81.01405058001049
 21
27.769504106265149
 31
0.0
  0
LINE
  5
594
  8
OBJECT
 62
     1
 10
80.877050580010476
 20
27.551504106265149
 30
0.0
 11
81.01405058001049
 21
27.551504106265149
 31
0.0
  0
LINE
  5
595
  8
OBJECT
 62
     1
 10
80.877050580010476
 20
26.926504106265149
 30
0.0
 11
81.01405058001049
 21
26.926504106265149
 31
0.0
  0
LINE
  5
596
  8
OBJECT
 62
     1
 10
80.877050580010476
 20
27.144504106265149
 30
0.0
 11
81.01405058001049
 21
27.144504106265149
 31
0.0
  0
LINE
  5
597
  8
OBJECT
 62
     1
 10
80.877050580010476
 20
26.644504106265149
 30
0.0
 11
81.01405058001049
 21
26.644504106265149
 31
0.0
  0
POLYLINE
  5
598
  8
OBJECT
 62
     1
 66
     1
 10
0.0
 20
0.0
 30
0.0
 70
     1
  0
VERTEX
  5
C3E
  8
OBJECT
 62
     1
 10
80.139050580010476
 20
28.410504106265151
 30
0.0
 42
-1.0
  0
VERTEX
  5
C3F
  8
OBJECT
 62
     1
 10
80.139050580010476
 20
28.160504106265162
 30
0.0
  0
VERTEX
  5
C40
  8
OBJECT
 62
     1
 10
79.019050580010486
 20
28.160504106265162
 30
0.0
 42
-1.0
  0
VERTEX
  5
C41
  8
OBJECT
 62
     1
 10
79.019050580010486
 20
28.410504106265151
 30
0.0
  0
SEQEND
  5
C42
  8
OBJECT
 62
     1
  0
POLYLINE
  5
59E
  8
OBJECT
 62
     1
 66
     1
 10
0.0
 20
0.0
 30
0.0
 70
     1
  0
VERTEX
  5
C43
  8
OBJECT
 62
     1
 10
78.519050580010486
 20
28.410504106265151
 30
0.0
 42
-1.0
  0
VERTEX
  5
C44
  8
OBJECT
 62
     1
 10
78.519050580010486
 20
28.160504106265162
 30
0.0
  0
VERTEX
  5
C45
  8
OBJECT
 62
     1
 10
77.399050580010481
 20
28.160504106265162
 30
0.0
 42
-1.0
  0
VERTEX
  5
C46
  8
OBJECT
 62
     1
 10
77.399050580010481
 20
28.410504106265151
 30
0.0
  0
SEQEND
  5
C47
  8
OBJECT
 62
     1
  0
LINE
  5
5A4
  8
HIDDEN
 62
     1
 10
32.313120191066922
 20
25.535504106265002
 30
0.0
 11
32.313120191066922
 21
28.035504106265002
 31
0.0
  0
POLYLINE
  5
5A5
  8
HIDDEN
 62
     1
 66
     1
 10
0.0
 20
0.0
 30
0.0
 70
     1
  0
VERTEX
  5
C48
  8
HIDDEN
 62
     1
 10
32.313120191066922
 20
28.160504106265002
 30
0.0
  0
VERTEX
  5
C49
  8
HIDDEN
 62
     1
 10
32.65712019106693
 20
28.160504106265002
 30
0.0
 42
-0.4142135623730951
  0
VERTEX
  5
C4A
  8
HIDDEN
 62
     1
 10
32.844120191066921
 20
27.973504106265001
 30
0.0
  0
VERTEX
  5
C4B
  8
HIDDEN
 62
     1
 10
32.844120191066921
 20
25.597504106264999
 30
0.0
 42
-0.4142135623730948
  0
VERTEX
  5
C4C
  8
HIDDEN
 62
     1
 10
32.65712019106693
 20
25.410504106265002
 30
0.0
  0
VERTEX
  5
C4D
  8
HIDDEN
 62
     1
 10
32.313120191066922
 20
25.410504106265002
 30
0.0
  0
VERTEX
  5
C4E
  8
HIDDEN
 62
     1
 10
32.313120191066922
 20
25.035504106265002
 30
0.0
  0
VERTEX
  5
C4F
  8
HIDDEN
 62
     1
 10
32.255620191066932
 20
25.035504106265002
 30
0.0
  0
VERTEX
  5
C50
  8
HIDDEN
 62
     1
 10
32.255620191066932
 20
26.028504106265
 30
0.0
  0
VERTEX
  5
C51
  8
HIDDEN
 62
     1
 10
31.90562019106693
 20
26.028504106265
 30
0.0
  0
VERTEX
  5
C52
  8
HIDDEN
 62
     1
 10
31.90562019106693
 20
26.090504106265008
 30
0.0
  0
VERTEX
  5
C53
  8
HIDDEN
 62
     1
 10
32.255620191066932
 20
26.090504106265008
 30
0.0
  0
VERTEX
  5
C54
  8
HIDDEN
 62
     1
 10
32.255620191066932
 20
27.480504106264998
 30
0.0
  0
VERTEX
  5
C55
  8
HIDDEN
 62
     1
 10
31.90562019106693
 20
27.480504106264998
 30
0.0
  0
VERTEX
  5
C56
  8
HIDDEN
 62
     1
 10
31.90562019106693
 20
27.542504106265
 30
0.0
  0
VERTEX
  5
C57
  8
HIDDEN
 62
     1
 10
32.255620191066932
 20
27.542504106265
 30
0.0
  0
VERTEX
  5
C58
  8
HIDDEN
 62
     1
 10
32.255620191066932
 20
28.535504106265002
 30
0.0
  0
VERTEX
  5
C59
  8
HIDDEN
 62
     1
 10
32.313120191066922
 20
28.535504106265002
 30
0.0
  0
SEQEND
  5
C5A
  8
HIDDEN
 62
     1
  0
POLYLINE
  5
5B9
  8
HIDDEN
 62
     1
 66
     1
 10
0.0
 20
0.0
 30
0.0
  0
VERTEX
  5
C5B
  8
HIDDEN
 62
     1
 10
32.255620191066932
 20
25.801504106265
 30
0.0
  0
VERTEX
  5
C5C
  8
HIDDEN
 62
     1
 10
32.675120191066931
 20
25.801504106265
 30
0.0
 42
1.0
  0
VERTEX
  5
C5D
  8
HIDDEN
 62
     1
 10
32.675120191066931
 20
26.019504106265021
 30
0.0
  0
VERTEX
  5
C5E
  8
HIDDEN
 62
     1
 10
32.255620191066932
 20
26.019504106265011
 30
0.0
  0
SEQEND
  5
C5F
  8
HIDDEN
 62
     1
  0
POLYLINE
  5
5BF
  8
HIDDEN
 62
     1
 66
     1
 10
0.0
 20
0.0
 30
0.0
  0
VERTEX
  5
C60
  8
HIDDEN
 62
     1
 10
32.255620191066932
 20
26.644504106264989
 30
0.0
  0
VERTEX
  5
C61
  8
HIDDEN
 62
     1
 10
32.675120191066931
 20
26.644504106264989
 30
0.0
 42
-1.0
  0
VERTEX
  5
C62
  8
HIDDEN
 62
     1
 10
32.675120191066931
 20
26.426504106265
 30
0.0
  0
VERTEX
  5
C63
  8
HIDDEN
 62
     1
 10
32.255620191066932
 20
26.426504106264989
 30
0.0
  0
SEQEND
  5
C64
  8
HIDDEN
 62
     1
  0
POLYLINE
  5
5C5
  8
HIDDEN
 62
     1
 66
     1
 10
0.0
 20
0.0
 30
0.0
  0
VERTEX
  5
C65
  8
HIDDEN
 62
     1
 10
32.255620191066932
 20
26.926504106265
 30
0.0
  0
VERTEX
  5
C66
  8
HIDDEN
 62
     1
 10
32.675120191066931
 20
26.926504106265
 30
0.0
 42
1.0
  0
VERTEX
  5
C67
  8
HIDDEN
 62
     1
 10
32.675120191066931
 20
27.144504106265011
 30
0.0
  0
VERTEX
  5
C68
  8
HIDDEN
 62
     1
 10
32.255620191066932
 20
27.144504106265011
 30
0.0
  0
SEQEND
  5
C69
  8
HIDDEN
 62
     1
  0
POLYLINE
  5
5CB
  8
HIDDEN
 62
     1
 66
     1
 10
0.0
 20
0.0
 30
0.0
  0
VERTEX
  5
C6A
  8
HIDDEN
 62
     1
 10
32.255620191066932
 20
27.551504106265
 30
0.0
  0
VERTEX
  5
C6B
  8
HIDDEN
 62
     1
 10
32.675120191066931
 20
27.551504106265
 30
0.0
 42
1.0
  0
VERTEX
  5
C6C
  8
HIDDEN
 62
     1
 10
32.675120191066931
 20
27.769504106265011
 30
0.0
  0
VERTEX
  5
C6D
  8
HIDDEN
 62
     1
 10
32.255620191066932
 20
27.769504106264989
 30
0.0
  0
SEQEND
  5
C6E
  8
HIDDEN
 62
     1
  0
POLYLINE
  5
5D1
  8
OBJECT
 62
     1
 66
     1
 10
0.0
 20
0.0
 30
0.0
 70
     1
  0
VERTEX
  5
C6F
  8
OBJECT
 62
     1
 10
14.438120191067251
 20
10.76712067245292
 30
0.0
  0
VERTEX
  5
C70
  8
OBJECT
 62
     1
 10
14.09412019106723
 20
10.76712067245292
 30
0.0
 42
-0.4142135623730951
  0
VERTEX
  5
C71
  8
OBJECT
 62
     1
 10
13.90712019106725
 20
10.95412067245292
 30
0.0
  0
VERTEX
  5
C72
  8
OBJECT
 62
     1
 10
13.90712019106725
 20
13.330120672452921
 30
0.0
 42
-0.4142135623730948
  0
VERTEX
  5
C73
  8
OBJECT
 62
     1
 10
14.09412019106723
 20
13.51712067245292
 30
0.0
  0
VERTEX
  5
C74
  8
OBJECT
 62
     1
 10
14.438120191067251
 20
13.51712067245292
 30
0.0
  0
VERTEX
  5
C75
  8
OBJECT
 62
     1
 10
14.438120191067251
 20
13.89212067245292
 30
0.0
  0
VERTEX
  5
C76
  8
OBJECT
 62
     1
 10
14.49562019106723
 20
13.89212067245292
 30
0.0
  0
VERTEX
  5
C77
  8
OBJECT
 62
     1
 10
14.49562019106723
 20
12.899120672452931
 30
0.0
  0
VERTEX
  5
C78
  8
OBJECT
 62
     1
 10
14.845620191067219
 20
12.899120672452931
 30
0.0
  0
VERTEX
  5
C79
  8
OBJECT
 62
     1
 10
14.845620191067219
 20
12.83712067245291
 30
0.0
  0
VERTEX
  5
C7A
  8
OBJECT
 62
     1
 10
14.49562019106723
 20
12.83712067245291
 30
0.0
  0
VERTEX
  5
C7B
  8
OBJECT
 62
     1
 10
14.49562019106723
 20
11.447120672452909
 30
0.0
  0
VERTEX
  5
C7C
  8
OBJECT
 62
     1
 10
14.845620191067219
 20
11.447120672452909
 30
0.0
  0
VERTEX
  5
C7D
  8
OBJECT
 62
     1
 10
14.845620191067219
 20
11.385120672452921
 30
0.0
  0
VERTEX
  5
C7E
  8
OBJECT
 62
     1
 10
14.49562019106723
 20
11.385120672452921
 30
0.0
  0
VERTEX
  5
C7F
  8
OBJECT
 62
     1
 10
14.49562019106723
 20
10.39212067245292
 30
0.0
  0
VERTEX
  5
C80
  8
OBJECT
 62
     1
 10
14.438120191067251
 20
10.39212067245292
 30
0.0
  0
SEQEND
  5
C81
  8
OBJECT
 62
     1
  0
LINE
  5
5E5
  8
HIDDEN
 62
     1
 10
14.438120191067251
 20
13.39212067245292
 30
0.0
 11
14.438120191067251
 21
10.89212067245292
 31
0.0
  0
POLYLINE
  5
5E6
  8
OBJECT
 62
     1
 66
     1
 10
0.0
 20
0.0
 30
0.0
  0
VERTEX
  5
C82
  8
OBJECT
 62
     1
 10
14.49562019106723
 20
12.00112067245292
 30
0.0
  0
VERTEX
  5
C83
  8
OBJECT
 62
     1
 10
14.076120191067229
 20
12.001120672452929
 30
0.0
 42
1.0
  0
VERTEX
  5
C84
  8
OBJECT
 62
     1
 10
14.076120191067229
 20
11.783120672452929
 30
0.0
  0
VERTEX
  5
C85
  8
OBJECT
 62
     1
 10
14.49562019106723
 20
11.78312067245291
 30
0.0
  0
SEQEND
  5
C86
  8
OBJECT
 62
     1
  0
POLYLINE
  5
5EC
  8
OBJECT
 62
     1
 66
     1
 10
0.0
 20
0.0
 30
0.0
  0
VERTEX
  5
C87
  8
OBJECT
 62
     1
 10
14.49562019106723
 20
12.283120672452929
 30
0.0
  0
VERTEX
  5
C88
  8
OBJECT
 62
     1
 10
14.076120191067229
 20
12.283120672452929
 30
0.0
 42
-1.0
  0
VERTEX
  5
C89
  8
OBJECT
 62
     1
 10
14.076120191067229
 20
12.501120672452929
 30
0.0
  0
VERTEX
  5
C8A
  8
OBJECT
 62
     1
 10
14.49562019106723
 20
12.501120672452929
 30
0.0
  0
SEQEND
  5
C8B
  8
OBJECT
 62
     1
  0
POLYLINE
  5
5F2
  8
OBJECT
 62
     1
 66
     1
 10
0.0
 20
0.0
 30
0.0
  0
VERTEX
  5
C8C
  8
OBJECT
 62
     1
 10
14.49562019106723
 20
13.12612067245292
 30
0.0
  0
VERTEX
  5
C8D
  8
OBJECT
 62
     1
 10
14.076120191067229
 20
13.12612067245292
 30
0.0
 42
1.0
  0
VERTEX
  5
C8E
  8
OBJECT
 62
     1
 10
14.076120191067229
 20
12.90812067245291
 30
0.0
  0
VERTEX
  5
C8F
  8
OBJECT
 62
     1
 10
14.49562019106723
 20
12.90812067245291
 30
0.0
  0
SEQEND
  5
C90
  8
OBJECT
 62
     1
  0
POLYLINE
  5
5F8
  8
OBJECT
 62
     1
 66
     1
 10
0.0
 20
0.0
 30
0.0
  0
VERTEX
  5
C91
  8
OBJECT
 62
     1
 10
14.49562019106723
 20
11.37612067245292
 30
0.0
  0
VERTEX
  5
C92
  8
OBJECT
 62
     1
 10
14.076120191067229
 20
11.376120672452929
 30
0.0
 42
1.0
  0
VERTEX
  5
C93
  8
OBJECT
 62
     1
 10
14.076120191067229
 20
11.158120672452929
 30
0.0
  0
VERTEX
  5
C94
  8
OBJECT
 62
     1
 10
14.49562019106723
 20
11.158120672452929
 30
0.0
  0
SEQEND
  5
C95
  8
OBJECT
 62
     1
  0
POLYLINE
  5
5FE
  8
OBJECT
 62
     1
 66
     1
 10
0.0
 20
0.0
 30
0.0
 70
     1
  0
VERTEX
  5
C96
  8
OBJECT
 62
     1
 10
32.313120191066929
 20
10.76712067245292
 30
0.0
  0
VERTEX
  5
C97
  8
OBJECT
 62
     1
 10
32.657120191066937
 20
10.76712067245292
 30
0.0
 42
0.4142135623730951
  0
VERTEX
  5
C98
  8
OBJECT
 62
     1
 10
32.844120191066942
 20
10.95412067245292
 30
0.0
  0
VERTEX
  5
C99
  8
OBJECT
 62
     1
 10
32.844120191066942
 20
13.330120672452921
 30
0.0
 42
0.4142135623730948
  0
VERTEX
  5
C9A
  8
OBJECT
 62
     1
 10
32.657120191066937
 20
13.51712067245292
 30
0.0
  0
VERTEX
  5
C9B
  8
OBJECT
 62
     1
 10
32.313120191066929
 20
13.51712067245292
 30
0.0
  0
VERTEX
  5
C9C
  8
OBJECT
 62
     1
 10
32.313120191066929
 20
13.89212067245292
 30
0.0
  0
VERTEX
  5
C9D
  8
OBJECT
 62
     1
 10
32.255620191066939
 20
13.89212067245292
 30
0.0
  0
VERTEX
  5
C9E
  8
OBJECT
 62
     1
 10
32.255620191066939
 20
12.899120672452931
 30
0.0
  0
VERTEX
  5
C9F
  8
OBJECT
 62
     1
 10
31.905620191066951
 20
12.899120672452931
 30
0.0
  0
VERTEX
  5
CA0
  8
OBJECT
 62
     1
 10
31.905620191066951
 20
12.83712067245291
 30
0.0
  0
VERTEX
  5
CA1
  8
OBJECT
 62
     1
 10
32.255620191066939
 20
12.83712067245291
 30
0.0
  0
VERTEX
  5
CA2
  8
OBJECT
 62
     1
 10
32.255620191066939
 20
11.447120672452909
 30
0.0
  0
VERTEX
  5
CA3
  8
OBJECT
 62
     1
 10
31.905620191066951
 20
11.447120672452909
 30
0.0
  0
VERTEX
  5
CA4
  8
OBJECT
 62
     1
 10
31.905620191066951
 20
11.385120672452921
 30
0.0
  0
VERTEX
  5
CA5
  8
OBJECT
 62
     1
 10
32.255620191066939
 20
11.385120672452921
 30
0.0
  0
VERTEX
  5
CA6
  8
OBJECT
 62
     1
 10
32.255620191066939
 20
10.39212067245292
 30
0.0
  0
VERTEX
  5
CA7
  8
OBJECT
 62
     1
 10
32.313120191066929
 20
10.39212067245292
 30
0.0
  0
SEQEND
  5
CA8
  8
OBJECT
 62
     1
  0
LINE
  5
612
  8
HIDDEN
 62
     1
 10
32.313120191066929
 20
13.39212067245292
 30
0.0
 11
32.313120191066922
 21
10.89212067245292
 31
0.0
  0
POLYLINE
  5
613
  8
OBJECT
 62
     1
 66
     1
 10
0.0
 20
0.0
 30
0.0
  0
VERTEX
  5
CA9
  8
OBJECT
 62
     1
 10
32.255620191066939
 20
13.12612067245292
 30
0.0
  0
VERTEX
  5
CAA
  8
OBJECT
 62
     1
 10
32.675120191066938
 20
13.12612067245292
 30
0.0
 42
-1.0
  0
VERTEX
  5
CAB
  8
OBJECT
 62
     1
 10
32.675120191066938
 20
12.90812067245291
 30
0.0
  0
VERTEX
  5
CAC
  8
OBJECT
 62
     1
 10
32.255620191066939
 20
12.90812067245291
 30
0.0
  0
SEQEND
  5
CAD
  8
OBJECT
 62
     1
  0
POLYLINE
  5
619
  8
OBJECT
 62
     1
 66
     1
 10
0.0
 20
0.0
 30
0.0
  0
VERTEX
  5
CAE
  8
OBJECT
 62
     1
 10
32.255620191066939
 20
12.00112067245292
 30
0.0
  0
VERTEX
  5
CAF
  8
OBJECT
 62
     1
 10
32.675120191066938
 20
12.001120672452929
 30
0.0
 42
-1.0
  0
VERTEX
  5
CB0
  8
OBJECT
 62
     1
 10
32.675120191066938
 20
11.783120672452929
 30
0.0
  0
VERTEX
  5
CB1
  8
OBJECT
 62
     1
 10
32.255620191066939
 20
11.78312067245291
 30
0.0
  0
SEQEND
  5
CB2
  8
OBJECT
 62
     1
  0
POLYLINE
  5
61F
  8
OBJECT
 62
     1
 66
     1
 10
0.0
 20
0.0
 30
0.0
  0
VERTEX
  5
CB3
  8
OBJECT
 62
     1
 10
32.255620191066939
 20
11.37612067245292
 30
0.0
  0
VERTEX
  5
CB4
  8
OBJECT
 62
     1
 10
32.675120191066938
 20
11.376120672452929
 30
0.0
 42
-1.0
  0
VERTEX
  5
CB5
  8
OBJECT
 62
     1
 10
32.675120191066938
 20
11.158120672452929
 30
0.0
  0
VERTEX
  5
CB6
  8
OBJECT
 62
     1
 10
32.255620191066939
 20
11.158120672452929
 30
0.0
  0
SEQEND
  5
CB7
  8
OBJECT
 62
     1
  0
POLYLINE
  5
625
  8
OBJECT
 62
     1
 66
     1
 10
0.0
 20
0.0
 30
0.0
  0
VERTEX
  5
CB8
  8
OBJECT
 62
     1
 10
32.255620191066939
 20
12.283120672452929
 30
0.0
  0
VERTEX
  5
CB9
  8
OBJECT
 62
     1
 10
32.675120191066938
 20
12.283120672452929
 30
0.0
 42
1.0
  0
VERTEX
  5
CBA
  8
OBJECT
 62
     1
 10
32.675120191066938
 20
12.501120672452929
 30
0.0
  0
VERTEX
  5
CBB
  8
OBJECT
 62
     1
 10
32.255620191066939
 20
12.501120672452929
 30
0.0
  0
SEQEND
  5
CBC
  8
OBJECT
 62
     1
  0
POLYLINE
  5
62B
  8
OBJECT
 62
     1
 66
     1
 10
0.0
 20
0.0
 30
0.0
 70
     1
  0
VERTEX
  5
CBD
  8
OBJECT
 62
     1
 10
85.42821631868793
 20
56.700720630167538
 30
0.0
  0
VERTEX
  5
CBE
  8
OBJECT
 62
     1
 10
86.936050580010573
 20
56.700720630167538
 30
0.0
  0
VERTEX
  5
CBF
  8
OBJECT
 62
     1
 10
86.936050580010573
 20
57.239720630167561
 30
0.0
  0
VERTEX
  5
CC0
  8
OBJECT
 62
     1
 10
86.874050580010561
 20
57.239720630167561
 30
0.0
  0
VERTEX
  5
CC1
  8
OBJECT
 62
     1
 10
86.874050580010561
 20
56.762720630167557
 30
0.0
  0
VERTEX
  5
CC2
  8
OBJECT
 62
     1
 10
79.689050580010544
 20
56.762720630167557
 30
0.0
  0
VERTEX
  5
CC3
  8
OBJECT
 62
     1
 10
79.689050580010544
 20
56.700720630167538
 30
0.0
  0
VERTEX
  5
CC4
  8
OBJECT
 62
     1
 10
80.579884841333211
 20
56.700720630167538
 30
0.0
 42
0.3948051417730923
  0
VERTEX
  5
CC5
  8
OBJECT
 62
     1
 10
80.954050580010616
 20
56.350720630167551
 30
0.0
  0
VERTEX
  5
CC6
  8
OBJECT
 62
     1
 10
82.06405058001053
 20
56.350720630167551
 30
0.0
 42
0.3948051417730947
  0
VERTEX
  5
CC7
  8
OBJECT
 62
     1
 10
82.438216318687921
 20
56.700720630167538
 30
0.0
  0
VERTEX
  5
CC8
  8
OBJECT
 62
     1
 10
83.569884841333234
 20
56.700720630167538
 30
0.0
 42
0.3948051417730923
  0
VERTEX
  5
CC9
  8
OBJECT
 62
     1
 10
83.944050580010597
 20
56.350720630167551
 30
0.0
  0
VERTEX
  5
CCA
  8
OBJECT
 62
     1
 10
85.054050580010539
 20
56.350720630167551
 30
0.0
 42
0.3948051417730947
  0
SEQEND
  5
CCB
  8
OBJECT
 62
     1
  0
POLYLINE
  5
63B
  8
OBJECT
 62
     1
 66
     1
 10
0.0
 20
0.0
 30
0.0
 70
     1
  0
VERTEX
  5
CCC
  8
OBJECT
 62
     1
 10
62.833884841333187
 20
56.700720630167538
 30
0.0
  0
VERTEX
  5
CCD
  8
OBJECT
 62
     1
 10
61.326050580010538
 20
56.700720630167538
 30
0.0
  0
VERTEX
  5
CCE
  8
OBJECT
 62
     1
 10
61.326050580010538
 20
57.239720630167561
 30
0.0
  0
VERTEX
  5
CCF
  8
OBJECT
 62
     1
 10
61.38805058001055
 20
57.239720630167561
 30
0.0
  0
VERTEX
  5
CD0
  8
OBJECT
 62
     1
 10
61.38805058001055
 20
56.762720630167557
 30
0.0
  0
VERTEX
  5
CD1
  8
OBJECT
 62
     1
 10
68.573050580010545
 20
56.762720630167557
 30
0.0
  0
VERTEX
  5
CD2
  8
OBJECT
 62
     1
 10
68.573050580010545
 20
56.700720630167538
 30
0.0
  0
VERTEX
  5
CD3
  8
OBJECT
 62
     1
 10
67.682216318687892
 20
56.700720630167538
 30
0.0
 42
-0.3948051417730923
  0
VERTEX
  5
CD4
  8
OBJECT
 62
     1
 10
67.308050580010502
 20
56.350720630167551
 30
0.0
  0
VERTEX
  5
CD5
  8
OBJECT
 62
     1
 10
66.198050580010573
 20
56.350720630167551
 30
0.0
 42
-0.3948051417730947
  0
VERTEX
  5
CD6
  8
OBJECT
 62
     1
 10
65.823884841333182
 20
56.700720630167538
 30
0.0
  0
VERTEX
  5
CD7
  8
OBJECT
 62
     1
 10
64.692216318687912
 20
56.700720630167538
 30
0.0
 42
-0.3948051417730923
  0
VERTEX
  5
CD8
  8
OBJECT
 62
     1
 10
64.318050580010521
 20
56.350720630167551
 30
0.0
  0
VERTEX
  5
CD9
  8
OBJECT
 62
     1
 10
63.208050580010593
 20
56.350720630167551
 30
0.0
 42
-0.3948051417730947
  0
SEQEND
  5
CDA
  8
OBJECT
 62
     1
  0
POLYLINE
  5
64B
  8
HIDDEN
 62
     1
 66
     1
 10
0.0
 20
0.0
 30
0.0
  0
VERTEX
  5
CDB
  8
HIDDEN
 62
     1
 10
14.49562019106723
 20
27.551504106265
 30
0.0
  0
VERTEX
  5
CDC
  8
HIDDEN
 62
     1
 10
14.076120191067201
 20
27.551504106265
 30
0.0
 42
-1.0
  0
VERTEX
  5
CDD
  8
HIDDEN
 62
     1
 10
14.076120191067201
 20
27.769504106265011
 30
0.0
  0
VERTEX
  5
CDE
  8
HIDDEN
 62
     1
 10
14.49562019106723
 20
27.769504106264989
 30
0.0
  0
SEQEND
  5
CDF
  8
HIDDEN
 62
     1
  0
POLYLINE
  5
651
  8
HIDDEN
 62
     1
 66
     1
 10
0.0
 20
0.0
 30
0.0
  0
VERTEX
  5
CE0
  8
HIDDEN
 62
     1
 10
14.49562019106723
 20
25.801504106265
 30
0.0
  0
VERTEX
  5
CE1
  8
HIDDEN
 62
     1
 10
14.076120191067201
 20
25.801504106265
 30
0.0
 42
-1.0
  0
VERTEX
  5
CE2
  8
HIDDEN
 62
     1
 10
14.076120191067201
 20
26.019504106265021
 30
0.0
  0
VERTEX
  5
CE3
  8
HIDDEN
 62
     1
 10
14.49562019106723
 20
26.019504106265011
 30
0.0
  0
SEQEND
  5
CE4
  8
HIDDEN
 62
     1
  0
POLYLINE
  5
657
  8
HIDDEN
 62
     1
 66
     1
 10
0.0
 20
0.0
 30
0.0
  0
VERTEX
  5
CE5
  8
HIDDEN
 62
     1
 10
14.49562019106723
 20
26.644504106264989
 30
0.0
  0
VERTEX
  5
CE6
  8
HIDDEN
 62
     1
 10
14.076120191067201
 20
26.644504106264989
 30
0.0
 42
1.0
  0
VERTEX
  5
CE7
  8
HIDDEN
 62
     1
 10
14.076120191067201
 20
26.426504106265
 30
0.0
  0
VERTEX
  5
CE8
  8
HIDDEN
 62
     1
 10
14.49562019106723
 20
26.426504106264989
 30
0.0
  0
SEQEND
  5
CE9
  8
HIDDEN
 62
     1
  0
POLYLINE
  5
65D
  8
HIDDEN
 62
     1
 66
     1
 10
0.0
 20
0.0
 30
0.0
  0
VERTEX
  5
CEA
  8
HIDDEN
 62
     1
 10
14.49562019106723
 20
26.926504106265
 30
0.0
  0
VERTEX
  5
CEB
  8
HIDDEN
 62
     1
 10
14.076120191067201
 20
26.926504106265
 30
0.0
 42
-1.0
  0
VERTEX
  5
CEC
  8
HIDDEN
 62
     1
 10
14.076120191067201
 20
27.144504106265011
 30
0.0
  0
VERTEX
  5
CED
  8
HIDDEN
 62
     1
 10
14.49562019106723
 20
27.144504106265011
 30
0.0
  0
SEQEND
  5
CEE
  8
HIDDEN
 62
     1
  0
POLYLINE
  5
663
  8
HIDDEN
 62
     1
 66
     1
 10
0.0
 20
0.0
 30
0.0
 70
     1
  0
VERTEX
  5
CEF
  8
HIDDEN
 62
     1
 10
14.43812019106722
 20
28.160504106265002
 30
0.0
  0
VERTEX
  5
CF0
  8
HIDDEN
 62
     1
 10
14.0941201910672
 20
28.160504106265002
 30
0.0
 42
0.4142135623730951
  0
VERTEX
  5
CF1
  8
HIDDEN
 62
     1
 10
13.90712019106722
 20
27.973504106265001
 30
0.0
  0
VERTEX
  5
CF2
  8
HIDDEN
 62
     1
 10
13.90712019106722
 20
25.597504106264999
 30
0.0
 42
0.4142135623730948
  0
VERTEX
  5
CF3
  8
HIDDEN
 62
     1
 10
14.0941201910672
 20
25.410504106265002
 30
0.0
  0
VERTEX
  5
CF4
  8
HIDDEN
 62
     1
 10
14.43812019106722
 20
25.410504106265002
 30
0.0
  0
VERTEX
  5
CF5
  8
HIDDEN
 62
     1
 10
14.43812019106722
 20
25.035504106265002
 30
0.0
  0
VERTEX
  5
CF6
  8
HIDDEN
 62
     1
 10
14.49562019106723
 20
25.035504106265002
 30
0.0
  0
VERTEX
  5
CF7
  8
HIDDEN
 62
     1
 10
14.4956201910672
 20
26.028504106265
 30
0.0
  0
VERTEX
  5
CF8
  8
HIDDEN
 62
     1
 10
14.845620191067219
 20
26.028504106265
 30
0.0
  0
VERTEX
  5
CF9
  8
HIDDEN
 62
     1
 10
14.845620191067219
 20
26.090504106265008
 30
0.0
  0
VERTEX
  5
CFA
  8
HIDDEN
 62
     1
 10
14.49562019106723
 20
26.090504106265008
 30
0.0
  0
VERTEX
  5
CFB
  8
HIDDEN
 62
     1
 10
14.49562019106723
 20
27.480504106264998
 30
0.0
  0
VERTEX
  5
CFC
  8
HIDDEN
 62
     1
 10
14.845620191067219
 20
27.480504106264998
 30
0.0
  0
VERTEX
  5
CFD
  8
HIDDEN
 62
     1
 10
14.845620191067219
 20
27.542504106265
 30
0.0
  0
VERTEX
  5
CFE
  8
HIDDEN
 62
     1
 10
14.49562019106723
 20
27.542504106265
 30
0.0
  0
VERTEX
  5
CFF
  8
HIDDEN
 62
     1
 10
14.49562019106723
 20
28.535504106265002
 30
0.0
  0
VERTEX
  5
D00
  8
HIDDEN
 62
     1
 10
14.43812019106722
 20
28.535504106265002
 30
0.0
  0
SEQEND
  5
D01
  8
HIDDEN
 62
     1
  0
LINE
  5
677
  8
HIDDEN
 62
     1
 10
14.43812019106722
 20
25.535504106265002
 30
0.0
 11
14.43812019106722
 21
28.035504106265002
 31
0.0
  0
POLYLINE
  5
678
  8
OBJECT
 66
     1
 10
0.0
 20
0.0
 30
0.0
 70
     1
  0
VERTEX
  5
D02
  8
OBJECT
 10
62.373050580010521
 20
39.012720630167571
 30
0.0
  0
VERTEX
  5
D03
  8
OBJECT
 10
62.373050580010521
 20
39.070720630167571
 30
0.0
 42
0.0948302211984842
  0
VERTEX
  5
D04
  8
OBJECT
 10
62.228050580010517
 20
39.108805547135859
 30
0.0
  0
VERTEX
  5
D05
  8
OBJECT
 10
62.228050580010517
 20
39.044720630167582
 30
0.0
  0
VERTEX
  5
D06
  8
OBJECT
 10
62.174050580010523
 20
39.044720630167561
 30
0.0
  0
VERTEX
  5
D07
  8
OBJECT
 10
62.174050580010523
 20
39.108805547135859
 30
0.0
 42
0.0948302211984809
  0
VERTEX
  5
D08
  8
OBJECT
 10
62.029050580010527
 20
39.070720630167571
 30
0.0
  0
VERTEX
  5
D09
  8
OBJECT
 10
62.029050580010527
 20
39.012720630167571
 30
0.0
  0
VERTEX
  5
D0A
  8
OBJECT
 10
62.11905058001053
 20
39.012720630167571
 30
0.0
  0
VERTEX
  5
D0B
  8
OBJECT
 10
62.11905058001053
 20
38.637720630167571
 30
0.0
  0
VERTEX
  5
D0C
  8
OBJECT
 10
62.28305058001051
 20
38.637720630167571
 30
0.0
  0
VERTEX
  5
D0D
  8
OBJECT
 10
62.283050580010531
 20
39.012720630167571
 30
0.0
  0
SEQEND
  5
D0E
  8
OBJECT
  0
LINE
  5
686
  8
HIDDEN
 10
61.076050580010538
 20
39.012720630167571
 30
0.0
 11
81.076050580010502
 21
39.012720630167571
 31
0.0
  0
LINE
  5
687
  8
HIDDEN
 10
61.076050580010538
 20
56.638720630167562
 30
0.0
 11
81.076050580010502
 21
56.638720630167562
 31
0.0
  0
ARC
  5
688
  8
OBJECT
 10
62.201050580010509
 20
38.558800354879807
 30
0.0
 40
0.3299202752877545
 50
72.48264455369916
 51
107.51735544629631
  0
LINE
  5
689
  8
OBJECT
 10
62.052148456860039
 20
38.888720630167569
 30
0.0
 11
62.349952703160803
 21
38.888720630167569
 31
0.0
  0
ARC
  5
68A
  8
OBJECT
 10
62.201050580010509
 20
39.088640905455328
 30
0.0
 40
0.3299202752877545
 50
252.48264455370369
 51
287.51735544630083
  0
LINE
  5
68B
  8
OBJECT
 10
62.052148456860039
 20
38.758720630167581
 30
0.0
 11
62.349952703160803
 21
38.758720630167581
 31
0.0
  0
POLYLINE
  5
68C
  8
OBJECT
 66
     1
 10
0.0
 20
0.0
 30
0.0
 70
     1
  0
VERTEX
  5
D0F
  8
OBJECT
 10
62.300354826311619
 20
38.873420848034421
 30
0.0
 42
-0.3084765539402507
  0
VERTEX
  5
D10
  8
OBJECT
 10
62.399550580010512
 20
38.873420848034883
 30
0.0
  0
VERTEX
  5
D11
  8
OBJECT
 10
62.399550580010512
 20
38.774020412301631
 30
0.0
 42
-0.3084765539402503
  0
VERTEX
  5
D12
  8
OBJECT
 10
62.300354826311619
 20
38.774020412300729
 30
0.0
  0
SEQEND
  5
D13
  8
OBJECT
  0
POLYLINE
  5
692
  8
OBJECT
 66
     1
 10
0.0
 20
0.0
 30
0.0
 70
     1
  0
VERTEX
  5
D14
  8
OBJECT
 10
62.101746333710139
 20
38.87342084803366
 30
0.0
 42
0.3084765539483098
  0
VERTEX
  5
D15
  8
OBJECT
 10
62.002550580010499
 20
38.87342084803327
 30
0.0
  0
VERTEX
  5
D16
  8
OBJECT
 10
62.002550580010499
 20
38.774020412301233
 30
0.0
 42
0.3084765539483101
  0
VERTEX
  5
D17
  8
OBJECT
 10
62.101746333710139
 20
38.774020412301489
 30
0.0
  0
SEQEND
  5
D18
  8
OBJECT
  0
POLYLINE
  5
698
  8
OBJECT
 66
     1
 10
0.0
 20
0.0
 30
0.0
 70
     1
  0
VERTEX
  5
D19
  8
OBJECT
 10
66.175354826311633
 20
38.873420848034421
 30
0.0
 42
-0.3084765539402507
  0
VERTEX
  5
D1A
  8
OBJECT
 10
66.274550580010526
 20
38.873420848034883
 30
0.0
  0
VERTEX
  5
D1B
  8
OBJECT
 10
66.274550580010526
 20
38.774020412301631
 30
0.0
 42
-0.3084765539402503
  0
VERTEX
  5
D1C
  8
OBJECT
 10
66.175354826311633
 20
38.774020412300729
 30
0.0
  0
SEQEND
  5
D1D
  8
OBJECT
  0
POLYLINE
  5
69E
  8
OBJECT
 66
     1
 10
0.0
 20
0.0
 30
0.0
 70
     1
  0
VERTEX
  5
D1E
  8
OBJECT
 10
65.976746333710167
 20
38.87342084803366
 30
0.0
 42
0.3084765539483098
  0
VERTEX
  5
D1F
  8
OBJECT
 10
65.877550580010507
 20
38.87342084803327
 30
0.0
  0
VERTEX
  5
D20
  8
OBJECT
 10
65.877550580010507
 20
38.774020412301233
 30
0.0
 42
0.3084765539483101
  0
VERTEX
  5
D21
  8
OBJECT
 10
65.976746333710167
 20
38.774020412301489
 30
0.0
  0
SEQEND
  5
D22
  8
OBJECT
  0
LINE
  5
6A4
  8
OBJECT
 10
65.927148456860067
 20
38.758720630167581
 30
0.0
 11
66.224952703160824
 21
38.758720630167581
 31
0.0
  0
ARC
  5
6A5
  8
OBJECT
 10
66.076050580010531
 20
39.088640905455328
 30
0.0
 40
0.3299202752877545
 50
252.48264455370369
 51
287.51735544630083
  0
LINE
  5
6A6
  8
OBJECT
 10
65.927148456860067
 20
38.888720630167569
 30
0.0
 11
66.224952703160824
 21
38.888720630167569
 31
0.0
  0
ARC
  5
6A7
  8
OBJECT
 10
66.076050580010531
 20
38.558800354879807
 30
0.0
 40
0.3299202752877545
 50
72.48264455369916
 51
107.51735544629631
  0
POLYLINE
  5
6A8
  8
OBJECT
 66
     1
 10
0.0
 20
0.0
 30
0.0
 70
     1
  0
VERTEX
  5
D23
  8
OBJECT
 10
66.248050580010528
 20
39.012720630167571
 30
0.0
  0
VERTEX
  5
D24
  8
OBJECT
 10
66.248050580010528
 20
39.070720630167571
 30
0.0
 42
0.0948302211984842
  0
VERTEX
  5
D25
  8
OBJECT
 10
66.103050580010546
 20
39.108805547135859
 30
0.0
  0
VERTEX
  5
D26
  8
OBJECT
 10
66.103050580010546
 20
39.044720630167582
 30
0.0
  0
VERTEX
  5
D27
  8
OBJECT
 10
66.049050580010544
 20
39.044720630167561
 30
0.0
  0
VERTEX
  5
D28
  8
OBJECT
 10
66.049050580010544
 20
39.108805547135859
 30
0.0
 42
0.0948302211984809
  0
VERTEX
  5
D29
  8
OBJECT
 10
65.904050580010534
 20
39.070720630167571
 30
0.0
  0
VERTEX
  5
D2A
  8
OBJECT
 10
65.904050580010534
 20
39.012720630167571
 30
0.0
  0
VERTEX
  5
D2B
  8
OBJECT
 10
65.994050580010537
 20
39.012720630167571
 30
0.0
  0
VERTEX
  5
D2C
  8
OBJECT
 10
65.994050580010537
 20
38.637720630167571
 30
0.0
  0
VERTEX
  5
D2D
  8
OBJECT
 10
66.158050580010524
 20
38.637720630167571
 30
0.0
  0
VERTEX
  5
D2E
  8
OBJECT
 10
66.158050580010553
 20
39.012720630167571
 30
0.0
  0
SEQEND
  5
D2F
  8
OBJECT
  0
POLYLINE
  5
6B6
  8
OBJECT
 66
     1
 10
0.0
 20
0.0
 30
0.0
 70
     1
  0
VERTEX
  5
D30
  8
OBJECT
 10
75.476746333710196
 20
38.873420848033611
 30
0.0
 42
0.3084765539483098
  0
VERTEX
  5
D31
  8
OBJECT
 10
75.377550580010535
 20
38.873420848033213
 30
0.0
  0
VERTEX
  5
D32
  8
OBJECT
 10
75.377550580010535
 20
38.774020412301176
 30
0.0
 42
0.3084765539483101
  0
VERTEX
  5
D33
  8
OBJECT
 10
75.476746333710196
 20
38.774020412301432
 30
0.0
  0
SEQEND
  5
D34
  8
OBJECT
  0
POLYLINE
  5
6BC
  8
OBJECT
 66
     1
 10
0.0
 20
0.0
 30
0.0
 70
     1
  0
VERTEX
  5
D35
  8
OBJECT
 10
75.675354826311661
 20
38.873420848034357
 30
0.0
 42
-0.3084765539402507
  0
VERTEX
  5
D36
  8
OBJECT
 10
75.774550580010555
 20
38.873420848034833
 30
0.0
  0
VERTEX
  5
D37
  8
OBJECT
 10
75.774550580010555
 20
38.774020412301567
 30
0.0
 42
-0.3084765539402503
  0
VERTEX
  5
D38
  8
OBJECT
 10
75.675354826311661
 20
38.774020412300679
 30
0.0
  0
SEQEND
  5
D39
  8
OBJECT
  0
ARC
  5
6C2
  8
OBJECT
 10
75.576050580010559
 20
39.088640905455271
 30
0.0
 40
0.3299202752877545
 50
252.48264455370369
 51
287.51735544630083
  0
LINE
  5
6C3
  8
OBJECT
 10
75.427148456860095
 20
38.758720630167517
 30
0.0
 11
75.724952703160852
 21
38.758720630167517
 31
0.0
  0
ARC
  5
6C4
  8
OBJECT
 10
75.576050580010559
 20
38.558800354879757
 30
0.0
 40
0.3299202752877545
 50
72.48264455369916
 51
107.51735544629631
  0
LINE
  5
6C5
  8
OBJECT
 10
75.427148456860095
 20
38.888720630167512
 30
0.0
 11
75.724952703160852
 21
38.888720630167512
 31
0.0
  0
POLYLINE
  5
6C6
  8
OBJECT
 66
     1
 10
0.0
 20
0.0
 30
0.0
 70
     1
  0
VERTEX
  5
D3A
  8
OBJECT
 10
75.748050580010556
 20
39.012720630167507
 30
0.0
  0
VERTEX
  5
D3B
  8
OBJECT
 10
75.748050580010556
 20
39.070720630167521
 30
0.0
 42
0.0948302211984842
  0
VERTEX
  5
D3C
  8
OBJECT
 10
75.603050580010574
 20
39.108805547135802
 30
0.0
  0
VERTEX
  5
D3D
  8
OBJECT
 10
75.603050580010574
 20
39.044720630167518
 30
0.0
  0
VERTEX
  5
D3E
  8
OBJECT
 10
75.549050580010572
 20
39.044720630167511
 30
0.0
  0
VERTEX
  5
D3F
  8
OBJECT
 10
75.549050580010572
 20
39.108805547135802
 30
0.0
 42
0.0948302211984809
  0
VERTEX
  5
D40
  8
OBJECT
 10
75.404050580010562
 20
39.070720630167521
 30
0.0
  0
VERTEX
  5
D41
  8
OBJECT
 10
75.404050580010562
 20
39.012720630167507
 30
0.0
  0
VERTEX
  5
D42
  8
OBJECT
 10
75.494050580010565
 20
39.012720630167507
 30
0.0
  0
VERTEX
  5
D43
  8
OBJECT
 10
75.494050580010565
 20
38.637720630167507
 30
0.0
  0
VERTEX
  5
D44
  8
OBJECT
 10
75.658050580010553
 20
38.637720630167507
 30
0.0
  0
VERTEX
  5
D45
  8
OBJECT
 10
75.658050580010581
 20
39.012720630167507
 30
0.0
  0
SEQEND
  5
D46
  8
OBJECT
  0
POLYLINE
  5
6D4
  8
OBJECT
 66
     1
 10
0.0
 20
0.0
 30
0.0
 70
     1
  0
VERTEX
  5
D47
  8
OBJECT
 10
62.300354826311619
 20
56.778020412300677
 30
0.0
 42
0.3084765539402507
  0
VERTEX
  5
D48
  8
OBJECT
 10
62.399550580010512
 20
56.778020412300229
 30
0.0
  0
VERTEX
  5
D49
  8
OBJECT
 10
62.399550580010512
 20
56.877420848033488
 30
0.0
 42
0.3084765539402503
  0
VERTEX
  5
D4A
  8
OBJECT
 10
62.300354826311619
 20
56.877420848034369
 30
0.0
  0
SEQEND
  5
D4B
  8
OBJECT
  0
POLYLINE
  5
6DA
  8
OBJECT
 66
     1
 10
0.0
 20
0.0
 30
0.0
 70
     1
  0
VERTEX
  5
D4C
  8
OBJECT
 10
62.101746333710139
 20
56.778020412301451
 30
0.0
 42
-0.3084765539483098
  0
VERTEX
  5
D4D
  8
OBJECT
 10
62.002550580010499
 20
56.778020412301849
 30
0.0
  0
VERTEX
  5
D4E
  8
OBJECT
 10
62.002550580010499
 20
56.877420848033893
 30
0.0
 42
-0.3084765539483101
  0
VERTEX
  5
D4F
  8
OBJECT
 10
62.101746333710139
 20
56.87742084803363
 30
0.0
  0
SEQEND
  5
D50
  8
OBJECT
  0
LINE
  5
6E0
  8
OBJECT
 10
62.052148456860039
 20
56.892720630167517
 30
0.0
 11
62.349952703160803
 21
56.892720630167517
 31
0.0
  0
ARC
  5
6E1
  8
OBJECT
 10
62.201050580010509
 20
56.562800354879769
 30
0.0
 40
0.3299202752877545
 50
72.482644553699188
 51
107.51735544629631
  0
LINE
  5
6E2
  8
OBJECT
 10
62.052148456860039
 20
56.762720630167529
 30
0.0
 11
62.349952703160803
 21
56.762720630167529
 31
0.0
  0
ARC
  5
6E3
  8
OBJECT
 10
62.201050580010509
 20
57.092640905455312
 30
0.0
 40
0.3299202752877545
 50
252.48264455370369
 51
287.51735544630088
  0
POLYLINE
  5
6E4
  8
OBJECT
 66
     1
 10
0.0
 20
0.0
 30
0.0
 70
     1
  0
VERTEX
  5
D51
  8
OBJECT
 10
65.976746333710167
 20
56.778020412301451
 30
0.0
 42
-0.3084765539483098
  0
VERTEX
  5
D52
  8
OBJECT
 10
65.877550580010507
 20
56.778020412301849
 30
0.0
  0
VERTEX
  5
D53
  8
OBJECT
 10
65.877550580010507
 20
56.877420848033893
 30
0.0
 42
-0.3084765539483101
  0
VERTEX
  5
D54
  8
OBJECT
 10
65.976746333710167
 20
56.87742084803363
 30
0.0
  0
SEQEND
  5
D55
  8
OBJECT
  0
POLYLINE
  5
6EA
  8
OBJECT
 66
     1
 10
0.0
 20
0.0
 30
0.0
 70
     1
  0
VERTEX
  5
D56
  8
OBJECT
 10
66.175354826311633
 20
56.778020412300677
 30
0.0
 42
0.3084765539402507
  0
VERTEX
  5
D57
  8
OBJECT
 10
66.274550580010526
 20
56.778020412300229
 30
0.0
  0
VERTEX
  5
D58
  8
OBJECT
 10
66.274550580010526
 20
56.877420848033488
 30
0.0
 42
0.3084765539402503
  0
VERTEX
  5
D59
  8
OBJECT
 10
66.175354826311633
 20
56.877420848034369
 30
0.0
  0
SEQEND
  5
D5A
  8
OBJECT
  0
ARC
  5
6F0
  8
OBJECT
 10
66.076050580010531
 20
56.562800354879769
 30
0.0
 40
0.3299202752877545
 50
72.482644553699188
 51
107.51735544629631
  0
LINE
  5
6F1
  8
OBJECT
 10
65.927148456860067
 20
56.892720630167517
 30
0.0
 11
66.224952703160824
 21
56.892720630167517
 31
0.0
  0
ARC
  5
6F2
  8
OBJECT
 10
66.076050580010531
 20
57.092640905455312
 30
0.0
 40
0.3299202752877545
 50
252.48264455370369
 51
287.51735544630088
  0
LINE
  5
6F3
  8
OBJECT
 10
65.927148456860067
 20
56.762720630167529
 30
0.0
 11
66.224952703160824
 21
56.762720630167529
 31
0.0
  0
POLYLINE
  5
6F4
  8
OBJECT
 66
     1
 10
0.0
 20
0.0
 30
0.0
 70
     1
  0
VERTEX
  5
D5B
  8
OBJECT
 10
66.248050580010528
 20
56.638720630167541
 30
0.0
  0
VERTEX
  5
D5C
  8
OBJECT
 10
66.248050580010528
 20
56.580720630167541
 30
0.0
 42
-0.0948302211984842
  0
VERTEX
  5
D5D
  8
OBJECT
 10
66.103050580010546
 20
56.542635713199239
 30
0.0
  0
VERTEX
  5
D5E
  8
OBJECT
 10
66.103050580010546
 20
56.606720630167523
 30
0.0
  0
VERTEX
  5
D5F
  8
OBJECT
 10
66.049050580010544
 20
56.606720630167551
 30
0.0
  0
VERTEX
  5
D60
  8
OBJECT
 10
66.049050580010544
 20
56.542635713199239
 30
0.0
 42
-0.0948302211984809
  0
VERTEX
  5
D61
  8
OBJECT
 10
65.904050580010534
 20
56.580720630167541
 30
0.0
  0
VERTEX
  5
D62
  8
OBJECT
 10
65.904050580010534
 20
56.638720630167541
 30
0.0
  0
VERTEX
  5
D63
  8
OBJECT
 10
65.994050580010537
 20
56.638720630167541
 30
0.0
  0
VERTEX
  5
D64
  8
OBJECT
 10
65.994050580010537
 20
57.013720630167533
 30
0.0
  0
VERTEX
  5
D65
  8
OBJECT
 10
66.158050580010524
 20
57.013720630167533
 30
0.0
  0
VERTEX
  5
D66
  8
OBJECT
 10
66.158050580010553
 20
56.638720630167541
 30
0.0
  0
SEQEND
  5
D67
  8
OBJECT
  0
POLYLINE
  5
702
  8
OBJECT
 66
     1
 10
0.0
 20
0.0
 30
0.0
 70
     1
  0
VERTEX
  5
D68
  8
OBJECT
 10
62.373050580010521
 20
56.638720630167541
 30
0.0
  0
VERTEX
  5
D69
  8
OBJECT
 10
62.373050580010521
 20
56.580720630167541
 30
0.0
 42
-0.0948302211984842
  0
VERTEX
  5
D6A
  8
OBJECT
 10
62.228050580010517
 20
56.542635713199239
 30
0.0
  0
VERTEX
  5
D6B
  8
OBJECT
 10
62.228050580010517
 20
56.606720630167523
 30
0.0
  0
VERTEX
  5
D6C
  8
OBJECT
 10
62.174050580010523
 20
56.606720630167551
 30
0.0
  0
VERTEX
  5
D6D
  8
OBJECT
 10
62.174050580010523
 20
56.542635713199239
 30
0.0
 42
-0.0948302211984809
  0
VERTEX
  5
D6E
  8
OBJECT
 10
62.029050580010527
 20
56.580720630167541
 30
0.0
  0
VERTEX
  5
D6F
  8
OBJECT
 10
62.029050580010527
 20
56.638720630167541
 30
0.0
  0
VERTEX
  5
D70
  8
OBJECT
 10
62.11905058001053
 20
56.638720630167541
 30
0.0
  0
VERTEX
  5
D71
  8
OBJECT
 10
62.11905058001053
 20
57.013720630167533
 30
0.0
  0
VERTEX
  5
D72
  8
OBJECT
 10
62.28305058001051
 20
57.013720630167533
 30
0.0
  0
VERTEX
  5
D73
  8
OBJECT
 10
62.283050580010531
 20
56.638720630167541
 30
0.0
  0
SEQEND
  5
D74
  8
OBJECT
  0
POLYLINE
  5
710
  8
OBJECT
 66
     1
 10
0.0
 20
0.0
 30
0.0
 70
     1
  0
VERTEX
  5
D75
  8
OBJECT
 10
79.851746333710196
 20
56.778020412301451
 30
0.0
 42
-0.3084765539483098
  0
VERTEX
  5
D76
  8
OBJECT
 10
79.752550580010535
 20
56.778020412301849
 30
0.0
  0
VERTEX
  5
D77
  8
OBJECT
 10
79.752550580010535
 20
56.877420848033893
 30
0.0
 42
-0.3084765539483101
  0
VERTEX
  5
D78
  8
OBJECT
 10
79.851746333710196
 20
56.87742084803363
 30
0.0
  0
SEQEND
  5
D79
  8
OBJECT
  0
POLYLINE
  5
716
  8
OBJECT
 66
     1
 10
0.0
 20
0.0
 30
0.0
 70
     1
  0
VERTEX
  5
D7A
  8
OBJECT
 10
80.050354826311661
 20
56.778020412300677
 30
0.0
 42
0.3084765539402507
  0
VERTEX
  5
D7B
  8
OBJECT
 10
80.149550580010526
 20
56.778020412300229
 30
0.0
  0
VERTEX
  5
D7C
  8
OBJECT
 10
80.149550580010526
 20
56.877420848033488
 30
0.0
 42
0.3084765539402503
  0
VERTEX
  5
D7D
  8
OBJECT
 10
80.050354826311661
 20
56.877420848034369
 30
0.0
  0
SEQEND
  5
D7E
  8
OBJECT
  0
ARC
  5
71C
  8
OBJECT
 10
79.951050580010531
 20
56.562800354879769
 30
0.0
 40
0.3299202752877545
 50
72.482644553699188
 51
107.51735544629631
  0
LINE
  5
71D
  8
OBJECT
 10
79.802148456860067
 20
56.892720630167517
 30
0.0
 11
80.099952703160824
 21
56.892720630167517
 31
0.0
  0
ARC
  5
71E
  8
OBJECT
 10
79.951050580010531
 20
57.092640905455312
 30
0.0
 40
0.3299202752877545
 50
252.48264455370369
 51
287.51735544630088
  0
LINE
  5
71F
  8
OBJECT
 10
79.802148456860067
 20
56.762720630167529
 30
0.0
 11
80.099952703160824
 21
56.762720630167529
 31
0.0
  0
POLYLINE
  5
720
  8
OBJECT
 66
     1
 10
0.0
 20
0.0
 30
0.0
 70
     1
  0
VERTEX
  5
D7F
  8
OBJECT
 10
80.123050580010556
 20
56.638720630167541
 30
0.0
  0
VERTEX
  5
D80
  8
OBJECT
 10
80.123050580010556
 20
56.580720630167541
 30
0.0
 42
-0.0948302211984842
  0
VERTEX
  5
D81
  8
OBJECT
 10
79.978050580010546
 20
56.542635713199239
 30
0.0
  0
VERTEX
  5
D82
  8
OBJECT
 10
79.978050580010546
 20
56.606720630167523
 30
0.0
  0
VERTEX
  5
D83
  8
OBJECT
 10
79.924050580010544
 20
56.606720630167551
 30
0.0
  0
VERTEX
  5
D84
  8
OBJECT
 10
79.924050580010544
 20
56.542635713199239
 30
0.0
 42
-0.0948302211984809
  0
VERTEX
  5
D85
  8
OBJECT
 10
79.779050580010562
 20
56.580720630167541
 30
0.0
  0
VERTEX
  5
D86
  8
OBJECT
 10
79.779050580010562
 20
56.638720630167541
 30
0.0
  0
VERTEX
  5
D87
  8
OBJECT
 10
79.869050580010565
 20
56.638720630167541
 30
0.0
  0
VERTEX
  5
D88
  8
OBJECT
 10
79.869050580010565
 20
57.013720630167533
 30
0.0
  0
VERTEX
  5
D89
  8
OBJECT
 10
80.033050580010553
 20
57.013720630167533
 30
0.0
  0
VERTEX
  5
D8A
  8
OBJECT
 10
80.033050580010553
 20
56.638720630167541
 30
0.0
  0
SEQEND
  5
D8B
  8
OBJECT
  0
POLYLINE
  5
72E
  8
OBJECT
 62
     2
 66
     1
 10
0.0
 20
0.0
 30
0.0
 70
     1
  0
VERTEX
  5
D8C
  8
OBJECT
 62
     2
 10
62.872050580010537
 20
57.295720630167537
 30
0.0
 42
0.4142135623730966
  0
VERTEX
  5
D8D
  8
OBJECT
 62
     2
 10
62.857050580010537
 20
57.310720630167559
 30
0.0
  0
VERTEX
  5
D8E
  8
OBJECT
 62
     2
 10
61.512050580010538
 20
57.310720630167559
 30
0.0
 42
0.4142135623730951
  0
VERTEX
  5
D8F
  8
OBJECT
 62
     2
 10
61.497050580010537
 20
57.295720630167537
 30
0.0
  0
VERTEX
  5
D90
  8
OBJECT
 62
     2
 10
61.497050580010537
 20
56.794720630167561
 30
0.0
  0
VERTEX
  5
D91
  8
OBJECT
 62
     2
 10
61.38805058001055
 20
56.794720630167561
 30
0.0
  0
VERTEX
  5
D92
  8
OBJECT
 62
     2
 10
61.38805058001055
 20
57.294720630167568
 30
0.0
 42
-0.4142135623730936
  0
VERTEX
  5
D93
  8
OBJECT
 62
     2
 10
61.51305058001055
 20
57.419720630167561
 30
0.0
  0
VERTEX
  5
D94
  8
OBJECT
 62
     2
 10
62.856050580010539
 20
57.419720630167561
 30
0.0
 42
-0.4142135623730943
  0
VERTEX
  5
D95
  8
OBJECT
 62
     2
 10
62.981050580010539
 20
57.294720630167568
 30
0.0
  0
VERTEX
  5
D96
  8
OBJECT
 62
     2
 10
62.98105058001056
 20
56.918720630167563
 30
0.0
 42
0.4142135623730951
  0
VERTEX
  5
D97
  8
OBJECT
 62
     2
 10
62.996050580010561
 20
56.903720630167577
 30
0.0
  0
VERTEX
  5
D98
  8
OBJECT
 62
     2
 10
63.560050580010547
 20
56.903720630167577
 30
0.0
  0
VERTEX
  5
D99
  8
OBJECT
 62
     2
 10
63.560050580010547
 20
56.794720630167561
 30
0.0
  0
VERTEX
  5
D9A
  8
OBJECT
 62
     2
 10
62.997050580010537
 20
56.794720630167561
 30
0.0
 42
-0.4142135623730951
  0
VERTEX
  5
D9B
  8
OBJECT
 62
     2
 10
62.872050580010537
 20
56.919720630167561
 30
0.0
  0
SEQEND
  5
D9C
  8
OBJECT
 62
     2
  0
POLYLINE
  5
740
  8
OBJECT
 62
     2
 66
     1
 10
0.0
 20
0.0
 30
0.0
 70
     1
  0
VERTEX
  5
D9D
  8
OBJECT
 62
     2
 10
85.390050580010552
 20
57.295720630167537
 30
0.0
 42
-0.4142135623730966
  0
VERTEX
  5
D9E
  8
OBJECT
 62
     2
 10
85.405050580010567
 20
57.310720630167559
 30
0.0
  0
VERTEX
  5
D9F
  8
OBJECT
 62
     2
 10
86.750050580010566
 20
57.310720630167559
 30
0.0
 42
-0.4142135623730951
  0
VERTEX
  5
DA0
  8
OBJECT
 62
     2
 10
86.765050580010552
 20
57.295720630167537
 30
0.0
  0
VERTEX
  5
DA1
  8
OBJECT
 62
     2
 10
86.765050580010552
 20
56.794720630167561
 30
0.0
  0
VERTEX
  5
DA2
  8
OBJECT
 62
     2
 10
86.874050580010561
 20
56.794720630167561
 30
0.0
  0
VERTEX
  5
DA3
  8
OBJECT
 62
     2
 10
86.874050580010561
 20
57.294720630167568
 30
0.0
 42
0.4142135623730936
  0
VERTEX
  5
DA4
  8
OBJECT
 62
     2
 10
86.749050580010575
 20
57.419720630167561
 30
0.0
  0
VERTEX
  5
DA5
  8
OBJECT
 62
     2
 10
85.406050580010572
 20
57.419720630167561
 30
0.0
 42
0.4142135623730943
  0
VERTEX
  5
DA6
  8
OBJECT
 62
     2
 10
85.281050580010586
 20
57.294720630167568
 30
0.0
  0
VERTEX
  5
DA7
  8
OBJECT
 62
     2
 10
85.281050580010586
 20
56.918720630167563
 30
0.0
 42
-0.4142135623730951
  0
VERTEX
  5
DA8
  8
OBJECT
 62
     2
 10
85.266050580010557
 20
56.903720630167577
 30
0.0
  0
VERTEX
  5
DA9
  8
OBJECT
 62
     2
 10
84.702050580010564
 20
56.903720630167577
 30
0.0
  0
VERTEX
  5
DAA
  8
OBJECT
 62
     2
 10
84.702050580010564
 20
56.794720630167561
 30
0.0
  0
VERTEX
  5
DAB
  8
OBJECT
 62
     2
 10
85.265050580010538
 20
56.794720630167561
 30
0.0
 42
0.4142135623730951
  0
VERTEX
  5
DAC
  8
OBJECT
 62
     2
 10
85.390050580010552
 20
56.919720630167561
 30
0.0
  0
SEQEND
  5
DAD
  8
OBJECT
 62
     2
  0
CIRCLE
  5
752
  8
OBJECT
 10
79.951050580010559
 20
26.785504106265151
 30
0.0
 40
0.172
  0
POLYLINE
  5
753
  8
OBJECT
 66
     1
 10
0.0
 20
0.0
 30
0.0
 70
     1
  0
VERTEX
  5
DAE
  8
OBJECT
 10
79.85174633370994
 20
26.957504106265151
 30
0.0
  0
VERTEX
  5
DAF
  8
OBJECT
 10
79.752442087409321
 20
26.785504106265151
 30
0.0
  0
VERTEX
  5
DB0
  8
OBJECT
 10
79.85174633370994
 20
26.613504106265161
 30
0.0
  0
VERTEX
  5
DB1
  8
OBJECT
 10
80.050354826311136
 20
26.613504106265161
 30
0.0
  0
VERTEX
  5
DB2
  8
OBJECT
 10
80.149659072611755
 20
26.785504106265151
 30
0.0
  0
VERTEX
  5
DB3
  8
OBJECT
 10
80.050354826311178
 20
26.957504106265151
 30
0.0
  0
SEQEND
  5
DB4
  8
OBJECT
  0
CIRCLE
  5
75B
  8
OBJECT
 10
79.951050580010559
 20
26.785504106265151
 30
0.0
 40
0.082
  0
CIRCLE
  5
75C
  8
OBJECT
 10
75.576050580010559
 20
26.785504106265151
 30
0.0
 40
0.172
  0
POLYLINE
  5
75D
  8
OBJECT
 66
     1
 10
0.0
 20
0.0
 30
0.0
 70
     1
  0
VERTEX
  5
DB5
  8
OBJECT
 10
75.47674633370994
 20
26.957504106265151
 30
0.0
  0
VERTEX
  5
DB6
  8
OBJECT
 10
75.377442087409321
 20
26.785504106265151
 30
0.0
  0
VERTEX
  5
DB7
  8
OBJECT
 10
75.47674633370994
 20
26.613504106265161
 30
0.0
  0
VERTEX
  5
DB8
  8
OBJECT
 10
75.675354826311178
 20
26.613504106265161
 30
0.0
  0
VERTEX
  5
DB9
  8
OBJECT
 10
75.774659072611797
 20
26.785504106265151
 30
0.0
  0
VERTEX
  5
DBA
  8
OBJECT
 10
75.675354826311178
 20
26.957504106265151
 30
0.0
  0
SEQEND
  5
DBB
  8
OBJECT
  0
CIRCLE
  5
765
  8
OBJECT
 10
75.576050580010559
 20
26.785504106265151
 30
0.0
 40
0.082
  0
CIRCLE
  5
766
  8
OBJECT
 10
66.076050580010531
 20
26.785504106265151
 30
0.0
 40
0.172
  0
POLYLINE
  5
767
  8
OBJECT
 66
     1
 10
0.0
 20
0.0
 30
0.0
 70
     1
  0
VERTEX
  5
DBC
  8
OBJECT
 10
65.976746333709912
 20
26.957504106265151
 30
0.0
  0
VERTEX
  5
DBD
  8
OBJECT
 10
65.877442087409293
 20
26.785504106265151
 30
0.0
  0
VERTEX
  5
DBE
  8
OBJECT
 10
65.976746333709912
 20
26.613504106265161
 30
0.0
  0
VERTEX
  5
DBF
  8
OBJECT
 10
66.17535482631115
 20
26.613504106265161
 30
0.0
  0
VERTEX
  5
DC0
  8
OBJECT
 10
66.274659072611769
 20
26.785504106265151
 30
0.0
  0
VERTEX
  5
DC1
  8
OBJECT
 10
66.17535482631115
 20
26.957504106265151
 30
0.0
  0
SEQEND
  5
DC2
  8
OBJECT
  0
CIRCLE
  5
76F
  8
OBJECT
 10
66.076050580010531
 20
26.785504106265151
 30
0.0
 40
0.082
  0
CIRCLE
  5
770
  8
OBJECT
 10
62.201050580010531
 20
26.785504106265151
 30
0.0
 40
0.172
  0
POLYLINE
  5
771
  8
OBJECT
 66
     1
 10
0.0
 20
0.0
 30
0.0
 70
     1
  0
VERTEX
  5
DC3
  8
OBJECT
 10
62.101746333709897
 20
26.957504106265151
 30
0.0
  0
VERTEX
  5
DC4
  8
OBJECT
 10
62.002442087409293
 20
26.785504106265151
 30
0.0
  0
VERTEX
  5
DC5
  8
OBJECT
 10
62.101746333709897
 20
26.613504106265161
 30
0.0
  0
VERTEX
  5
DC6
  8
OBJECT
 10
62.300354826311121
 20
26.613504106265161
 30
0.0
  0
VERTEX
  5
DC7
  8
OBJECT
 10
62.399659072611747
 20
26.785504106265151
 30
0.0
  0
VERTEX
  5
DC8
  8
OBJECT
 10
62.300354826311143
 20
26.957504106265151
 30
0.0
  0
SEQEND
  5
DC9
  8
OBJECT
  0
CIRCLE
  5
779
  8
OBJECT
 10
62.201050580010531
 20
26.785504106265151
 30
0.0
 40
0.082
  0
DIMENSION
  5
77A
  8
DIM
  2
*D32
 10
13.87562019106708
 20
31.12167444679778
 30
0.0
 11
23.375620191067078
 21
31.12167444679778
 31
0.0
 70
     0
 13
32.875620191067078
 23
28.519504106265149
 33
0.0
 14
13.87562019106708
 24
28.519504106265149
 34
0.0
  0
DIMENSION
  5
77B
  8
DIM
  2
*D33
 10
46.076050580010516
 20
22.884378341942028
 30
0.0
 11
53.076050580010516
 21
22.884378341942028
 31
0.0
 70
     0
 13
60.076050580010516
 23
25.28550410626513
 33
0.0
 14
46.076050580010516
 24
25.051504106265149
 34
0.0
  0
DIMENSION
  5
77C
  8
DIM
  2
*D34
 10
45.967050580010529
 20
22.884378341942028
 30
0.0
 11
41.723300580010537
 21
22.884378341942028
 31
0.0
 70
     0
 13
46.076050580010516
 23
25.051504106265149
 33
0.0
 14
45.967050580010529
 24
25.051504106265149
 34
0.0
  0
DIMENSION
  5
77D
  8
DIM
  2
*D21
 10
61.076050580010516
 20
20.1345311532314
 30
0.0
 11
53.576050580010516
 21
20.1345311532314
 31
0.0
 70
     0
  1
<>
 13
46.076050580010516
 23
25.051504106265149
 33
0.0
 14
61.076050580010516
 24
26.090504106265222
 34
0.0
  0
DIMENSION
  5
77E
  8
DIM
  2
*D35
 10
61.076050580010516
 20
20.1345311532314
 30
0.0
 11
71.076050580010502
 21
20.1345311532314
 31
0.0
 70
     0
  1
<> SLIDE
 13
81.076050580010502
 23
26.09050410626525
 33
0.0
 14
61.076050580010516
 24
26.09050410626525
 34
0.0
  0
DIMENSION
  5
77F
  8
DIM
  2
*D22
 10
84.399281878796671
 20
28.535504106265162
 30
0.0
 11
84.399281878796671
 21
27.660504106265169
 31
0.0
 70
     0
 13
79.951050580010559
 23
26.785504106265151
 33
0.0
 14
80.456050580010469
 24
28.535504106265162
 34
0.0
 50
90.0
  0
DIMENSION
  5
780
  8
DIM
  2
*D23
 10
90.355795205504307
 20
25.28550410626513
 30
0.0
 11
90.355795205504307
 21
26.785504106265151
 31
0.0
 70
     0
 13
80.139050580010476
 23
28.285504106265151
 33
0.0
 14
80.139050580010476
 24
25.28550410626513
 34
0.0
 50
90.0
  0
DIMENSION
  5
781
  8
DIM
  2
*D36
 10
87.432364373481732
 20
25.035504106265162
 30
0.0
 11
84.339239373481746
 21
22.515504106265169
 31
0.0
 70
     0
 13
80.139050580010476
 23
25.28550410626513
 33
0.0
 14
80.456050580010469
 24
25.035504106265162
 34
0.0
 50
90.0
  0
DIMENSION
  5
782
  8
DIM
  2
*D24
 10
93.716609068475805
 20
28.535504106265151
 30
0.0
 11
93.716609068475805
 21
26.785504106265169
 31
0.0
 70
     0
 13
80.456050580010469
 23
25.035504106265162
 33
0.0
 14
80.456050580010469
 24
28.535504106265162
 34
0.0
 50
90.0
  0
POLYLINE
  5
783
  8
HIDDEN
 62
     2
 66
     1
 10
0.0
 20
0.0
 30
0.0
  0
VERTEX
  5
DCA
  8
HIDDEN
 62
     2
 10
46.986050580010549
 20
45.623720630167583
 30
0.0
 42
-0.4142135623730951
  0
VERTEX
  5
DCB
  8
HIDDEN
 62
     2
 10
46.888050580010542
 20
45.525720630167577
 30
0.0
  0
VERTEX
  5
DCC
  8
HIDDEN
 62
     2
 10
46.076050580010538
 20
45.525720630167577
 30
0.0
  0
VERTEX
  5
DCD
  8
HIDDEN
 62
     2
 10
46.076050580010538
 20
45.435720630167587
 30
0.0
  0
VERTEX
  5
DCE
  8
HIDDEN
 62
     2
 10
46.888050580010542
 20
45.435720630167587
 30
0.0
 42
0.4142135623730951
  0
VERTEX
  5
DCF
  8
HIDDEN
 62
     2
 10
47.076050580010552
 20
45.623720630167583
 30
0.0
  0
VERTEX
  5
DD0
  8
HIDDEN
 62
     2
 10
47.076050580010552
 20
47.825720630167559
 30
0.0
 42
0.4142135623730922
  0
SEQEND
  5
DD1
  8
HIDDEN
 62
     2
  0
POLYLINE
  5
78C
  8
HIDDEN
 62
     2
 66
     1
 10
0.0
 20
0.0
 30
0.0
  0
VERTEX
  5
DD2
  8
HIDDEN
 62
     2
 10
62.076050580010531
 20
47.825720630167559
 30
0.0
  0
VERTEX
  5
DD3
  8
HIDDEN
 62
     2
 10
62.076050580010531
 20
50.027720630167543
 30
0.0
 42
0.4142135623730922
  0
VERTEX
  5
DD4
  8
HIDDEN
 62
     2
 10
61.888050580010542
 20
50.215720630167532
 30
0.0
  0
VERTEX
  5
DD5
  8
HIDDEN
 62
     2
 10
61.076050580010538
 20
50.215720630167532
 30
0.0
  0
VERTEX
  5
DD6
  8
HIDDEN
 62
     2
 10
61.076050580010538
 20
50.12572063016755
 30
0.0
  0
VERTEX
  5
DD7
  8
HIDDEN
 62
     2
 10
61.888050580010542
 20
50.12572063016755
 30
0.0
 42
-0.4142135623730898
  0
VERTEX
  5
DD8
  8
HIDDEN
 62
     2
 10
61.986050580010527
 20
50.027720630167543
 30
0.0
  0
VERTEX
  5
DD9
  8
HIDDEN
 62
     2
 10
61.986050580010541
 20
47.825720630167559
 30
0.0
 42
-0.4142135623730951
  0
SEQEND
  5
DDA
  8
HIDDEN
 62
     2
  0
POLYLINE
  5
796
  8
HIDDEN
 62
     2
 66
     1
 10
0.0
 20
0.0
 30
0.0
  0
VERTEX
  5
DDB
  8
HIDDEN
 62
     2
 10
46.986050580010549
 20
47.825720630167559
 30
0.0
  0
VERTEX
  5
DDC
  8
HIDDEN
 62
     2
 10
46.986050580010549
 20
45.623720630167583
 30
0.0
 42
-0.4142135623730951
  0
SEQEND
  5
DDD
  8
HIDDEN
 62
     2
  0
LINE
  5
79A
  8
OBJECT
  6
HIDDEN
 62
     2
 10
46.894050580010521
 20
47.825720630167559
 30
0.0
 11
46.894050580010521
 21
45.575720630167559
 31
0.0
  0
LINE
  5
79B
  8
HIDDEN
 10
46.576050580010531
 20
47.825720630167538
 30
0.0
 11
46.576050580010531
 21
39.887720630167571
 31
0.0
  0
LINE
  5
79C
  8
OBJECT
  6
HIDDEN
 62
     2
 10
61.176050580010539
 20
47.825720630167559
 30
0.0
 11
61.176050580010539
 21
49.625720630167557
 31
0.0
  0
LINE
  5
79D
  8
HIDDEN
 10
46.138050580010528
 20
47.825720630167559
 30
0.0
 11
46.138050580010528
 21
39.325720630167567
 31
0.0
  0
POLYLINE
  5
79E
  8
OBJECT
 62
    11
 66
     1
 10
0.0
 20
0.0
 30
0.0
  0
VERTEX
  5
DDE
  8
OBJECT
 62
    11
 10
75.036050580010539
 20
56.450720630167552
 30
0.0
  0
VERTEX
  5
DDF
  8
OBJECT
 62
    11
 10
61.098050580010558
 20
56.450720630167552
 30
0.0
  0
VERTEX
  5
DE0
  8
OBJECT
 62
    11
 10
61.098050580010558
 20
47.825720630167559
 30
0.0
  0
SEQEND
  5
DE1
  8
OBJECT
 62
    11
  0
POLYLINE
  5
7A3
  8
OBJECT
 62
     4
 66
     1
 10
0.0
 20
0.0
 30
0.0
  0
VERTEX
  5
DE2
  8
OBJECT
 62
     4
 10
61.076050580010538
 20
47.825720630167559
 30
0.0
  0
VERTEX
  5
DE3
  8
OBJECT
 62
     4
 10
61.076050580010538
 20
57.325720630167538
 30
0.0
  0
SEQEND
  5
DE4
  8
OBJECT
 62
     4
  0
LINE
  5
7A7
  8
HIDDEN
 10
46.076050580010538
 20
47.676307189651887
 30
0.0
 11
46.076050580010538
 21
39.435720630167573
 31
0.0
  0
LINE
  5
7A8
  8
OBJECT
  6
HIDDEN
 62
     2
 10
61.086050580010543
 20
47.825720630167559
 30
0.0
 11
61.086050580010543
 21
50.075720630167567
 31
0.0
  0
POLYLINE
  5
7A9
  8
OBJECT
 62
     4
 66
     1
 10
0.0
 20
0.0
 30
0.0
  0
VERTEX
  5
DE5
  8
OBJECT
 62
     4
 10
61.076050580010538
 20
57.325720630167538
 30
0.0
  0
VERTEX
  5
DE6
  8
OBJECT
 62
     4
 10
60.956050580010533
 20
57.325720630167538
 30
0.0
  0
VERTEX
  5
DE7
  8
OBJECT
 62
     4
 10
60.956050580010533
 20
47.825720630167559
 30
0.0
  0
SEQEND
  5
DE8
  8
OBJECT
 62
     4
  0
POLYLINE
  5
7AE
  8
OBJECT
 62
     4
 66
     1
 10
0.0
 20
0.0
 30
0.0
  0
VERTEX
  5
DE9
  8
OBJECT
 62
     4
 10
45.95605058001054
 20
47.825720630167559
 30
0.0
  0
VERTEX
  5
DEA
  8
OBJECT
 62
     4
 10
45.956050580010533
 20
38.325720630167538
 30
0.0
  0
VERTEX
  5
DEB
  8
OBJECT
 62
     4
 10
46.076050580010538
 20
38.325720630167559
 30
0.0
  0
VERTEX
  5
DEC
  8
OBJECT
 62
     4
 10
46.076050580010538
 20
47.825720630167559
 30
0.0
  0
SEQEND
  5
DED
  8
OBJECT
 62
     4
  0
LINE
  5
7B4
  8
OBJECT
 62
     2
 10
60.86605058001053
 20
47.825720630167559
 30
0.0
 11
60.86605058001053
 21
50.075720630167567
 31
0.0
  0
LINE
  5
7B5
  8
OBJECT
  6
HIDDEN
 62
     2
 10
60.956050580010533
 20
47.825720630167559
 30
0.0
 11
60.956050580010533
 21
50.075720630167567
 31
0.0
  0
LINE
  5
7B6
  8
OBJECT
 62
    12
 10
60.246050580010547
 20
47.825720630167559
 30
0.0
 11
60.246050580010547
 21
40.153720630167562
 31
0.0
  0
LINE
  5
7B7
  8
OBJECT
 62
    12
 10
60.07605058001058
 20
47.825720630167559
 30
0.0
 11
60.076050580010552
 21
40.153720630167562
 31
0.0
  0
POLYLINE
  5
7B8
  8
OBJECT
 62
    11
 66
     1
 10
0.0
 20
0.0
 30
0.0
  0
VERTEX
  5
DEE
  8
OBJECT
 62
    11
 10
46.098050580010558
 20
47.825720630167538
 30
0.0
  0
VERTEX
  5
DEF
  8
OBJECT
 62
    11
 10
46.098050580010558
 20
39.200720630167552
 30
0.0
  0
VERTEX
  5
DF0
  8
OBJECT
 62
    11
 10
60.036050580010539
 20
39.200720630167567
 30
0.0
  0
VERTEX
  5
DF1
  8
OBJECT
 62
    11
 10
60.036050580010539
 20
47.825720630167559
 30
0.0
  0
SEQEND
  5
DF2
  8
OBJECT
 62
    11
  0
POLYLINE
  5
7BE
  8
OBJECT
 62
    11
 66
     1
 10
0.0
 20
0.0
 30
0.0
  0
VERTEX
  5
DF3
  8
OBJECT
 62
    11
 10
75.036050580010539
 20
47.825720630167559
 30
0.0
  0
VERTEX
  5
DF4
  8
OBJECT
 62
    11
 10
75.036050580010539
 20
56.450720630167552
 30
0.0
  0
SEQEND
  5
DF5
  8
OBJECT
 62
    11
  0
LINE
  5
7C2
  8
HIDDEN
 10
60.014050580010519
 20
47.825720630167559
 30
0.0
 11
60.014050580010519
 21
39.325720630167567
 31
0.0
  0
LINE
  5
7C3
  8
HIDDEN
 62
    12
 10
59.630050580010561
 20
47.825720630167559
 30
0.0
 11
59.630050580010547
 21
40.153720630167562
 31
0.0
  0
LINE
  5
7C4
  8
HIDDEN
 10
60.076050580010516
 20
47.676307189651887
 30
0.0
 11
60.076050580010516
 21
39.435720630167573
 31
0.0
  0
LINE
  5
7C5
  8
OBJECT
 10
61.076050580010538
 20
39.29072063016757
 30
0.0
 11
61.076050580010538
 21
38.950720630167567
 31
0.0
  0
LINE
  5
7C6
  8
HIDDEN
 10
61.248289464259649
 20
39.050720630167561
 30
0.0
 11
65.915550580010517
 21
39.050720630167561
 31
0.0
  0
LINE
  5
7C7
  8
CENTER
 10
51.076050580010516
 20
39.463220630167577
 30
0.0
 11
51.076050580010516
 21
39.188220630167571
 31
0.0
  0
DIMENSION
  5
7C8
  8
DIM
  2
*D37
 10
41.844085373654067
 20
10.39212067245292
 30
0.0
 11
38.696272873654067
 21
7.872120672452926
 31
0.0
 70
   128
 13
32.675120191066931
 23
11.26712067245292
 33
0.0
 14
32.313120191066922
 24
10.39212067245292
 34
0.0
 50
90.0
  0
POLYLINE
  5
7C9
  8
OBJECT
 66
     1
 10
0.0
 20
0.0
 30
0.0
 70
     1
  0
VERTEX
  5
DF6
  8
OBJECT
 10
80.623050580010485
 20
56.638720630167541
 30
0.0
  0
VERTEX
  5
DF7
  8
OBJECT
 10
80.623050580010485
 20
56.580720630167541
 30
0.0
 42
-0.0948302211984842
  0
VERTEX
  5
DF8
  8
OBJECT
 10
80.478050580010489
 20
56.542635713199239
 30
0.0
  0
VERTEX
  5
DF9
  8
OBJECT
 10
80.478050580010489
 20
56.606720630167523
 30
0.0
  0
VERTEX
  5
DFA
  8
OBJECT
 10
80.424050580010487
 20
56.606720630167551
 30
0.0
  0
VERTEX
  5
DFB
  8
OBJECT
 10
80.424050580010487
 20
56.542635713199239
 30
0.0
 42
-0.0948302211984809
  0
VERTEX
  5
DFC
  8
OBJECT
 10
80.279050580010505
 20
56.580720630167541
 30
0.0
  0
VERTEX
  5
DFD
  8
OBJECT
 10
80.279050580010505
 20
56.638720630167541
 30
0.0
  0
VERTEX
  5
DFE
  8
OBJECT
 10
80.369050580010509
 20
56.638720630167541
 30
0.0
  0
VERTEX
  5
DFF
  8
OBJECT
 10
80.369050580010509
 20
57.013720630167533
 30
0.0
  0
VERTEX
  5
E00
  8
OBJECT
 10
80.533050580010496
 20
57.013720630167533
 30
0.0
  0
VERTEX
  5
E01
  8
OBJECT
 10
80.533050580010496
 20
56.638720630167541
 30
0.0
  0
SEQEND
  5
E02
  8
OBJECT
  0
LINE
  5
7D7
  8
OBJECT
 10
80.302148456860024
 20
56.762720630167529
 30
0.0
 11
80.599952703160767
 21
56.762720630167529
 31
0.0
  0
ARC
  5
7D8
  8
OBJECT
 10
80.451050580010474
 20
57.092640905455312
 30
0.0
 40
0.3299202752877545
 50
252.48264455370369
 51
287.51735544630088
  0
LINE
  5
7D9
  8
OBJECT
 10
80.302148456860024
 20
56.892720630167517
 30
0.0
 11
80.599952703160767
 21
56.892720630167517
 31
0.0
  0
ARC
  5
7DA
  8
OBJECT
 10
80.451050580010474
 20
56.562800354879769
 30
0.0
 40
0.3299202752877545
 50
72.482644553699188
 51
107.51735544629631
  0
POLYLINE
  5
7DB
  8
OBJECT
 66
     1
 10
0.0
 20
0.0
 30
0.0
 70
     1
  0
VERTEX
  5
E03
  8
OBJECT
 10
80.550354826311604
 20
56.778020412300677
 30
0.0
 42
0.3084765539402507
  0
VERTEX
  5
E04
  8
OBJECT
 10
80.649550580010455
 20
56.778020412300229
 30
0.0
  0
VERTEX
  5
E05
  8
OBJECT
 10
80.649550580010455
 20
56.877420848033488
 30
0.0
 42
0.3084765539402503
  0
VERTEX
  5
E06
  8
OBJECT
 10
80.550354826311604
 20
56.877420848034369
 30
0.0
  0
SEQEND
  5
E07
  8
OBJECT
  0
POLYLINE
  5
7E1
  8
OBJECT
 66
     1
 10
0.0
 20
0.0
 30
0.0
 70
     1
  0
VERTEX
  5
E08
  8
OBJECT
 10
80.351746333710125
 20
56.778020412301451
 30
0.0
 42
-0.3084765539483098
  0
VERTEX
  5
E09
  8
OBJECT
 10
80.252550580010478
 20
56.778020412301849
 30
0.0
  0
VERTEX
  5
E0A
  8
OBJECT
 10
80.252550580010478
 20
56.877420848033893
 30
0.0
 42
-0.3084765539483101
  0
VERTEX
  5
E0B
  8
OBJECT
 10
80.351746333710125
 20
56.87742084803363
 30
0.0
  0
SEQEND
  5
E0C
  8
OBJECT
  0
LINE
  5
7E7
  8
TITLE
 10
108.066
 20
70.406000000000006
 30
0.0
 11
108.066
 21
0.4339999999999833
 31
0.0
  0
LINE
  5
7E8
  8
TITLE
 10
0.4339999999999833
 20
70.406000000000006
 30
0.0
 11
108.066
 21
70.406000000000006
 31
0.0
  0
LINE
  5
7E9
  8
TITLE
 10
0.4339999999999833
 20
0.4339999999999833
 30
0.0
 11
0.4339999999999833
 21
70.406000000000006
 31
0.0
  0
LINE
  5
7EA
  8
TITLE
 10
108.066
 20
0.4339999999999833
 30
0.0
 11
0.4339999999999833
 21
0.4339999999999833
 31
0.0
  0
LINE
  5
7EB
  8
TITLE
 10
108.4999999999999
 20
0.0
 30
0.0
 11
0.0
 21
0.0
 31
0.0
  0
LINE
  5
7EC
  8
TITLE
 10
108.4999999999999
 20
70.839999999999975
 30
0.0
 11
108.4999999999999
 21
0.0
 31
0.0
  0
LINE
  5
7ED
  8
TITLE
 10
0.0
 20
70.839999999999975
 30
0.0
 11
108.4999999999999
 21
70.839999999999975
 31
0.0
  0
LINE
  5
7EE
  8
TITLE
 10
0.0
 20
0.0
 30
0.0
 11
0.0
 21
70.839999999999975
 31
0.0
  0
LINE
  5
7EF
  8
TITLE
 10
0.4339999999999833
 20
67.480000000000004
 30
0.0
 11
108.066
 21
67.480000000000004
 31
0.0
  0
LINE
  5
7F0
  8
DIM
 10
36.114000870835909
 20
7.872120672452926
 30
0.0
 11
36.963680907800189
 21
7.872120672452926
 31
0.0
  0
DIMENSION
  5
7F1
  8
DIM
  2
*D38
 10
39.958311544209707
 20
11.892120672452929
 30
0.0
 11
43.106124044209707
 21
14.41212067245293
 31
0.0
 70
     0
 13
32.675120191066938
 23
11.267120672452929
 33
0.0
 14
32.675120191066938
 24
11.892120672452929
 34
0.0
 50
90.0
  0
DIMENSION
  5
7F2
  8
DIM
  2
*D39
 10
44.935038306439978
 20
12.392120672452929
 30
0.0
 11
47.973475806439978
 21
14.91212067245293
 31
0.0
 70
     0
 13
32.675120191066938
 23
11.892120672452929
 33
0.0
 14
32.675120191066938
 24
12.392120672452929
 34
0.0
 50
90.0
  0
DIMENSION
  5
7F3
  8
DIM
  2
*D40
 10
49.637817029021242
 20
13.01712067245291
 30
0.0
 11
52.785629529021243
 21
15.53712067245292
 31
0.0
 70
     0
 13
32.675120191066938
 23
12.392120672452929
 33
0.0
 14
32.675120191066938
 24
13.01712067245291
 34
0.0
 50
90.0
  0
TEXT
  5
7F4
  8
DIM
 10
25.385208525704329
 20
31.458921642066279
 30
0.0
 40
0.875
  1
PANEL
 41
0.75
  7
TXT
  0
DIMENSION
  5
7F5
  8
DIM
  2
*D41
 10
32.313120191066929
 20
17.71112156163899
 30
0.0
 11
22.33883126177901
 21
17.71112156163899
 31
0.0
 70
   128
 13
14.438120191067251
 23
13.89212067245292
 33
0.0
 14
32.313120191066929
 24
13.89212067245292
 34
0.0
  0
DIMENSION
  5
7F6
  8
DIM
  2
*D25
 10
8.9153767573090619
 20
13.579120672452779
 30
0.0
 11
8.9153767573090583
 21
12.07912067245277
 31
0.0
 70
     0
 13
14.87562019106711
 23
10.57912067245276
 33
0.0
 14
14.87562019106711
 24
13.579120672452779
 34
0.0
 50
90.0
  0
DIMENSION
  5
7F7
  8
DIM
  2
*D26
 10
36.114000870835909
 20
25.051504106265149
 30
0.0
 11
36.114000870835909
 21
26.785504106265151
 31
0.0
 70
     0
 13
32.875620191067078
 23
28.519504106265149
 33
0.0
 14
32.875620191067092
 24
25.051504106265149
 34
0.0
 50
90.0
  0
TEXT
  5
7F8
  8
DIM
 10
37.21911222729279
 20
27.592369245141899
 30
0.0
 40
0.875
  1
PANEL
 41
0.75
  7
TXT
  0
TEXT
  5
7F9
  8
DIM
 10
40.62653987808293
 20
21.240175899568399
 30
0.0
 40
0.875
  1
PANEL
 41
0.75
  7
TXT
  0
TEXT
  5
7FA
  8
DIM
 10
10.650386566086921
 20
12.328313587461849
 30
0.0
 40
0.875
  1
BODY
 41
0.75
  7
TXT
  0
DIMENSION
  5
7FB
  8
DIM
  2
*D27
 10
31.875620191067078
 20
7.8173356961185014
 30
0.0
 11
23.375620191067089
 21
7.8173356961185014
 31
0.0
 70
     0
 13
14.87562019106711
 23
10.57912067245276
 33
0.0
 14
31.875620191067078
 24
10.57912067245279
 34
0.0
  0
TEXT
  5
7FC
  8
DIM
 10
25.431254811171598
 20
8.1855786730466491
 30
0.0
 40
0.875
  1
DRAWER
 41
0.75
  7
TXT
  0
TEXT
  5
7FD
  8
DIM
 10
25.431254811171598
 20
6.5891542708310453
 30
0.0
 40
0.875
  1
BODY
 41
0.75
  7
TXT
  0
TEXT
  5
7FE
  8
DIM
 10
55.080204492858797
 20
23.201767276205668
 30
0.0
 40
0.875
  1
BODY
 41
0.75
  7
TXT
  0
TEXT
  5
7FF
  8
DIM
 10
55.556663577614039
 20
20.493015304182229
 30
0.0
 40
0.875
  1
TRAVEL
 41
0.75
  7
TXT
  0
POLYLINE
  5
800
  8
DIM
 66
     1
 10
0.0
 20
0.0
 30
0.0
 41
0.4725
  0
VERTEX
  5
E0D
  8
DIM
 10
61.473574960389001
 20
38.238117613951708
 30
0.0
  0
VERTEX
  5
E0E
  8
DIM
 10
60.604617316933712
 20
37.325696322069149
 30
0.0
 41
0.0
  0
VERTEX
  5
E0F
  8
DIM
 10
58.860647626906299
 20
35.494496505181068
 30
0.0
 41
0.0
  0
VERTEX
  5
E10
  8
DIM
 10
57.600647626906309
 20
35.494496505181068
 30
0.0
 41
0.0
  0
SEQEND
  5
E11
  8
DIM
  0
TEXT
  5
806
  8
DIM
 10
51.720647626906313
 20
35.056996505181061
 30
0.0
 40
0.875
  1
REF. RACK
 41
0.75
  7
TXT
 72
     2
 11
56.970647626906299
 21
35.494496505181068
 31
0.0
 73
     2
  0
TEXT
  5
807
  8
DIM
 10
48.001897626906313
 20
33.598663171847733
 30
0.0
 40
0.875
  1
PANEL MTG. RAIL
 41
0.75
  7
TXT
 72
     2
 11
56.970647626906299
 21
34.036163171847733
 31
0.0
 73
     2
  0
DIMENSION
  5
808
  8
DIM
  2
*D28
 10
81.076050580010502
 20
53.117795333673982
 30
0.0
 11
67.793260515745686
 21
53.117795333673982
 31
0.0
 70
   128
  1
20.125
 13
60.956050580010533
 23
52.65862632956803
 33
0.0
 14
81.076050580010502
 24
56.36072063016757
 34
0.0
  0
DIMENSION
  5
809
  8
DIM
  2
*D29
 10
86.874050580010561
 20
60.290749184909458
 30
0.0
 11
74.131050580010552
 21
60.290749184909458
 31
0.0
 70
     0
  1
25.484
 13
61.38805058001055
 23
57.239720630167561
 33
0.0
 14
86.874050580010561
 24
57.239720630167561
 34
0.0
  0
TEXT
  5
80A
  8
DIM
 10
76.463041081873754
 20
60.590439986764892
 30
0.0
 40
0.875
  1
MAX. BETWEEN
 41
0.75
  7
TXT
  0
TEXT
  5
80B
  8
DIM
 10
76.463041081873754
 20
59.132106653431563
 30
0.0
 40
0.875
  1
BRACKETS
 41
0.75
  7
TXT
  0
TEXT
  5
80C
  8
DIM
 10
69.942512523445799
 20
53.472786053316241
 30
0.0
 40
0.875
  1
MININUM 
 41
0.75
  7
TXT
  0
TEXT
  5
80D
  8
DIM
 10
69.942512523445799
 20
51.902068740485788
 30
0.0
 40
0.875
  1
OVERALL
 41
0.75
  7
TXT
  0
TEXT
  5
80E
  8
DIM
 10
69.942512523445799
 20
50.631042039647653
 30
0.0
 40
0.875
  1
DEPTH
 41
0.75
  7
TXT
  0
DIMENSION
  5
80F
  8
DIM
  2
*D30
 10
86.936050580010573
 20
63.731900116844628
 30
0.0
 11
73.946050580010535
 21
63.731900116844628
 31
0.0
 70
     0
  1
25.984
 13
60.956050580010533
 23
57.325720630167538
 33
0.0
 14
86.936050580010573
 24
57.239720630167561
 34
0.0
  0
TEXT
  5
810
  8
DIM
 10
76.265022147810114
 20
64.008281421042682
 30
0.0
 40
0.875
  1
MAX. OVERALL
 41
0.75
  7
TXT
  0
TEXT
  5
811
  8
DIM
 10
76.265022147810114
 20
62.549948087709339
 30
0.0
 40
0.875
  1
DEPTH
 41
0.75
  7
TXT
  0
TEXT
  5
812
  8
DIM
 10
24.638580109936701
 20
18.098938892449631
 30
0.0
 40
0.875
  1
OVERALL
 41
0.75
  7
TXT
  0
TEXT
  5
813
  8
DIM
 10
24.638580109936701
 20
16.49254420718049
 30
0.0
 40
0.875
  1
WIDTH INCL.
 41
0.75
  7
TXT
  0
TEXT
  5
814
  8
DIM
 10
24.697825097779539
 20
15.18227222578296
 30
0.0
 40
0.875
  1
BRACKETS
 41
0.75
  7
TXT
  0
LINE
  5
815
  8
CENTER
 10
63.31005058001054
 20
56.794720630167568
 30
0.0
 11
63.31005058001054
 21
57.134720630167578
 31
0.0
  0
LINE
  5
816
  8
CENTER
 10
84.952050580010564
 20
56.794720630167568
 30
0.0
 11
84.952050580010564
 21
57.134720630167578
 31
0.0
  0
POLYLINE
  5
817
  8
OBJECT
 66
     1
 10
0.0
 20
0.0
 30
0.0
 70
     1
  0
VERTEX
  5
E12
  8
OBJECT
 10
70.976746333710167
 20
38.873420848033639
 30
0.0
 42
0.3084765539483098
  0
VERTEX
  5
E13
  8
OBJECT
 10
70.877550580010507
 20
38.873420848033241
 30
0.0
  0
VERTEX
  5
E14
  8
OBJECT
 10
70.877550580010507
 20
38.774020412301198
 30
0.0
 42
0.3084765539483101
  0
VERTEX
  5
E15
  8
OBJECT
 10
70.976746333710167
 20
38.774020412301461
 30
0.0
  0
SEQEND
  5
E16
  8
OBJECT
  0
LINE
  5
81D
  8
OBJECT
 10
70.927148456860067
 20
38.758720630167552
 30
0.0
 11
71.224952703160824
 21
38.758720630167552
 31
0.0
  0
LINE
  5
81E
  8
OBJECT
 10
70.927148456860067
 20
38.888720630167548
 30
0.0
 11
71.224952703160824
 21
38.888720630167548
 31
0.0
  0
ARC
  5
81F
  8
OBJECT
 10
71.076050580010531
 20
39.088640905455293
 30
0.0
 40
0.3299202752877545
 50
252.48264455370369
 51
287.51735544630083
  0
POLYLINE
  5
820
  8
OBJECT
 66
     1
 10
0.0
 20
0.0
 30
0.0
 70
     1
  0
VERTEX
  5
E17
  8
OBJECT
 10
71.175354826311633
 20
38.873420848034392
 30
0.0
 42
-0.3084765539402507
  0
VERTEX
  5
E18
  8
OBJECT
 10
71.274550580010526
 20
38.873420848034861
 30
0.0
  0
VERTEX
  5
E19
  8
OBJECT
 10
71.274550580010526
 20
38.774020412301603
 30
0.0
 42
-0.3084765539402503
  0
VERTEX
  5
E1A
  8
OBJECT
 10
71.175354826311633
 20
38.7740204123007
 30
0.0
  0
SEQEND
  5
E1B
  8
OBJECT
  0
ARC
  5
826
  8
OBJECT
 10
71.076050580010531
 20
38.558800354879779
 30
0.0
 40
0.3299202752877545
 50
72.48264455369916
 51
107.51735544629631
  0
POLYLINE
  5
827
  8
OBJECT
 66
     1
 10
0.0
 20
0.0
 30
0.0
 70
     1
  0
VERTEX
  5
E1C
  8
OBJECT
 10
71.248050580010528
 20
39.012720630167543
 30
0.0
  0
VERTEX
  5
E1D
  8
OBJECT
 10
71.248050580010528
 20
39.07072063016755
 30
0.0
 42
0.0948302211984842
  0
VERTEX
  5
E1E
  8
OBJECT
 10
71.103050580010546
 20
39.108805547135837
 30
0.0
  0
VERTEX
  5
E1F
  8
OBJECT
 10
71.103050580010546
 20
39.044720630167546
 30
0.0
  0
VERTEX
  5
E20
  8
OBJECT
 10
71.049050580010544
 20
39.044720630167539
 30
0.0
  0
VERTEX
  5
E21
  8
OBJECT
 10
71.049050580010544
 20
39.108805547135837
 30
0.0
 42
0.0948302211984809
  0
VERTEX
  5
E22
  8
OBJECT
 10
70.904050580010534
 20
39.07072063016755
 30
0.0
  0
VERTEX
  5
E23
  8
OBJECT
 10
70.904050580010534
 20
39.012720630167543
 30
0.0
  0
VERTEX
  5
E24
  8
OBJECT
 10
70.994050580010537
 20
39.012720630167543
 30
0.0
  0
VERTEX
  5
E25
  8
OBJECT
 10
70.994050580010537
 20
38.637720630167543
 30
0.0
  0
VERTEX
  5
E26
  8
OBJECT
 10
71.158050580010524
 20
38.637720630167543
 30
0.0
  0
VERTEX
  5
E27
  8
OBJECT
 10
71.158050580010553
 20
39.012720630167543
 30
0.0
  0
SEQEND
  5
E28
  8
OBJECT
  0
DIMENSION
  5
835
  8
DIM
  2
*D31
 10
76.325024440380446
 20
34.923776071445467
 30
0.0
 11
68.856537510195494
 21
34.923776071445467
 31
0.0
 70
     0
  1
14.938
 13
61.38805058001055
 23
38.411720630167572
 33
0.0
 14
76.325024440380446
 24
38.411720630167572
 34
0.0
  0
LINE
  5
836
  8
TEXT
 10
48.47457162509631
 20
47.825720630167559
 30
0.0
 11
48.878773959357069
 21
48.400680373506042
 31
0.0
  0
LINE
  5
837
  8
TEXT
 10
48.878773959357069
 20
48.400680373506042
 30
0.0
 11
49.030349992593138
 21
47.137984551062893
 31
0.0
  0
LINE
  5
838
  8
TEXT
 10
49.030349992593138
 20
47.137984551062893
 30
0.0
 11
49.45981520957762
 21
47.825720630167559
 31
0.0
  0
LINE
  5
839
  8
TEXT
 10
49.45981520957762
 20
47.825720630167567
 30
0.0
 11
55.952317966685939
 21
47.825720630167567
 31
0.0
  0
LINE
  5
83A
  8
TEXT
 10
55.952317966685932
 20
47.825720630167559
 30
0.0
 11
56.356520300946691
 21
48.400680373506042
 31
0.0
  0
LINE
  5
83B
  8
TEXT
 10
56.356520300946691
 20
48.400680373506042
 30
0.0
 11
56.508096334182753
 21
47.137984551062893
 31
0.0
  0
LINE
  5
83C
  8
TEXT
 10
56.508096334182753
 20
47.137984551062893
 30
0.0
 11
56.937561551167228
 21
47.825720630167559
 31
0.0
  0
LINE
  5
83D
  8
TEXT
 10
56.937561551167228
 20
47.825720630167567
 30
0.0
 11
64.57507820143374
 21
47.825720630167559
 31
0.0
  0
LINE
  5
83E
  8
TEXT
 10
65.560321785915036
 20
47.825720630167567
 30
0.0
 11
72.052824543023334
 21
47.825720630167567
 31
0.0
  0
LINE
  5
83F
  8
TEXT
 10
64.57507820143374
 20
47.825720630167559
 30
0.0
 11
64.9792805356945
 21
48.400680373506042
 31
0.0
  0
LINE
  5
840
  8
TEXT
 10
64.9792805356945
 20
48.400680373506042
 30
0.0
 11
65.130856568930554
 21
47.137984551062893
 31
0.0
  0
LINE
  5
841
  8
TEXT
 10
65.130856568930554
 20
47.137984551062893
 30
0.0
 11
65.560321785915022
 21
47.825720630167559
 31
0.0
  0
LINE
  5
842
  8
TEXT
 10
72.457026877284093
 20
48.400680373506042
 30
0.0
 11
72.608602910520176
 21
47.137984551062893
 31
0.0
  0
LINE
  5
843
  8
TEXT
 10
72.052824543023334
 20
47.825720630167559
 30
0.0
 11
72.457026877284093
 21
48.400680373506042
 31
0.0
  0
LINE
  5
844
  8
TEXT
 10
72.608602910520176
 20
47.137984551062893
 30
0.0
 11
73.038068127504644
 21
47.825720630167559
 31
0.0
  0
LINE
  5
845
  8
TEXT
 10
73.038068127504644
 20
47.825720630167559
 30
0.0
 11
76.157536353713425
 21
47.825720630167559
 31
0.0
  0
LINE
  5
846
  8
TEXT
 10
44.803918190932741
 20
47.825720630167559
 30
0.0
 11
48.474571625096303
 21
47.825720630167559
 31
0.0
  0
TEXT
  5
847
  8
DIM
 10
71.0959477985473
 20
35.161645916118971
 30
0.0
 40
0.875
  1
MIN.
 41
0.75
  7
TXT
  0
TEXT
  5
848
  8
DIM
 10
71.0959477985473
 20
33.295216953114291
 30
0.0
 40
0.875
  1
BETWEEN BRKTS.
 41
0.75
  7
TXT
  0
LINE
  5
849
  8
TITLE
 10
54.033000000000001
 20
67.480000000000004
 30
0.0
 11
54.033000000000001
 21
70.406000000000006
 31
0.0
  0
LINE
  5
84A
  8
TITLE
 10
54.466999999999992
 20
67.480000000000004
 30
0.0
 11
54.466999999999992
 21
70.406000000000006
 31
0.0
  0
TEXT
  5
84B
  8
TEXT
 10
56.308001358698128
 20
68.986262035863035
 30
0.0
 40
0.875
  1
PART
 41
0.75
  7
TXT
  0
TEXT
  5
84C
  8
TEXT
 10
56.744729183958597
 20
67.789874902081721
 30
0.0
 40
0.875
  1
NO.
 41
0.75
  7
TXT
  0
LINE
  5
84D
  8
TITLE
 10
60.319154879460271
 20
67.480000000000004
 30
0.0
 11
60.319154879460271
 21
70.406000000000006
 31
0.0
  0
TEXT
  5
84E
  8
TEXT
 10
2.233227151165917
 20
67.789874902081721
 30
0.0
 40
0.875
  1
NAME
 41
0.75
  7
TXT
  0
TEXT
  5
84F
  8
TEXT
 10
2.2750013586981188
 20
68.986262035863035
 30
0.0
 40
0.875
  1
PART
 41
0.75
  7
TXT
  0
LINE
  5
850
  8
TITLE
 10
6.2861548794602546
 20
67.480000000000004
 30
0.0
 11
6.2861548794602546
 21
70.406000000000006
 31
0.0
  0
TEXT
  5
851
  8
TEXT
 10
21.614001998132959
 20
68.21982745008134
 30
0.0
 40
1.3119999999999989
  1
DESKTOP DRAWER
 41
0.75
  7
TXT
 72
     1
 11
28.50200199813295
 21
68.21982745008134
 31
0.0
  0
TEXT
  5
852
  8
TEXT
 10
81.91467223302439
 20
68.21982745008134
 30
0.0
 40
1.3119999999999989
  1
DD-2363
 41
0.75
  7
TXT
 72
     1
 11
85.194672233024406
 21
68.21982745008134
 31
0.0
  0
TEXT
  5
853
  8
TEXT
 10
19.960616520072989
 20
22.503856731980171
 30
0.0
 40
0.875
  1
%%UFRONT VIEW
 41
0.75
  7
TXT
 72
     1
 11
23.252804020073
 21
22.503856731980171
 31
0.0
  0
TEXT
  5
854
  8
TEXT
 10
20.288741520073
 20
4.3963552545525353
 30
0.0
 40
0.875
  1
%%UREAR VIEW
 41
0.75
  7
TXT
 72
     1
 11
23.252804020073
 21
4.3963552545525353
 31
0.0
  0
TEXT
  5
855
  8
TEXT
 10
2.2154451772480228
 20
65.098024167819901
 30
0.0
 40
0.875
  1
MATERIAL:
 41
0.75
  7
TXT
  0
TEXT
  5
856
  8
TEXT
 10
2.78350801082175
 20
63.639690834486558
 30
0.0
 40
0.875
  1
DRAWER BODY & MOUNTING BRACKETS
 41
0.75
  7
TXT
  0
TEXT
  5
857
  8
TEXT
 10
2.78350801082175
 20
62.181357501153222
 30
0.0
 40
0.875
  1
FRONT PANEL
 41
0.75
  7
TXT
  0
TEXT
  5
858
  8
TEXT
 10
2.78350801082175
 20
60.723024167819887
 30
0.0
 40
0.875
  1
LID ASSEMBLY
 41
0.75
  7
TXT
  0
TEXT
  5
859
  8
TEXT
 10
2.78350801082175
 20
57.806357501153222
 30
0.0
 40
0.875
  1
HANDLE
 41
0.75
  7
TXT
  0
TEXT
  5
85A
  8
TEXT
 10
2.2154451772480228
 20
54.644425314485972
 30
0.0
 40
0.875
  1
FINISH:
 41
0.75
  7
TXT
  0
TEXT
  5
85B
  8
TEXT
 10
2.78350801082175
 20
53.186091981152629
 30
0.0
 40
0.875
  1
DRAWER BODY & FRONT PANEL
 41
0.75
  7
TXT
  0
TEXT
  5
85C
  8
TEXT
 10
2.78350801082175
 20
48.811091981152622
 30
0.0
 40
0.875
  1
MOUNTING BRACKETS
 41
0.75
  7
TXT
  0
TEXT
  5
85D
  8
TEXT
 10
2.78350801082175
 20
47.352758647819279
 30
0.0
 40
0.875
  1
LID ASSEMBLY
 41
0.75
  7
TXT
  0
TEXT
  5
85E
  8
TEXT
 10
2.78350801082175
 20
45.89442531448595
 30
0.0
 40
0.875
  1
HANDLE
 41
0.75
  7
TXT
  0
TEXT
  5
85F
  8
TEXT
 10
26.790454135197571
 20
63.621571878894009
 30
0.0
 40
0.875
  1
16 GA. STEEL
 41
0.75
  7
TXT
  0
TEXT
  5
860
  8
TEXT
 10
26.790454135197571
 20
62.163238545560667
 30
0.0
 40
0.875
  1
12 GA. STEEL
 41
0.75
  7
TXT
  0
TEXT
  5
861
  8
TEXT
 10
26.790454135197571
 20
60.704905212227331
 30
0.0
 40
0.875
  1
0.120 THK. ALUMINUM COVERED
 41
0.75
  7
TXT
  0
TEXT
  5
862
  8
TEXT
 10
26.790454135197571
 20
57.78823854556066
 30
0.0
 40
0.875
  1
ABS
 41
0.75
  7
TXT
  0
TEXT
  5
863
  8
TEXT
 10
26.790454135197571
 20
53.16797302556008
 30
0.0
 40
0.875
  1
WHITE TEXTURE
 41
0.75
  7
TXT
  0
TEXT
  5
864
  8
TEXT
 10
26.790454135197571
 20
51.709639692226737
 30
0.0
 40
0.875
  1
METALLIC GRAY
 41
0.75
  7
TXT
  0
TEXT
  5
865
  8
TEXT
 10
26.790454135197571
 20
48.792973025560073
 30
0.0
 40
0.875
  1
SMOOTH BLACK
 41
0.75
  7
TXT
  0
TEXT
  5
866
  8
TEXT
 10
26.790454135197571
 20
47.33463969222673
 30
0.0
 40
0.875
  1
SOLID ANTIQUE WHITE
 41
0.75
  7
TXT
  0
TEXT
  5
867
  8
TEXT
 10
26.790454135197571
 20
45.91801469222672
 30
0.0
 40
0.875
  1
BLACK
 41
0.75
  7
TXT
  0
LINE
  5
868
  8
TEXT
 10
23.266009290601041
 20
63.647854253592371
 30
0.0
 11
26.3208423493856
 21
63.647854253592371
 31
0.0
  0
LINE
  5
869
  8
TEXT
 10
10.16166246709091
 20
62.249297684568653
 30
0.0
 11
26.3208423493856
 21
62.24929768456866
 31
0.0
  0
LINE
  5
86A
  8
TEXT
 10
10.348201028511919
 20
60.757504074231072
 30
0.0
 11
26.32084234938559
 21
60.757504074231072
 31
0.0
  0
LINE
  5
86B
  8
TEXT
 10
6.8039648248151181
 20
57.807377130560162
 30
0.0
 11
26.3208423493856
 21
57.80737713056017
 31
0.0
  0
LINE
  5
86C
  8
TEXT
 10
19.581869165838469
 20
53.192140452781921
 30
0.0
 11
26.32084234938559
 21
53.192140452781921
 31
0.0
  0
LINE
  5
86D
  8
TEXT
 10
13.89243723220873
 20
48.8434569400873
 30
0.0
 11
26.3208423493856
 21
48.8434569400873
 31
0.0
  0
LINE
  5
86E
  8
TEXT
 10
10.44147056184368
 20
47.351663329749719
 30
0.0
 11
26.32084234938559
 21
47.351663329749719
 31
0.0
  0
LINE
  5
86F
  8
TEXT
 10
6.8039648248151181
 20
45.906488335000638
 30
0.0
 11
26.32084234938559
 21
45.906488335000638
 31
0.0
  0
LINE
  5
870
  8
OBJECT
 62
     4
 10
46.076050580010516
 20
25.051504106265149
 30
0.0
 11
45.967050580010529
 21
25.051504106265149
 31
0.0
  0
LINE
  5
871
  8
OBJECT
 62
     4
 10
45.967050580010529
 20
25.051504106265149
 30
0.0
 11
45.967050580010529
 21
28.519504106265149
 31
0.0
  0
LINE
  5
872
  8
OBJECT
 62
     4
 10
45.967050580010529
 20
28.519504106265149
 30
0.0
 11
46.076050580010516
 21
28.519504106265138
 31
0.0
  0
LINE
  5
873
  8
OBJECT
 62
     4
 10
46.076050580010516
 20
28.519504106265138
 30
0.0
 11
46.076050580010516
 21
25.051504106265149
 31
0.0
  0
LINE
  5
874
  8
OBJECT
 62
     2
 10
45.967050580010529
 20
25.654504106265129
 30
0.0
 11
45.967050580010529
 21
25.466504106265141
 31
0.0
  0
LINE
  5
875
  8
OBJECT
 62
     2
 10
45.967050580010529
 20
25.466504106265141
 30
0.0
 11
45.877050580010533
 21
25.466504106265141
 31
0.0
  0
LINE
  5
876
  8
OBJECT
 62
     2
 10
45.877050580010533
 20
25.466504106265141
 30
0.0
 11
45.877050580010533
 21
27.30650410626513
 31
0.0
  0
LINE
  5
877
  8
OBJECT
 62
     2
 10
45.877050580010533
 20
27.30650410626513
 30
0.0
 11
45.967050580010529
 21
27.30650410626513
 31
0.0
  0
LINE
  5
878
  8
OBJECT
 62
     2
 10
45.967050580010529
 20
27.30650410626513
 30
0.0
 11
45.967050580010529
 21
27.176504106265131
 31
0.0
  0
LINE
  5
879
  8
OBJECT
 62
     2
 10
45.967050580010529
 20
27.176504106265131
 30
0.0
 11
46.086050580010522
 21
27.176504106265131
 31
0.0
  0
LINE
  5
87A
  8
OBJECT
 62
     2
 10
46.086050580010522
 20
27.176504106265131
 30
0.0
 11
46.086050580010522
 21
27.30650410626513
 31
0.0
  0
LINE
  5
87B
  8
OBJECT
 62
     2
 10
46.086050580010522
 20
27.30650410626513
 30
0.0
 11
46.894050580010521
 21
27.30650410626513
 31
0.0
  0
LINE
  5
87C
  8
OBJECT
 62
     2
 10
46.894050580010521
 20
27.30650410626513
 30
0.0
 11
46.894050580010529
 21
26.03550410626513
 31
0.0
  0
LINE
  5
87D
  8
OBJECT
 62
     2
 10
46.894050580010529
 20
26.03550410626513
 30
0.0
 11
46.363050580010523
 21
26.03550410626513
 31
0.0
  0
LINE
  5
87E
  8
OBJECT
 62
     2
 10
46.363050580010523
 20
26.03550410626513
 30
0.0
 11
45.967050580010529
 21
25.654504106265129
 31
0.0
  0
LINE
  5
87F
  8
OBJECT
  6
HIDDEN
 62
     2
 10
45.877050580010533
 20
25.693534334003878
 30
0.0
 11
46.327498604447086
 21
26.125504106265129
 31
0.0
  0
LINE
  5
880
  8
OBJECT
  6
HIDDEN
 62
     2
 10
46.327498604447086
 20
26.125504106265129
 30
0.0
 11
46.894050580010529
 21
26.125504106265129
 31
0.0
  0
TEXT
  5
881
  8
TEXT
 10
26.790454135197571
 20
59.246571878894002
 30
0.0
 40
0.875
  1
WITH PLASTIC LAMINATE
 41
0.75
  7
TXT
  0
TEXT
  5
882
  8
TEXT
 10
26.790454135197571
 20
50.251306358893402
 30
0.0
 40
0.875
  1
BLACK TEXTURE
 41
0.75
  7
TXT
  0
LINE
  5
883
  8
TEXT
 10
19.581869165838469
 20
51.951121065758223
 30
0.0
 11
26.32084234938559
 21
51.951121065758223
 31
0.0
  0
LINE
  5
884
  8
TEXT
 10
19.581869165838469
 20
50.275473786115249
 30
0.0
 11
26.32084234938559
 21
50.275473786115249
 31
0.0
  0
TEXT
  5
885
  8
TEXT
 10
2.78350801082175
 20
41.715557800434837
 30
0.0
 40
0.875
  1
SLIDE LOAD RATING:  92 LBS. (PER PAIR)
 41
0.75
  7
TXT
  0
ENDSEC
  0
EOF
