  0
SECTION
  2
HEADER
  9
$ACADVER
  1
AC1009
  9
$INSBASE
 10
0.0
 20
0.0
 30
0.0
  9
$EXTMIN
 10
-0.0000000000000018
 20
-0.0000000000000009
 30
0.0
  9
$EXTMAX
 10
5.2999999999999998
 20
3.9700000000000002
 30
0.0
  9
$LIMMIN
 10
0.0
 20
0.0
  9
$LIMMAX
 10
12.0
 20
9.0
  9
$ORTHOMODE
 70
     1
  9
$REGENMODE
 70
     1
  9
$FILLMODE
 70
     1
  9
$QTEXTMODE
 70
     0
  9
$MIRRTEXT
 70
     0
  9
$DRAGMODE
 70
     2
  9
$LTSCALE
 40
0.375
  9
$OSMODE
 70
   229
  9
$ATTMODE
 70
     1
  9
$TEXTSIZE
 40
0.063
  9
$TRACEWID
 40
0.05
  9
$TEXTSTYLE
  7
STANDARD
  9
$CLAYER
  8
OBJECT
  9
$CELTYPE
  6
BYLAYER
  9
$CECOLOR
 62
   256
  9
$DIMSCALE
 40
0.5
  9
$DIMASZ
 40
0.18
  9
$DIMEXO
 40
0.0625
  9
$DIMDLI
 40
0.281
  9
$DIMRND
 40
0.0
  9
$DIMDLE
 40
0.0
  9
$DIMEXE
 40
0.093
  9
$DIMTP
 40
0.0
  9
$DIMTM
 40
0.0
  9
$DIMTXT
 40
0.125
  9
$DIMCEN
 40
0.09
  9
$DIMTSZ
 40
0.0
  9
$DIMTOL
 70
     0
  9
$DIMLIM
 70
     0
  9
$DIMTIH
 70
     1
  9
$DIMTOH
 70
     1
  9
$DIMSE1
 70
     0
  9
$DIMSE2
 70
     0
  9
$DIMTAD
 70
     0
  9
$DIMZIN
 70
     0
  9
$DIMBLK
  1

  9
$DIMASO
 70
     1
  9
$DIMSHO
 70
     1
  9
$DIMPOST
  1

  9
$DIMAPOST
  1

  9
$DIMALT
 70
     0
  9
$DIMALTD
 70
     2
  9
$DIMALTF
 40
25.399999999999999
  9
$DIMLFAC
 40
1.0
  9
$DIMTOFL
 70
     0
  9
$DIMTVP
 40
0.0
  9
$DIMTIX
 70
     0
  9
$DIMSOXD
 70
     0
  9
$DIMSAH
 70
     0
  9
$DIMBLK1
  1

  9
$DIMBLK2
  1

  9
$DIMSTYLE
  2
DIMOUT
  9
$DIMCLRD
 70
     0
  9
$DIMCLRE
 70
     0
  9
$DIMCLRT
 70
     0
  9
$DIMTFAC
 40
1.0
  9
$DIMGAP
 40
0.09
  9
$LUNITS
 70
     2
  9
$LUPREC
 70
     4
  9
$SKETCHINC
 40
0.1
  9
$FILLETRAD
 40
0.0
  9
$AUNITS
 70
     0
  9
$AUPREC
 70
     0
  9
$MENU
  1
.
  9
$ELEVATION
 40
0.0
  9
$PELEVATION
 40
0.0
  9
$THICKNESS
 40
0.0
  9
$LIMCHECK
 70
     0
  9
$BLIPMODE
 70
     0
  9
$CHAMFERA
 40
0.5
  9
$CHAMFERB
 40
0.5
  9
$SKPOLY
 70
     0
  9
$TDCREATE
 40
2451570.5889834599
  9
$TDUPDATE
 40
2451831.4139807401
  9
$TDINDWG
 40
0.4786794676
  9
$TDUSRTIMER
 40
0.4786794676
  9
$USRTIMER
 70
     1
  9
$ANGBASE
 50
0.0
  9
$ANGDIR
 70
     0
  9
$PDMODE
 70
     0
  9
$PDSIZE
 40
0.0
  9
$PLINEWID
 40
0.0
  9
$COORDS
 70
     0
  9
$SPLFRAME
 70
     0
  9
$SPLINETYPE
 70
     6
  9
$SPLINESEGS
 70
     8
  9
$ATTDIA
 70
     0
  9
$ATTREQ
 70
     1
  9
$HANDLING
 70
  4097
  9
$HANDSEED
  5
4854
  9
$SURFTAB1
 70
     6
  9
$SURFTAB2
 70
     6
  9
$SURFTYPE
 70
     6
  9
$SURFU
 70
     6
  9
$SURFV
 70
     6
  9
$UCSNAME
  2

  9
$UCSORG
 10
0.0
 20
0.0
 30
0.0
  9
$UCSXDIR
 10
1.0
 20
0.0
 30
0.0
  9
$UCSYDIR
 10
0.0
 20
1.0
 30
0.0
  9
$PUCSNAME
  2

  9
$PUCSORG
 10
0.0
 20
0.0
 30
0.0
  9
$PUCSXDIR
 10
1.0
 20
0.0
 30
0.0
  9
$PUCSYDIR
 10
0.0
 20
1.0
 30
0.0
  9
$USERI1
 70
     0
  9
$USERI2
 70
     0
  9
$USERI3
 70
     0
  9
$USERI4
 70
     0
  9
$USERI5
 70
     0
  9
$USERR1
 40
0.0
  9
$USERR2
 40
0.0
  9
$USERR3
 40
0.0
  9
$USERR4
 40
0.0
  9
$USERR5
 40
0.0
  9
$WORLDVIEW
 70
     1
  9
$SHADEDGE
 70
     3
  9
$SHADEDIF
 70
    70
  9
$TILEMODE
 70
     1
  9
$MAXACTVP
 70
    64
  9
$PLIMCHECK
 70
     0
  9
$PEXTMIN
 10
1.0000000000000000E+020
 20
1.0000000000000000E+020
 30
1.0000000000000000E+020
  9
$PEXTMAX
 10
-1.0000000000000000E+020
 20
-1.0000000000000000E+020
 30
-1.0000000000000000E+020
  9
$PLIMMIN
 10
0.0
 20
0.0
  9
$PLIMMAX
 10
12.0
 20
9.0
  9
$UNITMODE
 70
     0
  9
$VISRETAIN
 70
     1
  9
$PLINEGEN
 70
     0
  9
$PSLTSCALE
 70
     1
  0
ENDSEC
  0
SECTION
  2
TABLES
  0
TABLE
  2
VPORT
 70
     2
  0
VPORT
  2
*ACTIVE
 70
     0
 10
0.0
 20
0.0
 11
1.0
 21
1.0
 12
2.7883496149714739
 22
1.9836147425857
 13
0.0
 23
0.0
 14
0.5
 24
0.5
 15
0.5
 25
0.5
 16
0.0
 26
0.0
 36
1.0
 17
0.0
 27
0.0
 37
0.0
 40
4.0168623525037477
 41
1.8139097744360899
 42
50.0
 43
0.0
 44
0.0
 50
0.0
 51
0.0
 71
     0
 72
   100
 73
     1
 74
     2
 75
     0
 76
     0
 77
     0
 78
     2
  0
ENDTAB
  0
TABLE
  2
LTYPE
 70
     6
  0
LTYPE
  2
CONTINUOUS
 70
     0
  3
Solid line
 72
    65
 73
     0
 40
0.0
  0
LTYPE
  2
HIDDEN
 70
     0
  3
_ _ _ _ _ _ _ _ _ _ _ _ _ _ _ _ _ _ _ _ _ _ _
 72
    65
 73
     2
 40
0.375
 49
0.25
 49
-0.125
  0
LTYPE
  2
PHANTOM
 70
     0
  3
_____ _ _ _____ _ _ _____ _ _ _____ _ _ ____
 72
    65
 73
     6
 40
2.5
 49
1.25
 49
-0.25
 49
0.25
 49
-0.25
 49
0.25
 49
-0.25
  0
LTYPE
  2
CENTER
 70
     0
  3
____ _ ____ _ ____ _ ____ _ ____ _ ____ _ ____
 72
    65
 73
     4
 40
2.0
 49
1.25
 49
-0.25
 49
0.25
 49
-0.25
  0
LTYPE
  2
HIDDEN2
 70
     0
  3
_ _ _ _ _ _ _ _ _ _ _ _ _ _ _ _ _ _ _ _ _ _ _ _
 72
    65
 73
     2
 40
0.1875
 49
0.125
 49
-0.0625
  0
LTYPE
  2
PHANTOM2
 70
     0
  3
___ _ _ ___ _ _ ___ _ _ ___ _ _ ___ _ _ ___ _ _
 72
    65
 73
     6
 40
1.25
 49
0.625
 49
-0.125
 49
0.125
 49
-0.125
 49
0.125
 49
-0.125
  0
ENDTAB
  0
TABLE
  2
LAYER
 70
     9
  0
LAYER
  2
0
 70
     0
 62
     7
  6
CONTINUOUS
  0
LAYER
  2
OBJECT
 70
     0
 62
     7
  6
CONTINUOUS
  0
LAYER
  2
DIM
 70
     0
 62
     2
  6
CONTINUOUS
  0
LAYER
  2
HIDDEN
 70
     0
 62
     6
  6
HIDDEN
  0
LAYER
  2
BEND
 70
     0
 62
     4
  6
PHANTOM
  0
LAYER
  2
TEXT
 70
     0
 62
     1
  6
CONTINUOUS
  0
LAYER
  2
TITLE
 70
     0
 62
     8
  6
CONTINUOUS
  0
LAYER
  2
CENTER
 70
     0
 62
     3
  6
CENTER
  0
LAYER
  2
DEFPOINTS
 70
     0
 62
     7
  6
CONTINUOUS
  0
ENDTAB
  0
TABLE
  2
STYLE
 70
     2
  0
STYLE
  2
STANDARD
 70
     0
 40
0.0
 41
0.75
 50
0.0
 71
     0
 42
0.063
  3
txt.shx
  4

  0
STYLE
  2
TXT
 70
     0
 40
0.0
 41
0.75
 50
0.0
 71
     0
 42
0.125
  3
TXT.shx
  4

  0
ENDTAB
  0
TABLE
  2
VIEW
 70
     0
  0
ENDTAB
  0
TABLE
  2
UCS
 70
     0
  0
ENDTAB
  0
TABLE
  2
APPID
 70
     3
  0
APPID
  2
ACAD
 70
     0
  0
APPID
  2
MCAD_NO_VIS
 70
     0
  0
APPID
  2
AD_SKETCHDIM
 70
     0
  0
ENDTAB
  0
TABLE
  2
DIMSTYLE
 70
     2
  0
DIMSTYLE
  2
DIMIN
 70
     0
  3

  4

  5

  6

  7

 40
0.5
 41
0.18
 42
0.0625
 43
0.281
 44
0.093
 45
0.0
 46
0.0
 47
0.0
 48
0.0
140
0.125
141
0.09
142
0.0
143
25.399999999999999
144
1.0
145
0.0
146
1.0
147
0.09
 71
     0
 72
     0
 73
     1
 74
     1
 75
     0
 76
     0
 77
     0
 78
     0
170
     0
171
     2
172
     0
173
     0
174
     1
175
     0
176
     0
177
     0
178
     0
  0
DIMSTYLE
  2
DIMOUT
 70
     0
  3

  4

  5

  6

  7

 40
0.5
 41
0.18
 42
0.0625
 43
0.281
 44
0.093
 45
0.0
 46
0.0
 47
0.0
 48
0.0
140
0.125
141
0.09
142
0.0
143
25.399999999999999
144
1.0
145
0.0
146
1.0
147
0.09
 71
     0
 72
     0
 73
     1
 74
     1
 75
     0
 76
     0
 77
     0
 78
     0
170
     0
171
     2
172
     0
173
     0
174
     0
175
     0
176
     0
177
     0
178
     0
  0
ENDTAB
  0
ENDSEC
  0
SECTION
  2
BLOCKS
  0
BLOCK
  8
0
  2
$MODEL_SPACE
 70
     0
 10
0.0
 20
0.0
 30
0.0
  3
$MODEL_SPACE
  1

  0
ENDBLK
  5
21
  8
0
  0
BLOCK
 67
     1
  8
0
  2
$PAPER_SPACE
 70
     0
 10
0.0
 20
0.0
 30
0.0
  3
$PAPER_SPACE
  1

  0
ENDBLK
  5
1D
 67
     1
  8
0
  0
BLOCK
  8
0
  2
*D1
 70
     1
 10
0.0
 20
0.0
 30
0.0
  3
*D1
  1

  0
LINE
  5
47E2
  8
DIM
 62
     0
 10
0.9813852629404564
 20
1.5612853179250989
 30
0.0
 11
0.9813852629404564
 21
1.391213224382001
 31
0.0
  0
LINE
  5
47E3
  8
DIM
 62
     0
 10
3.2813852629404572
 20
1.5612853179250989
 30
0.0
 11
3.2813852629404572
 21
1.391213224382001
 31
0.0
  0
LINE
  5
47E4
  8
DIM
 62
     0
 10
1.0713852629404561
 20
1.437713224382001
 30
0.0
 11
2.000447762940456
 21
1.437713224382001
 31
0.0
  0
LINE
  5
47E5
  8
DIM
 62
     0
 10
3.1913852629404569
 20
1.437713224382001
 30
0.0
 11
2.2623227629404559
 21
1.437713224382001
 31
0.0
  0
SOLID
  5
47E6
  8
DIM
 62
     0
 10
1.0713852629404561
 20
1.4527132243820009
 30
0.0
 11
1.0713852629404561
 21
1.4227132243820011
 31
0.0
 12
0.9813852629404564
 22
1.437713224382001
 32
0.0
 13
0.9813852629404564
 23
1.437713224382001
 33
0.0
  0
SOLID
  5
47E7
  8
DIM
 62
     0
 10
3.1913852629404569
 20
1.4527132243820009
 30
0.0
 11
3.1913852629404569
 21
1.4227132243820011
 31
0.0
 12
3.2813852629404572
 22
1.437713224382001
 32
0.0
 13
3.2813852629404572
 23
1.437713224382001
 33
0.0
  0
TEXT
  5
47E8
  8
OBJECT
 62
     0
 10
2.0454477629404559
 20
1.406463224382001
 30
0.0
 40
0.0625
  1
2.300
 41
0.75
  7
TXT
  0
POINT
  5
47E9
  8
DEFPOINTS
 62
     0
 10
0.9813852629404564
 20
1.5925353179250989
 30
0.0
  0
POINT
  5
47EA
  8
DEFPOINTS
 62
     0
 10
3.2813852629404572
 20
1.5925353179250989
 30
0.0
  0
POINT
  5
47EB
  8
DEFPOINTS
 62
     0
 10
3.2813852629404572
 20
1.437713224382001
 30
0.0
  0
ENDBLK
  5
46A9
  8
0
  0
BLOCK
  8
0
  2
*D2
 70
     1
 10
0.0
 20
0.0
 30
0.0
  3
*D2
  1

  0
LINE
  5
47F6
  8
DIM
 62
     0
 10
0.9501352629404564
 20
1.5925353179250989
 30
0.0
 11
0.7241632518035032
 21
1.5925353179250989
 31
0.0
  0
LINE
  5
47F7
  8
DIM
 62
     0
 10
1.012135262940457
 20
2.2225353179251002
 30
0.0
 11
0.7241632518035033
 21
2.2225353179251002
 31
0.0
  0
LINE
  5
47F8
  8
DIM
 62
     0
 10
0.7706632518035032
 20
1.682535317925099
 30
0.0
 11
0.7706632518035033
 21
1.8312853179251001
 31
0.0
  0
LINE
  5
47F9
  8
DIM
 62
     0
 10
0.7706632518035033
 20
2.1325353179250999
 30
0.0
 11
0.7706632518035033
 21
1.983785317925099
 31
0.0
  0
SOLID
  5
47FA
  8
DIM
 62
     0
 10
0.7556632518035032
 20
1.682535317925099
 30
0.0
 11
0.7856632518035032
 21
1.682535317925099
 31
0.0
 12
0.7706632518035032
 22
1.5925353179250989
 32
0.0
 13
0.7706632518035032
 23
1.5925353179250989
 33
0.0
  0
SOLID
  5
47FB
  8
DIM
 62
     0
 10
0.7556632518035034
 20
2.1325353179250999
 30
0.0
 11
0.7856632518035033
 21
2.1325353179250999
 31
0.0
 12
0.7706632518035033
 22
2.2225353179251002
 32
0.0
 13
0.7706632518035033
 23
2.2225353179251002
 33
0.0
  0
TEXT
  5
47FC
  8
OBJECT
 62
     0
 10
0.6847257518035029
 20
1.8762853179251
 30
0.0
 40
0.0625
  1
0.630
 41
0.75
  7
TXT
  0
POINT
  5
47FD
  8
DEFPOINTS
 62
     0
 10
0.9813852629404564
 20
1.5925353179250989
 30
0.0
  0
POINT
  5
47FE
  8
DEFPOINTS
 62
     0
 10
1.043385262940457
 20
2.2225353179251002
 30
0.0
  0
POINT
  5
47FF
  8
DEFPOINTS
 62
     0
 10
0.7706632518035033
 20
2.2225353179251002
 30
0.0
  0
ENDBLK
  5
46B6
  8
0
  0
BLOCK
  8
0
  2
*D3
 70
     1
 10
0.0
 20
0.0
 30
0.0
  3
*D3
  1

  0
LINE
  5
4814
  8
DIM
 62
     0
 10
4.146360658297084
 20
1.5685297679544821
 30
0.0
 11
4.146360658297084
 21
1.3984576744113839
 31
0.0
  0
LINE
  5
4815
  8
DIM
 62
     0
 10
4.2033606582970844
 20
1.5685297679544821
 30
0.0
 11
4.2033606582970844
 21
1.3984576744113839
 31
0.0
  0
LINE
  5
4816
  8
DIM
 62
     0
 10
4.0563606582970841
 20
1.4449576744113839
 30
0.0
 11
3.966360658297083
 21
1.4449576744113839
 31
0.0
  0
LINE
  5
4817
  8
DIM
 62
     0
 10
4.2933606582970842
 20
1.4449576744113839
 30
0.0
 11
4.3833606582970841
 21
1.4449576744113839
 31
0.0
  0
SOLID
  5
4818
  8
DIM
 62
     0
 10
4.0563606582970841
 20
1.459957674411384
 30
0.0
 11
4.0563606582970841
 21
1.429957674411384
 31
0.0
 12
4.146360658297084
 22
1.4449576744113839
 32
0.0
 13
4.146360658297084
 23
1.4449576744113839
 33
0.0
  0
SOLID
  5
4819
  8
DIM
 62
     0
 10
4.2933606582970842
 20
1.459957674411384
 30
0.0
 11
4.2933606582970842
 21
1.429957674411384
 31
0.0
 12
4.2033606582970844
 22
1.4449576744113839
 32
0.0
 13
4.2033606582970844
 23
1.4449576744113839
 33
0.0
  0
TEXT
  5
481A
  8
OBJECT
 62
     0
 10
4.428360658297084
 20
1.4137076744113839
 30
0.0
 40
0.0625
  1
0.057
 41
0.75
  7
TXT
  0
POINT
  5
481B
  8
DEFPOINTS
 62
     0
 10
4.146360658297084
 20
1.5997797679544821
 30
0.0
  0
POINT
  5
481C
  8
DEFPOINTS
 62
     0
 10
4.2033606582970844
 20
1.5997797679544821
 30
0.0
  0
POINT
  5
481D
  8
DEFPOINTS
 62
     0
 10
4.2033606582970844
 20
1.4449576744113839
 30
0.0
  0
ENDBLK
  5
46C3
  8
0
  0
BLOCK
  8
0
  2
*D4
 70
     1
 10
0.0
 20
0.0
 30
0.0
  3
*D4
  1

  0
LINE
  5
47EC
  8
DIM
 62
     0
 10
3.231385262940456
 20
2.020785317925097
 30
0.0
 11
3.231385262940456
 21
2.4380990179622151
 31
0.0
  0
LINE
  5
47ED
  8
DIM
 62
     0
 10
1.031385262940457
 20
2.020785317925097
 30
0.0
 11
1.031385262940457
 21
2.4380990179622151
 31
0.0
  0
LINE
  5
47EE
  8
DIM
 62
     0
 10
3.1413852629404562
 20
2.3915990179622151
 30
0.0
 11
2.4498227629404559
 21
2.3915990179622151
 31
0.0
  0
LINE
  5
47EF
  8
DIM
 62
     0
 10
1.121385262940457
 20
2.3915990179622151
 30
0.0
 11
1.812947762940456
 21
2.3915990179622151
 31
0.0
  0
SOLID
  5
47F0
  8
DIM
 62
     0
 10
3.1413852629404562
 20
2.4065990179622152
 30
0.0
 11
3.1413852629404562
 21
2.3765990179622141
 31
0.0
 12
3.231385262940456
 22
2.3915990179622151
 32
0.0
 13
3.231385262940456
 23
2.3915990179622151
 33
0.0
  0
SOLID
  5
47F1
  8
DIM
 62
     0
 10
1.121385262940457
 20
2.4065990179622152
 30
0.0
 11
1.121385262940457
 21
2.3765990179622141
 31
0.0
 12
1.031385262940457
 22
2.3915990179622151
 32
0.0
 13
1.031385262940457
 23
2.3915990179622151
 33
0.0
  0
TEXT
  5
47F2
  8
OBJECT
 62
     0
 10
1.8579477629404559
 20
2.3603490179622151
 30
0.0
 40
0.0625
  1
2.200 EXPOSED
 41
0.75
  7
TXT
  0
POINT
  5
47F3
  8
DEFPOINTS
 62
     0
 10
3.231385262940456
 20
1.989535317925097
 30
0.0
  0
POINT
  5
47F4
  8
DEFPOINTS
 62
     0
 10
1.031385262940457
 20
1.989535317925097
 30
0.0
  0
POINT
  5
47F5
  8
DEFPOINTS
 62
     0
 10
1.031385262940457
 20
2.3915990179622151
 30
0.0
  0
ENDBLK
  5
46D0
  8
0
  0
BLOCK
  8
0
  2
*D5
 70
     1
 10
0.0
 20
0.0
 30
0.0
  3
*D5
  1

  0
LINE
  5
480A
  8
DIM
 62
     0
 10
3.0756352629404549
 20
2.1765353179250968
 30
0.0
 11
3.685554195309416
 21
2.1765353179250968
 31
0.0
  0
LINE
  5
480B
  8
DIM
 62
     0
 10
3.0756352629404549
 20
1.638535317925095
 30
0.0
 11
3.685554195309416
 21
1.638535317925095
 31
0.0
  0
LINE
  5
480C
  8
DIM
 62
     0
 10
3.639054195309416
 20
2.0865353179250969
 30
0.0
 11
3.639054195309416
 21
1.9837853179250959
 31
0.0
  0
LINE
  5
480D
  8
DIM
 62
     0
 10
3.639054195309416
 20
1.7285353179250951
 30
0.0
 11
3.639054195309416
 21
1.8312853179250961
 31
0.0
  0
SOLID
  5
480E
  8
DIM
 62
     0
 10
3.6240541953094159
 20
2.0865353179250969
 30
0.0
 11
3.6540541953094161
 21
2.0865353179250969
 31
0.0
 12
3.639054195309416
 22
2.1765353179250968
 32
0.0
 13
3.639054195309416
 23
2.1765353179250968
 33
0.0
  0
SOLID
  5
480F
  8
DIM
 62
     0
 10
3.6240541953094159
 20
1.7285353179250951
 30
0.0
 11
3.6540541953094161
 21
1.7285353179250951
 31
0.0
 12
3.639054195309416
 22
1.638535317925095
 32
0.0
 13
3.639054195309416
 23
1.638535317925095
 33
0.0
  0
TEXT
  5
4810
  8
OBJECT
 62
     0
 10
3.3617104453094151
 20
1.876285317925096
 30
0.0
 40
0.0625
  1
0.538 EXPOSED
 41
0.75
  7
TXT
  0
POINT
  5
4811
  8
DEFPOINTS
 62
     0
 10
3.0443852629404549
 20
2.1765353179250968
 30
0.0
  0
POINT
  5
4812
  8
DEFPOINTS
 62
     0
 10
3.0443852629404549
 20
1.638535317925095
 30
0.0
  0
POINT
  5
4813
  8
DEFPOINTS
 62
     0
 10
3.639054195309416
 20
1.638535317925095
 30
0.0
  0
ENDBLK
  5
46DD
  8
0
  0
ENDSEC
  0
SECTION
  2
ENTITIES
  0
TEXT
  5
3E4E
  8
TEXT
 10
2.8059999999999969
 20
3.7500395978200411
 30
0.0
 40
0.0625
  1
No.
  7
TXT
 72
     1
 11
2.8684999999999969
 21
3.7500395978200411
 31
0.0
  0
TEXT
  5
3E4F
  8
TEXT
 10
2.753916666666663
 20
3.8542062644867068
 30
0.0
 40
0.0625
  1
PART
  7
TXT
 72
     1
 11
2.8684999999999969
 21
3.8542062644867068
 31
0.0
  0
LINE
  5
3E50
  8
TITLE
 10
0.0309999999999988
 20
3.73
 30
0.0
 11
5.269000000000001
 21
3.73
 31
0.0
  0
LINE
  5
3E51
  8
TITLE
 10
0.0309999999999988
 20
3.9390000000000001
 30
0.0
 11
5.269000000000001
 21
3.9390000000000001
 31
0.0
  0
LINE
  5
3E52
  8
TITLE
 10
0.0
 20
3.9700000000000002
 30
0.0
 11
5.2999999999999998
 21
3.969999999999998
 31
0.0
  0
LINE
  5
3E53
  8
TITLE
 10
0.0
 20
0.0
 30
0.0
 11
-0.0000000000000018
 21
3.9700000000000002
 31
0.0
  0
LINE
  5
3E54
  8
TITLE
 10
0.0309999999999988
 20
0.0310000000000006
 30
0.0
 11
0.0309999999999988
 21
3.9390000000000001
 31
0.0
  0
LINE
  5
3E55
  8
TITLE
 10
0.4060000000000024
 20
3.73
 30
0.0
 11
0.4059999999999988
 21
3.9390000000000001
 31
0.0
  0
TEXT
  5
3E56
  8
TEXT
 10
0.103916666666669
 20
3.8542062644867068
 30
0.0
 40
0.0625
  1
PART
  7
TXT
 72
     1
 11
0.2185000000000024
 21
3.8542062644867068
 31
0.0
  0
TEXT
  5
3E57
  8
TEXT
 10
0.103916666666669
 20
3.7500395978200411
 30
0.0
 40
0.0625
  1
NAME
  7
TXT
 72
     1
 11
0.2185000000000024
 21
3.7500395978200411
 31
0.0
  0
LINE
  5
3E58
  8
TITLE
 10
2.681
 20
3.9390000000000001
 30
0.0
 11
2.681
 21
3.73
 31
0.0
  0
LINE
  5
3E59
  8
TITLE
 10
2.6499999999999981
 20
3.9390000000000001
 30
0.0
 11
2.6499999999999981
 21
3.73
 31
0.0
  0
LINE
  5
3E5A
  8
TITLE
 10
5.2999999999999998
 20
-0.0000000000000009
 30
0.0
 11
5.2999999999999972
 21
3.969999999999998
 31
0.0
  0
LINE
  5
3E5B
  8
TITLE
 10
5.269000000000001
 20
0.0309999999999997
 30
0.0
 11
5.269000000000001
 21
3.9390000000000001
 31
0.0
  0
LINE
  5
3E5C
  8
TITLE
 10
3.056
 20
3.9390000000000001
 30
0.0
 11
3.056
 21
3.73
 31
0.0
  0
LINE
  5
3E5D
  8
TITLE
 10
5.269000000000001
 20
0.0309999999999997
 30
0.0
 11
0.0309999999999988
 21
0.0310000000000006
 31
0.0
  0
LINE
  5
3E5E
  8
TITLE
 10
5.2999999999999998
 20
-0.0000000000000009
 30
0.0
 11
0.0
 21
0.0
 31
0.0
  0
TEXT
  5
401A
  8
TEXT
 10
0.7633136838574356
 20
3.7788027767274448
 30
0.0
 40
0.094
  1
TRANSPARENT RED LENS
 41
0.75
 72
     1
 11
1.456563683857435
 21
3.7788027767274448
 31
0.0
  0
TEXT
  5
401B
  8
TEXT
 10
3.779957768216935
 20
3.7788027767274448
 30
0.0
 40
0.094
  1
HH-3451-TL
 41
0.75
 72
     1
 11
4.1089577682169347
 21
3.7788027767274448
 31
0.0
  0
POLYLINE
  5
467F
  8
OBJECT
 66
     1
 10
0.0
 20
0.0
 30
0.0
 70
     1
  0
VERTEX
  5
4835
  8
OBJECT
 10
0.9813852629404564
 20
1.5925353179250989
 30
0.0
  0
VERTEX
  5
4836
  8
OBJECT
 10
0.9813852629404564
 20
2.160535317925099
 30
0.0
 42
-0.4142135623730951
  0
VERTEX
  5
4837
  8
OBJECT
 10
1.043385262940457
 20
2.222535317925098
 30
0.0
  0
VERTEX
  5
4838
  8
OBJECT
 10
3.219385262940456
 20
2.2225353179251002
 30
0.0
 42
-0.4142135623730948
  0
VERTEX
  5
4839
  8
OBJECT
 10
3.2813852629404572
 20
2.160535317925099
 30
0.0
  0
VERTEX
  5
483A
  8
OBJECT
 10
3.2813852629404572
 20
1.5925353179250989
 30
0.0
  0
SEQEND
  5
483B
  8
OBJECT
  0
POLYLINE
  5
4680
  8
OBJECT
 66
     1
 10
0.0
 20
0.0
 30
0.0
 70
     1
  0
VERTEX
  5
483C
  8
OBJECT
 10
4.146360658297084
 20
1.5997797679544821
 30
0.0
  0
VERTEX
  5
483D
  8
OBJECT
 10
4.146360658297084
 20
2.2297797679544811
 30
0.0
  0
VERTEX
  5
483E
  8
OBJECT
 10
4.2033606582970844
 20
2.229779767954482
 30
0.0
  0
VERTEX
  5
483F
  8
OBJECT
 10
4.2033606582970844
 20
1.5997797679544821
 30
0.0
  0
SEQEND
  5
4840
  8
OBJECT
  0
DIMENSION
  5
468E
  8
DIM
  2
*D1
 10
3.2813852629404572
 20
1.437713224382001
 30
0.0
 11
2.1313852629404559
 21
1.437713224382001
 31
0.0
 70
     0
 13
0.9813852629404564
 23
1.5925353179250989
 33
0.0
 14
3.2813852629404572
 24
1.5925353179250989
 34
0.0
  0
DIMENSION
  5
468F
  8
DIM
  2
*D2
 10
0.7706632518035033
 20
2.2225353179251002
 30
0.0
 11
0.7706632518035029
 21
1.9075353179251
 31
0.0
 70
     0
 13
0.9813852629404564
 23
1.5925353179250989
 33
0.0
 14
1.043385262940457
 24
2.2225353179251002
 34
0.0
 50
270.0
  0
DIMENSION
  5
4690
  8
DIM
  2
*D3
 10
4.2033606582970844
 20
1.4449576744113839
 30
0.0
 11
4.514298158297084
 21
1.4449576744113839
 31
0.0
 70
     0
 13
4.146360658297084
 23
1.5997797679544821
 33
0.0
 14
4.2033606582970844
 24
1.5997797679544821
 34
0.0
  0
POLYLINE
  5
4691
  8
DIM
 66
     1
 10
0.0
 20
0.0
 30
0.0
 41
0.03375
  0
VERTEX
  5
4841
  8
DIM
 10
3.2626414857673458
 20
2.2049526477272199
 30
0.0
  0
VERTEX
  5
4842
  8
DIM
 10
3.3011894197820939
 20
2.286279499278197
 30
0.0
 41
0.0
  0
VERTEX
  5
4843
  8
DIM
 10
3.4530742695022538
 20
2.6067199312169911
 30
0.0
 41
0.0
  0
VERTEX
  5
4844
  8
DIM
 10
3.5430742695022541
 20
2.6067199312169911
 30
0.0
 41
0.0
  0
SEQEND
  5
4845
  8
DIM
  0
TEXT
  5
4692
  8
DIM
 10
3.5880742695022541
 20
2.5754699312169911
 30
0.0
 40
0.0625
  1
0.062 R.
 41
0.75
  7
TXT
 11
3.5880742695022541
 21
2.6067199312169911
 31
0.0
 73
     2
  0
TEXT
  5
4693
  8
DIM
 10
3.5880742695022541
 20
2.4713032645503241
 30
0.0
 40
0.0625
  1
(2) PLACES
 41
0.75
  7
TXT
 11
3.5880742695022541
 21
2.5025532645503241
 31
0.0
 73
     2
  0
TEXT
  5
4694
  8
TEXT
 10
0.4080786933160648
 20
3.318499981020484
 30
0.0
 40
0.063
  1
%%uMATERIAL:%%u HIGH-IMPACT ABS
 41
0.75
  0
TEXT
  5
4695
  8
TEXT
 10
0.4080786933160648
 20
3.1101666476871501
 30
0.0
 40
0.063
  1
%%uCOLOR:%%u RED (TRANSPARENT)
 41
0.75
  0
TEXT
  5
4696
  8
TEXT
 10
0.4080786933160648
 20
2.9018333143538171
 30
0.0
 40
0.063
  1
%%uFINISH:%%u SMOOTH
 41
0.75
  0
POLYLINE
  5
4697
  8
BEND
  6
PHANTOM2
 66
     1
 10
0.0
 20
0.0
 30
0.0
 70
     1
  0
VERTEX
  5
4846
  8
BEND
  6
PHANTOM2
 10
3.0443852629404549
 20
1.638535317925095
 30
0.0
 42
0.4142135623730951
  0
VERTEX
  5
4847
  8
BEND
  6
PHANTOM2
 10
3.231385262940456
 20
1.8255353179250939
 30
0.0
  0
VERTEX
  5
4848
  8
BEND
  6
PHANTOM2
 10
3.231385262940456
 20
1.989535317925097
 30
0.0
 42
0.4142135623730964
  0
VERTEX
  5
4849
  8
BEND
  6
PHANTOM2
 10
3.0443852629404549
 20
2.1765353179250968
 30
0.0
  0
VERTEX
  5
484A
  8
BEND
  6
PHANTOM2
 10
1.218385262940457
 20
2.1765353179250968
 30
0.0
 42
0.4142135623730958
  0
VERTEX
  5
484B
  8
BEND
  6
PHANTOM2
 10
1.031385262940457
 20
1.989535317925097
 30
0.0
  0
VERTEX
  5
484C
  8
BEND
  6
PHANTOM2
 10
1.031385262940453
 20
1.825535317925099
 30
0.0
 42
0.414213562373095
  0
VERTEX
  5
484D
  8
BEND
  6
PHANTOM2
 10
1.218385262940459
 20
1.638535317925095
 30
0.0
  0
SEQEND
  5
484E
  8
BEND
  6
PHANTOM2
  0
DIMENSION
  5
4698
  8
DIM
  2
*D4
 10
1.031385262940457
 20
2.3915990179622151
 30
0.0
 11
2.1313852629404559
 21
2.3915990179622151
 31
0.0
 70
     0
  1
<> EXPOSED
 13
3.231385262940456
 23
1.989535317925097
 33
0.0
 14
1.031385262940457
 24
1.989535317925097
 34
0.0
  0
DIMENSION
  5
4699
  8
DIM
  2
*D5
 10
3.639054195309416
 20
1.638535317925095
 30
0.0
 11
3.6390541953094151
 21
1.907535317925096
 31
0.0
 70
     0
  1
<> EXPOSED
 13
3.0443852629404549
 23
2.1765353179250968
 33
0.0
 14
3.0443852629404549
 24
1.638535317925095
 34
0.0
 50
90.0
  0
POLYLINE
  5
469A
  8
DIM
 66
     1
 10
0.0
 20
0.0
 30
0.0
 41
0.03375
  0
VERTEX
  5
484F
  8
DIM
 10
3.1846935313123939
 20
1.7019125456439801
 30
0.0
  0
VERTEX
  5
4850
  8
DIM
 10
3.2402957203397862
 20
1.6311425196770339
 30
0.0
 41
0.0
  0
VERTEX
  5
4851
  8
DIM
 10
3.4316214847102788
 20
1.3876246015969529
 30
0.0
 41
0.0
  0
VERTEX
  5
4852
  8
DIM
 10
3.5216214847102791
 20
1.3876246015969529
 30
0.0
 41
0.0
  0
SEQEND
  5
4853
  8
DIM
  0
TEXT
  5
469B
  8
DIM
 10
3.5666214847102791
 20
1.3563746015969529
 30
0.0
 40
0.0625
  1
0.187 R.
 41
0.75
  7
TXT
 11
3.5666214847102791
 21
1.3876246015969529
 31
0.0
 73
     2
  0
TEXT
  5
469C
  8
DIM
 10
3.5666214847102791
 20
1.2522079349302859
 30
0.0
 40
0.0625
  1
(4) PLACES
 41
0.75
  7
TXT
 11
3.5666214847102791
 21
1.2834579349302859
 31
0.0
 73
     2
  0
ENDSEC
  0
EOF
