  0
SECTION
  2
HEADER
  9
$ACADVER
  1
AC1015
  9
$ACADMAINTVER
 70
     6
  9
$DWGCODEPAGE
  3
ANSI_1252
  9
$INSBASE
 10
0.0
 20
0.0
 30
0.0
  9
$EXTMIN
 10
0.2696126481258361
 20
0.3315369216242203
 30
-0.0015258207003583
  9
$EXTMAX
 10
10.68957781145831
 20
8.252284669769782
 30
0.0000000349246037
  9
$LIMMIN
 10
0.0
 20
0.0
  9
$LIMMAX
 10
0.0
 20
0.0
  9
$ORTHOMODE
 70
     0
  9
$REGENMODE
 70
     1
  9
$FILLMODE
 70
     1
  9
$QTEXTMODE
 70
     0
  9
$MIRRTEXT
 70
     1
  9
$LTSCALE
 40
1.0
  9
$ATTMODE
 70
     1
  9
$TEXTSIZE
 40
0.2
  9
$TRACEWID
 40
0.05
  9
$TEXTSTYLE
  7
Standard
  9
$CLAYER
  8
0
  9
$CELTYPE
  6
ByLayer
  9
$CECOLOR
 62
   256
  9
$CELTSCALE
 40
1.0
  9
$DISPSILH
 70
     0
  9
$DIMSCALE
 40
1.0
  9
$DIMASZ
 40
0.156
  9
$DIMEXO
 40
0.05
  9
$DIMDLI
 40
0.38
  9
$DIMRND
 40
0.0
  9
$DIMDLE
 40
0.0
  9
$DIMEXE
 40
0.125
  9
$DIMTP
 40
0.0
  9
$DIMTM
 40
0.0
  9
$DIMTXT
 40
0.1377952756
  9
$DIMCEN
 40
0.09
  9
$DIMTSZ
 40
0.0
  9
$DIMTOL
 70
     0
  9
$DIMLIM
 70
     0
  9
$DIMTIH
 70
     1
  9
$DIMTOH
 70
     1
  9
$DIMSE1
 70
     0
  9
$DIMSE2
 70
     0
  9
$DIMTAD
 70
     0
  9
$DIMZIN
 70
     0
  9
$DIMBLK
  1

  9
$DIMASO
 70
     1
  9
$DIMSHO
 70
     1
  9
$DIMPOST
  1

  9
$DIMAPOST
  1

  9
$DIMALT
 70
     0
  9
$DIMALTD
 70
     2
  9
$DIMALTF
 40
25.4
  9
$DIMLFAC
 40
1.0
  9
$DIMTOFL
 70
     0
  9
$DIMTVP
 40
0.0
  9
$DIMTIX
 70
     0
  9
$DIMSOXD
 70
     0
  9
$DIMSAH
 70
     0
  9
$DIMBLK1
  1

  9
$DIMBLK2
  1

  9
$DIMSTYLE
  2
Standard
  9
$DIMCLRD
 70
     0
  9
$DIMCLRE
 70
     0
  9
$DIMCLRT
 70
     0
  9
$DIMTFAC
 40
1.0
  9
$DIMGAP
 40
0.06
  9
$DIMJUST
 70
     0
  9
$DIMSD1
 70
     0
  9
$DIMSD2
 70
     0
  9
$DIMTOLJ
 70
     1
  9
$DIMTZIN
 70
     0
  9
$DIMALTZ
 70
     0
  9
$DIMALTTZ
 70
     0
  9
$DIMUPT
 70
     0
  9
$DIMDEC
 70
     4
  9
$DIMTDEC
 70
     4
  9
$DIMALTU
 70
     2
  9
$DIMALTTD
 70
     2
  9
$DIMTXSTY
  7
Standard
  9
$DIMAUNIT
 70
     0
  9
$DIMADEC
 70
     0
  9
$DIMALTRND
 40
0.0
  9
$DIMAZIN
 70
     0
  9
$DIMDSEP
 70
    46
  9
$DIMATFIT
 70
     3
  9
$DIMFRAC
 70
     0
  9
$DIMLDRBLK
  1

  9
$DIMLUNIT
 70
     2
  9
$DIMLWD
 70
    -2
  9
$DIMLWE
 70
    -2
  9
$DIMTMOVE
 70
     0
  9
$LUNITS
 70
     2
  9
$LUPREC
 70
     3
  9
$SKETCHINC
 40
0.1
  9
$FILLETRAD
 40
0.5
  9
$AUNITS
 70
     0
  9
$AUPREC
 70
     0
  9
$MENU
  1
.
  9
$ELEVATION
 40
0.0
  9
$PELEVATION
 40
0.0
  9
$THICKNESS
 40
0.0
  9
$LIMCHECK
 70
     0
  9
$CHAMFERA
 40
0.5
  9
$CHAMFERB
 40
0.5
  9
$CHAMFERC
 40
1.0
  9
$CHAMFERD
 40
0.0
  9
$SKPOLY
 70
     0
  9
$TDCREATE
 40
2454231.469023969
  9
$TDUCREATE
 40
2454231.635690636
  9
$TDUPDATE
 40
2454231.526305335
  9
$TDUUPDATE
 40
2454231.692972002
  9
$TDINDWG
 40
0.0004020255
  9
$TDUSRTIMER
 40
0.0004020255
  9
$USRTIMER
 70
     1
  9
$ANGBASE
 50
0.0
  9
$ANGDIR
 70
     0
  9
$PDMODE
 70
     0
  9
$PDSIZE
 40
-1.0
  9
$PLINEWID
 40
0.0
  9
$SPLFRAME
 70
     0
  9
$SPLINETYPE
 70
     6
  9
$SPLINESEGS
 70
     8
  9
$HANDSEED
  5
1F3
  9
$SURFTAB1
 70
     6
  9
$SURFTAB2
 70
     6
  9
$SURFTYPE
 70
     6
  9
$SURFU
 70
     6
  9
$SURFV
 70
     6
  9
$UCSBASE
  2

  9
$UCSNAME
  2

  9
$UCSORG
 10
0.0
 20
0.0
 30
0.0
  9
$UCSXDIR
 10
1.0
 20
0.0
 30
0.0
  9
$UCSYDIR
 10
0.0
 20
1.0
 30
0.0
  9
$UCSORTHOREF
  2

  9
$UCSORTHOVIEW
 70
     0
  9
$UCSORGTOP
 10
0.0
 20
0.0
 30
0.0
  9
$UCSORGBOTTOM
 10
0.0
 20
0.0
 30
0.0
  9
$UCSORGLEFT
 10
0.0
 20
0.0
 30
0.0
  9
$UCSORGRIGHT
 10
0.0
 20
0.0
 30
0.0
  9
$UCSORGFRONT
 10
0.0
 20
0.0
 30
0.0
  9
$UCSORGBACK
 10
0.0
 20
0.0
 30
0.0
  9
$PUCSBASE
  2

  9
$PUCSNAME
  2

  9
$PUCSORG
 10
0.0
 20
0.0
 30
0.0
  9
$PUCSXDIR
 10
1.0
 20
0.0
 30
0.0
  9
$PUCSYDIR
 10
0.0
 20
1.0
 30
0.0
  9
$PUCSORTHOREF
  2

  9
$PUCSORTHOVIEW
 70
     0
  9
$PUCSORGTOP
 10
0.0
 20
0.0
 30
0.0
  9
$PUCSORGBOTTOM
 10
0.0
 20
0.0
 30
0.0
  9
$PUCSORGLEFT
 10
0.0
 20
0.0
 30
0.0
  9
$PUCSORGRIGHT
 10
0.0
 20
0.0
 30
0.0
  9
$PUCSORGFRONT
 10
0.0
 20
0.0
 30
0.0
  9
$PUCSORGBACK
 10
0.0
 20
0.0
 30
0.0
  9
$USERI1
 70
     0
  9
$USERI2
 70
     0
  9
$USERI3
 70
     0
  9
$USERI4
 70
     0
  9
$USERI5
 70
     0
  9
$USERR1
 40
0.0
  9
$USERR2
 40
0.0
  9
$USERR3
 40
0.0
  9
$USERR4
 40
0.0
  9
$USERR5
 40
0.0
  9
$WORLDVIEW
 70
     1
  9
$SHADEDGE
 70
     3
  9
$SHADEDIF
 70
    70
  9
$TILEMODE
 70
     1
  9
$MAXACTVP
 70
    64
  9
$PINSBASE
 10
0.0
 20
0.0
 30
0.0
  9
$PLIMCHECK
 70
     0
  9
$PEXTMIN
 10
1.000000000000000E+20
 20
1.000000000000000E+20
 30
1.000000000000000E+20
  9
$PEXTMAX
 10
-1.000000000000000E+20
 20
-1.000000000000000E+20
 30
-1.000000000000000E+20
  9
$PLIMMIN
 10
0.0
 20
0.0
  9
$PLIMMAX
 10
12.0
 20
9.0
  9
$UNITMODE
 70
     0
  9
$VISRETAIN
 70
     1
  9
$PLINEGEN
 70
     0
  9
$PSLTSCALE
 70
     1
  9
$TREEDEPTH
 70
  3020
  9
$CMLSTYLE
  2
Standard
  9
$CMLJUST
 70
     0
  9
$CMLSCALE
 40
1.0
  9
$PROXYGRAPHICS
 70
     1
  9
$MEASUREMENT
 70
     0
  9
$CELWEIGHT
370
    -1
  9
$ENDCAPS
280
     0
  9
$JOINSTYLE
280
     0
  9
$LWDISPLAY
290
     1
  9
$INSUNITS
 70
     1
  9
$HYPERLINKBASE
  1

  9
$STYLESHEET
  1

  9
$XEDIT
290
     1
  9
$CEPSNTYPE
380
     0
  9
$PSTYLEMODE
290
     1
  9
$FINGERPRINTGUID
  2
{466C10F6-D924-4A23-A5F1-547F42466BAF}
  9
$VERSIONGUID
  2
{4D10DB36-DEE5-45B6-9E42-AA424FA11E43}
  9
$EXTNAMES
290
     1
  9
$PSVPSCALE
 40
0.0
  9
$OLESTARTUP
290
     0
  0
ENDSEC
  0
SECTION
  2
CLASSES
  0
CLASS
  1
ACDBDICTIONARYWDFLT
  2
AcDbDictionaryWithDefault
  3
AutoCAD 2000
 90
        0
280
     0
281
     0
  0
CLASS
  1
ACDBPLACEHOLDER
  2
AcDbPlaceHolder
  3
AutoCAD 2000
 90
        0
280
     0
281
     0
  0
CLASS
  1
LAYOUT
  2
AcDbLayout
  3
AutoCAD 2000
 90
        0
280
     0
281
     0
  0
ENDSEC
  0
SECTION
  2
TABLES
  0
TABLE
  2
VPORT
  5
8
330
0
100
AcDbSymbolTable
 70
     2
  0
VPORT
  5
1F2
330
8
100
AcDbSymbolTableRecord
100
AcDbViewportTableRecord
  2
*Active
 70
     0
 10
0.0
 20
0.0
 11
1.0
 21
1.0
 12
5.479595229792076
 22
4.291910795697001
 13
0.0
 23
0.0
 14
0.5
 24
0.5
 15
0.5
 25
0.5
 16
0.0
 26
0.0
 36
1.0
 17
0.0
 27
0.0
 37
0.0
 40
7.978704438985651
 41
1.536019536019536
 42
50.0
 43
0.0
 44
0.0
 50
0.0
 51
0.0
 71
     0
 72
  2000
 73
     1
 74
     3
 75
     0
 76
     0
 77
     0
 78
     0
281
     0
 65
     1
110
0.0
120
0.0
130
0.0
111
1.0
121
0.0
131
0.0
112
0.0
122
1.0
132
0.0
 79
     0
146
0.0
  0
ENDTAB
  0
TABLE
  2
LTYPE
  5
5
330
0
100
AcDbSymbolTable
 70
     6
  0
LTYPE
  5
14
330
5
100
AcDbSymbolTableRecord
100
AcDbLinetypeTableRecord
  2
ByBlock
 70
     0
  3

 72
    65
 73
     0
 40
0.0
  0
LTYPE
  5
15
330
5
100
AcDbSymbolTableRecord
100
AcDbLinetypeTableRecord
  2
ByLayer
 70
     0
  3

 72
    65
 73
     0
 40
0.0
  0
LTYPE
  5
16
330
5
100
AcDbSymbolTableRecord
100
AcDbLinetypeTableRecord
  2
Continuous
 70
     0
  3
Solid line
 72
    65
 73
     0
 40
0.0
  0
LTYPE
  5
2A
330
5
100
AcDbSymbolTableRecord
100
AcDbLinetypeTableRecord
  2
HIDDEN
 70
     0
  3
Hidden __ __ __ __ __ __ __ __ __ __ __ __ __ __
 72
    65
 73
     2
 40
0.075
 49
0.05
 74
     0
 49
-0.025
 74
     0
  0
LTYPE
  5
2B
330
5
100
AcDbSymbolTableRecord
100
AcDbLinetypeTableRecord
  2
PHANTOM
 70
     0
  3
Phantom ______  __  __  ______  __  __  ______
 72
    65
 73
     6
 40
0.5
 49
0.25
 74
     0
 49
-0.05
 74
     0
 49
0.05
 74
     0
 49
-0.05
 74
     0
 49
0.05
 74
     0
 49
-0.05
 74
     0
  0
LTYPE
  5
2C
330
5
100
AcDbSymbolTableRecord
100
AcDbLinetypeTableRecord
  2
CENTER
 70
     0
  3
Center ____ _ ____ _ ____ _ ____ _ ____ _ ____
 72
    65
 73
     4
 40
0.4
 49
0.25
 74
     0
 49
-0.05
 74
     0
 49
0.05
 74
     0
 49
-0.05
 74
     0
  0
LTYPE
  5
2D
330
5
100
AcDbSymbolTableRecord
100
AcDbLinetypeTableRecord
  2
CENTERX2
 70
     0
  3
Center (2x) ________  __  ________  __  _____
 72
    65
 73
     4
 40
0.8
 49
0.5
 74
     0
 49
-0.1
 74
     0
 49
0.1
 74
     0
 49
-0.1
 74
     0
  0
LTYPE
  5
2E
330
5
100
AcDbSymbolTableRecord
100
AcDbLinetypeTableRecord
  2
DOT2
 70
     0
  3
Dot (.5x) ........................................
 72
    65
 73
     2
 40
0.025
 49
0.0
 74
     0
 49
-0.025
 74
     0
  0
ENDTAB
  0
TABLE
  2
LAYER
  5
2
330
0
100
AcDbSymbolTable
 70
     4
  0
LAYER
  5
10
330
2
100
AcDbSymbolTableRecord
100
AcDbLayerTableRecord
  2
0
 70
     0
 62
     7
  6
Continuous
370
    -3
390
F
  0
LAYER
  5
2F
330
2
100
AcDbSymbolTableRecord
100
AcDbLayerTableRecord
  2
FORMAT
 70
     0
 62
     7
  6
Continuous
370
     0
390
F
  0
LAYER
  5
30
330
2
100
AcDbSymbolTableRecord
100
AcDbLayerTableRecord
  2
SLD-0
 70
     0
 62
     7
  6
Continuous
370
     0
390
F
  0
LAYER
  5
FE
330
2
100
AcDbSymbolTableRecord
100
AcDbLayerTableRecord
  2
Defpoints
 70
     0
 62
     7
  6
Continuous
290
     0
370
    -3
390
F
  0
ENDTAB
  0
TABLE
  2
STYLE
  5
3
330
0
100
AcDbSymbolTable
 70
     4
  0
STYLE
  5
11
330
3
100
AcDbSymbolTableRecord
100
AcDbTextStyleTableRecord
  2
Standard
 70
     0
 40
0.0
 41
1.0
 50
0.0
 71
     0
 42
0.2
  3
txt
  4

  0
STYLE
  5
43
330
3
100
AcDbSymbolTableRecord
100
AcDbTextStyleTableRecord
  2
SLDTEXTSTYLE0
 70
     0
 40
0.0
 41
0.75
 50
0.0
 71
     0
 42
0.2
  3
TXT
  4

  0
STYLE
  5
1E5
330
3
100
AcDbSymbolTableRecord
100
AcDbTextStyleTableRecord
  2
SLDTEXTSTYLE1
 70
     0
 40
0.0
 41
0.6964285714000001
 50
0.0
 71
     0
 42
0.2
  3
TXT
  4

  0
STYLE
  5
1E9
330
3
100
AcDbSymbolTableRecord
100
AcDbTextStyleTableRecord
  2
SLDTEXTSTYLE2
 70
     0
 40
0.0
 41
0.7090909091
 50
0.0
 71
     0
 42
0.2
  3
TXT
  4

  0
ENDTAB
  0
TABLE
  2
VIEW
  5
6
330
0
100
AcDbSymbolTable
 70
     0
  0
ENDTAB
  0
TABLE
  2
UCS
  5
7
330
0
100
AcDbSymbolTable
 70
     0
  0
ENDTAB
  0
TABLE
  2
APPID
  5
9
330
0
100
AcDbSymbolTable
 70
     1
  0
APPID
  5
12
330
9
100
AcDbSymbolTableRecord
100
AcDbRegAppTableRecord
  2
ACAD
 70
     0
  0
ENDTAB
  0
TABLE
  2
DIMSTYLE
  5
A
330
0
100
AcDbSymbolTable
 70
     3
100
AcDbDimStyleTable
 71
     0
  0
DIMSTYLE
105
27
330
A
100
AcDbSymbolTableRecord
100
AcDbDimStyleTableRecord
  2
Standard
 70
     0
340
11
  0
DIMSTYLE
105
10C
102
{ACAD_REACTORS
330
FD
330
114
330
129
330
13E
330
153
330
168
330
191
330
1A8
102
}
330
A
100
AcDbSymbolTableRecord
100
AcDbDimStyleTableRecord
  2
SLDDIMSTYLE0
 70
     0
 41
0.156
 44
0.0
 78
    12
140
0.1377952756
147
0.0344488189
173
     1
271
     3
272
     3
284
    12
340
43
  0
DIMSTYLE
105
189
102
{ACAD_REACTORS
330
17D
102
}
330
A
100
AcDbSymbolTableRecord
100
AcDbDimStyleTableRecord
  2
SLDDIMSTYLE1
 70
     0
 41
0.156
 44
0.0
 78
    12
140
0.1377952756
147
0.0344488189
172
     1
173
     1
271
     3
272
     3
284
    12
340
43
  0
ENDTAB
  0
TABLE
  2
BLOCK_RECORD
  5
1
330
0
100
AcDbSymbolTable
 70
    22
  0
BLOCK_RECORD
  5
1F
330
1
100
AcDbSymbolTableRecord
100
AcDbBlockTableRecord
  2
*Model_Space
340
22
  0
BLOCK_RECORD
  5
1B
330
1
100
AcDbSymbolTableRecord
100
AcDbBlockTableRecord
  2
*Paper_Space
340
1E
  0
BLOCK_RECORD
  5
23
330
1
100
AcDbSymbolTableRecord
100
AcDbBlockTableRecord
  2
*Paper_Space0
340
26
  0
BLOCK_RECORD
  5
31
330
1
100
AcDbSymbolTableRecord
100
AcDbBlockTableRecord
  2
Block1
340
0
102
{BLKREFS
331
1EB
102
}
  0
BLOCK_RECORD
  5
34
330
1
100
AcDbSymbolTableRecord
100
AcDbBlockTableRecord
  2
scott
340
0
  0
BLOCK_RECORD
  5
40
330
1
100
AcDbSymbolTableRecord
100
AcDbBlockTableRecord
  2
SW_NOTE_0
340
0
102
{BLKREFS
331
46
102
}
  0
BLOCK_RECORD
  5
47
330
1
100
AcDbSymbolTableRecord
100
AcDbBlockTableRecord
  2
SW_NOTE_1
340
0
102
{BLKREFS
331
4C
102
}
  0
BLOCK_RECORD
  5
4D
330
1
100
AcDbSymbolTableRecord
100
AcDbBlockTableRecord
  2
SW_NOTE_2
340
0
102
{BLKREFS
331
52
102
}
  0
BLOCK_RECORD
  5
56
330
1
100
AcDbSymbolTableRecord
100
AcDbBlockTableRecord
  2
111
340
0
102
{BLKREFS
331
1EC
331
1ED
102
}
  0
BLOCK_RECORD
  5
FF
330
1
100
AcDbSymbolTableRecord
100
AcDbBlockTableRecord
  2
*D7
340
0
  0
BLOCK_RECORD
  5
115
330
1
100
AcDbSymbolTableRecord
100
AcDbBlockTableRecord
  2
*D8
340
0
  0
BLOCK_RECORD
  5
12A
330
1
100
AcDbSymbolTableRecord
100
AcDbBlockTableRecord
  2
*D9
340
0
  0
BLOCK_RECORD
  5
13F
330
1
100
AcDbSymbolTableRecord
100
AcDbBlockTableRecord
  2
*D10
340
0
  0
BLOCK_RECORD
  5
154
330
1
100
AcDbSymbolTableRecord
100
AcDbBlockTableRecord
  2
*D11
340
0
  0
BLOCK_RECORD
  5
169
330
1
100
AcDbSymbolTableRecord
100
AcDbBlockTableRecord
  2
*D12
340
0
  0
BLOCK_RECORD
  5
17E
330
1
100
AcDbSymbolTableRecord
100
AcDbBlockTableRecord
  2
*D13
340
0
  0
BLOCK_RECORD
  5
192
330
1
100
AcDbSymbolTableRecord
100
AcDbBlockTableRecord
  2
*D14
340
0
  0
BLOCK_RECORD
  5
1A9
330
1
100
AcDbSymbolTableRecord
100
AcDbBlockTableRecord
  2
*D15
340
0
  0
BLOCK_RECORD
  5
1BF
330
1
100
AcDbSymbolTableRecord
100
AcDbBlockTableRecord
  2
SW_NOTE_3
340
0
102
{BLKREFS
331
1C4
102
}
  0
BLOCK_RECORD
  5
1C5
330
1
100
AcDbSymbolTableRecord
100
AcDbBlockTableRecord
  2
SW_NOTE_4
340
0
102
{BLKREFS
331
1CA
102
}
  0
BLOCK_RECORD
  5
1CB
330
1
100
AcDbSymbolTableRecord
100
AcDbBlockTableRecord
  2
SW_NOTE_5
340
0
102
{BLKREFS
331
1D0
102
}
  0
BLOCK_RECORD
  5
1D2
330
1
100
AcDbSymbolTableRecord
100
AcDbBlockTableRecord
  2
SW_NOTE_6
340
0
102
{BLKREFS
331
1D7
102
}
  0
BLOCK_RECORD
  5
1D8
330
1
100
AcDbSymbolTableRecord
100
AcDbBlockTableRecord
  2
SW_NOTE_7
340
0
102
{BLKREFS
331
1DD
102
}
  0
BLOCK_RECORD
  5
1DE
330
1
100
AcDbSymbolTableRecord
100
AcDbBlockTableRecord
  2
SW_NOTE_8
340
0
102
{BLKREFS
331
1E3
102
}
  0
ENDTAB
  0
ENDSEC
  0
SECTION
  2
BLOCKS
  0
BLOCK
  5
20
330
1F
100
AcDbEntity
  8
0
100
AcDbBlockBegin
  2
*Model_Space
 70
     0
 10
0.0
 20
0.0
 30
0.0
  3
*Model_Space
  1

  0
ENDBLK
  5
21
330
1F
100
AcDbEntity
  8
0
100
AcDbBlockEnd
  0
BLOCK
  5
1C
330
1B
100
AcDbEntity
 67
     1
  8
0
100
AcDbBlockBegin
  2
*Paper_Space
 70
     0
 10
0.0
 20
0.0
 30
0.0
  3
*Paper_Space
  1

  0
ENDBLK
  5
1D
330
1B
100
AcDbEntity
 67
     1
  8
0
100
AcDbBlockEnd
  0
BLOCK
  5
24
330
23
100
AcDbEntity
  8
0
100
AcDbBlockBegin
  2
*Paper_Space0
 70
     0
 10
0.0
 20
0.0
 30
0.0
  3
*Paper_Space0
  1

  0
ENDBLK
  5
25
330
23
100
AcDbEntity
  8
0
100
AcDbBlockEnd
  0
BLOCK
  5
32
330
31
100
AcDbEntity
  8
0
100
AcDbBlockBegin
  2
Block1
 70
     0
 10
0.0
 20
0.0
 30
0.0
  3
Block1
  1

  0
ENDBLK
  5
33
330
31
100
AcDbEntity
  8
0
100
AcDbBlockEnd
  0
BLOCK
  5
35
330
34
100
AcDbEntity
  8
0
100
AcDbBlockBegin
  2
scott
 70
     0
 10
0.0
 20
0.0
 30
0.0
  3
scott
  1

  0
LINE
  5
37
330
34
100
AcDbEntity
  8
0
  6
Continuous
 62
     7
370
     0
100
AcDbLine
 10
4.187999999999999
 20
0.4060000000000001
 30
0.0
 11
4.187999999999999
 21
0.0
 31
0.0
  0
LINE
  5
38
330
34
100
AcDbEntity
  8
0
  6
Continuous
 62
     7
370
     0
100
AcDbLine
 10
4.25
 20
0.4060000000000001
 30
0.0
 11
4.25
 21
0.0
 31
0.0
  0
LINE
  5
39
330
34
100
AcDbEntity
  8
0
  6
Continuous
 62
     7
370
     0
100
AcDbLine
 10
10.43799999999999
 20
0.4060000000000001
 30
0.0
 11
0.062
 21
0.4060000000000001
 31
0.0
  0
LINE
  5
3A
330
34
100
AcDbEntity
  8
0
  6
Continuous
 62
     7
370
     0
100
AcDbLine
 10
5.0
 20
0.4060000000000001
 30
0.0
 11
5.0
 21
0.0
 31
0.0
  0
LINE
  5
3B
330
34
100
AcDbEntity
  8
0
  6
Continuous
 62
     7
370
     0
100
AcDbLine
 10
10.43799999999999
 20
0.0
 30
0.0
 11
0.062
 21
0.0
 31
0.0
  0
LINE
  5
3C
330
34
100
AcDbEntity
  8
0
  6
Continuous
 62
     7
370
     0
100
AcDbLine
 10
0.812
 20
0.4060000000000001
 30
0.0
 11
0.812
 21
0.0
 31
0.0
  0
LINE
  5
3D
330
34
100
AcDbEntity
  8
0
  6
Continuous
 62
     7
370
     0
100
AcDbLine
 10
8.375999999999999
 20
0.4060000000000001
 30
0.0
 11
8.375999999999999
 21
0.0
 31
0.0
  0
LINE
  5
3E
330
34
100
AcDbEntity
  8
0
  6
Continuous
 62
     7
370
     0
100
AcDbLine
 10
8.437999999999998
 20
0.4060000000000001
 30
0.0
 11
8.437999999999998
 21
0.0
 31
0.0
  0
LINE
  5
3F
330
34
100
AcDbEntity
  8
0
  6
Continuous
 62
     7
370
     0
100
AcDbLine
 10
9.187999999999998
 20
0.4060000000000001
 30
0.0
 11
9.187999999999998
 21
0.0
 31
0.0
  0
INSERT
  5
46
330
34
100
AcDbEntity
  8
0
  6
Continuous
 62
     7
370
     0
100
AcDbBlockReference
  2
SW_NOTE_0
 10
4.432413357999999
 20
0.1923935329
 30
0.0
  0
INSERT
  5
4C
330
34
100
AcDbEntity
  8
0
  6
Continuous
 62
     7
370
     0
100
AcDbBlockReference
  2
SW_NOTE_1
 10
8.4291411823
 20
0.1810250503
 30
0.0
  0
INSERT
  5
52
330
34
100
AcDbEntity
  8
0
  6
Continuous
 62
     7
370
     0
100
AcDbBlockReference
  2
SW_NOTE_2
 10
0.2417056006
 20
0.1903734939
 30
0.0
  0
MTEXT
  5
53
330
34
100
AcDbEntity
  8
0
  6
Continuous
 62
     7
370
     0
100
AcDbMText
 10
5.700395190399999
 20
0.3078619997
 30
0.0
 40
0.1875
 41
0.0
 71
     1
 72
     1
  1
{HH-3449/HH-3634}
  7
SLDTEXTSTYLE0
 73
     1
 44
1.0
  0
MTEXT
  5
54
330
34
100
AcDbEntity
  8
0
  6
Continuous
 62
     7
370
     0
100
AcDbMText
 10
1.0107762756
 20
0.2867449987
 30
0.0
 40
0.1875
 41
0.0
 71
     1
 72
     1
  1
{BATTERY CLIP/HOLDER}
  7
SLDTEXTSTYLE0
 73
     1
 44
1.0
  0
MTEXT
  5
55
330
34
100
AcDbEntity
  8
0
  6
Continuous
 62
     7
370
     0
100
AcDbMText
 10
9.279755919699999
 20
0.3054509076
 30
0.0
 40
0.1875
 41
0.0
 71
     1
 72
     1
  1
{08MAY07}
  7
SLDTEXTSTYLE0
 73
     1
 44
1.0
  0
ENDBLK
  5
36
330
34
100
AcDbEntity
  8
0
100
AcDbBlockEnd
  0
BLOCK
  5
41
330
40
100
AcDbEntity
  8
0
100
AcDbBlockBegin
  2
SW_NOTE_0
 70
     0
 10
0.0
 20
0.0
 30
0.0
  3
SW_NOTE_0
  1

  0
MTEXT
  5
44
330
40
100
AcDbEntity
  8
0
  6
Continuous
 62
     7
370
     0
100
AcDbMText
 10
0.0
 20
0.1760119341
 30
0.0
 40
0.1377952756
 41
0.0
 71
     1
 72
     1
  1
{PART}
  7
SLDTEXTSTYLE0
 73
     1
 44
1.0
  0
MTEXT
  5
45
330
40
100
AcDbEntity
  8
0
  6
Continuous
 62
     7
370
     0
100
AcDbMText
 10
0.0643523366
 20
-0.0011534126
 30
0.0
 40
0.1377952756
 41
0.0
 71
     1
 72
     1
  1
{No.}
  7
SLDTEXTSTYLE0
 73
     1
 44
1.0
  0
ENDBLK
  5
42
330
40
100
AcDbEntity
  8
0
100
AcDbBlockEnd
  0
BLOCK
  5
48
330
47
100
AcDbEntity
  8
0
100
AcDbBlockBegin
  2
SW_NOTE_1
 70
     0
 10
0.0
 20
0.0
 30
0.0
  3
SW_NOTE_1
  1

  0
MTEXT
  5
4A
330
47
100
AcDbEntity
  8
0
  6
Continuous
 62
     7
370
     0
100
AcDbMText
 10
0.0
 20
0.1760119341
 30
0.0
 40
0.1377952756
 41
0.0
 71
     1
 72
     1
  1
{REVISION}
  7
SLDTEXTSTYLE0
 73
     1
 44
1.0
  0
MTEXT
  5
4B
330
47
100
AcDbEntity
  8
0
  6
Continuous
 62
     7
370
     0
100
AcDbMText
 10
0.1722201705
 20
-0.0011534126
 30
0.0
 40
0.1377952756
 41
0.0
 71
     1
 72
     1
  1
{DATE}
  7
SLDTEXTSTYLE0
 73
     1
 44
1.0
  0
ENDBLK
  5
49
330
47
100
AcDbEntity
  8
0
100
AcDbBlockEnd
  0
BLOCK
  5
4E
330
4D
100
AcDbEntity
  8
0
100
AcDbBlockBegin
  2
SW_NOTE_2
 70
     0
 10
0.0
 20
0.0
 30
0.0
  3
SW_NOTE_2
  1

  0
MTEXT
  5
50
330
4D
100
AcDbEntity
  8
0
  6
Continuous
 62
     7
370
     0
100
AcDbMText
 10
0.0
 20
0.1760119341
 30
0.0
 40
0.1377952756
 41
0.0
 71
     1
 72
     1
  1
{PART}
  7
SLDTEXTSTYLE0
 73
     1
 44
1.0
  0
MTEXT
  5
51
330
4D
100
AcDbEntity
  8
0
  6
Continuous
 62
     7
370
     0
100
AcDbMText
 10
-0.0513741915
 20
-0.0011534126
 30
0.0
 40
0.1377952756
 41
0.0
 71
     1
 72
     1
  1
{NAME}
  7
SLDTEXTSTYLE0
 73
     1
 44
1.0
  0
ENDBLK
  5
4F
330
4D
100
AcDbEntity
  8
0
100
AcDbBlockEnd
  0
BLOCK
  5
57
330
56
100
AcDbEntity
  8
0
100
AcDbBlockBegin
  2
111
 70
     0
 10
0.0
 20
0.0
 30
0.0
  3
111
  1

  0
ARC
  5
59
330
56
100
AcDbEntity
  8
SLD-0
100
AcDbCircle
 10
-0.4978721965
 20
-0.3622181833
 30
0.0
 40
0.0108267716535629
100
AcDbArc
 50
89.9999999999
 51
270.0
  0
ARC
  5
5A
330
56
100
AcDbEntity
  8
SLD-0
100
AcDbCircle
 10
0.0316553626
 20
-0.3622181833
 30
0.0
 40
0.0108267716536892
100
AcDbArc
 50
250.0000000003
 51
70.00000000029999
  0
ARC
  5
5B
330
56
100
AcDbEntity
  8
SLD-0
100
AcDbCircle
 10
-0.4659377771
 20
-0.1811090916
 30
0.0
 40
0.010826771653623
100
AcDbArc
 50
110.000000001
 51
290.0000000004
  0
ARC
  5
5C
330
56
100
AcDbEntity
  8
SLD-0
100
AcDbCircle
 10
0.0316553626
 20
0.0
 30
0.0
 40
0.0108267716538953
100
AcDbArc
 50
250.0000000007
 51
70.0000000008
  0
ARC
  5
5D
330
56
100
AcDbEntity
  8
SLD-0
100
AcDbCircle
 10
-0.4659377771
 20
0.1811090916
 30
0.0
 40
0.0108267716536477
100
AcDbArc
 50
109.9999999999
 51
289.9999999993999
  0
ARC
  5
5E
330
56
100
AcDbEntity
  8
SLD-0
100
AcDbCircle
 10
0.0316553626
 20
0.3622181833
 30
0.0
 40
0.0108267716536858
100
AcDbArc
 50
289.9999999997
 51
70.0000000004
  0
ARC
  5
5F
330
56
100
AcDbEntity
  8
SLD-0
100
AcDbCircle
 10
0.0316553626
 20
0.3622181833
 30
0.0
 40
0.0108267716536797
100
AcDbArc
 50
250.0000000003999
 51
50.0000000005
  0
LINE
  5
60
330
56
100
AcDbEntity
  8
SLD-0
100
AcDbLine
 10
0.0316553626
 20
-0.3730449549
 30
0.0
 11
-0.4978721965
 21
-0.3730449549
 31
0.0
  0
LINE
  5
61
330
56
100
AcDbEntity
  8
SLD-0
100
AcDbLine
 10
-0.0297463106
 20
-0.3513914116
 30
0.0
 11
-0.4978721965
 21
-0.3513914116
 31
0.0
  0
LINE
  5
62
330
56
100
AcDbEntity
  8
SLD-0
100
AcDbLine
 10
0.0279523886
 20
-0.3723920207
 30
0.0
 11
-0.4696407511
 21
-0.1912829291
 31
0.0
  0
LINE
  5
63
330
56
100
AcDbEntity
  8
SLD-0
100
AcDbLine
 10
0.0353583366
 20
-0.3520443459
 30
0.0
 11
-0.4342824145000001
 21
-0.1811090916
 31
0.0
  0
LINE
  5
64
330
56
100
AcDbEntity
  8
SLD-0
100
AcDbLine
 10
0.0353583366
 20
-0.0101738374
 30
0.0
 11
-0.4622348032
 21
-0.1912829291
 31
0.0
  0
LINE
  5
65
330
56
100
AcDbEntity
  8
SLD-0
100
AcDbLine
 10
-0.4659377771
 20
-0.1695874819
 30
0.0
 11
-0.4696407511
 21
-0.1709352542
 31
0.0
  0
LINE
  5
66
330
56
100
AcDbEntity
  8
SLD-0
100
AcDbLine
 10
0.0316553626
 20
0.0115216097
 30
0.0
 11
0.0353583366
 21
0.0101738374
 31
0.0
  0
LINE
  5
67
330
56
100
AcDbEntity
  8
SLD-0
100
AcDbLine
 10
-0.4696407511
 20
0.1709352542
 30
0.0
 11
0.0279523886
 21
-0.0101738374
 31
0.0
  0
LINE
  5
68
330
56
100
AcDbEntity
  8
SLD-0
100
AcDbLine
 10
-0.4696407511
 20
-0.1709352542
 30
0.0
 11
0.0
 21
0.0
 31
0.0
  0
LINE
  5
69
330
56
100
AcDbEntity
  8
SLD-0
100
AcDbLine
 10
-0.4622348032
 20
-0.1912829291
 30
0.0
 11
0.0353583366
 21
-0.0101738374
 31
0.0
  0
LINE
  5
6A
330
56
100
AcDbEntity
  8
SLD-0
100
AcDbLine
 10
0.0279523886
 20
-0.0101738374
 30
0.0
 11
-0.4696407511
 21
0.1709352542
 31
0.0
  0
LINE
  5
6B
330
56
100
AcDbEntity
  8
SLD-0
100
AcDbLine
 10
0.0316553626
 20
0.0115216097
 30
0.0
 11
-0.4342824145000001
 21
0.1811090916
 31
0.0
  0
LINE
  5
6C
330
56
100
AcDbEntity
  8
SLD-0
100
AcDbLine
 10
0.0353583366
 20
0.3520443459
 30
0.0
 11
-0.4622348032
 21
0.1709352542
 31
0.0
  0
LINE
  5
6D
330
56
100
AcDbEntity
  8
SLD-0
100
AcDbLine
 10
0.0
 20
0.3622181833
 30
0.0
 11
-0.4696407511
 21
0.1912829291
 31
0.0
  0
LINE
  5
6E
330
56
100
AcDbEntity
  8
SLD-0
100
AcDbLine
 10
-0.4696407511
 20
0.1912829291
 30
0.0
 11
0.0
 21
0.3622181833
 31
0.0
  0
LINE
  5
6F
330
56
100
AcDbEntity
  8
SLD-0
100
AcDbLine
 10
-0.4622348032
 20
0.1709352542
 30
0.0
 11
0.0353583366
 21
0.3520443459
 31
0.0
  0
LINE
  5
70
330
56
100
AcDbEntity
  8
SLD-0
100
AcDbLine
 10
0.0279523886
 20
0.3520443459
 30
0.0
 11
-0.0837565559
 21
0.3927030766
 31
0.0
  0
LINE
  5
71
330
56
100
AcDbEntity
  8
SLD-0
100
AcDbLine
 10
-0.0837565559
 20
0.3927030766
 30
0.0
 11
0.0279523886
 21
0.3520443459
 31
0.0
  0
ENDBLK
  5
58
330
56
100
AcDbEntity
  8
0
100
AcDbBlockEnd
  0
BLOCK
  5
10A
330
FF
100
AcDbEntity
  8
0
100
AcDbBlockBegin
  2
*D7
 70
     1
 10
0.0
 20
0.0
 30
0.0
  3
*D7
  1

  0
SOLID
  5
10D
330
FF
100
AcDbEntity
  8
FORMAT
100
AcDbTrace
 10
3.152288043399999
 20
1.856322968
 30
0.0
 11
3.308288043399999
 21
1.830322968
 31
0.0
 12
3.308288043399999
 22
1.882322968
 32
0.0
 13
3.308288043399999
 23
1.882322968
 33
0.0
  0
SOLID
  5
10E
330
FF
100
AcDbEntity
  8
FORMAT
100
AcDbTrace
 10
5.420004578799999
 20
1.856322968
 30
0.0
 11
5.264004578799999
 21
1.882322968
 31
0.0
 12
5.264004578799999
 22
1.830322968
 32
0.0
 13
5.264004578799999
 23
1.830322968
 33
0.0
  0
LINE
  5
10F
330
FF
100
AcDbEntity
  8
FORMAT
100
AcDbLine
 10
3.152288043399999
 20
2.3702159459
 30
0.0
 11
3.152288043399999
 21
1.731322968
 31
0.0
  0
LINE
  5
110
330
FF
100
AcDbEntity
  8
FORMAT
100
AcDbLine
 10
5.420004578799999
 20
2.3702159459
 30
0.0
 11
5.420004578799999
 21
1.731322968
 31
0.0
  0
LINE
  5
111
330
FF
100
AcDbEntity
  8
FORMAT
100
AcDbLine
 10
3.152288043399999
 20
1.856322968
 30
0.0
 11
3.977030037
 21
1.856322968
 31
0.0
  0
LINE
  5
112
330
FF
100
AcDbEntity
  8
FORMAT
100
AcDbLine
 10
5.420004578799999
 20
1.856322968
 30
0.0
 11
4.5601439366
 21
1.856322968
 31
0.0
  0
MTEXT
  5
113
330
FF
100
AcDbEntity
  8
FORMAT
100
AcDbMText
 10
4.039530036999999
 20
1.9230048759
 30
0.0
 40
0.1377952756
 41
0.0
 71
     1
 72
     1
  1
{2.059}
  7
SLDTEXTSTYLE0
 73
     1
 44
1.0
  0
ENDBLK
  5
10B
330
FF
100
AcDbEntity
  8
0
100
AcDbBlockEnd
  0
BLOCK
  5
120
330
115
100
AcDbEntity
  8
0
100
AcDbBlockBegin
  2
*D8
 70
     1
 10
0.0
 20
0.0
 30
0.0
  3
*D8
  1

  0
SOLID
  5
122
330
115
100
AcDbEntity
  8
FORMAT
100
AcDbTrace
 10
2.5780658833
 20
2.420215945899999
 30
0.0
 11
2.5520658833
 21
2.2642159459
 31
0.0
 12
2.6040658833
 22
2.2642159459
 32
0.0
 13
2.6040658833
 23
2.2642159459
 33
0.0
  0
SOLID
  5
123
330
115
100
AcDbEntity
  8
FORMAT
100
AcDbTrace
 10
2.5780658833
 20
3.010767126999999
 30
0.0
 11
2.6040658833
 21
3.166767126999999
 31
0.0
 12
2.5520658833
 22
3.166767126999999
 32
0.0
 13
2.5520658833
 23
3.166767126999999
 33
0.0
  0
LINE
  5
124
330
115
100
AcDbEntity
  8
FORMAT
100
AcDbLine
 10
3.102288043399999
 20
2.420215945899999
 30
0.0
 11
2.4530658833
 21
2.420215945899999
 31
0.0
  0
LINE
  5
125
330
115
100
AcDbEntity
  8
FORMAT
100
AcDbLine
 10
3.102288043399999
 20
3.010767126999999
 30
0.0
 11
2.4530658833
 21
3.010767126999999
 31
0.0
  0
LINE
  5
126
330
115
100
AcDbEntity
  8
FORMAT
100
AcDbLine
 10
2.5780658833
 20
2.420215945899999
 30
0.0
 11
2.5780658833
 21
1.9202159459
 31
0.0
  0
LINE
  5
127
330
115
100
AcDbEntity
  8
FORMAT
100
AcDbLine
 10
2.5780658833
 20
3.010767126999999
 30
0.0
 11
2.5780658833
 21
3.510767126999999
 31
0.0
  0
MTEXT
  5
128
330
115
100
AcDbEntity
  8
FORMAT
100
AcDbMText
 10
2.399910477899999
 20
2.7807569629
 30
0.0
 40
0.1377952756
 41
0.0
 71
     1
 72
     1
  1
{.512}
  7
SLDTEXTSTYLE0
 73
     1
 44
1.0
  0
ENDBLK
  5
121
330
115
100
AcDbEntity
  8
0
100
AcDbBlockEnd
  0
BLOCK
  5
135
330
12A
100
AcDbEntity
  8
0
100
AcDbBlockBegin
  2
*D9
 70
     1
 10
0.0
 20
0.0
 30
0.0
  3
*D9
  1

  0
SOLID
  5
137
330
12A
100
AcDbEntity
  8
FORMAT
100
AcDbTrace
 10
6.7558195745
 20
1.856322968
 30
0.0
 11
6.9118195745
 21
1.830322968
 31
0.0
 12
6.9118195745
 22
1.882322968
 32
0.0
 13
6.9118195745
 23
1.882322968
 33
0.0
  0
SOLID
  5
138
330
12A
100
AcDbEntity
  8
FORMAT
100
AcDbTrace
 10
7.9841660312
 20
1.856322968
 30
0.0
 11
7.8281660312
 21
1.882322968
 31
0.0
 12
7.8281660312
 22
1.830322968
 32
0.0
 13
7.8281660312
 23
1.830322968
 33
0.0
  0
LINE
  5
139
330
12A
100
AcDbEntity
  8
FORMAT
100
AcDbLine
 10
6.7558195745
 20
2.3702159459
 30
0.0
 11
6.7558195745
 21
1.731322968
 31
0.0
  0
LINE
  5
13A
330
12A
100
AcDbEntity
  8
FORMAT
100
AcDbLine
 10
7.9841660312
 20
2.3702159459
 30
0.0
 11
7.9841660312
 21
1.731322968
 31
0.0
  0
LINE
  5
13B
330
12A
100
AcDbEntity
  8
FORMAT
100
AcDbLine
 10
6.7558195745
 20
1.856322968
 30
0.0
 11
7.134160013099999
 21
1.856322968
 31
0.0
  0
LINE
  5
13C
330
12A
100
AcDbEntity
  8
FORMAT
100
AcDbLine
 10
7.9841660312
 20
1.856322968
 30
0.0
 11
7.615470823899999
 21
1.856322968
 31
0.0
  0
MTEXT
  5
13D
330
12A
100
AcDbEntity
  8
FORMAT
100
AcDbMText
 10
7.196660013099999
 20
1.9230048759
 30
0.0
 40
0.1377952756
 41
0.0
 71
     1
 72
     1
  1
{.972}
  7
SLDTEXTSTYLE0
 73
     1
 44
1.0
  0
ENDBLK
  5
136
330
12A
100
AcDbEntity
  8
0
100
AcDbBlockEnd
  0
BLOCK
  5
14A
330
13F
100
AcDbEntity
  8
0
100
AcDbBlockBegin
  2
*D10
 70
     1
 10
0.0
 20
0.0
 30
0.0
  3
*D10
  1

  0
SOLID
  5
14C
330
13F
100
AcDbEntity
  8
FORMAT
100
AcDbTrace
 10
4.0026817442
 20
6.498324322999999
 30
0.0
 11
4.158681744199999
 21
6.472324322999999
 31
0.0
 12
4.158681744199999
 22
6.524324322999999
 32
0.0
 13
4.158681744199999
 23
6.524324322999999
 33
0.0
  0
SOLID
  5
14D
330
13F
100
AcDbEntity
  8
FORMAT
100
AcDbTrace
 10
4.569610877999999
 20
6.498324322999999
 30
0.0
 11
4.413610878
 21
6.524324322999999
 31
0.0
 12
4.413610878
 22
6.472324322999999
 32
0.0
 13
4.413610878
 23
6.472324322999999
 33
0.0
  0
LINE
  5
14E
330
13F
100
AcDbEntity
  8
FORMAT
100
AcDbLine
 10
4.0026817442
 20
5.3748193199
 30
0.0
 11
4.0026817442
 21
6.623324322999999
 31
0.0
  0
LINE
  5
14F
330
13F
100
AcDbEntity
  8
FORMAT
100
AcDbLine
 10
4.569610877999999
 20
5.3748193199
 30
0.0
 11
4.569610877999999
 21
6.623324322999999
 31
0.0
  0
LINE
  5
150
330
13F
100
AcDbEntity
  8
FORMAT
100
AcDbLine
 10
4.0026817442
 20
6.498324322999999
 30
0.0
 11
4.569610877999999
 21
6.498324322999999
 31
0.0
  0
LINE
  5
151
330
13F
100
AcDbEntity
  8
FORMAT
100
AcDbLine
 10
4.569610877999999
 20
6.498324322999999
 30
0.0
 11
4.943977499599999
 21
6.498324322999999
 31
0.0
  0
MTEXT
  5
152
330
13F
100
AcDbEntity
  8
FORMAT
100
AcDbMText
 10
5.006477499599999
 20
6.565006230899999
 30
0.0
 40
0.1377952756
 41
0.0
 71
     1
 72
     1
  1
{.614}
  7
SLDTEXTSTYLE0
 73
     1
 44
1.0
  0
ENDBLK
  5
14B
330
13F
100
AcDbEntity
  8
0
100
AcDbBlockEnd
  0
BLOCK
  5
15F
330
154
100
AcDbEntity
  8
0
100
AcDbBlockBegin
  2
*D11
 70
     1
 10
0.0
 20
0.0
 30
0.0
  3
*D11
  1

  0
SOLID
  5
161
330
154
100
AcDbEntity
  8
FORMAT
100
AcDbTrace
 10
3.152288043399999
 20
6.498324322999999
 30
0.0
 11
3.308288043399999
 21
6.472324322999999
 31
0.0
 12
3.308288043399999
 22
6.524324322999999
 32
0.0
 13
3.308288043399999
 23
6.524324322999999
 33
0.0
  0
SOLID
  5
162
330
154
100
AcDbEntity
  8
FORMAT
100
AcDbTrace
 10
4.0026817442
 20
6.498324322999999
 30
0.0
 11
3.846681744199999
 21
6.524324322999999
 31
0.0
 12
3.846681744199999
 22
6.472324322999999
 32
0.0
 13
3.846681744199999
 23
6.472324322999999
 33
0.0
  0
LINE
  5
163
330
154
100
AcDbEntity
  8
FORMAT
100
AcDbLine
 10
3.152288043399999
 20
5.9889925483
 30
0.0
 11
3.152288043399999
 21
6.623324322999999
 31
0.0
  0
LINE
  5
164
330
154
100
AcDbEntity
  8
FORMAT
100
AcDbLine
 10
4.0026817442
 20
5.3748193199
 30
0.0
 11
4.0026817442
 21
6.623324322999999
 31
0.0
  0
LINE
  5
165
330
154
100
AcDbEntity
  8
FORMAT
100
AcDbLine
 10
3.152288043399999
 20
6.498324322999999
 30
0.0
 11
2.778618725899999
 21
6.498324322999999
 31
0.0
  0
LINE
  5
166
330
154
100
AcDbEntity
  8
FORMAT
100
AcDbLine
 10
4.0026817442
 20
6.498324322999999
 30
0.0
 11
3.152288043399999
 21
6.498324322999999
 31
0.0
  0
MTEXT
  5
167
330
154
100
AcDbEntity
  8
FORMAT
100
AcDbMText
 10
2.359807915099999
 20
6.565006230899999
 30
0.0
 40
0.1377952756
 41
0.0
 71
     1
 72
     1
  1
{.722}
  7
SLDTEXTSTYLE0
 73
     1
 44
1.0
  0
ENDBLK
  5
160
330
154
100
AcDbEntity
  8
0
100
AcDbBlockEnd
  0
BLOCK
  5
174
330
169
100
AcDbEntity
  8
0
100
AcDbBlockBegin
  2
*D12
 70
     1
 10
0.0
 20
0.0
 30
0.0
  3
*D12
  1

  0
SOLID
  5
176
330
169
100
AcDbEntity
  8
FORMAT
100
AcDbTrace
 10
2.5780658833
 20
4.7106460916
 30
0.0
 11
2.5520658833
 21
4.5546460916
 31
0.0
 12
2.6040658833
 22
4.5546460916
 32
0.0
 13
2.6040658833
 23
4.5546460916
 33
0.0
  0
SOLID
  5
177
330
169
100
AcDbEntity
  8
FORMAT
100
AcDbTrace
 10
2.5780658833
 20
5.3248193199
 30
0.0
 11
2.6040658833
 21
5.4808193199
 31
0.0
 12
2.5520658833
 22
5.4808193199
 32
0.0
 13
2.5520658833
 23
5.4808193199
 33
0.0
  0
LINE
  5
178
330
169
100
AcDbEntity
  8
FORMAT
100
AcDbLine
 10
3.102288043399999
 20
4.7106460916
 30
0.0
 11
2.4530658833
 21
4.7106460916
 31
0.0
  0
LINE
  5
179
330
169
100
AcDbEntity
  8
FORMAT
100
AcDbLine
 10
3.952681744199999
 20
5.3248193199
 30
0.0
 11
2.4530658833
 21
5.3248193199
 31
0.0
  0
LINE
  5
17A
330
169
100
AcDbEntity
  8
FORMAT
100
AcDbLine
 10
2.5780658833
 20
4.7106460916
 30
0.0
 11
2.5780658833
 21
4.2106460916
 31
0.0
  0
LINE
  5
17B
330
169
100
AcDbEntity
  8
FORMAT
100
AcDbLine
 10
2.5780658833
 20
5.3248193199
 30
0.0
 11
2.5780658833
 21
5.8248193199
 31
0.0
  0
MTEXT
  5
17C
330
169
100
AcDbEntity
  8
FORMAT
100
AcDbMText
 10
2.399910477899999
 20
5.112510209199999
 30
0.0
 40
0.1377952756
 41
0.0
 71
     1
 72
     1
  1
{.486}
  7
SLDTEXTSTYLE0
 73
     1
 44
1.0
  0
ENDBLK
  5
175
330
169
100
AcDbEntity
  8
0
100
AcDbBlockEnd
  0
BLOCK
  5
187
330
17E
100
AcDbEntity
  8
0
100
AcDbBlockBegin
  2
*D13
 70
     1
 10
0.0
 20
0.0
 30
0.0
  3
*D13
  1

  0
SOLID
  5
18B
330
17E
100
AcDbEntity
  8
FORMAT
100
AcDbTrace
 10
4.556776270199999
 20
5.271216345
 30
0.0
 11
4.495165373999999
 21
5.125558878799999
 31
0.0
 12
4.545735952
 22
5.1134503431
 32
0.0
 13
4.545735952
 23
5.1134503431
 33
0.0
  0
LINE
  5
18C
330
17E
100
AcDbEntity
  8
FORMAT
100
AcDbLine
 10
4.556776270199999
 20
5.271216345
 30
0.0
 11
4.315353786
 21
4.2629297252
 31
0.0
  0
LINE
  5
18D
330
17E
100
AcDbEntity
  8
FORMAT
100
AcDbLine
 10
4.315353786
 20
4.2629297252
 30
0.0
 11
4.065353786
 21
4.2629297252
 31
0.0
  0
MTEXT
  5
18E
330
17E
100
AcDbEntity
  8
FORMAT
100
AcDbMText
 10
3.123123477099999
 20
4.3306338322
 30
0.0
 40
0.1377952756
 41
0.0
 71
     1
 72
     1
  1
{2X, }
  7
SLDTEXTSTYLE0
 73
     1
 44
1.0
  0
MTEXT
  5
18F
330
17E
100
AcDbEntity
  8
FORMAT
100
AcDbMText
 10
3.4387129481
 20
4.328528628399999
 30
0.0
 40
0.1377952756
 41
0.0
 71
     1
 72
     1
  1
{%%c}
  7
SLDTEXTSTYLE0
 73
     1
 44
1.0
  0
MTEXT
  5
190
330
17E
100
AcDbEntity
  8
FORMAT
100
AcDbMText
 10
3.6465254441
 20
4.3306338322
 30
0.0
 40
0.1377952756
 41
0.0
 71
     1
 72
     1
  1
{.094}
  7
SLDTEXTSTYLE0
 73
     1
 44
1.0
  0
ENDBLK
  5
188
330
17E
100
AcDbEntity
  8
0
100
AcDbBlockEnd
  0
BLOCK
  5
19D
330
192
100
AcDbEntity
  8
0
100
AcDbBlockBegin
  2
*D14
 70
     1
 10
0.0
 20
0.0
 30
0.0
  3
*D14
  1

  0
SOLID
  5
19F
330
192
100
AcDbEntity
  8
FORMAT
100
AcDbTrace
 10
5.420004578799999
 20
4.1525050148
 30
0.0
 11
5.5760045788
 21
4.1265050148
 31
0.0
 12
5.5760045788
 22
4.178505014799999
 32
0.0
 13
5.5760045788
 23
4.178505014799999
 33
0.0
  0
SOLID
  5
1A0
330
192
100
AcDbEntity
  8
FORMAT
100
AcDbTrace
 10
8.367369980499999
 20
4.1525050148
 30
0.0
 11
8.211369980499998
 21
4.178505014799999
 31
0.0
 12
8.211369980499998
 22
4.1265050148
 32
0.0
 13
8.211369980499998
 23
4.1265050148
 33
0.0
  0
LINE
  5
1A1
330
192
100
AcDbEntity
  8
FORMAT
100
AcDbLine
 10
5.420004578799999
 20
4.6606460916
 30
0.0
 11
5.420004578799999
 21
4.0275050148
 31
0.0
  0
LINE
  5
1A2
330
192
100
AcDbEntity
  8
FORMAT
100
AcDbLine
 10
8.367369980499999
 20
5.1707363366
 30
0.0
 11
8.367369980499999
 21
4.0275050148
 31
0.0
  0
LINE
  5
1A3
330
192
100
AcDbEntity
  8
FORMAT
100
AcDbLine
 10
5.420004578799999
 20
4.1525050148
 30
0.0
 11
6.5567195886
 21
4.1525050148
 31
0.0
  0
LINE
  5
1A4
330
192
100
AcDbEntity
  8
FORMAT
100
AcDbLine
 10
8.367369980499999
 20
4.1525050148
 30
0.0
 11
7.321996036499999
 21
4.1525050148
 31
0.0
  0
MTEXT
  5
1A5
330
192
100
AcDbEntity
  8
FORMAT
100
AcDbMText
 10
6.6192195886
 20
4.220209121699999
 30
0.0
 40
0.1377952756
 41
0.0
 71
     1
 72
     1
  1
{6.0}
  7
SLDTEXTSTYLE0
 73
     1
 44
1.0
  0
MTEXT
  5
1A6
330
192
100
AcDbEntity
  8
FORMAT
100
AcDbMText
 10
6.873758096499999
 20
4.2181039179
 30
0.0
 40
0.1377952756
 41
0.0
 71
     1
 72
     1
  1
{%%p}
  7
SLDTEXTSTYLE0
 73
     1
 44
1.0
  0
MTEXT
  5
1A7
330
192
100
AcDbEntity
  8
FORMAT
100
AcDbMText
 10
7.0050080853
 20
4.220209121699999
 30
0.0
 40
0.1377952756
 41
0.0
 71
     1
 72
     1
  1
{0.2}
  7
SLDTEXTSTYLE0
 73
     1
 44
1.0
  0
ENDBLK
  5
19E
330
192
100
AcDbEntity
  8
0
100
AcDbBlockEnd
  0
BLOCK
  5
1B5
330
1A9
100
AcDbEntity
  8
0
100
AcDbBlockBegin
  2
*D15
 70
     1
 10
0.0
 20
0.0
 30
0.0
  3
*D15
  1

  0
SOLID
  5
1B7
330
1A9
100
AcDbEntity
  8
FORMAT
100
AcDbTrace
 10
8.036651153200001
 20
4.707927152499999
 30
0.0
 11
7.8806511532
 21
4.733927152499999
 31
0.0
 12
7.8806511532
 22
4.6819271525
 32
0.0
 13
7.8806511532
 23
4.6819271525
 33
0.0
  0
SOLID
  5
1B8
330
1A9
100
AcDbEntity
  8
FORMAT
100
AcDbTrace
 10
8.367369980499999
 20
4.707927152499999
 30
0.0
 11
8.5233699805
 21
4.6819271525
 31
0.0
 12
8.5233699805
 22
4.733927152499999
 32
0.0
 13
8.5233699805
 23
4.733927152499999
 33
0.0
  0
LINE
  5
1B9
330
1A9
100
AcDbEntity
  8
FORMAT
100
AcDbLine
 10
8.036651153200001
 20
5.1353032657
 30
0.0
 11
8.036651153200001
 21
4.582927152499999
 31
0.0
  0
LINE
  5
1BA
330
1A9
100
AcDbEntity
  8
FORMAT
100
AcDbLine
 10
8.367369980499999
 20
5.1707363366
 30
0.0
 11
8.367369980499999
 21
4.582927152499999
 31
0.0
  0
LINE
  5
1BB
330
1A9
100
AcDbEntity
  8
FORMAT
100
AcDbLine
 10
8.036651153200001
 20
4.707927152499999
 30
0.0
 11
7.5751411622
 21
4.707927152499999
 31
0.0
  0
LINE
  5
1BC
330
1A9
100
AcDbEntity
  8
FORMAT
100
AcDbLine
 10
8.367369980499999
 20
4.707927152499999
 30
0.0
 11
8.867369980499999
 21
4.707927152499999
 31
0.0
  0
MTEXT
  5
1BD
330
1A9
100
AcDbEntity
  8
FORMAT
100
AcDbMText
 10
6.1871432858
 20
4.665279041099999
 30
0.0
 40
0.1377952756
 41
0.0
 71
     1
 72
     1
  1
{(LEAD LENGTH)}
  7
SLDTEXTSTYLE0
 73
     1
 44
1.0
  0
MTEXT
  5
1BE
330
1A9
100
AcDbEntity
  8
FORMAT
100
AcDbMText
 10
6.738263362999999
 20
4.9276710874
 30
0.0
 40
0.1377952756
 41
0.0
 71
     1
 72
     1
  1
{0.2}
  7
SLDTEXTSTYLE0
 73
     1
 44
1.0
  0
ENDBLK
  5
1B6
330
1A9
100
AcDbEntity
  8
0
100
AcDbBlockEnd
  0
BLOCK
  5
1C0
330
1BF
100
AcDbEntity
  8
0
100
AcDbBlockBegin
  2
SW_NOTE_3
 70
     0
 10
0.0
 20
0.0
 30
0.0
  3
SW_NOTE_3
  1

  0
MTEXT
  5
1C2
330
1BF
100
AcDbEntity
  8
0
  6
Continuous
 62
     7
370
     0
100
AcDbMText
 10
0.0
 20
0.1760119341
 30
0.0
 40
0.1377952756
 41
0.0
 71
     1
 72
     1
  1
{PART}
  7
SLDTEXTSTYLE0
 73
     1
 44
1.0
  0
MTEXT
  5
1C3
330
1BF
100
AcDbEntity
  8
0
  6
Continuous
 62
     7
370
     0
100
AcDbMText
 10
0.0643523366
 20
-0.0011534126
 30
0.0
 40
0.1377952756
 41
0.0
 71
     1
 72
     1
  1
{No.}
  7
SLDTEXTSTYLE0
 73
     1
 44
1.0
  0
ENDBLK
  5
1C1
330
1BF
100
AcDbEntity
  8
0
100
AcDbBlockEnd
  0
BLOCK
  5
1C6
330
1C5
100
AcDbEntity
  8
0
100
AcDbBlockBegin
  2
SW_NOTE_4
 70
     0
 10
0.0
 20
0.0
 30
0.0
  3
SW_NOTE_4
  1

  0
MTEXT
  5
1C8
330
1C5
100
AcDbEntity
  8
0
  6
Continuous
 62
     7
370
     0
100
AcDbMText
 10
0.0
 20
0.1760119341
 30
0.0
 40
0.1377952756
 41
0.0
 71
     1
 72
     1
  1
{REVISION}
  7
SLDTEXTSTYLE0
 73
     1
 44
1.0
  0
MTEXT
  5
1C9
330
1C5
100
AcDbEntity
  8
0
  6
Continuous
 62
     7
370
     0
100
AcDbMText
 10
0.1722201705
 20
-0.0011534126
 30
0.0
 40
0.1377952756
 41
0.0
 71
     1
 72
     1
  1
{DATE}
  7
SLDTEXTSTYLE0
 73
     1
 44
1.0
  0
ENDBLK
  5
1C7
330
1C5
100
AcDbEntity
  8
0
100
AcDbBlockEnd
  0
BLOCK
  5
1CC
330
1CB
100
AcDbEntity
  8
0
100
AcDbBlockBegin
  2
SW_NOTE_5
 70
     0
 10
0.0
 20
0.0
 30
0.0
  3
SW_NOTE_5
  1

  0
MTEXT
  5
1CE
330
1CB
100
AcDbEntity
  8
0
  6
Continuous
 62
     7
370
     0
100
AcDbMText
 10
0.0
 20
0.1760119341
 30
0.0
 40
0.1377952756
 41
0.0
 71
     1
 72
     1
  1
{PART}
  7
SLDTEXTSTYLE0
 73
     1
 44
1.0
  0
MTEXT
  5
1CF
330
1CB
100
AcDbEntity
  8
0
  6
Continuous
 62
     7
370
     0
100
AcDbMText
 10
-0.0513741915
 20
-0.0011534126
 30
0.0
 40
0.1377952756
 41
0.0
 71
     1
 72
     1
  1
{NAME}
  7
SLDTEXTSTYLE0
 73
     1
 44
1.0
  0
ENDBLK
  5
1CD
330
1CB
100
AcDbEntity
  8
0
100
AcDbBlockEnd
  0
BLOCK
  5
1D3
330
1D2
100
AcDbEntity
  8
0
100
AcDbBlockBegin
  2
SW_NOTE_6
 70
     0
 10
0.0
 20
0.0
 30
0.0
  3
SW_NOTE_6
  1

  0
MTEXT
  5
1D5
330
1D2
100
AcDbEntity
  8
0
  6
Continuous
 62
     7
370
     0
100
AcDbMText
 10
0.0
 20
0.1760119341
 30
0.0
 40
0.1377952756
 41
0.0
 71
     1
 72
     1
  1
{PART}
  7
SLDTEXTSTYLE0
 73
     1
 44
1.0
  0
MTEXT
  5
1D6
330
1D2
100
AcDbEntity
  8
0
  6
Continuous
 62
     7
370
     0
100
AcDbMText
 10
0.0643523366
 20
-0.0011534126
 30
0.0
 40
0.1377952756
 41
0.0
 71
     1
 72
     1
  1
{No.}
  7
SLDTEXTSTYLE0
 73
     1
 44
1.0
  0
ENDBLK
  5
1D4
330
1D2
100
AcDbEntity
  8
0
100
AcDbBlockEnd
  0
BLOCK
  5
1D9
330
1D8
100
AcDbEntity
  8
0
100
AcDbBlockBegin
  2
SW_NOTE_7
 70
     0
 10
0.0
 20
0.0
 30
0.0
  3
SW_NOTE_7
  1

  0
MTEXT
  5
1DB
330
1D8
100
AcDbEntity
  8
0
  6
Continuous
 62
     7
370
     0
100
AcDbMText
 10
0.0
 20
0.1760119341
 30
0.0
 40
0.1377952756
 41
0.0
 71
     1
 72
     1
  1
{REVISION}
  7
SLDTEXTSTYLE0
 73
     1
 44
1.0
  0
MTEXT
  5
1DC
330
1D8
100
AcDbEntity
  8
0
  6
Continuous
 62
     7
370
     0
100
AcDbMText
 10
0.1722201705
 20
-0.0011534126
 30
0.0
 40
0.1377952756
 41
0.0
 71
     1
 72
     1
  1
{DATE}
  7
SLDTEXTSTYLE0
 73
     1
 44
1.0
  0
ENDBLK
  5
1DA
330
1D8
100
AcDbEntity
  8
0
100
AcDbBlockEnd
  0
BLOCK
  5
1DF
330
1DE
100
AcDbEntity
  8
0
100
AcDbBlockBegin
  2
SW_NOTE_8
 70
     0
 10
0.0
 20
0.0
 30
0.0
  3
SW_NOTE_8
  1

  0
MTEXT
  5
1E1
330
1DE
100
AcDbEntity
  8
0
  6
Continuous
 62
     7
370
     0
100
AcDbMText
 10
0.0
 20
0.1760119341
 30
0.0
 40
0.1377952756
 41
0.0
 71
     1
 72
     1
  1
{PART}
  7
SLDTEXTSTYLE0
 73
     1
 44
1.0
  0
MTEXT
  5
1E2
330
1DE
100
AcDbEntity
  8
0
  6
Continuous
 62
     7
370
     0
100
AcDbMText
 10
-0.0513741915
 20
-0.0011534126
 30
0.0
 40
0.1377952756
 41
0.0
 71
     1
 72
     1
  1
{NAME}
  7
SLDTEXTSTYLE0
 73
     1
 44
1.0
  0
ENDBLK
  5
1E0
330
1DE
100
AcDbEntity
  8
0
100
AcDbBlockEnd
  0
ENDSEC
  0
SECTION
  2
ENTITIES
  0
LINE
  5
72
330
1F
100
AcDbEntity
  8
0
  6
Continuous
 62
     7
370
     0
100
AcDbLine
 10
4.424563706599999
 20
8.192032818499999
 30
0.0
 11
4.424563706599999
 21
7.786032818499999
 31
0.0
  0
LINE
  5
73
330
1F
100
AcDbEntity
  8
0
  6
Continuous
 62
     7
370
     0
100
AcDbLine
 10
4.4865637066
 20
8.192032818499999
 30
0.0
 11
4.4865637066
 21
7.786032818499999
 31
0.0
  0
LINE
  5
74
330
1F
100
AcDbEntity
  8
0
  6
Continuous
 62
     7
370
     0
100
AcDbLine
 10
10.6292515765
 20
8.192032818499999
 30
0.0
 11
0.329927
 21
8.192032818499999
 31
0.0
  0
LINE
  5
75
330
1F
100
AcDbEntity
  8
0
  6
Continuous
 62
     7
370
     0
100
AcDbLine
 10
5.2365637066
 20
8.192032818499999
 30
0.0
 11
5.2365637066
 21
7.786032818499999
 31
0.0
  0
LINE
  5
76
330
1F
100
AcDbEntity
  8
0
  6
Continuous
 62
     7
370
     0
100
AcDbLine
 10
10.6292515765
 20
7.786032818499999
 30
0.0
 11
0.329927
 21
7.786032818499999
 31
0.0
  0
LINE
  5
77
330
1F
100
AcDbEntity
  8
0
  6
Continuous
 62
     7
370
     0
100
AcDbLine
 10
1.048563706599999
 20
8.192032818499999
 30
0.0
 11
1.048563706599999
 21
7.786032818499999
 31
0.0
  0
LINE
  5
78
330
1F
100
AcDbEntity
  8
0
  6
Continuous
 62
     7
370
     0
100
AcDbLine
 10
8.612563706599999
 20
8.192032818499999
 30
0.0
 11
8.612563706599999
 21
7.786032818499999
 31
0.0
  0
LINE
  5
79
330
1F
100
AcDbEntity
  8
0
  6
Continuous
 62
     7
370
     0
100
AcDbLine
 10
8.674563706599998
 20
8.192032818499999
 30
0.0
 11
8.674563706599998
 21
7.786032818499999
 31
0.0
  0
LINE
  5
7A
330
1F
100
AcDbEntity
  8
0
  6
Continuous
 62
     7
370
     0
100
AcDbLine
 10
9.424563706599998
 20
8.192032818499999
 30
0.0
 11
9.424563706599998
 21
7.786032818499999
 31
0.0
  0
LINE
  5
7B
330
1F
100
AcDbEntity
  8
0
  6
Continuous
 62
     7
370
     0
100
AcDbLine
 10
4.424563706599999
 20
8.192032818499999
 30
0.0
 11
4.424563706599999
 21
7.786032818499999
 31
0.0
  0
LINE
  5
7C
330
1F
100
AcDbEntity
  8
0
  6
Continuous
 62
     7
370
     0
100
AcDbLine
 10
4.4865637066
 20
8.192032818499999
 30
0.0
 11
4.4865637066
 21
7.786032818499999
 31
0.0
  0
LINE
  5
7D
330
1F
100
AcDbEntity
  8
0
  6
Continuous
 62
     7
370
     0
100
AcDbLine
 10
9.424563706599998
 20
8.192032818499999
 30
0.0
 11
1.048563706599999
 21
8.192032818499999
 31
0.0
  0
LINE
  5
7E
330
1F
100
AcDbEntity
  8
0
  6
Continuous
 62
     7
370
     0
100
AcDbLine
 10
5.2365637066
 20
8.192032818499999
 30
0.0
 11
5.2365637066
 21
7.786032818499999
 31
0.0
  0
LINE
  5
7F
330
1F
100
AcDbEntity
  8
0
  6
Continuous
 62
     7
370
     0
100
AcDbLine
 10
9.424563706599998
 20
7.786032818499999
 30
0.0
 11
1.048563706599999
 21
7.786032818499999
 31
0.0
  0
LINE
  5
80
330
1F
100
AcDbEntity
  8
0
  6
Continuous
 62
     7
370
     0
100
AcDbLine
 10
1.048563706599999
 20
8.192032818499999
 30
0.0
 11
1.048563706599999
 21
7.786032818499999
 31
0.0
  0
LINE
  5
81
330
1F
100
AcDbEntity
  8
0
  6
Continuous
 62
     7
370
     0
100
AcDbLine
 10
8.612563706599999
 20
8.192032818499999
 30
0.0
 11
8.612563706599999
 21
7.786032818499999
 31
0.0
  0
LINE
  5
82
330
1F
100
AcDbEntity
  8
0
  6
Continuous
 62
     7
370
     0
100
AcDbLine
 10
8.674563706599998
 20
8.192032818499999
 30
0.0
 11
8.674563706599998
 21
7.786032818499999
 31
0.0
  0
LINE
  5
83
330
1F
100
AcDbEntity
  8
0
  6
Continuous
 62
     7
370
     0
100
AcDbLine
 10
9.424563706599998
 20
8.192032818499999
 30
0.0
 11
9.424563706599998
 21
7.786032818499999
 31
0.0
  0
LINE
  5
84
330
1F
100
AcDbEntity
  8
0
  6
Continuous
 62
     7
370
     0
100
AcDbLine
 10
10.6292515765
 20
7.888553036599999
 30
0.0
 11
10.6292515765
 21
7.8632757972
 31
0.0
  0
LINE
  5
85
330
1F
100
AcDbEntity
  8
0
  6
Continuous
 62
     7
370
     0
100
AcDbLine
 10
10.6292515765
 20
7.786032818499999
 30
0.0
 11
10.6292515765
 21
8.192032818499999
 31
0.0
  0
LINE
  5
86
330
1F
100
AcDbEntity
  8
0
  6
Continuous
 62
     7
370
     0
100
AcDbLine
 10
0.269927
 20
8.2520328185
 30
0.0
 11
10.6892515765
 21
8.2520328185
 31
0.0
  0
LINE
  5
87
330
1F
100
AcDbEntity
  8
0
  6
Continuous
 62
     7
370
     0
100
AcDbLine
 10
0.329927
 20
8.1920731707
 30
0.0
 11
0.329927
 21
7.786032818499999
 31
0.0
  0
LINE
  5
88
330
1F
100
AcDbEntity
  8
0
  6
Continuous
 62
     7
370
     0
100
AcDbLine
 10
0.269927
 20
8.2520328185
 30
0.0
 11
0.269927
 21
0.3320731707
 31
0.0
  0
LINE
  5
89
330
1F
100
AcDbEntity
  8
SLD-0
100
AcDbLine
 10
8.036651153200001
 20
5.4289023032
 30
0.0
 11
8.367369980499999
 21
5.4289023032
 31
0.0
  0
LINE
  5
8A
330
1F
100
AcDbEntity
  8
0
  6
Continuous
 62
     7
370
     0
100
AcDbLine
 10
0.269927
 20
0.3320731707
 30
0.0
 11
10.6892515765
 21
0.3320731707
 31
0.0
  0
LINE
  5
8B
330
1F
100
AcDbEntity
  8
0
  6
Continuous
 62
     7
370
     0
100
AcDbLine
 10
10.6892515765
 20
8.2520328185
 30
0.0
 11
10.6892515765
 21
0.3320731707
 31
0.0
  0
LINE
  5
8C
330
1F
100
AcDbEntity
  8
SLD-0
100
AcDbLine
 10
8.036651153200001
 20
5.220736336599999
 30
0.0
 11
8.367369980499999
 21
5.220736336599999
 31
0.0
  0
LINE
  5
8D
330
1F
100
AcDbEntity
  8
SLD-0
100
AcDbLine
 10
3.152288043399999
 20
5.9389925483
 30
0.0
 11
3.152288043399999
 21
4.7106460916
 31
0.0
  0
LINE
  5
8E
330
1F
100
AcDbEntity
  8
SLD-0
100
AcDbLine
 10
3.152288043399999
 20
4.7106460916
 30
0.0
 11
5.420004578799999
 21
4.7106460916
 31
0.0
  0
LINE
  5
8F
330
1F
100
AcDbEntity
  8
SLD-0
100
AcDbLine
 10
3.506618752099999
 20
4.946866563999999
 30
0.0
 11
3.8609494607
 21
4.946866563999999
 31
0.0
  0
LINE
  5
90
330
1F
100
AcDbEntity
  8
SLD-0
100
AcDbLine
 10
4.711343161499999
 20
4.946866563999999
 30
0.0
 11
5.065673870199999
 21
4.946866563999999
 31
0.0
  0
LINE
  5
91
330
1F
100
AcDbEntity
  8
SLD-0
100
AcDbLine
 10
3.231028200899999
 20
4.7893862491
 30
0.0
 11
3.388508515799999
 21
4.7893862491
 31
0.0
  0
LINE
  5
92
330
1F
100
AcDbEntity
  8
SLD-0
100
AcDbLine
 10
3.979059696899999
 20
4.7893862491
 30
0.0
 11
4.593232925299999
 21
4.7893862491
 31
0.0
  0
LINE
  5
93
330
1F
100
AcDbEntity
  8
SLD-0
100
AcDbLine
 10
5.1837841064
 20
4.7893862491
 30
0.0
 11
5.3412644213
 21
4.7893862491
 31
0.0
  0
LINE
  5
94
330
1F
100
AcDbEntity
  8
SLD-0
100
AcDbLine
 10
5.420004578799999
 20
4.7106460916
 30
0.0
 11
5.420004578799999
 21
5.9389925483
 31
0.0
  0
LINE
  5
95
330
1F
100
AcDbEntity
  8
SLD-0
100
AcDbLine
 10
5.420004578799999
 20
5.9389925483
 30
0.0
 11
3.152288043399999
 21
5.9389925483
 31
0.0
  0
LINE
  5
96
330
1F
100
AcDbEntity
  8
SLD-0
100
AcDbLine
 10
5.065673870199999
 20
5.7027720758
 30
0.0
 11
4.711343161499999
 21
5.7027720758
 31
0.0
  0
LINE
  5
97
330
1F
100
AcDbEntity
  8
SLD-0
100
AcDbLine
 10
3.8609494607
 20
5.7027720758
 30
0.0
 11
3.506618752099999
 21
5.7027720758
 31
0.0
  0
LINE
  5
98
330
1F
100
AcDbEntity
  8
SLD-0
100
AcDbLine
 10
5.3412644213
 20
5.8602523908
 30
0.0
 11
5.1837841064
 21
5.8602523908
 31
0.0
  0
LINE
  5
99
330
1F
100
AcDbEntity
  8
SLD-0
100
AcDbLine
 10
4.593232925299999
 20
5.8602523908
 30
0.0
 11
3.979059696899999
 21
5.8602523908
 31
0.0
  0
LINE
  5
9A
330
1F
100
AcDbEntity
  8
SLD-0
100
AcDbLine
 10
3.388508515799999
 20
5.8602523908
 30
0.0
 11
3.231028200899999
 21
5.8602523908
 31
0.0
  0
LINE
  5
9B
330
1F
100
AcDbEntity
  8
SLD-0
100
AcDbLine
 10
3.152288043399999
 20
3.010767126999999
 30
0.0
 11
3.152288043399999
 21
2.420215945899999
 31
0.0
  0
LINE
  5
9C
330
1F
100
AcDbEntity
  8
SLD-0
100
AcDbLine
 10
3.231028200899999
 20
3.010767126999999
 30
0.0
 11
3.231028200899999
 21
2.715491536499999
 31
0.0
  0
LINE
  5
9D
330
1F
100
AcDbEntity
  8
SLD-0
100
AcDbLine
 10
3.152288043399999
 20
2.420215945899999
 30
0.0
 11
5.420004578799999
 21
2.420215945899999
 31
0.0
  0
LINE
  5
9E
330
1F
100
AcDbEntity
  8
SLD-0
100
AcDbLine
 10
5.420004578799999
 20
2.420215945899999
 30
0.0
 11
5.420004578799999
 21
3.010767126999999
 31
0.0
  0
LINE
  5
9F
330
1F
100
AcDbEntity
  8
SLD-0
100
AcDbLine
 10
5.420004578799999
 20
3.010767126999999
 30
0.0
 11
5.3412644213
 21
3.010767126999999
 31
0.0
  0
LINE
  5
A0
330
1F
100
AcDbEntity
  8
SLD-0
100
AcDbLine
 10
5.035125139799999
 20
3.010767126999999
 30
0.0
 11
4.741891891899999
 21
3.010767126999999
 31
0.0
  0
LINE
  5
A1
330
1F
100
AcDbEntity
  8
SLD-0
100
AcDbLine
 10
3.830400730299999
 20
3.010767126999999
 30
0.0
 11
3.5371674824
 21
3.010767126999999
 31
0.0
  0
LINE
  5
A2
330
1F
100
AcDbEntity
  8
SLD-0
100
AcDbLine
 10
3.231028200899999
 20
3.010767126999999
 30
0.0
 11
3.152288043399999
 21
3.010767126999999
 31
0.0
  0
LINE
  5
A3
330
1F
100
AcDbEntity
  8
SLD-0
100
AcDbLine
 10
6.7558195745
 20
2.420215945899999
 30
0.0
 11
7.9841660312
 21
2.420215945899999
 31
0.0
  0
LINE
  5
A4
330
1F
100
AcDbEntity
  8
SLD-0
100
AcDbLine
 10
7.9841660312
 20
2.420215945899999
 30
0.0
 11
7.9841660312
 21
2.774546654599999
 31
0.0
  0
LINE
  5
A5
330
1F
100
AcDbEntity
  8
SLD-0
100
AcDbLine
 10
7.747945558799999
 20
3.010767126999999
 30
0.0
 11
6.992040047
 21
3.010767126999999
 31
0.0
  0
LINE
  5
A6
330
1F
100
AcDbEntity
  8
SLD-0
100
AcDbLine
 10
6.7558195745
 20
2.774546654599999
 30
0.0
 11
6.7558195745
 21
2.420215945899999
 31
0.0
  0
LINE
  5
A7
330
1F
100
AcDbEntity
  8
SLD-0
100
AcDbLine
 10
3.231028200899999
 20
2.715491536499999
 30
0.0
 11
3.388508515799999
 21
2.715491536499999
 31
0.0
  0
LINE
  5
A8
330
1F
100
AcDbEntity
  8
SLD-0
100
AcDbLine
 10
3.979059696899999
 20
2.715491536499999
 30
0.0
 11
4.593232925299999
 21
2.715491536499999
 31
0.0
  0
LINE
  5
A9
330
1F
100
AcDbEntity
  8
SLD-0
100
AcDbLine
 10
5.1837841064
 20
2.715491536499999
 30
0.0
 11
5.3412644213
 21
2.715491536499999
 31
0.0
  0
LINE
  5
AA
330
1F
100
AcDbEntity
  8
SLD-0
100
AcDbLine
 10
5.3412644213
 20
3.010767126999999
 30
0.0
 11
5.3412644213
 21
2.715491536499999
 31
0.0
  0
LINE
  5
AB
330
1F
100
AcDbEntity
  8
SLD-0
100
AcDbLine
 10
3.388508515799999
 20
2.715491536499999
 30
0.0
 11
3.420606278199999
 21
2.9117229226
 31
0.0
  0
LINE
  5
AC
330
1F
100
AcDbEntity
  8
SLD-0
100
AcDbLine
 10
3.979059696899999
 20
2.715491536499999
 30
0.0
 11
3.946961934599999
 21
2.9117229226
 31
0.0
  0
LINE
  5
AD
330
1F
100
AcDbEntity
  8
SLD-0
100
AcDbLine
 10
5.1837841064
 20
2.715491536499999
 30
0.0
 11
5.151686343999999
 21
2.9117229226
 31
0.0
  0
LINE
  5
AE
330
1F
100
AcDbEntity
  8
SLD-0
100
AcDbLine
 10
4.593232925299999
 20
2.715491536499999
 30
0.0
 11
4.625330687699999
 21
2.9117229226
 31
0.0
  0
LINE
  5
AF
330
1F
100
AcDbEntity
  8
SLD-0
100
AcDbLine
 10
3.231028200899999
 20
4.7106460916
 30
0.0
 11
3.231028200899999
 21
5.9389925483
 31
0.0
  0
LINE
  5
B0
330
1F
100
AcDbEntity
  8
SLD-0
100
AcDbLine
 10
3.388508515799999
 20
4.7893862491
 30
0.0
 11
3.388508515799999
 21
4.828756327799999
 31
0.0
  0
LINE
  5
B1
330
1F
100
AcDbEntity
  8
SLD-0
100
AcDbLine
 10
3.388508515799999
 20
5.820882312
 30
0.0
 11
3.388508515799999
 21
5.8602523908
 31
0.0
  0
LINE
  5
B2
330
1F
100
AcDbEntity
  8
SLD-0
100
AcDbLine
 10
3.979059696899999
 20
4.7893862491
 30
0.0
 11
3.979059696899999
 21
4.828756327799999
 31
0.0
  0
LINE
  5
B3
330
1F
100
AcDbEntity
  8
SLD-0
100
AcDbLine
 10
3.979059696899999
 20
5.820882312
 30
0.0
 11
3.979059696899999
 21
5.8602523908
 31
0.0
  0
LINE
  5
B4
330
1F
100
AcDbEntity
  8
SLD-0
100
AcDbLine
 10
4.593232925299999
 20
4.7893862491
 30
0.0
 11
4.593232925299999
 21
4.828756327799999
 31
0.0
  0
LINE
  5
B5
330
1F
100
AcDbEntity
  8
SLD-0
100
AcDbLine
 10
4.593232925299999
 20
5.820882312
 30
0.0
 11
4.593232925299999
 21
5.8602523908
 31
0.0
  0
LINE
  5
B6
330
1F
100
AcDbEntity
  8
SLD-0
100
AcDbLine
 10
5.1837841064
 20
4.7893862491
 30
0.0
 11
5.1837841064
 21
4.828756327799999
 31
0.0
  0
LINE
  5
B7
330
1F
100
AcDbEntity
  8
SLD-0
100
AcDbLine
 10
5.1837841064
 20
5.820882312
 30
0.0
 11
5.1837841064
 21
5.8602523908
 31
0.0
  0
LINE
  5
B8
330
1F
100
AcDbEntity
  8
SLD-0
100
AcDbLine
 10
5.3412644213
 20
4.7106460916
 30
0.0
 11
5.3412644213
 21
5.9389925483
 31
0.0
  0
LINE
  5
B9
330
1F
100
AcDbEntity
  8
SLD-0
100
AcDbLine
 10
3.231028200899999
 20
5.305134280499999
 30
0.0
 11
3.787597864399999
 21
5.305134280499999
 31
0.0
  0
LINE
  5
BA
330
1F
100
AcDbEntity
  8
SLD-0
100
AcDbLine
 10
4.784694757799999
 20
5.305134280499999
 30
0.0
 11
5.3412644213
 21
5.305134280499999
 31
0.0
  0
LINE
  5
BB
330
1F
100
AcDbEntity
  8
SLD-0
100
AcDbLine
 10
3.231028200899999
 20
5.3445043593
 30
0.0
 11
3.787597864399999
 21
5.3445043593
 31
0.0
  0
LINE
  5
BC
330
1F
100
AcDbEntity
  8
SLD-0
100
AcDbLine
 10
4.784694757799999
 20
5.3445043593
 30
0.0
 11
5.3412644213
 21
5.3445043593
 31
0.0
  0
LINE
  5
BD
330
1F
100
AcDbEntity
  8
SLD-0
100
AcDbLine
 10
3.787597864399999
 20
5.3445043593
 30
0.0
 11
3.787597864399999
 21
5.305134280499999
 31
0.0
  0
LINE
  5
BE
330
1F
100
AcDbEntity
  8
SLD-0
100
AcDbLine
 10
4.784694757799999
 20
5.3445043593
 30
0.0
 11
4.784694757799999
 21
5.305134280499999
 31
0.0
  0
LINE
  5
BF
330
1F
100
AcDbEntity
  8
SLD-0
100
AcDbLine
 10
5.3394165279
 20
4.9960791624
 30
0.0
 11
5.3394165279
 21
5.0984413672
 31
0.0
  0
LINE
  5
C0
330
1F
100
AcDbEntity
  8
SLD-0
100
AcDbLine
 10
5.292172433399999
 20
4.9960791624
 30
0.0
 11
5.292172433399999
 21
5.0984413672
 31
0.0
  0
LINE
  5
C1
330
1F
100
AcDbEntity
  8
SLD-0
100
AcDbLine
 10
5.3394165279
 20
4.9960791624
 30
0.0
 11
5.292172433399999
 21
4.9960791624
 31
0.0
  0
LINE
  5
C2
330
1F
100
AcDbEntity
  8
SLD-0
100
AcDbLine
 10
5.3394165279
 20
5.0984413672
 30
0.0
 11
5.292172433399999
 21
5.0984413672
 31
0.0
  0
LINE
  5
C3
330
1F
100
AcDbEntity
  8
SLD-0
100
AcDbLine
 10
3.231028200899999
 20
5.6515909735
 30
0.0
 11
3.231028200899999
 21
5.549228768699999
 31
0.0
  0
LINE
  5
C4
330
1F
100
AcDbEntity
  8
SLD-0
100
AcDbLine
 10
3.2782722954
 20
5.6515909735
 30
0.0
 11
3.2782722954
 21
5.549228768699999
 31
0.0
  0
LINE
  5
C5
330
1F
100
AcDbEntity
  8
SLD-0
100
AcDbLine
 10
3.231028200899999
 20
5.6515909735
 30
0.0
 11
3.2782722954
 21
5.6515909735
 31
0.0
  0
LINE
  5
C6
330
1F
100
AcDbEntity
  8
SLD-0
100
AcDbLine
 10
3.231028200899999
 20
5.549228768699999
 30
0.0
 11
3.2782722954
 21
5.549228768699999
 31
0.0
  0
LINE
  5
C7
330
1F
100
AcDbEntity
  8
SLD-0
100
AcDbLine
 10
3.4915110543
 20
5.6004098711
 30
0.0
 11
3.613558298399999
 21
5.6004098711
 31
0.0
  0
LINE
  5
C8
330
1F
100
AcDbEntity
  8
SLD-0
100
AcDbLine
 10
3.552534676399999
 20
5.661433493099999
 30
0.0
 11
3.552534676399999
 21
5.539386249099999
 31
0.0
  0
LINE
  5
C9
330
1F
100
AcDbEntity
  8
SLD-0
100
AcDbLine
 10
4.9555582602
 20
5.0472602648
 30
0.0
 11
5.0776055043
 21
5.0472602648
 31
0.0
  0
LINE
  5
CA
330
1F
100
AcDbEntity
  8
SLD-0
100
AcDbLine
 10
5.0165818823
 20
5.108283886799999
 30
0.0
 11
5.0165818823
 21
4.986236642799999
 31
0.0
  0
LINE
  5
CB
330
1F
100
AcDbEntity
  8
SLD-0
100
AcDbLine
 10
5.420004578799999
 20
5.4643353741
 30
0.0
 11
7.034483822
 21
5.4643353741
 31
0.0
  0
LINE
  5
CC
330
1F
100
AcDbEntity
  8
SLD-0
100
AcDbLine
 10
5.420004578799999
 20
5.3934692324
 30
0.0
 11
7.034483822
 21
5.3934692324
 31
0.0
  0
LINE
  5
CD
330
1F
100
AcDbEntity
  8
SLD-0
100
AcDbLine
 10
7.258341594299999
 20
5.3934692324
 30
0.0
 11
8.036651153200001
 21
5.3934692324
 31
0.0
  0
LINE
  5
CE
330
1F
100
AcDbEntity
  8
SLD-0
100
AcDbLine
 10
8.036651153200001
 20
5.3934692324
 30
0.0
 11
8.036651153200001
 21
5.4643353741
 31
0.0
  0
LINE
  5
CF
330
1F
100
AcDbEntity
  8
SLD-0
100
AcDbLine
 10
8.036651153200001
 20
5.4643353741
 30
0.0
 11
7.258341594299999
 21
5.4643353741
 31
0.0
  0
LINE
  5
D0
330
1F
100
AcDbEntity
  8
SLD-0
100
AcDbLine
 10
5.420004578799999
 20
5.185303265699999
 30
0.0
 11
7.034483822
 21
5.185303265699999
 31
0.0
  0
LINE
  5
D1
330
1F
100
AcDbEntity
  8
SLD-0
100
AcDbLine
 10
5.420004578799999
 20
5.256169407499999
 30
0.0
 11
7.034483822
 21
5.256169407499999
 31
0.0
  0
LINE
  5
D2
330
1F
100
AcDbEntity
  8
SLD-0
100
AcDbLine
 10
7.258341594299999
 20
5.256169407499999
 30
0.0
 11
8.036651153200001
 21
5.256169407499999
 31
0.0
  0
LINE
  5
D3
330
1F
100
AcDbEntity
  8
SLD-0
100
AcDbLine
 10
8.036651153200001
 20
5.256169407499999
 30
0.0
 11
8.036651153200001
 21
5.185303265699999
 31
0.0
  0
LINE
  5
D4
330
1F
100
AcDbEntity
  8
SLD-0
100
AcDbLine
 10
8.036651153200001
 20
5.185303265699999
 30
0.0
 11
7.258341594299999
 21
5.185303265699999
 31
0.0
  0
LINE
  5
D5
330
1F
100
AcDbEntity
  8
SLD-0
100
AcDbLine
 10
3.4915110543
 20
5.049228768699999
 30
0.0
 11
3.613558298399999
 21
5.049228768699999
 31
0.0
  0
LINE
  5
D6
330
1F
100
AcDbEntity
  8
SLD-0
100
AcDbLine
 10
4.9555582602
 20
5.602378374999999
 30
0.0
 11
5.0776055043
 21
5.602378374999999
 31
0.0
  0
LINE
  5
D7
330
1F
100
AcDbEntity
  8
SLD-0
100
AcDbLine
 10
3.248865106399999
 20
5.1609425013
 30
0.0
 11
3.248865106399999
 21
5.549228768699999
 31
0.0
  0
LINE
  5
D8
330
1F
100
AcDbEntity
  8
SLD-0
100
AcDbLine
 10
3.2575265237
 20
5.1609425013
 30
0.0
 11
3.2575265237
 21
5.549228768699999
 31
0.0
  0
LINE
  5
D9
330
1F
100
AcDbEntity
  8
SLD-0
100
AcDbLine
 10
3.555164318999999
 20
4.995296245099999
 30
0.0
 11
3.5470398967
 21
4.9476502881
 31
0.0
  0
LINE
  5
DA
330
1F
100
AcDbEntity
  8
SLD-0
100
AcDbLine
 10
5.0349652087
 20
5.6522765998
 30
0.0
 11
5.043089631099999
 21
5.699922556799999
 31
0.0
  0
LINE
  5
DB
330
1F
100
AcDbEntity
  8
0
  6
Continuous
 62
     7
370
     0
100
AcDbLine
 10
0.329927
 20
8.1920731707
 30
0.0
 11
10.629927
 21
8.1920731707
 31
0.0
  0
LINE
  5
DC
330
1F
100
AcDbEntity
  8
0
  6
Continuous
 62
     7
370
     0
100
AcDbLine
 10
0.329927
 20
8.1920731707
 30
0.0
 11
0.329927
 21
0.3920731707
 31
0.0
  0
LINE
  5
DD
330
1F
100
AcDbEntity
  8
0
  6
Continuous
 62
     7
370
     0
100
AcDbLine
 10
10.629927
 20
0.3920731707
 30
0.0
 11
0.329927
 21
0.3920731707
 31
0.0
  0
LINE
  5
DE
330
1F
100
AcDbEntity
  8
0
  6
Continuous
 62
     7
370
     0
100
AcDbLine
 10
10.629927
 20
0.3920731707
 30
0.0
 11
10.629927
 21
8.1920731707
 31
0.0
  0
ARC
  5
DF
330
1F
100
AcDbEntity
  8
SLD-0
100
AcDbCircle
 10
3.506618752099999
 20
4.828756327799999
 30
0.0
 40
0.1181102362204727
100
AcDbArc
 50
90.0
 51
180.0
  0
ARC
  5
E0
330
1F
100
AcDbEntity
  8
SLD-0
100
AcDbCircle
 10
4.711343161499999
 20
4.828756327799999
 30
0.0
 40
0.1181102362204731
100
AcDbArc
 50
90.0
 51
180.0
  0
ARC
  5
E1
330
1F
100
AcDbEntity
  8
SLD-0
100
AcDbCircle
 10
3.8609494607
 20
5.820882312
 30
0.0
 40
0.1181102362204727
100
AcDbArc
 50
270.0
 51
0.0
  0
ARC
  5
E2
330
1F
100
AcDbEntity
  8
SLD-0
100
AcDbCircle
 10
5.035125139799999
 20
2.892656890799999
 30
0.0
 40
0.1181102362204727
100
AcDbArc
 50
9.289660687899999
 51
90.0
  0
ARC
  5
E3
330
1F
100
AcDbEntity
  8
SLD-0
100
AcDbCircle
 10
4.741891891899999
 20
2.892656890799999
 30
0.0
 40
0.1181102362204727
100
AcDbArc
 50
90.0
 51
170.7103393120999
  0
ARC
  5
E4
330
1F
100
AcDbEntity
  8
SLD-0
100
AcDbCircle
 10
3.5371674824
 20
2.892656890799999
 30
0.0
 40
0.1181102362204727
100
AcDbArc
 50
90.0
 51
170.7103393122
  0
ARC
  5
E5
330
1F
100
AcDbEntity
  8
SLD-0
100
AcDbCircle
 10
7.747945558799999
 20
2.774546654599999
 30
0.0
 40
0.2362204724409449
100
AcDbArc
 50
0.0
 51
90.0
  0
ARC
  5
E6
330
1F
100
AcDbEntity
  8
SLD-0
100
AcDbCircle
 10
6.992040047
 20
2.774546654599999
 30
0.0
 40
0.2362204724409454
100
AcDbArc
 50
90.0
 51
180.0
  0
ARC
  5
E7
330
1F
100
AcDbEntity
  8
SLD-0
100
AcDbCircle
 10
3.830400730299999
 20
2.892656890799999
 30
0.0
 40
0.1181102362204727
100
AcDbArc
 50
9.289660687799999
 51
90.0
  0
CIRCLE
  5
E8
330
1F
100
AcDbEntity
  8
SLD-0
100
AcDbCircle
 10
7.1183642585
 20
2.765327846299999
 30
0.0
 40
0.1259842519685028
  0
CIRCLE
  5
E9
330
1F
100
AcDbEntity
  8
SLD-0
100
AcDbCircle
 10
7.1183642585
 20
2.765327846299999
 30
0.0
 40
0.0590551181102361
  0
CIRCLE
  5
EA
330
1F
100
AcDbEntity
  8
SLD-0
100
AcDbCircle
 10
7.6216213472
 20
2.765327846299999
 30
0.0
 40
0.1259842519685028
  0
CIRCLE
  5
EB
330
1F
100
AcDbEntity
  8
SLD-0
100
AcDbCircle
 10
7.6216213472
 20
2.765327846299999
 30
0.0
 40
0.0590551181102361
  0
CIRCLE
  5
EC
330
1F
100
AcDbEntity
  8
SLD-0
100
AcDbCircle
 10
7.266090881799999
 20
2.552142571999999
 30
0.0
 40
0.0354330708661399
  0
CIRCLE
  5
ED
330
1F
100
AcDbEntity
  8
SLD-0
100
AcDbCircle
 10
7.473894723999999
 20
2.552142571999999
 30
0.0
 40
0.0354330708661417
  0
ARC
  5
EE
330
1F
100
AcDbEntity
  8
SLD-0
100
AcDbCircle
 10
3.506618752099999
 20
5.820882312
 30
0.0
 40
0.1181102362204731
100
AcDbArc
 50
180.0
 51
270.0
  0
ARC
  5
EF
330
1F
100
AcDbEntity
  8
SLD-0
100
AcDbCircle
 10
3.8609494607
 20
4.828756327799999
 30
0.0
 40
0.1181102362204727
100
AcDbArc
 50
0.0
 51
90.0
  0
ARC
  5
F0
330
1F
100
AcDbEntity
  8
SLD-0
100
AcDbCircle
 10
4.711343161499999
 20
5.820882312
 30
0.0
 40
0.1181102362204722
100
AcDbArc
 50
180.0
 51
270.0
  0
ARC
  5
F1
330
1F
100
AcDbEntity
  8
SLD-0
100
AcDbCircle
 10
5.065673870199999
 20
4.828756327799999
 30
0.0
 40
0.1181102362204722
100
AcDbArc
 50
360.0
 51
90.0
  0
ARC
  5
F2
330
1F
100
AcDbEntity
  8
SLD-0
100
AcDbCircle
 10
5.065673870199999
 20
5.820882312
 30
0.0
 40
0.1181102362204731
100
AcDbArc
 50
270.0
 51
0.0
  0
CIRCLE
  5
F3
330
1F
100
AcDbEntity
  8
SLD-0
100
AcDbCircle
 10
3.552534676399999
 20
5.6004098711
 30
0.0
 40
0.0610236220472444
  0
CIRCLE
  5
F4
330
1F
100
AcDbEntity
  8
SLD-0
100
AcDbCircle
 10
5.0165818823
 20
5.0472602648
 30
0.0
 40
0.0610236220472435
  0
CIRCLE
  5
F5
330
1F
100
AcDbEntity
  8
SLD-0
100
AcDbCircle
 10
4.0026817442
 20
5.3248193199
 30
0.0
 40
0.0551181102362195
  0
CIRCLE
  5
F6
330
1F
100
AcDbEntity
  8
SLD-0
100
AcDbCircle
 10
4.569610877999999
 20
5.3248193199
 30
0.0
 40
0.0551181102362204
  0
ARC
  5
F7
330
1F
100
AcDbEntity
  8
SLD-0
100
AcDbCircle
 10
7.0286569373
 20
5.4289023032
 30
0.0
 40
0.0359089835038994
100
AcDbArc
 50
279.3385729569
 51
80.66142704310001
  0
ARC
  5
F8
330
1F
100
AcDbEntity
  8
SLD-0
100
AcDbCircle
 10
7.2525147096
 20
5.4289023032
 30
0.0
 40
0.0359089835038995
100
AcDbArc
 50
279.3385729569
 51
80.66142704310001
  0
ARC
  5
F9
330
1F
100
AcDbEntity
  8
SLD-0
100
AcDbCircle
 10
7.2525147096
 20
5.220736336599999
 30
0.0
 40
0.0359089835038978
100
AcDbArc
 50
279.3385729569
 51
80.66142704310001
  0
ARC
  5
FA
330
1F
100
AcDbEntity
  8
SLD-0
100
AcDbCircle
 10
7.0286569373
 20
5.220736336599999
 30
0.0
 40
0.0359089835038979
100
AcDbArc
 50
279.3385729569
 51
80.66142704310001
  0
CIRCLE
  5
FB
330
1F
100
AcDbEntity
  8
SLD-0
100
AcDbCircle
 10
3.552534676399999
 20
5.049228768699999
 30
0.0
 40
0.0610236220472444
  0
CIRCLE
  5
FC
330
1F
100
AcDbEntity
  8
SLD-0
100
AcDbCircle
 10
5.0165818823
 20
5.602378374999999
 30
0.0
 40
0.0610236220472435
  0
DIMENSION
  5
FD
330
1F
100
AcDbEntity
  8
FORMAT
100
AcDbDimension
  2
*D7
 10
5.420004578799999
 20
1.856322968
 30
0.0
 11
4.268586986799999
 21
1.856322968
 31
0.0
 70
   160
  1
2.059
 42
2.267716535399999
  3
SLDDIMSTYLE0
100
AcDbAlignedDimension
 13
3.152288043399999
 23
2.420215945899999
 33
0.0
 14
5.420004578799999
 24
2.420215945899999
 34
0.0
100
AcDbRotatedDimension
1001
ACAD
1000
DSTYLE
1002
{
1070
   284
1070
    12
1070
    78
1070
    12
1070
    41
1040
0.156
1070
    44
1040
0.125
1070
    42
1040
0.05
1070
   147
1040
0.06
1070
   140
1040
0.1377952756
1002
}
  0
DIMENSION
  5
114
330
1F
100
AcDbEntity
  8
FORMAT
100
AcDbDimension
  2
*D8
 10
2.5780658833
 20
3.010767126999999
 30
0.0
 11
2.5780658833
 21
2.714075054999999
 31
0.0
 70
   160
  1
.512
 42
0.5905511811000001
  3
SLDDIMSTYLE0
100
AcDbAlignedDimension
 13
3.152288043399999
 23
2.420215945899999
 33
0.0
 14
3.152288043399999
 24
3.010767126999999
 34
0.0
 50
90.0
100
AcDbRotatedDimension
1001
ACAD
1000
DSTYLE
1002
{
1070
   284
1070
    12
1070
    78
1070
    12
1070
    41
1040
0.156
1070
    44
1040
0.125
1070
    42
1040
0.05
1070
   147
1040
0.06
1070
   140
1040
0.1377952756
1002
}
  0
DIMENSION
  5
129
330
1F
100
AcDbEntity
  8
FORMAT
100
AcDbDimension
  2
*D9
 10
7.9841660312
 20
1.856322968
 30
0.0
 11
7.374815418499999
 21
1.856322968
 31
0.0
 70
   160
  1
.972
 42
1.228346456699999
  3
SLDDIMSTYLE0
100
AcDbAlignedDimension
 13
6.7558195745
 23
2.420215945899999
 33
0.0
 14
7.9841660312
 24
2.420215945899999
 34
0.0
100
AcDbRotatedDimension
1001
ACAD
1000
DSTYLE
1002
{
1070
   284
1070
    12
1070
    78
1070
    12
1070
    41
1040
0.156
1070
    44
1040
0.125
1070
    42
1040
0.05
1070
   147
1040
0.06
1070
   140
1040
0.1377952756
1002
}
  0
DIMENSION
  5
13E
330
1F
100
AcDbEntity
  8
FORMAT
100
AcDbDimension
  2
*D10
 10
4.569610877999999
 20
6.498324322999999
 30
0.0
 11
5.184632904999999
 21
6.498324322999999
 31
0.0
 70
   160
  1
.614
 42
0.5669291339
  3
SLDDIMSTYLE0
100
AcDbAlignedDimension
 13
4.0026817442
 23
5.3248193199
 33
0.0
 14
4.569610877999999
 24
5.3248193199
 34
0.0
100
AcDbRotatedDimension
1001
ACAD
1000
DSTYLE
1002
{
1070
   284
1070
    12
1070
    78
1070
    12
1070
    41
1040
0.156
1070
    44
1040
0.125
1070
    42
1040
0.05
1070
   147
1040
0.06
1070
   140
1040
0.1377952756
1002
}
  0
DIMENSION
  5
153
330
1F
100
AcDbEntity
  8
FORMAT
100
AcDbDimension
  2
*D11
 10
4.0026817442
 20
6.498324322999999
 30
0.0
 11
2.5379633205
 21
6.498324322999999
 31
0.0
 70
   160
  1
.722
 42
0.8503937007999999
  3
SLDDIMSTYLE0
100
AcDbAlignedDimension
 13
3.152288043399999
 23
5.9389925483
 33
0.0
 14
4.0026817442
 24
5.3248193199
 34
0.0
100
AcDbRotatedDimension
1001
ACAD
1000
DSTYLE
1002
{
1070
   284
1070
    12
1070
    78
1070
    12
1070
    41
1040
0.156
1070
    44
1040
0.125
1070
    42
1040
0.05
1070
   147
1040
0.06
1070
   140
1040
0.1377952756
1002
}
  0
DIMENSION
  5
168
330
1F
100
AcDbEntity
  8
FORMAT
100
AcDbDimension
  2
*D12
 10
2.5780658833
 20
5.3248193199
 30
0.0
 11
2.5780658833
 21
5.0458283013
 31
0.0
 70
   160
  1
.486
 42
0.6141732283
  3
SLDDIMSTYLE0
100
AcDbAlignedDimension
 13
3.152288043399999
 23
4.7106460916
 33
0.0
 14
4.0026817442
 24
5.3248193199
 34
0.0
 50
90.0
100
AcDbRotatedDimension
1001
ACAD
1000
DSTYLE
1002
{
1070
   284
1070
    12
1070
    78
1070
    12
1070
    41
1040
0.156
1070
    44
1040
0.125
1070
    42
1040
0.05
1070
   147
1040
0.06
1070
   140
1040
0.1377952756
1002
}
  0
DIMENSION
  5
17D
330
1F
100
AcDbEntity
  8
FORMAT
100
AcDbDimension
  2
*D13
 10
4.5824454859
 20
5.3784222948
 30
0.0
 11
3.562988631499999
 21
4.2629297252
 31
0.0
 70
   163
  1
2X, %%c.094
 42
0.1102362205
  3
SLDDIMSTYLE1
100
AcDbDiametricDimension
 15
4.556776270199999
 25
5.271216345
 35
0.0
 40
0.0
1001
ACAD
1000
DSTYLE
1002
{
1070
   284
1070
    12
1070
    78
1070
    12
1070
    41
1040
0.156
1070
    44
1040
0.125
1070
    42
1040
0.05
1070
   147
1040
0.06
1070
   140
1040
0.1377952756
1002
}
  0
DIMENSION
  5
191
330
1F
100
AcDbEntity
  8
FORMAT
100
AcDbDimension
  2
*D14
 10
8.367369980499999
 20
4.1525050148
 30
0.0
 11
6.939357812599999
 21
4.1525050148
 31
0.0
 70
   160
  1
6.0%%p0.2
 42
2.9473654016
  3
SLDDIMSTYLE0
100
AcDbAlignedDimension
 13
5.420004578799999
 23
4.7106460916
 33
0.0
 14
8.367369980499999
 24
5.220736336599999
 34
0.0
100
AcDbRotatedDimension
1001
ACAD
1000
DSTYLE
1002
{
1070
   284
1070
    12
1070
    78
1070
    12
1070
    41
1040
0.156
1070
    44
1040
0.125
1070
    42
1040
0.05
1070
   147
1040
0.06
1070
   140
1040
0.1377952756
1002
}
  0
DIMENSION
  5
1A8
330
1F
100
AcDbEntity
  8
FORMAT
100
AcDbDimension
  2
*D15
 10
8.367369980499999
 20
4.707927152499999
 30
0.0
 11
6.849892223999999
 21
4.707927152499999
 31
0.0
 70
   160
  1
0.2\P(LEAD LENGTH)
 42
0.3307188273
  3
SLDDIMSTYLE0
100
AcDbAlignedDimension
 13
8.036651153200001
 23
5.185303265699999
 33
0.0
 14
8.367369980499999
 24
5.220736336599999
 34
0.0
100
AcDbRotatedDimension
1001
ACAD
1000
DSTYLE
1002
{
1070
   284
1070
    12
1070
    78
1070
    12
1070
    41
1040
0.156
1070
    44
1040
0.125
1070
    42
1040
0.05
1070
   147
1040
0.06
1070
   140
1040
0.1377952756
1002
}
  0
INSERT
  5
1C4
330
1F
100
AcDbEntity
  8
0
  6
Continuous
 62
     7
370
     0
100
AcDbBlockReference
  2
SW_NOTE_3
 10
4.668977064599999
 20
7.978426351399999
 30
0.0
  0
INSERT
  5
1CA
330
1F
100
AcDbEntity
  8
0
  6
Continuous
 62
     7
370
     0
100
AcDbBlockReference
  2
SW_NOTE_4
 10
8.6657048889
 20
7.967057868899999
 30
0.0
  0
INSERT
  5
1D0
330
1F
100
AcDbEntity
  8
0
  6
Continuous
 62
     7
370
     0
100
AcDbBlockReference
  2
SW_NOTE_5
 10
0.4782693072
 20
7.976406312399999
 30
0.0
  0
MTEXT
  5
1D1
330
1F
100
AcDbEntity
  8
0
  6
Continuous
 62
     7
370
     0
100
AcDbMText
 10
9.516319626299999
 20
8.091483726099999
 30
0.0
 40
0.1875
 41
0.0
 71
     1
 72
     1
  1
{08MAY07}
  7
SLDTEXTSTYLE0
 73
     1
 44
1.0
  0
INSERT
  5
1D7
330
1F
100
AcDbEntity
  8
0
  6
Continuous
 62
     7
370
     0
100
AcDbBlockReference
  2
SW_NOTE_6
 10
4.668977064599999
 20
7.978426351399999
 30
0.0
  0
INSERT
  5
1DD
330
1F
100
AcDbEntity
  8
0
  6
Continuous
 62
     7
370
     0
100
AcDbBlockReference
  2
SW_NOTE_7
 10
8.6657048889
 20
7.967057868899999
 30
0.0
  0
INSERT
  5
1E3
330
1F
100
AcDbEntity
  8
0
  6
Continuous
 62
     7
370
     0
100
AcDbBlockReference
  2
SW_NOTE_8
 10
0.4782693072
 20
7.976406312399999
 30
0.0
  0
MTEXT
  5
1E4
330
1F
100
AcDbEntity
  8
0
  6
Continuous
 62
     7
370
     0
100
AcDbMText
 10
6.4693374935
 20
8.0938948182
 30
0.0
 40
0.1875
 41
0.0
 71
     1
 72
     1
  1
{HH-3630}
  7
SLDTEXTSTYLE0
 73
     1
 44
1.0
  0
MTEXT
  5
1E6
330
1F
100
AcDbEntity
  8
0
  6
Continuous
 62
     7
370
     0
100
AcDbMText
 10
1.1013112424
 20
8.0727778172
 30
0.0
 40
0.1875
 41
0.0
 71
     1
 72
     1
  1
{BATTERY HOLDER- 2 AAA}
  7
SLDTEXTSTYLE1
 73
     1
 44
1.0
  0
MTEXT
  5
1E7
330
1F
100
AcDbEntity
  8
0
  6
Continuous
 62
     7
370
     0
100
AcDbMText
 10
9.516319626299999
 20
8.091483726099999
 30
0.0
 40
0.1875
 41
0.0
 71
     1
 72
     1
  1
{08MAY07}
  7
SLDTEXTSTYLE0
 73
     1
 44
1.0
  0
MTEXT
  5
1E8
330
1F
100
AcDbEntity
  8
0
  6
Continuous
 62
     7
370
     0
100
AcDbMText
 10
0.7455791506000001
 20
7.478708936799999
 30
0.0
 40
0.1666666667
 41
0.0
 71
     1
 72
     1
  1
{MATERIAL: POLYPROPYLENE}
  7
SLDTEXTSTYLE0
 73
     1
 44
1.0
  0
MTEXT
  5
1EA
330
1F
100
AcDbEntity
  8
0
  6
Continuous
 62
     7
370
     0
100
AcDbMText
 10
2.683957529
 20
0.8252963740000001
 30
0.0
 40
0.1377952756
 41
0.0
 71
     1
 72
     1
  1
{ALL TOLERANCES ARE +/-0.015 UNLESS OTHERWISE SPECIFIED.}
  7
SLDTEXTSTYLE2
 73
     1
 44
1.0
  0
INSERT
  5
1EB
330
1F
100
AcDbEntity
  8
0
  6
Continuous
 62
     7
370
     0
100
AcDbBlockReference
  2
Block1
 10
0.6156177606000001
 20
7.417808880299999
 30
0.0
  0
INSERT
  5
1EC
330
1F
100
AcDbEntity
  8
SLD-0
100
AcDbBlockReference
  2
111
 10
3.398083088399999
 20
4.9617936227
 30
0.0
 41
0.4
 42
0.4
 43
0.4
 50
-90.0
  0
INSERT
  5
1ED
330
1F
100
AcDbEntity
  8
SLD-0
100
AcDbBlockReference
  2
111
 10
5.1920464394
 20
5.6857792221
 30
0.0
 41
0.4
 42
0.4
 43
0.4
 50
90.0
  0
ENDSEC
  0
SECTION
  2
OBJECTS
  0
DICTIONARY
  5
C
330
0
100
AcDbDictionary
281
     1
  3
ACAD_GROUP
350
D
  3
ACAD_LAYOUT
350
1A
  3
ACAD_MLINESTYLE
350
17
  3
ACAD_PLOTSETTINGS
350
19
  3
ACAD_PLOTSTYLENAME
350
E
  0
DICTIONARY
  5
D
102
{ACAD_REACTORS
330
C
102
}
330
C
100
AcDbDictionary
281
     1
  0
DICTIONARY
  5
1A
102
{ACAD_REACTORS
330
C
102
}
330
C
100
AcDbDictionary
281
     1
  3
Layout1
350
1E
  3
Layout2
350
26
  3
Model
350
22
  0
DICTIONARY
  5
17
102
{ACAD_REACTORS
330
C
102
}
330
C
100
AcDbDictionary
281
     1
  3
Standard
350
18
  0
DICTIONARY
  5
19
102
{ACAD_REACTORS
330
C
102
}
330
C
100
AcDbDictionary
281
     1
  0
ACDBDICTIONARYWDFLT
  5
E
102
{ACAD_REACTORS
330
C
102
}
330
C
100
AcDbDictionary
281
     1
  3
Normal
350
F
100
AcDbDictionaryWithDefault
340
F
  0
LAYOUT
  5
1E
102
{ACAD_REACTORS
330
1A
102
}
330
1A
100
AcDbPlotSettings
  1

  2

  4

  6

 40
0.0
 41
0.0
 42
0.0
 43
0.0
 44
0.0
 45
0.0
 46
0.0
 47
0.0
 48
0.0
 49
0.0
140
0.0
141
0.0
142
1.0
143
1.0
 70
   688
 72
     0
 73
     0
 74
     5
  7

 75
    16
147
1.0
148
0.0
149
0.0
100
AcDbLayout
  1
Layout1
 70
     1
 71
     1
 10
0.0
 20
0.0
 11
12.0
 21
9.0
 12
0.0
 22
0.0
 32
0.0
 14
1.000000000000000E+20
 24
1.000000000000000E+20
 34
1.000000000000000E+20
 15
-1.000000000000000E+20
 25
-1.000000000000000E+20
 35
-1.000000000000000E+20
146
0.0
 13
0.0
 23
0.0
 33
0.0
 16
1.0
 26
0.0
 36
0.0
 17
0.0
 27
1.0
 37
0.0
 76
     0
330
1B
  0
LAYOUT
  5
26
102
{ACAD_REACTORS
330
1A
102
}
330
1A
100
AcDbPlotSettings
  1

  2

  4

  6

 40
0.0
 41
0.0
 42
0.0
 43
0.0
 44
0.0
 45
0.0
 46
0.0
 47
0.0
 48
0.0
 49
0.0
140
0.0
141
0.0
142
1.0
143
1.0
 70
   688
 72
     0
 73
     0
 74
     5
  7

 75
    16
147
1.0
148
0.0
149
0.0
100
AcDbLayout
  1
Layout2
 70
     1
 71
     2
 10
0.0
 20
0.0
 11
0.0
 21
0.0
 12
0.0
 22
0.0
 32
0.0
 14
0.0
 24
0.0
 34
0.0
 15
0.0
 25
0.0
 35
0.0
146
0.0
 13
0.0
 23
0.0
 33
0.0
 16
1.0
 26
0.0
 36
0.0
 17
0.0
 27
1.0
 37
0.0
 76
     0
330
23
  0
LAYOUT
  5
22
102
{ACAD_REACTORS
330
1A
102
}
330
1A
100
AcDbPlotSettings
  1

  2

  4

  6

 40
0.0
 41
0.0
 42
0.0
 43
0.0
 44
0.0
 45
0.0
 46
0.0
 47
0.0
 48
0.0
 49
0.0
140
0.0
141
0.0
142
1.0
143
1.0
 70
  1712
 72
     0
 73
     0
 74
     0
  7

 75
     0
147
1.0
148
0.0
149
0.0
100
AcDbLayout
  1
Model
 70
     1
 71
     0
 10
0.0
 20
0.0
 11
0.0
 21
0.0
 12
0.0
 22
0.0
 32
0.0
 14
0.0
 24
0.0
 34
0.0
 15
11.0
 25
8.5
 35
0.0
146
0.0
 13
0.0
 23
0.0
 33
0.0
 16
1.0
 26
0.0
 36
0.0
 17
0.0
 27
1.0
 37
0.0
 76
     0
330
1F
  0
MLINESTYLE
  5
18
102
{ACAD_REACTORS
330
17
102
}
330
17
100
AcDbMlineStyle
  2
STANDARD
 70
     0
  3

 62
   256
 51
90.0
 52
90.0
 71
     2
 49
0.5
 62
   256
  6
BYLAYER
 49
-0.5
 62
   256
  6
BYLAYER
  0
ACDBPLACEHOLDER
  5
F
102
{ACAD_REACTORS
330
E
102
}
330
E
  0
ENDSEC
  0
EOF
