  0
SECTION
  2
HEADER
  9
$ACADVER
  1
AC1015
  9
$ACADMAINTVER
 70
     6
  9
$DWGCODEPAGE
  3
ANSI_1252
  9
$INSBASE
 10
0.0
 20
0.0
 30
0.0
  9
$EXTMIN
 10
0.2696126481258361
 20
0.3315369216242203
 30
-0.0015258207003583
  9
$EXTMAX
 10
10.68957781145831
 20
8.252284669769782
 30
0.0000000349246037
  9
$LIMMIN
 10
0.0
 20
0.0
  9
$LIMMAX
 10
0.0
 20
0.0
  9
$ORTHOMODE
 70
     0
  9
$REGENMODE
 70
     1
  9
$FILLMODE
 70
     1
  9
$QTEXTMODE
 70
     0
  9
$MIRRTEXT
 70
     1
  9
$LTSCALE
 40
1.0
  9
$ATTMODE
 70
     1
  9
$TEXTSIZE
 40
0.2
  9
$TRACEWID
 40
0.05
  9
$TEXTSTYLE
  7
Standard
  9
$CLAYER
  8
0
  9
$CELTYPE
  6
ByLayer
  9
$CECOLOR
 62
   256
  9
$CELTSCALE
 40
1.0
  9
$DISPSILH
 70
     0
  9
$DIMSCALE
 40
1.0
  9
$DIMASZ
 40
0.156
  9
$DIMEXO
 40
0.05
  9
$DIMDLI
 40
0.38
  9
$DIMRND
 40
0.0
  9
$DIMDLE
 40
0.0
  9
$DIMEXE
 40
0.125
  9
$DIMTP
 40
0.0
  9
$DIMTM
 40
0.0
  9
$DIMTXT
 40
0.1377952756
  9
$DIMCEN
 40
0.09
  9
$DIMTSZ
 40
0.0
  9
$DIMTOL
 70
     0
  9
$DIMLIM
 70
     0
  9
$DIMTIH
 70
     1
  9
$DIMTOH
 70
     1
  9
$DIMSE1
 70
     0
  9
$DIMSE2
 70
     0
  9
$DIMTAD
 70
     0
  9
$DIMZIN
 70
     0
  9
$DIMBLK
  1

  9
$DIMASO
 70
     1
  9
$DIMSHO
 70
     1
  9
$DIMPOST
  1

  9
$DIMAPOST
  1

  9
$DIMALT
 70
     0
  9
$DIMALTD
 70
     2
  9
$DIMALTF
 40
25.4
  9
$DIMLFAC
 40
1.0
  9
$DIMTOFL
 70
     0
  9
$DIMTVP
 40
0.0
  9
$DIMTIX
 70
     0
  9
$DIMSOXD
 70
     0
  9
$DIMSAH
 70
     0
  9
$DIMBLK1
  1

  9
$DIMBLK2
  1

  9
$DIMSTYLE
  2
Standard
  9
$DIMCLRD
 70
     0
  9
$DIMCLRE
 70
     0
  9
$DIMCLRT
 70
     0
  9
$DIMTFAC
 40
1.0
  9
$DIMGAP
 40
0.06
  9
$DIMJUST
 70
     0
  9
$DIMSD1
 70
     0
  9
$DIMSD2
 70
     0
  9
$DIMTOLJ
 70
     1
  9
$DIMTZIN
 70
     0
  9
$DIMALTZ
 70
     0
  9
$DIMALTTZ
 70
     0
  9
$DIMUPT
 70
     0
  9
$DIMDEC
 70
     4
  9
$DIMTDEC
 70
     4
  9
$DIMALTU
 70
     2
  9
$DIMALTTD
 70
     2
  9
$DIMTXSTY
  7
Standard
  9
$DIMAUNIT
 70
     0
  9
$DIMADEC
 70
     0
  9
$DIMALTRND
 40
0.0
  9
$DIMAZIN
 70
     0
  9
$DIMDSEP
 70
    46
  9
$DIMATFIT
 70
     3
  9
$DIMFRAC
 70
     0
  9
$DIMLDRBLK
  1

  9
$DIMLUNIT
 70
     2
  9
$DIMLWD
 70
    -2
  9
$DIMLWE
 70
    -2
  9
$DIMTMOVE
 70
     0
  9
$LUNITS
 70
     2
  9
$LUPREC
 70
     3
  9
$SKETCHINC
 40
0.1
  9
$FILLETRAD
 40
0.5
  9
$AUNITS
 70
     0
  9
$AUPREC
 70
     0
  9
$MENU
  1
.
  9
$ELEVATION
 40
0.0
  9
$PELEVATION
 40
0.0
  9
$THICKNESS
 40
0.0
  9
$LIMCHECK
 70
     0
  9
$CHAMFERA
 40
0.5
  9
$CHAMFERB
 40
0.5
  9
$CHAMFERC
 40
1.0
  9
$CHAMFERD
 40
0.0
  9
$SKPOLY
 70
     0
  9
$TDCREATE
 40
2454231.469417488
  9
$TDUCREATE
 40
2454231.636084155
  9
$TDUPDATE
 40
2454231.499728542
  9
$TDUUPDATE
 40
2454231.666395208
  9
$TDINDWG
 40
0.0003946181
  9
$TDUSRTIMER
 40
0.0003944329
  9
$USRTIMER
 70
     1
  9
$ANGBASE
 50
0.0
  9
$ANGDIR
 70
     0
  9
$PDMODE
 70
     0
  9
$PDSIZE
 40
-1.0
  9
$PLINEWID
 40
0.0
  9
$SPLFRAME
 70
     0
  9
$SPLINETYPE
 70
     6
  9
$SPLINESEGS
 70
     8
  9
$HANDSEED
  5
1C5
  9
$SURFTAB1
 70
     6
  9
$SURFTAB2
 70
     6
  9
$SURFTYPE
 70
     6
  9
$SURFU
 70
     6
  9
$SURFV
 70
     6
  9
$UCSBASE
  2

  9
$UCSNAME
  2

  9
$UCSORG
 10
0.0
 20
0.0
 30
0.0
  9
$UCSXDIR
 10
1.0
 20
0.0
 30
0.0
  9
$UCSYDIR
 10
0.0
 20
1.0
 30
0.0
  9
$UCSORTHOREF
  2

  9
$UCSORTHOVIEW
 70
     0
  9
$UCSORGTOP
 10
0.0
 20
0.0
 30
0.0
  9
$UCSORGBOTTOM
 10
0.0
 20
0.0
 30
0.0
  9
$UCSORGLEFT
 10
0.0
 20
0.0
 30
0.0
  9
$UCSORGRIGHT
 10
0.0
 20
0.0
 30
0.0
  9
$UCSORGFRONT
 10
0.0
 20
0.0
 30
0.0
  9
$UCSORGBACK
 10
0.0
 20
0.0
 30
0.0
  9
$PUCSBASE
  2

  9
$PUCSNAME
  2

  9
$PUCSORG
 10
0.0
 20
0.0
 30
0.0
  9
$PUCSXDIR
 10
1.0
 20
0.0
 30
0.0
  9
$PUCSYDIR
 10
0.0
 20
1.0
 30
0.0
  9
$PUCSORTHOREF
  2

  9
$PUCSORTHOVIEW
 70
     0
  9
$PUCSORGTOP
 10
0.0
 20
0.0
 30
0.0
  9
$PUCSORGBOTTOM
 10
0.0
 20
0.0
 30
0.0
  9
$PUCSORGLEFT
 10
0.0
 20
0.0
 30
0.0
  9
$PUCSORGRIGHT
 10
0.0
 20
0.0
 30
0.0
  9
$PUCSORGFRONT
 10
0.0
 20
0.0
 30
0.0
  9
$PUCSORGBACK
 10
0.0
 20
0.0
 30
0.0
  9
$USERI1
 70
     0
  9
$USERI2
 70
     0
  9
$USERI3
 70
     0
  9
$USERI4
 70
     0
  9
$USERI5
 70
     0
  9
$USERR1
 40
0.0
  9
$USERR2
 40
0.0
  9
$USERR3
 40
0.0
  9
$USERR4
 40
0.0
  9
$USERR5
 40
0.0
  9
$WORLDVIEW
 70
     1
  9
$SHADEDGE
 70
     3
  9
$SHADEDIF
 70
    70
  9
$TILEMODE
 70
     1
  9
$MAXACTVP
 70
    64
  9
$PINSBASE
 10
0.0
 20
0.0
 30
0.0
  9
$PLIMCHECK
 70
     0
  9
$PEXTMIN
 10
1.000000000000000E+20
 20
1.000000000000000E+20
 30
1.000000000000000E+20
  9
$PEXTMAX
 10
-1.000000000000000E+20
 20
-1.000000000000000E+20
 30
-1.000000000000000E+20
  9
$PLIMMIN
 10
0.0
 20
0.0
  9
$PLIMMAX
 10
12.0
 20
9.0
  9
$UNITMODE
 70
     0
  9
$VISRETAIN
 70
     1
  9
$PLINEGEN
 70
     0
  9
$PSLTSCALE
 70
     1
  9
$TREEDEPTH
 70
  3020
  9
$CMLSTYLE
  2
Standard
  9
$CMLJUST
 70
     0
  9
$CMLSCALE
 40
1.0
  9
$PROXYGRAPHICS
 70
     1
  9
$MEASUREMENT
 70
     0
  9
$CELWEIGHT
370
    -1
  9
$ENDCAPS
280
     0
  9
$JOINSTYLE
280
     0
  9
$LWDISPLAY
290
     1
  9
$INSUNITS
 70
     1
  9
$HYPERLINKBASE
  1

  9
$STYLESHEET
  1

  9
$XEDIT
290
     1
  9
$CEPSNTYPE
380
     0
  9
$PSTYLEMODE
290
     1
  9
$FINGERPRINTGUID
  2
{DFB78C28-C77E-460D-875A-F58B95CCB708}
  9
$VERSIONGUID
  2
{E5BBE2B5-9436-4DB9-9CA4-14757D34D9E9}
  9
$EXTNAMES
290
     1
  9
$PSVPSCALE
 40
0.0
  9
$OLESTARTUP
290
     0
  0
ENDSEC
  0
SECTION
  2
CLASSES
  0
CLASS
  1
ACDBDICTIONARYWDFLT
  2
AcDbDictionaryWithDefault
  3
AutoCAD 2000
 90
        0
280
     0
281
     0
  0
CLASS
  1
ACDBPLACEHOLDER
  2
AcDbPlaceHolder
  3
AutoCAD 2000
 90
        0
280
     0
281
     0
  0
CLASS
  1
LAYOUT
  2
AcDbLayout
  3
AutoCAD 2000
 90
        0
280
     0
281
     0
  0
ENDSEC
  0
SECTION
  2
TABLES
  0
TABLE
  2
VPORT
  5
8
330
0
100
AcDbSymbolTable
 70
     2
  0
VPORT
  5
1C4
330
8
100
AcDbSymbolTableRecord
100
AcDbViewportTableRecord
  2
*Active
 70
     0
 10
0.0
 20
0.0
 11
1.0
 21
1.0
 12
5.479595229792076
 22
4.291910795697001
 13
0.0
 23
0.0
 14
0.5
 24
0.5
 15
0.5
 25
0.5
 16
0.0
 26
0.0
 36
1.0
 17
0.0
 27
0.0
 37
0.0
 40
7.978704438985651
 41
1.536019536019536
 42
50.0
 43
0.0
 44
0.0
 50
0.0
 51
0.0
 71
     0
 72
  2000
 73
     1
 74
     3
 75
     0
 76
     0
 77
     0
 78
     0
281
     0
 65
     1
110
0.0
120
0.0
130
0.0
111
1.0
121
0.0
131
0.0
112
0.0
122
1.0
132
0.0
 79
     0
146
0.0
  0
ENDTAB
  0
TABLE
  2
LTYPE
  5
5
330
0
100
AcDbSymbolTable
 70
     6
  0
LTYPE
  5
14
330
5
100
AcDbSymbolTableRecord
100
AcDbLinetypeTableRecord
  2
ByBlock
 70
     0
  3

 72
    65
 73
     0
 40
0.0
  0
LTYPE
  5
15
330
5
100
AcDbSymbolTableRecord
100
AcDbLinetypeTableRecord
  2
ByLayer
 70
     0
  3

 72
    65
 73
     0
 40
0.0
  0
LTYPE
  5
16
330
5
100
AcDbSymbolTableRecord
100
AcDbLinetypeTableRecord
  2
Continuous
 70
     0
  3
Solid line
 72
    65
 73
     0
 40
0.0
  0
LTYPE
  5
2A
330
5
100
AcDbSymbolTableRecord
100
AcDbLinetypeTableRecord
  2
HIDDEN
 70
     0
  3
Hidden __ __ __ __ __ __ __ __ __ __ __ __ __ __
 72
    65
 73
     2
 40
0.075
 49
0.05
 74
     0
 49
-0.025
 74
     0
  0
LTYPE
  5
2B
330
5
100
AcDbSymbolTableRecord
100
AcDbLinetypeTableRecord
  2
PHANTOM
 70
     0
  3
Phantom ______  __  __  ______  __  __  ______
 72
    65
 73
     6
 40
0.5
 49
0.25
 74
     0
 49
-0.05
 74
     0
 49
0.05
 74
     0
 49
-0.05
 74
     0
 49
0.05
 74
     0
 49
-0.05
 74
     0
  0
LTYPE
  5
2C
330
5
100
AcDbSymbolTableRecord
100
AcDbLinetypeTableRecord
  2
CENTER
 70
     0
  3
Center ____ _ ____ _ ____ _ ____ _ ____ _ ____
 72
    65
 73
     4
 40
0.4
 49
0.25
 74
     0
 49
-0.05
 74
     0
 49
0.05
 74
     0
 49
-0.05
 74
     0
  0
LTYPE
  5
2D
330
5
100
AcDbSymbolTableRecord
100
AcDbLinetypeTableRecord
  2
CENTERX2
 70
     0
  3
Center (2x) ________  __  ________  __  _____
 72
    65
 73
     4
 40
0.8
 49
0.5
 74
     0
 49
-0.1
 74
     0
 49
0.1
 74
     0
 49
-0.1
 74
     0
  0
LTYPE
  5
2E
330
5
100
AcDbSymbolTableRecord
100
AcDbLinetypeTableRecord
  2
DOT2
 70
     0
  3
Dot (.5x) ........................................
 72
    65
 73
     2
 40
0.025
 49
0.0
 74
     0
 49
-0.025
 74
     0
  0
ENDTAB
  0
TABLE
  2
LAYER
  5
2
330
0
100
AcDbSymbolTable
 70
     4
  0
LAYER
  5
10
330
2
100
AcDbSymbolTableRecord
100
AcDbLayerTableRecord
  2
0
 70
     0
 62
     7
  6
Continuous
370
    -3
390
F
  0
LAYER
  5
2F
330
2
100
AcDbSymbolTableRecord
100
AcDbLayerTableRecord
  2
FORMAT
 70
     0
 62
     7
  6
Continuous
370
     0
390
F
  0
LAYER
  5
30
330
2
100
AcDbSymbolTableRecord
100
AcDbLayerTableRecord
  2
SLD-0
 70
     0
 62
     7
  6
Continuous
370
     0
390
F
  0
LAYER
  5
123
330
2
100
AcDbSymbolTableRecord
100
AcDbLayerTableRecord
  2
Defpoints
 70
     0
 62
     7
  6
Continuous
290
     0
370
    -3
390
F
  0
ENDTAB
  0
TABLE
  2
STYLE
  5
3
330
0
100
AcDbSymbolTable
 70
     4
  0
STYLE
  5
11
330
3
100
AcDbSymbolTableRecord
100
AcDbTextStyleTableRecord
  2
Standard
 70
     0
 40
0.0
 41
1.0
 50
0.0
 71
     0
 42
0.2
  3
txt
  4

  0
STYLE
  5
43
330
3
100
AcDbSymbolTableRecord
100
AcDbTextStyleTableRecord
  2
SLDTEXTSTYLE0
 70
     0
 40
0.0
 41
0.75
 50
0.0
 71
     0
 42
0.2
  3
TXT
  4

  0
STYLE
  5
1B7
330
3
100
AcDbSymbolTableRecord
100
AcDbTextStyleTableRecord
  2
SLDTEXTSTYLE1
 70
     0
 40
0.0
 41
0.6964285714000001
 50
0.0
 71
     0
 42
0.2
  3
TXT
  4

  0
STYLE
  5
1BB
330
3
100
AcDbSymbolTableRecord
100
AcDbTextStyleTableRecord
  2
SLDTEXTSTYLE2
 70
     0
 40
0.0
 41
0.7090909091
 50
0.0
 71
     0
 42
0.2
  3
TXT
  4

  0
ENDTAB
  0
TABLE
  2
VIEW
  5
6
330
0
100
AcDbSymbolTable
 70
     0
  0
ENDTAB
  0
TABLE
  2
UCS
  5
7
330
0
100
AcDbSymbolTable
 70
     0
  0
ENDTAB
  0
TABLE
  2
APPID
  5
9
330
0
100
AcDbSymbolTable
 70
     1
  0
APPID
  5
12
330
9
100
AcDbSymbolTableRecord
100
AcDbRegAppTableRecord
  2
ACAD
 70
     0
  0
ENDTAB
  0
TABLE
  2
DIMSTYLE
  5
A
330
0
100
AcDbSymbolTable
 70
     2
100
AcDbDimStyleTable
 71
     0
  0
DIMSTYLE
105
27
330
A
100
AcDbSymbolTableRecord
100
AcDbDimStyleTableRecord
  2
Standard
 70
     0
340
11
  0
DIMSTYLE
105
131
102
{ACAD_REACTORS
330
122
330
13B
330
152
330
167
330
17C
102
}
330
A
100
AcDbSymbolTableRecord
100
AcDbDimStyleTableRecord
  2
SLDDIMSTYLE0
 70
     0
 41
0.156
 44
0.0
 78
    12
140
0.1377952756
147
0.0344488189
173
     1
271
     3
272
     3
284
    12
340
43
  0
ENDTAB
  0
TABLE
  2
BLOCK_RECORD
  5
1
330
0
100
AcDbSymbolTable
 70
    18
  0
BLOCK_RECORD
  5
1F
330
1
100
AcDbSymbolTableRecord
100
AcDbBlockTableRecord
  2
*Model_Space
340
22
  0
BLOCK_RECORD
  5
1B
330
1
100
AcDbSymbolTableRecord
100
AcDbBlockTableRecord
  2
*Paper_Space
340
1E
  0
BLOCK_RECORD
  5
23
330
1
100
AcDbSymbolTableRecord
100
AcDbBlockTableRecord
  2
*Paper_Space0
340
26
  0
BLOCK_RECORD
  5
31
330
1
100
AcDbSymbolTableRecord
100
AcDbBlockTableRecord
  2
Block1
340
0
102
{BLKREFS
331
1BD
102
}
  0
BLOCK_RECORD
  5
34
330
1
100
AcDbSymbolTableRecord
100
AcDbBlockTableRecord
  2
scott
340
0
  0
BLOCK_RECORD
  5
40
330
1
100
AcDbSymbolTableRecord
100
AcDbBlockTableRecord
  2
SW_NOTE_0
340
0
102
{BLKREFS
331
46
102
}
  0
BLOCK_RECORD
  5
47
330
1
100
AcDbSymbolTableRecord
100
AcDbBlockTableRecord
  2
SW_NOTE_1
340
0
102
{BLKREFS
331
4C
102
}
  0
BLOCK_RECORD
  5
4D
330
1
100
AcDbSymbolTableRecord
100
AcDbBlockTableRecord
  2
SW_NOTE_2
340
0
102
{BLKREFS
331
52
102
}
  0
BLOCK_RECORD
  5
56
330
1
100
AcDbSymbolTableRecord
100
AcDbBlockTableRecord
  2
111
340
0
102
{BLKREFS
331
1BE
331
1BF
102
}
  0
BLOCK_RECORD
  5
124
330
1
100
AcDbSymbolTableRecord
100
AcDbBlockTableRecord
  2
*D7
340
0
  0
BLOCK_RECORD
  5
13C
330
1
100
AcDbSymbolTableRecord
100
AcDbBlockTableRecord
  2
*D8
340
0
  0
BLOCK_RECORD
  5
153
330
1
100
AcDbSymbolTableRecord
100
AcDbBlockTableRecord
  2
*D9
340
0
  0
BLOCK_RECORD
  5
168
330
1
100
AcDbSymbolTableRecord
100
AcDbBlockTableRecord
  2
*D10
340
0
  0
BLOCK_RECORD
  5
17D
330
1
100
AcDbSymbolTableRecord
100
AcDbBlockTableRecord
  2
*D11
340
0
  0
BLOCK_RECORD
  5
191
330
1
100
AcDbSymbolTableRecord
100
AcDbBlockTableRecord
  2
SW_NOTE_3
340
0
102
{BLKREFS
331
196
102
}
  0
BLOCK_RECORD
  5
197
330
1
100
AcDbSymbolTableRecord
100
AcDbBlockTableRecord
  2
SW_NOTE_4
340
0
102
{BLKREFS
331
19C
102
}
  0
BLOCK_RECORD
  5
19D
330
1
100
AcDbSymbolTableRecord
100
AcDbBlockTableRecord
  2
SW_NOTE_5
340
0
102
{BLKREFS
331
1A2
102
}
  0
BLOCK_RECORD
  5
1A4
330
1
100
AcDbSymbolTableRecord
100
AcDbBlockTableRecord
  2
SW_NOTE_6
340
0
102
{BLKREFS
331
1A9
102
}
  0
BLOCK_RECORD
  5
1AA
330
1
100
AcDbSymbolTableRecord
100
AcDbBlockTableRecord
  2
SW_NOTE_7
340
0
102
{BLKREFS
331
1AF
102
}
  0
BLOCK_RECORD
  5
1B0
330
1
100
AcDbSymbolTableRecord
100
AcDbBlockTableRecord
  2
SW_NOTE_8
340
0
102
{BLKREFS
331
1B5
102
}
  0
ENDTAB
  0
ENDSEC
  0
SECTION
  2
BLOCKS
  0
BLOCK
  5
20
330
1F
100
AcDbEntity
  8
0
100
AcDbBlockBegin
  2
*Model_Space
 70
     0
 10
0.0
 20
0.0
 30
0.0
  3
*Model_Space
  1

  0
ENDBLK
  5
21
330
1F
100
AcDbEntity
  8
0
100
AcDbBlockEnd
  0
BLOCK
  5
1C
330
1B
100
AcDbEntity
 67
     1
  8
0
100
AcDbBlockBegin
  2
*Paper_Space
 70
     0
 10
0.0
 20
0.0
 30
0.0
  3
*Paper_Space
  1

  0
ENDBLK
  5
1D
330
1B
100
AcDbEntity
 67
     1
  8
0
100
AcDbBlockEnd
  0
BLOCK
  5
24
330
23
100
AcDbEntity
  8
0
100
AcDbBlockBegin
  2
*Paper_Space0
 70
     0
 10
0.0
 20
0.0
 30
0.0
  3
*Paper_Space0
  1

  0
ENDBLK
  5
25
330
23
100
AcDbEntity
  8
0
100
AcDbBlockEnd
  0
BLOCK
  5
32
330
31
100
AcDbEntity
  8
0
100
AcDbBlockBegin
  2
Block1
 70
     0
 10
0.0
 20
0.0
 30
0.0
  3
Block1
  1

  0
ENDBLK
  5
33
330
31
100
AcDbEntity
  8
0
100
AcDbBlockEnd
  0
BLOCK
  5
35
330
34
100
AcDbEntity
  8
0
100
AcDbBlockBegin
  2
scott
 70
     0
 10
0.0
 20
0.0
 30
0.0
  3
scott
  1

  0
LINE
  5
37
330
34
100
AcDbEntity
  8
0
  6
Continuous
 62
     7
370
     0
100
AcDbLine
 10
4.187999999999999
 20
0.4060000000000001
 30
0.0
 11
4.187999999999999
 21
0.0
 31
0.0
  0
LINE
  5
38
330
34
100
AcDbEntity
  8
0
  6
Continuous
 62
     7
370
     0
100
AcDbLine
 10
4.25
 20
0.4060000000000001
 30
0.0
 11
4.25
 21
0.0
 31
0.0
  0
LINE
  5
39
330
34
100
AcDbEntity
  8
0
  6
Continuous
 62
     7
370
     0
100
AcDbLine
 10
10.43799999999999
 20
0.4060000000000001
 30
0.0
 11
0.062
 21
0.4060000000000001
 31
0.0
  0
LINE
  5
3A
330
34
100
AcDbEntity
  8
0
  6
Continuous
 62
     7
370
     0
100
AcDbLine
 10
5.0
 20
0.4060000000000001
 30
0.0
 11
5.0
 21
0.0
 31
0.0
  0
LINE
  5
3B
330
34
100
AcDbEntity
  8
0
  6
Continuous
 62
     7
370
     0
100
AcDbLine
 10
10.43799999999999
 20
0.0
 30
0.0
 11
0.062
 21
0.0
 31
0.0
  0
LINE
  5
3C
330
34
100
AcDbEntity
  8
0
  6
Continuous
 62
     7
370
     0
100
AcDbLine
 10
0.812
 20
0.4060000000000001
 30
0.0
 11
0.812
 21
0.0
 31
0.0
  0
LINE
  5
3D
330
34
100
AcDbEntity
  8
0
  6
Continuous
 62
     7
370
     0
100
AcDbLine
 10
8.375999999999999
 20
0.4060000000000001
 30
0.0
 11
8.375999999999999
 21
0.0
 31
0.0
  0
LINE
  5
3E
330
34
100
AcDbEntity
  8
0
  6
Continuous
 62
     7
370
     0
100
AcDbLine
 10
8.437999999999998
 20
0.4060000000000001
 30
0.0
 11
8.437999999999998
 21
0.0
 31
0.0
  0
LINE
  5
3F
330
34
100
AcDbEntity
  8
0
  6
Continuous
 62
     7
370
     0
100
AcDbLine
 10
9.187999999999998
 20
0.4060000000000001
 30
0.0
 11
9.187999999999998
 21
0.0
 31
0.0
  0
INSERT
  5
46
330
34
100
AcDbEntity
  8
0
  6
Continuous
 62
     7
370
     0
100
AcDbBlockReference
  2
SW_NOTE_0
 10
4.432413357999999
 20
0.1923935329
 30
0.0
  0
INSERT
  5
4C
330
34
100
AcDbEntity
  8
0
  6
Continuous
 62
     7
370
     0
100
AcDbBlockReference
  2
SW_NOTE_1
 10
8.4291411823
 20
0.1810250503
 30
0.0
  0
INSERT
  5
52
330
34
100
AcDbEntity
  8
0
  6
Continuous
 62
     7
370
     0
100
AcDbBlockReference
  2
SW_NOTE_2
 10
0.2417056006
 20
0.1903734939
 30
0.0
  0
MTEXT
  5
53
330
34
100
AcDbEntity
  8
0
  6
Continuous
 62
     7
370
     0
100
AcDbMText
 10
5.700395190399999
 20
0.3078619997
 30
0.0
 40
0.1875
 41
0.0
 71
     1
 72
     1
  1
{HH-3449/HH-3634}
  7
SLDTEXTSTYLE0
 73
     1
 44
1.0
  0
MTEXT
  5
54
330
34
100
AcDbEntity
  8
0
  6
Continuous
 62
     7
370
     0
100
AcDbMText
 10
1.0107762756
 20
0.2867449987
 30
0.0
 40
0.1875
 41
0.0
 71
     1
 72
     1
  1
{BATTERY CLIP/HOLDER}
  7
SLDTEXTSTYLE0
 73
     1
 44
1.0
  0
MTEXT
  5
55
330
34
100
AcDbEntity
  8
0
  6
Continuous
 62
     7
370
     0
100
AcDbMText
 10
9.279755919699999
 20
0.3054509076
 30
0.0
 40
0.1875
 41
0.0
 71
     1
 72
     1
  1
{08MAY07}
  7
SLDTEXTSTYLE0
 73
     1
 44
1.0
  0
ENDBLK
  5
36
330
34
100
AcDbEntity
  8
0
100
AcDbBlockEnd
  0
BLOCK
  5
41
330
40
100
AcDbEntity
  8
0
100
AcDbBlockBegin
  2
SW_NOTE_0
 70
     0
 10
0.0
 20
0.0
 30
0.0
  3
SW_NOTE_0
  1

  0
MTEXT
  5
44
330
40
100
AcDbEntity
  8
0
  6
Continuous
 62
     7
370
     0
100
AcDbMText
 10
0.0
 20
0.1760119341
 30
0.0
 40
0.1377952756
 41
0.0
 71
     1
 72
     1
  1
{PART}
  7
SLDTEXTSTYLE0
 73
     1
 44
1.0
  0
MTEXT
  5
45
330
40
100
AcDbEntity
  8
0
  6
Continuous
 62
     7
370
     0
100
AcDbMText
 10
0.0643523366
 20
-0.0011534126
 30
0.0
 40
0.1377952756
 41
0.0
 71
     1
 72
     1
  1
{No.}
  7
SLDTEXTSTYLE0
 73
     1
 44
1.0
  0
ENDBLK
  5
42
330
40
100
AcDbEntity
  8
0
100
AcDbBlockEnd
  0
BLOCK
  5
48
330
47
100
AcDbEntity
  8
0
100
AcDbBlockBegin
  2
SW_NOTE_1
 70
     0
 10
0.0
 20
0.0
 30
0.0
  3
SW_NOTE_1
  1

  0
MTEXT
  5
4A
330
47
100
AcDbEntity
  8
0
  6
Continuous
 62
     7
370
     0
100
AcDbMText
 10
0.0
 20
0.1760119341
 30
0.0
 40
0.1377952756
 41
0.0
 71
     1
 72
     1
  1
{REVISION}
  7
SLDTEXTSTYLE0
 73
     1
 44
1.0
  0
MTEXT
  5
4B
330
47
100
AcDbEntity
  8
0
  6
Continuous
 62
     7
370
     0
100
AcDbMText
 10
0.1722201705
 20
-0.0011534126
 30
0.0
 40
0.1377952756
 41
0.0
 71
     1
 72
     1
  1
{DATE}
  7
SLDTEXTSTYLE0
 73
     1
 44
1.0
  0
ENDBLK
  5
49
330
47
100
AcDbEntity
  8
0
100
AcDbBlockEnd
  0
BLOCK
  5
4E
330
4D
100
AcDbEntity
  8
0
100
AcDbBlockBegin
  2
SW_NOTE_2
 70
     0
 10
0.0
 20
0.0
 30
0.0
  3
SW_NOTE_2
  1

  0
MTEXT
  5
50
330
4D
100
AcDbEntity
  8
0
  6
Continuous
 62
     7
370
     0
100
AcDbMText
 10
0.0
 20
0.1760119341
 30
0.0
 40
0.1377952756
 41
0.0
 71
     1
 72
     1
  1
{PART}
  7
SLDTEXTSTYLE0
 73
     1
 44
1.0
  0
MTEXT
  5
51
330
4D
100
AcDbEntity
  8
0
  6
Continuous
 62
     7
370
     0
100
AcDbMText
 10
-0.0513741915
 20
-0.0011534126
 30
0.0
 40
0.1377952756
 41
0.0
 71
     1
 72
     1
  1
{NAME}
  7
SLDTEXTSTYLE0
 73
     1
 44
1.0
  0
ENDBLK
  5
4F
330
4D
100
AcDbEntity
  8
0
100
AcDbBlockEnd
  0
BLOCK
  5
57
330
56
100
AcDbEntity
  8
0
100
AcDbBlockBegin
  2
111
 70
     0
 10
0.0
 20
0.0
 30
0.0
  3
111
  1

  0
ARC
  5
59
330
56
100
AcDbEntity
  8
SLD-0
100
AcDbCircle
 10
-0.4978721965
 20
-0.3622181833
 30
0.0
 40
0.0108267716535705
100
AcDbArc
 50
89.9999999999
 51
270.0000000002
  0
ARC
  5
5A
330
56
100
AcDbEntity
  8
SLD-0
100
AcDbCircle
 10
0.0316553626
 20
-0.3622181833
 30
0.0
 40
0.0108267716536913
100
AcDbArc
 50
250.0000000003
 51
70.0000000004
  0
ARC
  5
5B
330
56
100
AcDbEntity
  8
SLD-0
100
AcDbCircle
 10
-0.4659377771
 20
-0.1811090916
 30
0.0
 40
0.0108267716536151
100
AcDbArc
 50
110.0000000009
 51
290.0000000006
  0
ARC
  5
5C
330
56
100
AcDbEntity
  8
SLD-0
100
AcDbCircle
 10
0.0316553626
 20
0.0
 30
0.0
 40
0.0108267716539515
100
AcDbArc
 50
250.0000000008999
 51
70.000000001
  0
ARC
  5
5D
330
56
100
AcDbEntity
  8
SLD-0
100
AcDbCircle
 10
-0.4659377771
 20
0.1811090916
 30
0.0
 40
0.0108267716536714
100
AcDbArc
 50
109.9999999997
 51
289.9999999993999
  0
ARC
  5
5E
330
56
100
AcDbEntity
  8
SLD-0
100
AcDbCircle
 10
0.0316553626
 20
0.3622181833
 30
0.0
 40
0.0108267716537075
100
AcDbArc
 50
289.9999999997999
 51
70.0000000004
  0
ARC
  5
5F
330
56
100
AcDbEntity
  8
SLD-0
100
AcDbCircle
 10
0.0316553626
 20
0.3622181833
 30
0.0
 40
0.0108267716536604
100
AcDbArc
 50
250.0000000003
 51
50.0000000003
  0
LINE
  5
60
330
56
100
AcDbEntity
  8
SLD-0
100
AcDbLine
 10
0.0316553626
 20
-0.3730449549
 30
0.0
 11
-0.4978721965
 21
-0.3730449549
 31
0.0
  0
LINE
  5
61
330
56
100
AcDbEntity
  8
SLD-0
100
AcDbLine
 10
-0.0297463106
 20
-0.3513914116
 30
0.0
 11
-0.4978721965
 21
-0.3513914116
 31
0.0
  0
LINE
  5
62
330
56
100
AcDbEntity
  8
SLD-0
100
AcDbLine
 10
0.0279523886
 20
-0.3723920207
 30
0.0
 11
-0.4696407511
 21
-0.1912829291
 31
0.0
  0
LINE
  5
63
330
56
100
AcDbEntity
  8
SLD-0
100
AcDbLine
 10
0.0353583366
 20
-0.3520443459
 30
0.0
 11
-0.4342824145000001
 21
-0.1811090916
 31
0.0
  0
LINE
  5
64
330
56
100
AcDbEntity
  8
SLD-0
100
AcDbLine
 10
0.0353583366
 20
-0.0101738374
 30
0.0
 11
-0.4622348032
 21
-0.1912829291
 31
0.0
  0
LINE
  5
65
330
56
100
AcDbEntity
  8
SLD-0
100
AcDbLine
 10
-0.4659377771
 20
-0.1695874819
 30
0.0
 11
-0.4696407511
 21
-0.1709352542
 31
0.0
  0
LINE
  5
66
330
56
100
AcDbEntity
  8
SLD-0
100
AcDbLine
 10
0.0316553626
 20
0.0115216097
 30
0.0
 11
0.0353583366
 21
0.0101738374
 31
0.0
  0
LINE
  5
67
330
56
100
AcDbEntity
  8
SLD-0
100
AcDbLine
 10
-0.4696407511
 20
0.1709352542
 30
0.0
 11
0.0279523886
 21
-0.0101738374
 31
0.0
  0
LINE
  5
68
330
56
100
AcDbEntity
  8
SLD-0
100
AcDbLine
 10
-0.4696407511
 20
-0.1709352542
 30
0.0
 11
0.0
 21
0.0
 31
0.0
  0
LINE
  5
69
330
56
100
AcDbEntity
  8
SLD-0
100
AcDbLine
 10
-0.4622348032
 20
-0.1912829291
 30
0.0
 11
0.0353583366
 21
-0.0101738374
 31
0.0
  0
LINE
  5
6A
330
56
100
AcDbEntity
  8
SLD-0
100
AcDbLine
 10
0.0279523886
 20
-0.0101738374
 30
0.0
 11
-0.4696407511
 21
0.1709352542
 31
0.0
  0
LINE
  5
6B
330
56
100
AcDbEntity
  8
SLD-0
100
AcDbLine
 10
0.0316553626
 20
0.0115216097
 30
0.0
 11
-0.4342824145000001
 21
0.1811090916
 31
0.0
  0
LINE
  5
6C
330
56
100
AcDbEntity
  8
SLD-0
100
AcDbLine
 10
0.0353583366
 20
0.3520443459
 30
0.0
 11
-0.4622348032
 21
0.1709352542
 31
0.0
  0
LINE
  5
6D
330
56
100
AcDbEntity
  8
SLD-0
100
AcDbLine
 10
0.0
 20
0.3622181833
 30
0.0
 11
-0.4696407511
 21
0.1912829291
 31
0.0
  0
LINE
  5
6E
330
56
100
AcDbEntity
  8
SLD-0
100
AcDbLine
 10
-0.4696407511
 20
0.1912829291
 30
0.0
 11
0.0
 21
0.3622181833
 31
0.0
  0
LINE
  5
6F
330
56
100
AcDbEntity
  8
SLD-0
100
AcDbLine
 10
-0.4622348032
 20
0.1709352542
 30
0.0
 11
0.0353583366
 21
0.3520443459
 31
0.0
  0
LINE
  5
70
330
56
100
AcDbEntity
  8
SLD-0
100
AcDbLine
 10
0.0279523886
 20
0.3520443459
 30
0.0
 11
-0.0837565559
 21
0.3927030766
 31
0.0
  0
LINE
  5
71
330
56
100
AcDbEntity
  8
SLD-0
100
AcDbLine
 10
-0.0837565559
 20
0.3927030766
 30
0.0
 11
0.0279523886
 21
0.3520443459
 31
0.0
  0
ENDBLK
  5
58
330
56
100
AcDbEntity
  8
0
100
AcDbBlockEnd
  0
BLOCK
  5
12F
330
124
100
AcDbEntity
  8
0
100
AcDbBlockBegin
  2
*D7
 70
     1
 10
0.0
 20
0.0
 30
0.0
  3
*D7
  1

  0
SOLID
  5
132
330
124
100
AcDbEntity
  8
FORMAT
100
AcDbTrace
 10
5.0172372673
 20
4.7616959949
 30
0.0
 11
5.1732372673
 21
4.7356959949
 31
0.0
 12
5.1732372673
 22
4.787695994899999
 32
0.0
 13
5.1732372673
 23
4.787695994899999
 33
0.0
  0
SOLID
  5
133
330
124
100
AcDbEntity
  8
FORMAT
100
AcDbTrace
 10
7.968896256599999
 20
4.7616959949
 30
0.0
 11
7.812896256599999
 21
4.787695994899999
 31
0.0
 12
7.812896256599999
 22
4.7356959949
 32
0.0
 13
7.812896256599999
 23
4.7356959949
 33
0.0
  0
LINE
  5
134
330
124
100
AcDbEntity
  8
FORMAT
100
AcDbLine
 10
5.0172372673
 20
5.2135409227
 30
0.0
 11
5.0172372673
 21
4.6366959949
 31
0.0
  0
LINE
  5
135
330
124
100
AcDbEntity
  8
FORMAT
100
AcDbLine
 10
7.968896256599999
 20
5.694103608599999
 30
0.0
 11
7.968896256599999
 21
4.6366959949
 31
0.0
  0
LINE
  5
136
330
124
100
AcDbEntity
  8
FORMAT
100
AcDbLine
 10
5.0172372673
 20
4.7616959949
 30
0.0
 11
6.124545057
 21
4.7616959949
 31
0.0
  0
LINE
  5
137
330
124
100
AcDbEntity
  8
FORMAT
100
AcDbLine
 10
7.968896256599999
 20
4.7616959949
 30
0.0
 11
6.8898215049
 21
4.7616959949
 31
0.0
  0
MTEXT
  5
138
330
124
100
AcDbEntity
  8
FORMAT
100
AcDbMText
 10
6.187045057
 20
4.8294001019
 30
0.0
 40
0.1377952756
 41
0.0
 71
     1
 72
     1
  1
{6.0}
  7
SLDTEXTSTYLE0
 73
     1
 44
1.0
  0
MTEXT
  5
139
330
124
100
AcDbEntity
  8
FORMAT
100
AcDbMText
 10
6.4415835649
 20
4.827294898099999
 30
0.0
 40
0.1377952756
 41
0.0
 71
     1
 72
     1
  1
{%%p}
  7
SLDTEXTSTYLE0
 73
     1
 44
1.0
  0
MTEXT
  5
13A
330
124
100
AcDbEntity
  8
FORMAT
100
AcDbMText
 10
6.572833553699999
 20
4.8294001019
 30
0.0
 40
0.1377952756
 41
0.0
 71
     1
 72
     1
  1
{0.2}
  7
SLDTEXTSTYLE0
 73
     1
 44
1.0
  0
ENDBLK
  5
130
330
124
100
AcDbEntity
  8
0
100
AcDbBlockEnd
  0
BLOCK
  5
148
330
13C
100
AcDbEntity
  8
0
100
AcDbBlockBegin
  2
*D8
 70
     1
 10
0.0
 20
0.0
 30
0.0
  3
*D8
  1

  0
SOLID
  5
14A
330
13C
100
AcDbEntity
  8
FORMAT
100
AcDbTrace
 10
7.633883841599999
 20
5.312902381
 30
0.0
 11
7.477883841599999
 21
5.338902381
 31
0.0
 12
7.477883841599999
 22
5.286902380999999
 32
0.0
 13
7.477883841599999
 23
5.286902380999999
 33
0.0
  0
SOLID
  5
14B
330
13C
100
AcDbEntity
  8
FORMAT
100
AcDbTrace
 10
7.968896256599999
 20
5.312902381
 30
0.0
 11
8.124896256599999
 21
5.286902380999999
 31
0.0
 12
8.124896256599999
 22
5.338902381
 32
0.0
 13
8.124896256599999
 23
5.338902381
 33
0.0
  0
LINE
  5
14C
330
13C
100
AcDbEntity
  8
FORMAT
100
AcDbLine
 10
7.633883841599999
 20
5.658670537799999
 30
0.0
 11
7.633883841599999
 21
5.187902381
 31
0.0
  0
LINE
  5
14D
330
13C
100
AcDbEntity
  8
FORMAT
100
AcDbLine
 10
7.968896256599999
 20
5.694103608599999
 30
0.0
 11
7.968896256599999
 21
5.187902381
 31
0.0
  0
LINE
  5
14E
330
13C
100
AcDbEntity
  8
FORMAT
100
AcDbLine
 10
7.633883841599999
 20
5.312902381
 30
0.0
 11
7.232432219199999
 21
5.312902381
 31
0.0
  0
LINE
  5
14F
330
13C
100
AcDbEntity
  8
FORMAT
100
AcDbLine
 10
7.968896256599999
 20
5.312902381
 30
0.0
 11
8.468896256599999
 21
5.312902381
 31
0.0
  0
MTEXT
  5
150
330
13C
100
AcDbEntity
  8
FORMAT
100
AcDbMText
 10
5.844434342699999
 20
5.270254269599999
 30
0.0
 40
0.1377952756
 41
0.0
 71
     1
 72
     1
  1
{(LEAD LENGTH)}
  7
SLDTEXTSTYLE0
 73
     1
 44
1.0
  0
MTEXT
  5
151
330
13C
100
AcDbEntity
  8
FORMAT
100
AcDbMText
 10
6.395554419899999
 20
5.5326463159
 30
0.0
 40
0.1377952756
 41
0.0
 71
     1
 72
     1
  1
{0.2}
  7
SLDTEXTSTYLE0
 73
     1
 44
1.0
  0
ENDBLK
  5
149
330
13C
100
AcDbEntity
  8
0
100
AcDbBlockEnd
  0
BLOCK
  5
15E
330
153
100
AcDbEntity
  8
0
100
AcDbBlockBegin
  2
*D9
 70
     1
 10
0.0
 20
0.0
 30
0.0
  3
*D9
  1

  0
SOLID
  5
160
330
153
100
AcDbEntity
  8
FORMAT
100
AcDbTrace
 10
2.1310096158
 20
2.430487138
 30
0.0
 11
2.1570096158
 21
2.586487138
 31
0.0
 12
2.1050096158
 22
2.586487138
 32
0.0
 13
2.1050096158
 23
2.586487138
 33
0.0
  0
SOLID
  5
161
330
153
100
AcDbEntity
  8
FORMAT
100
AcDbTrace
 10
2.1310096158
 20
3.6115895002
 30
0.0
 11
2.1050096158
 21
3.455589500199999
 31
0.0
 12
2.1570096158
 22
3.455589500199999
 32
0.0
 13
2.1570096158
 23
3.455589500199999
 33
0.0
  0
LINE
  5
162
330
153
100
AcDbEntity
  8
FORMAT
100
AcDbLine
 10
2.699520731899999
 20
2.430487138
 30
0.0
 11
2.0060096158
 21
2.430487138
 31
0.0
  0
LINE
  5
163
330
153
100
AcDbEntity
  8
FORMAT
100
AcDbLine
 10
2.699520731899999
 20
3.6115895002
 30
0.0
 11
2.0060096158
 21
3.6115895002
 31
0.0
  0
LINE
  5
164
330
153
100
AcDbEntity
  8
FORMAT
100
AcDbLine
 10
2.1310096158
 20
2.430487138
 30
0.0
 11
2.1310096158
 21
2.952978085899999
 31
0.0
  0
LINE
  5
165
330
153
100
AcDbEntity
  8
FORMAT
100
AcDbLine
 10
2.1310096158
 20
3.6115895002
 30
0.0
 11
2.1310096158
 21
3.171638124499999
 31
0.0
  0
MTEXT
  5
166
330
153
100
AcDbEntity
  8
FORMAT
100
AcDbMText
 10
1.952854210399999
 20
3.1289900131
 30
0.0
 40
0.1377952756
 41
0.0
 71
     1
 72
     1
  1
{.933}
  7
SLDTEXTSTYLE0
 73
     1
 44
1.0
  0
ENDBLK
  5
15F
330
153
100
AcDbEntity
  8
0
100
AcDbBlockEnd
  0
BLOCK
  5
173
330
168
100
AcDbEntity
  8
0
100
AcDbBlockBegin
  2
*D10
 70
     1
 10
0.0
 20
0.0
 30
0.0
  3
*D10
  1

  0
SOLID
  5
175
330
168
100
AcDbEntity
  8
FORMAT
100
AcDbTrace
 10
2.7495207319
 20
1.7653813108
 30
0.0
 11
2.905520731899999
 21
1.739381310799999
 31
0.0
 12
2.905520731899999
 22
1.7913813108
 32
0.0
 13
2.905520731899999
 23
1.7913813108
 33
0.0
  0
SOLID
  5
176
330
168
100
AcDbEntity
  8
FORMAT
100
AcDbTrace
 10
5.0172372673
 20
1.7653813108
 30
0.0
 11
4.861237267299999
 21
1.7913813108
 31
0.0
 12
4.861237267299999
 22
1.739381310799999
 32
0.0
 13
4.861237267299999
 23
1.739381310799999
 33
0.0
  0
LINE
  5
177
330
168
100
AcDbEntity
  8
FORMAT
100
AcDbLine
 10
2.7495207319
 20
2.380487138
 30
0.0
 11
2.7495207319
 21
1.6403813108
 31
0.0
  0
LINE
  5
178
330
168
100
AcDbEntity
  8
FORMAT
100
AcDbLine
 10
5.0172372673
 20
2.380487138
 30
0.0
 11
5.0172372673
 21
1.6403813108
 31
0.0
  0
LINE
  5
179
330
168
100
AcDbEntity
  8
FORMAT
100
AcDbLine
 10
2.7495207319
 20
1.7653813108
 30
0.0
 11
3.578556313099999
 21
1.7653813108
 31
0.0
  0
LINE
  5
17A
330
168
100
AcDbEntity
  8
FORMAT
100
AcDbLine
 10
5.0172372673
 20
1.7653813108
 30
0.0
 11
4.161670212699999
 21
1.7653813108
 31
0.0
  0
MTEXT
  5
17B
330
168
100
AcDbEntity
  8
FORMAT
100
AcDbMText
 10
3.641056313099999
 20
1.8320632187
 30
0.0
 40
0.1377952756
 41
0.0
 71
     1
 72
     1
  1
{2.059}
  7
SLDTEXTSTYLE0
 73
     1
 44
1.0
  0
ENDBLK
  5
174
330
168
100
AcDbEntity
  8
0
100
AcDbBlockEnd
  0
BLOCK
  5
188
330
17D
100
AcDbEntity
  8
0
100
AcDbBlockBegin
  2
*D11
 70
     1
 10
0.0
 20
0.0
 30
0.0
  3
*D11
  1

  0
SOLID
  5
18A
330
17D
100
AcDbEntity
  8
FORMAT
100
AcDbTrace
 10
6.353052262999999
 20
1.7653813108
 30
0.0
 11
6.509052262999999
 21
1.739381310799999
 31
0.0
 12
6.509052262999999
 22
1.7913813108
 32
0.0
 13
6.509052262999999
 23
1.7913813108
 33
0.0
  0
SOLID
  5
18B
330
17D
100
AcDbEntity
  8
FORMAT
100
AcDbTrace
 10
7.5813987197
 20
1.7653813108
 30
0.0
 11
7.4253987197
 21
1.7913813108
 31
0.0
 12
7.4253987197
 22
1.739381310799999
 32
0.0
 13
7.4253987197
 23
1.739381310799999
 33
0.0
  0
LINE
  5
18C
330
17D
100
AcDbEntity
  8
FORMAT
100
AcDbLine
 10
6.353052262999999
 20
2.6167076105
 30
0.0
 11
6.353052262999999
 21
1.6403813108
 31
0.0
  0
LINE
  5
18D
330
17D
100
AcDbEntity
  8
FORMAT
100
AcDbLine
 10
7.5813987197
 20
2.6167076105
 30
0.0
 11
7.5813987197
 21
1.6403813108
 31
0.0
  0
LINE
  5
18E
330
17D
100
AcDbEntity
  8
FORMAT
100
AcDbLine
 10
6.353052262999999
 20
1.7653813108
 30
0.0
 11
6.735816817199999
 21
1.7653813108
 31
0.0
  0
LINE
  5
18F
330
17D
100
AcDbEntity
  8
FORMAT
100
AcDbLine
 10
7.5813987197
 20
1.7653813108
 30
0.0
 11
7.217127627999999
 21
1.7653813108
 31
0.0
  0
MTEXT
  5
190
330
17D
100
AcDbEntity
  8
FORMAT
100
AcDbMText
 10
6.798316817199999
 20
1.8320632187
 30
0.0
 40
0.1377952756
 41
0.0
 71
     1
 72
     1
  1
{.964}
  7
SLDTEXTSTYLE0
 73
     1
 44
1.0
  0
ENDBLK
  5
189
330
17D
100
AcDbEntity
  8
0
100
AcDbBlockEnd
  0
BLOCK
  5
192
330
191
100
AcDbEntity
  8
0
100
AcDbBlockBegin
  2
SW_NOTE_3
 70
     0
 10
0.0
 20
0.0
 30
0.0
  3
SW_NOTE_3
  1

  0
MTEXT
  5
194
330
191
100
AcDbEntity
  8
0
  6
Continuous
 62
     7
370
     0
100
AcDbMText
 10
0.0
 20
0.1760119341
 30
0.0
 40
0.1377952756
 41
0.0
 71
     1
 72
     1
  1
{PART}
  7
SLDTEXTSTYLE0
 73
     1
 44
1.0
  0
MTEXT
  5
195
330
191
100
AcDbEntity
  8
0
  6
Continuous
 62
     7
370
     0
100
AcDbMText
 10
0.0643523366
 20
-0.0011534126
 30
0.0
 40
0.1377952756
 41
0.0
 71
     1
 72
     1
  1
{No.}
  7
SLDTEXTSTYLE0
 73
     1
 44
1.0
  0
ENDBLK
  5
193
330
191
100
AcDbEntity
  8
0
100
AcDbBlockEnd
  0
BLOCK
  5
198
330
197
100
AcDbEntity
  8
0
100
AcDbBlockBegin
  2
SW_NOTE_4
 70
     0
 10
0.0
 20
0.0
 30
0.0
  3
SW_NOTE_4
  1

  0
MTEXT
  5
19A
330
197
100
AcDbEntity
  8
0
  6
Continuous
 62
     7
370
     0
100
AcDbMText
 10
0.0
 20
0.1760119341
 30
0.0
 40
0.1377952756
 41
0.0
 71
     1
 72
     1
  1
{REVISION}
  7
SLDTEXTSTYLE0
 73
     1
 44
1.0
  0
MTEXT
  5
19B
330
197
100
AcDbEntity
  8
0
  6
Continuous
 62
     7
370
     0
100
AcDbMText
 10
0.1722201705
 20
-0.0011534126
 30
0.0
 40
0.1377952756
 41
0.0
 71
     1
 72
     1
  1
{DATE}
  7
SLDTEXTSTYLE0
 73
     1
 44
1.0
  0
ENDBLK
  5
199
330
197
100
AcDbEntity
  8
0
100
AcDbBlockEnd
  0
BLOCK
  5
19E
330
19D
100
AcDbEntity
  8
0
100
AcDbBlockBegin
  2
SW_NOTE_5
 70
     0
 10
0.0
 20
0.0
 30
0.0
  3
SW_NOTE_5
  1

  0
MTEXT
  5
1A0
330
19D
100
AcDbEntity
  8
0
  6
Continuous
 62
     7
370
     0
100
AcDbMText
 10
0.0
 20
0.1760119341
 30
0.0
 40
0.1377952756
 41
0.0
 71
     1
 72
     1
  1
{PART}
  7
SLDTEXTSTYLE0
 73
     1
 44
1.0
  0
MTEXT
  5
1A1
330
19D
100
AcDbEntity
  8
0
  6
Continuous
 62
     7
370
     0
100
AcDbMText
 10
-0.0513741915
 20
-0.0011534126
 30
0.0
 40
0.1377952756
 41
0.0
 71
     1
 72
     1
  1
{NAME}
  7
SLDTEXTSTYLE0
 73
     1
 44
1.0
  0
ENDBLK
  5
19F
330
19D
100
AcDbEntity
  8
0
100
AcDbBlockEnd
  0
BLOCK
  5
1A5
330
1A4
100
AcDbEntity
  8
0
100
AcDbBlockBegin
  2
SW_NOTE_6
 70
     0
 10
0.0
 20
0.0
 30
0.0
  3
SW_NOTE_6
  1

  0
MTEXT
  5
1A7
330
1A4
100
AcDbEntity
  8
0
  6
Continuous
 62
     7
370
     0
100
AcDbMText
 10
0.0
 20
0.1760119341
 30
0.0
 40
0.1377952756
 41
0.0
 71
     1
 72
     1
  1
{PART}
  7
SLDTEXTSTYLE0
 73
     1
 44
1.0
  0
MTEXT
  5
1A8
330
1A4
100
AcDbEntity
  8
0
  6
Continuous
 62
     7
370
     0
100
AcDbMText
 10
0.0643523366
 20
-0.0011534126
 30
0.0
 40
0.1377952756
 41
0.0
 71
     1
 72
     1
  1
{No.}
  7
SLDTEXTSTYLE0
 73
     1
 44
1.0
  0
ENDBLK
  5
1A6
330
1A4
100
AcDbEntity
  8
0
100
AcDbBlockEnd
  0
BLOCK
  5
1AB
330
1AA
100
AcDbEntity
  8
0
100
AcDbBlockBegin
  2
SW_NOTE_7
 70
     0
 10
0.0
 20
0.0
 30
0.0
  3
SW_NOTE_7
  1

  0
MTEXT
  5
1AD
330
1AA
100
AcDbEntity
  8
0
  6
Continuous
 62
     7
370
     0
100
AcDbMText
 10
0.0
 20
0.1760119341
 30
0.0
 40
0.1377952756
 41
0.0
 71
     1
 72
     1
  1
{REVISION}
  7
SLDTEXTSTYLE0
 73
     1
 44
1.0
  0
MTEXT
  5
1AE
330
1AA
100
AcDbEntity
  8
0
  6
Continuous
 62
     7
370
     0
100
AcDbMText
 10
0.1722201705
 20
-0.0011534126
 30
0.0
 40
0.1377952756
 41
0.0
 71
     1
 72
     1
  1
{DATE}
  7
SLDTEXTSTYLE0
 73
     1
 44
1.0
  0
ENDBLK
  5
1AC
330
1AA
100
AcDbEntity
  8
0
100
AcDbBlockEnd
  0
BLOCK
  5
1B1
330
1B0
100
AcDbEntity
  8
0
100
AcDbBlockBegin
  2
SW_NOTE_8
 70
     0
 10
0.0
 20
0.0
 30
0.0
  3
SW_NOTE_8
  1

  0
MTEXT
  5
1B3
330
1B0
100
AcDbEntity
  8
0
  6
Continuous
 62
     7
370
     0
100
AcDbMText
 10
0.0
 20
0.1760119341
 30
0.0
 40
0.1377952756
 41
0.0
 71
     1
 72
     1
  1
{PART}
  7
SLDTEXTSTYLE0
 73
     1
 44
1.0
  0
MTEXT
  5
1B4
330
1B0
100
AcDbEntity
  8
0
  6
Continuous
 62
     7
370
     0
100
AcDbMText
 10
-0.0513741915
 20
-0.0011534126
 30
0.0
 40
0.1377952756
 41
0.0
 71
     1
 72
     1
  1
{NAME}
  7
SLDTEXTSTYLE0
 73
     1
 44
1.0
  0
ENDBLK
  5
1B2
330
1B0
100
AcDbEntity
  8
0
100
AcDbBlockEnd
  0
ENDSEC
  0
SECTION
  2
ENTITIES
  0
LINE
  5
72
330
1F
100
AcDbEntity
  8
0
  6
Continuous
 62
     7
370
     0
100
AcDbLine
 10
4.424563706599999
 20
8.192032818499999
 30
0.0
 11
4.424563706599999
 21
7.786032818499999
 31
0.0
  0
LINE
  5
73
330
1F
100
AcDbEntity
  8
0
  6
Continuous
 62
     7
370
     0
100
AcDbLine
 10
4.4865637066
 20
8.192032818499999
 30
0.0
 11
4.4865637066
 21
7.786032818499999
 31
0.0
  0
LINE
  5
74
330
1F
100
AcDbEntity
  8
0
  6
Continuous
 62
     7
370
     0
100
AcDbLine
 10
10.6292515765
 20
8.192032818499999
 30
0.0
 11
0.329927
 21
8.192032818499999
 31
0.0
  0
LINE
  5
75
330
1F
100
AcDbEntity
  8
0
  6
Continuous
 62
     7
370
     0
100
AcDbLine
 10
5.2365637066
 20
8.192032818499999
 30
0.0
 11
5.2365637066
 21
7.786032818499999
 31
0.0
  0
LINE
  5
76
330
1F
100
AcDbEntity
  8
0
  6
Continuous
 62
     7
370
     0
100
AcDbLine
 10
10.6292515765
 20
7.786032818499999
 30
0.0
 11
0.329927
 21
7.786032818499999
 31
0.0
  0
LINE
  5
77
330
1F
100
AcDbEntity
  8
0
  6
Continuous
 62
     7
370
     0
100
AcDbLine
 10
1.048563706599999
 20
8.192032818499999
 30
0.0
 11
1.048563706599999
 21
7.786032818499999
 31
0.0
  0
LINE
  5
78
330
1F
100
AcDbEntity
  8
0
  6
Continuous
 62
     7
370
     0
100
AcDbLine
 10
8.612563706599999
 20
8.192032818499999
 30
0.0
 11
8.612563706599999
 21
7.786032818499999
 31
0.0
  0
LINE
  5
79
330
1F
100
AcDbEntity
  8
0
  6
Continuous
 62
     7
370
     0
100
AcDbLine
 10
8.674563706599998
 20
8.192032818499999
 30
0.0
 11
8.674563706599998
 21
7.786032818499999
 31
0.0
  0
LINE
  5
7A
330
1F
100
AcDbEntity
  8
0
  6
Continuous
 62
     7
370
     0
100
AcDbLine
 10
9.424563706599998
 20
8.192032818499999
 30
0.0
 11
9.424563706599998
 21
7.786032818499999
 31
0.0
  0
LINE
  5
7B
330
1F
100
AcDbEntity
  8
0
  6
Continuous
 62
     7
370
     0
100
AcDbLine
 10
4.424563706599999
 20
8.192032818499999
 30
0.0
 11
4.424563706599999
 21
7.786032818499999
 31
0.0
  0
LINE
  5
7C
330
1F
100
AcDbEntity
  8
0
  6
Continuous
 62
     7
370
     0
100
AcDbLine
 10
4.4865637066
 20
8.192032818499999
 30
0.0
 11
4.4865637066
 21
7.786032818499999
 31
0.0
  0
LINE
  5
7D
330
1F
100
AcDbEntity
  8
0
  6
Continuous
 62
     7
370
     0
100
AcDbLine
 10
9.424563706599998
 20
8.192032818499999
 30
0.0
 11
1.048563706599999
 21
8.192032818499999
 31
0.0
  0
LINE
  5
7E
330
1F
100
AcDbEntity
  8
0
  6
Continuous
 62
     7
370
     0
100
AcDbLine
 10
5.2365637066
 20
8.192032818499999
 30
0.0
 11
5.2365637066
 21
7.786032818499999
 31
0.0
  0
LINE
  5
7F
330
1F
100
AcDbEntity
  8
0
  6
Continuous
 62
     7
370
     0
100
AcDbLine
 10
9.424563706599998
 20
7.786032818499999
 30
0.0
 11
1.048563706599999
 21
7.786032818499999
 31
0.0
  0
LINE
  5
80
330
1F
100
AcDbEntity
  8
0
  6
Continuous
 62
     7
370
     0
100
AcDbLine
 10
1.048563706599999
 20
8.192032818499999
 30
0.0
 11
1.048563706599999
 21
7.786032818499999
 31
0.0
  0
LINE
  5
81
330
1F
100
AcDbEntity
  8
0
  6
Continuous
 62
     7
370
     0
100
AcDbLine
 10
8.612563706599999
 20
8.192032818499999
 30
0.0
 11
8.612563706599999
 21
7.786032818499999
 31
0.0
  0
LINE
  5
82
330
1F
100
AcDbEntity
  8
0
  6
Continuous
 62
     7
370
     0
100
AcDbLine
 10
8.674563706599998
 20
8.192032818499999
 30
0.0
 11
8.674563706599998
 21
7.786032818499999
 31
0.0
  0
LINE
  5
83
330
1F
100
AcDbEntity
  8
0
  6
Continuous
 62
     7
370
     0
100
AcDbLine
 10
9.424563706599998
 20
8.192032818499999
 30
0.0
 11
9.424563706599998
 21
7.786032818499999
 31
0.0
  0
LINE
  5
84
330
1F
100
AcDbEntity
  8
0
  6
Continuous
 62
     7
370
     0
100
AcDbLine
 10
10.6292515765
 20
7.888553036599999
 30
0.0
 11
10.6292515765
 21
7.8632757972
 31
0.0
  0
LINE
  5
85
330
1F
100
AcDbEntity
  8
0
  6
Continuous
 62
     7
370
     0
100
AcDbLine
 10
10.6292515765
 20
7.786032818499999
 30
0.0
 11
10.6292515765
 21
8.192032818499999
 31
0.0
  0
LINE
  5
86
330
1F
100
AcDbEntity
  8
0
  6
Continuous
 62
     7
370
     0
100
AcDbLine
 10
0.269927
 20
8.2520328185
 30
0.0
 11
10.6892515765
 21
8.2520328185
 31
0.0
  0
LINE
  5
87
330
1F
100
AcDbEntity
  8
0
  6
Continuous
 62
     7
370
     0
100
AcDbLine
 10
0.329927
 20
8.1920731707
 30
0.0
 11
0.329927
 21
7.786032818499999
 31
0.0
  0
LINE
  5
88
330
1F
100
AcDbEntity
  8
0
  6
Continuous
 62
     7
370
     0
100
AcDbLine
 10
0.269927
 20
8.2520328185
 30
0.0
 11
0.269927
 21
0.3320731707
 31
0.0
  0
LINE
  5
89
330
1F
100
AcDbEntity
  8
SLD-0
100
AcDbLine
 10
2.7495207319
 20
6.491887379299999
 30
0.0
 11
2.7495207319
 21
5.263540922699999
 31
0.0
  0
LINE
  5
8A
330
1F
100
AcDbEntity
  8
0
  6
Continuous
 62
     7
370
     0
100
AcDbLine
 10
0.269927
 20
0.3320731707
 30
0.0
 11
10.6892515765
 21
0.3320731707
 31
0.0
  0
LINE
  5
8B
330
1F
100
AcDbEntity
  8
0
  6
Continuous
 62
     7
370
     0
100
AcDbLine
 10
10.6892515765
 20
8.2520328185
 30
0.0
 11
10.6892515765
 21
0.3320731707
 31
0.0
  0
LINE
  5
8C
330
1F
100
AcDbEntity
  8
SLD-0
100
AcDbLine
 10
2.7495207319
 20
5.263540922699999
 30
0.0
 11
5.0172372673
 21
5.263540922699999
 31
0.0
  0
LINE
  5
8D
330
1F
100
AcDbEntity
  8
SLD-0
100
AcDbLine
 10
5.0172372673
 20
5.263540922699999
 30
0.0
 11
5.0172372673
 21
6.491887379299999
 31
0.0
  0
LINE
  5
8E
330
1F
100
AcDbEntity
  8
SLD-0
100
AcDbLine
 10
5.0172372673
 20
6.491887379299999
 30
0.0
 11
2.7495207319
 21
6.491887379299999
 31
0.0
  0
LINE
  5
8F
330
1F
100
AcDbEntity
  8
SLD-0
100
AcDbLine
 10
2.7495207319
 20
3.6115895002
 30
0.0
 11
2.7495207319
 21
3.0210383191
 31
0.0
  0
LINE
  5
90
330
1F
100
AcDbEntity
  8
SLD-0
100
AcDbLine
 10
2.8282608893
 20
3.0210383191
 30
0.0
 11
4.9384971098
 21
3.0210383191
 31
0.0
  0
LINE
  5
91
330
1F
100
AcDbEntity
  8
SLD-0
100
AcDbLine
 10
5.0172372673
 20
3.0210383191
 30
0.0
 11
5.0172372673
 21
3.6115895002
 31
0.0
  0
LINE
  5
92
330
1F
100
AcDbEntity
  8
SLD-0
100
AcDbLine
 10
5.0172372673
 20
3.6115895002
 30
0.0
 11
4.9384971098
 21
3.6115895002
 31
0.0
  0
LINE
  5
93
330
1F
100
AcDbEntity
  8
SLD-0
100
AcDbLine
 10
7.5813987197
 20
3.0210383191
 30
0.0
 11
7.5813987197
 21
3.375369027799999
 31
0.0
  0
LINE
  5
94
330
1F
100
AcDbEntity
  8
SLD-0
100
AcDbLine
 10
7.3451782472
 20
3.6115895002
 30
0.0
 11
6.589272735399999
 21
3.6115895002
 31
0.0
  0
LINE
  5
95
330
1F
100
AcDbEntity
  8
SLD-0
100
AcDbLine
 10
6.353052262999999
 20
3.375369027799999
 30
0.0
 11
6.353052262999999
 21
3.0210383191
 31
0.0
  0
LINE
  5
96
330
1F
100
AcDbEntity
  8
SLD-0
100
AcDbLine
 10
2.8282608893
 20
3.3163139097
 30
0.0
 11
2.918834240599999
 21
3.3163139097
 31
0.0
  0
LINE
  5
97
330
1F
100
AcDbEntity
  8
SLD-0
100
AcDbLine
 10
2.8282608893
 20
3.6115895002
 30
0.0
 11
2.8282608893
 21
2.7257627286
 31
0.0
  0
LINE
  5
98
330
1F
100
AcDbEntity
  8
SLD-0
100
AcDbLine
 10
4.9384971098
 20
3.6115895002
 30
0.0
 11
4.9384971098
 21
2.7257627286
 31
0.0
  0
LINE
  5
99
330
1F
100
AcDbEntity
  8
SLD-0
100
AcDbLine
 10
2.8282608893
 20
3.6115895002
 30
0.0
 11
2.7495207319
 21
3.6115895002
 31
0.0
  0
LINE
  5
9A
330
1F
100
AcDbEntity
  8
SLD-0
100
AcDbLine
 10
4.632357828199999
 20
3.6115895002
 30
0.0
 11
4.3391245803
 21
3.6115895002
 31
0.0
  0
LINE
  5
9B
330
1F
100
AcDbEntity
  8
SLD-0
100
AcDbLine
 10
3.4276334188
 20
3.6115895002
 30
0.0
 11
3.134400170899999
 21
3.6115895002
 31
0.0
  0
LINE
  5
9C
330
1F
100
AcDbEntity
  8
SLD-0
100
AcDbLine
 10
3.6431993491
 20
3.3163139097
 30
0.0
 11
4.123558650099999
 21
3.3163139097
 31
0.0
  0
LINE
  5
9D
330
1F
100
AcDbEntity
  8
SLD-0
100
AcDbLine
 10
4.8479237585
 20
3.3163139097
 30
0.0
 11
4.9384971098
 21
3.3163139097
 31
0.0
  0
LINE
  5
9E
330
1F
100
AcDbEntity
  8
SLD-0
100
AcDbLine
 10
2.996541710099999
 20
3.382343379299999
 30
0.0
 11
3.0178389667
 21
3.512545295799999
 31
0.0
  0
LINE
  5
9F
330
1F
100
AcDbEntity
  8
SLD-0
100
AcDbLine
 10
3.565491879599999
 20
3.382343379299999
 30
0.0
 11
3.544194623
 21
3.512545295799999
 31
0.0
  0
LINE
  5
A0
330
1F
100
AcDbEntity
  8
SLD-0
100
AcDbLine
 10
4.770216288999999
 20
3.382343379299999
 30
0.0
 11
4.748919032499999
 21
3.512545295799999
 31
0.0
  0
LINE
  5
A1
330
1F
100
AcDbEntity
  8
SLD-0
100
AcDbLine
 10
4.201266119599999
 20
3.382343379299999
 30
0.0
 11
4.2225633761
 21
3.512545295799999
 31
0.0
  0
LINE
  5
A2
330
1F
100
AcDbEntity
  8
SLD-0
100
AcDbLine
 10
2.8282608893
 20
5.263540922699999
 30
0.0
 11
2.8282608893
 21
6.491887379299999
 31
0.0
  0
LINE
  5
A3
330
1F
100
AcDbEntity
  8
SLD-0
100
AcDbLine
 10
2.9857412043
 20
5.3422810801
 30
0.0
 11
2.9857412043
 21
5.381651158899999
 31
0.0
  0
LINE
  5
A4
330
1F
100
AcDbEntity
  8
SLD-0
100
AcDbLine
 10
3.5762923854
 20
5.3422810801
 30
0.0
 11
3.5762923854
 21
5.381651158899999
 31
0.0
  0
LINE
  5
A5
330
1F
100
AcDbEntity
  8
SLD-0
100
AcDbLine
 10
4.190465613699999
 20
5.3422810801
 30
0.0
 11
4.190465613699999
 21
5.381651158899999
 31
0.0
  0
LINE
  5
A6
330
1F
100
AcDbEntity
  8
SLD-0
100
AcDbLine
 10
4.7810167948
 20
5.3422810801
 30
0.0
 11
4.7810167948
 21
5.381651158899999
 31
0.0
  0
LINE
  5
A7
330
1F
100
AcDbEntity
  8
SLD-0
100
AcDbLine
 10
4.9384971098
 20
5.263540922699999
 30
0.0
 11
4.9384971098
 21
6.491887379299999
 31
0.0
  0
LINE
  5
A8
330
1F
100
AcDbEntity
  8
SLD-0
100
AcDbLine
 10
2.8282608893
 20
5.3422810801
 30
0.0
 11
2.9857412043
 21
5.3422810801
 31
0.0
  0
LINE
  5
A9
330
1F
100
AcDbEntity
  8
SLD-0
100
AcDbLine
 10
4.9384971098
 20
6.4131472219
 30
0.0
 11
4.7810167948
 21
6.4131472219
 31
0.0
  0
LINE
  5
AA
330
1F
100
AcDbEntity
  8
SLD-0
100
AcDbLine
 10
4.6629065586
 20
6.2556669069
 30
0.0
 11
4.30857585
 21
6.2556669069
 31
0.0
  0
LINE
  5
AB
330
1F
100
AcDbEntity
  8
SLD-0
100
AcDbLine
 10
3.1038514405
 20
5.4997613951
 30
0.0
 11
3.4581821492
 21
5.4997613951
 31
0.0
  0
LINE
  5
AC
330
1F
100
AcDbEntity
  8
SLD-0
100
AcDbLine
 10
3.5762923854
 20
5.3422810801
 30
0.0
 11
4.190465613699999
 21
5.3422810801
 31
0.0
  0
LINE
  5
AD
330
1F
100
AcDbEntity
  8
SLD-0
100
AcDbLine
 10
4.7810167948
 20
5.3422810801
 30
0.0
 11
4.9384971098
 21
5.3422810801
 31
0.0
  0
LINE
  5
AE
330
1F
100
AcDbEntity
  8
SLD-0
100
AcDbLine
 10
2.9857412043
 20
6.4131472219
 30
0.0
 11
2.8282608893
 21
6.4131472219
 31
0.0
  0
LINE
  5
AF
330
1F
100
AcDbEntity
  8
SLD-0
100
AcDbLine
 10
4.190465613699999
 20
6.4131472219
 30
0.0
 11
3.5762923854
 21
6.4131472219
 31
0.0
  0
LINE
  5
B0
330
1F
100
AcDbEntity
  8
SLD-0
100
AcDbLine
 10
3.4581821492
 20
6.2556669069
 30
0.0
 11
3.1038514405
 21
6.2556669069
 31
0.0
  0
LINE
  5
B1
330
1F
100
AcDbEntity
  8
SLD-0
100
AcDbLine
 10
4.30857585
 20
5.4997613951
 30
0.0
 11
4.6629065586
 21
5.4997613951
 31
0.0
  0
LINE
  5
B2
330
1F
100
AcDbEntity
  8
SLD-0
100
AcDbLine
 10
2.9857412043
 20
6.373777143099998
 30
0.0
 11
2.9857412043
 21
6.4131472219
 31
0.0
  0
LINE
  5
B3
330
1F
100
AcDbEntity
  8
SLD-0
100
AcDbLine
 10
3.5762923854
 20
6.373777143099998
 30
0.0
 11
3.5762923854
 21
6.4131472219
 31
0.0
  0
LINE
  5
B4
330
1F
100
AcDbEntity
  8
SLD-0
100
AcDbLine
 10
4.190465613699999
 20
6.373777143099998
 30
0.0
 11
4.190465613699999
 21
6.4131472219
 31
0.0
  0
LINE
  5
B5
330
1F
100
AcDbEntity
  8
SLD-0
100
AcDbLine
 10
4.7810167948
 20
6.373777143099998
 30
0.0
 11
4.7810167948
 21
6.4131472219
 31
0.0
  0
LINE
  5
B6
330
1F
100
AcDbEntity
  8
SLD-0
100
AcDbLine
 10
2.8282608893
 20
5.897399190399999
 30
0.0
 11
3.3848305529
 21
5.897399190399999
 31
0.0
  0
LINE
  5
B7
330
1F
100
AcDbEntity
  8
SLD-0
100
AcDbLine
 10
2.8282608893
 20
5.858029111599999
 30
0.0
 11
3.3848305529
 21
5.858029111599999
 31
0.0
  0
LINE
  5
B8
330
1F
100
AcDbEntity
  8
SLD-0
100
AcDbLine
 10
3.3848305529
 20
5.897399190399999
 30
0.0
 11
3.3848305529
 21
5.858029111599999
 31
0.0
  0
LINE
  5
B9
330
1F
100
AcDbEntity
  8
SLD-0
100
AcDbLine
 10
4.381927446299999
 20
5.897399190399999
 30
0.0
 11
4.381927446299999
 21
5.858029111599999
 31
0.0
  0
LINE
  5
BA
330
1F
100
AcDbEntity
  8
SLD-0
100
AcDbLine
 10
3.3848305529
 20
5.897399190399999
 30
0.0
 11
4.9384971098
 21
5.897399190399999
 31
0.0
  0
LINE
  5
BB
330
1F
100
AcDbEntity
  8
SLD-0
100
AcDbLine
 10
3.3848305529
 20
5.858029111599999
 30
0.0
 11
4.9384971098
 21
5.858029111599999
 31
0.0
  0
LINE
  5
BC
330
1F
100
AcDbEntity
  8
SLD-0
100
AcDbLine
 10
7.633883841599999
 20
6.0113246934
 30
0.0
 11
7.968896256599999
 21
6.0113246934
 31
0.0
  0
LINE
  5
BD
330
1F
100
AcDbEntity
  8
SLD-0
100
AcDbLine
 10
7.633883841599999
 20
5.7441036086
 30
0.0
 11
7.968896256599999
 21
5.7441036086
 31
0.0
  0
LINE
  5
BE
330
1F
100
AcDbEntity
  8
SLD-0
100
AcDbLine
 10
4.9366492164
 20
5.5489739935
 30
0.0
 11
4.9366492164
 21
5.6513361982
 31
0.0
  0
LINE
  5
BF
330
1F
100
AcDbEntity
  8
SLD-0
100
AcDbLine
 10
4.8894051219
 20
5.5489739935
 30
0.0
 11
4.8894051219
 21
5.6513361982
 31
0.0
  0
LINE
  5
C0
330
1F
100
AcDbEntity
  8
SLD-0
100
AcDbLine
 10
4.9366492164
 20
5.6513361982
 30
0.0
 11
4.8894051219
 21
5.6513361982
 31
0.0
  0
LINE
  5
C1
330
1F
100
AcDbEntity
  8
SLD-0
100
AcDbLine
 10
4.9366492164
 20
5.5489739935
 30
0.0
 11
4.8894051219
 21
5.5489739935
 31
0.0
  0
LINE
  5
C2
330
1F
100
AcDbEntity
  8
SLD-0
100
AcDbLine
 10
2.8282608893
 20
6.2044858045
 30
0.0
 11
2.8282608893
 21
6.1021235998
 31
0.0
  0
LINE
  5
C3
330
1F
100
AcDbEntity
  8
SLD-0
100
AcDbLine
 10
2.875504983799999
 20
6.2044858045
 30
0.0
 11
2.875504983799999
 21
6.1021235998
 31
0.0
  0
LINE
  5
C4
330
1F
100
AcDbEntity
  8
SLD-0
100
AcDbLine
 10
2.8282608893
 20
6.2044858045
 30
0.0
 11
2.875504983799999
 21
6.2044858045
 31
0.0
  0
LINE
  5
C5
330
1F
100
AcDbEntity
  8
SLD-0
100
AcDbLine
 10
2.8282608893
 20
6.1021235998
 30
0.0
 11
2.875504983799999
 21
6.1021235998
 31
0.0
  0
LINE
  5
C6
330
1F
100
AcDbEntity
  8
SLD-0
100
AcDbLine
 10
3.088743742799999
 20
6.1533047022
 30
0.0
 11
3.210790986899999
 21
6.1533047022
 31
0.0
  0
LINE
  5
C7
330
1F
100
AcDbEntity
  8
SLD-0
100
AcDbLine
 10
3.1497673648
 20
6.214328324199999
 30
0.0
 11
3.1497673648
 21
6.0922810801
 31
0.0
  0
LINE
  5
C8
330
1F
100
AcDbEntity
  8
SLD-0
100
AcDbLine
 10
4.5527909487
 20
5.600155095899999
 30
0.0
 11
4.674838192799999
 21
5.600155095899999
 31
0.0
  0
LINE
  5
C9
330
1F
100
AcDbEntity
  8
SLD-0
100
AcDbLine
 10
4.613814570699999
 20
5.661178717899999
 30
0.0
 11
4.613814570699999
 21
5.5391314738
 31
0.0
  0
LINE
  5
CA
330
1F
100
AcDbEntity
  8
SLD-0
100
AcDbLine
 10
5.0172372673
 20
6.046757764199999
 30
0.0
 11
6.631716510399999
 21
6.046757764199999
 31
0.0
  0
LINE
  5
CB
330
1F
100
AcDbEntity
  8
SLD-0
100
AcDbLine
 10
5.0172372673
 20
5.975891622499999
 30
0.0
 11
6.631716510399999
 21
5.975891622499999
 31
0.0
  0
LINE
  5
CC
330
1F
100
AcDbEntity
  8
SLD-0
100
AcDbLine
 10
6.8555742828
 20
5.975891622499999
 30
0.0
 11
7.633883841599999
 21
5.975891622499999
 31
0.0
  0
LINE
  5
CD
330
1F
100
AcDbEntity
  8
SLD-0
100
AcDbLine
 10
7.633883841599999
 20
5.975891622499999
 30
0.0
 11
7.633883841599999
 21
6.046757764199999
 31
0.0
  0
LINE
  5
CE
330
1F
100
AcDbEntity
  8
SLD-0
100
AcDbLine
 10
7.633883841599999
 20
6.046757764199999
 30
0.0
 11
6.8555742828
 21
6.046757764199999
 31
0.0
  0
LINE
  5
CF
330
1F
100
AcDbEntity
  8
SLD-0
100
AcDbLine
 10
5.0172372673
 20
5.708670537799999
 30
0.0
 11
6.631716510399999
 21
5.708670537799999
 31
0.0
  0
LINE
  5
D0
330
1F
100
AcDbEntity
  8
SLD-0
100
AcDbLine
 10
5.0172372673
 20
5.7795366795
 30
0.0
 11
6.631716510399999
 21
5.7795366795
 31
0.0
  0
LINE
  5
D1
330
1F
100
AcDbEntity
  8
SLD-0
100
AcDbLine
 10
6.8555742828
 20
5.7795366795
 30
0.0
 11
7.633883841599999
 21
5.7795366795
 31
0.0
  0
LINE
  5
D2
330
1F
100
AcDbEntity
  8
SLD-0
100
AcDbLine
 10
7.633883841599999
 20
5.7795366795
 30
0.0
 11
7.633883841599999
 21
5.708670537799999
 31
0.0
  0
LINE
  5
D3
330
1F
100
AcDbEntity
  8
SLD-0
100
AcDbLine
 10
7.633883841599999
 20
5.708670537799999
 30
0.0
 11
6.8555742828
 21
5.708670537799999
 31
0.0
  0
LINE
  5
D4
330
1F
100
AcDbEntity
  8
SLD-0
100
AcDbLine
 10
3.088743742799999
 20
5.6021235998
 30
0.0
 11
3.210790986899999
 21
5.6021235998
 31
0.0
  0
LINE
  5
D5
330
1F
100
AcDbEntity
  8
SLD-0
100
AcDbLine
 10
4.5527909487
 20
6.1552732061
 30
0.0
 11
4.674838192799999
 21
6.1552732061
 31
0.0
  0
LINE
  5
D6
330
1F
100
AcDbEntity
  8
SLD-0
100
AcDbLine
 10
2.8460977949
 20
5.713837332399999
 30
0.0
 11
2.8460977949
 21
6.1021235998
 31
0.0
  0
LINE
  5
D7
330
1F
100
AcDbEntity
  8
SLD-0
100
AcDbLine
 10
2.8547592122
 20
5.713837332399999
 30
0.0
 11
2.8547592122
 21
6.1021235998
 31
0.0
  0
LINE
  5
D8
330
1F
100
AcDbEntity
  8
SLD-0
100
AcDbLine
 10
2.7495207319
 20
2.430487138
 30
0.0
 11
2.7495207319
 21
3.0210383191
 31
0.0
  0
LINE
  5
D9
330
1F
100
AcDbEntity
  8
SLD-0
100
AcDbLine
 10
2.8282608893
 20
2.430487138
 30
0.0
 11
2.8282608893
 21
2.7257627286
 31
0.0
  0
LINE
  5
DA
330
1F
100
AcDbEntity
  8
SLD-0
100
AcDbLine
 10
5.0172372673
 20
3.0210383191
 30
0.0
 11
5.0172372673
 21
2.430487138
 31
0.0
  0
LINE
  5
DB
330
1F
100
AcDbEntity
  8
SLD-0
100
AcDbLine
 10
5.0172372673
 20
2.430487138
 30
0.0
 11
4.9384971098
 21
2.430487138
 31
0.0
  0
LINE
  5
DC
330
1F
100
AcDbEntity
  8
SLD-0
100
AcDbLine
 10
4.632357828199999
 20
2.430487138
 30
0.0
 11
4.3391245803
 21
2.430487138
 31
0.0
  0
LINE
  5
DD
330
1F
100
AcDbEntity
  8
SLD-0
100
AcDbLine
 10
3.4276334188
 20
2.430487138
 30
0.0
 11
3.134400170899999
 21
2.430487138
 31
0.0
  0
LINE
  5
DE
330
1F
100
AcDbEntity
  8
SLD-0
100
AcDbLine
 10
2.8282608893
 20
2.430487138
 30
0.0
 11
2.7495207319
 21
2.430487138
 31
0.0
  0
LINE
  5
DF
330
1F
100
AcDbEntity
  8
SLD-0
100
AcDbLine
 10
2.8282608893
 20
2.7257627286
 30
0.0
 11
2.918834240599999
 21
2.7257627286
 31
0.0
  0
LINE
  5
E0
330
1F
100
AcDbEntity
  8
SLD-0
100
AcDbLine
 10
3.6431993491
 20
2.7257627286
 30
0.0
 11
4.123558650099999
 21
2.7257627286
 31
0.0
  0
LINE
  5
E1
330
1F
100
AcDbEntity
  8
SLD-0
100
AcDbLine
 10
4.8479237585
 20
2.7257627286
 30
0.0
 11
4.9384971098
 21
2.7257627286
 31
0.0
  0
LINE
  5
E2
330
1F
100
AcDbEntity
  8
SLD-0
100
AcDbLine
 10
4.9384971098
 20
2.430487138
 30
0.0
 11
4.9384971098
 21
2.7257627286
 31
0.0
  0
LINE
  5
E3
330
1F
100
AcDbEntity
  8
SLD-0
100
AcDbLine
 10
2.996541710099999
 20
2.659733258899999
 30
0.0
 11
3.0178389667
 21
2.529531342499999
 31
0.0
  0
LINE
  5
E4
330
1F
100
AcDbEntity
  8
SLD-0
100
AcDbLine
 10
3.565491879599999
 20
2.659733258899999
 30
0.0
 11
3.544194623
 21
2.529531342499999
 31
0.0
  0
LINE
  5
E5
330
1F
100
AcDbEntity
  8
SLD-0
100
AcDbLine
 10
4.770216288999999
 20
2.659733258899999
 30
0.0
 11
4.748919032499999
 21
2.529531342499999
 31
0.0
  0
LINE
  5
E6
330
1F
100
AcDbEntity
  8
SLD-0
100
AcDbLine
 10
4.201266119599999
 20
2.659733258899999
 30
0.0
 11
4.2225633761
 21
2.529531342499999
 31
0.0
  0
LINE
  5
E7
330
1F
100
AcDbEntity
  8
SLD-0
100
AcDbLine
 10
7.5813987197
 20
3.0210383191
 30
0.0
 11
7.5813987197
 21
2.6667076105
 31
0.0
  0
LINE
  5
E8
330
1F
100
AcDbEntity
  8
SLD-0
100
AcDbLine
 10
7.3451782472
 20
2.430487138
 30
0.0
 11
6.589272735399999
 21
2.430487138
 31
0.0
  0
LINE
  5
E9
330
1F
100
AcDbEntity
  8
SLD-0
100
AcDbLine
 10
6.353052262999999
 20
2.6667076105
 30
0.0
 11
6.353052262999999
 21
3.0210383191
 31
0.0
  0
LINE
  5
EA
330
1F
100
AcDbEntity
  8
SLD-0
100
AcDbLine
 10
6.990847538599999
 20
2.801910670699999
 30
0.0
 11
6.943603444099999
 21
2.801910670699999
 31
0.0
  0
LINE
  5
EB
330
1F
100
AcDbEntity
  8
SLD-0
100
AcDbLine
 10
6.990847538599999
 20
2.5499421668
 30
0.0
 11
6.943603444099999
 21
2.5499421668
 31
0.0
  0
LINE
  5
EC
330
1F
100
AcDbEntity
  8
SLD-0
100
AcDbLine
 10
6.943603444099999
 20
2.801910670699999
 30
0.0
 11
6.943603444099999
 21
2.5499421668
 31
0.0
  0
LINE
  5
ED
330
1F
100
AcDbEntity
  8
SLD-0
100
AcDbLine
 10
6.990847538599999
 20
2.801910670699999
 30
0.0
 11
6.990847538599999
 21
2.5499421668
 31
0.0
  0
LINE
  5
EE
330
1F
100
AcDbEntity
  8
SLD-0
100
AcDbLine
 10
3.152397007499999
 20
5.5481910762
 30
0.0
 11
3.144272585099999
 21
5.500545119199999
 31
0.0
  0
LINE
  5
EF
330
1F
100
AcDbEntity
  8
SLD-0
100
AcDbLine
 10
4.6403223195
 20
6.252817387799999
 30
0.0
 11
4.6321978972
 21
6.2051714308
 31
0.0
  0
LINE
  5
F0
330
1F
100
AcDbEntity
  8
0
  6
Continuous
 62
     7
370
     0
100
AcDbLine
 10
0.329927
 20
8.1920731707
 30
0.0
 11
10.629927
 21
8.1920731707
 31
0.0
  0
LINE
  5
F1
330
1F
100
AcDbEntity
  8
0
  6
Continuous
 62
     7
370
     0
100
AcDbLine
 10
0.329927
 20
8.1920731707
 30
0.0
 11
0.329927
 21
0.3920731707
 31
0.0
  0
LINE
  5
F2
330
1F
100
AcDbEntity
  8
0
  6
Continuous
 62
     7
370
     0
100
AcDbLine
 10
10.629927
 20
0.3920731707
 30
0.0
 11
0.329927
 21
0.3920731707
 31
0.0
  0
LINE
  5
F3
330
1F
100
AcDbEntity
  8
0
  6
Continuous
 62
     7
370
     0
100
AcDbLine
 10
10.629927
 20
0.3920731707
 30
0.0
 11
10.629927
 21
8.1920731707
 31
0.0
  0
ARC
  5
F4
330
1F
100
AcDbEntity
  8
SLD-0
100
AcDbCircle
 10
3.134400170899999
 20
3.493479263999999
 30
0.0
 40
0.1181102362204728
100
AcDbArc
 50
90.0
 51
170.7103393122
  0
ARC
  5
F5
330
1F
100
AcDbEntity
  8
SLD-0
100
AcDbCircle
 10
3.4276334188
 20
3.493479263999999
 30
0.0
 40
0.1181102362204722
100
AcDbArc
 50
9.289660687799999
 51
90.0
  0
ARC
  5
F6
330
1F
100
AcDbEntity
  8
SLD-0
100
AcDbCircle
 10
4.3391245803
 20
3.493479263999999
 30
0.0
 40
0.1181102362204728
100
AcDbArc
 50
90.0
 51
170.7103393122
  0
ARC
  5
F7
330
1F
100
AcDbEntity
  8
SLD-0
100
AcDbCircle
 10
4.632357828199999
 20
3.493479263999999
 30
0.0
 40
0.1181102362204722
100
AcDbArc
 50
9.289660687799999
 51
90.0
  0
CIRCLE
  5
F8
330
1F
100
AcDbEntity
  8
SLD-0
100
AcDbCircle
 10
6.715596947
 20
3.366150219499999
 30
0.0
 40
0.1259842519685046
  0
CIRCLE
  5
F9
330
1F
100
AcDbEntity
  8
SLD-0
100
AcDbCircle
 10
6.715596947
 20
3.366150219499999
 30
0.0
 40
0.0590551181102361
  0
CIRCLE
  5
FA
330
1F
100
AcDbEntity
  8
SLD-0
100
AcDbCircle
 10
7.2188540357
 20
3.366150219499999
 30
0.0
 40
0.1259842519685028
  0
CIRCLE
  5
FB
330
1F
100
AcDbEntity
  8
SLD-0
100
AcDbCircle
 10
7.2188540357
 20
3.366150219499999
 30
0.0
 40
0.0590551181102361
  0
CIRCLE
  5
FC
330
1F
100
AcDbEntity
  8
SLD-0
100
AcDbCircle
 10
6.863323570199999
 20
3.152964945199999
 30
0.0
 40
0.0354330708661417
  0
CIRCLE
  5
FD
330
1F
100
AcDbEntity
  8
SLD-0
100
AcDbCircle
 10
7.0711274124
 20
3.152964945199999
 30
0.0
 40
0.0354330708661408
  0
ARC
  5
FE
330
1F
100
AcDbEntity
  8
SLD-0
100
AcDbCircle
 10
6.589272735399999
 20
3.375369027799999
 30
0.0
 40
0.2362204724409454
100
AcDbArc
 50
90.0
 51
180.0
  0
ARC
  5
FF
330
1F
100
AcDbEntity
  8
SLD-0
100
AcDbCircle
 10
7.3451782472
 20
3.375369027799999
 30
0.0
 40
0.2362204724409454
100
AcDbArc
 50
0.0
 51
90.0
  0
ARC
  5
100
330
1F
100
AcDbEntity
  8
SLD-0
100
AcDbCircle
 10
3.1038514405
 20
5.381651158899999
 30
0.0
 40
0.1181102362204731
100
AcDbArc
 50
90.0
 51
180.0
  0
ARC
  5
101
330
1F
100
AcDbEntity
  8
SLD-0
100
AcDbCircle
 10
3.4581821492
 20
5.381651158899999
 30
0.0
 40
0.1181102362204731
100
AcDbArc
 50
0.0
 51
90.0
  0
ARC
  5
102
330
1F
100
AcDbEntity
  8
SLD-0
100
AcDbCircle
 10
4.30857585
 20
5.381651158899999
 30
0.0
 40
0.1181102362204731
100
AcDbArc
 50
90.0
 51
180.0
  0
ARC
  5
103
330
1F
100
AcDbEntity
  8
SLD-0
100
AcDbCircle
 10
4.6629065586
 20
5.381651158899999
 30
0.0
 40
0.1181102362204722
100
AcDbArc
 50
0.0
 51
90.0
  0
ARC
  5
104
330
1F
100
AcDbEntity
  8
SLD-0
100
AcDbCircle
 10
4.6629065586
 20
6.373777143099998
 30
0.0
 40
0.1181102362204873
100
AcDbArc
 50
270.0
 51
360.0
  0
ARC
  5
105
330
1F
100
AcDbEntity
  8
SLD-0
100
AcDbCircle
 10
4.30857585
 20
6.373777143099998
 30
0.0
 40
0.1181102362204722
100
AcDbArc
 50
180.0
 51
270.0
  0
ARC
  5
106
330
1F
100
AcDbEntity
  8
SLD-0
100
AcDbCircle
 10
3.4581821492
 20
6.373777143099998
 30
0.0
 40
0.1181102362204727
100
AcDbArc
 50
270.0
 51
0.0
  0
ARC
  5
107
330
1F
100
AcDbEntity
  8
SLD-0
100
AcDbCircle
 10
3.1038514405
 20
6.373777143099998
 30
0.0
 40
0.1181102362204727
100
AcDbArc
 50
180.0
 51
270.0
  0
CIRCLE
  5
108
330
1F
100
AcDbEntity
  8
SLD-0
100
AcDbCircle
 10
3.1497673648
 20
6.1533047022
 30
0.0
 40
0.0610236220472444
  0
CIRCLE
  5
109
330
1F
100
AcDbEntity
  8
SLD-0
100
AcDbCircle
 10
4.613814570699999
 20
5.600155095899999
 30
0.0
 40
0.0610236220472435
  0
ARC
  5
10A
330
1F
100
AcDbEntity
  8
SLD-0
100
AcDbCircle
 10
6.6258896257
 20
6.0113246934
 30
0.0
 40
0.0359089835038997
100
AcDbArc
 50
279.3385729569
 51
80.66142704310001
  0
ARC
  5
10B
330
1F
100
AcDbEntity
  8
SLD-0
100
AcDbCircle
 10
6.849747398099998
 20
6.0113246934
 30
0.0
 40
0.0359089835039004
100
AcDbArc
 50
279.3385729569
 51
80.66142704310001
  0
ARC
  5
10C
330
1F
100
AcDbEntity
  8
SLD-0
100
AcDbCircle
 10
6.849747398099998
 20
5.7441036086
 30
0.0
 40
0.0359089835038995
100
AcDbArc
 50
279.3385729569
 51
80.66142704310001
  0
ARC
  5
10D
330
1F
100
AcDbEntity
  8
SLD-0
100
AcDbCircle
 10
6.6258896257
 20
5.7441036086
 30
0.0
 40
0.0359089835039023
100
AcDbArc
 50
279.3385729569
 51
80.66142704310001
  0
CIRCLE
  5
10E
330
1F
100
AcDbEntity
  8
SLD-0
100
AcDbCircle
 10
3.1497673648
 20
5.6021235998
 30
0.0
 40
0.0610236220472444
  0
CIRCLE
  5
10F
330
1F
100
AcDbEntity
  8
SLD-0
100
AcDbCircle
 10
4.613814570699999
 20
6.1552732061
 30
0.0
 40
0.0610236220472435
  0
ARC
  5
110
330
1F
100
AcDbEntity
  8
SLD-0
100
AcDbCircle
 10
4.632357828199999
 20
2.548597374299999
 30
0.0
 40
0.1181102362204727
100
AcDbArc
 50
270.0
 51
350.7103393121
  0
ARC
  5
111
330
1F
100
AcDbEntity
  8
SLD-0
100
AcDbCircle
 10
4.3391245803
 20
2.548597374299999
 30
0.0
 40
0.1181102362204727
100
AcDbArc
 50
189.2896606877999
 51
270.0
  0
ARC
  5
112
330
1F
100
AcDbEntity
  8
SLD-0
100
AcDbCircle
 10
3.134400170899999
 20
2.548597374299999
 30
0.0
 40
0.1181102362204727
100
AcDbArc
 50
189.2896606877999
 51
270.0
  0
ARC
  5
113
330
1F
100
AcDbEntity
  8
SLD-0
100
AcDbCircle
 10
3.4276334188
 20
2.548597374299999
 30
0.0
 40
0.1181102362204722
100
AcDbArc
 50
270.0
 51
350.7103393122
  0
ARC
  5
114
330
1F
100
AcDbEntity
  8
SLD-0
100
AcDbCircle
 10
7.3451782472
 20
2.6667076105
 30
0.0
 40
0.2362204724409454
100
AcDbArc
 50
270.0
 51
0.0
  0
ARC
  5
115
330
1F
100
AcDbEntity
  8
SLD-0
100
AcDbCircle
 10
6.589272735399999
 20
2.6667076105
 30
0.0
 40
0.2362204724409454
100
AcDbArc
 50
180.0
 51
270.0
  0
CIRCLE
  5
116
330
1F
100
AcDbEntity
  8
SLD-0
100
AcDbCircle
 10
7.2188540357
 20
2.6759264187
 30
0.0
 40
0.1259842519685028
  0
CIRCLE
  5
117
330
1F
100
AcDbEntity
  8
SLD-0
100
AcDbCircle
 10
7.2188540357
 20
2.6759264187
 30
0.0
 40
0.0590551181102361
  0
CIRCLE
  5
118
330
1F
100
AcDbEntity
  8
SLD-0
100
AcDbCircle
 10
6.863323570199999
 20
2.889111693099999
 30
0.0
 40
0.0354330708661417
  0
CIRCLE
  5
119
330
1F
100
AcDbEntity
  8
SLD-0
100
AcDbCircle
 10
7.0711274124
 20
2.889111693099999
 30
0.0
 40
0.0354330708661408
  0
ARC
  5
11A
330
1F
100
AcDbEntity
  8
SLD-0
100
AcDbCircle
 10
2.918834240599999
 20
2.647022571099999
 30
0.0
 40
0.0787401574803149
100
AcDbArc
 50
9.289660687799999
 51
90.0
  0
ARC
  5
11B
330
1F
100
AcDbEntity
  8
SLD-0
100
AcDbCircle
 10
3.6431993491
 20
2.647022571099999
 30
0.0
 40
0.0787401574803153
100
AcDbArc
 50
90.0
 51
170.7103393122
  0
ARC
  5
11C
330
1F
100
AcDbEntity
  8
SLD-0
100
AcDbCircle
 10
4.123558650099999
 20
2.647022571099999
 30
0.0
 40
0.0787401574803153
100
AcDbArc
 50
9.289660687899999
 51
90.0
  0
ARC
  5
11D
330
1F
100
AcDbEntity
  8
SLD-0
100
AcDbCircle
 10
4.8479237585
 20
2.647022571099999
 30
0.0
 40
0.0787401574803153
100
AcDbArc
 50
90.0
 51
170.7103393120999
  0
ARC
  5
11E
330
1F
100
AcDbEntity
  8
SLD-0
100
AcDbCircle
 10
4.8479237585
 20
3.3950540672
 30
0.0
 40
0.0787401574803144
100
AcDbArc
 50
189.2896606877999
 51
270.0
  0
ARC
  5
11F
330
1F
100
AcDbEntity
  8
SLD-0
100
AcDbCircle
 10
4.123558650099999
 20
3.3950540672
 30
0.0
 40
0.0787401574803148
100
AcDbArc
 50
270.0
 51
350.7103393121
  0
ARC
  5
120
330
1F
100
AcDbEntity
  8
SLD-0
100
AcDbCircle
 10
3.6431993491
 20
3.3950540672
 30
0.0
 40
0.0787401574803153
100
AcDbArc
 50
189.2896606877999
 51
270.0
  0
ARC
  5
121
330
1F
100
AcDbEntity
  8
SLD-0
100
AcDbCircle
 10
2.918834240599999
 20
3.3950540672
 30
0.0
 40
0.0787401574803149
100
AcDbArc
 50
270.0
 51
350.7103393122
  0
DIMENSION
  5
122
330
1F
100
AcDbEntity
  8
FORMAT
100
AcDbDimension
  2
*D7
 10
7.968896256599999
 20
4.7616959949
 30
0.0
 11
6.5071832809
 21
4.7616959949
 31
0.0
 70
   160
  1
6.0%%p0.2
 42
2.9516589893
  3
SLDDIMSTYLE0
100
AcDbAlignedDimension
 13
5.0172372673
 23
5.263540922699999
 33
0.0
 14
7.968896256599999
 24
5.7441036086
 34
0.0
100
AcDbRotatedDimension
1001
ACAD
1000
DSTYLE
1002
{
1070
   284
1070
    12
1070
    78
1070
    12
1070
    41
1040
0.156
1070
    44
1040
0.125
1070
    42
1040
0.05
1070
   147
1040
0.06
1070
   140
1040
0.1377952756
1002
}
  0
DIMENSION
  5
13B
330
1F
100
AcDbEntity
  8
FORMAT
100
AcDbDimension
  2
*D8
 10
7.968896256599999
 20
5.312902381
 30
0.0
 11
6.5071832809
 21
5.312902381
 31
0.0
 70
   160
  1
0.2\P(LEAD LENGTH)
 42
0.3350124149
  3
SLDDIMSTYLE0
100
AcDbAlignedDimension
 13
7.633883841599999
 23
5.708670537799999
 33
0.0
 14
7.968896256599999
 24
5.7441036086
 34
0.0
100
AcDbRotatedDimension
1001
ACAD
1000
DSTYLE
1002
{
1070
   284
1070
    12
1070
    78
1070
    12
1070
    41
1040
0.156
1070
    44
1040
0.125
1070
    42
1040
0.05
1070
   147
1040
0.06
1070
   140
1040
0.1377952756
1002
}
  0
DIMENSION
  5
152
330
1F
100
AcDbEntity
  8
FORMAT
100
AcDbDimension
  2
*D9
 10
2.1310096158
 20
3.6115895002
 30
0.0
 11
2.1310096158
 21
3.062308105199999
 31
0.0
 70
   160
  1
.933
 42
1.1811023622
  3
SLDDIMSTYLE0
100
AcDbAlignedDimension
 13
2.7495207319
 23
2.430487138
 33
0.0
 14
2.7495207319
 24
3.6115895002
 34
0.0
 50
90.0
100
AcDbRotatedDimension
1001
ACAD
1000
DSTYLE
1002
{
1070
   284
1070
    12
1070
    78
1070
    12
1070
    41
1040
0.156
1070
    44
1040
0.125
1070
    42
1040
0.05
1070
   147
1040
0.06
1070
   140
1040
0.1377952756
1002
}
  0
DIMENSION
  5
167
330
1F
100
AcDbEntity
  8
FORMAT
100
AcDbDimension
  2
*D10
 10
5.0172372673
 20
1.7653813108
 30
0.0
 11
3.8701132629
 21
1.7653813108
 31
0.0
 70
   160
  1
2.059
 42
2.267716535399999
  3
SLDDIMSTYLE0
100
AcDbAlignedDimension
 13
2.7495207319
 23
2.430487138
 33
0.0
 14
5.0172372673
 24
2.430487138
 34
0.0
100
AcDbRotatedDimension
1001
ACAD
1000
DSTYLE
1002
{
1070
   284
1070
    12
1070
    78
1070
    12
1070
    41
1040
0.156
1070
    44
1040
0.125
1070
    42
1040
0.05
1070
   147
1040
0.06
1070
   140
1040
0.1377952756
1002
}
  0
DIMENSION
  5
17C
330
1F
100
AcDbEntity
  8
FORMAT
100
AcDbDimension
  2
*D11
 10
7.5813987197
 20
1.7653813108
 30
0.0
 11
6.976472222599999
 21
1.7653813108
 31
0.0
 70
   160
  1
.964
 42
1.228346456699999
  3
SLDDIMSTYLE0
100
AcDbAlignedDimension
 13
6.353052262999999
 23
2.6667076105
 33
0.0
 14
7.5813987197
 24
2.6667076105
 34
0.0
100
AcDbRotatedDimension
1001
ACAD
1000
DSTYLE
1002
{
1070
   284
1070
    12
1070
    78
1070
    12
1070
    41
1040
0.156
1070
    44
1040
0.125
1070
    42
1040
0.05
1070
   147
1040
0.06
1070
   140
1040
0.1377952756
1002
}
  0
INSERT
  5
196
330
1F
100
AcDbEntity
  8
0
  6
Continuous
 62
     7
370
     0
100
AcDbBlockReference
  2
SW_NOTE_3
 10
4.668977064599999
 20
7.978426351399999
 30
0.0
  0
INSERT
  5
19C
330
1F
100
AcDbEntity
  8
0
  6
Continuous
 62
     7
370
     0
100
AcDbBlockReference
  2
SW_NOTE_4
 10
8.6657048889
 20
7.967057868899999
 30
0.0
  0
INSERT
  5
1A2
330
1F
100
AcDbEntity
  8
0
  6
Continuous
 62
     7
370
     0
100
AcDbBlockReference
  2
SW_NOTE_5
 10
0.4782693072
 20
7.976406312399999
 30
0.0
  0
MTEXT
  5
1A3
330
1F
100
AcDbEntity
  8
0
  6
Continuous
 62
     7
370
     0
100
AcDbMText
 10
9.516319626299999
 20
8.091483726099999
 30
0.0
 40
0.1875
 41
0.0
 71
     1
 72
     1
  1
{08MAY07}
  7
SLDTEXTSTYLE0
 73
     1
 44
1.0
  0
INSERT
  5
1A9
330
1F
100
AcDbEntity
  8
0
  6
Continuous
 62
     7
370
     0
100
AcDbBlockReference
  2
SW_NOTE_6
 10
4.668977064599999
 20
7.978426351399999
 30
0.0
  0
INSERT
  5
1AF
330
1F
100
AcDbEntity
  8
0
  6
Continuous
 62
     7
370
     0
100
AcDbBlockReference
  2
SW_NOTE_7
 10
8.6657048889
 20
7.967057868899999
 30
0.0
  0
INSERT
  5
1B5
330
1F
100
AcDbEntity
  8
0
  6
Continuous
 62
     7
370
     0
100
AcDbBlockReference
  2
SW_NOTE_8
 10
0.4782693072
 20
7.976406312399999
 30
0.0
  0
MTEXT
  5
1B6
330
1F
100
AcDbEntity
  8
0
  6
Continuous
 62
     7
370
     0
100
AcDbMText
 10
6.474133511399999
 20
8.0938948182
 30
0.0
 40
0.1875
 41
0.0
 71
     1
 72
     1
  1
{HH-3631}
  7
SLDTEXTSTYLE0
 73
     1
 44
1.0
  0
MTEXT
  5
1B8
330
1F
100
AcDbEntity
  8
0
  6
Continuous
 62
     7
370
     0
100
AcDbMText
 10
1.1010724719
 20
8.0727778172
 30
0.0
 40
0.1875
 41
0.0
 71
     1
 72
     1
  1
{BATTERY HOLDER- 4 AAA}
  7
SLDTEXTSTYLE1
 73
     1
 44
1.0
  0
MTEXT
  5
1B9
330
1F
100
AcDbEntity
  8
0
  6
Continuous
 62
     7
370
     0
100
AcDbMText
 10
9.516319626299999
 20
8.091483726099999
 30
0.0
 40
0.1875
 41
0.0
 71
     1
 72
     1
  1
{08MAY07}
  7
SLDTEXTSTYLE0
 73
     1
 44
1.0
  0
MTEXT
  5
1BA
330
1F
100
AcDbEntity
  8
0
  6
Continuous
 62
     7
370
     0
100
AcDbMText
 10
0.7455791506000001
 20
7.478708936799999
 30
0.0
 40
0.1666666667
 41
0.0
 71
     1
 72
     1
  1
{MATERIAL: POLYPROPYLENE}
  7
SLDTEXTSTYLE0
 73
     1
 44
1.0
  0
MTEXT
  5
1BC
330
1F
100
AcDbEntity
  8
0
  6
Continuous
 62
     7
370
     0
100
AcDbMText
 10
2.683957529
 20
0.8252963740000001
 30
0.0
 40
0.1377952756
 41
0.0
 71
     1
 72
     1
  1
{ALL TOLERANCES ARE +/-0.015 UNLESS OTHERWISE SPECIFIED.}
  7
SLDTEXTSTYLE2
 73
     1
 44
1.0
  0
INSERT
  5
1BD
330
1F
100
AcDbEntity
  8
0
  6
Continuous
 62
     7
370
     0
100
AcDbBlockReference
  2
Block1
 10
0.6156177606000001
 20
7.417808880299999
 30
0.0
  0
INSERT
  5
1BE
330
1F
100
AcDbEntity
  8
SLD-0
100
AcDbBlockReference
  2
111
 10
2.9953157768
 20
5.514688453799999
 30
0.0
 41
0.4
 42
0.4
 43
0.4
 50
-90.0
  0
INSERT
  5
1BF
330
1F
100
AcDbEntity
  8
SLD-0
100
AcDbBlockReference
  2
111
 10
4.789279127799999
 20
6.2386740532
 30
0.0
 41
0.4
 42
0.4
 43
0.4
 50
90.0
  0
ENDSEC
  0
SECTION
  2
OBJECTS
  0
DICTIONARY
  5
C
330
0
100
AcDbDictionary
281
     1
  3
ACAD_GROUP
350
D
  3
ACAD_LAYOUT
350
1A
  3
ACAD_MLINESTYLE
350
17
  3
ACAD_PLOTSETTINGS
350
19
  3
ACAD_PLOTSTYLENAME
350
E
  0
DICTIONARY
  5
D
102
{ACAD_REACTORS
330
C
102
}
330
C
100
AcDbDictionary
281
     1
  0
DICTIONARY
  5
1A
102
{ACAD_REACTORS
330
C
102
}
330
C
100
AcDbDictionary
281
     1
  3
Layout1
350
1E
  3
Layout2
350
26
  3
Model
350
22
  0
DICTIONARY
  5
17
102
{ACAD_REACTORS
330
C
102
}
330
C
100
AcDbDictionary
281
     1
  3
Standard
350
18
  0
DICTIONARY
  5
19
102
{ACAD_REACTORS
330
C
102
}
330
C
100
AcDbDictionary
281
     1
  0
ACDBDICTIONARYWDFLT
  5
E
102
{ACAD_REACTORS
330
C
102
}
330
C
100
AcDbDictionary
281
     1
  3
Normal
350
F
100
AcDbDictionaryWithDefault
340
F
  0
LAYOUT
  5
1E
102
{ACAD_REACTORS
330
1A
102
}
330
1A
100
AcDbPlotSettings
  1

  2

  4

  6

 40
0.0
 41
0.0
 42
0.0
 43
0.0
 44
0.0
 45
0.0
 46
0.0
 47
0.0
 48
0.0
 49
0.0
140
0.0
141
0.0
142
1.0
143
1.0
 70
   688
 72
     0
 73
     0
 74
     5
  7

 75
    16
147
1.0
148
0.0
149
0.0
100
AcDbLayout
  1
Layout1
 70
     1
 71
     1
 10
0.0
 20
0.0
 11
12.0
 21
9.0
 12
0.0
 22
0.0
 32
0.0
 14
1.000000000000000E+20
 24
1.000000000000000E+20
 34
1.000000000000000E+20
 15
-1.000000000000000E+20
 25
-1.000000000000000E+20
 35
-1.000000000000000E+20
146
0.0
 13
0.0
 23
0.0
 33
0.0
 16
1.0
 26
0.0
 36
0.0
 17
0.0
 27
1.0
 37
0.0
 76
     0
330
1B
  0
LAYOUT
  5
26
102
{ACAD_REACTORS
330
1A
102
}
330
1A
100
AcDbPlotSettings
  1

  2

  4

  6

 40
0.0
 41
0.0
 42
0.0
 43
0.0
 44
0.0
 45
0.0
 46
0.0
 47
0.0
 48
0.0
 49
0.0
140
0.0
141
0.0
142
1.0
143
1.0
 70
   688
 72
     0
 73
     0
 74
     5
  7

 75
    16
147
1.0
148
0.0
149
0.0
100
AcDbLayout
  1
Layout2
 70
     1
 71
     2
 10
0.0
 20
0.0
 11
0.0
 21
0.0
 12
0.0
 22
0.0
 32
0.0
 14
0.0
 24
0.0
 34
0.0
 15
0.0
 25
0.0
 35
0.0
146
0.0
 13
0.0
 23
0.0
 33
0.0
 16
1.0
 26
0.0
 36
0.0
 17
0.0
 27
1.0
 37
0.0
 76
     0
330
23
  0
LAYOUT
  5
22
102
{ACAD_REACTORS
330
1A
102
}
330
1A
100
AcDbPlotSettings
  1

  2

  4

  6

 40
0.0
 41
0.0
 42
0.0
 43
0.0
 44
0.0
 45
0.0
 46
0.0
 47
0.0
 48
0.0
 49
0.0
140
0.0
141
0.0
142
1.0
143
1.0
 70
  1712
 72
     0
 73
     0
 74
     0
  7

 75
     0
147
1.0
148
0.0
149
0.0
100
AcDbLayout
  1
Model
 70
     1
 71
     0
 10
0.0
 20
0.0
 11
0.0
 21
0.0
 12
0.0
 22
0.0
 32
0.0
 14
0.0
 24
0.0
 34
0.0
 15
11.0
 25
8.5
 35
0.0
146
0.0
 13
0.0
 23
0.0
 33
0.0
 16
1.0
 26
0.0
 36
0.0
 17
0.0
 27
1.0
 37
0.0
 76
     0
330
1F
  0
MLINESTYLE
  5
18
102
{ACAD_REACTORS
330
17
102
}
330
17
100
AcDbMlineStyle
  2
STANDARD
 70
     0
  3

 62
   256
 51
90.0
 52
90.0
 71
     2
 49
0.5
 62
   256
  6
BYLAYER
 49
-0.5
 62
   256
  6
BYLAYER
  0
ACDBPLACEHOLDER
  5
F
102
{ACAD_REACTORS
330
E
102
}
330
E
  0
ENDSEC
  0
EOF
