  0
SECTION
  2
HEADER
  9
$ACADVER
  1
AC1015
  9
$ACADMAINTVER
 70
     6
  9
$DWGCODEPAGE
  3
ANSI_1252
  9
$INSBASE
 10
0.0
 20
0.0
 30
0.0
  9
$EXTMIN
 10
0.2696126481258361
 20
0.3315369216242203
 30
-0.0015258207003583
  9
$EXTMAX
 10
10.68957781145831
 20
8.252284669769782
 30
0.0000000349246037
  9
$LIMMIN
 10
0.0
 20
0.0
  9
$LIMMAX
 10
0.0
 20
0.0
  9
$ORTHOMODE
 70
     0
  9
$REGENMODE
 70
     1
  9
$FILLMODE
 70
     1
  9
$QTEXTMODE
 70
     0
  9
$MIRRTEXT
 70
     1
  9
$LTSCALE
 40
1.0
  9
$ATTMODE
 70
     1
  9
$TEXTSIZE
 40
0.2
  9
$TRACEWID
 40
0.05
  9
$TEXTSTYLE
  7
Standard
  9
$CLAYER
  8
0
  9
$CELTYPE
  6
ByLayer
  9
$CECOLOR
 62
   256
  9
$CELTSCALE
 40
1.0
  9
$DISPSILH
 70
     0
  9
$DIMSCALE
 40
1.0
  9
$DIMASZ
 40
0.156
  9
$DIMEXO
 40
0.05
  9
$DIMDLI
 40
0.38
  9
$DIMRND
 40
0.0
  9
$DIMDLE
 40
0.0
  9
$DIMEXE
 40
0.125
  9
$DIMTP
 40
0.0
  9
$DIMTM
 40
0.0
  9
$DIMTXT
 40
0.1377952756
  9
$DIMCEN
 40
0.09
  9
$DIMTSZ
 40
0.0
  9
$DIMTOL
 70
     0
  9
$DIMLIM
 70
     0
  9
$DIMTIH
 70
     1
  9
$DIMTOH
 70
     1
  9
$DIMSE1
 70
     0
  9
$DIMSE2
 70
     0
  9
$DIMTAD
 70
     0
  9
$DIMZIN
 70
     0
  9
$DIMBLK
  1

  9
$DIMASO
 70
     1
  9
$DIMSHO
 70
     1
  9
$DIMPOST
  1

  9
$DIMAPOST
  1

  9
$DIMALT
 70
     0
  9
$DIMALTD
 70
     2
  9
$DIMALTF
 40
25.4
  9
$DIMLFAC
 40
1.0
  9
$DIMTOFL
 70
     0
  9
$DIMTVP
 40
0.0
  9
$DIMTIX
 70
     0
  9
$DIMSOXD
 70
     0
  9
$DIMSAH
 70
     0
  9
$DIMBLK1
  1

  9
$DIMBLK2
  1

  9
$DIMSTYLE
  2
Standard
  9
$DIMCLRD
 70
     0
  9
$DIMCLRE
 70
     0
  9
$DIMCLRT
 70
     0
  9
$DIMTFAC
 40
1.0
  9
$DIMGAP
 40
0.06
  9
$DIMJUST
 70
     0
  9
$DIMSD1
 70
     0
  9
$DIMSD2
 70
     0
  9
$DIMTOLJ
 70
     1
  9
$DIMTZIN
 70
     0
  9
$DIMALTZ
 70
     0
  9
$DIMALTTZ
 70
     0
  9
$DIMUPT
 70
     0
  9
$DIMDEC
 70
     4
  9
$DIMTDEC
 70
     4
  9
$DIMALTU
 70
     2
  9
$DIMALTTD
 70
     2
  9
$DIMTXSTY
  7
Standard
  9
$DIMAUNIT
 70
     0
  9
$DIMADEC
 70
     0
  9
$DIMALTRND
 40
0.0
  9
$DIMAZIN
 70
     0
  9
$DIMDSEP
 70
    46
  9
$DIMATFIT
 70
     3
  9
$DIMFRAC
 70
     0
  9
$DIMLDRBLK
  1

  9
$DIMLUNIT
 70
     2
  9
$DIMLWD
 70
    -2
  9
$DIMLWE
 70
    -2
  9
$DIMTMOVE
 70
     0
  9
$LUNITS
 70
     2
  9
$LUPREC
 70
     3
  9
$SKETCHINC
 40
0.1
  9
$FILLETRAD
 40
0.5
  9
$AUNITS
 70
     0
  9
$AUPREC
 70
     0
  9
$MENU
  1
.
  9
$ELEVATION
 40
0.0
  9
$PELEVATION
 40
0.0
  9
$THICKNESS
 40
0.0
  9
$LIMCHECK
 70
     0
  9
$CHAMFERA
 40
0.5
  9
$CHAMFERB
 40
0.5
  9
$CHAMFERC
 40
1.0
  9
$CHAMFERD
 40
0.0
  9
$SKPOLY
 70
     0
  9
$TDCREATE
 40
2454231.469880277
  9
$TDUCREATE
 40
2454231.636546944
  9
$TDUPDATE
 40
2454231.499206446
  9
$TDUUPDATE
 40
2454231.665873113
  9
$TDINDWG
 40
0.0003692940
  9
$TDUSRTIMER
 40
0.0003692940
  9
$USRTIMER
 70
     1
  9
$ANGBASE
 50
0.0
  9
$ANGDIR
 70
     0
  9
$PDMODE
 70
     0
  9
$PDSIZE
 40
-1.0
  9
$PLINEWID
 40
0.0
  9
$SPLFRAME
 70
     0
  9
$SPLINETYPE
 70
     6
  9
$SPLINESEGS
 70
     8
  9
$HANDSEED
  5
20C
  9
$SURFTAB1
 70
     6
  9
$SURFTAB2
 70
     6
  9
$SURFTYPE
 70
     6
  9
$SURFU
 70
     6
  9
$SURFV
 70
     6
  9
$UCSBASE
  2

  9
$UCSNAME
  2

  9
$UCSORG
 10
0.0
 20
0.0
 30
0.0
  9
$UCSXDIR
 10
1.0
 20
0.0
 30
0.0
  9
$UCSYDIR
 10
0.0
 20
1.0
 30
0.0
  9
$UCSORTHOREF
  2

  9
$UCSORTHOVIEW
 70
     0
  9
$UCSORGTOP
 10
0.0
 20
0.0
 30
0.0
  9
$UCSORGBOTTOM
 10
0.0
 20
0.0
 30
0.0
  9
$UCSORGLEFT
 10
0.0
 20
0.0
 30
0.0
  9
$UCSORGRIGHT
 10
0.0
 20
0.0
 30
0.0
  9
$UCSORGFRONT
 10
0.0
 20
0.0
 30
0.0
  9
$UCSORGBACK
 10
0.0
 20
0.0
 30
0.0
  9
$PUCSBASE
  2

  9
$PUCSNAME
  2

  9
$PUCSORG
 10
0.0
 20
0.0
 30
0.0
  9
$PUCSXDIR
 10
1.0
 20
0.0
 30
0.0
  9
$PUCSYDIR
 10
0.0
 20
1.0
 30
0.0
  9
$PUCSORTHOREF
  2

  9
$PUCSORTHOVIEW
 70
     0
  9
$PUCSORGTOP
 10
0.0
 20
0.0
 30
0.0
  9
$PUCSORGBOTTOM
 10
0.0
 20
0.0
 30
0.0
  9
$PUCSORGLEFT
 10
0.0
 20
0.0
 30
0.0
  9
$PUCSORGRIGHT
 10
0.0
 20
0.0
 30
0.0
  9
$PUCSORGFRONT
 10
0.0
 20
0.0
 30
0.0
  9
$PUCSORGBACK
 10
0.0
 20
0.0
 30
0.0
  9
$USERI1
 70
     0
  9
$USERI2
 70
     0
  9
$USERI3
 70
     0
  9
$USERI4
 70
     0
  9
$USERI5
 70
     0
  9
$USERR1
 40
0.0
  9
$USERR2
 40
0.0
  9
$USERR3
 40
0.0
  9
$USERR4
 40
0.0
  9
$USERR5
 40
0.0
  9
$WORLDVIEW
 70
     1
  9
$SHADEDGE
 70
     3
  9
$SHADEDIF
 70
    70
  9
$TILEMODE
 70
     1
  9
$MAXACTVP
 70
    64
  9
$PINSBASE
 10
0.0
 20
0.0
 30
0.0
  9
$PLIMCHECK
 70
     0
  9
$PEXTMIN
 10
1.000000000000000E+20
 20
1.000000000000000E+20
 30
1.000000000000000E+20
  9
$PEXTMAX
 10
-1.000000000000000E+20
 20
-1.000000000000000E+20
 30
-1.000000000000000E+20
  9
$PLIMMIN
 10
0.0
 20
0.0
  9
$PLIMMAX
 10
12.0
 20
9.0
  9
$UNITMODE
 70
     0
  9
$VISRETAIN
 70
     1
  9
$PLINEGEN
 70
     0
  9
$PSLTSCALE
 70
     1
  9
$TREEDEPTH
 70
  3020
  9
$CMLSTYLE
  2
Standard
  9
$CMLJUST
 70
     0
  9
$CMLSCALE
 40
1.0
  9
$PROXYGRAPHICS
 70
     1
  9
$MEASUREMENT
 70
     0
  9
$CELWEIGHT
370
    -1
  9
$ENDCAPS
280
     0
  9
$JOINSTYLE
280
     0
  9
$LWDISPLAY
290
     1
  9
$INSUNITS
 70
     1
  9
$HYPERLINKBASE
  1

  9
$STYLESHEET
  1

  9
$XEDIT
290
     1
  9
$CEPSNTYPE
380
     0
  9
$PSTYLEMODE
290
     1
  9
$FINGERPRINTGUID
  2
{D7E7A4C3-FEC1-443F-9543-1AFB22118B32}
  9
$VERSIONGUID
  2
{4E157E55-BC76-4904-9236-128301588552}
  9
$EXTNAMES
290
     1
  9
$PSVPSCALE
 40
0.0
  9
$OLESTARTUP
290
     0
  0
ENDSEC
  0
SECTION
  2
CLASSES
  0
CLASS
  1
ACDBDICTIONARYWDFLT
  2
AcDbDictionaryWithDefault
  3
AutoCAD 2000
 90
        0
280
     0
281
     0
  0
CLASS
  1
ACDBPLACEHOLDER
  2
AcDbPlaceHolder
  3
AutoCAD 2000
 90
        0
280
     0
281
     0
  0
CLASS
  1
LAYOUT
  2
AcDbLayout
  3
AutoCAD 2000
 90
        0
280
     0
281
     0
  0
ENDSEC
  0
SECTION
  2
TABLES
  0
TABLE
  2
VPORT
  5
8
330
0
100
AcDbSymbolTable
 70
     2
  0
VPORT
  5
20B
330
8
100
AcDbSymbolTableRecord
100
AcDbViewportTableRecord
  2
*Active
 70
     0
 10
0.0
 20
0.0
 11
1.0
 21
1.0
 12
5.479595229792076
 22
4.291910795697001
 13
0.0
 23
0.0
 14
0.5
 24
0.5
 15
0.5
 25
0.5
 16
0.0
 26
0.0
 36
1.0
 17
0.0
 27
0.0
 37
0.0
 40
7.978704438985651
 41
1.536019536019536
 42
50.0
 43
0.0
 44
0.0
 50
0.0
 51
0.0
 71
     0
 72
  2000
 73
     1
 74
     3
 75
     0
 76
     0
 77
     0
 78
     0
281
     0
 65
     1
110
0.0
120
0.0
130
0.0
111
1.0
121
0.0
131
0.0
112
0.0
122
1.0
132
0.0
 79
     0
146
0.0
  0
ENDTAB
  0
TABLE
  2
LTYPE
  5
5
330
0
100
AcDbSymbolTable
 70
     6
  0
LTYPE
  5
14
330
5
100
AcDbSymbolTableRecord
100
AcDbLinetypeTableRecord
  2
ByBlock
 70
     0
  3

 72
    65
 73
     0
 40
0.0
  0
LTYPE
  5
15
330
5
100
AcDbSymbolTableRecord
100
AcDbLinetypeTableRecord
  2
ByLayer
 70
     0
  3

 72
    65
 73
     0
 40
0.0
  0
LTYPE
  5
16
330
5
100
AcDbSymbolTableRecord
100
AcDbLinetypeTableRecord
  2
Continuous
 70
     0
  3
Solid line
 72
    65
 73
     0
 40
0.0
  0
LTYPE
  5
2A
330
5
100
AcDbSymbolTableRecord
100
AcDbLinetypeTableRecord
  2
HIDDEN
 70
     0
  3
Hidden __ __ __ __ __ __ __ __ __ __ __ __ __ __
 72
    65
 73
     2
 40
0.075
 49
0.05
 74
     0
 49
-0.025
 74
     0
  0
LTYPE
  5
2B
330
5
100
AcDbSymbolTableRecord
100
AcDbLinetypeTableRecord
  2
PHANTOM
 70
     0
  3
Phantom ______  __  __  ______  __  __  ______
 72
    65
 73
     6
 40
0.5
 49
0.25
 74
     0
 49
-0.05
 74
     0
 49
0.05
 74
     0
 49
-0.05
 74
     0
 49
0.05
 74
     0
 49
-0.05
 74
     0
  0
LTYPE
  5
2C
330
5
100
AcDbSymbolTableRecord
100
AcDbLinetypeTableRecord
  2
CENTER
 70
     0
  3
Center ____ _ ____ _ ____ _ ____ _ ____ _ ____
 72
    65
 73
     4
 40
0.4
 49
0.25
 74
     0
 49
-0.05
 74
     0
 49
0.05
 74
     0
 49
-0.05
 74
     0
  0
LTYPE
  5
2D
330
5
100
AcDbSymbolTableRecord
100
AcDbLinetypeTableRecord
  2
CENTERX2
 70
     0
  3
Center (2x) ________  __  ________  __  _____
 72
    65
 73
     4
 40
0.8
 49
0.5
 74
     0
 49
-0.1
 74
     0
 49
0.1
 74
     0
 49
-0.1
 74
     0
  0
LTYPE
  5
2E
330
5
100
AcDbSymbolTableRecord
100
AcDbLinetypeTableRecord
  2
DOT2
 70
     0
  3
Dot (.5x) ........................................
 72
    65
 73
     2
 40
0.025
 49
0.0
 74
     0
 49
-0.025
 74
     0
  0
ENDTAB
  0
TABLE
  2
LAYER
  5
2
330
0
100
AcDbSymbolTable
 70
     4
  0
LAYER
  5
10
330
2
100
AcDbSymbolTableRecord
100
AcDbLayerTableRecord
  2
0
 70
     0
 62
     7
  6
Continuous
370
    -3
390
F
  0
LAYER
  5
2F
330
2
100
AcDbSymbolTableRecord
100
AcDbLayerTableRecord
  2
FORMAT
 70
     0
 62
     7
  6
Continuous
370
     0
390
F
  0
LAYER
  5
30
330
2
100
AcDbSymbolTableRecord
100
AcDbLayerTableRecord
  2
SLD-0
 70
     0
 62
     7
  6
Continuous
370
     0
390
F
  0
LAYER
  5
FF
330
2
100
AcDbSymbolTableRecord
100
AcDbLayerTableRecord
  2
Defpoints
 70
     0
 62
     7
  6
Continuous
290
     0
370
    -3
390
F
  0
ENDTAB
  0
TABLE
  2
STYLE
  5
3
330
0
100
AcDbSymbolTable
 70
     4
  0
STYLE
  5
11
330
3
100
AcDbSymbolTableRecord
100
AcDbTextStyleTableRecord
  2
Standard
 70
     0
 40
0.0
 41
1.0
 50
0.0
 71
     0
 42
0.2
  3
txt
  4

  0
STYLE
  5
43
330
3
100
AcDbSymbolTableRecord
100
AcDbTextStyleTableRecord
  2
SLDTEXTSTYLE0
 70
     0
 40
0.0
 41
0.75
 50
0.0
 71
     0
 42
0.2
  3
TXT
  4

  0
STYLE
  5
1FE
330
3
100
AcDbSymbolTableRecord
100
AcDbTextStyleTableRecord
  2
SLDTEXTSTYLE1
 70
     0
 40
0.0
 41
0.69375
 50
0.0
 71
     0
 42
0.2
  3
TXT
  4

  0
STYLE
  5
202
330
3
100
AcDbSymbolTableRecord
100
AcDbTextStyleTableRecord
  2
SLDTEXTSTYLE2
 70
     0
 40
0.0
 41
0.7090909091
 50
0.0
 71
     0
 42
0.2
  3
TXT
  4

  0
ENDTAB
  0
TABLE
  2
VIEW
  5
6
330
0
100
AcDbSymbolTable
 70
     0
  0
ENDTAB
  0
TABLE
  2
UCS
  5
7
330
0
100
AcDbSymbolTable
 70
     0
  0
ENDTAB
  0
TABLE
  2
APPID
  5
9
330
0
100
AcDbSymbolTable
 70
     1
  0
APPID
  5
12
330
9
100
AcDbSymbolTableRecord
100
AcDbRegAppTableRecord
  2
ACAD
 70
     0
  0
ENDTAB
  0
TABLE
  2
DIMSTYLE
  5
A
330
0
100
AcDbSymbolTable
 70
     5
100
AcDbDimStyleTable
 71
     0
  0
DIMSTYLE
105
27
330
A
100
AcDbSymbolTableRecord
100
AcDbDimStyleTableRecord
  2
Standard
 70
     0
340
11
  0
DIMSTYLE
105
10D
102
{ACAD_REACTORS
330
FE
330
1AB
102
}
330
A
100
AcDbSymbolTableRecord
100
AcDbDimStyleTableRecord
  2
SLDDIMSTYLE0
 70
     0
 41
0.156
 44
0.0
 78
    12
140
0.1377952756
147
0.0344488189
173
     1
271
     2
272
     3
284
    12
340
43
  0
DIMSTYLE
105
123
102
{ACAD_REACTORS
330
115
330
12B
330
156
330
17F
330
194
330
1C2
102
}
330
A
100
AcDbSymbolTableRecord
100
AcDbDimStyleTableRecord
  2
SLDDIMSTYLE1
 70
     0
 41
0.156
 44
0.0
 78
    12
140
0.1377952756
147
0.0344488189
173
     1
271
     3
272
     3
284
    12
340
43
  0
DIMSTYLE
105
14E
102
{ACAD_REACTORS
330
140
102
}
330
A
100
AcDbSymbolTableRecord
100
AcDbDimStyleTableRecord
  2
SLDDIMSTYLE2
 70
     0
 41
0.156
 44
0.0
 78
     4
140
0.1377952756
147
0.0344488189
173
     1
271
     3
272
     0
284
    12
340
43
  0
DIMSTYLE
105
177
102
{ACAD_REACTORS
330
16B
102
}
330
A
100
AcDbSymbolTableRecord
100
AcDbDimStyleTableRecord
  2
SLDDIMSTYLE3
 70
     0
 41
0.156
 44
0.0
 78
     4
140
0.1377952756
147
0.0344488189
172
     1
173
     1
271
     3
272
     3
284
    12
340
43
  0
ENDTAB
  0
TABLE
  2
BLOCK_RECORD
  5
1
330
0
100
AcDbSymbolTable
 70
    23
  0
BLOCK_RECORD
  5
1F
330
1
100
AcDbSymbolTableRecord
100
AcDbBlockTableRecord
  2
*Model_Space
340
22
  0
BLOCK_RECORD
  5
1B
330
1
100
AcDbSymbolTableRecord
100
AcDbBlockTableRecord
  2
*Paper_Space
340
1E
  0
BLOCK_RECORD
  5
23
330
1
100
AcDbSymbolTableRecord
100
AcDbBlockTableRecord
  2
*Paper_Space0
340
26
  0
BLOCK_RECORD
  5
31
330
1
100
AcDbSymbolTableRecord
100
AcDbBlockTableRecord
  2
Block1
340
0
102
{BLKREFS
331
204
102
}
  0
BLOCK_RECORD
  5
34
330
1
100
AcDbSymbolTableRecord
100
AcDbBlockTableRecord
  2
scott
340
0
  0
BLOCK_RECORD
  5
40
330
1
100
AcDbSymbolTableRecord
100
AcDbBlockTableRecord
  2
SW_NOTE_0
340
0
102
{BLKREFS
331
46
102
}
  0
BLOCK_RECORD
  5
47
330
1
100
AcDbSymbolTableRecord
100
AcDbBlockTableRecord
  2
SW_NOTE_1
340
0
102
{BLKREFS
331
4C
102
}
  0
BLOCK_RECORD
  5
4D
330
1
100
AcDbSymbolTableRecord
100
AcDbBlockTableRecord
  2
SW_NOTE_2
340
0
102
{BLKREFS
331
52
102
}
  0
BLOCK_RECORD
  5
56
330
1
100
AcDbSymbolTableRecord
100
AcDbBlockTableRecord
  2
111
340
0
102
{BLKREFS
331
205
331
206
102
}
  0
BLOCK_RECORD
  5
100
330
1
100
AcDbSymbolTableRecord
100
AcDbBlockTableRecord
  2
*D7
340
0
  0
BLOCK_RECORD
  5
116
330
1
100
AcDbSymbolTableRecord
100
AcDbBlockTableRecord
  2
*D8
340
0
  0
BLOCK_RECORD
  5
12C
330
1
100
AcDbSymbolTableRecord
100
AcDbBlockTableRecord
  2
*D9
340
0
  0
BLOCK_RECORD
  5
141
330
1
100
AcDbSymbolTableRecord
100
AcDbBlockTableRecord
  2
*D10
340
0
  0
BLOCK_RECORD
  5
157
330
1
100
AcDbSymbolTableRecord
100
AcDbBlockTableRecord
  2
*D11
340
0
  0
BLOCK_RECORD
  5
16C
330
1
100
AcDbSymbolTableRecord
100
AcDbBlockTableRecord
  2
*D12
340
0
  0
BLOCK_RECORD
  5
180
330
1
100
AcDbSymbolTableRecord
100
AcDbBlockTableRecord
  2
*D13
340
0
  0
BLOCK_RECORD
  5
195
330
1
100
AcDbSymbolTableRecord
100
AcDbBlockTableRecord
  2
*D14
340
0
  0
BLOCK_RECORD
  5
1AC
330
1
100
AcDbSymbolTableRecord
100
AcDbBlockTableRecord
  2
*D15
340
0
  0
BLOCK_RECORD
  5
1C3
330
1
100
AcDbSymbolTableRecord
100
AcDbBlockTableRecord
  2
*D16
340
0
  0
BLOCK_RECORD
  5
1D8
330
1
100
AcDbSymbolTableRecord
100
AcDbBlockTableRecord
  2
SW_NOTE_3
340
0
102
{BLKREFS
331
1DD
102
}
  0
BLOCK_RECORD
  5
1DE
330
1
100
AcDbSymbolTableRecord
100
AcDbBlockTableRecord
  2
SW_NOTE_4
340
0
102
{BLKREFS
331
1E3
102
}
  0
BLOCK_RECORD
  5
1E4
330
1
100
AcDbSymbolTableRecord
100
AcDbBlockTableRecord
  2
SW_NOTE_5
340
0
102
{BLKREFS
331
1E9
102
}
  0
BLOCK_RECORD
  5
1EB
330
1
100
AcDbSymbolTableRecord
100
AcDbBlockTableRecord
  2
SW_NOTE_6
340
0
102
{BLKREFS
331
1F0
102
}
  0
BLOCK_RECORD
  5
1F1
330
1
100
AcDbSymbolTableRecord
100
AcDbBlockTableRecord
  2
SW_NOTE_7
340
0
102
{BLKREFS
331
1F6
102
}
  0
BLOCK_RECORD
  5
1F7
330
1
100
AcDbSymbolTableRecord
100
AcDbBlockTableRecord
  2
SW_NOTE_8
340
0
102
{BLKREFS
331
1FC
102
}
  0
ENDTAB
  0
ENDSEC
  0
SECTION
  2
BLOCKS
  0
BLOCK
  5
20
330
1F
100
AcDbEntity
  8
0
100
AcDbBlockBegin
  2
*Model_Space
 70
     0
 10
0.0
 20
0.0
 30
0.0
  3
*Model_Space
  1

  0
ENDBLK
  5
21
330
1F
100
AcDbEntity
  8
0
100
AcDbBlockEnd
  0
BLOCK
  5
1C
330
1B
100
AcDbEntity
 67
     1
  8
0
100
AcDbBlockBegin
  2
*Paper_Space
 70
     0
 10
0.0
 20
0.0
 30
0.0
  3
*Paper_Space
  1

  0
ENDBLK
  5
1D
330
1B
100
AcDbEntity
 67
     1
  8
0
100
AcDbBlockEnd
  0
BLOCK
  5
24
330
23
100
AcDbEntity
  8
0
100
AcDbBlockBegin
  2
*Paper_Space0
 70
     0
 10
0.0
 20
0.0
 30
0.0
  3
*Paper_Space0
  1

  0
ENDBLK
  5
25
330
23
100
AcDbEntity
  8
0
100
AcDbBlockEnd
  0
BLOCK
  5
32
330
31
100
AcDbEntity
  8
0
100
AcDbBlockBegin
  2
Block1
 70
     0
 10
0.0
 20
0.0
 30
0.0
  3
Block1
  1

  0
ENDBLK
  5
33
330
31
100
AcDbEntity
  8
0
100
AcDbBlockEnd
  0
BLOCK
  5
35
330
34
100
AcDbEntity
  8
0
100
AcDbBlockBegin
  2
scott
 70
     0
 10
0.0
 20
0.0
 30
0.0
  3
scott
  1

  0
LINE
  5
37
330
34
100
AcDbEntity
  8
0
  6
Continuous
 62
     7
370
     0
100
AcDbLine
 10
4.187999999999999
 20
0.4060000000000001
 30
0.0
 11
4.187999999999999
 21
0.0
 31
0.0
  0
LINE
  5
38
330
34
100
AcDbEntity
  8
0
  6
Continuous
 62
     7
370
     0
100
AcDbLine
 10
4.25
 20
0.4060000000000001
 30
0.0
 11
4.25
 21
0.0
 31
0.0
  0
LINE
  5
39
330
34
100
AcDbEntity
  8
0
  6
Continuous
 62
     7
370
     0
100
AcDbLine
 10
10.43799999999999
 20
0.4060000000000001
 30
0.0
 11
0.062
 21
0.4060000000000001
 31
0.0
  0
LINE
  5
3A
330
34
100
AcDbEntity
  8
0
  6
Continuous
 62
     7
370
     0
100
AcDbLine
 10
5.0
 20
0.4060000000000001
 30
0.0
 11
5.0
 21
0.0
 31
0.0
  0
LINE
  5
3B
330
34
100
AcDbEntity
  8
0
  6
Continuous
 62
     7
370
     0
100
AcDbLine
 10
10.43799999999999
 20
0.0
 30
0.0
 11
0.062
 21
0.0
 31
0.0
  0
LINE
  5
3C
330
34
100
AcDbEntity
  8
0
  6
Continuous
 62
     7
370
     0
100
AcDbLine
 10
0.812
 20
0.4060000000000001
 30
0.0
 11
0.812
 21
0.0
 31
0.0
  0
LINE
  5
3D
330
34
100
AcDbEntity
  8
0
  6
Continuous
 62
     7
370
     0
100
AcDbLine
 10
8.375999999999999
 20
0.4060000000000001
 30
0.0
 11
8.375999999999999
 21
0.0
 31
0.0
  0
LINE
  5
3E
330
34
100
AcDbEntity
  8
0
  6
Continuous
 62
     7
370
     0
100
AcDbLine
 10
8.437999999999998
 20
0.4060000000000001
 30
0.0
 11
8.437999999999998
 21
0.0
 31
0.0
  0
LINE
  5
3F
330
34
100
AcDbEntity
  8
0
  6
Continuous
 62
     7
370
     0
100
AcDbLine
 10
9.187999999999998
 20
0.4060000000000001
 30
0.0
 11
9.187999999999998
 21
0.0
 31
0.0
  0
INSERT
  5
46
330
34
100
AcDbEntity
  8
0
  6
Continuous
 62
     7
370
     0
100
AcDbBlockReference
  2
SW_NOTE_0
 10
4.432413357999999
 20
0.1923935329
 30
0.0
  0
INSERT
  5
4C
330
34
100
AcDbEntity
  8
0
  6
Continuous
 62
     7
370
     0
100
AcDbBlockReference
  2
SW_NOTE_1
 10
8.4291411823
 20
0.1810250503
 30
0.0
  0
INSERT
  5
52
330
34
100
AcDbEntity
  8
0
  6
Continuous
 62
     7
370
     0
100
AcDbBlockReference
  2
SW_NOTE_2
 10
0.2417056006
 20
0.1903734939
 30
0.0
  0
MTEXT
  5
53
330
34
100
AcDbEntity
  8
0
  6
Continuous
 62
     7
370
     0
100
AcDbMText
 10
5.700395190399999
 20
0.3078619997
 30
0.0
 40
0.1875
 41
0.0
 71
     1
 72
     1
  1
{HH-3449/HH-3634}
  7
SLDTEXTSTYLE0
 73
     1
 44
1.0
  0
MTEXT
  5
54
330
34
100
AcDbEntity
  8
0
  6
Continuous
 62
     7
370
     0
100
AcDbMText
 10
1.0107762756
 20
0.2867449987
 30
0.0
 40
0.1875
 41
0.0
 71
     1
 72
     1
  1
{BATTERY CLIP/HOLDER}
  7
SLDTEXTSTYLE0
 73
     1
 44
1.0
  0
MTEXT
  5
55
330
34
100
AcDbEntity
  8
0
  6
Continuous
 62
     7
370
     0
100
AcDbMText
 10
9.279755919699999
 20
0.3054509076
 30
0.0
 40
0.1875
 41
0.0
 71
     1
 72
     1
  1
{08MAY07}
  7
SLDTEXTSTYLE0
 73
     1
 44
1.0
  0
ENDBLK
  5
36
330
34
100
AcDbEntity
  8
0
100
AcDbBlockEnd
  0
BLOCK
  5
41
330
40
100
AcDbEntity
  8
0
100
AcDbBlockBegin
  2
SW_NOTE_0
 70
     0
 10
0.0
 20
0.0
 30
0.0
  3
SW_NOTE_0
  1

  0
MTEXT
  5
44
330
40
100
AcDbEntity
  8
0
  6
Continuous
 62
     7
370
     0
100
AcDbMText
 10
0.0
 20
0.1760119341
 30
0.0
 40
0.1377952756
 41
0.0
 71
     1
 72
     1
  1
{PART}
  7
SLDTEXTSTYLE0
 73
     1
 44
1.0
  0
MTEXT
  5
45
330
40
100
AcDbEntity
  8
0
  6
Continuous
 62
     7
370
     0
100
AcDbMText
 10
0.0643523366
 20
-0.0011534126
 30
0.0
 40
0.1377952756
 41
0.0
 71
     1
 72
     1
  1
{No.}
  7
SLDTEXTSTYLE0
 73
     1
 44
1.0
  0
ENDBLK
  5
42
330
40
100
AcDbEntity
  8
0
100
AcDbBlockEnd
  0
BLOCK
  5
48
330
47
100
AcDbEntity
  8
0
100
AcDbBlockBegin
  2
SW_NOTE_1
 70
     0
 10
0.0
 20
0.0
 30
0.0
  3
SW_NOTE_1
  1

  0
MTEXT
  5
4A
330
47
100
AcDbEntity
  8
0
  6
Continuous
 62
     7
370
     0
100
AcDbMText
 10
0.0
 20
0.1760119341
 30
0.0
 40
0.1377952756
 41
0.0
 71
     1
 72
     1
  1
{REVISION}
  7
SLDTEXTSTYLE0
 73
     1
 44
1.0
  0
MTEXT
  5
4B
330
47
100
AcDbEntity
  8
0
  6
Continuous
 62
     7
370
     0
100
AcDbMText
 10
0.1722201705
 20
-0.0011534126
 30
0.0
 40
0.1377952756
 41
0.0
 71
     1
 72
     1
  1
{DATE}
  7
SLDTEXTSTYLE0
 73
     1
 44
1.0
  0
ENDBLK
  5
49
330
47
100
AcDbEntity
  8
0
100
AcDbBlockEnd
  0
BLOCK
  5
4E
330
4D
100
AcDbEntity
  8
0
100
AcDbBlockBegin
  2
SW_NOTE_2
 70
     0
 10
0.0
 20
0.0
 30
0.0
  3
SW_NOTE_2
  1

  0
MTEXT
  5
50
330
4D
100
AcDbEntity
  8
0
  6
Continuous
 62
     7
370
     0
100
AcDbMText
 10
0.0
 20
0.1760119341
 30
0.0
 40
0.1377952756
 41
0.0
 71
     1
 72
     1
  1
{PART}
  7
SLDTEXTSTYLE0
 73
     1
 44
1.0
  0
MTEXT
  5
51
330
4D
100
AcDbEntity
  8
0
  6
Continuous
 62
     7
370
     0
100
AcDbMText
 10
-0.0513741915
 20
-0.0011534126
 30
0.0
 40
0.1377952756
 41
0.0
 71
     1
 72
     1
  1
{NAME}
  7
SLDTEXTSTYLE0
 73
     1
 44
1.0
  0
ENDBLK
  5
4F
330
4D
100
AcDbEntity
  8
0
100
AcDbBlockEnd
  0
BLOCK
  5
57
330
56
100
AcDbEntity
  8
0
100
AcDbBlockBegin
  2
111
 70
     0
 10
0.0
 20
0.0
 30
0.0
  3
111
  1

  0
ARC
  5
59
330
56
100
AcDbEntity
  8
SLD-0
100
AcDbCircle
 10
-0.4978721965
 20
-0.3622181833
 30
0.0
 40
0.010826771653564
100
AcDbArc
 50
89.9999999999
 51
270.0
  0
ARC
  5
5A
330
56
100
AcDbEntity
  8
SLD-0
100
AcDbCircle
 10
0.0316553626
 20
-0.3622181833
 30
0.0
 40
0.0108267716536844
100
AcDbArc
 50
250.0000000002
 51
70.00000000029999
  0
ARC
  5
5B
330
56
100
AcDbEntity
  8
SLD-0
100
AcDbCircle
 10
-0.4659377771
 20
-0.1811090916
 30
0.0
 40
0.010826771653623
100
AcDbArc
 50
110.000000001
 51
290.0000000002999
  0
ARC
  5
5C
330
56
100
AcDbEntity
  8
SLD-0
100
AcDbCircle
 10
0.0316553626
 20
0.0
 30
0.0
 40
0.0108267716539309
100
AcDbArc
 50
250.0000000007999
 51
70.0000000008
  0
ARC
  5
5D
330
56
100
AcDbEntity
  8
SLD-0
100
AcDbCircle
 10
-0.4659377771
 20
0.1811090916
 30
0.0
 40
0.0108267716536391
100
AcDbArc
 50
109.9999999999
 51
289.9999999993999
  0
ARC
  5
5E
330
56
100
AcDbEntity
  8
SLD-0
100
AcDbCircle
 10
0.0316553626
 20
0.3622181833
 30
0.0
 40
0.0108267716536896
100
AcDbArc
 50
289.9999999997999
 51
70.0000000004
  0
ARC
  5
5F
330
56
100
AcDbEntity
  8
SLD-0
100
AcDbCircle
 10
0.0316553626
 20
0.3622181833
 30
0.0
 40
0.0108267716536565
100
AcDbArc
 50
250.0000000003
 51
50.0000000004
  0
LINE
  5
60
330
56
100
AcDbEntity
  8
SLD-0
100
AcDbLine
 10
0.0316553626
 20
-0.3730449549
 30
0.0
 11
-0.4978721965
 21
-0.3730449549
 31
0.0
  0
LINE
  5
61
330
56
100
AcDbEntity
  8
SLD-0
100
AcDbLine
 10
-0.0297463106
 20
-0.3513914116
 30
0.0
 11
-0.4978721965
 21
-0.3513914116
 31
0.0
  0
LINE
  5
62
330
56
100
AcDbEntity
  8
SLD-0
100
AcDbLine
 10
0.0279523886
 20
-0.3723920207
 30
0.0
 11
-0.4696407511
 21
-0.1912829291
 31
0.0
  0
LINE
  5
63
330
56
100
AcDbEntity
  8
SLD-0
100
AcDbLine
 10
0.0353583366
 20
-0.3520443459
 30
0.0
 11
-0.4342824145000001
 21
-0.1811090916
 31
0.0
  0
LINE
  5
64
330
56
100
AcDbEntity
  8
SLD-0
100
AcDbLine
 10
0.0353583366
 20
-0.0101738374
 30
0.0
 11
-0.4622348032
 21
-0.1912829291
 31
0.0
  0
LINE
  5
65
330
56
100
AcDbEntity
  8
SLD-0
100
AcDbLine
 10
-0.4659377771
 20
-0.1695874819
 30
0.0
 11
-0.4696407511
 21
-0.1709352542
 31
0.0
  0
LINE
  5
66
330
56
100
AcDbEntity
  8
SLD-0
100
AcDbLine
 10
0.0316553626
 20
0.0115216097
 30
0.0
 11
0.0353583366
 21
0.0101738374
 31
0.0
  0
LINE
  5
67
330
56
100
AcDbEntity
  8
SLD-0
100
AcDbLine
 10
-0.4696407511
 20
0.1709352542
 30
0.0
 11
0.0279523886
 21
-0.0101738374
 31
0.0
  0
LINE
  5
68
330
56
100
AcDbEntity
  8
SLD-0
100
AcDbLine
 10
-0.4696407511
 20
-0.1709352542
 30
0.0
 11
0.0
 21
0.0
 31
0.0
  0
LINE
  5
69
330
56
100
AcDbEntity
  8
SLD-0
100
AcDbLine
 10
-0.4622348032
 20
-0.1912829291
 30
0.0
 11
0.0353583366
 21
-0.0101738374
 31
0.0
  0
LINE
  5
6A
330
56
100
AcDbEntity
  8
SLD-0
100
AcDbLine
 10
0.0279523886
 20
-0.0101738374
 30
0.0
 11
-0.4696407511
 21
0.1709352542
 31
0.0
  0
LINE
  5
6B
330
56
100
AcDbEntity
  8
SLD-0
100
AcDbLine
 10
0.0316553626
 20
0.0115216097
 30
0.0
 11
-0.4342824145000001
 21
0.1811090916
 31
0.0
  0
LINE
  5
6C
330
56
100
AcDbEntity
  8
SLD-0
100
AcDbLine
 10
0.0353583366
 20
0.3520443459
 30
0.0
 11
-0.4622348032
 21
0.1709352542
 31
0.0
  0
LINE
  5
6D
330
56
100
AcDbEntity
  8
SLD-0
100
AcDbLine
 10
0.0
 20
0.3622181833
 30
0.0
 11
-0.4696407511
 21
0.1912829291
 31
0.0
  0
LINE
  5
6E
330
56
100
AcDbEntity
  8
SLD-0
100
AcDbLine
 10
-0.4696407511
 20
0.1912829291
 30
0.0
 11
0.0
 21
0.3622181833
 31
0.0
  0
LINE
  5
6F
330
56
100
AcDbEntity
  8
SLD-0
100
AcDbLine
 10
-0.4622348032
 20
0.1709352542
 30
0.0
 11
0.0353583366
 21
0.3520443459
 31
0.0
  0
LINE
  5
70
330
56
100
AcDbEntity
  8
SLD-0
100
AcDbLine
 10
0.0279523886
 20
0.3520443459
 30
0.0
 11
-0.0837565559
 21
0.3927030766
 31
0.0
  0
LINE
  5
71
330
56
100
AcDbEntity
  8
SLD-0
100
AcDbLine
 10
-0.0837565559
 20
0.3927030766
 30
0.0
 11
0.0279523886
 21
0.3520443459
 31
0.0
  0
ENDBLK
  5
58
330
56
100
AcDbEntity
  8
0
100
AcDbBlockEnd
  0
BLOCK
  5
10B
330
100
100
AcDbEntity
  8
0
100
AcDbBlockBegin
  2
*D7
 70
     1
 10
0.0
 20
0.0
 30
0.0
  3
*D7
  1

  0
SOLID
  5
10E
330
100
100
AcDbEntity
  8
FORMAT
100
AcDbTrace
 10
2.327232461799999
 20
2.295439019699999
 30
0.0
 11
2.3012324618
 21
2.1394390197
 31
0.0
 12
2.3532324618
 22
2.1394390197
 32
0.0
 13
2.3532324618
 23
2.1394390197
 33
0.0
  0
SOLID
  5
10F
330
100
100
AcDbEntity
  8
FORMAT
100
AcDbTrace
 10
2.327232461799999
 20
2.885990200799999
 30
0.0
 11
2.3532324618
 21
3.041990200799999
 31
0.0
 12
2.3012324618
 22
3.041990200799999
 32
0.0
 13
2.3012324618
 23
3.041990200799999
 33
0.0
  0
LINE
  5
110
330
100
100
AcDbEntity
  8
FORMAT
100
AcDbLine
 10
2.833285097099999
 20
2.295439019699999
 30
0.0
 11
2.202232461799999
 21
2.295439019699999
 31
0.0
  0
LINE
  5
111
330
100
100
AcDbEntity
  8
FORMAT
100
AcDbLine
 10
2.833285097099999
 20
2.885990200799999
 30
0.0
 11
2.202232461799999
 21
2.885990200799999
 31
0.0
  0
LINE
  5
112
330
100
100
AcDbEntity
  8
FORMAT
100
AcDbLine
 10
2.327232461799999
 20
2.295439019699999
 30
0.0
 11
2.327232461799999
 21
1.7954390197
 31
0.0
  0
LINE
  5
113
330
100
100
AcDbEntity
  8
FORMAT
100
AcDbLine
 10
2.327232461799999
 20
2.885990200799999
 30
0.0
 11
2.327232461799999
 21
3.385990200799999
 31
0.0
  0
MTEXT
  5
114
330
100
100
AcDbEntity
  8
FORMAT
100
AcDbMText
 10
2.149077056399999
 20
2.6797739778
 30
0.0
 40
0.1377952756
 41
0.0
 71
     1
 72
     1
  1
{.591}
  7
SLDTEXTSTYLE0
 73
     1
 44
1.0
  0
ENDBLK
  5
10C
330
100
100
AcDbEntity
  8
0
100
AcDbBlockEnd
  0
BLOCK
  5
121
330
116
100
AcDbEntity
  8
0
100
AcDbBlockBegin
  2
*D8
 70
     1
 10
0.0
 20
0.0
 30
0.0
  3
*D8
  1

  0
SOLID
  5
124
330
116
100
AcDbEntity
  8
FORMAT
100
AcDbTrace
 10
6.765480875599999
 20
1.7402343033
 30
0.0
 11
6.921480875599999
 21
1.7142343033
 31
0.0
 12
6.921480875599999
 22
1.7662343033
 32
0.0
 13
6.921480875599999
 23
1.7662343033
 33
0.0
  0
SOLID
  5
125
330
116
100
AcDbEntity
  8
FORMAT
100
AcDbTrace
 10
7.9938273323
 20
1.7402343033
 30
0.0
 11
7.837827332299999
 21
1.7662343033
 31
0.0
 12
7.837827332299999
 22
1.7142343033
 32
0.0
 13
7.837827332299999
 23
1.7142343033
 33
0.0
  0
LINE
  5
126
330
116
100
AcDbEntity
  8
FORMAT
100
AcDbLine
 10
6.765480875599999
 20
2.2454390197
 30
0.0
 11
6.765480875599999
 21
1.6152343033
 31
0.0
  0
LINE
  5
127
330
116
100
AcDbEntity
  8
FORMAT
100
AcDbLine
 10
7.9938273323
 20
2.2454390197
 30
0.0
 11
7.9938273323
 21
1.6152343033
 31
0.0
  0
LINE
  5
128
330
116
100
AcDbEntity
  8
FORMAT
100
AcDbLine
 10
6.765480875599999
 20
1.7402343033
 30
0.0
 11
7.102134841099999
 21
1.7402343033
 31
0.0
  0
LINE
  5
129
330
116
100
AcDbEntity
  8
FORMAT
100
AcDbLine
 10
7.9938273323
 20
1.7402343033
 30
0.0
 11
7.6852487407
 21
1.7402343033
 31
0.0
  0
MTEXT
  5
12A
330
116
100
AcDbEntity
  8
FORMAT
100
AcDbMText
 10
7.164634841099999
 20
1.8069162112
 30
0.0
 40
0.1377952756
 41
0.0
 71
     1
 72
     1
  1
{1.228}
  7
SLDTEXTSTYLE0
 73
     1
 44
1.0
  0
ENDBLK
  5
122
330
116
100
AcDbEntity
  8
0
100
AcDbBlockEnd
  0
BLOCK
  5
137
330
12C
100
AcDbEntity
  8
0
100
AcDbBlockBegin
  2
*D9
 70
     1
 10
0.0
 20
0.0
 30
0.0
  3
*D9
  1

  0
SOLID
  5
139
330
12C
100
AcDbEntity
  8
FORMAT
100
AcDbTrace
 10
4.3006079317
 20
6.6016609434
 30
0.0
 11
4.1446079317
 21
6.6276609434
 31
0.0
 12
4.1446079317
 22
6.575660943399999
 32
0.0
 13
4.1446079317
 23
6.575660943399999
 33
0.0
  0
SOLID
  5
13A
330
12C
100
AcDbEntity
  8
FORMAT
100
AcDbTrace
 10
3.733678797799999
 20
6.6016609434
 30
0.0
 11
3.889678797799999
 21
6.575660943399999
 31
0.0
 12
3.889678797799999
 22
6.6276609434
 32
0.0
 13
3.889678797799999
 23
6.6276609434
 33
0.0
  0
LINE
  5
13B
330
12C
100
AcDbEntity
  8
FORMAT
100
AcDbLine
 10
4.3006079317
 20
5.174967698299999
 30
0.0
 11
4.3006079317
 21
6.7266609434
 31
0.0
  0
LINE
  5
13C
330
12C
100
AcDbEntity
  8
FORMAT
100
AcDbLine
 10
3.733678797799999
 20
5.174967698299999
 30
0.0
 11
3.733678797799999
 21
6.7266609434
 31
0.0
  0
LINE
  5
13D
330
12C
100
AcDbEntity
  8
FORMAT
100
AcDbLine
 10
4.3006079317
 20
6.6016609434
 30
0.0
 11
4.7068419841
 21
6.6016609434
 31
0.0
  0
LINE
  5
13E
330
12C
100
AcDbEntity
  8
FORMAT
100
AcDbLine
 10
3.733678797799999
 20
6.6016609434
 30
0.0
 11
4.3006079317
 21
6.6016609434
 31
0.0
  0
MTEXT
  5
13F
330
12C
100
AcDbEntity
  8
FORMAT
100
AcDbMText
 10
4.7693419841
 20
6.6683428512
 30
0.0
 40
0.1377952756
 41
0.0
 71
     1
 72
     1
  1
{.567}
  7
SLDTEXTSTYLE0
 73
     1
 44
1.0
  0
ENDBLK
  5
138
330
12C
100
AcDbEntity
  8
0
100
AcDbBlockEnd
  0
BLOCK
  5
14C
330
141
100
AcDbEntity
  8
0
100
AcDbBlockBegin
  2
*D10
 70
     1
 10
0.0
 20
0.0
 30
0.0
  3
*D10
  1

  0
SOLID
  5
14F
330
141
100
AcDbEntity
  8
FORMAT
100
AcDbTrace
 10
2.883285097099999
 20
6.6016609434
 30
0.0
 11
3.039285097099999
 21
6.575660943399999
 31
0.0
 12
3.039285097099999
 22
6.6276609434
 32
0.0
 13
3.039285097099999
 23
6.6276609434
 33
0.0
  0
SOLID
  5
150
330
141
100
AcDbEntity
  8
FORMAT
100
AcDbTrace
 10
3.733678797799999
 20
6.6016609434
 30
0.0
 11
3.577678797799999
 21
6.6276609434
 31
0.0
 12
3.577678797799999
 22
6.575660943399999
 32
0.0
 13
3.577678797799999
 23
6.575660943399999
 33
0.0
  0
LINE
  5
151
330
141
100
AcDbEntity
  8
FORMAT
100
AcDbLine
 10
2.883285097099999
 20
5.7891409266
 30
0.0
 11
2.883285097099999
 21
6.7266609434
 31
0.0
  0
LINE
  5
152
330
141
100
AcDbEntity
  8
FORMAT
100
AcDbLine
 10
3.733678797799999
 20
5.174967698299999
 30
0.0
 11
3.733678797799999
 21
6.7266609434
 31
0.0
  0
LINE
  5
153
330
141
100
AcDbEntity
  8
FORMAT
100
AcDbLine
 10
2.883285097099999
 20
6.6016609434
 30
0.0
 11
2.4512612481
 21
6.6016609434
 31
0.0
  0
LINE
  5
154
330
141
100
AcDbEntity
  8
FORMAT
100
AcDbLine
 10
3.733678797799999
 20
6.6016609434
 30
0.0
 11
2.883285097099999
 21
6.6016609434
 31
0.0
  0
MTEXT
  5
155
330
141
100
AcDbEntity
  8
FORMAT
100
AcDbMText
 10
2.0324504373
 20
6.6683428512
 30
0.0
 40
0.1377952756
 41
0.0
 71
     1
 72
     1
  1
{.850}
  7
SLDTEXTSTYLE0
 73
     1
 44
1.0
  0
ENDBLK
  5
14D
330
141
100
AcDbEntity
  8
0
100
AcDbBlockEnd
  0
BLOCK
  5
162
330
157
100
AcDbEntity
  8
0
100
AcDbBlockBegin
  2
*D11
 70
     1
 10
0.0
 20
0.0
 30
0.0
  3
*D11
  1

  0
SOLID
  5
164
330
157
100
AcDbEntity
  8
FORMAT
100
AcDbTrace
 10
2.327232461799999
 20
4.5107944699
 30
0.0
 11
2.3012324618
 21
4.354794469899999
 31
0.0
 12
2.3532324618
 22
4.354794469899999
 32
0.0
 13
2.3532324618
 23
4.354794469899999
 33
0.0
  0
SOLID
  5
165
330
157
100
AcDbEntity
  8
FORMAT
100
AcDbTrace
 10
2.327232461799999
 20
5.124967698299999
 30
0.0
 11
2.3532324618
 21
5.280967698299999
 31
0.0
 12
2.3012324618
 22
5.280967698299999
 32
0.0
 13
2.3012324618
 23
5.280967698299999
 33
0.0
  0
LINE
  5
166
330
157
100
AcDbEntity
  8
FORMAT
100
AcDbLine
 10
2.833285097099999
 20
4.5107944699
 30
0.0
 11
2.202232461799999
 21
4.5107944699
 31
0.0
  0
LINE
  5
167
330
157
100
AcDbEntity
  8
FORMAT
100
AcDbLine
 10
3.683678797799999
 20
5.124967698299999
 30
0.0
 11
2.202232461799999
 21
5.124967698299999
 31
0.0
  0
LINE
  5
168
330
157
100
AcDbEntity
  8
FORMAT
100
AcDbLine
 10
2.327232461799999
 20
4.5107944699
 30
0.0
 11
2.327232461799999
 21
4.0107944699
 31
0.0
  0
LINE
  5
169
330
157
100
AcDbEntity
  8
FORMAT
100
AcDbLine
 10
2.327232461799999
 20
5.124967698299999
 30
0.0
 11
2.327232461799999
 21
5.6249676983
 31
0.0
  0
MTEXT
  5
16A
330
157
100
AcDbEntity
  8
FORMAT
100
AcDbMText
 10
2.149077056399999
 20
4.904322968899999
 30
0.0
 40
0.1377952756
 41
0.0
 71
     1
 72
     1
  1
{.614}
  7
SLDTEXTSTYLE0
 73
     1
 44
1.0
  0
ENDBLK
  5
163
330
157
100
AcDbEntity
  8
0
100
AcDbBlockEnd
  0
BLOCK
  5
175
330
16C
100
AcDbEntity
  8
0
100
AcDbBlockBegin
  2
*D12
 70
     1
 10
0.0
 20
0.0
 30
0.0
  3
*D12
  1

  0
SOLID
  5
179
330
16C
100
AcDbEntity
  8
FORMAT
100
AcDbTrace
 10
4.316584054399999
 20
5.0722157355
 30
0.0
 11
4.3369171916
 21
4.915376443399999
 31
0.0
 12
4.386684900599999
 22
4.930448773999999
 32
0.0
 13
4.386684900599999
 23
4.930448773999999
 33
0.0
  0
LINE
  5
17A
330
16C
100
AcDbEntity
  8
FORMAT
100
AcDbLine
 10
4.316584054399999
 20
5.0722157355
 30
0.0
 11
4.58468006
 21
4.186982764899999
 31
0.0
  0
LINE
  5
17B
330
16C
100
AcDbEntity
  8
FORMAT
100
AcDbLine
 10
4.58468006
 20
4.186982764899999
 30
0.0
 11
4.33468006
 21
4.186982764899999
 31
0.0
  0
MTEXT
  5
17C
330
16C
100
AcDbEntity
  8
FORMAT
100
AcDbMText
 10
3.3925580523
 20
4.2557698835
 30
0.0
 40
0.1377952756
 41
0.0
 71
     1
 72
     1
  1
{3X, }
  7
SLDTEXTSTYLE0
 73
     1
 44
1.0
  0
MTEXT
  5
17D
330
16C
100
AcDbEntity
  8
FORMAT
100
AcDbMText
 10
3.708147523299999
 20
4.253664679699999
 30
0.0
 40
0.1377952756
 41
0.0
 71
     1
 72
     1
  1
{%%c}
  7
SLDTEXTSTYLE0
 73
     1
 44
1.0
  0
MTEXT
  5
17E
330
16C
100
AcDbEntity
  8
FORMAT
100
AcDbMText
 10
3.9158692492
 20
4.253664672799999
 30
0.0
 40
0.1377952756
 41
0.0
 71
     1
 72
     1
  1
{.110}
  7
SLDTEXTSTYLE0
 73
     1
 44
1.0
  0
ENDBLK
  5
176
330
16C
100
AcDbEntity
  8
0
100
AcDbBlockEnd
  0
BLOCK
  5
18B
330
180
100
AcDbEntity
  8
0
100
AcDbBlockBegin
  2
*D13
 70
     1
 10
0.0
 20
0.0
 30
0.0
  3
*D13
  1

  0
SOLID
  5
18D
330
180
100
AcDbEntity
  8
FORMAT
100
AcDbTrace
 10
5.151001632499999
 20
1.7284675691
 30
0.0
 11
4.9950016325
 21
1.7544675691
 31
0.0
 12
4.9950016325
 22
1.702467569099999
 32
0.0
 13
4.9950016325
 23
1.702467569099999
 33
0.0
  0
SOLID
  5
18E
330
180
100
AcDbEntity
  8
FORMAT
100
AcDbTrace
 10
2.883285097099999
 20
1.7284675691
 30
0.0
 11
3.039285097099999
 21
1.702467569099999
 31
0.0
 12
3.039285097099999
 22
1.7544675691
 32
0.0
 13
3.039285097099999
 23
1.7544675691
 33
0.0
  0
LINE
  5
18F
330
180
100
AcDbEntity
  8
FORMAT
100
AcDbLine
 10
5.151001632499999
 20
2.2454390197
 30
0.0
 11
5.151001632499999
 21
1.6034675691
 31
0.0
  0
LINE
  5
190
330
180
100
AcDbEntity
  8
FORMAT
100
AcDbLine
 10
2.883285097099999
 20
2.2454390197
 30
0.0
 11
2.883285097099999
 21
1.6034675691
 31
0.0
  0
LINE
  5
191
330
180
100
AcDbEntity
  8
FORMAT
100
AcDbLine
 10
5.151001632499999
 20
1.7284675691
 30
0.0
 11
4.266260716
 21
1.7284675691
 31
0.0
  0
LINE
  5
192
330
180
100
AcDbEntity
  8
FORMAT
100
AcDbLine
 10
2.883285097099999
 20
1.7284675691
 30
0.0
 11
3.683146816399999
 21
1.7284675691
 31
0.0
  0
MTEXT
  5
193
330
180
100
AcDbEntity
  8
FORMAT
100
AcDbMText
 10
3.745646816399999
 20
1.795149476999999
 30
0.0
 40
0.1377952756
 41
0.0
 71
     1
 72
     1
  1
{2.268}
  7
SLDTEXTSTYLE0
 73
     1
 44
1.0
  0
ENDBLK
  5
18C
330
180
100
AcDbEntity
  8
0
100
AcDbBlockEnd
  0
BLOCK
  5
1A0
330
195
100
AcDbEntity
  8
0
100
AcDbBlockBegin
  2
*D14
 70
     1
 10
0.0
 20
0.0
 30
0.0
  3
*D14
  1

  0
SOLID
  5
1A2
330
195
100
AcDbEntity
  8
FORMAT
100
AcDbTrace
 10
5.151001632499999
 20
4.076558054499999
 30
0.0
 11
5.307001632499999
 21
4.050558054499999
 31
0.0
 12
5.307001632499999
 22
4.1025580545
 32
0.0
 13
5.307001632499999
 23
4.1025580545
 33
0.0
  0
SOLID
  5
1A3
330
195
100
AcDbEntity
  8
FORMAT
100
AcDbTrace
 10
8.031032940499999
 20
4.076558054499999
 30
0.0
 11
7.875032940499999
 21
4.1025580545
 31
0.0
 12
7.875032940499999
 22
4.050558054499999
 32
0.0
 13
7.875032940499999
 23
4.050558054499999
 33
0.0
  0
LINE
  5
1A4
330
195
100
AcDbEntity
  8
FORMAT
100
AcDbLine
 10
5.151001632499999
 20
4.460794469899999
 30
0.0
 11
5.151001632499999
 21
3.951558054499999
 31
0.0
  0
LINE
  5
1A5
330
195
100
AcDbEntity
  8
FORMAT
100
AcDbLine
 10
8.031032940499999
 20
4.970884715
 30
0.0
 11
8.031032940499999
 21
3.951558054499999
 31
0.0
  0
LINE
  5
1A6
330
195
100
AcDbEntity
  8
FORMAT
100
AcDbLine
 10
5.151001632499999
 20
4.076558054499999
 30
0.0
 11
6.200622915299999
 21
4.076558054499999
 31
0.0
  0
LINE
  5
1A7
330
195
100
AcDbEntity
  8
FORMAT
100
AcDbLine
 10
8.031032940499999
 20
4.076558054499999
 30
0.0
 11
6.965899363099999
 21
4.076558054499999
 31
0.0
  0
MTEXT
  5
1A8
330
195
100
AcDbEntity
  8
FORMAT
100
AcDbMText
 10
6.263122915299999
 20
4.144262161499999
 30
0.0
 40
0.1377952756
 41
0.0
 71
     1
 72
     1
  1
{6.0}
  7
SLDTEXTSTYLE0
 73
     1
 44
1.0
  0
MTEXT
  5
1A9
330
195
100
AcDbEntity
  8
FORMAT
100
AcDbMText
 10
6.517661423099999
 20
4.1421569576
 30
0.0
 40
0.1377952756
 41
0.0
 71
     1
 72
     1
  1
{%%p}
  7
SLDTEXTSTYLE0
 73
     1
 44
1.0
  0
MTEXT
  5
1AA
330
195
100
AcDbEntity
  8
FORMAT
100
AcDbMText
 10
6.6489114119
 20
4.144262161499999
 30
0.0
 40
0.1377952756
 41
0.0
 71
     1
 72
     1
  1
{0.2}
  7
SLDTEXTSTYLE0
 73
     1
 44
1.0
  0
ENDBLK
  5
1A1
330
195
100
AcDbEntity
  8
0
100
AcDbBlockEnd
  0
BLOCK
  5
1B8
330
1AC
100
AcDbEntity
  8
0
100
AcDbBlockBegin
  2
*D15
 70
     1
 10
0.0
 20
0.0
 30
0.0
  3
*D15
  1

  0
SOLID
  5
1BA
330
1AC
100
AcDbEntity
  8
FORMAT
100
AcDbTrace
 10
7.767648206799999
 20
4.575693717
 30
0.0
 11
7.611648206799999
 21
4.601693716999999
 31
0.0
 12
7.611648206799999
 22
4.549693717
 32
0.0
 13
7.611648206799999
 23
4.549693717
 33
0.0
  0
SOLID
  5
1BB
330
1AC
100
AcDbEntity
  8
FORMAT
100
AcDbTrace
 10
8.031032940499999
 20
4.575693717
 30
0.0
 11
8.187032940499999
 21
4.549693717
 31
0.0
 12
8.187032940499999
 22
4.601693716999999
 32
0.0
 13
8.187032940499999
 23
4.601693716999999
 33
0.0
  0
LINE
  5
1BC
330
1AC
100
AcDbEntity
  8
FORMAT
100
AcDbLine
 10
7.767648206799999
 20
4.9354516441
 30
0.0
 11
7.767648206799999
 21
4.450693717
 31
0.0
  0
LINE
  5
1BD
330
1AC
100
AcDbEntity
  8
FORMAT
100
AcDbLine
 10
8.031032940499999
 20
4.970884715
 30
0.0
 11
8.031032940499999
 21
4.450693717
 31
0.0
  0
LINE
  5
1BE
330
1AC
100
AcDbEntity
  8
FORMAT
100
AcDbLine
 10
7.767648206799999
 20
4.575693717
 30
0.0
 11
7.3085100774
 21
4.575693717
 31
0.0
  0
LINE
  5
1BF
330
1AC
100
AcDbEntity
  8
FORMAT
100
AcDbLine
 10
8.031032940499999
 20
4.575693717
 30
0.0
 11
8.531032940499999
 21
4.575693717
 31
0.0
  0
MTEXT
  5
1C0
330
1AC
100
AcDbEntity
  8
FORMAT
100
AcDbMText
 10
5.920512201
 20
4.533045605599999
 30
0.0
 40
0.1377952756
 41
0.0
 71
     1
 72
     1
  1
{(LEAD LENGTH)}
  7
SLDTEXTSTYLE0
 73
     1
 44
1.0
  0
MTEXT
  5
1C1
330
1AC
100
AcDbEntity
  8
FORMAT
100
AcDbMText
 10
6.4716322782
 20
4.7954376519
 30
0.0
 40
0.1377952756
 41
0.0
 71
     1
 72
     1
  1
{0.2}
  7
SLDTEXTSTYLE0
 73
     1
 44
1.0
  0
ENDBLK
  5
1B9
330
1AC
100
AcDbEntity
  8
0
100
AcDbBlockEnd
  0
BLOCK
  5
1CF
330
1C3
100
AcDbEntity
  8
0
100
AcDbBlockBegin
  2
*D16
 70
     1
 10
0.0
 20
0.0
 30
0.0
  3
*D16
  1

  0
SOLID
  5
1D1
330
1C3
100
AcDbEntity
  8
FORMAT
100
AcDbTrace
 10
3.733678797799999
 20
6.163535399199999
 30
0.0
 11
3.577678797799999
 21
6.189535399199999
 31
0.0
 12
3.577678797799999
 22
6.137535399199999
 32
0.0
 13
3.577678797799999
 23
6.137535399199999
 33
0.0
  0
SOLID
  5
1D2
330
1C3
100
AcDbEntity
  8
FORMAT
100
AcDbTrace
 10
4.017143364799999
 20
6.163535399199999
 30
0.0
 11
4.1731433648
 21
6.137535399199999
 31
0.0
 12
4.1731433648
 22
6.189535399199999
 32
0.0
 13
4.1731433648
 23
6.189535399199999
 33
0.0
  0
LINE
  5
1D3
330
1C3
100
AcDbEntity
  8
FORMAT
100
AcDbLine
 10
3.733678797799999
 20
5.174967698299999
 30
0.0
 11
3.733678797799999
 21
6.288535399199999
 31
0.0
  0
LINE
  5
1D4
330
1C3
100
AcDbEntity
  8
FORMAT
100
AcDbLine
 10
4.017143364799999
 20
5.174967698299999
 30
0.0
 11
4.017143364799999
 21
6.288535399199999
 31
0.0
  0
LINE
  5
1D5
330
1C3
100
AcDbEntity
  8
FORMAT
100
AcDbLine
 10
3.733678797799999
 20
6.163535399199999
 30
0.0
 11
3.233678797799999
 21
6.163535399199999
 31
0.0
  0
LINE
  5
1D6
330
1C3
100
AcDbEntity
  8
FORMAT
100
AcDbLine
 10
4.017143364799999
 20
6.163535399199999
 30
0.0
 11
4.552335878
 21
6.163535399199999
 31
0.0
  0
MTEXT
  5
1D7
330
1C3
100
AcDbEntity
  8
FORMAT
100
AcDbMText
 10
4.614835878
 20
6.2302173071
 30
0.0
 40
0.1377952756
 41
0.0
 71
     1
 72
     1
  1
{.283}
  7
SLDTEXTSTYLE0
 73
     1
 44
1.0
  0
ENDBLK
  5
1D0
330
1C3
100
AcDbEntity
  8
0
100
AcDbBlockEnd
  0
BLOCK
  5
1D9
330
1D8
100
AcDbEntity
  8
0
100
AcDbBlockBegin
  2
SW_NOTE_3
 70
     0
 10
0.0
 20
0.0
 30
0.0
  3
SW_NOTE_3
  1

  0
MTEXT
  5
1DB
330
1D8
100
AcDbEntity
  8
0
  6
Continuous
 62
     7
370
     0
100
AcDbMText
 10
0.0
 20
0.1760119341
 30
0.0
 40
0.1377952756
 41
0.0
 71
     1
 72
     1
  1
{PART}
  7
SLDTEXTSTYLE0
 73
     1
 44
1.0
  0
MTEXT
  5
1DC
330
1D8
100
AcDbEntity
  8
0
  6
Continuous
 62
     7
370
     0
100
AcDbMText
 10
0.0643523366
 20
-0.0011534126
 30
0.0
 40
0.1377952756
 41
0.0
 71
     1
 72
     1
  1
{No.}
  7
SLDTEXTSTYLE0
 73
     1
 44
1.0
  0
ENDBLK
  5
1DA
330
1D8
100
AcDbEntity
  8
0
100
AcDbBlockEnd
  0
BLOCK
  5
1DF
330
1DE
100
AcDbEntity
  8
0
100
AcDbBlockBegin
  2
SW_NOTE_4
 70
     0
 10
0.0
 20
0.0
 30
0.0
  3
SW_NOTE_4
  1

  0
MTEXT
  5
1E1
330
1DE
100
AcDbEntity
  8
0
  6
Continuous
 62
     7
370
     0
100
AcDbMText
 10
0.0
 20
0.1760119341
 30
0.0
 40
0.1377952756
 41
0.0
 71
     1
 72
     1
  1
{REVISION}
  7
SLDTEXTSTYLE0
 73
     1
 44
1.0
  0
MTEXT
  5
1E2
330
1DE
100
AcDbEntity
  8
0
  6
Continuous
 62
     7
370
     0
100
AcDbMText
 10
0.1722201705
 20
-0.0011534126
 30
0.0
 40
0.1377952756
 41
0.0
 71
     1
 72
     1
  1
{DATE}
  7
SLDTEXTSTYLE0
 73
     1
 44
1.0
  0
ENDBLK
  5
1E0
330
1DE
100
AcDbEntity
  8
0
100
AcDbBlockEnd
  0
BLOCK
  5
1E5
330
1E4
100
AcDbEntity
  8
0
100
AcDbBlockBegin
  2
SW_NOTE_5
 70
     0
 10
0.0
 20
0.0
 30
0.0
  3
SW_NOTE_5
  1

  0
MTEXT
  5
1E7
330
1E4
100
AcDbEntity
  8
0
  6
Continuous
 62
     7
370
     0
100
AcDbMText
 10
0.0
 20
0.1760119341
 30
0.0
 40
0.1377952756
 41
0.0
 71
     1
 72
     1
  1
{PART}
  7
SLDTEXTSTYLE0
 73
     1
 44
1.0
  0
MTEXT
  5
1E8
330
1E4
100
AcDbEntity
  8
0
  6
Continuous
 62
     7
370
     0
100
AcDbMText
 10
-0.0513741915
 20
-0.0011534126
 30
0.0
 40
0.1377952756
 41
0.0
 71
     1
 72
     1
  1
{NAME}
  7
SLDTEXTSTYLE0
 73
     1
 44
1.0
  0
ENDBLK
  5
1E6
330
1E4
100
AcDbEntity
  8
0
100
AcDbBlockEnd
  0
BLOCK
  5
1EC
330
1EB
100
AcDbEntity
  8
0
100
AcDbBlockBegin
  2
SW_NOTE_6
 70
     0
 10
0.0
 20
0.0
 30
0.0
  3
SW_NOTE_6
  1

  0
MTEXT
  5
1EE
330
1EB
100
AcDbEntity
  8
0
  6
Continuous
 62
     7
370
     0
100
AcDbMText
 10
0.0
 20
0.1760119341
 30
0.0
 40
0.1377952756
 41
0.0
 71
     1
 72
     1
  1
{PART}
  7
SLDTEXTSTYLE0
 73
     1
 44
1.0
  0
MTEXT
  5
1EF
330
1EB
100
AcDbEntity
  8
0
  6
Continuous
 62
     7
370
     0
100
AcDbMText
 10
0.0643523366
 20
-0.0011534126
 30
0.0
 40
0.1377952756
 41
0.0
 71
     1
 72
     1
  1
{No.}
  7
SLDTEXTSTYLE0
 73
     1
 44
1.0
  0
ENDBLK
  5
1ED
330
1EB
100
AcDbEntity
  8
0
100
AcDbBlockEnd
  0
BLOCK
  5
1F2
330
1F1
100
AcDbEntity
  8
0
100
AcDbBlockBegin
  2
SW_NOTE_7
 70
     0
 10
0.0
 20
0.0
 30
0.0
  3
SW_NOTE_7
  1

  0
MTEXT
  5
1F4
330
1F1
100
AcDbEntity
  8
0
  6
Continuous
 62
     7
370
     0
100
AcDbMText
 10
0.0
 20
0.1760119341
 30
0.0
 40
0.1377952756
 41
0.0
 71
     1
 72
     1
  1
{REVISION}
  7
SLDTEXTSTYLE0
 73
     1
 44
1.0
  0
MTEXT
  5
1F5
330
1F1
100
AcDbEntity
  8
0
  6
Continuous
 62
     7
370
     0
100
AcDbMText
 10
0.1722201705
 20
-0.0011534126
 30
0.0
 40
0.1377952756
 41
0.0
 71
     1
 72
     1
  1
{DATE}
  7
SLDTEXTSTYLE0
 73
     1
 44
1.0
  0
ENDBLK
  5
1F3
330
1F1
100
AcDbEntity
  8
0
100
AcDbBlockEnd
  0
BLOCK
  5
1F8
330
1F7
100
AcDbEntity
  8
0
100
AcDbBlockBegin
  2
SW_NOTE_8
 70
     0
 10
0.0
 20
0.0
 30
0.0
  3
SW_NOTE_8
  1

  0
MTEXT
  5
1FA
330
1F7
100
AcDbEntity
  8
0
  6
Continuous
 62
     7
370
     0
100
AcDbMText
 10
0.0
 20
0.1760119341
 30
0.0
 40
0.1377952756
 41
0.0
 71
     1
 72
     1
  1
{PART}
  7
SLDTEXTSTYLE0
 73
     1
 44
1.0
  0
MTEXT
  5
1FB
330
1F7
100
AcDbEntity
  8
0
  6
Continuous
 62
     7
370
     0
100
AcDbMText
 10
-0.0513741915
 20
-0.0011534126
 30
0.0
 40
0.1377952756
 41
0.0
 71
     1
 72
     1
  1
{NAME}
  7
SLDTEXTSTYLE0
 73
     1
 44
1.0
  0
ENDBLK
  5
1F9
330
1F7
100
AcDbEntity
  8
0
100
AcDbBlockEnd
  0
ENDSEC
  0
SECTION
  2
ENTITIES
  0
LINE
  5
72
330
1F
100
AcDbEntity
  8
0
  6
Continuous
 62
     7
370
     0
100
AcDbLine
 10
4.424563706599999
 20
8.192032818499999
 30
0.0
 11
4.424563706599999
 21
7.786032818499999
 31
0.0
  0
LINE
  5
73
330
1F
100
AcDbEntity
  8
0
  6
Continuous
 62
     7
370
     0
100
AcDbLine
 10
4.4865637066
 20
8.192032818499999
 30
0.0
 11
4.4865637066
 21
7.786032818499999
 31
0.0
  0
LINE
  5
74
330
1F
100
AcDbEntity
  8
0
  6
Continuous
 62
     7
370
     0
100
AcDbLine
 10
10.6292515765
 20
8.192032818499999
 30
0.0
 11
0.329927
 21
8.192032818499999
 31
0.0
  0
LINE
  5
75
330
1F
100
AcDbEntity
  8
0
  6
Continuous
 62
     7
370
     0
100
AcDbLine
 10
5.2365637066
 20
8.192032818499999
 30
0.0
 11
5.2365637066
 21
7.786032818499999
 31
0.0
  0
LINE
  5
76
330
1F
100
AcDbEntity
  8
0
  6
Continuous
 62
     7
370
     0
100
AcDbLine
 10
10.6292515765
 20
7.786032818499999
 30
0.0
 11
0.329927
 21
7.786032818499999
 31
0.0
  0
LINE
  5
77
330
1F
100
AcDbEntity
  8
0
  6
Continuous
 62
     7
370
     0
100
AcDbLine
 10
1.048563706599999
 20
8.192032818499999
 30
0.0
 11
1.048563706599999
 21
7.786032818499999
 31
0.0
  0
LINE
  5
78
330
1F
100
AcDbEntity
  8
0
  6
Continuous
 62
     7
370
     0
100
AcDbLine
 10
8.612563706599999
 20
8.192032818499999
 30
0.0
 11
8.612563706599999
 21
7.786032818499999
 31
0.0
  0
LINE
  5
79
330
1F
100
AcDbEntity
  8
0
  6
Continuous
 62
     7
370
     0
100
AcDbLine
 10
8.674563706599998
 20
8.192032818499999
 30
0.0
 11
8.674563706599998
 21
7.786032818499999
 31
0.0
  0
LINE
  5
7A
330
1F
100
AcDbEntity
  8
0
  6
Continuous
 62
     7
370
     0
100
AcDbLine
 10
9.424563706599998
 20
8.192032818499999
 30
0.0
 11
9.424563706599998
 21
7.786032818499999
 31
0.0
  0
LINE
  5
7B
330
1F
100
AcDbEntity
  8
0
  6
Continuous
 62
     7
370
     0
100
AcDbLine
 10
4.424563706599999
 20
8.192032818499999
 30
0.0
 11
4.424563706599999
 21
7.786032818499999
 31
0.0
  0
LINE
  5
7C
330
1F
100
AcDbEntity
  8
0
  6
Continuous
 62
     7
370
     0
100
AcDbLine
 10
4.4865637066
 20
8.192032818499999
 30
0.0
 11
4.4865637066
 21
7.786032818499999
 31
0.0
  0
LINE
  5
7D
330
1F
100
AcDbEntity
  8
0
  6
Continuous
 62
     7
370
     0
100
AcDbLine
 10
9.424563706599998
 20
8.192032818499999
 30
0.0
 11
1.048563706599999
 21
8.192032818499999
 31
0.0
  0
LINE
  5
7E
330
1F
100
AcDbEntity
  8
0
  6
Continuous
 62
     7
370
     0
100
AcDbLine
 10
5.2365637066
 20
8.192032818499999
 30
0.0
 11
5.2365637066
 21
7.786032818499999
 31
0.0
  0
LINE
  5
7F
330
1F
100
AcDbEntity
  8
0
  6
Continuous
 62
     7
370
     0
100
AcDbLine
 10
9.424563706599998
 20
7.786032818499999
 30
0.0
 11
1.048563706599999
 21
7.786032818499999
 31
0.0
  0
LINE
  5
80
330
1F
100
AcDbEntity
  8
0
  6
Continuous
 62
     7
370
     0
100
AcDbLine
 10
1.048563706599999
 20
8.192032818499999
 30
0.0
 11
1.048563706599999
 21
7.786032818499999
 31
0.0
  0
LINE
  5
81
330
1F
100
AcDbEntity
  8
0
  6
Continuous
 62
     7
370
     0
100
AcDbLine
 10
8.612563706599999
 20
8.192032818499999
 30
0.0
 11
8.612563706599999
 21
7.786032818499999
 31
0.0
  0
LINE
  5
82
330
1F
100
AcDbEntity
  8
0
  6
Continuous
 62
     7
370
     0
100
AcDbLine
 10
8.674563706599998
 20
8.192032818499999
 30
0.0
 11
8.674563706599998
 21
7.786032818499999
 31
0.0
  0
LINE
  5
83
330
1F
100
AcDbEntity
  8
0
  6
Continuous
 62
     7
370
     0
100
AcDbLine
 10
9.424563706599998
 20
8.192032818499999
 30
0.0
 11
9.424563706599998
 21
7.786032818499999
 31
0.0
  0
LINE
  5
84
330
1F
100
AcDbEntity
  8
0
  6
Continuous
 62
     7
370
     0
100
AcDbLine
 10
10.6292515765
 20
7.888553036599999
 30
0.0
 11
10.6292515765
 21
7.8632757972
 31
0.0
  0
LINE
  5
85
330
1F
100
AcDbEntity
  8
0
  6
Continuous
 62
     7
370
     0
100
AcDbLine
 10
10.6292515765
 20
7.786032818499999
 30
0.0
 11
10.6292515765
 21
8.192032818499999
 31
0.0
  0
LINE
  5
86
330
1F
100
AcDbEntity
  8
0
  6
Continuous
 62
     7
370
     0
100
AcDbLine
 10
0.269927
 20
8.2520328185
 30
0.0
 11
10.6892515765
 21
8.2520328185
 31
0.0
  0
LINE
  5
87
330
1F
100
AcDbEntity
  8
0
  6
Continuous
 62
     7
370
     0
100
AcDbLine
 10
0.329927
 20
8.1920731707
 30
0.0
 11
0.329927
 21
7.786032818499999
 31
0.0
  0
LINE
  5
88
330
1F
100
AcDbEntity
  8
0
  6
Continuous
 62
     7
370
     0
100
AcDbLine
 10
0.269927
 20
8.2520328185
 30
0.0
 11
0.269927
 21
0.3320731707
 31
0.0
  0
LINE
  5
89
330
1F
100
AcDbEntity
  8
SLD-0
100
AcDbLine
 10
7.767648206799999
 20
5.2290506816
 30
0.0
 11
8.031032940499999
 21
5.2290506816
 31
0.0
  0
LINE
  5
8A
330
1F
100
AcDbEntity
  8
0
  6
Continuous
 62
     7
370
     0
100
AcDbLine
 10
0.269927
 20
0.3320731707
 30
0.0
 11
10.6892515765
 21
0.3320731707
 31
0.0
  0
LINE
  5
8B
330
1F
100
AcDbEntity
  8
0
  6
Continuous
 62
     7
370
     0
100
AcDbLine
 10
10.6892515765
 20
8.2520328185
 30
0.0
 11
10.6892515765
 21
0.3320731707
 31
0.0
  0
LINE
  5
8C
330
1F
100
AcDbEntity
  8
SLD-0
100
AcDbLine
 10
7.767648206799999
 20
5.020884715
 30
0.0
 11
8.031032940499999
 21
5.020884715
 31
0.0
  0
LINE
  5
8D
330
1F
100
AcDbEntity
  8
SLD-0
100
AcDbLine
 10
2.883285097099999
 20
5.739140926599999
 30
0.0
 11
2.883285097099999
 21
4.5107944699
 31
0.0
  0
LINE
  5
8E
330
1F
100
AcDbEntity
  8
SLD-0
100
AcDbLine
 10
2.883285097099999
 20
4.5107944699
 30
0.0
 11
5.151001632499999
 21
4.5107944699
 31
0.0
  0
LINE
  5
8F
330
1F
100
AcDbEntity
  8
SLD-0
100
AcDbLine
 10
3.237615805699999
 20
4.747014942399999
 30
0.0
 11
3.5919465144
 21
4.747014942399999
 31
0.0
  0
LINE
  5
90
330
1F
100
AcDbEntity
  8
SLD-0
100
AcDbLine
 10
4.442340215199999
 20
4.747014942399999
 30
0.0
 11
4.796670923799999
 21
4.747014942399999
 31
0.0
  0
LINE
  5
91
330
1F
100
AcDbEntity
  8
SLD-0
100
AcDbLine
 10
2.962025254499999
 20
4.589534627399999
 30
0.0
 11
3.119505569499999
 21
4.589534627399999
 31
0.0
  0
LINE
  5
92
330
1F
100
AcDbEntity
  8
SLD-0
100
AcDbLine
 10
3.7100567506
 20
4.589534627399999
 30
0.0
 11
4.3242299789
 21
4.589534627399999
 31
0.0
  0
LINE
  5
93
330
1F
100
AcDbEntity
  8
SLD-0
100
AcDbLine
 10
4.914781160099999
 20
4.589534627399999
 30
0.0
 11
5.072261475
 21
4.589534627399999
 31
0.0
  0
LINE
  5
94
330
1F
100
AcDbEntity
  8
SLD-0
100
AcDbLine
 10
5.151001632499999
 20
4.5107944699
 30
0.0
 11
5.151001632499999
 21
5.739140926599999
 31
0.0
  0
LINE
  5
95
330
1F
100
AcDbEntity
  8
SLD-0
100
AcDbLine
 10
5.151001632499999
 20
5.739140926599999
 30
0.0
 11
2.883285097099999
 21
5.739140926599999
 31
0.0
  0
LINE
  5
96
330
1F
100
AcDbEntity
  8
SLD-0
100
AcDbLine
 10
4.796670923799999
 20
5.502920454199999
 30
0.0
 11
4.442340215199999
 21
5.502920454199999
 31
0.0
  0
LINE
  5
97
330
1F
100
AcDbEntity
  8
SLD-0
100
AcDbLine
 10
3.5919465144
 20
5.502920454199999
 30
0.0
 11
3.237615805699999
 21
5.502920454199999
 31
0.0
  0
LINE
  5
98
330
1F
100
AcDbEntity
  8
SLD-0
100
AcDbLine
 10
5.072261475
 20
5.660400769199999
 30
0.0
 11
4.914781160099999
 21
5.660400769199999
 31
0.0
  0
LINE
  5
99
330
1F
100
AcDbEntity
  8
SLD-0
100
AcDbLine
 10
4.3242299789
 20
5.660400769199999
 30
0.0
 11
3.7100567506
 21
5.660400769199999
 31
0.0
  0
LINE
  5
9A
330
1F
100
AcDbEntity
  8
SLD-0
100
AcDbLine
 10
3.119505569499999
 20
5.660400769199999
 30
0.0
 11
2.962025254499999
 21
5.660400769199999
 31
0.0
  0
LINE
  5
9B
330
1F
100
AcDbEntity
  8
SLD-0
100
AcDbLine
 10
2.883285097099999
 20
2.885990200799999
 30
0.0
 11
2.883285097099999
 21
2.295439019699999
 31
0.0
  0
LINE
  5
9C
330
1F
100
AcDbEntity
  8
SLD-0
100
AcDbLine
 10
2.962025254499999
 20
2.885990200799999
 30
0.0
 11
2.962025254499999
 21
2.5907146103
 31
0.0
  0
LINE
  5
9D
330
1F
100
AcDbEntity
  8
SLD-0
100
AcDbLine
 10
2.883285097099999
 20
2.295439019699999
 30
0.0
 11
5.151001632499999
 21
2.295439019699999
 31
0.0
  0
LINE
  5
9E
330
1F
100
AcDbEntity
  8
SLD-0
100
AcDbLine
 10
5.151001632499999
 20
2.295439019699999
 30
0.0
 11
5.151001632499999
 21
2.885990200799999
 31
0.0
  0
LINE
  5
9F
330
1F
100
AcDbEntity
  8
SLD-0
100
AcDbLine
 10
5.151001632499999
 20
2.885990200799999
 30
0.0
 11
5.072261475
 21
2.885990200799999
 31
0.0
  0
LINE
  5
A0
330
1F
100
AcDbEntity
  8
SLD-0
100
AcDbLine
 10
4.766122193399999
 20
2.885990200799999
 30
0.0
 11
4.4728889456
 21
2.885990200799999
 31
0.0
  0
LINE
  5
A1
330
1F
100
AcDbEntity
  8
SLD-0
100
AcDbLine
 10
3.561397783999999
 20
2.885990200799999
 30
0.0
 11
3.2681645361
 21
2.885990200799999
 31
0.0
  0
LINE
  5
A2
330
1F
100
AcDbEntity
  8
SLD-0
100
AcDbLine
 10
2.962025254499999
 20
2.885990200799999
 30
0.0
 11
2.883285097099999
 21
2.885990200799999
 31
0.0
  0
LINE
  5
A3
330
1F
100
AcDbEntity
  8
SLD-0
100
AcDbLine
 10
6.765480875599999
 20
2.295439019699999
 30
0.0
 11
7.9938273323
 21
2.295439019699999
 31
0.0
  0
LINE
  5
A4
330
1F
100
AcDbEntity
  8
SLD-0
100
AcDbLine
 10
7.9938273323
 20
2.295439019699999
 30
0.0
 11
7.9938273323
 21
2.649769728399999
 31
0.0
  0
LINE
  5
A5
330
1F
100
AcDbEntity
  8
SLD-0
100
AcDbLine
 10
7.7576068599
 20
2.885990200799999
 30
0.0
 11
7.001701348099999
 21
2.885990200799999
 31
0.0
  0
LINE
  5
A6
330
1F
100
AcDbEntity
  8
SLD-0
100
AcDbLine
 10
6.765480875599999
 20
2.649769728399999
 30
0.0
 11
6.765480875599999
 21
2.295439019699999
 31
0.0
  0
LINE
  5
A7
330
1F
100
AcDbEntity
  8
SLD-0
100
AcDbLine
 10
2.962025254499999
 20
2.5907146103
 30
0.0
 11
3.119505569499999
 21
2.5907146103
 31
0.0
  0
LINE
  5
A8
330
1F
100
AcDbEntity
  8
SLD-0
100
AcDbLine
 10
3.7100567506
 20
2.5907146103
 30
0.0
 11
4.3242299789
 21
2.5907146103
 31
0.0
  0
LINE
  5
A9
330
1F
100
AcDbEntity
  8
SLD-0
100
AcDbLine
 10
4.914781160099999
 20
2.5907146103
 30
0.0
 11
5.072261475
 21
2.5907146103
 31
0.0
  0
LINE
  5
AA
330
1F
100
AcDbEntity
  8
SLD-0
100
AcDbLine
 10
5.072261475
 20
2.885990200799999
 30
0.0
 11
5.072261475
 21
2.5907146103
 31
0.0
  0
LINE
  5
AB
330
1F
100
AcDbEntity
  8
SLD-0
100
AcDbLine
 10
3.119505569499999
 20
2.5907146103
 30
0.0
 11
3.1516033319
 21
2.7869459964
 31
0.0
  0
LINE
  5
AC
330
1F
100
AcDbEntity
  8
SLD-0
100
AcDbLine
 10
3.7100567506
 20
2.5907146103
 30
0.0
 11
3.677958988199999
 21
2.7869459964
 31
0.0
  0
LINE
  5
AD
330
1F
100
AcDbEntity
  8
SLD-0
100
AcDbLine
 10
4.914781160099999
 20
2.5907146103
 30
0.0
 11
4.8826833977
 21
2.7869459964
 31
0.0
  0
LINE
  5
AE
330
1F
100
AcDbEntity
  8
SLD-0
100
AcDbLine
 10
4.3242299789
 20
2.5907146103
 30
0.0
 11
4.3563277413
 21
2.7869459964
 31
0.0
  0
LINE
  5
AF
330
1F
100
AcDbEntity
  8
SLD-0
100
AcDbLine
 10
2.962025254499999
 20
4.5107944699
 30
0.0
 11
2.962025254499999
 21
5.739140926599999
 31
0.0
  0
LINE
  5
B0
330
1F
100
AcDbEntity
  8
SLD-0
100
AcDbLine
 10
3.119505569499999
 20
4.589534627399999
 30
0.0
 11
3.119505569499999
 21
4.6289047062
 31
0.0
  0
LINE
  5
B1
330
1F
100
AcDbEntity
  8
SLD-0
100
AcDbLine
 10
3.119505569499999
 20
5.621030690399999
 30
0.0
 11
3.119505569499999
 21
5.660400769199999
 31
0.0
  0
LINE
  5
B2
330
1F
100
AcDbEntity
  8
SLD-0
100
AcDbLine
 10
3.7100567506
 20
4.589534627399999
 30
0.0
 11
3.7100567506
 21
4.6289047062
 31
0.0
  0
LINE
  5
B3
330
1F
100
AcDbEntity
  8
SLD-0
100
AcDbLine
 10
3.7100567506
 20
5.621030690399999
 30
0.0
 11
3.7100567506
 21
5.660400769199999
 31
0.0
  0
LINE
  5
B4
330
1F
100
AcDbEntity
  8
SLD-0
100
AcDbLine
 10
4.3242299789
 20
4.589534627399999
 30
0.0
 11
4.3242299789
 21
4.6289047062
 31
0.0
  0
LINE
  5
B5
330
1F
100
AcDbEntity
  8
SLD-0
100
AcDbLine
 10
4.3242299789
 20
5.621030690399999
 30
0.0
 11
4.3242299789
 21
5.660400769199999
 31
0.0
  0
LINE
  5
B6
330
1F
100
AcDbEntity
  8
SLD-0
100
AcDbLine
 10
4.914781160099999
 20
4.589534627399999
 30
0.0
 11
4.914781160099999
 21
4.6289047062
 31
0.0
  0
LINE
  5
B7
330
1F
100
AcDbEntity
  8
SLD-0
100
AcDbLine
 10
4.914781160099999
 20
5.621030690399999
 30
0.0
 11
4.914781160099999
 21
5.660400769199999
 31
0.0
  0
LINE
  5
B8
330
1F
100
AcDbEntity
  8
SLD-0
100
AcDbLine
 10
5.072261475
 20
4.5107944699
 30
0.0
 11
5.072261475
 21
5.739140926599999
 31
0.0
  0
LINE
  5
B9
330
1F
100
AcDbEntity
  8
SLD-0
100
AcDbLine
 10
2.962025254499999
 20
5.1052826589
 30
0.0
 11
3.518594918099999
 21
5.1052826589
 31
0.0
  0
LINE
  5
BA
330
1F
100
AcDbEntity
  8
SLD-0
100
AcDbLine
 10
4.515691811499999
 20
5.1052826589
 30
0.0
 11
5.072261475
 21
5.1052826589
 31
0.0
  0
LINE
  5
BB
330
1F
100
AcDbEntity
  8
SLD-0
100
AcDbLine
 10
2.962025254499999
 20
5.144652737699999
 30
0.0
 11
3.518594918099999
 21
5.144652737699999
 31
0.0
  0
LINE
  5
BC
330
1F
100
AcDbEntity
  8
SLD-0
100
AcDbLine
 10
4.515691811499999
 20
5.144652737699999
 30
0.0
 11
5.072261475
 21
5.144652737699999
 31
0.0
  0
LINE
  5
BD
330
1F
100
AcDbEntity
  8
SLD-0
100
AcDbLine
 10
3.518594918099999
 20
5.144652737699999
 30
0.0
 11
3.518594918099999
 21
5.1052826589
 31
0.0
  0
LINE
  5
BE
330
1F
100
AcDbEntity
  8
SLD-0
100
AcDbLine
 10
4.515691811499999
 20
5.144652737699999
 30
0.0
 11
4.515691811499999
 21
5.1052826589
 31
0.0
  0
LINE
  5
BF
330
1F
100
AcDbEntity
  8
SLD-0
100
AcDbLine
 10
5.0704135816
 20
4.796227540799999
 30
0.0
 11
5.0704135816
 21
4.898589745499999
 31
0.0
  0
LINE
  5
C0
330
1F
100
AcDbEntity
  8
SLD-0
100
AcDbLine
 10
5.023169487099999
 20
4.796227540799999
 30
0.0
 11
5.023169487099999
 21
4.898589745499999
 31
0.0
  0
LINE
  5
C1
330
1F
100
AcDbEntity
  8
SLD-0
100
AcDbLine
 10
5.0704135816
 20
4.796227540799999
 30
0.0
 11
5.023169487099999
 21
4.796227540799999
 31
0.0
  0
LINE
  5
C2
330
1F
100
AcDbEntity
  8
SLD-0
100
AcDbLine
 10
5.0704135816
 20
4.898589745499999
 30
0.0
 11
5.023169487099999
 21
4.898589745499999
 31
0.0
  0
LINE
  5
C3
330
1F
100
AcDbEntity
  8
SLD-0
100
AcDbLine
 10
2.962025254499999
 20
5.451739351799999
 30
0.0
 11
2.962025254499999
 21
5.3493771471
 31
0.0
  0
LINE
  5
C4
330
1F
100
AcDbEntity
  8
SLD-0
100
AcDbLine
 10
3.009269348999999
 20
5.451739351799999
 30
0.0
 11
3.009269348999999
 21
5.3493771471
 31
0.0
  0
LINE
  5
C5
330
1F
100
AcDbEntity
  8
SLD-0
100
AcDbLine
 10
2.962025254499999
 20
5.451739351799999
 30
0.0
 11
3.009269348999999
 21
5.451739351799999
 31
0.0
  0
LINE
  5
C6
330
1F
100
AcDbEntity
  8
SLD-0
100
AcDbLine
 10
2.962025254499999
 20
5.3493771471
 30
0.0
 11
3.009269348999999
 21
5.3493771471
 31
0.0
  0
LINE
  5
C7
330
1F
100
AcDbEntity
  8
SLD-0
100
AcDbLine
 10
3.222508107999999
 20
5.4005582495
 30
0.0
 11
3.344555352099999
 21
5.4005582495
 31
0.0
  0
LINE
  5
C8
330
1F
100
AcDbEntity
  8
SLD-0
100
AcDbLine
 10
3.283531729999999
 20
5.461581871499999
 30
0.0
 11
3.283531729999999
 21
5.339534627399999
 31
0.0
  0
LINE
  5
C9
330
1F
100
AcDbEntity
  8
SLD-0
100
AcDbLine
 10
4.686555313899999
 20
4.847408643199999
 30
0.0
 11
4.808602558
 21
4.847408643199999
 31
0.0
  0
LINE
  5
CA
330
1F
100
AcDbEntity
  8
SLD-0
100
AcDbLine
 10
4.7475789359
 20
4.9084322652
 30
0.0
 11
4.7475789359
 21
4.7863850211
 31
0.0
  0
LINE
  5
CB
330
1F
100
AcDbEntity
  8
SLD-0
100
AcDbLine
 10
5.151001632499999
 20
5.2644837525
 30
0.0
 11
6.765480875599999
 21
5.2644837525
 31
0.0
  0
LINE
  5
CC
330
1F
100
AcDbEntity
  8
SLD-0
100
AcDbLine
 10
5.151001632499999
 20
5.193617610799999
 30
0.0
 11
6.765480875599999
 21
5.193617610799999
 31
0.0
  0
LINE
  5
CD
330
1F
100
AcDbEntity
  8
SLD-0
100
AcDbLine
 10
6.989338647999999
 20
5.193617610799999
 30
0.0
 11
7.767648206799999
 21
5.193617610799999
 31
0.0
  0
LINE
  5
CE
330
1F
100
AcDbEntity
  8
SLD-0
100
AcDbLine
 10
7.767648206799999
 20
5.193617610799999
 30
0.0
 11
7.767648206799999
 21
5.2644837525
 31
0.0
  0
LINE
  5
CF
330
1F
100
AcDbEntity
  8
SLD-0
100
AcDbLine
 10
7.767648206799999
 20
5.2644837525
 30
0.0
 11
6.989338647999999
 21
5.2644837525
 31
0.0
  0
LINE
  5
D0
330
1F
100
AcDbEntity
  8
SLD-0
100
AcDbLine
 10
5.151001632499999
 20
4.9854516441
 30
0.0
 11
6.765480875599999
 21
4.9854516441
 31
0.0
  0
LINE
  5
D1
330
1F
100
AcDbEntity
  8
SLD-0
100
AcDbLine
 10
5.151001632499999
 20
5.0563177858
 30
0.0
 11
6.765480875599999
 21
5.0563177858
 31
0.0
  0
LINE
  5
D2
330
1F
100
AcDbEntity
  8
SLD-0
100
AcDbLine
 10
6.989338647999999
 20
5.0563177858
 30
0.0
 11
7.767648206799999
 21
5.0563177858
 31
0.0
  0
LINE
  5
D3
330
1F
100
AcDbEntity
  8
SLD-0
100
AcDbLine
 10
7.767648206799999
 20
5.0563177858
 30
0.0
 11
7.767648206799999
 21
4.9854516441
 31
0.0
  0
LINE
  5
D4
330
1F
100
AcDbEntity
  8
SLD-0
100
AcDbLine
 10
7.767648206799999
 20
4.9854516441
 30
0.0
 11
6.989338647999999
 21
4.9854516441
 31
0.0
  0
LINE
  5
D5
330
1F
100
AcDbEntity
  8
SLD-0
100
AcDbLine
 10
3.222508107999999
 20
4.8493771471
 30
0.0
 11
3.344555352099999
 21
4.8493771471
 31
0.0
  0
LINE
  5
D6
330
1F
100
AcDbEntity
  8
SLD-0
100
AcDbLine
 10
4.686555313899999
 20
5.4025267534
 30
0.0
 11
4.808602558
 21
5.4025267534
 31
0.0
  0
LINE
  5
D7
330
1F
100
AcDbEntity
  8
SLD-0
100
AcDbLine
 10
2.979862160099999
 20
4.9610908797
 30
0.0
 11
2.979862160099999
 21
5.3493771471
 31
0.0
  0
LINE
  5
D8
330
1F
100
AcDbEntity
  8
SLD-0
100
AcDbLine
 10
2.9885235774
 20
4.9610908797
 30
0.0
 11
2.9885235774
 21
5.3493771471
 31
0.0
  0
LINE
  5
D9
330
1F
100
AcDbEntity
  8
SLD-0
100
AcDbLine
 10
3.286161372699999
 20
4.795444623499999
 30
0.0
 11
3.278036950299999
 21
4.747798666499999
 31
0.0
  0
LINE
  5
DA
330
1F
100
AcDbEntity
  8
SLD-0
100
AcDbLine
 10
4.7659622624
 20
5.452424978099999
 30
0.0
 11
4.7740866847
 21
5.5000709351
 31
0.0
  0
LINE
  5
DB
330
1F
100
AcDbEntity
  8
0
  6
Continuous
 62
     7
370
     0
100
AcDbLine
 10
0.329927
 20
8.1920731707
 30
0.0
 11
10.629927
 21
8.1920731707
 31
0.0
  0
LINE
  5
DC
330
1F
100
AcDbEntity
  8
0
  6
Continuous
 62
     7
370
     0
100
AcDbLine
 10
0.329927
 20
8.1920731707
 30
0.0
 11
0.329927
 21
0.3920731707
 31
0.0
  0
LINE
  5
DD
330
1F
100
AcDbEntity
  8
0
  6
Continuous
 62
     7
370
     0
100
AcDbLine
 10
10.629927
 20
0.3920731707
 30
0.0
 11
0.329927
 21
0.3920731707
 31
0.0
  0
LINE
  5
DE
330
1F
100
AcDbEntity
  8
0
  6
Continuous
 62
     7
370
     0
100
AcDbLine
 10
10.629927
 20
0.3920731707
 30
0.0
 11
10.629927
 21
8.1920731707
 31
0.0
  0
CIRCLE
  5
DF
330
1F
100
AcDbEntity
  8
SLD-0
100
AcDbCircle
 10
4.017143364799999
 20
5.124967698299999
 30
0.0
 40
0.0549999999999999
  0
ARC
  5
E0
330
1F
100
AcDbEntity
  8
SLD-0
100
AcDbCircle
 10
3.237615805699999
 20
4.6289047062
 30
0.0
 40
0.1181102362204727
100
AcDbArc
 50
90.0
 51
180.0
  0
ARC
  5
E1
330
1F
100
AcDbEntity
  8
SLD-0
100
AcDbCircle
 10
4.442340215199999
 20
4.6289047062
 30
0.0
 40
0.1181102362204713
100
AcDbArc
 50
90.0
 51
180.0
  0
ARC
  5
E2
330
1F
100
AcDbEntity
  8
SLD-0
100
AcDbCircle
 10
3.5919465144
 20
5.621030690399999
 30
0.0
 40
0.1181102362204731
100
AcDbArc
 50
270.0
 51
0.0
  0
ARC
  5
E3
330
1F
100
AcDbEntity
  8
SLD-0
100
AcDbCircle
 10
4.766122193399999
 20
2.767879964599999
 30
0.0
 40
0.1181102362204727
100
AcDbArc
 50
9.289660687799999
 51
90.0
  0
ARC
  5
E4
330
1F
100
AcDbEntity
  8
SLD-0
100
AcDbCircle
 10
4.4728889456
 20
2.767879964599999
 30
0.0
 40
0.1181102362204727
100
AcDbArc
 50
90.0
 51
170.7103393122
  0
ARC
  5
E5
330
1F
100
AcDbEntity
  8
SLD-0
100
AcDbCircle
 10
3.2681645361
 20
2.767879964599999
 30
0.0
 40
0.1181102362204727
100
AcDbArc
 50
90.0
 51
170.7103393122
  0
ARC
  5
E6
330
1F
100
AcDbEntity
  8
SLD-0
100
AcDbCircle
 10
7.7576068599
 20
2.649769728399999
 30
0.0
 40
0.2362204724409454
100
AcDbArc
 50
0.0
 51
90.0
  0
ARC
  5
E7
330
1F
100
AcDbEntity
  8
SLD-0
100
AcDbCircle
 10
7.001701348099999
 20
2.649769728399999
 30
0.0
 40
0.2362204724409454
100
AcDbArc
 50
90.0
 51
180.0
  0
ARC
  5
E8
330
1F
100
AcDbEntity
  8
SLD-0
100
AcDbCircle
 10
3.561397783999999
 20
2.767879964599999
 30
0.0
 40
0.1181102362204727
100
AcDbArc
 50
9.289660687799999
 51
90.0
  0
CIRCLE
  5
E9
330
1F
100
AcDbEntity
  8
SLD-0
100
AcDbCircle
 10
7.1280255596
 20
2.640550920099999
 30
0.0
 40
0.1259842519685037
  0
CIRCLE
  5
EA
330
1F
100
AcDbEntity
  8
SLD-0
100
AcDbCircle
 10
7.1280255596
 20
2.640550920099999
 30
0.0
 40
0.059055118110237
  0
CIRCLE
  5
EB
330
1F
100
AcDbEntity
  8
SLD-0
100
AcDbCircle
 10
7.6312826483
 20
2.640550920099999
 30
0.0
 40
0.1259842519685055
  0
CIRCLE
  5
EC
330
1F
100
AcDbEntity
  8
SLD-0
100
AcDbCircle
 10
7.6312826483
 20
2.640550920099999
 30
0.0
 40
0.0590551181102361
  0
CIRCLE
  5
ED
330
1F
100
AcDbEntity
  8
SLD-0
100
AcDbCircle
 10
7.275752182899999
 20
2.4273656458
 30
0.0
 40
0.0354330708661417
  0
CIRCLE
  5
EE
330
1F
100
AcDbEntity
  8
SLD-0
100
AcDbCircle
 10
7.483556025099999
 20
2.4273656458
 30
0.0
 40
0.0354330708661408
  0
ARC
  5
EF
330
1F
100
AcDbEntity
  8
SLD-0
100
AcDbCircle
 10
3.237615805699999
 20
5.621030690399999
 30
0.0
 40
0.1181102362204727
100
AcDbArc
 50
180.0
 51
270.0
  0
ARC
  5
F0
330
1F
100
AcDbEntity
  8
SLD-0
100
AcDbCircle
 10
3.5919465144
 20
4.6289047062
 30
0.0
 40
0.1181102362204722
100
AcDbArc
 50
0.0
 51
90.0
  0
ARC
  5
F1
330
1F
100
AcDbEntity
  8
SLD-0
100
AcDbCircle
 10
4.442340215199999
 20
5.621030690399999
 30
0.0
 40
0.1181102362204731
100
AcDbArc
 50
180.0
 51
270.0
  0
ARC
  5
F2
330
1F
100
AcDbEntity
  8
SLD-0
100
AcDbCircle
 10
4.796670923799999
 20
4.6289047062
 30
0.0
 40
0.1181102362204722
100
AcDbArc
 50
360.0
 51
90.0
  0
ARC
  5
F3
330
1F
100
AcDbEntity
  8
SLD-0
100
AcDbCircle
 10
4.796670923799999
 20
5.621030690399999
 30
0.0
 40
0.1181102362204722
100
AcDbArc
 50
270.0
 51
0.0
  0
CIRCLE
  5
F4
330
1F
100
AcDbEntity
  8
SLD-0
100
AcDbCircle
 10
3.283531729999999
 20
5.4005582495
 30
0.0
 40
0.061023622047244
  0
CIRCLE
  5
F5
330
1F
100
AcDbEntity
  8
SLD-0
100
AcDbCircle
 10
4.7475789359
 20
4.847408643199999
 30
0.0
 40
0.0610236220472453
  0
CIRCLE
  5
F6
330
1F
100
AcDbEntity
  8
SLD-0
100
AcDbCircle
 10
3.733678797799999
 20
5.124967698299999
 30
0.0
 40
0.0551181102362204
  0
CIRCLE
  5
F7
330
1F
100
AcDbEntity
  8
SLD-0
100
AcDbCircle
 10
4.3006079317
 20
5.124967698299999
 30
0.0
 40
0.0551181102362204
  0
ARC
  5
F8
330
1F
100
AcDbEntity
  8
SLD-0
100
AcDbCircle
 10
6.7596539909
 20
5.2290506816
 30
0.0
 40
0.0359089835038997
100
AcDbArc
 50
279.3385729569
 51
80.66142704310001
  0
ARC
  5
F9
330
1F
100
AcDbEntity
  8
SLD-0
100
AcDbCircle
 10
6.9835117633
 20
5.2290506816
 30
0.0
 40
0.0359089835039006
100
AcDbArc
 50
279.3385729569
 51
80.66142704310001
  0
ARC
  5
FA
330
1F
100
AcDbEntity
  8
SLD-0
100
AcDbCircle
 10
6.9835117633
 20
5.020884715
 30
0.0
 40
0.0359089835038988
100
AcDbArc
 50
279.3385729569
 51
80.66142704310001
  0
ARC
  5
FB
330
1F
100
AcDbEntity
  8
SLD-0
100
AcDbCircle
 10
6.7596539909
 20
5.020884715
 30
0.0
 40
0.0359089835039022
100
AcDbArc
 50
279.3385729569
 51
80.66142704310001
  0
CIRCLE
  5
FC
330
1F
100
AcDbEntity
  8
SLD-0
100
AcDbCircle
 10
3.283531729999999
 20
4.8493771471
 30
0.0
 40
0.061023622047244
  0
CIRCLE
  5
FD
330
1F
100
AcDbEntity
  8
SLD-0
100
AcDbCircle
 10
4.7475789359
 20
5.4025267534
 30
0.0
 40
0.0610236220472453
  0
DIMENSION
  5
FE
330
1F
100
AcDbEntity
  8
FORMAT
100
AcDbDimension
  2
*D7
 10
2.327232461799999
 20
2.885990200799999
 30
0.0
 11
2.327232461799999
 21
2.613092069899999
 31
0.0
 70
   160
 42
0.5905511811000001
  3
SLDDIMSTYLE0
100
AcDbAlignedDimension
 13
2.883285097099999
 23
2.295439019699999
 33
0.0
 14
2.883285097099999
 24
2.885990200799999
 34
0.0
 50
90.0
100
AcDbRotatedDimension
1001
ACAD
1000
DSTYLE
1002
{
1070
   284
1070
    12
1070
    78
1070
    12
1070
    41
1040
0.156
1070
    44
1040
0.125
1070
    42
1040
0.05
1070
   147
1040
0.06
1070
   140
1040
0.1377952756
1002
}
  0
DIMENSION
  5
115
330
1F
100
AcDbEntity
  8
FORMAT
100
AcDbDimension
  2
*D8
 10
7.9938273323
 20
1.7402343033
 30
0.0
 11
7.3936917909
 21
1.7402343033
 31
0.0
 70
   160
 42
1.228346456699999
  3
SLDDIMSTYLE1
100
AcDbAlignedDimension
 13
6.765480875599999
 23
2.295439019699999
 33
0.0
 14
7.9938273323
 24
2.295439019699999
 34
0.0
100
AcDbRotatedDimension
1001
ACAD
1000
DSTYLE
1002
{
1070
   284
1070
    12
1070
    78
1070
    12
1070
    41
1040
0.156
1070
    44
1040
0.125
1070
    42
1040
0.05
1070
   147
1040
0.06
1070
   140
1040
0.1377952756
1002
}
  0
DIMENSION
  5
12B
330
1F
100
AcDbEntity
  8
FORMAT
100
AcDbDimension
  2
*D9
 10
3.733678797799999
 20
6.6016609434
 30
0.0
 11
4.947497389499999
 21
6.6016609434
 31
0.0
 70
   160
 42
0.5669291339
  3
SLDDIMSTYLE1
100
AcDbAlignedDimension
 13
4.3006079317
 23
5.124967698299999
 33
0.0
 14
3.733678797799999
 24
5.124967698299999
 34
0.0
100
AcDbRotatedDimension
1001
ACAD
1000
DSTYLE
1002
{
1070
   284
1070
    12
1070
    78
1070
    12
1070
    41
1040
0.156
1070
    44
1040
0.125
1070
    42
1040
0.05
1070
   147
1040
0.06
1070
   140
1040
0.1377952756
1002
}
  0
DIMENSION
  5
140
330
1F
100
AcDbEntity
  8
FORMAT
100
AcDbDimension
  2
*D10
 10
3.733678797799999
 20
6.6016609434
 30
0.0
 11
2.2106058427
 21
6.6016609434
 31
0.0
 70
   160
 42
0.8503937007999999
  3
SLDDIMSTYLE2
100
AcDbAlignedDimension
 13
2.883285097099999
 23
5.739140926599999
 33
0.0
 14
3.733678797799999
 24
5.124967698299999
 34
0.0
100
AcDbRotatedDimension
1001
ACAD
1000
DSTYLE
1002
{
1070
   284
1070
    12
1070
    78
1070
    12
1070
    41
1040
0.156
1070
    44
1040
0.125
1070
    42
1040
0.05
1070
   147
1040
0.06
1070
   140
1040
0.1377952756
1002
}
  0
DIMENSION
  5
156
330
1F
100
AcDbEntity
  8
FORMAT
100
AcDbDimension
  2
*D11
 10
2.327232461799999
 20
5.124967698299999
 30
0.0
 11
2.327232461799999
 21
4.837641061
 31
0.0
 70
   160
 42
0.6141732283
  3
SLDDIMSTYLE1
100
AcDbAlignedDimension
 13
2.883285097099999
 23
4.5107944699
 33
0.0
 14
3.733678797799999
 24
5.124967698299999
 34
0.0
 50
90.0
100
AcDbRotatedDimension
1001
ACAD
1000
DSTYLE
1002
{
1070
   284
1070
    12
1070
    78
1070
    12
1070
    41
1040
0.156
1070
    44
1040
0.125
1070
    42
1040
0.05
1070
   147
1040
0.06
1070
   140
1040
0.1377952756
1002
}
  0
DIMENSION
  5
16B
330
1F
100
AcDbEntity
  8
FORMAT
100
AcDbDimension
  2
*D12
 10
4.284631808999999
 20
5.1777196611
 30
0.0
 11
3.8323690562
 21
4.186982764899999
 31
0.0
 70
   163
  1
3X, <>
 42
0.1102362205
  3
SLDDIMSTYLE3
100
AcDbDiametricDimension
 15
4.316584054399999
 25
5.0722157355
 35
0.0
 40
0.0
1001
ACAD
1000
DSTYLE
1002
{
1070
   284
1070
    12
1070
    78
1070
    12
1070
    41
1040
0.156
1070
    44
1040
0.125
1070
    42
1040
0.05
1070
   147
1040
0.06
1070
   140
1040
0.1377952756
1002
}
  0
DIMENSION
  5
17F
330
1F
100
AcDbEntity
  8
FORMAT
100
AcDbDimension
  2
*D13
 10
2.883285097099999
 20
1.7284675691
 30
0.0
 11
3.9747037662
 21
1.7284675691
 31
0.0
 70
   160
 42
2.267716535399999
  3
SLDDIMSTYLE1
100
AcDbAlignedDimension
 13
5.151001632499999
 23
2.295439019699999
 33
0.0
 14
2.883285097099999
 24
2.295439019699999
 34
0.0
100
AcDbRotatedDimension
1001
ACAD
1000
DSTYLE
1002
{
1070
   284
1070
    12
1070
    78
1070
    12
1070
    41
1040
0.156
1070
    44
1040
0.125
1070
    42
1040
0.05
1070
   147
1040
0.06
1070
   140
1040
0.1377952756
1002
}
  0
DIMENSION
  5
194
330
1F
100
AcDbEntity
  8
FORMAT
100
AcDbDimension
  2
*D14
 10
8.031032940499999
 20
4.076558054499999
 30
0.0
 11
6.583261139199999
 21
4.076558054499999
 31
0.0
 70
   160
  1
6.0%%p0.2
 42
2.880031307999999
  3
SLDDIMSTYLE1
100
AcDbAlignedDimension
 13
5.151001632499999
 23
4.5107944699
 33
0.0
 14
8.031032940499999
 24
5.020884715
 34
0.0
100
AcDbRotatedDimension
1001
ACAD
1000
DSTYLE
1002
{
1070
   284
1070
    12
1070
    78
1070
    12
1070
    41
1040
0.156
1070
    44
1040
0.125
1070
    42
1040
0.05
1070
   147
1040
0.06
1070
   140
1040
0.1377952756
1002
}
  0
DIMENSION
  5
1AB
330
1F
100
AcDbEntity
  8
FORMAT
100
AcDbDimension
  2
*D15
 10
8.031032940499999
 20
4.575693717
 30
0.0
 11
6.583261139199999
 21
4.575693717
 31
0.0
 70
   160
  1
0.2\P(LEAD LENGTH)
 42
0.2633847337
  3
SLDDIMSTYLE0
100
AcDbAlignedDimension
 13
7.767648206799999
 23
4.9854516441
 33
0.0
 14
8.031032940499999
 24
5.020884715
 34
0.0
100
AcDbRotatedDimension
1001
ACAD
1000
DSTYLE
1002
{
1070
   284
1070
    12
1070
    78
1070
    12
1070
    41
1040
0.156
1070
    44
1040
0.125
1070
    42
1040
0.05
1070
   147
1040
0.06
1070
   140
1040
0.1377952756
1002
}
  0
DIMENSION
  5
1C2
330
1F
100
AcDbEntity
  8
FORMAT
100
AcDbDimension
  2
*D16
 10
4.017143364799999
 20
6.163535399199999
 30
0.0
 11
4.7929912834
 21
6.163535399199999
 31
0.0
 70
   160
 42
0.2834645669
  3
SLDDIMSTYLE1
100
AcDbAlignedDimension
 13
3.733678797799999
 23
5.124967698299999
 33
0.0
 14
4.017143364799999
 24
5.124967698299999
 34
0.0
100
AcDbRotatedDimension
1001
ACAD
1000
DSTYLE
1002
{
1070
   284
1070
    12
1070
    78
1070
    12
1070
    41
1040
0.156
1070
    44
1040
0.125
1070
    42
1040
0.05
1070
   147
1040
0.06
1070
   140
1040
0.1377952756
1002
}
  0
INSERT
  5
1DD
330
1F
100
AcDbEntity
  8
0
  6
Continuous
 62
     7
370
     0
100
AcDbBlockReference
  2
SW_NOTE_3
 10
4.668977064599999
 20
7.978426351399999
 30
0.0
  0
INSERT
  5
1E3
330
1F
100
AcDbEntity
  8
0
  6
Continuous
 62
     7
370
     0
100
AcDbBlockReference
  2
SW_NOTE_4
 10
8.6657048889
 20
7.967057868899999
 30
0.0
  0
INSERT
  5
1E9
330
1F
100
AcDbEntity
  8
0
  6
Continuous
 62
     7
370
     0
100
AcDbBlockReference
  2
SW_NOTE_5
 10
0.4782693072
 20
7.976406312399999
 30
0.0
  0
MTEXT
  5
1EA
330
1F
100
AcDbEntity
  8
0
  6
Continuous
 62
     7
370
     0
100
AcDbMText
 10
9.516319626299999
 20
8.091483726099999
 30
0.0
 40
0.1875
 41
0.0
 71
     1
 72
     1
  1
{08MAY07}
  7
SLDTEXTSTYLE0
 73
     1
 44
1.0
  0
INSERT
  5
1F0
330
1F
100
AcDbEntity
  8
0
  6
Continuous
 62
     7
370
     0
100
AcDbBlockReference
  2
SW_NOTE_6
 10
4.668977064599999
 20
7.978426351399999
 30
0.0
  0
INSERT
  5
1F6
330
1F
100
AcDbEntity
  8
0
  6
Continuous
 62
     7
370
     0
100
AcDbBlockReference
  2
SW_NOTE_7
 10
8.6657048889
 20
7.967057868899999
 30
0.0
  0
INSERT
  5
1FC
330
1F
100
AcDbEntity
  8
0
  6
Continuous
 62
     7
370
     0
100
AcDbBlockReference
  2
SW_NOTE_8
 10
0.4782693072
 20
7.976406312399999
 30
0.0
  0
MTEXT
  5
1FD
330
1F
100
AcDbEntity
  8
0
  6
Continuous
 62
     7
370
     0
100
AcDbMText
 10
6.469402612799999
 20
8.0938948182
 30
0.0
 40
0.1875
 41
0.0
 71
     1
 72
     1
  1
{HH-3632}
  7
SLDTEXTSTYLE0
 73
     1
 44
1.0
  0
MTEXT
  5
1FF
330
1F
100
AcDbEntity
  8
0
  6
Continuous
 62
     7
370
     0
100
AcDbMText
 10
1.193086408899999
 20
8.0727778172
 30
0.0
 40
0.1875
 41
0.0
 71
     1
 72
     1
  1
{BATTERY HOLDER- 2 AA}
  7
SLDTEXTSTYLE1
 73
     1
 44
1.0
  0
MTEXT
  5
200
330
1F
100
AcDbEntity
  8
0
  6
Continuous
 62
     7
370
     0
100
AcDbMText
 10
9.516319626299999
 20
8.091483726099999
 30
0.0
 40
0.1875
 41
0.0
 71
     1
 72
     1
  1
{08MAY07}
  7
SLDTEXTSTYLE0
 73
     1
 44
1.0
  0
MTEXT
  5
201
330
1F
100
AcDbEntity
  8
0
  6
Continuous
 62
     7
370
     0
100
AcDbMText
 10
0.7455791506000001
 20
7.478708936799999
 30
0.0
 40
0.1666666667
 41
0.0
 71
     1
 72
     1
  1
{MATERIAL: POLYPROPYLENE}
  7
SLDTEXTSTYLE0
 73
     1
 44
1.0
  0
MTEXT
  5
203
330
1F
100
AcDbEntity
  8
0
  6
Continuous
 62
     7
370
     0
100
AcDbMText
 10
2.683957529
 20
0.8252963740000001
 30
0.0
 40
0.1377952756
 41
0.0
 71
     1
 72
     1
  1
{ALL TOLERANCES ARE +/-0.015 UNLESS OTHERWISE SPECIFIED.}
  7
SLDTEXTSTYLE2
 73
     1
 44
1.0
  0
INSERT
  5
204
330
1F
100
AcDbEntity
  8
0
  6
Continuous
 62
     7
370
     0
100
AcDbBlockReference
  2
Block1
 10
0.6156177606000001
 20
7.417808880299999
 30
0.0
  0
INSERT
  5
205
330
1F
100
AcDbEntity
  8
SLD-0
100
AcDbBlockReference
  2
111
 10
3.129080141999999
 20
4.7619420011
 30
0.0
 41
0.4
 42
0.4
 43
0.4
 50
-90.0
  0
INSERT
  5
206
330
1F
100
AcDbEntity
  8
SLD-0
100
AcDbBlockReference
  2
111
 10
4.923043492999999
 20
5.485927600499999
 30
0.0
 41
0.4
 42
0.4
 43
0.4
 50
90.0
  0
ENDSEC
  0
SECTION
  2
OBJECTS
  0
DICTIONARY
  5
C
330
0
100
AcDbDictionary
281
     1
  3
ACAD_GROUP
350
D
  3
ACAD_LAYOUT
350
1A
  3
ACAD_MLINESTYLE
350
17
  3
ACAD_PLOTSETTINGS
350
19
  3
ACAD_PLOTSTYLENAME
350
E
  0
DICTIONARY
  5
D
102
{ACAD_REACTORS
330
C
102
}
330
C
100
AcDbDictionary
281
     1
  0
DICTIONARY
  5
1A
102
{ACAD_REACTORS
330
C
102
}
330
C
100
AcDbDictionary
281
     1
  3
Layout1
350
1E
  3
Layout2
350
26
  3
Model
350
22
  0
DICTIONARY
  5
17
102
{ACAD_REACTORS
330
C
102
}
330
C
100
AcDbDictionary
281
     1
  3
Standard
350
18
  0
DICTIONARY
  5
19
102
{ACAD_REACTORS
330
C
102
}
330
C
100
AcDbDictionary
281
     1
  0
ACDBDICTIONARYWDFLT
  5
E
102
{ACAD_REACTORS
330
C
102
}
330
C
100
AcDbDictionary
281
     1
  3
Normal
350
F
100
AcDbDictionaryWithDefault
340
F
  0
LAYOUT
  5
1E
102
{ACAD_REACTORS
330
1A
102
}
330
1A
100
AcDbPlotSettings
  1

  2

  4

  6

 40
0.0
 41
0.0
 42
0.0
 43
0.0
 44
0.0
 45
0.0
 46
0.0
 47
0.0
 48
0.0
 49
0.0
140
0.0
141
0.0
142
1.0
143
1.0
 70
   688
 72
     0
 73
     0
 74
     5
  7

 75
    16
147
1.0
148
0.0
149
0.0
100
AcDbLayout
  1
Layout1
 70
     1
 71
     1
 10
0.0
 20
0.0
 11
12.0
 21
9.0
 12
0.0
 22
0.0
 32
0.0
 14
1.000000000000000E+20
 24
1.000000000000000E+20
 34
1.000000000000000E+20
 15
-1.000000000000000E+20
 25
-1.000000000000000E+20
 35
-1.000000000000000E+20
146
0.0
 13
0.0
 23
0.0
 33
0.0
 16
1.0
 26
0.0
 36
0.0
 17
0.0
 27
1.0
 37
0.0
 76
     0
330
1B
  0
LAYOUT
  5
26
102
{ACAD_REACTORS
330
1A
102
}
330
1A
100
AcDbPlotSettings
  1

  2

  4

  6

 40
0.0
 41
0.0
 42
0.0
 43
0.0
 44
0.0
 45
0.0
 46
0.0
 47
0.0
 48
0.0
 49
0.0
140
0.0
141
0.0
142
1.0
143
1.0
 70
   688
 72
     0
 73
     0
 74
     5
  7

 75
    16
147
1.0
148
0.0
149
0.0
100
AcDbLayout
  1
Layout2
 70
     1
 71
     2
 10
0.0
 20
0.0
 11
0.0
 21
0.0
 12
0.0
 22
0.0
 32
0.0
 14
0.0
 24
0.0
 34
0.0
 15
0.0
 25
0.0
 35
0.0
146
0.0
 13
0.0
 23
0.0
 33
0.0
 16
1.0
 26
0.0
 36
0.0
 17
0.0
 27
1.0
 37
0.0
 76
     0
330
23
  0
LAYOUT
  5
22
102
{ACAD_REACTORS
330
1A
102
}
330
1A
100
AcDbPlotSettings
  1

  2

  4

  6

 40
0.0
 41
0.0
 42
0.0
 43
0.0
 44
0.0
 45
0.0
 46
0.0
 47
0.0
 48
0.0
 49
0.0
140
0.0
141
0.0
142
1.0
143
1.0
 70
  1712
 72
     0
 73
     0
 74
     0
  7

 75
     0
147
1.0
148
0.0
149
0.0
100
AcDbLayout
  1
Model
 70
     1
 71
     0
 10
0.0
 20
0.0
 11
0.0
 21
0.0
 12
0.0
 22
0.0
 32
0.0
 14
0.0
 24
0.0
 34
0.0
 15
11.0
 25
8.5
 35
0.0
146
0.0
 13
0.0
 23
0.0
 33
0.0
 16
1.0
 26
0.0
 36
0.0
 17
0.0
 27
1.0
 37
0.0
 76
     0
330
1F
  0
MLINESTYLE
  5
18
102
{ACAD_REACTORS
330
17
102
}
330
17
100
AcDbMlineStyle
  2
STANDARD
 70
     0
  3

 62
   256
 51
90.0
 52
90.0
 71
     2
 49
0.5
 62
   256
  6
BYLAYER
 49
-0.5
 62
   256
  6
BYLAYER
  0
ACDBPLACEHOLDER
  5
F
102
{ACAD_REACTORS
330
E
102
}
330
E
  0
ENDSEC
  0
EOF
