  0
SECTION
  2
HEADER
  9
$ACADVER
  1
AC1015
  9
$ACADMAINTVER
 70
     6
  9
$DWGCODEPAGE
  3
ANSI_1252
  9
$INSBASE
 10
0.0
 20
0.0
 30
0.0
  9
$EXTMIN
 10
0.2696126481258361
 20
0.3315369216242203
 30
-0.0015258207003583
  9
$EXTMAX
 10
10.68957781145831
 20
8.252284669769782
 30
0.0000000349246037
  9
$LIMMIN
 10
0.0
 20
0.0
  9
$LIMMAX
 10
0.0
 20
0.0
  9
$ORTHOMODE
 70
     0
  9
$REGENMODE
 70
     1
  9
$FILLMODE
 70
     1
  9
$QTEXTMODE
 70
     0
  9
$MIRRTEXT
 70
     1
  9
$LTSCALE
 40
1.0
  9
$ATTMODE
 70
     1
  9
$TEXTSIZE
 40
0.2
  9
$TRACEWID
 40
0.05
  9
$TEXTSTYLE
  7
Standard
  9
$CLAYER
  8
0
  9
$CELTYPE
  6
ByLayer
  9
$CECOLOR
 62
   256
  9
$CELTSCALE
 40
1.0
  9
$DISPSILH
 70
     0
  9
$DIMSCALE
 40
1.0
  9
$DIMASZ
 40
0.156
  9
$DIMEXO
 40
0.05
  9
$DIMDLI
 40
0.38
  9
$DIMRND
 40
0.0
  9
$DIMDLE
 40
0.0
  9
$DIMEXE
 40
0.125
  9
$DIMTP
 40
0.0
  9
$DIMTM
 40
0.0
  9
$DIMTXT
 40
0.1377952756
  9
$DIMCEN
 40
0.09
  9
$DIMTSZ
 40
0.0
  9
$DIMTOL
 70
     0
  9
$DIMLIM
 70
     0
  9
$DIMTIH
 70
     1
  9
$DIMTOH
 70
     1
  9
$DIMSE1
 70
     0
  9
$DIMSE2
 70
     0
  9
$DIMTAD
 70
     0
  9
$DIMZIN
 70
     0
  9
$DIMBLK
  1

  9
$DIMASO
 70
     1
  9
$DIMSHO
 70
     1
  9
$DIMPOST
  1

  9
$DIMAPOST
  1

  9
$DIMALT
 70
     0
  9
$DIMALTD
 70
     2
  9
$DIMALTF
 40
25.4
  9
$DIMLFAC
 40
1.0
  9
$DIMTOFL
 70
     0
  9
$DIMTVP
 40
0.0
  9
$DIMTIX
 70
     0
  9
$DIMSOXD
 70
     0
  9
$DIMSAH
 70
     0
  9
$DIMBLK1
  1

  9
$DIMBLK2
  1

  9
$DIMSTYLE
  2
Standard
  9
$DIMCLRD
 70
     0
  9
$DIMCLRE
 70
     0
  9
$DIMCLRT
 70
     0
  9
$DIMTFAC
 40
1.0
  9
$DIMGAP
 40
0.06
  9
$DIMJUST
 70
     0
  9
$DIMSD1
 70
     0
  9
$DIMSD2
 70
     0
  9
$DIMTOLJ
 70
     1
  9
$DIMTZIN
 70
     0
  9
$DIMALTZ
 70
     0
  9
$DIMALTTZ
 70
     0
  9
$DIMUPT
 70
     0
  9
$DIMDEC
 70
     4
  9
$DIMTDEC
 70
     4
  9
$DIMALTU
 70
     2
  9
$DIMALTTD
 70
     2
  9
$DIMTXSTY
  7
Standard
  9
$DIMAUNIT
 70
     0
  9
$DIMADEC
 70
     0
  9
$DIMALTRND
 40
0.0
  9
$DIMAZIN
 70
     0
  9
$DIMDSEP
 70
    46
  9
$DIMATFIT
 70
     3
  9
$DIMFRAC
 70
     0
  9
$DIMLDRBLK
  1

  9
$DIMLUNIT
 70
     2
  9
$DIMLWD
 70
    -2
  9
$DIMLWE
 70
    -2
  9
$DIMTMOVE
 70
     0
  9
$LUNITS
 70
     2
  9
$LUPREC
 70
     3
  9
$SKETCHINC
 40
0.1
  9
$FILLETRAD
 40
0.5
  9
$AUNITS
 70
     0
  9
$AUPREC
 70
     0
  9
$MENU
  1
.
  9
$ELEVATION
 40
0.0
  9
$PELEVATION
 40
0.0
  9
$THICKNESS
 40
0.0
  9
$LIMCHECK
 70
     0
  9
$CHAMFERA
 40
0.5
  9
$CHAMFERB
 40
0.5
  9
$CHAMFERC
 40
1.0
  9
$CHAMFERD
 40
0.0
  9
$SKPOLY
 70
     0
  9
$TDCREATE
 40
2454231.470927002
  9
$TDUCREATE
 40
2454231.637593669
  9
$TDUPDATE
 40
2454231.498362627
  9
$TDUUPDATE
 40
2454231.665029293
  9
$TDINDWG
 40
0.0014185648
  9
$TDUSRTIMER
 40
0.0014183796
  9
$USRTIMER
 70
     1
  9
$ANGBASE
 50
0.0
  9
$ANGDIR
 70
     0
  9
$PDMODE
 70
     0
  9
$PDSIZE
 40
-1.0
  9
$PLINEWID
 40
0.0
  9
$SPLFRAME
 70
     0
  9
$SPLINETYPE
 70
     6
  9
$SPLINESEGS
 70
     8
  9
$HANDSEED
  5
267
  9
$SURFTAB1
 70
     6
  9
$SURFTAB2
 70
     6
  9
$SURFTYPE
 70
     6
  9
$SURFU
 70
     6
  9
$SURFV
 70
     6
  9
$UCSBASE
  2

  9
$UCSNAME
  2

  9
$UCSORG
 10
0.0
 20
0.0
 30
0.0
  9
$UCSXDIR
 10
1.0
 20
0.0
 30
0.0
  9
$UCSYDIR
 10
0.0
 20
1.0
 30
0.0
  9
$UCSORTHOREF
  2

  9
$UCSORTHOVIEW
 70
     0
  9
$UCSORGTOP
 10
0.0
 20
0.0
 30
0.0
  9
$UCSORGBOTTOM
 10
0.0
 20
0.0
 30
0.0
  9
$UCSORGLEFT
 10
0.0
 20
0.0
 30
0.0
  9
$UCSORGRIGHT
 10
0.0
 20
0.0
 30
0.0
  9
$UCSORGFRONT
 10
0.0
 20
0.0
 30
0.0
  9
$UCSORGBACK
 10
0.0
 20
0.0
 30
0.0
  9
$PUCSBASE
  2

  9
$PUCSNAME
  2

  9
$PUCSORG
 10
0.0
 20
0.0
 30
0.0
  9
$PUCSXDIR
 10
1.0
 20
0.0
 30
0.0
  9
$PUCSYDIR
 10
0.0
 20
1.0
 30
0.0
  9
$PUCSORTHOREF
  2

  9
$PUCSORTHOVIEW
 70
     0
  9
$PUCSORGTOP
 10
0.0
 20
0.0
 30
0.0
  9
$PUCSORGBOTTOM
 10
0.0
 20
0.0
 30
0.0
  9
$PUCSORGLEFT
 10
0.0
 20
0.0
 30
0.0
  9
$PUCSORGRIGHT
 10
0.0
 20
0.0
 30
0.0
  9
$PUCSORGFRONT
 10
0.0
 20
0.0
 30
0.0
  9
$PUCSORGBACK
 10
0.0
 20
0.0
 30
0.0
  9
$USERI1
 70
     0
  9
$USERI2
 70
     0
  9
$USERI3
 70
     0
  9
$USERI4
 70
     0
  9
$USERI5
 70
     0
  9
$USERR1
 40
0.0
  9
$USERR2
 40
0.0
  9
$USERR3
 40
0.0
  9
$USERR4
 40
0.0
  9
$USERR5
 40
0.0
  9
$WORLDVIEW
 70
     1
  9
$SHADEDGE
 70
     3
  9
$SHADEDIF
 70
    70
  9
$TILEMODE
 70
     1
  9
$MAXACTVP
 70
    64
  9
$PINSBASE
 10
0.0
 20
0.0
 30
0.0
  9
$PLIMCHECK
 70
     0
  9
$PEXTMIN
 10
1.000000000000000E+20
 20
1.000000000000000E+20
 30
1.000000000000000E+20
  9
$PEXTMAX
 10
-1.000000000000000E+20
 20
-1.000000000000000E+20
 30
-1.000000000000000E+20
  9
$PLIMMIN
 10
0.0
 20
0.0
  9
$PLIMMAX
 10
12.0
 20
9.0
  9
$UNITMODE
 70
     0
  9
$VISRETAIN
 70
     1
  9
$PLINEGEN
 70
     0
  9
$PSLTSCALE
 70
     1
  9
$TREEDEPTH
 70
  3020
  9
$CMLSTYLE
  2
Standard
  9
$CMLJUST
 70
     0
  9
$CMLSCALE
 40
1.0
  9
$PROXYGRAPHICS
 70
     1
  9
$MEASUREMENT
 70
     0
  9
$CELWEIGHT
370
    -1
  9
$ENDCAPS
280
     0
  9
$JOINSTYLE
280
     0
  9
$LWDISPLAY
290
     1
  9
$INSUNITS
 70
     1
  9
$HYPERLINKBASE
  1

  9
$STYLESHEET
  1

  9
$XEDIT
290
     1
  9
$CEPSNTYPE
380
     0
  9
$PSTYLEMODE
290
     1
  9
$FINGERPRINTGUID
  2
{E98967AF-657C-4C3E-B38B-C5B3D513EF3C}
  9
$VERSIONGUID
  2
{87C5E0FF-2BCA-4DB7-B6F2-47D82AA11112}
  9
$EXTNAMES
290
     1
  9
$PSVPSCALE
 40
0.0
  9
$OLESTARTUP
290
     0
  0
ENDSEC
  0
SECTION
  2
CLASSES
  0
CLASS
  1
ACDBDICTIONARYWDFLT
  2
AcDbDictionaryWithDefault
  3
AutoCAD 2000
 90
        0
280
     0
281
     0
  0
CLASS
  1
ACDBPLACEHOLDER
  2
AcDbPlaceHolder
  3
AutoCAD 2000
 90
        0
280
     0
281
     0
  0
CLASS
  1
LAYOUT
  2
AcDbLayout
  3
AutoCAD 2000
 90
        0
280
     0
281
     0
  0
ENDSEC
  0
SECTION
  2
TABLES
  0
TABLE
  2
VPORT
  5
8
330
0
100
AcDbSymbolTable
 70
     2
  0
VPORT
  5
266
330
8
100
AcDbSymbolTableRecord
100
AcDbViewportTableRecord
  2
*Active
 70
     0
 10
0.0
 20
0.0
 11
1.0
 21
1.0
 12
5.479595229792076
 22
4.291910795697001
 13
0.0
 23
0.0
 14
0.5
 24
0.5
 15
0.5
 25
0.5
 16
0.0
 26
0.0
 36
1.0
 17
0.0
 27
0.0
 37
0.0
 40
7.978704438985651
 41
1.536019536019536
 42
50.0
 43
0.0
 44
0.0
 50
0.0
 51
0.0
 71
     0
 72
  2000
 73
     1
 74
     3
 75
     0
 76
     0
 77
     0
 78
     0
281
     0
 65
     1
110
0.0
120
0.0
130
0.0
111
1.0
121
0.0
131
0.0
112
0.0
122
1.0
132
0.0
 79
     0
146
0.0
  0
ENDTAB
  0
TABLE
  2
LTYPE
  5
5
330
0
100
AcDbSymbolTable
 70
     6
  0
LTYPE
  5
14
330
5
100
AcDbSymbolTableRecord
100
AcDbLinetypeTableRecord
  2
ByBlock
 70
     0
  3

 72
    65
 73
     0
 40
0.0
  0
LTYPE
  5
15
330
5
100
AcDbSymbolTableRecord
100
AcDbLinetypeTableRecord
  2
ByLayer
 70
     0
  3

 72
    65
 73
     0
 40
0.0
  0
LTYPE
  5
16
330
5
100
AcDbSymbolTableRecord
100
AcDbLinetypeTableRecord
  2
Continuous
 70
     0
  3
Solid line
 72
    65
 73
     0
 40
0.0
  0
LTYPE
  5
2A
330
5
100
AcDbSymbolTableRecord
100
AcDbLinetypeTableRecord
  2
HIDDEN
 70
     0
  3
Hidden __ __ __ __ __ __ __ __ __ __ __ __ __ __
 72
    65
 73
     2
 40
0.075
 49
0.05
 74
     0
 49
-0.025
 74
     0
  0
LTYPE
  5
2B
330
5
100
AcDbSymbolTableRecord
100
AcDbLinetypeTableRecord
  2
PHANTOM
 70
     0
  3
Phantom ______  __  __  ______  __  __  ______
 72
    65
 73
     6
 40
0.5
 49
0.25
 74
     0
 49
-0.05
 74
     0
 49
0.05
 74
     0
 49
-0.05
 74
     0
 49
0.05
 74
     0
 49
-0.05
 74
     0
  0
LTYPE
  5
2C
330
5
100
AcDbSymbolTableRecord
100
AcDbLinetypeTableRecord
  2
CENTER
 70
     0
  3
Center ____ _ ____ _ ____ _ ____ _ ____ _ ____
 72
    65
 73
     4
 40
0.4
 49
0.25
 74
     0
 49
-0.05
 74
     0
 49
0.05
 74
     0
 49
-0.05
 74
     0
  0
LTYPE
  5
2D
330
5
100
AcDbSymbolTableRecord
100
AcDbLinetypeTableRecord
  2
CENTERX2
 70
     0
  3
Center (2x) ________  __  ________  __  _____
 72
    65
 73
     4
 40
0.8
 49
0.5
 74
     0
 49
-0.1
 74
     0
 49
0.1
 74
     0
 49
-0.1
 74
     0
  0
LTYPE
  5
2E
330
5
100
AcDbSymbolTableRecord
100
AcDbLinetypeTableRecord
  2
DOT2
 70
     0
  3
Dot (.5x) ........................................
 72
    65
 73
     2
 40
0.025
 49
0.0
 74
     0
 49
-0.025
 74
     0
  0
ENDTAB
  0
TABLE
  2
LAYER
  5
2
330
0
100
AcDbSymbolTable
 70
     4
  0
LAYER
  5
10
330
2
100
AcDbSymbolTableRecord
100
AcDbLayerTableRecord
  2
0
 70
     0
 62
     7
  6
Continuous
370
    -3
390
F
  0
LAYER
  5
2F
330
2
100
AcDbSymbolTableRecord
100
AcDbLayerTableRecord
  2
FORMAT
 70
     0
 62
     7
  6
Continuous
370
     0
390
F
  0
LAYER
  5
30
330
2
100
AcDbSymbolTableRecord
100
AcDbLayerTableRecord
  2
SLD-0
 70
     0
 62
     7
  6
Continuous
370
     0
390
F
  0
LAYER
  5
130
330
2
100
AcDbSymbolTableRecord
100
AcDbLayerTableRecord
  2
Defpoints
 70
     0
 62
     7
  6
Continuous
290
     0
370
    -3
390
F
  0
ENDTAB
  0
TABLE
  2
STYLE
  5
3
330
0
100
AcDbSymbolTable
 70
     4
  0
STYLE
  5
11
330
3
100
AcDbSymbolTableRecord
100
AcDbTextStyleTableRecord
  2
Standard
 70
     0
 40
0.0
 41
1.0
 50
0.0
 71
     0
 42
0.2
  3
txt
  4

  0
STYLE
  5
43
330
3
100
AcDbSymbolTableRecord
100
AcDbTextStyleTableRecord
  2
SLDTEXTSTYLE0
 70
     0
 40
0.0
 41
0.75
 50
0.0
 71
     0
 42
0.2
  3
TXT
  4

  0
STYLE
  5
206
330
3
100
AcDbSymbolTableRecord
100
AcDbTextStyleTableRecord
  2
SLDTEXTSTYLE1
 70
     0
 40
0.0
 41
0.69375
 50
0.0
 71
     0
 42
0.2
  3
TXT
  4

  0
STYLE
  5
20A
330
3
100
AcDbSymbolTableRecord
100
AcDbTextStyleTableRecord
  2
SLDTEXTSTYLE2
 70
     0
 40
0.0
 41
0.7090909091
 50
0.0
 71
     0
 42
0.2
  3
TXT
  4

  0
ENDTAB
  0
TABLE
  2
VIEW
  5
6
330
0
100
AcDbSymbolTable
 70
     0
  0
ENDTAB
  0
TABLE
  2
UCS
  5
7
330
0
100
AcDbSymbolTable
 70
     0
  0
ENDTAB
  0
TABLE
  2
APPID
  5
9
330
0
100
AcDbSymbolTable
 70
     1
  0
APPID
  5
12
330
9
100
AcDbSymbolTableRecord
100
AcDbRegAppTableRecord
  2
ACAD
 70
     0
  0
ENDTAB
  0
TABLE
  2
DIMSTYLE
  5
A
330
0
100
AcDbSymbolTable
 70
     2
100
AcDbDimStyleTable
 71
     0
  0
DIMSTYLE
105
27
330
A
100
AcDbSymbolTableRecord
100
AcDbDimStyleTableRecord
  2
Standard
 70
     0
340
11
  0
DIMSTYLE
105
13E
102
{ACAD_REACTORS
330
12F
330
146
330
15B
330
170
330
185
330
19D
330
1B2
330
1C9
102
}
330
A
100
AcDbSymbolTableRecord
100
AcDbDimStyleTableRecord
  2
SLDDIMSTYLE0
 70
     0
 41
0.156
 44
0.0
 78
    12
140
0.1377952756
147
0.0344488189
173
     1
271
     3
272
     3
284
    12
340
43
  0
ENDTAB
  0
TABLE
  2
BLOCK_RECORD
  5
1
330
0
100
AcDbSymbolTable
 70
    21
  0
BLOCK_RECORD
  5
1F
330
1
100
AcDbSymbolTableRecord
100
AcDbBlockTableRecord
  2
*Model_Space
340
22
  0
BLOCK_RECORD
  5
1B
330
1
100
AcDbSymbolTableRecord
100
AcDbBlockTableRecord
  2
*Paper_Space
340
1E
  0
BLOCK_RECORD
  5
23
330
1
100
AcDbSymbolTableRecord
100
AcDbBlockTableRecord
  2
*Paper_Space0
340
26
  0
BLOCK_RECORD
  5
31
330
1
100
AcDbSymbolTableRecord
100
AcDbBlockTableRecord
  2
Block1
340
0
102
{BLKREFS
331
20C
102
}
  0
BLOCK_RECORD
  5
34
330
1
100
AcDbSymbolTableRecord
100
AcDbBlockTableRecord
  2
scott
340
0
  0
BLOCK_RECORD
  5
40
330
1
100
AcDbSymbolTableRecord
100
AcDbBlockTableRecord
  2
SW_NOTE_0
340
0
102
{BLKREFS
331
46
102
}
  0
BLOCK_RECORD
  5
47
330
1
100
AcDbSymbolTableRecord
100
AcDbBlockTableRecord
  2
SW_NOTE_1
340
0
102
{BLKREFS
331
4C
102
}
  0
BLOCK_RECORD
  5
4D
330
1
100
AcDbSymbolTableRecord
100
AcDbBlockTableRecord
  2
SW_NOTE_2
340
0
102
{BLKREFS
331
52
102
}
  0
BLOCK_RECORD
  5
56
330
1
100
AcDbSymbolTableRecord
100
AcDbBlockTableRecord
  2
111
340
0
102
{BLKREFS
331
20D
331
20E
331
20F
331
210
102
}
  0
BLOCK_RECORD
  5
131
330
1
100
AcDbSymbolTableRecord
100
AcDbBlockTableRecord
  2
*D7
340
0
  0
BLOCK_RECORD
  5
147
330
1
100
AcDbSymbolTableRecord
100
AcDbBlockTableRecord
  2
*D8
340
0
  0
BLOCK_RECORD
  5
15C
330
1
100
AcDbSymbolTableRecord
100
AcDbBlockTableRecord
  2
*D9
340
0
  0
BLOCK_RECORD
  5
171
330
1
100
AcDbSymbolTableRecord
100
AcDbBlockTableRecord
  2
*D10
340
0
  0
BLOCK_RECORD
  5
186
330
1
100
AcDbSymbolTableRecord
100
AcDbBlockTableRecord
  2
*D11
340
0
  0
BLOCK_RECORD
  5
19E
330
1
100
AcDbSymbolTableRecord
100
AcDbBlockTableRecord
  2
*D12
340
0
  0
BLOCK_RECORD
  5
1B3
330
1
100
AcDbSymbolTableRecord
100
AcDbBlockTableRecord
  2
*D13
340
0
  0
BLOCK_RECORD
  5
1CA
330
1
100
AcDbSymbolTableRecord
100
AcDbBlockTableRecord
  2
*D14
340
0
  0
BLOCK_RECORD
  5
1E0
330
1
100
AcDbSymbolTableRecord
100
AcDbBlockTableRecord
  2
SW_NOTE_3
340
0
102
{BLKREFS
331
1E5
102
}
  0
BLOCK_RECORD
  5
1E6
330
1
100
AcDbSymbolTableRecord
100
AcDbBlockTableRecord
  2
SW_NOTE_4
340
0
102
{BLKREFS
331
1EB
102
}
  0
BLOCK_RECORD
  5
1EC
330
1
100
AcDbSymbolTableRecord
100
AcDbBlockTableRecord
  2
SW_NOTE_5
340
0
102
{BLKREFS
331
1F1
102
}
  0
BLOCK_RECORD
  5
1F3
330
1
100
AcDbSymbolTableRecord
100
AcDbBlockTableRecord
  2
SW_NOTE_6
340
0
102
{BLKREFS
331
1F8
102
}
  0
BLOCK_RECORD
  5
1F9
330
1
100
AcDbSymbolTableRecord
100
AcDbBlockTableRecord
  2
SW_NOTE_7
340
0
102
{BLKREFS
331
1FE
102
}
  0
BLOCK_RECORD
  5
1FF
330
1
100
AcDbSymbolTableRecord
100
AcDbBlockTableRecord
  2
SW_NOTE_8
340
0
102
{BLKREFS
331
204
102
}
  0
ENDTAB
  0
ENDSEC
  0
SECTION
  2
BLOCKS
  0
BLOCK
  5
20
330
1F
100
AcDbEntity
  8
0
100
AcDbBlockBegin
  2
*Model_Space
 70
     0
 10
0.0
 20
0.0
 30
0.0
  3
*Model_Space
  1

  0
ENDBLK
  5
21
330
1F
100
AcDbEntity
  8
0
100
AcDbBlockEnd
  0
BLOCK
  5
1C
330
1B
100
AcDbEntity
 67
     1
  8
0
100
AcDbBlockBegin
  2
*Paper_Space
 70
     0
 10
0.0
 20
0.0
 30
0.0
  3
*Paper_Space
  1

  0
ENDBLK
  5
1D
330
1B
100
AcDbEntity
 67
     1
  8
0
100
AcDbBlockEnd
  0
BLOCK
  5
24
330
23
100
AcDbEntity
  8
0
100
AcDbBlockBegin
  2
*Paper_Space0
 70
     0
 10
0.0
 20
0.0
 30
0.0
  3
*Paper_Space0
  1

  0
ENDBLK
  5
25
330
23
100
AcDbEntity
  8
0
100
AcDbBlockEnd
  0
BLOCK
  5
32
330
31
100
AcDbEntity
  8
0
100
AcDbBlockBegin
  2
Block1
 70
     0
 10
0.0
 20
0.0
 30
0.0
  3
Block1
  1

  0
ENDBLK
  5
33
330
31
100
AcDbEntity
  8
0
100
AcDbBlockEnd
  0
BLOCK
  5
35
330
34
100
AcDbEntity
  8
0
100
AcDbBlockBegin
  2
scott
 70
     0
 10
0.0
 20
0.0
 30
0.0
  3
scott
  1

  0
LINE
  5
37
330
34
100
AcDbEntity
  8
0
  6
Continuous
 62
     7
370
     0
100
AcDbLine
 10
4.187999999999999
 20
0.4060000000000001
 30
0.0
 11
4.187999999999999
 21
0.0
 31
0.0
  0
LINE
  5
38
330
34
100
AcDbEntity
  8
0
  6
Continuous
 62
     7
370
     0
100
AcDbLine
 10
4.25
 20
0.4060000000000001
 30
0.0
 11
4.25
 21
0.0
 31
0.0
  0
LINE
  5
39
330
34
100
AcDbEntity
  8
0
  6
Continuous
 62
     7
370
     0
100
AcDbLine
 10
10.43799999999999
 20
0.4060000000000001
 30
0.0
 11
0.062
 21
0.4060000000000001
 31
0.0
  0
LINE
  5
3A
330
34
100
AcDbEntity
  8
0
  6
Continuous
 62
     7
370
     0
100
AcDbLine
 10
5.0
 20
0.4060000000000001
 30
0.0
 11
5.0
 21
0.0
 31
0.0
  0
LINE
  5
3B
330
34
100
AcDbEntity
  8
0
  6
Continuous
 62
     7
370
     0
100
AcDbLine
 10
10.43799999999999
 20
0.0
 30
0.0
 11
0.062
 21
0.0
 31
0.0
  0
LINE
  5
3C
330
34
100
AcDbEntity
  8
0
  6
Continuous
 62
     7
370
     0
100
AcDbLine
 10
0.812
 20
0.4060000000000001
 30
0.0
 11
0.812
 21
0.0
 31
0.0
  0
LINE
  5
3D
330
34
100
AcDbEntity
  8
0
  6
Continuous
 62
     7
370
     0
100
AcDbLine
 10
8.375999999999999
 20
0.4060000000000001
 30
0.0
 11
8.375999999999999
 21
0.0
 31
0.0
  0
LINE
  5
3E
330
34
100
AcDbEntity
  8
0
  6
Continuous
 62
     7
370
     0
100
AcDbLine
 10
8.437999999999998
 20
0.4060000000000001
 30
0.0
 11
8.437999999999998
 21
0.0
 31
0.0
  0
LINE
  5
3F
330
34
100
AcDbEntity
  8
0
  6
Continuous
 62
     7
370
     0
100
AcDbLine
 10
9.187999999999998
 20
0.4060000000000001
 30
0.0
 11
9.187999999999998
 21
0.0
 31
0.0
  0
INSERT
  5
46
330
34
100
AcDbEntity
  8
0
  6
Continuous
 62
     7
370
     0
100
AcDbBlockReference
  2
SW_NOTE_0
 10
4.432413357999999
 20
0.1923935329
 30
0.0
  0
INSERT
  5
4C
330
34
100
AcDbEntity
  8
0
  6
Continuous
 62
     7
370
     0
100
AcDbBlockReference
  2
SW_NOTE_1
 10
8.4291411823
 20
0.1810250503
 30
0.0
  0
INSERT
  5
52
330
34
100
AcDbEntity
  8
0
  6
Continuous
 62
     7
370
     0
100
AcDbBlockReference
  2
SW_NOTE_2
 10
0.2417056006
 20
0.1903734939
 30
0.0
  0
MTEXT
  5
53
330
34
100
AcDbEntity
  8
0
  6
Continuous
 62
     7
370
     0
100
AcDbMText
 10
5.700395190399999
 20
0.3078619997
 30
0.0
 40
0.1875
 41
0.0
 71
     1
 72
     1
  1
{HH-3449/HH-3634}
  7
SLDTEXTSTYLE0
 73
     1
 44
1.0
  0
MTEXT
  5
54
330
34
100
AcDbEntity
  8
0
  6
Continuous
 62
     7
370
     0
100
AcDbMText
 10
1.0107762756
 20
0.2867449987
 30
0.0
 40
0.1875
 41
0.0
 71
     1
 72
     1
  1
{BATTERY CLIP/HOLDER}
  7
SLDTEXTSTYLE0
 73
     1
 44
1.0
  0
MTEXT
  5
55
330
34
100
AcDbEntity
  8
0
  6
Continuous
 62
     7
370
     0
100
AcDbMText
 10
9.279755919699999
 20
0.3054509076
 30
0.0
 40
0.1875
 41
0.0
 71
     1
 72
     1
  1
{08MAY07}
  7
SLDTEXTSTYLE0
 73
     1
 44
1.0
  0
ENDBLK
  5
36
330
34
100
AcDbEntity
  8
0
100
AcDbBlockEnd
  0
BLOCK
  5
41
330
40
100
AcDbEntity
  8
0
100
AcDbBlockBegin
  2
SW_NOTE_0
 70
     0
 10
0.0
 20
0.0
 30
0.0
  3
SW_NOTE_0
  1

  0
MTEXT
  5
44
330
40
100
AcDbEntity
  8
0
  6
Continuous
 62
     7
370
     0
100
AcDbMText
 10
0.0
 20
0.1760119341
 30
0.0
 40
0.1377952756
 41
0.0
 71
     1
 72
     1
  1
{PART}
  7
SLDTEXTSTYLE0
 73
     1
 44
1.0
  0
MTEXT
  5
45
330
40
100
AcDbEntity
  8
0
  6
Continuous
 62
     7
370
     0
100
AcDbMText
 10
0.0643523366
 20
-0.0011534126
 30
0.0
 40
0.1377952756
 41
0.0
 71
     1
 72
     1
  1
{No.}
  7
SLDTEXTSTYLE0
 73
     1
 44
1.0
  0
ENDBLK
  5
42
330
40
100
AcDbEntity
  8
0
100
AcDbBlockEnd
  0
BLOCK
  5
48
330
47
100
AcDbEntity
  8
0
100
AcDbBlockBegin
  2
SW_NOTE_1
 70
     0
 10
0.0
 20
0.0
 30
0.0
  3
SW_NOTE_1
  1

  0
MTEXT
  5
4A
330
47
100
AcDbEntity
  8
0
  6
Continuous
 62
     7
370
     0
100
AcDbMText
 10
0.0
 20
0.1760119341
 30
0.0
 40
0.1377952756
 41
0.0
 71
     1
 72
     1
  1
{REVISION}
  7
SLDTEXTSTYLE0
 73
     1
 44
1.0
  0
MTEXT
  5
4B
330
47
100
AcDbEntity
  8
0
  6
Continuous
 62
     7
370
     0
100
AcDbMText
 10
0.1722201705
 20
-0.0011534126
 30
0.0
 40
0.1377952756
 41
0.0
 71
     1
 72
     1
  1
{DATE}
  7
SLDTEXTSTYLE0
 73
     1
 44
1.0
  0
ENDBLK
  5
49
330
47
100
AcDbEntity
  8
0
100
AcDbBlockEnd
  0
BLOCK
  5
4E
330
4D
100
AcDbEntity
  8
0
100
AcDbBlockBegin
  2
SW_NOTE_2
 70
     0
 10
0.0
 20
0.0
 30
0.0
  3
SW_NOTE_2
  1

  0
MTEXT
  5
50
330
4D
100
AcDbEntity
  8
0
  6
Continuous
 62
     7
370
     0
100
AcDbMText
 10
0.0
 20
0.1760119341
 30
0.0
 40
0.1377952756
 41
0.0
 71
     1
 72
     1
  1
{PART}
  7
SLDTEXTSTYLE0
 73
     1
 44
1.0
  0
MTEXT
  5
51
330
4D
100
AcDbEntity
  8
0
  6
Continuous
 62
     7
370
     0
100
AcDbMText
 10
-0.0513741915
 20
-0.0011534126
 30
0.0
 40
0.1377952756
 41
0.0
 71
     1
 72
     1
  1
{NAME}
  7
SLDTEXTSTYLE0
 73
     1
 44
1.0
  0
ENDBLK
  5
4F
330
4D
100
AcDbEntity
  8
0
100
AcDbBlockEnd
  0
BLOCK
  5
57
330
56
100
AcDbEntity
  8
0
100
AcDbBlockBegin
  2
111
 70
     0
 10
0.0
 20
0.0
 30
0.0
  3
111
  1

  0
ARC
  5
59
330
56
100
AcDbEntity
  8
SLD-0
100
AcDbCircle
 10
-0.4978721965
 20
-0.3622181833
 30
0.0
 40
0.0108267716535639
100
AcDbArc
 50
90.0
 51
270.0000000000999
  0
ARC
  5
5A
330
56
100
AcDbEntity
  8
SLD-0
100
AcDbCircle
 10
0.0316553626
 20
-0.3622181833
 30
0.0
 40
0.0108267716536831
100
AcDbArc
 50
250.0000000003
 51
70.0000000004
  0
ARC
  5
5B
330
56
100
AcDbEntity
  8
SLD-0
100
AcDbCircle
 10
-0.4659377771
 20
-0.1811090916
 30
0.0
 40
0.0108267716536144
100
AcDbArc
 50
110.0000000009
 51
290.0000000006
  0
ARC
  5
5C
330
56
100
AcDbEntity
  8
SLD-0
100
AcDbCircle
 10
0.0316553626
 20
0.0
 30
0.0
 40
0.0108267716539456
100
AcDbArc
 50
250.0000000008999
 51
70.000000001
  0
ARC
  5
5D
330
56
100
AcDbEntity
  8
SLD-0
100
AcDbCircle
 10
-0.4659377771
 20
0.1811090916
 30
0.0
 40
0.010826771653648
100
AcDbArc
 50
109.9999999997
 51
289.9999999993999
  0
ARC
  5
5E
330
56
100
AcDbEntity
  8
SLD-0
100
AcDbCircle
 10
0.0316553626
 20
0.3622181833
 30
0.0
 40
0.0108267716536852
100
AcDbArc
 50
289.9999999997999
 51
70.00000000029999
  0
ARC
  5
5F
330
56
100
AcDbEntity
  8
SLD-0
100
AcDbCircle
 10
0.0316553626
 20
0.3622181833
 30
0.0
 40
0.0108267716536606
100
AcDbArc
 50
250.0000000003
 51
50.0000000003
  0
LINE
  5
60
330
56
100
AcDbEntity
  8
SLD-0
100
AcDbLine
 10
0.0316553626
 20
-0.3730449549
 30
0.0
 11
-0.4978721965
 21
-0.3730449549
 31
0.0
  0
LINE
  5
61
330
56
100
AcDbEntity
  8
SLD-0
100
AcDbLine
 10
-0.0297463106
 20
-0.3513914116
 30
0.0
 11
-0.4978721965
 21
-0.3513914116
 31
0.0
  0
LINE
  5
62
330
56
100
AcDbEntity
  8
SLD-0
100
AcDbLine
 10
0.0279523886
 20
-0.3723920207
 30
0.0
 11
-0.4696407511
 21
-0.1912829291
 31
0.0
  0
LINE
  5
63
330
56
100
AcDbEntity
  8
SLD-0
100
AcDbLine
 10
0.0353583366
 20
-0.3520443459
 30
0.0
 11
-0.4342824145000001
 21
-0.1811090916
 31
0.0
  0
LINE
  5
64
330
56
100
AcDbEntity
  8
SLD-0
100
AcDbLine
 10
0.0353583366
 20
-0.0101738374
 30
0.0
 11
-0.4622348032
 21
-0.1912829291
 31
0.0
  0
LINE
  5
65
330
56
100
AcDbEntity
  8
SLD-0
100
AcDbLine
 10
-0.4659377771
 20
-0.1695874819
 30
0.0
 11
-0.4696407511
 21
-0.1709352542
 31
0.0
  0
LINE
  5
66
330
56
100
AcDbEntity
  8
SLD-0
100
AcDbLine
 10
0.0316553626
 20
0.0115216097
 30
0.0
 11
0.0353583366
 21
0.0101738374
 31
0.0
  0
LINE
  5
67
330
56
100
AcDbEntity
  8
SLD-0
100
AcDbLine
 10
-0.4696407511
 20
0.1709352542
 30
0.0
 11
0.0279523886
 21
-0.0101738374
 31
0.0
  0
LINE
  5
68
330
56
100
AcDbEntity
  8
SLD-0
100
AcDbLine
 10
-0.4696407511
 20
-0.1709352542
 30
0.0
 11
0.0
 21
0.0
 31
0.0
  0
LINE
  5
69
330
56
100
AcDbEntity
  8
SLD-0
100
AcDbLine
 10
-0.4622348032
 20
-0.1912829291
 30
0.0
 11
0.0353583366
 21
-0.0101738374
 31
0.0
  0
LINE
  5
6A
330
56
100
AcDbEntity
  8
SLD-0
100
AcDbLine
 10
0.0279523886
 20
-0.0101738374
 30
0.0
 11
-0.4696407511
 21
0.1709352542
 31
0.0
  0
LINE
  5
6B
330
56
100
AcDbEntity
  8
SLD-0
100
AcDbLine
 10
0.0316553626
 20
0.0115216097
 30
0.0
 11
-0.4342824145000001
 21
0.1811090916
 31
0.0
  0
LINE
  5
6C
330
56
100
AcDbEntity
  8
SLD-0
100
AcDbLine
 10
0.0353583366
 20
0.3520443459
 30
0.0
 11
-0.4622348032
 21
0.1709352542
 31
0.0
  0
LINE
  5
6D
330
56
100
AcDbEntity
  8
SLD-0
100
AcDbLine
 10
0.0
 20
0.3622181833
 30
0.0
 11
-0.4696407511
 21
0.1912829291
 31
0.0
  0
LINE
  5
6E
330
56
100
AcDbEntity
  8
SLD-0
100
AcDbLine
 10
-0.4696407511
 20
0.1912829291
 30
0.0
 11
0.0
 21
0.3622181833
 31
0.0
  0
LINE
  5
6F
330
56
100
AcDbEntity
  8
SLD-0
100
AcDbLine
 10
-0.4622348032
 20
0.1709352542
 30
0.0
 11
0.0353583366
 21
0.3520443459
 31
0.0
  0
LINE
  5
70
330
56
100
AcDbEntity
  8
SLD-0
100
AcDbLine
 10
0.0279523886
 20
0.3520443459
 30
0.0
 11
-0.0837565559
 21
0.3927030766
 31
0.0
  0
LINE
  5
71
330
56
100
AcDbEntity
  8
SLD-0
100
AcDbLine
 10
-0.0837565559
 20
0.3927030766
 30
0.0
 11
0.0279523886
 21
0.3520443459
 31
0.0
  0
ENDBLK
  5
58
330
56
100
AcDbEntity
  8
0
100
AcDbBlockEnd
  0
BLOCK
  5
13C
330
131
100
AcDbEntity
  8
0
100
AcDbBlockBegin
  2
*D7
 70
     1
 10
0.0
 20
0.0
 30
0.0
  3
*D7
  1

  0
LINE
  5
23E
330
131
100
AcDbEntity
  8
FORMAT
 62
     0
370
    -2
100
AcDbLine
 10
2.7196010076
 20
2.0650627033
 30
0.0
 11
2.7196010076
 21
1.4127057659
 31
0.0
  0
LINE
  5
23F
330
131
100
AcDbEntity
  8
FORMAT
 62
     0
370
    -2
100
AcDbLine
 10
4.987317543
 20
2.0650627033
 30
0.0
 11
4.987317543
 21
1.4127057659
 31
0.0
  0
LINE
  5
240
330
131
100
AcDbEntity
  8
FORMAT
 62
     0
370
    -2
100
AcDbLine
 10
2.8756010076
 20
1.5377057659
 30
0.0
 11
3.561673251699999
 21
1.5377057659
 31
0.0
  0
LINE
  5
241
330
131
100
AcDbEntity
  8
FORMAT
 62
     0
370
    -2
100
AcDbLine
 10
4.831317543
 20
1.5377057659
 30
0.0
 11
4.0950590785
 21
1.5377057659
 31
0.0
  0
SOLID
  5
242
330
131
100
AcDbEntity
  8
FORMAT
 62
     0
100
AcDbTrace
 10
2.8756010076
 20
1.563705765899999
 30
0.0
 11
2.8756010076
 21
1.511705765899999
 31
0.0
 12
2.7196010076
 22
1.5377057659
 32
0.0
 13
2.7196010076
 23
1.5377057659
 33
0.0
  0
SOLID
  5
243
330
131
100
AcDbEntity
  8
FORMAT
 62
     0
100
AcDbTrace
 10
4.831317543
 20
1.563705765899999
 30
0.0
 11
4.831317543
 21
1.511705765899999
 31
0.0
 12
4.987317543
 22
1.5377057659
 32
0.0
 13
4.987317543
 23
1.5377057659
 33
0.0
  0
MTEXT
  5
244
330
131
100
AcDbEntity
  8
FORMAT
 62
     0
100
AcDbMText
 10
3.621673251699999
 20
1.606603403699999
 30
0.0
 40
0.1377952756
 41
0.0
 71
     1
 72
     1
  1
\A1;2.268
  7
SLDTEXTSTYLE0
 73
     1
 44
1.0
  0
POINT
  5
245
330
131
100
AcDbEntity
  8
Defpoints
 62
     0
100
AcDbPoint
 10
2.7196010076
 20
2.1150627033
 30
0.0
  0
POINT
  5
246
330
131
100
AcDbEntity
  8
Defpoints
 62
     0
100
AcDbPoint
 10
4.987317543
 20
2.1150627033
 30
0.0
  0
POINT
  5
247
330
131
100
AcDbEntity
  8
Defpoints
 62
     0
100
AcDbPoint
 10
4.987317543
 20
1.5377057659
 30
0.0
  0
ENDBLK
  5
13D
330
131
100
AcDbEntity
  8
0
100
AcDbBlockEnd
  0
BLOCK
  5
152
330
147
100
AcDbEntity
  8
0
100
AcDbBlockBegin
  2
*D8
 70
     1
 10
0.0
 20
0.0
 30
0.0
  3
*D8
  1

  0
LINE
  5
234
330
147
100
AcDbEntity
  8
FORMAT
 62
     0
370
    -2
100
AcDbLine
 10
2.6696010076
 20
2.1150627033
 30
0.0
 11
1.9886973706
 21
2.1150627033
 31
0.0
  0
LINE
  5
235
330
147
100
AcDbEntity
  8
FORMAT
 62
     0
370
    -2
100
AcDbLine
 10
2.6696010076
 20
2.705613884399999
 30
0.0
 11
1.9886973706
 21
2.705613884399999
 31
0.0
  0
LINE
  5
236
330
147
100
AcDbEntity
  8
FORMAT
 62
     0
370
    -2
100
AcDbLine
 10
2.1136973706
 20
1.9590627033
 30
0.0
 11
2.1136973706
 21
1.8030627033
 31
0.0
  0
LINE
  5
237
330
147
100
AcDbEntity
  8
FORMAT
 62
     0
370
    -2
100
AcDbLine
 10
2.1136973706
 20
2.8616138844
 30
0.0
 11
2.113697370600001
 21
3.017613884399999
 31
0.0
  0
SOLID
  5
238
330
147
100
AcDbEntity
  8
FORMAT
 62
     0
100
AcDbTrace
 10
2.0876973706
 20
1.9590627033
 30
0.0
 11
2.1396973706
 21
1.9590627033
 31
0.0
 12
2.1136973706
 22
2.1150627033
 32
0.0
 13
2.1136973706
 23
2.1150627033
 33
0.0
  0
SOLID
  5
239
330
147
100
AcDbEntity
  8
FORMAT
 62
     0
100
AcDbTrace
 10
2.0876973706
 20
2.8616138844
 30
0.0
 11
2.1396973706
 21
2.8616138844
 31
0.0
 12
2.1136973706
 22
2.705613884399999
 32
0.0
 13
2.1136973706
 23
2.705613884399999
 33
0.0
  0
MTEXT
  5
23A
330
147
100
AcDbEntity
  8
FORMAT
 62
     0
100
AcDbMText
 10
1.975902095
 20
2.502469684
 30
0.0
 40
0.1377952756
 41
0.0
 71
     1
 72
     1
  1
\A1;.591
  7
SLDTEXTSTYLE0
 73
     1
 44
1.0
  0
POINT
  5
23B
330
147
100
AcDbEntity
  8
Defpoints
 62
     0
100
AcDbPoint
 10
2.7196010076
 20
2.1150627033
 30
0.0
  0
POINT
  5
23C
330
147
100
AcDbEntity
  8
Defpoints
 62
     0
100
AcDbPoint
 10
2.7196010076
 20
2.705613884399999
 30
0.0
  0
POINT
  5
23D
330
147
100
AcDbEntity
  8
Defpoints
 62
     0
100
AcDbPoint
 10
2.1136973706
 20
2.705613884399999
 30
0.0
  0
ENDBLK
  5
153
330
147
100
AcDbEntity
  8
0
100
AcDbBlockEnd
  0
BLOCK
  5
167
330
15C
100
AcDbEntity
  8
0
100
AcDbBlockBegin
  2
*D9
 70
     1
 10
0.0
 20
0.0
 30
0.0
  3
*D9
  1

  0
LINE
  5
25C
330
15C
100
AcDbEntity
  8
FORMAT
 62
     0
370
    -2
100
AcDbLine
 10
6.6017967861
 20
2.0650627033
 30
0.0
 11
6.6017967861
 21
1.4127057659
 31
0.0
  0
LINE
  5
25D
330
15C
100
AcDbEntity
  8
FORMAT
 62
     0
370
    -2
100
AcDbLine
 10
9.0584896995
 20
2.0650627033
 30
0.0
 11
9.0584896995
 21
1.4127057659
 31
0.0
  0
LINE
  5
25E
330
15C
100
AcDbEntity
  8
FORMAT
 62
     0
370
    -2
100
AcDbLine
 10
6.7577967861
 20
1.5377057659
 30
0.0
 11
7.6372945967
 21
1.5377057659
 31
0.0
  0
LINE
  5
25F
330
15C
100
AcDbEntity
  8
FORMAT
 62
     0
370
    -2
100
AcDbLine
 10
8.9024896995
 20
1.5377057659
 30
0.0
 11
8.1706804235
 21
1.5377057659
 31
0.0
  0
SOLID
  5
260
330
15C
100
AcDbEntity
  8
FORMAT
 62
     0
100
AcDbTrace
 10
6.7577967861
 20
1.563705765899999
 30
0.0
 11
6.7577967861
 21
1.511705765899999
 31
0.0
 12
6.6017967861
 22
1.5377057659
 32
0.0
 13
6.6017967861
 23
1.5377057659
 33
0.0
  0
SOLID
  5
261
330
15C
100
AcDbEntity
  8
FORMAT
 62
     0
100
AcDbTrace
 10
8.9024896995
 20
1.563705765899999
 30
0.0
 11
8.9024896995
 21
1.511705765899999
 31
0.0
 12
9.0584896995
 22
1.5377057659
 32
0.0
 13
9.0584896995
 23
1.5377057659
 33
0.0
  0
MTEXT
  5
262
330
15C
100
AcDbEntity
  8
FORMAT
 62
     0
100
AcDbMText
 10
7.697294596699999
 20
1.606603403699999
 30
0.0
 40
0.1377952756
 41
0.0
 71
     1
 72
     1
  1
\A1;2.457
  7
SLDTEXTSTYLE0
 73
     1
 44
1.0
  0
POINT
  5
263
330
15C
100
AcDbEntity
  8
Defpoints
 62
     0
100
AcDbPoint
 10
6.6017967861
 20
2.1150627033
 30
0.0
  0
POINT
  5
264
330
15C
100
AcDbEntity
  8
Defpoints
 62
     0
100
AcDbPoint
 10
9.0584896995
 20
2.1150627033
 30
0.0
  0
POINT
  5
265
330
15C
100
AcDbEntity
  8
Defpoints
 62
     0
100
AcDbPoint
 10
9.0584896995
 20
1.5377057659
 30
0.0
  0
ENDBLK
  5
168
330
15C
100
AcDbEntity
  8
0
100
AcDbBlockEnd
  0
BLOCK
  5
17C
330
171
100
AcDbEntity
  8
0
100
AcDbBlockBegin
  2
*D10
 70
     1
 10
0.0
 20
0.0
 30
0.0
  3
*D10
  1

  0
LINE
  5
248
330
171
100
AcDbEntity
  8
FORMAT
 62
     0
370
    -2
100
AcDbLine
 10
3.803459275299999
 20
4.3836219712
 30
0.0
 11
1.9886973706
 21
4.383621971200001
 31
0.0
  0
LINE
  5
249
330
171
100
AcDbEntity
  8
FORMAT
 62
     0
370
    -2
100
AcDbLine
 10
3.803459275299999
 20
6.572598349199999
 30
0.0
 11
1.988697370600001
 21
6.5725983492
 31
0.0
  0
LINE
  5
24A
330
171
100
AcDbEntity
  8
FORMAT
 62
     0
370
    -2
100
AcDbLine
 10
2.1136973706
 20
4.539621971199999
 30
0.0
 11
2.113697370600001
 21
5.292284344899999
 31
0.0
  0
LINE
  5
24B
330
171
100
AcDbEntity
  8
FORMAT
 62
     0
370
    -2
100
AcDbLine
 10
2.113697370600001
 20
6.4165983492
 30
0.0
 11
2.113697370600001
 21
5.550079620499999
 31
0.0
  0
SOLID
  5
24C
330
171
100
AcDbEntity
  8
FORMAT
 62
     0
100
AcDbTrace
 10
2.0876973706
 20
4.539621971199999
 30
0.0
 11
2.1396973706
 21
4.539621971199999
 31
0.0
 12
2.1136973706
 22
4.3836219712
 32
0.0
 13
2.1136973706
 23
4.3836219712
 33
0.0
  0
SOLID
  5
24D
330
171
100
AcDbEntity
  8
FORMAT
 62
     0
100
AcDbTrace
 10
2.087697370600001
 20
6.4165983492
 30
0.0
 11
2.1396973706
 21
6.4165983492
 31
0.0
 12
2.113697370600001
 22
6.572598349199999
 32
0.0
 13
2.113697370600001
 23
6.572598349199999
 33
0.0
  0
MTEXT
  5
24E
330
171
100
AcDbEntity
  8
FORMAT
 62
     0
100
AcDbMText
 10
1.92422886665
 20
5.490079620499999
 30
0.0
 40
0.1377952756
 41
0.0
 71
     1
 72
     1
  1
\A1;2.189
  7
SLDTEXTSTYLE0
 73
     1
 44
1.0
  0
POINT
  5
24F
330
171
100
AcDbEntity
  8
Defpoints
 62
     0
100
AcDbPoint
 10
3.853459275299999
 20
4.3836219712
 30
0.0
  0
POINT
  5
250
330
171
100
AcDbEntity
  8
Defpoints
 62
     0
100
AcDbPoint
 10
3.853459275299999
 20
6.572598349199999
 30
0.0
  0
POINT
  5
251
330
171
100
AcDbEntity
  8
Defpoints
 62
     0
100
AcDbPoint
 10
2.113697370600001
 20
6.572598349199999
 30
0.0
  0
ENDBLK
  5
17D
330
171
100
AcDbEntity
  8
0
100
AcDbBlockEnd
  0
BLOCK
  5
192
330
186
100
AcDbEntity
  8
0
100
AcDbBlockBegin
  2
*D11
 70
     1
 10
0.0
 20
0.0
 30
0.0
  3
*D11
  1

  0
LINE
  5
229
330
186
100
AcDbEntity
  8
FORMAT
 62
     0
370
    -2
100
AcDbLine
 10
3.803459275299999
 20
4.3836219712
 30
0.0
 11
2.3424926462
 21
4.3836219712
 31
0.0
  0
LINE
  5
22A
330
186
100
AcDbEntity
  8
FORMAT
 62
     0
370
    -2
100
AcDbLine
 10
2.6696010076
 20
4.2497637035
 30
0.0
 11
2.3424926462
 21
4.2497637035
 31
0.0
  0
LINE
  5
22B
330
186
100
AcDbEntity
  8
FORMAT
 62
     0
370
    -2
100
AcDbLine
 10
2.4674926462
 20
4.539621971199999
 30
0.0
 11
2.4674926462
 21
4.6956219712
 31
0.0
  0
LINE
  5
22C
330
186
100
AcDbEntity
  8
FORMAT
 62
     0
370
    -2
100
AcDbLine
 10
2.4674926462
 20
4.0937637035
 30
0.0
 11
2.4674926462
 21
3.783576954199999
 31
0.0
  0
LINE
  5
22D
330
186
100
AcDbEntity
  8
FORMAT
 62
     0
370
    -2
100
AcDbLine
 10
2.4674926462
 20
3.783576954199999
 30
0.0
 11
2.3114926462
 21
3.783576954199999
 31
0.0
  0
SOLID
  5
22E
330
186
100
AcDbEntity
  8
FORMAT
 62
     0
100
AcDbTrace
 10
2.4414926462
 20
4.539621971199999
 30
0.0
 11
2.4934926462
 21
4.539621971199999
 31
0.0
 12
2.4674926462
 22
4.3836219712
 32
0.0
 13
2.4674926462
 23
4.3836219712
 33
0.0
  0
SOLID
  5
22F
330
186
100
AcDbEntity
  8
FORMAT
 62
     0
100
AcDbTrace
 10
2.4414926462
 20
4.0937637035
 30
0.0
 11
2.4934926462
 21
4.0937637035
 31
0.0
 12
2.4674926462
 22
4.2497637035
 32
0.0
 13
2.4674926462
 23
4.2497637035
 33
0.0
  0
MTEXT
  5
230
330
186
100
AcDbEntity
  8
FORMAT
 62
     0
100
AcDbMText
 10
1.975902095
 20
3.852474592
 30
0.0
 40
0.1377952756
 41
0.0
 71
     1
 72
     1
  1
\A1;.134
  7
SLDTEXTSTYLE0
 73
     1
 44
1.0
  0
POINT
  5
231
330
186
100
AcDbEntity
  8
Defpoints
 62
     0
100
AcDbPoint
 10
3.853459275299999
 20
4.3836219712
 30
0.0
  0
POINT
  5
232
330
186
100
AcDbEntity
  8
Defpoints
 62
     0
100
AcDbPoint
 10
2.7196010076
 20
4.2497637035
 30
0.0
  0
POINT
  5
233
330
186
100
AcDbEntity
  8
Defpoints
 62
     0
100
AcDbPoint
 10
2.4674926462
 20
4.2497637035
 30
0.0
  0
ENDBLK
  5
193
330
186
100
AcDbEntity
  8
0
100
AcDbBlockEnd
  0
BLOCK
  5
1A9
330
19E
100
AcDbEntity
  8
0
100
AcDbBlockBegin
  2
*D12
 70
     1
 10
0.0
 20
0.0
 30
0.0
  3
*D12
  1

  0
LINE
  5
21F
330
19E
100
AcDbEntity
  8
FORMAT
 62
     0
370
    -2
100
AcDbLine
 10
2.7196010076
 20
4.1997637035
 30
0.0
 11
2.7196010076
 21
3.639311012699999
 31
0.0
  0
LINE
  5
220
330
19E
100
AcDbEntity
  8
FORMAT
 62
     0
370
    -2
100
AcDbLine
 10
3.853459275299999
 20
4.3336219712
 30
0.0
 11
3.853459275299999
 21
3.639311012699999
 31
0.0
  0
LINE
  5
221
330
19E
100
AcDbEntity
  8
FORMAT
 62
     0
370
    -2
100
AcDbLine
 10
2.8756010076
 20
3.764311012699999
 30
0.0
 11
3.047042737499999
 21
3.764311012699999
 31
0.0
  0
LINE
  5
222
330
19E
100
AcDbEntity
  8
FORMAT
 62
     0
370
    -2
100
AcDbLine
 10
3.697459275299999
 20
3.764311012699999
 30
0.0
 11
3.511530926499999
 21
3.764311012699999
 31
0.0
  0
SOLID
  5
223
330
19E
100
AcDbEntity
  8
FORMAT
 62
     0
100
AcDbTrace
 10
2.8756010076
 20
3.790311012699999
 30
0.0
 11
2.8756010076
 21
3.7383110127
 31
0.0
 12
2.7196010076
 22
3.764311012699999
 32
0.0
 13
2.7196010076
 23
3.764311012699999
 33
0.0
  0
SOLID
  5
224
330
19E
100
AcDbEntity
  8
FORMAT
 62
     0
100
AcDbTrace
 10
3.697459275299999
 20
3.790311012699999
 30
0.0
 11
3.697459275299999
 21
3.7383110127
 31
0.0
 12
3.853459275299999
 22
3.764311012699999
 32
0.0
 13
3.853459275299999
 23
3.764311012699999
 33
0.0
  0
MTEXT
  5
225
330
19E
100
AcDbEntity
  8
FORMAT
 62
     0
100
AcDbMText
 10
3.1070427375
 20
3.833208650499999
 30
0.0
 40
0.1377952756
 41
0.0
 71
     1
 72
     1
  1
\A1;1.134
  7
SLDTEXTSTYLE0
 73
     1
 44
1.0
  0
POINT
  5
226
330
19E
100
AcDbEntity
  8
Defpoints
 62
     0
100
AcDbPoint
 10
2.7196010076
 20
4.2497637035
 30
0.0
  0
POINT
  5
227
330
19E
100
AcDbEntity
  8
Defpoints
 62
     0
100
AcDbPoint
 10
3.853459275299999
 20
4.3836219712
 30
0.0
  0
POINT
  5
228
330
19E
100
AcDbEntity
  8
Defpoints
 62
     0
100
AcDbPoint
 10
3.853459275299999
 20
3.764311012699999
 30
0.0
  0
ENDBLK
  5
1AA
330
19E
100
AcDbEntity
  8
0
100
AcDbBlockEnd
  0
BLOCK
  5
1BE
330
1B3
100
AcDbEntity
  8
0
100
AcDbBlockBegin
  2
*D13
 70
     1
 10
0.0
 20
0.0
 30
0.0
  3
*D13
  1

  0
LINE
  5
215
330
1B3
100
AcDbEntity
  8
FORMAT
 62
     0
370
    -2
100
AcDbLine
 10
4.987317543
 20
4.1997637035
 30
0.0
 11
4.987317543
 21
3.639311012699999
 31
0.0
  0
LINE
  5
216
330
1B3
100
AcDbEntity
  8
FORMAT
 62
     0
370
    -2
100
AcDbLine
 10
7.892564536
 20
4.7098539485
 30
0.0
 11
7.892564536
 21
3.639311012699999
 31
0.0
  0
LINE
  5
217
330
1B3
100
AcDbEntity
  8
FORMAT
 62
     0
370
    -2
100
AcDbLine
 10
5.143317543
 20
3.764311012699999
 30
0.0
 11
6.16708951035
 21
3.764311012699999
 31
0.0
  0
LINE
  5
218
330
1B3
100
AcDbEntity
  8
FORMAT
 62
     0
370
    -2
100
AcDbLine
 10
7.736564536
 20
3.764311012699999
 30
0.0
 11
6.80382179385
 21
3.764311012699999
 31
0.0
  0
SOLID
  5
219
330
1B3
100
AcDbEntity
  8
FORMAT
 62
     0
100
AcDbTrace
 10
5.143317543
 20
3.790311012699999
 30
0.0
 11
5.143317543
 21
3.7383110127
 31
0.0
 12
4.987317543
 22
3.764311012699999
 32
0.0
 13
4.987317543
 23
3.764311012699999
 33
0.0
  0
SOLID
  5
21A
330
1B3
100
AcDbEntity
  8
FORMAT
 62
     0
100
AcDbTrace
 10
7.736564536
 20
3.790311012699999
 30
0.0
 11
7.736564536
 21
3.7383110127
 31
0.0
 12
7.892564536
 22
3.764311012699999
 32
0.0
 13
7.892564536
 23
3.764311012699999
 33
0.0
  0
MTEXT
  5
21B
330
1B3
100
AcDbEntity
  8
FORMAT
 62
     0
100
AcDbMText
 10
6.22708951035
 20
3.833208650499999
 30
0.0
 40
0.1377952756
 41
0.0
 71
     1
 72
     1
  1
\A1;6.0%%p0.2
  7
SLDTEXTSTYLE0
 73
     1
 44
1.0
  0
POINT
  5
21C
330
1B3
100
AcDbEntity
  8
Defpoints
 62
     0
100
AcDbPoint
 10
4.987317543
 20
4.2497637035
 30
0.0
  0
POINT
  5
21D
330
1B3
100
AcDbEntity
  8
Defpoints
 62
     0
100
AcDbPoint
 10
7.892564536
 20
4.759853948499999
 30
0.0
  0
POINT
  5
21E
330
1B3
100
AcDbEntity
  8
Defpoints
 62
     0
100
AcDbPoint
 10
7.892564536
 20
3.764311012699999
 30
0.0
  0
ENDBLK
  5
1BF
330
1B3
100
AcDbEntity
  8
0
100
AcDbBlockEnd
  0
BLOCK
  5
1D6
330
1CA
100
AcDbEntity
  8
0
100
AcDbBlockBegin
  2
*D14
 70
     1
 10
0.0
 20
0.0
 30
0.0
  3
*D14
  1

  0
LINE
  5
252
330
1CA
100
AcDbEntity
  8
FORMAT
 62
     0
370
    -2
100
AcDbLine
 10
7.6039641173
 20
4.6744208777
 30
0.0
 11
7.6039641173
 21
4.210606221399999
 31
0.0
  0
LINE
  5
253
330
1CA
100
AcDbEntity
  8
FORMAT
 62
     0
370
    -2
100
AcDbLine
 10
7.892564536
 20
4.7098539485
 30
0.0
 11
7.892564536
 21
4.210606221399999
 31
0.0
  0
LINE
  5
254
330
1CA
100
AcDbEntity
  8
FORMAT
 62
     0
370
    -2
100
AcDbLine
 10
8.048564536
 20
4.335606221399999
 30
0.0
 11
8.204564535999999
 21
4.335606221399999
 31
0.0
  0
LINE
  5
255
330
1CA
100
AcDbEntity
  8
FORMAT
 62
     0
370
    -2
100
AcDbLine
 10
7.4479641173
 20
4.335606221399999
 30
0.0
 11
7.1655343923
 21
4.335606221399999
 31
0.0
  0
SOLID
  5
256
330
1CA
100
AcDbEntity
  8
FORMAT
 62
     0
100
AcDbTrace
 10
8.048564536
 20
4.361606221399999
 30
0.0
 11
8.048564536
 21
4.3096062214
 31
0.0
 12
7.892564536
 22
4.335606221399999
 32
0.0
 13
7.892564536
 23
4.335606221399999
 33
0.0
  0
SOLID
  5
257
330
1CA
100
AcDbEntity
  8
FORMAT
 62
     0
100
AcDbTrace
 10
7.4479641173
 20
4.361606221399999
 30
0.0
 11
7.4479641173
 21
4.3096062214
 31
0.0
 12
7.6039641173
 22
4.335606221399999
 32
0.0
 13
7.6039641173
 23
4.335606221399999
 33
0.0
  0
MTEXT
  5
258
330
1CA
100
AcDbEntity
  8
FORMAT
 62
     0
100
AcDbMText
 10
5.8653769119
 20
4.519333255533333
 30
0.0
 40
0.1377952756
 41
0.0
 71
     1
 72
     1
  1
\A1;0.2\P(LEAD LENGTH)
  7
SLDTEXTSTYLE0
 73
     1
 44
1.0
  0
POINT
  5
259
330
1CA
100
AcDbEntity
  8
Defpoints
 62
     0
100
AcDbPoint
 10
7.6039641173
 20
4.7244208777
 30
0.0
  0
POINT
  5
25A
330
1CA
100
AcDbEntity
  8
Defpoints
 62
     0
100
AcDbPoint
 10
7.892564536
 20
4.759853948499999
 30
0.0
  0
POINT
  5
25B
330
1CA
100
AcDbEntity
  8
Defpoints
 62
     0
100
AcDbPoint
 10
7.892564536
 20
4.335606221399999
 30
0.0
  0
ENDBLK
  5
1D7
330
1CA
100
AcDbEntity
  8
0
100
AcDbBlockEnd
  0
BLOCK
  5
1E1
330
1E0
100
AcDbEntity
  8
0
100
AcDbBlockBegin
  2
SW_NOTE_3
 70
     0
 10
0.0
 20
0.0
 30
0.0
  3
SW_NOTE_3
  1

  0
MTEXT
  5
1E3
330
1E0
100
AcDbEntity
  8
0
  6
Continuous
 62
     7
370
     0
100
AcDbMText
 10
0.0
 20
0.1760119341
 30
0.0
 40
0.1377952756
 41
0.0
 71
     1
 72
     1
  1
{PART}
  7
SLDTEXTSTYLE0
 73
     1
 44
1.0
  0
MTEXT
  5
1E4
330
1E0
100
AcDbEntity
  8
0
  6
Continuous
 62
     7
370
     0
100
AcDbMText
 10
0.0643523366
 20
-0.0011534126
 30
0.0
 40
0.1377952756
 41
0.0
 71
     1
 72
     1
  1
{No.}
  7
SLDTEXTSTYLE0
 73
     1
 44
1.0
  0
ENDBLK
  5
1E2
330
1E0
100
AcDbEntity
  8
0
100
AcDbBlockEnd
  0
BLOCK
  5
1E7
330
1E6
100
AcDbEntity
  8
0
100
AcDbBlockBegin
  2
SW_NOTE_4
 70
     0
 10
0.0
 20
0.0
 30
0.0
  3
SW_NOTE_4
  1

  0
MTEXT
  5
1E9
330
1E6
100
AcDbEntity
  8
0
  6
Continuous
 62
     7
370
     0
100
AcDbMText
 10
0.0
 20
0.1760119341
 30
0.0
 40
0.1377952756
 41
0.0
 71
     1
 72
     1
  1
{REVISION}
  7
SLDTEXTSTYLE0
 73
     1
 44
1.0
  0
MTEXT
  5
1EA
330
1E6
100
AcDbEntity
  8
0
  6
Continuous
 62
     7
370
     0
100
AcDbMText
 10
0.1722201705
 20
-0.0011534126
 30
0.0
 40
0.1377952756
 41
0.0
 71
     1
 72
     1
  1
{DATE}
  7
SLDTEXTSTYLE0
 73
     1
 44
1.0
  0
ENDBLK
  5
1E8
330
1E6
100
AcDbEntity
  8
0
100
AcDbBlockEnd
  0
BLOCK
  5
1ED
330
1EC
100
AcDbEntity
  8
0
100
AcDbBlockBegin
  2
SW_NOTE_5
 70
     0
 10
0.0
 20
0.0
 30
0.0
  3
SW_NOTE_5
  1

  0
MTEXT
  5
1EF
330
1EC
100
AcDbEntity
  8
0
  6
Continuous
 62
     7
370
     0
100
AcDbMText
 10
0.0
 20
0.1760119341
 30
0.0
 40
0.1377952756
 41
0.0
 71
     1
 72
     1
  1
{PART}
  7
SLDTEXTSTYLE0
 73
     1
 44
1.0
  0
MTEXT
  5
1F0
330
1EC
100
AcDbEntity
  8
0
  6
Continuous
 62
     7
370
     0
100
AcDbMText
 10
-0.0513741915
 20
-0.0011534126
 30
0.0
 40
0.1377952756
 41
0.0
 71
     1
 72
     1
  1
{NAME}
  7
SLDTEXTSTYLE0
 73
     1
 44
1.0
  0
ENDBLK
  5
1EE
330
1EC
100
AcDbEntity
  8
0
100
AcDbBlockEnd
  0
BLOCK
  5
1F4
330
1F3
100
AcDbEntity
  8
0
100
AcDbBlockBegin
  2
SW_NOTE_6
 70
     0
 10
0.0
 20
0.0
 30
0.0
  3
SW_NOTE_6
  1

  0
MTEXT
  5
1F6
330
1F3
100
AcDbEntity
  8
0
  6
Continuous
 62
     7
370
     0
100
AcDbMText
 10
0.0
 20
0.1760119341
 30
0.0
 40
0.1377952756
 41
0.0
 71
     1
 72
     1
  1
{PART}
  7
SLDTEXTSTYLE0
 73
     1
 44
1.0
  0
MTEXT
  5
1F7
330
1F3
100
AcDbEntity
  8
0
  6
Continuous
 62
     7
370
     0
100
AcDbMText
 10
0.0643523366
 20
-0.0011534126
 30
0.0
 40
0.1377952756
 41
0.0
 71
     1
 72
     1
  1
{No.}
  7
SLDTEXTSTYLE0
 73
     1
 44
1.0
  0
ENDBLK
  5
1F5
330
1F3
100
AcDbEntity
  8
0
100
AcDbBlockEnd
  0
BLOCK
  5
1FA
330
1F9
100
AcDbEntity
  8
0
100
AcDbBlockBegin
  2
SW_NOTE_7
 70
     0
 10
0.0
 20
0.0
 30
0.0
  3
SW_NOTE_7
  1

  0
MTEXT
  5
1FC
330
1F9
100
AcDbEntity
  8
0
  6
Continuous
 62
     7
370
     0
100
AcDbMText
 10
0.0
 20
0.1760119341
 30
0.0
 40
0.1377952756
 41
0.0
 71
     1
 72
     1
  1
{REVISION}
  7
SLDTEXTSTYLE0
 73
     1
 44
1.0
  0
MTEXT
  5
1FD
330
1F9
100
AcDbEntity
  8
0
  6
Continuous
 62
     7
370
     0
100
AcDbMText
 10
0.1722201705
 20
-0.0011534126
 30
0.0
 40
0.1377952756
 41
0.0
 71
     1
 72
     1
  1
{DATE}
  7
SLDTEXTSTYLE0
 73
     1
 44
1.0
  0
ENDBLK
  5
1FB
330
1F9
100
AcDbEntity
  8
0
100
AcDbBlockEnd
  0
BLOCK
  5
200
330
1FF
100
AcDbEntity
  8
0
100
AcDbBlockBegin
  2
SW_NOTE_8
 70
     0
 10
0.0
 20
0.0
 30
0.0
  3
SW_NOTE_8
  1

  0
MTEXT
  5
202
330
1FF
100
AcDbEntity
  8
0
  6
Continuous
 62
     7
370
     0
100
AcDbMText
 10
0.0
 20
0.1760119341
 30
0.0
 40
0.1377952756
 41
0.0
 71
     1
 72
     1
  1
{PART}
  7
SLDTEXTSTYLE0
 73
     1
 44
1.0
  0
MTEXT
  5
203
330
1FF
100
AcDbEntity
  8
0
  6
Continuous
 62
     7
370
     0
100
AcDbMText
 10
-0.0513741915
 20
-0.0011534126
 30
0.0
 40
0.1377952756
 41
0.0
 71
     1
 72
     1
  1
{NAME}
  7
SLDTEXTSTYLE0
 73
     1
 44
1.0
  0
ENDBLK
  5
201
330
1FF
100
AcDbEntity
  8
0
100
AcDbBlockEnd
  0
ENDSEC
  0
SECTION
  2
ENTITIES
  0
LINE
  5
72
330
1F
100
AcDbEntity
  8
0
  6
Continuous
 62
     7
370
     0
100
AcDbLine
 10
4.424563706599999
 20
8.192032818499999
 30
0.0
 11
4.424563706599999
 21
7.786032818499999
 31
0.0
  0
LINE
  5
73
330
1F
100
AcDbEntity
  8
0
  6
Continuous
 62
     7
370
     0
100
AcDbLine
 10
4.4865637066
 20
8.192032818499999
 30
0.0
 11
4.4865637066
 21
7.786032818499999
 31
0.0
  0
LINE
  5
74
330
1F
100
AcDbEntity
  8
0
  6
Continuous
 62
     7
370
     0
100
AcDbLine
 10
10.6292515765
 20
8.192032818499999
 30
0.0
 11
0.329927
 21
8.192032818499999
 31
0.0
  0
LINE
  5
75
330
1F
100
AcDbEntity
  8
0
  6
Continuous
 62
     7
370
     0
100
AcDbLine
 10
5.2365637066
 20
8.192032818499999
 30
0.0
 11
5.2365637066
 21
7.786032818499999
 31
0.0
  0
LINE
  5
76
330
1F
100
AcDbEntity
  8
0
  6
Continuous
 62
     7
370
     0
100
AcDbLine
 10
10.6292515765
 20
7.786032818499999
 30
0.0
 11
0.329927
 21
7.786032818499999
 31
0.0
  0
LINE
  5
77
330
1F
100
AcDbEntity
  8
0
  6
Continuous
 62
     7
370
     0
100
AcDbLine
 10
1.048563706599999
 20
8.192032818499999
 30
0.0
 11
1.048563706599999
 21
7.786032818499999
 31
0.0
  0
LINE
  5
78
330
1F
100
AcDbEntity
  8
0
  6
Continuous
 62
     7
370
     0
100
AcDbLine
 10
8.612563706599999
 20
8.192032818499999
 30
0.0
 11
8.612563706599999
 21
7.786032818499999
 31
0.0
  0
LINE
  5
79
330
1F
100
AcDbEntity
  8
0
  6
Continuous
 62
     7
370
     0
100
AcDbLine
 10
8.674563706599998
 20
8.192032818499999
 30
0.0
 11
8.674563706599998
 21
7.786032818499999
 31
0.0
  0
LINE
  5
7A
330
1F
100
AcDbEntity
  8
0
  6
Continuous
 62
     7
370
     0
100
AcDbLine
 10
9.424563706599998
 20
8.192032818499999
 30
0.0
 11
9.424563706599998
 21
7.786032818499999
 31
0.0
  0
LINE
  5
7B
330
1F
100
AcDbEntity
  8
0
  6
Continuous
 62
     7
370
     0
100
AcDbLine
 10
4.424563706599999
 20
8.192032818499999
 30
0.0
 11
4.424563706599999
 21
7.786032818499999
 31
0.0
  0
LINE
  5
7C
330
1F
100
AcDbEntity
  8
0
  6
Continuous
 62
     7
370
     0
100
AcDbLine
 10
4.4865637066
 20
8.192032818499999
 30
0.0
 11
4.4865637066
 21
7.786032818499999
 31
0.0
  0
LINE
  5
7D
330
1F
100
AcDbEntity
  8
0
  6
Continuous
 62
     7
370
     0
100
AcDbLine
 10
9.424563706599998
 20
8.192032818499999
 30
0.0
 11
1.048563706599999
 21
8.192032818499999
 31
0.0
  0
LINE
  5
7E
330
1F
100
AcDbEntity
  8
0
  6
Continuous
 62
     7
370
     0
100
AcDbLine
 10
5.2365637066
 20
8.192032818499999
 30
0.0
 11
5.2365637066
 21
7.786032818499999
 31
0.0
  0
LINE
  5
7F
330
1F
100
AcDbEntity
  8
0
  6
Continuous
 62
     7
370
     0
100
AcDbLine
 10
9.424563706599998
 20
7.786032818499999
 30
0.0
 11
1.048563706599999
 21
7.786032818499999
 31
0.0
  0
LINE
  5
80
330
1F
100
AcDbEntity
  8
0
  6
Continuous
 62
     7
370
     0
100
AcDbLine
 10
1.048563706599999
 20
8.192032818499999
 30
0.0
 11
1.048563706599999
 21
7.786032818499999
 31
0.0
  0
LINE
  5
81
330
1F
100
AcDbEntity
  8
0
  6
Continuous
 62
     7
370
     0
100
AcDbLine
 10
8.612563706599999
 20
8.192032818499999
 30
0.0
 11
8.612563706599999
 21
7.786032818499999
 31
0.0
  0
LINE
  5
82
330
1F
100
AcDbEntity
  8
0
  6
Continuous
 62
     7
370
     0
100
AcDbLine
 10
8.674563706599998
 20
8.192032818499999
 30
0.0
 11
8.674563706599998
 21
7.786032818499999
 31
0.0
  0
LINE
  5
83
330
1F
100
AcDbEntity
  8
0
  6
Continuous
 62
     7
370
     0
100
AcDbLine
 10
9.424563706599998
 20
8.192032818499999
 30
0.0
 11
9.424563706599998
 21
7.786032818499999
 31
0.0
  0
LINE
  5
84
330
1F
100
AcDbEntity
  8
0
  6
Continuous
 62
     7
370
     0
100
AcDbLine
 10
10.6292515765
 20
7.888553036599999
 30
0.0
 11
10.6292515765
 21
7.8632757972
 31
0.0
  0
LINE
  5
85
330
1F
100
AcDbEntity
  8
0
  6
Continuous
 62
     7
370
     0
100
AcDbLine
 10
10.6292515765
 20
7.786032818499999
 30
0.0
 11
10.6292515765
 21
8.192032818499999
 31
0.0
  0
LINE
  5
86
330
1F
100
AcDbEntity
  8
0
  6
Continuous
 62
     7
370
     0
100
AcDbLine
 10
0.269927
 20
8.2520328185
 30
0.0
 11
10.6892515765
 21
8.2520328185
 31
0.0
  0
LINE
  5
87
330
1F
100
AcDbEntity
  8
0
  6
Continuous
 62
     7
370
     0
100
AcDbLine
 10
0.329927
 20
8.1920731707
 30
0.0
 11
0.329927
 21
7.786032818499999
 31
0.0
  0
LINE
  5
88
330
1F
100
AcDbEntity
  8
0
  6
Continuous
 62
     7
370
     0
100
AcDbLine
 10
0.269927
 20
8.2520328185
 30
0.0
 11
0.269927
 21
0.3320731707
 31
0.0
  0
LINE
  5
89
330
1F
100
AcDbEntity
  8
SLD-0
 62
     7
100
AcDbLine
 10
2.7196010076
 20
6.7064566169
 30
0.0
 11
2.7196010076
 21
5.478110160199999
 31
0.0
  0
LINE
  5
8A
330
1F
100
AcDbEntity
  8
0
  6
Continuous
 62
     7
370
     0
100
AcDbLine
 10
0.269927
 20
0.3320731707
 30
0.0
 11
10.6892515765
 21
0.3320731707
 31
0.0
  0
LINE
  5
8B
330
1F
100
AcDbEntity
  8
0
  6
Continuous
 62
     7
370
     0
100
AcDbLine
 10
10.6892515765
 20
8.2520328185
 30
0.0
 11
10.6892515765
 21
0.3320731707
 31
0.0
  0
LINE
  5
8C
330
1F
100
AcDbEntity
  8
SLD-0
 62
     7
100
AcDbLine
 10
2.7983411651
 20
5.478110160199999
 30
0.0
 11
4.9085773855
 21
5.478110160199999
 31
0.0
  0
LINE
  5
8D
330
1F
100
AcDbEntity
  8
SLD-0
 62
     7
100
AcDbLine
 10
4.987317543
 20
5.478110160199999
 30
0.0
 11
4.987317543
 21
6.7064566169
 31
0.0
  0
LINE
  5
8E
330
1F
100
AcDbEntity
  8
SLD-0
 62
     7
100
AcDbLine
 10
4.987317543
 20
6.7064566169
 30
0.0
 11
2.7196010076
 21
6.7064566169
 31
0.0
  0
LINE
  5
8F
330
1F
100
AcDbEntity
  8
SLD-0
 62
     7
100
AcDbLine
 10
2.7196010076
 20
2.705613884399999
 30
0.0
 11
2.7196010076
 21
2.1150627033
 31
0.0
  0
LINE
  5
90
330
1F
100
AcDbEntity
  8
SLD-0
 62
     7
100
AcDbLine
 10
2.7196010076
 20
2.1150627033
 30
0.0
 11
4.987317543
 21
2.1150627033
 31
0.0
  0
LINE
  5
91
330
1F
100
AcDbEntity
  8
SLD-0
 62
     7
100
AcDbLine
 10
4.987317543
 20
2.1150627033
 30
0.0
 11
4.987317543
 21
2.705613884399999
 31
0.0
  0
LINE
  5
92
330
1F
100
AcDbEntity
  8
SLD-0
 62
     7
100
AcDbLine
 10
4.987317543
 20
2.705613884399999
 30
0.0
 11
4.9085773855
 21
2.705613884399999
 31
0.0
  0
LINE
  5
93
330
1F
100
AcDbEntity
  8
SLD-0
 62
     7
100
AcDbLine
 10
6.6017967861
 20
2.1150627033
 30
0.0
 11
9.0584896995
 21
2.1150627033
 31
0.0
  0
LINE
  5
94
330
1F
100
AcDbEntity
  8
SLD-0
 62
     7
100
AcDbLine
 10
7.593922770399999
 20
2.705613884399999
 30
0.0
 11
6.838017258599999
 21
2.705613884399999
 31
0.0
  0
LINE
  5
95
330
1F
100
AcDbEntity
  8
SLD-0
 62
     7
100
AcDbLine
 10
6.6017967861
 20
2.469393412
 30
0.0
 11
6.6017967861
 21
2.1150627033
 31
0.0
  0
LINE
  5
96
330
1F
100
AcDbEntity
  8
SLD-0
 62
     7
100
AcDbLine
 10
2.7983411651
 20
2.410338293899999
 30
0.0
 11
2.95582148
 21
2.410338293899999
 31
0.0
  0
LINE
  5
97
330
1F
100
AcDbEntity
  8
SLD-0
 62
     7
100
AcDbLine
 10
2.7983411651
 20
2.705613884399999
 30
0.0
 11
2.7983411651
 21
2.410338293899999
 31
0.0
  0
LINE
  5
98
330
1F
100
AcDbEntity
  8
SLD-0
 62
     7
100
AcDbLine
 10
4.9085773855
 20
2.705613884399999
 30
0.0
 11
4.9085773855
 21
2.410338293899999
 31
0.0
  0
LINE
  5
99
330
1F
100
AcDbEntity
  8
SLD-0
 62
     7
100
AcDbLine
 10
2.7983411651
 20
2.705613884399999
 30
0.0
 11
2.7196010076
 21
2.705613884399999
 31
0.0
  0
LINE
  5
9A
330
1F
100
AcDbEntity
  8
SLD-0
 62
     7
100
AcDbLine
 10
4.602438103999999
 20
2.705613884399999
 30
0.0
 11
4.3092048561
 21
2.705613884399999
 31
0.0
  0
LINE
  5
9B
330
1F
100
AcDbEntity
  8
SLD-0
 62
     7
100
AcDbLine
 10
3.397713694499999
 20
2.705613884399999
 30
0.0
 11
3.1044804466
 21
2.705613884399999
 31
0.0
  0
LINE
  5
9C
330
1F
100
AcDbEntity
  8
SLD-0
 62
     7
100
AcDbLine
 10
3.546372661099999
 20
2.410338293899999
 30
0.0
 11
4.160545889499999
 21
2.410338293899999
 31
0.0
  0
LINE
  5
9D
330
1F
100
AcDbEntity
  8
SLD-0
 62
     7
100
AcDbLine
 10
4.7510970706
 20
2.410338293899999
 30
0.0
 11
4.9085773855
 21
2.410338293899999
 31
0.0
  0
LINE
  5
9E
330
1F
100
AcDbEntity
  8
SLD-0
 62
     7
100
AcDbLine
 10
2.95582148
 20
2.410338293899999
 30
0.0
 11
2.9879192424
 21
2.6065696799
 31
0.0
  0
LINE
  5
9F
330
1F
100
AcDbEntity
  8
SLD-0
 62
     7
100
AcDbLine
 10
3.546372661099999
 20
2.410338293899999
 30
0.0
 11
3.5142748987
 21
2.6065696799
 31
0.0
  0
LINE
  5
A0
330
1F
100
AcDbEntity
  8
SLD-0
 62
     7
100
AcDbLine
 10
4.7510970706
 20
2.410338293899999
 30
0.0
 11
4.718999308199999
 21
2.6065696799
 31
0.0
  0
LINE
  5
A1
330
1F
100
AcDbEntity
  8
SLD-0
 62
     7
100
AcDbLine
 10
4.160545889499999
 20
2.410338293899999
 30
0.0
 11
4.1926436518
 21
2.6065696799
 31
0.0
  0
LINE
  5
A2
330
1F
100
AcDbEntity
  8
SLD-0
 62
     7
100
AcDbLine
 10
2.7983411651
 20
5.478110160199999
 30
0.0
 11
2.7983411651
 21
6.7064566169
 31
0.0
  0
LINE
  5
A3
330
1F
100
AcDbEntity
  8
SLD-0
 62
     7
100
AcDbLine
 10
4.9085773855
 20
5.478110160199999
 30
0.0
 11
4.9085773855
 21
6.7064566169
 31
0.0
  0
LINE
  5
A4
330
1F
100
AcDbEntity
  8
SLD-0
 62
     7
100
AcDbLine
 10
4.9085773855
 20
6.6277164594
 30
0.0
 11
4.7510970706
 21
6.6277164594
 31
0.0
  0
LINE
  5
A5
330
1F
100
AcDbEntity
  8
SLD-0
 62
     7
100
AcDbLine
 10
4.6329868343
 20
6.4702361445
 30
0.0
 11
4.278656125699999
 21
6.4702361445
 31
0.0
  0
LINE
  5
A6
330
1F
100
AcDbEntity
  8
SLD-0
 62
     7
100
AcDbLine
 10
2.95582148
 20
6.6277164594
 30
0.0
 11
2.7983411651
 21
6.6277164594
 31
0.0
  0
LINE
  5
A7
330
1F
100
AcDbEntity
  8
SLD-0
 62
     7
100
AcDbLine
 10
4.160545889499999
 20
6.6277164594
 30
0.0
 11
3.546372661099999
 21
6.6277164594
 31
0.0
  0
LINE
  5
A8
330
1F
100
AcDbEntity
  8
SLD-0
 62
     7
100
AcDbLine
 10
3.4282624249
 20
6.4702361445
 30
0.0
 11
3.0739317162
 21
6.4702361445
 31
0.0
  0
LINE
  5
A9
330
1F
100
AcDbEntity
  8
SLD-0
 62
     7
100
AcDbLine
 10
2.95582148
 20
6.5883463807
 30
0.0
 11
2.95582148
 21
6.6277164594
 31
0.0
  0
LINE
  5
AA
330
1F
100
AcDbEntity
  8
SLD-0
 62
     7
100
AcDbLine
 10
3.546372661099999
 20
6.5883463807
 30
0.0
 11
3.546372661099999
 21
6.6277164594
 31
0.0
  0
LINE
  5
AB
330
1F
100
AcDbEntity
  8
SLD-0
 62
     7
100
AcDbLine
 10
4.160545889499999
 20
6.5883463807
 30
0.0
 11
4.160545889499999
 21
6.6277164594
 31
0.0
  0
LINE
  5
AC
330
1F
100
AcDbEntity
  8
SLD-0
 62
     7
100
AcDbLine
 10
4.7510970706
 20
6.5883463807
 30
0.0
 11
4.7510970706
 21
6.6277164594
 31
0.0
  0
LINE
  5
AD
330
1F
100
AcDbEntity
  8
SLD-0
 62
     7
100
AcDbLine
 10
2.7983411651
 20
6.111968427899999
 30
0.0
 11
4.352007721999999
 21
6.111968427899999
 31
0.0
  0
LINE
  5
AE
330
1F
100
AcDbEntity
  8
SLD-0
 62
     7
100
AcDbLine
 10
2.7983411651
 20
6.072598349199999
 30
0.0
 11
4.352007721999999
 21
6.072598349199999
 31
0.0
  0
LINE
  5
AF
330
1F
100
AcDbEntity
  8
SLD-0
 62
     7
100
AcDbLine
 10
3.3549108286
 20
6.111968427899999
 30
0.0
 11
3.3549108286
 21
6.072598349199999
 31
0.0
  0
LINE
  5
B0
330
1F
100
AcDbEntity
  8
SLD-0
 62
     7
100
AcDbLine
 10
4.352007721999999
 20
6.111968427899999
 30
0.0
 11
4.352007721999999
 21
6.072598349199999
 31
0.0
  0
LINE
  5
B1
330
1F
100
AcDbEntity
  8
SLD-0
 62
     7
100
AcDbLine
 10
4.352007721999999
 20
6.111968427899999
 30
0.0
 11
4.9085773855
 21
6.111968427899999
 31
0.0
  0
LINE
  5
B2
330
1F
100
AcDbEntity
  8
SLD-0
 62
     7
100
AcDbLine
 10
4.352007721999999
 20
6.072598349199999
 30
0.0
 11
4.9085773855
 21
6.072598349199999
 31
0.0
  0
LINE
  5
B3
330
1F
100
AcDbEntity
  8
SLD-0
 62
     7
100
AcDbLine
 10
7.6039641173
 20
4.9680199152
 30
0.0
 11
7.892564536
 21
4.9680199152
 31
0.0
  0
LINE
  5
B4
330
1F
100
AcDbEntity
  8
SLD-0
 62
     7
100
AcDbLine
 10
7.6039641173
 20
4.759853948499999
 30
0.0
 11
7.892564536
 21
4.759853948499999
 31
0.0
  0
LINE
  5
B5
330
1F
100
AcDbEntity
  8
SLD-0
 62
     7
100
AcDbLine
 10
4.9067294921
 20
5.763543231099999
 30
0.0
 11
4.9067294921
 21
5.8659054358
 31
0.0
  0
LINE
  5
B6
330
1F
100
AcDbEntity
  8
SLD-0
 62
     7
100
AcDbLine
 10
4.8594853976
 20
5.763543231099999
 30
0.0
 11
4.8594853976
 21
5.8659054358
 31
0.0
  0
LINE
  5
B7
330
1F
100
AcDbEntity
  8
SLD-0
 62
     7
100
AcDbLine
 10
4.9067294921
 20
5.8659054358
 30
0.0
 11
4.8594853976
 21
5.8659054358
 31
0.0
  0
LINE
  5
B8
330
1F
100
AcDbEntity
  8
SLD-0
 62
     7
100
AcDbLine
 10
4.9067294921
 20
5.763543231099999
 30
0.0
 11
4.8594853976
 21
5.763543231099999
 31
0.0
  0
LINE
  5
B9
330
1F
100
AcDbEntity
  8
SLD-0
 62
     7
100
AcDbLine
 10
2.7983411651
 20
6.4190550421
 30
0.0
 11
2.7983411651
 21
6.316692837399999
 31
0.0
  0
LINE
  5
BA
330
1F
100
AcDbEntity
  8
SLD-0
 62
     7
100
AcDbLine
 10
2.845585259499999
 20
6.4190550421
 30
0.0
 11
2.845585259499999
 21
6.316692837399999
 31
0.0
  0
LINE
  5
BB
330
1F
100
AcDbEntity
  8
SLD-0
 62
     7
100
AcDbLine
 10
2.7983411651
 20
6.4190550421
 30
0.0
 11
2.845585259499999
 21
6.4190550421
 31
0.0
  0
LINE
  5
BC
330
1F
100
AcDbEntity
  8
SLD-0
 62
     7
100
AcDbLine
 10
2.7983411651
 20
6.316692837399999
 30
0.0
 11
2.845585259499999
 21
6.316692837399999
 31
0.0
  0
LINE
  5
BD
330
1F
100
AcDbEntity
  8
SLD-0
 62
     7
100
AcDbLine
 10
3.0588240185
 20
6.367873939699999
 30
0.0
 11
3.180871262599999
 21
6.367873939699999
 31
0.0
  0
LINE
  5
BE
330
1F
100
AcDbEntity
  8
SLD-0
 62
     7
100
AcDbLine
 10
3.1198476406
 20
6.428897561799999
 30
0.0
 11
3.1198476406
 21
6.306850317699999
 31
0.0
  0
LINE
  5
BF
330
1F
100
AcDbEntity
  8
SLD-0
 62
     7
100
AcDbLine
 10
4.5228712244
 20
5.8147243334
 30
0.0
 11
4.6449184685
 21
5.8147243334
 31
0.0
  0
LINE
  5
C0
330
1F
100
AcDbEntity
  8
SLD-0
 62
     7
100
AcDbLine
 10
4.583894846399999
 20
5.875747955499999
 30
0.0
 11
4.583894846399999
 21
5.753700711399999
 31
0.0
  0
LINE
  5
C1
330
1F
100
AcDbEntity
  8
SLD-0
 62
     7
100
AcDbLine
 10
3.0588240185
 20
5.816692837399999
 30
0.0
 11
3.180871262599999
 21
5.816692837399999
 31
0.0
  0
LINE
  5
C2
330
1F
100
AcDbEntity
  8
SLD-0
 62
     7
100
AcDbLine
 10
4.5228712244
 20
6.369842443699999
 30
0.0
 11
4.6449184685
 21
6.369842443699999
 31
0.0
  0
LINE
  5
C3
330
1F
100
AcDbEntity
  8
SLD-0
 62
     7
100
AcDbLine
 10
2.815916101
 20
5.1907085854
 30
0.0
 11
2.815916101
 21
5.7154136299
 31
0.0
  0
LINE
  5
C4
330
1F
100
AcDbEntity
  8
SLD-0
 62
     7
100
AcDbLine
 10
2.824577518399999
 20
5.1907085854
 30
0.0
 11
2.824577518399999
 21
5.7154136299
 31
0.0
  0
LINE
  5
C5
330
1F
100
AcDbEntity
  8
SLD-0
 62
     7
100
AcDbLine
 10
2.7196010076
 20
5.478110160199999
 30
0.0
 11
2.7196010076
 21
4.2497637035
 31
0.0
  0
LINE
  5
C6
330
1F
100
AcDbEntity
  8
SLD-0
 62
     7
100
AcDbLine
 10
2.7196010076
 20
4.2497637035
 30
0.0
 11
4.987317543
 21
4.2497637035
 31
0.0
  0
LINE
  5
C7
330
1F
100
AcDbEntity
  8
SLD-0
 62
     7
100
AcDbLine
 10
3.0739317162
 20
4.485984176
 30
0.0
 11
3.4282624249
 21
4.485984176
 31
0.0
  0
LINE
  5
C8
330
1F
100
AcDbEntity
  8
SLD-0
 62
     7
100
AcDbLine
 10
4.278656125699999
 20
4.485984176
 30
0.0
 11
4.6329868343
 21
4.485984176
 31
0.0
  0
LINE
  5
C9
330
1F
100
AcDbEntity
  8
SLD-0
 62
     7
100
AcDbLine
 10
2.7983411651
 20
4.328503861
 30
0.0
 11
2.95582148
 21
4.328503861
 31
0.0
  0
LINE
  5
CA
330
1F
100
AcDbEntity
  8
SLD-0
 62
     7
100
AcDbLine
 10
3.546372661099999
 20
4.328503861
 30
0.0
 11
4.160545889499999
 21
4.328503861
 31
0.0
  0
LINE
  5
CB
330
1F
100
AcDbEntity
  8
SLD-0
 62
     7
100
AcDbLine
 10
4.7510970706
 20
4.328503861
 30
0.0
 11
4.9085773855
 21
4.328503861
 31
0.0
  0
LINE
  5
CC
330
1F
100
AcDbEntity
  8
SLD-0
 62
     7
100
AcDbLine
 10
4.987317543
 20
4.2497637035
 30
0.0
 11
4.987317543
 21
5.478110160199999
 31
0.0
  0
LINE
  5
CD
330
1F
100
AcDbEntity
  8
SLD-0
 62
     7
100
AcDbLine
 10
4.9085773855
 20
5.478110160199999
 30
0.0
 11
2.7983411651
 21
5.478110160199999
 31
0.0
  0
LINE
  5
CE
330
1F
100
AcDbEntity
  8
SLD-0
 62
     7
100
AcDbLine
 10
2.7983411651
 20
4.2497637035
 30
0.0
 11
2.7983411651
 21
5.478110160199999
 31
0.0
  0
LINE
  5
CF
330
1F
100
AcDbEntity
  8
SLD-0
 62
     7
100
AcDbLine
 10
2.95582148
 20
4.328503861
 30
0.0
 11
2.95582148
 21
4.367873939699999
 31
0.0
  0
LINE
  5
D0
330
1F
100
AcDbEntity
  8
SLD-0
 62
     7
100
AcDbLine
 10
3.546372661099999
 20
4.328503861
 30
0.0
 11
3.546372661099999
 21
4.367873939699999
 31
0.0
  0
LINE
  5
D1
330
1F
100
AcDbEntity
  8
SLD-0
 62
     7
100
AcDbLine
 10
4.160545889499999
 20
4.328503861
 30
0.0
 11
4.160545889499999
 21
4.367873939699999
 31
0.0
  0
LINE
  5
D2
330
1F
100
AcDbEntity
  8
SLD-0
 62
     7
100
AcDbLine
 10
4.7510970706
 20
4.328503861
 30
0.0
 11
4.7510970706
 21
4.367873939699999
 31
0.0
  0
LINE
  5
D3
330
1F
100
AcDbEntity
  8
SLD-0
 62
     7
100
AcDbLine
 10
4.9085773855
 20
4.2497637035
 30
0.0
 11
4.9085773855
 21
5.478110160199999
 31
0.0
  0
LINE
  5
D4
330
1F
100
AcDbEntity
  8
SLD-0
 62
     7
100
AcDbLine
 10
2.7983411651
 20
4.844251892499999
 30
0.0
 11
4.352007721999999
 21
4.844251892499999
 31
0.0
  0
LINE
  5
D5
330
1F
100
AcDbEntity
  8
SLD-0
 62
     7
100
AcDbLine
 10
4.352007721999999
 20
4.844251892499999
 30
0.0
 11
4.9085773855
 21
4.844251892499999
 31
0.0
  0
LINE
  5
D6
330
1F
100
AcDbEntity
  8
SLD-0
 62
     7
100
AcDbLine
 10
2.7983411651
 20
4.8836219712
 30
0.0
 11
4.352007721999999
 21
4.8836219712
 31
0.0
  0
LINE
  5
D7
330
1F
100
AcDbEntity
  8
SLD-0
 62
     7
100
AcDbLine
 10
4.352007721999999
 20
4.8836219712
 30
0.0
 11
4.9085773855
 21
4.8836219712
 31
0.0
  0
LINE
  5
D8
330
1F
100
AcDbEntity
  8
SLD-0
 62
     7
100
AcDbLine
 10
3.3549108286
 20
4.8836219712
 30
0.0
 11
3.3549108286
 21
4.844251892499999
 31
0.0
  0
LINE
  5
D9
330
1F
100
AcDbEntity
  8
SLD-0
 62
     7
100
AcDbLine
 10
4.352007721999999
 20
4.8836219712
 30
0.0
 11
4.352007721999999
 21
4.844251892499999
 31
0.0
  0
LINE
  5
DA
330
1F
100
AcDbEntity
  8
SLD-0
 62
     7
100
AcDbLine
 10
4.9067294921
 20
4.5351967744
 30
0.0
 11
4.9067294921
 21
4.6375589791
 31
0.0
  0
LINE
  5
DB
330
1F
100
AcDbEntity
  8
SLD-0
 62
     7
100
AcDbLine
 10
4.8594853976
 20
4.5351967744
 30
0.0
 11
4.8594853976
 21
4.6375589791
 31
0.0
  0
LINE
  5
DC
330
1F
100
AcDbEntity
  8
SLD-0
 62
     7
100
AcDbLine
 10
4.9067294921
 20
4.5351967744
 30
0.0
 11
4.8594853976
 21
4.5351967744
 31
0.0
  0
LINE
  5
DD
330
1F
100
AcDbEntity
  8
SLD-0
 62
     7
100
AcDbLine
 10
4.9067294921
 20
4.6375589791
 30
0.0
 11
4.8594853976
 21
4.6375589791
 31
0.0
  0
LINE
  5
DE
330
1F
100
AcDbEntity
  8
SLD-0
 62
     7
100
AcDbLine
 10
2.7983411651
 20
5.1907085854
 30
0.0
 11
2.7983411651
 21
5.0883463807
 31
0.0
  0
LINE
  5
DF
330
1F
100
AcDbEntity
  8
SLD-0
 62
     7
100
AcDbLine
 10
2.845585259499999
 20
5.1907085854
 30
0.0
 11
2.845585259499999
 21
5.0883463807
 31
0.0
  0
LINE
  5
E0
330
1F
100
AcDbEntity
  8
SLD-0
 62
     7
100
AcDbLine
 10
2.7983411651
 20
5.1907085854
 30
0.0
 11
2.845585259499999
 21
5.1907085854
 31
0.0
  0
LINE
  5
E1
330
1F
100
AcDbEntity
  8
SLD-0
 62
     7
100
AcDbLine
 10
2.7983411651
 20
5.0883463807
 30
0.0
 11
2.845585259499999
 21
5.0883463807
 31
0.0
  0
LINE
  5
E2
330
1F
100
AcDbEntity
  8
SLD-0
 62
     7
100
AcDbLine
 10
3.0588240185
 20
5.1395274831
 30
0.0
 11
3.180871262599999
 21
5.1395274831
 31
0.0
  0
LINE
  5
E3
330
1F
100
AcDbEntity
  8
SLD-0
 62
     7
100
AcDbLine
 10
3.1198476406
 20
5.200551105099999
 30
0.0
 11
3.1198476406
 21
5.078503861
 31
0.0
  0
LINE
  5
E4
330
1F
100
AcDbEntity
  8
SLD-0
 62
     7
100
AcDbLine
 10
4.5228712244
 20
4.5863778768
 30
0.0
 11
4.6449184685
 21
4.5863778768
 31
0.0
  0
LINE
  5
E5
330
1F
100
AcDbEntity
  8
SLD-0
 62
     7
100
AcDbLine
 10
4.583894846399999
 20
4.647401498799999
 30
0.0
 11
4.583894846399999
 21
4.525354254699999
 31
0.0
  0
LINE
  5
E6
330
1F
100
AcDbEntity
  8
SLD-0
 62
     7
100
AcDbLine
 10
4.987317543
 20
5.0034529861
 30
0.0
 11
6.6017967861
 21
5.0034529861
 31
0.0
  0
LINE
  5
E7
330
1F
100
AcDbEntity
  8
SLD-0
 62
     7
100
AcDbLine
 10
4.987317543
 20
4.9325868443
 30
0.0
 11
6.6017967861
 21
4.9325868443
 31
0.0
  0
LINE
  5
E8
330
1F
100
AcDbEntity
  8
SLD-0
 62
     7
100
AcDbLine
 10
6.8256545585
 20
4.9325868443
 30
0.0
 11
7.6039641173
 21
4.9325868443
 31
0.0
  0
LINE
  5
E9
330
1F
100
AcDbEntity
  8
SLD-0
 62
     7
100
AcDbLine
 10
7.6039641173
 20
4.9325868443
 30
0.0
 11
7.6039641173
 21
5.0034529861
 31
0.0
  0
LINE
  5
EA
330
1F
100
AcDbEntity
  8
SLD-0
 62
     7
100
AcDbLine
 10
7.6039641173
 20
5.0034529861
 30
0.0
 11
6.8256545585
 21
5.0034529861
 31
0.0
  0
LINE
  5
EB
330
1F
100
AcDbEntity
  8
SLD-0
 62
     7
100
AcDbLine
 10
4.987317543
 20
4.7244208777
 30
0.0
 11
6.6017967861
 21
4.7244208777
 31
0.0
  0
LINE
  5
EC
330
1F
100
AcDbEntity
  8
SLD-0
 62
     7
100
AcDbLine
 10
4.987317543
 20
4.795287019399999
 30
0.0
 11
6.6017967861
 21
4.795287019399999
 31
0.0
  0
LINE
  5
ED
330
1F
100
AcDbEntity
  8
SLD-0
 62
     7
100
AcDbLine
 10
6.8256545585
 20
4.795287019399999
 30
0.0
 11
7.6039641173
 21
4.795287019399999
 31
0.0
  0
LINE
  5
EE
330
1F
100
AcDbEntity
  8
SLD-0
 62
     7
100
AcDbLine
 10
7.6039641173
 20
4.795287019399999
 30
0.0
 11
7.6039641173
 21
4.7244208777
 31
0.0
  0
LINE
  5
EF
330
1F
100
AcDbEntity
  8
SLD-0
 62
     7
100
AcDbLine
 10
7.6039641173
 20
4.7244208777
 30
0.0
 11
6.8256545585
 21
4.7244208777
 31
0.0
  0
LINE
  5
F0
330
1F
100
AcDbEntity
  8
SLD-0
 62
     7
100
AcDbLine
 10
3.0588240185
 20
4.5883463807
 30
0.0
 11
3.180871262599999
 21
4.5883463807
 31
0.0
  0
LINE
  5
F1
330
1F
100
AcDbEntity
  8
SLD-0
 62
     7
100
AcDbLine
 10
4.5228712244
 20
5.141495986999999
 30
0.0
 11
4.6449184685
 21
5.141495986999999
 31
0.0
  0
LINE
  5
F2
330
1F
100
AcDbEntity
  8
SLD-0
 62
     7
100
AcDbLine
 10
4.880230928799999
 20
4.637760961199999
 30
0.0
 11
4.880230928799999
 21
5.025747955499999
 31
0.0
  0
LINE
  5
F3
330
1F
100
AcDbEntity
  8
SLD-0
 62
     7
100
AcDbLine
 10
4.8888923462
 20
4.637760961199999
 30
0.0
 11
4.8888923462
 21
5.025747955499999
 31
0.0
  0
LINE
  5
F4
330
1F
100
AcDbEntity
  8
SLD-0
 62
     7
100
AcDbLine
 10
7.593922770399999
 20
2.705613884399999
 30
0.0
 11
8.822269227099999
 21
2.705613884399999
 31
0.0
  0
LINE
  5
F5
330
1F
100
AcDbEntity
  8
SLD-0
 62
     7
100
AcDbLine
 10
9.0584896995
 20
2.469393412
 30
0.0
 11
9.0584896995
 21
2.1150627033
 31
0.0
  0
LINE
  5
F6
330
1F
100
AcDbEntity
  8
SLD-0
 62
     7
100
AcDbLine
 10
8.4189242848
 20
2.515321791499999
 30
0.0
 11
8.5370345211
 21
2.515321791499999
 31
0.0
  0
LINE
  5
F7
330
1F
100
AcDbEntity
  8
SLD-0
 62
     7
100
AcDbLine
 10
8.5370345211
 20
2.515321791499999
 30
0.0
 11
8.5370345211
 21
2.239731240299999
 31
0.0
  0
LINE
  5
F8
330
1F
100
AcDbEntity
  8
SLD-0
 62
     7
100
AcDbLine
 10
8.5370345211
 20
2.239731240299999
 30
0.0
 11
8.4189242848
 21
2.239731240299999
 31
0.0
  0
LINE
  5
F9
330
1F
100
AcDbEntity
  8
SLD-0
 62
     7
100
AcDbLine
 10
8.4189242848
 20
2.239731240299999
 30
0.0
 11
8.4189242848
 21
2.515321791499999
 31
0.0
  0
LINE
  5
FA
330
1F
100
AcDbEntity
  8
SLD-0
 62
     7
100
AcDbLine
 10
8.477979402899999
 20
2.515321791499999
 30
0.0
 11
8.477979402899999
 21
2.239731240299999
 31
0.0
  0
LINE
  5
FB
330
1F
100
AcDbEntity
  8
SLD-0
 62
     7
100
AcDbLine
 10
4.8888923462
 20
6.2540944122
 30
0.0
 11
4.8888923462
 21
5.8659054358
 31
0.0
  0
LINE
  5
FC
330
1F
100
AcDbEntity
  8
SLD-0
 62
     7
100
AcDbLine
 10
4.880230928799999
 20
6.2540944122
 30
0.0
 11
4.880230928799999
 21
5.8659054358
 31
0.0
  0
LINE
  5
FD
330
1F
100
AcDbEntity
  8
SLD-0
 62
     7
100
AcDbLine
 10
3.1224764873
 20
5.763059586799999
 30
0.0
 11
3.114352064999999
 21
5.7154136299
 31
0.0
  0
LINE
  5
FE
330
1F
100
AcDbEntity
  8
SLD-0
 62
     7
100
AcDbLine
 10
3.102791448
 20
4.5347131302
 30
0.0
 11
3.0946670256
 21
4.487067173199999
 31
0.0
  0
LINE
  5
FF
330
1F
100
AcDbEntity
  8
SLD-0
 62
     7
100
AcDbLine
 10
4.590717555899999
 20
5.239040168699999
 30
0.0
 11
4.5825931336
 21
5.1913942117
 31
0.0
  0
LINE
  5
100
330
1F
100
AcDbEntity
  8
SLD-0
 62
     7
100
AcDbLine
 10
4.590717555899999
 20
6.467386625399999
 30
0.0
 11
4.5825931336
 21
6.4197406684
 31
0.0
  0
LINE
  5
101
330
1F
100
AcDbEntity
  8
SLD-0
 62
     7
100
AcDbLine
 10
2.9007033698
 20
6.1749605539
 30
0.0
 11
2.9007033698
 21
6.560787325599999
 31
0.0
  0
LINE
  5
102
330
1F
100
AcDbEntity
  8
SLD-0
 62
     7
100
AcDbLine
 10
2.7983411651
 20
6.560787325599999
 30
0.0
 11
2.9007033698
 21
6.560787325599999
 31
0.0
  0
LINE
  5
103
330
1F
100
AcDbEntity
  8
SLD-0
 62
     7
100
AcDbLine
 10
2.7983411651
 20
6.1749605539
 30
0.0
 11
2.9007033698
 21
6.1749605539
 31
0.0
  0
LINE
  5
104
330
1F
100
AcDbEntity
  8
SLD-0
 62
     7
100
AcDbLine
 10
2.9007033698
 20
4.781259766499999
 30
0.0
 11
2.9007033698
 21
4.3954329949
 31
0.0
  0
LINE
  5
105
330
1F
100
AcDbEntity
  8
SLD-0
 62
     7
100
AcDbLine
 10
2.7983411651
 20
4.781259766499999
 30
0.0
 11
2.9007033698
 21
4.781259766499999
 31
0.0
  0
LINE
  5
106
330
1F
100
AcDbEntity
  8
SLD-0
 62
     7
100
AcDbLine
 10
2.7983411651
 20
4.3954329949
 30
0.0
 11
2.9007033698
 21
4.3954329949
 31
0.0
  0
LINE
  5
107
330
1F
100
AcDbEntity
  8
0
  6
Continuous
 62
     7
370
     0
100
AcDbLine
 10
0.329927
 20
8.1920731707
 30
0.0
 11
10.629927
 21
8.1920731707
 31
0.0
  0
LINE
  5
108
330
1F
100
AcDbEntity
  8
0
  6
Continuous
 62
     7
370
     0
100
AcDbLine
 10
0.329927
 20
8.1920731707
 30
0.0
 11
0.329927
 21
0.3920731707
 31
0.0
  0
LINE
  5
109
330
1F
100
AcDbEntity
  8
0
  6
Continuous
 62
     7
370
     0
100
AcDbLine
 10
10.629927
 20
0.3920731707
 30
0.0
 11
0.329927
 21
0.3920731707
 31
0.0
  0
LINE
  5
10A
330
1F
100
AcDbEntity
  8
0
  6
Continuous
 62
     7
370
     0
100
AcDbLine
 10
10.629927
 20
0.3920731707
 30
0.0
 11
10.629927
 21
8.1920731707
 31
0.0
  0
ARC
  5
10B
330
1F
100
AcDbEntity
  8
SLD-0
 62
     7
100
AcDbCircle
 10
3.1044804466
 20
2.587503648199999
 30
0.0
 40
0.1181102362204727
100
AcDbArc
 50
90.0
 51
170.7103393122
  0
ARC
  5
10C
330
1F
100
AcDbEntity
  8
SLD-0
 62
     7
100
AcDbCircle
 10
3.397713694499999
 20
2.587503648199999
 30
0.0
 40
0.1181102362204727
100
AcDbArc
 50
9.289660687899999
 51
90.0
  0
ARC
  5
10D
330
1F
100
AcDbEntity
  8
SLD-0
 62
     7
100
AcDbCircle
 10
4.3092048561
 20
2.587503648199999
 30
0.0
 40
0.1181102362204727
100
AcDbArc
 50
90.0
 51
170.7103393120999
  0
ARC
  5
10E
330
1F
100
AcDbEntity
  8
SLD-0
 62
     7
100
AcDbCircle
 10
4.602438103999999
 20
2.587503648199999
 30
0.0
 40
0.1181102362204727
100
AcDbArc
 50
9.289660687799999
 51
90.0
  0
CIRCLE
  5
10F
330
1F
100
AcDbEntity
  8
SLD-0
 62
     7
100
AcDbCircle
 10
6.964341470099999
 20
2.4601746037
 30
0.0
 40
0.1259842519685055
  0
CIRCLE
  5
110
330
1F
100
AcDbEntity
  8
SLD-0
 62
     7
100
AcDbCircle
 10
6.964341470099999
 20
2.4601746037
 30
0.0
 40
0.0590551181102361
  0
CIRCLE
  5
111
330
1F
100
AcDbEntity
  8
SLD-0
 62
     7
100
AcDbCircle
 10
7.467598558799999
 20
2.4601746037
 30
0.0
 40
0.1259842519685037
  0
CIRCLE
  5
112
330
1F
100
AcDbEntity
  8
SLD-0
 62
     7
100
AcDbCircle
 10
7.467598558799999
 20
2.4601746037
 30
0.0
 40
0.0590551181102361
  0
CIRCLE
  5
113
330
1F
100
AcDbEntity
  8
SLD-0
 62
     7
100
AcDbCircle
 10
7.1120680934
 20
2.246989329399999
 30
0.0
 40
0.0354330708661426
  0
CIRCLE
  5
114
330
1F
100
AcDbEntity
  8
SLD-0
 62
     7
100
AcDbCircle
 10
7.319871935599999
 20
2.246989329399999
 30
0.0
 40
0.0354330708661417
  0
ARC
  5
115
330
1F
100
AcDbEntity
  8
SLD-0
 62
     7
100
AcDbCircle
 10
6.838017258599999
 20
2.469393412
 30
0.0
 40
0.2362204724409454
100
AcDbArc
 50
90.0
 51
180.0
  0
ARC
  5
116
330
1F
100
AcDbEntity
  8
SLD-0
 62
     7
100
AcDbCircle
 10
4.6329868343
 20
6.5883463807
 30
0.0
 40
0.1181102362204722
100
AcDbArc
 50
270.0
 51
360.0
  0
ARC
  5
117
330
1F
100
AcDbEntity
  8
SLD-0
 62
     7
100
AcDbCircle
 10
4.278656125699999
 20
6.5883463807
 30
0.0
 40
0.1181102362204731
100
AcDbArc
 50
180.0
 51
270.0
  0
ARC
  5
118
330
1F
100
AcDbEntity
  8
SLD-0
 62
     7
100
AcDbCircle
 10
3.4282624249
 20
6.5883463807
 30
0.0
 40
0.1181102362204727
100
AcDbArc
 50
270.0
 51
0.0
  0
ARC
  5
119
330
1F
100
AcDbEntity
  8
SLD-0
 62
     7
100
AcDbCircle
 10
3.0739317162
 20
6.5883463807
 30
0.0
 40
0.1181102362204727
100
AcDbArc
 50
180.0
 51
270.0
  0
CIRCLE
  5
11A
330
1F
100
AcDbEntity
  8
SLD-0
 62
     7
100
AcDbCircle
 10
3.1198476406
 20
6.367873939699999
 30
0.0
 40
0.061023622047244
  0
CIRCLE
  5
11B
330
1F
100
AcDbEntity
  8
SLD-0
 62
     7
100
AcDbCircle
 10
4.583894846399999
 20
5.8147243334
 30
0.0
 40
0.0610236220472444
  0
CIRCLE
  5
11C
330
1F
100
AcDbEntity
  8
SLD-0
 62
     7
100
AcDbCircle
 10
3.853459275299999
 20
6.572598349199999
 30
0.0
 40
0.0551181102362204
  0
CIRCLE
  5
11D
330
1F
100
AcDbEntity
  8
SLD-0
 62
     7
100
AcDbCircle
 10
3.1198476406
 20
5.816692837399999
 30
0.0
 40
0.061023622047244
  0
CIRCLE
  5
11E
330
1F
100
AcDbEntity
  8
SLD-0
 62
     7
100
AcDbCircle
 10
4.583894846399999
 20
6.369842443699999
 30
0.0
 40
0.0610236220472444
  0
ARC
  5
11F
330
1F
100
AcDbEntity
  8
SLD-0
 62
     7
100
AcDbCircle
 10
3.0739317162
 20
4.367873939699999
 30
0.0
 40
0.1181102362204722
100
AcDbArc
 50
90.0
 51
180.0
  0
ARC
  5
120
330
1F
100
AcDbEntity
  8
SLD-0
 62
     7
100
AcDbCircle
 10
4.278656125699999
 20
4.367873939699999
 30
0.0
 40
0.1181102362204722
100
AcDbArc
 50
90.0
 51
180.0
  0
ARC
  5
121
330
1F
100
AcDbEntity
  8
SLD-0
 62
     7
100
AcDbCircle
 10
3.4282624249
 20
4.367873939699999
 30
0.0
 40
0.1181102362204727
100
AcDbArc
 50
0.0
 51
90.0
  0
ARC
  5
122
330
1F
100
AcDbEntity
  8
SLD-0
 62
     7
100
AcDbCircle
 10
4.6329868343
 20
4.367873939699999
 30
0.0
 40
0.1181102362204731
100
AcDbArc
 50
360.0
 51
90.0
  0
CIRCLE
  5
123
330
1F
100
AcDbEntity
  8
SLD-0
 62
     7
100
AcDbCircle
 10
3.1198476406
 20
5.1395274831
 30
0.0
 40
0.061023622047244
  0
CIRCLE
  5
124
330
1F
100
AcDbEntity
  8
SLD-0
 62
     7
100
AcDbCircle
 10
4.583894846399999
 20
4.5863778768
 30
0.0
 40
0.0610236220472444
  0
CIRCLE
  5
125
330
1F
100
AcDbEntity
  8
SLD-0
 62
     7
100
AcDbCircle
 10
3.853459275299999
 20
4.3836219712
 30
0.0
 40
0.0551181102362204
  0
ARC
  5
126
330
1F
100
AcDbEntity
  8
SLD-0
 62
     7
100
AcDbCircle
 10
6.5959699014
 20
4.9680199152
 30
0.0
 40
0.0359089835038998
100
AcDbArc
 50
279.3385729569
 51
80.66142704310001
  0
ARC
  5
127
330
1F
100
AcDbEntity
  8
SLD-0
 62
     7
100
AcDbCircle
 10
6.819827673799999
 20
4.9680199152
 30
0.0
 40
0.0359089835038995
100
AcDbArc
 50
279.3385729569
 51
80.66142704310001
  0
ARC
  5
128
330
1F
100
AcDbEntity
  8
SLD-0
 62
     7
100
AcDbCircle
 10
6.819827673799999
 20
4.759853948499999
 30
0.0
 40
0.0359089835039004
100
AcDbArc
 50
279.3385729569
 51
80.66142704310001
  0
ARC
  5
129
330
1F
100
AcDbEntity
  8
SLD-0
 62
     7
100
AcDbCircle
 10
6.5959699014
 20
4.759853948499999
 30
0.0
 40
0.0359089835039014
100
AcDbArc
 50
279.3385729569
 51
80.66142704310001
  0
CIRCLE
  5
12A
330
1F
100
AcDbEntity
  8
SLD-0
 62
     7
100
AcDbCircle
 10
3.1198476406
 20
4.5883463807
 30
0.0
 40
0.061023622047244
  0
CIRCLE
  5
12B
330
1F
100
AcDbEntity
  8
SLD-0
 62
     7
100
AcDbCircle
 10
4.583894846399999
 20
5.141495986999999
 30
0.0
 40
0.0610236220472444
  0
ARC
  5
12C
330
1F
100
AcDbEntity
  8
SLD-0
 62
     7
100
AcDbCircle
 10
8.822269227099999
 20
2.469393412
 30
0.0
 40
0.2362204724409462
100
AcDbArc
 50
0.0
 51
90.0
  0
CIRCLE
  5
12D
330
1F
100
AcDbEntity
  8
SLD-0
 62
     7
100
AcDbCircle
 10
8.192687926799999
 20
2.4601746037
 30
0.0
 40
0.1259842519685055
  0
CIRCLE
  5
12E
330
1F
100
AcDbEntity
  8
SLD-0
 62
     7
100
AcDbCircle
 10
8.192687926799999
 20
2.4601746037
 30
0.0
 40
0.0748031496063
  0
DIMENSION
  5
12F
330
1F
100
AcDbEntity
  8
FORMAT
 62
     7
100
AcDbDimension
  2
*D7
 10
4.987317543
 20
1.5377057659
 30
0.0
 11
3.828366165099999
 21
1.5377057659
 31
0.0
 70
   160
 42
2.2677165354
  3
SLDDIMSTYLE0
100
AcDbAlignedDimension
 13
2.7196010076
 23
2.1150627033
 33
0.0
 14
4.987317543
 24
2.1150627033
 34
0.0
100
AcDbRotatedDimension
1001
ACAD
1000
DSTYLE
1002
{
1070
   284
1070
    12
1070
    78
1070
    12
1070
    41
1040
0.156
1070
    44
1040
0.125
1070
    42
1040
0.05
1070
   147
1040
0.06
1070
   140
1040
0.1377952756
1002
}
  0
DIMENSION
  5
146
330
1F
100
AcDbEntity
  8
FORMAT
 62
     7
100
AcDbDimension
  2
*D8
 10
2.1136973706
 20
2.705613884399999
 30
0.0
 11
2.1136973706
 21
2.4335720462
 31
0.0
 70
   160
 42
0.5905511811
  3
SLDDIMSTYLE0
100
AcDbAlignedDimension
 13
2.7196010076
 23
2.1150627033
 33
0.0
 14
2.7196010076
 24
2.705613884399999
 34
0.0
 50
90.0
100
AcDbRotatedDimension
1001
ACAD
1000
DSTYLE
1002
{
1070
   284
1070
    12
1070
    78
1070
    12
1070
    41
1040
0.156
1070
    44
1040
0.125
1070
    42
1040
0.05
1070
   147
1040
0.06
1070
   140
1040
0.1377952756
1002
}
  0
DIMENSION
  5
15B
330
1F
100
AcDbEntity
  8
FORMAT
 62
     7
100
AcDbDimension
  2
*D9
 10
9.0584896995
 20
1.5377057659
 30
0.0
 11
7.9039875101
 21
1.5377057659
 31
0.0
 70
   160
 42
2.4566929134
  3
SLDDIMSTYLE0
100
AcDbAlignedDimension
 13
6.6017967861
 23
2.1150627033
 33
0.0
 14
9.0584896995
 24
2.1150627033
 34
0.0
100
AcDbRotatedDimension
1001
ACAD
1000
DSTYLE
1002
{
1070
   284
1070
    12
1070
    78
1070
    12
1070
    41
1040
0.156
1070
    44
1040
0.125
1070
    42
1040
0.05
1070
   147
1040
0.06
1070
   140
1040
0.1377952756
1002
}
  0
DIMENSION
  5
170
330
1F
100
AcDbEntity
  8
FORMAT
 62
     7
100
AcDbDimension
  2
*D10
 10
2.113697370600001
 20
6.572598349199999
 30
0.0
 11
2.1136973706
 21
5.421181982699999
 31
0.0
 70
   160
 42
2.188976377999999
  3
SLDDIMSTYLE0
100
AcDbAlignedDimension
 13
3.853459275299999
 23
4.3836219712
 33
0.0
 14
3.853459275299999
 24
6.572598349199999
 34
0.0
 50
90.0
100
AcDbRotatedDimension
1001
ACAD
1000
DSTYLE
1002
{
1070
   284
1070
    12
1070
    78
1070
    12
1070
    41
1040
0.156
1070
    44
1040
0.125
1070
    42
1040
0.05
1070
   147
1040
0.06
1070
   140
1040
0.1377952756
1002
}
  0
DIMENSION
  5
185
330
1F
100
AcDbEntity
  8
FORMAT
 62
     7
100
AcDbDimension
  2
*D11
 10
2.4674926462
 20
4.2497637035
 30
0.0
 11
2.1136973706
 21
3.783576954199999
 31
0.0
 70
   160
 42
0.1338582677
  3
SLDDIMSTYLE0
100
AcDbAlignedDimension
 13
3.853459275299999
 23
4.3836219712
 33
0.0
 14
2.7196010076
 24
4.2497637035
 34
0.0
 50
90.0
100
AcDbRotatedDimension
1001
ACAD
1000
DSTYLE
1002
{
1070
   284
1070
    12
1070
    78
1070
    12
1070
    41
1040
0.156
1070
    44
1040
0.125
1070
    42
1040
0.05
1070
   147
1040
0.06
1070
   140
1040
0.1377952756
1002
}
  0
DIMENSION
  5
19D
330
1F
100
AcDbEntity
  8
FORMAT
 62
     7
100
AcDbDimension
  2
*D12
 10
3.853459275299999
 20
3.764311012699999
 30
0.0
 11
3.279286831999999
 21
3.764311012699999
 31
0.0
 70
   160
 42
1.133858267699999
  3
SLDDIMSTYLE0
100
AcDbAlignedDimension
 13
2.7196010076
 23
4.2497637035
 33
0.0
 14
3.853459275299999
 24
4.3836219712
 34
0.0
100
AcDbRotatedDimension
1001
ACAD
1000
DSTYLE
1002
{
1070
   284
1070
    12
1070
    78
1070
    12
1070
    41
1040
0.156
1070
    44
1040
0.125
1070
    42
1040
0.05
1070
   147
1040
0.06
1070
   140
1040
0.1377952756
1002
}
  0
DIMENSION
  5
1B2
330
1F
100
AcDbEntity
  8
FORMAT
 62
     7
100
AcDbDimension
  2
*D13
 10
7.892564536
 20
3.764311012699999
 30
0.0
 11
6.4854556521
 21
3.764311012699999
 31
0.0
 70
   160
  1
6.0%%p0.2
 42
2.905246992999999
  3
SLDDIMSTYLE0
100
AcDbAlignedDimension
 13
4.987317543
 23
4.2497637035
 33
0.0
 14
7.892564536
 24
4.759853948499999
 34
0.0
100
AcDbRotatedDimension
1001
ACAD
1000
DSTYLE
1002
{
1070
   284
1070
    12
1070
    78
1070
    12
1070
    41
1040
0.156
1070
    44
1040
0.125
1070
    42
1040
0.05
1070
   147
1040
0.06
1070
   140
1040
0.1377952756
1002
}
  0
DIMENSION
  5
1C9
330
1F
100
AcDbEntity
  8
FORMAT
 62
     7
100
AcDbDimension
  2
*D14
 10
7.892564536
 20
4.335606221399999
 30
0.0
 11
6.4854556521
 21
4.335606221399999
 31
0.0
 70
   160
  1
0.2\P(LEAD LENGTH)
 42
0.2886004186999997
  3
SLDDIMSTYLE0
100
AcDbAlignedDimension
 13
7.6039641173
 23
4.7244208777
 33
0.0
 14
7.892564536
 24
4.759853948499999
 34
0.0
100
AcDbRotatedDimension
1001
ACAD
1000
DSTYLE
1002
{
1070
   284
1070
    12
1070
    78
1070
    12
1070
    41
1040
0.156
1070
    44
1040
0.125
1070
    42
1040
0.05
1070
   147
1040
0.06
1070
   140
1040
0.1377952756
1002
}
  0
INSERT
  5
1E5
330
1F
100
AcDbEntity
  8
0
  6
Continuous
 62
     7
370
     0
100
AcDbBlockReference
  2
SW_NOTE_3
 10
4.668977064599999
 20
7.978426351399999
 30
0.0
  0
INSERT
  5
1EB
330
1F
100
AcDbEntity
  8
0
  6
Continuous
 62
     7
370
     0
100
AcDbBlockReference
  2
SW_NOTE_4
 10
8.6657048889
 20
7.967057868899999
 30
0.0
  0
INSERT
  5
1F1
330
1F
100
AcDbEntity
  8
0
  6
Continuous
 62
     7
370
     0
100
AcDbBlockReference
  2
SW_NOTE_5
 10
0.4782693072
 20
7.976406312399999
 30
0.0
  0
MTEXT
  5
1F2
330
1F
100
AcDbEntity
  8
0
  6
Continuous
 62
     7
370
     0
100
AcDbMText
 10
9.516319626299999
 20
8.091483726099999
 30
0.0
 40
0.1875
 41
0.0
 71
     1
 72
     1
  1
{08MAY07}
  7
SLDTEXTSTYLE0
 73
     1
 44
1.0
  0
INSERT
  5
1F8
330
1F
100
AcDbEntity
  8
0
  6
Continuous
 62
     7
370
     0
100
AcDbBlockReference
  2
SW_NOTE_6
 10
4.668977064599999
 20
7.978426351399999
 30
0.0
  0
INSERT
  5
1FE
330
1F
100
AcDbEntity
  8
0
  6
Continuous
 62
     7
370
     0
100
AcDbBlockReference
  2
SW_NOTE_7
 10
8.6657048889
 20
7.967057868899999
 30
0.0
  0
INSERT
  5
204
330
1F
100
AcDbEntity
  8
0
  6
Continuous
 62
     7
370
     0
100
AcDbBlockReference
  2
SW_NOTE_8
 10
0.4782693072
 20
7.976406312399999
 30
0.0
  0
MTEXT
  5
205
330
1F
100
AcDbEntity
  8
0
  6
Continuous
 62
     7
370
     0
100
AcDbMText
 10
6.4695111082
 20
8.0938948182
 30
0.0
 40
0.1875
 41
0.0
 71
     1
 72
     1
  1
{HH-3633}
  7
SLDTEXTSTYLE0
 73
     1
 44
1.0
  0
MTEXT
  5
207
330
1F
100
AcDbEntity
  8
0
  6
Continuous
 62
     7
370
     0
100
AcDbMText
 10
1.192847638299999
 20
8.0727778172
 30
0.0
 40
0.1875
 41
0.0
 71
     1
 72
     1
  1
{BATTERY HOLDER- 4 AA}
  7
SLDTEXTSTYLE1
 73
     1
 44
1.0
  0
MTEXT
  5
208
330
1F
100
AcDbEntity
  8
0
  6
Continuous
 62
     7
370
     0
100
AcDbMText
 10
9.516319626299999
 20
8.091483726099999
 30
0.0
 40
0.1875
 41
0.0
 71
     1
 72
     1
  1
{08MAY07}
  7
SLDTEXTSTYLE0
 73
     1
 44
1.0
  0
MTEXT
  5
209
330
1F
100
AcDbEntity
  8
0
  6
Continuous
 62
     7
370
     0
100
AcDbMText
 10
0.7455791506000001
 20
7.478708936799999
 30
0.0
 40
0.1666666667
 41
0.0
 71
     1
 72
     1
  1
{MATERIAL: POLYPROPYLENE}
  7
SLDTEXTSTYLE0
 73
     1
 44
1.0
  0
MTEXT
  5
20B
330
1F
100
AcDbEntity
  8
0
  6
Continuous
 62
     7
370
     0
100
AcDbMText
 10
2.683957529
 20
0.8252963740000001
 30
0.0
 40
0.1377952756
 41
0.0
 71
     1
 72
     1
  1
{ALL TOLERANCES ARE +/-0.015 UNLESS OTHERWISE SPECIFIED.}
  7
SLDTEXTSTYLE2
 73
     1
 44
1.0
  0
INSERT
  5
20C
330
1F
100
AcDbEntity
  8
0
  6
Continuous
 62
     7
370
     0
100
AcDbBlockReference
  2
Block1
 10
0.6156177606000001
 20
7.417808880299999
 30
0.0
  0
INSERT
  5
20D
330
1F
100
AcDbEntity
  8
SLD-0
 62
     7
100
AcDbBlockReference
  2
111
 10
2.9457102173
 20
4.501210507799999
 30
0.0
 41
0.4
 42
0.4
 43
0.4
 50
-90.0
  0
INSERT
  5
20E
330
1F
100
AcDbEntity
  8
SLD-0
 62
     7
100
AcDbBlockReference
  2
111
 10
4.739674364199999
 20
5.224896834099999
 30
0.0
 41
0.4
 42
0.4
 43
0.4
 50
90.0
  0
INSERT
  5
20F
330
1F
100
AcDbEntity
  8
SLD-0
 62
     7
100
AcDbBlockReference
  2
111
 10
2.9653952567
 20
5.7295569645
 30
0.0
 41
0.4
 42
0.4
 43
0.4
 50
-90.0
  0
INSERT
  5
210
330
1F
100
AcDbEntity
  8
SLD-0
 62
     7
100
AcDbBlockReference
  2
111
 10
4.739674364199999
 20
6.4532432908
 30
0.0
 41
0.4
 42
0.4
 43
0.4
 50
90.0
  0
ENDSEC
  0
SECTION
  2
OBJECTS
  0
DICTIONARY
  5
C
330
0
100
AcDbDictionary
281
     1
  3
ACAD_GROUP
350
D
  3
ACAD_LAYOUT
350
1A
  3
ACAD_MLINESTYLE
350
17
  3
ACAD_PLOTSETTINGS
350
19
  3
ACAD_PLOTSTYLENAME
350
E
  0
DICTIONARY
  5
D
102
{ACAD_REACTORS
330
C
102
}
330
C
100
AcDbDictionary
281
     1
  0
DICTIONARY
  5
1A
102
{ACAD_REACTORS
330
C
102
}
330
C
100
AcDbDictionary
281
     1
  3
Layout1
350
1E
  3
Layout2
350
26
  3
Model
350
22
  0
DICTIONARY
  5
17
102
{ACAD_REACTORS
330
C
102
}
330
C
100
AcDbDictionary
281
     1
  3
Standard
350
18
  0
DICTIONARY
  5
19
102
{ACAD_REACTORS
330
C
102
}
330
C
100
AcDbDictionary
281
     1
  0
ACDBDICTIONARYWDFLT
  5
E
102
{ACAD_REACTORS
330
C
102
}
330
C
100
AcDbDictionary
281
     1
  3
Normal
350
F
100
AcDbDictionaryWithDefault
340
F
  0
LAYOUT
  5
1E
102
{ACAD_REACTORS
330
1A
102
}
330
1A
100
AcDbPlotSettings
  1

  2

  4

  6

 40
0.0
 41
0.0
 42
0.0
 43
0.0
 44
0.0
 45
0.0
 46
0.0
 47
0.0
 48
0.0
 49
0.0
140
0.0
141
0.0
142
1.0
143
1.0
 70
   688
 72
     0
 73
     0
 74
     5
  7

 75
    16
147
1.0
148
0.0
149
0.0
100
AcDbLayout
  1
Layout1
 70
     1
 71
     1
 10
0.0
 20
0.0
 11
12.0
 21
9.0
 12
0.0
 22
0.0
 32
0.0
 14
1.000000000000000E+20
 24
1.000000000000000E+20
 34
1.000000000000000E+20
 15
-1.000000000000000E+20
 25
-1.000000000000000E+20
 35
-1.000000000000000E+20
146
0.0
 13
0.0
 23
0.0
 33
0.0
 16
1.0
 26
0.0
 36
0.0
 17
0.0
 27
1.0
 37
0.0
 76
     0
330
1B
  0
LAYOUT
  5
26
102
{ACAD_REACTORS
330
1A
102
}
330
1A
100
AcDbPlotSettings
  1

  2

  4

  6

 40
0.0
 41
0.0
 42
0.0
 43
0.0
 44
0.0
 45
0.0
 46
0.0
 47
0.0
 48
0.0
 49
0.0
140
0.0
141
0.0
142
1.0
143
1.0
 70
   688
 72
     0
 73
     0
 74
     5
  7

 75
    16
147
1.0
148
0.0
149
0.0
100
AcDbLayout
  1
Layout2
 70
     1
 71
     2
 10
0.0
 20
0.0
 11
0.0
 21
0.0
 12
0.0
 22
0.0
 32
0.0
 14
0.0
 24
0.0
 34
0.0
 15
0.0
 25
0.0
 35
0.0
146
0.0
 13
0.0
 23
0.0
 33
0.0
 16
1.0
 26
0.0
 36
0.0
 17
0.0
 27
1.0
 37
0.0
 76
     0
330
23
  0
LAYOUT
  5
22
102
{ACAD_REACTORS
330
1A
102
}
330
1A
100
AcDbPlotSettings
  1

  2

  4

  6

 40
0.0
 41
0.0
 42
0.0
 43
0.0
 44
0.0
 45
0.0
 46
0.0
 47
0.0
 48
0.0
 49
0.0
140
0.0
141
0.0
142
1.0
143
1.0
 70
  1712
 72
     0
 73
     0
 74
     0
  7

 75
     0
147
1.0
148
0.0
149
0.0
100
AcDbLayout
  1
Model
 70
     1
 71
     0
 10
0.0
 20
0.0
 11
0.0
 21
0.0
 12
0.0
 22
0.0
 32
0.0
 14
0.0
 24
0.0
 34
0.0
 15
11.0
 25
8.5
 35
0.0
146
0.0
 13
0.0
 23
0.0
 33
0.0
 16
1.0
 26
0.0
 36
0.0
 17
0.0
 27
1.0
 37
0.0
 76
     0
330
1F
  0
MLINESTYLE
  5
18
102
{ACAD_REACTORS
330
17
102
}
330
17
100
AcDbMlineStyle
  2
STANDARD
 70
     0
  3

 62
   256
 51
90.0
 52
90.0
 71
     2
 49
0.5
 62
   256
  6
BYLAYER
 49
-0.5
 62
   256
  6
BYLAYER
  0
ACDBPLACEHOLDER
  5
F
102
{ACAD_REACTORS
330
E
102
}
330
E
  0
ENDSEC
  0
EOF
