  0
SECTION
  2
HEADER
  9
$ACADVER
  1
AC1015
  9
$ACADMAINTVER
 70
     6
  9
$DWGCODEPAGE
  3
ANSI_1252
  9
$INSBASE
 10
0.0
 20
0.0
 30
0.0
  9
$EXTMIN
 10
11.54596401574711
 20
4.529644494256576
 30
-0.0000000000112497
  9
$EXTMAX
 10
22.14705358890921
 20
12.47002701032776
 30
0.0000000000002956
  9
$LIMMIN
 10
0.0
 20
0.0
  9
$LIMMAX
 10
0.0
 20
0.0
  9
$ORTHOMODE
 70
     1
  9
$REGENMODE
 70
     1
  9
$FILLMODE
 70
     1
  9
$QTEXTMODE
 70
     0
  9
$MIRRTEXT
 70
     1
  9
$LTSCALE
 40
1.0
  9
$ATTMODE
 70
     1
  9
$TEXTSIZE
 40
0.9243728512525208
  9
$TRACEWID
 40
0.05
  9
$TEXTSTYLE
  7
Standard
  9
$CLAYER
  8
0
  9
$CELTYPE
  6
ByLayer
  9
$CECOLOR
 62
   256
  9
$CELTSCALE
 40
1.0
  9
$DISPSILH
 70
     0
  9
$DIMSCALE
 40
1.0
  9
$DIMASZ
 40
0.18
  9
$DIMEXO
 40
0.063
  9
$DIMDLI
 40
0.281
  9
$DIMRND
 40
0.0
  9
$DIMDLE
 40
0.0
  9
$DIMEXE
 40
0.093
  9
$DIMTP
 40
0.0
  9
$DIMTM
 40
0.0
  9
$DIMTXT
 40
0.125
  9
$DIMCEN
 40
0.09
  9
$DIMTSZ
 40
0.0
  9
$DIMTOL
 70
     0
  9
$DIMLIM
 70
     0
  9
$DIMTIH
 70
     1
  9
$DIMTOH
 70
     1
  9
$DIMSE1
 70
     0
  9
$DIMSE2
 70
     0
  9
$DIMTAD
 70
     0
  9
$DIMZIN
 70
     0
  9
$DIMBLK
  1

  9
$DIMASO
 70
     1
  9
$DIMSHO
 70
     1
  9
$DIMPOST
  1

  9
$DIMAPOST
  1

  9
$DIMALT
 70
     0
  9
$DIMALTD
 70
     2
  9
$DIMALTF
 40
25.4
  9
$DIMLFAC
 40
1.0
  9
$DIMTOFL
 70
     0
  9
$DIMTVP
 40
0.0
  9
$DIMTIX
 70
     0
  9
$DIMSOXD
 70
     0
  9
$DIMSAH
 70
     0
  9
$DIMBLK1
  1

  9
$DIMBLK2
  1

  9
$DIMSTYLE
  2
23NSTD
  9
$DIMCLRD
 70
     0
  9
$DIMCLRE
 70
     0
  9
$DIMCLRT
 70
     0
  9
$DIMTFAC
 40
1.0
  9
$DIMGAP
 40
0.09
  9
$DIMJUST
 70
     0
  9
$DIMSD1
 70
     0
  9
$DIMSD2
 70
     0
  9
$DIMTOLJ
 70
     1
  9
$DIMTZIN
 70
     0
  9
$DIMALTZ
 70
     0
  9
$DIMALTTZ
 70
     0
  9
$DIMUPT
 70
     0
  9
$DIMDEC
 70
     3
  9
$DIMTDEC
 70
     3
  9
$DIMALTU
 70
     2
  9
$DIMALTTD
 70
     2
  9
$DIMTXSTY
  7
TXT
  9
$DIMAUNIT
 70
     0
  9
$DIMADEC
 70
     0
  9
$DIMALTRND
 40
0.0
  9
$DIMAZIN
 70
     0
  9
$DIMDSEP
 70
    46
  9
$DIMATFIT
 70
     3
  9
$DIMFRAC
 70
     0
  9
$DIMLDRBLK
  1

  9
$DIMLUNIT
 70
     2
  9
$DIMLWD
 70
    -2
  9
$DIMLWE
 70
    -2
  9
$DIMTMOVE
 70
     0
  9
$LUNITS
 70
     2
  9
$LUPREC
 70
     3
  9
$SKETCHINC
 40
0.1
  9
$FILLETRAD
 40
0.5
  9
$AUNITS
 70
     0
  9
$AUPREC
 70
     0
  9
$MENU
  1
.
  9
$ELEVATION
 40
0.0
  9
$PELEVATION
 40
0.0
  9
$THICKNESS
 40
0.0
  9
$LIMCHECK
 70
     0
  9
$CHAMFERA
 40
0.5
  9
$CHAMFERB
 40
0.5
  9
$CHAMFERC
 40
1.0
  9
$CHAMFERD
 40
0.0
  9
$SKPOLY
 70
     0
  9
$TDCREATE
 40
2454231.446373333
  9
$TDUCREATE
 40
2454231.654706666
  9
$TDUPDATE
 40
2455589.563608032
  9
$TDUUPDATE
 40
2455589.771941365
  9
$TDINDWG
 40
0.1338489352
  9
$TDUSRTIMER
 40
0.1338489352
  9
$USRTIMER
 70
     1
  9
$ANGBASE
 50
0.0
  9
$ANGDIR
 70
     0
  9
$PDMODE
 70
     0
  9
$PDSIZE
 40
-1.0
  9
$PLINEWID
 40
0.0
  9
$SPLFRAME
 70
     0
  9
$SPLINETYPE
 70
     6
  9
$SPLINESEGS
 70
     8
  9
$HANDSEED
  5
68F
  9
$SURFTAB1
 70
     6
  9
$SURFTAB2
 70
     6
  9
$SURFTYPE
 70
     6
  9
$SURFU
 70
     6
  9
$SURFV
 70
     6
  9
$UCSBASE
  2

  9
$UCSNAME
  2

  9
$UCSORG
 10
0.0
 20
0.0
 30
0.0
  9
$UCSXDIR
 10
1.0
 20
0.0
 30
0.0
  9
$UCSYDIR
 10
0.0
 20
1.0
 30
0.0
  9
$UCSORTHOREF
  2

  9
$UCSORTHOVIEW
 70
     0
  9
$UCSORGTOP
 10
0.0
 20
0.0
 30
0.0
  9
$UCSORGBOTTOM
 10
0.0
 20
0.0
 30
0.0
  9
$UCSORGLEFT
 10
0.0
 20
0.0
 30
0.0
  9
$UCSORGRIGHT
 10
0.0
 20
0.0
 30
0.0
  9
$UCSORGFRONT
 10
0.0
 20
0.0
 30
0.0
  9
$UCSORGBACK
 10
0.0
 20
0.0
 30
0.0
  9
$PUCSBASE
  2

  9
$PUCSNAME
  2

  9
$PUCSORG
 10
0.0
 20
0.0
 30
0.0
  9
$PUCSXDIR
 10
1.0
 20
0.0
 30
0.0
  9
$PUCSYDIR
 10
0.0
 20
1.0
 30
0.0
  9
$PUCSORTHOREF
  2

  9
$PUCSORTHOVIEW
 70
     0
  9
$PUCSORGTOP
 10
0.0
 20
0.0
 30
0.0
  9
$PUCSORGBOTTOM
 10
0.0
 20
0.0
 30
0.0
  9
$PUCSORGLEFT
 10
0.0
 20
0.0
 30
0.0
  9
$PUCSORGRIGHT
 10
0.0
 20
0.0
 30
0.0
  9
$PUCSORGFRONT
 10
0.0
 20
0.0
 30
0.0
  9
$PUCSORGBACK
 10
0.0
 20
0.0
 30
0.0
  9
$USERI1
 70
     0
  9
$USERI2
 70
     0
  9
$USERI3
 70
     0
  9
$USERI4
 70
     0
  9
$USERI5
 70
     0
  9
$USERR1
 40
0.0
  9
$USERR2
 40
0.0
  9
$USERR3
 40
0.0
  9
$USERR4
 40
0.0
  9
$USERR5
 40
0.0
  9
$WORLDVIEW
 70
     1
  9
$SHADEDGE
 70
     3
  9
$SHADEDIF
 70
    70
  9
$TILEMODE
 70
     1
  9
$MAXACTVP
 70
    64
  9
$PINSBASE
 10
0.0
 20
0.0
 30
0.0
  9
$PLIMCHECK
 70
     0
  9
$PEXTMIN
 10
1.000000000000000E+20
 20
1.000000000000000E+20
 30
1.000000000000000E+20
  9
$PEXTMAX
 10
-1.000000000000000E+20
 20
-1.000000000000000E+20
 30
-1.000000000000000E+20
  9
$PLIMMIN
 10
0.0
 20
0.0
  9
$PLIMMAX
 10
12.0
 20
9.0
  9
$UNITMODE
 70
     0
  9
$VISRETAIN
 70
     0
  9
$PLINEGEN
 70
     0
  9
$PSLTSCALE
 70
     1
  9
$TREEDEPTH
 70
  3020
  9
$CMLSTYLE
  2
Standard
  9
$CMLJUST
 70
     0
  9
$CMLSCALE
 40
1.0
  9
$PROXYGRAPHICS
 70
     1
  9
$MEASUREMENT
 70
     0
  9
$CELWEIGHT
370
    -1
  9
$ENDCAPS
280
     0
  9
$JOINSTYLE
280
     0
  9
$LWDISPLAY
290
     1
  9
$INSUNITS
 70
     1
  9
$HYPERLINKBASE
  1

  9
$STYLESHEET
  1
monochrome.ctb
  9
$XEDIT
290
     1
  9
$CEPSNTYPE
380
     0
  9
$PSTYLEMODE
290
     1
  9
$FINGERPRINTGUID
  2
{056E10F3-F4E9-451D-B621-3A735D840324}
  9
$VERSIONGUID
  2
{A1D53AEC-0D09-4471-8822-E7BD2108076A}
  9
$EXTNAMES
290
     1
  9
$PSVPSCALE
 40
0.0
  9
$OLESTARTUP
290
     0
  0
ENDSEC
  0
SECTION
  2
CLASSES
  0
CLASS
  1
ACDBDICTIONARYWDFLT
  2
AcDbDictionaryWithDefault
  3
AutoCAD 2000
 90
        0
280
     0
281
     0
  0
CLASS
  1
ACDBPLACEHOLDER
  2
AcDbPlaceHolder
  3
AutoCAD 2000
 90
        0
280
     0
281
     0
  0
CLASS
  1
LAYOUT
  2
AcDbLayout
  3
AutoCAD 2000
 90
        0
280
     0
281
     0
  0
CLASS
  1
DICTIONARYVAR
  2
AcDbDictionaryVar
  3
AutoCAD 2000
 90
        0
280
     0
281
     0
  0
ENDSEC
  0
SECTION
  2
TABLES
  0
TABLE
  2
VPORT
  5
8
330
0
100
AcDbSymbolTable
 70
     7
  0
VPORT
  5
68E
330
8
100
AcDbSymbolTableRecord
100
AcDbViewportTableRecord
  2
*Active
 70
     0
 10
0.0
 20
0.0
 11
1.0
 21
1.0
 12
16.84650880232816
 22
8.499835752292172
 13
0.0
 23
0.0
 14
0.5
 24
0.5
 15
0.5
 25
0.5
 16
0.0
 26
0.0
 36
1.0
 17
0.0
 27
0.0
 37
0.0
 40
8.02988002711163
 41
1.711895910780669
 42
50.0
 43
0.0
 44
0.0
 50
0.0
 51
0.0
 71
     0
 72
  2000
 73
     1
 74
     3
 75
     0
 76
     0
 77
     0
 78
     0
281
     0
 65
     1
110
0.0
120
0.0
130
0.0
111
1.0
121
0.0
131
0.0
112
0.0
122
1.0
132
0.0
 79
     0
146
0.0
  0
ENDTAB
  0
TABLE
  2
LTYPE
  5
5
330
0
100
AcDbSymbolTable
 70
     8
  0
LTYPE
  5
14
330
5
100
AcDbSymbolTableRecord
100
AcDbLinetypeTableRecord
  2
ByBlock
 70
     0
  3

 72
    65
 73
     0
 40
0.0
  0
LTYPE
  5
15
330
5
100
AcDbSymbolTableRecord
100
AcDbLinetypeTableRecord
  2
ByLayer
 70
     0
  3

 72
    65
 73
     0
 40
0.0
  0
LTYPE
  5
16
330
5
100
AcDbSymbolTableRecord
100
AcDbLinetypeTableRecord
  2
Continuous
 70
     0
  3
Solid line
 72
    65
 73
     0
 40
0.0
  0
LTYPE
  5
2C
330
5
100
AcDbSymbolTableRecord
100
AcDbLinetypeTableRecord
  2
CENTER
 70
     0
  3
Center ____ _ ____ _ ____ _ ____ _ ____ _ ____
 72
    65
 73
     4
 40
0.4
 49
0.25
 74
     0
 49
-0.05
 74
     0
 49
0.05
 74
     0
 49
-0.05
 74
     0
  0
ENDTAB
  0
TABLE
  2
LAYER
  5
2
330
0
100
AcDbSymbolTable
 70
    10
  0
LAYER
  5
10
330
2
100
AcDbSymbolTableRecord
100
AcDbLayerTableRecord
  2
0
 70
     0
 62
     7
  6
Continuous
370
    -3
390
F
  0
LAYER
  5
D6
330
2
100
AcDbSymbolTableRecord
100
AcDbLayerTableRecord
  2
Defpoints
 70
     0
 62
     7
  6
Continuous
290
     0
370
    -3
390
F
  0
LAYER
  5
29D
330
2
100
AcDbSymbolTableRecord
100
AcDbLayerTableRecord
  2
TEXT
 70
     0
 62
     1
  6
Continuous
370
    -3
390
F
  0
LAYER
  5
29E
330
2
100
AcDbSymbolTableRecord
100
AcDbLayerTableRecord
  2
TITLE
 70
     0
 62
     8
  6
Continuous
370
    -3
390
F
  0
ENDTAB
  0
TABLE
  2
STYLE
  5
3
330
0
100
AcDbSymbolTable
 70
     5
  0
STYLE
  5
11
330
3
100
AcDbSymbolTableRecord
100
AcDbTextStyleTableRecord
  2
Standard
 70
     0
 40
0.0
 41
1.0
 50
0.0
 71
     0
 42
0.9243728512525208
  3
txt
  4

  0
STYLE
  5
42
330
3
100
AcDbSymbolTableRecord
100
AcDbTextStyleTableRecord
  2
SLDTEXTSTYLE0
 70
     0
 40
0.0
 41
0.75
 50
0.0
 71
     0
 42
0.2
  3
TXT
  4

  0
STYLE
  5
1ED
330
3
100
AcDbSymbolTableRecord
100
AcDbTextStyleTableRecord
  2
SLDTEXTSTYLE1
 70
     0
 40
0.0
 41
0.7083333333000002
 50
0.0
 71
     0
 42
0.2
  3
TXT
  4

  0
STYLE
  5
1F1
330
3
100
AcDbSymbolTableRecord
100
AcDbTextStyleTableRecord
  2
SLDTEXTSTYLE2
 70
     0
 40
0.0
 41
0.7090909091
 50
0.0
 71
     0
 42
0.2
  3
TXT
  4

  0
STYLE
  5
2A0
330
3
100
AcDbSymbolTableRecord
100
AcDbTextStyleTableRecord
  2
TXT
 70
     0
 40
0.0
 41
0.75
 50
0.0
 71
     0
 42
0.125
  3
TXT.shx
  4

  0
ENDTAB
  0
TABLE
  2
VIEW
  5
6
330
0
100
AcDbSymbolTable
 70
     0
  0
ENDTAB
  0
TABLE
  2
UCS
  5
7
330
0
100
AcDbSymbolTable
 70
     0
  0
ENDTAB
  0
TABLE
  2
APPID
  5
9
330
0
100
AcDbSymbolTable
 70
     3
  0
APPID
  5
12
330
9
100
AcDbSymbolTableRecord
100
AcDbRegAppTableRecord
  2
ACAD
 70
     0
  0
APPID
  5
2A3
330
9
100
AcDbSymbolTableRecord
100
AcDbRegAppTableRecord
  2
MCAD_NO_VIS
 70
     0
  0
APPID
  5
2A4
330
9
100
AcDbSymbolTableRecord
100
AcDbRegAppTableRecord
  2
AD_SKETCHDIM
 70
     0
  0
ENDTAB
  0
TABLE
  2
DIMSTYLE
  5
A
330
0
100
AcDbSymbolTable
 70
     6
100
AcDbDimStyleTable
 71
     1
340
2A1
  0
DIMSTYLE
105
2A1
102
{ACAD_REACTORS
330
2E4
330
2E2
330
2E1
330
2E5
330
2E6
330
314
330
2BF
330
2C7
330
2C6
330
2C1
330
322
102
}
330
A
100
AcDbSymbolTableRecord
100
AcDbDimStyleTableRecord
  2
23NSTD
 70
     0
 42
0.063
 43
0.281
 44
0.093
140
0.125
271
     3
272
     3
340
2A0
  0
ENDTAB
  0
TABLE
  2
BLOCK_RECORD
  5
1
330
0
100
AcDbSymbolTable
 70
    36
  0
BLOCK_RECORD
  5
1F
330
1
100
AcDbSymbolTableRecord
100
AcDbBlockTableRecord
  2
*Model_Space
340
22
  0
BLOCK_RECORD
  5
1B
330
1
100
AcDbSymbolTableRecord
100
AcDbBlockTableRecord
  2
*Paper_Space
340
1E
  0
BLOCK_RECORD
  5
23
330
1
100
AcDbSymbolTableRecord
100
AcDbBlockTableRecord
  2
*Paper_Space0
340
26
  0
BLOCK_RECORD
  5
30
330
1
100
AcDbSymbolTableRecord
100
AcDbBlockTableRecord
  2
Block1
340
0
102
{BLKREFS
331
1F3
102
}
  0
BLOCK_RECORD
  5
2A5
330
1
100
AcDbSymbolTableRecord
100
AcDbBlockTableRecord
  2
HBA
340
0
102
{BLKREFS
331
2BE
102
}
  0
BLOCK_RECORD
  5
32F
330
1
100
AcDbSymbolTableRecord
100
AcDbBlockTableRecord
  2
*D25
340
0
  0
BLOCK_RECORD
  5
33C
330
1
100
AcDbSymbolTableRecord
100
AcDbBlockTableRecord
  2
*D26
340
0
  0
BLOCK_RECORD
  5
349
330
1
100
AcDbSymbolTableRecord
100
AcDbBlockTableRecord
  2
*D27
340
0
  0
BLOCK_RECORD
  5
356
330
1
100
AcDbSymbolTableRecord
100
AcDbBlockTableRecord
  2
*D28
340
0
  0
BLOCK_RECORD
  5
363
330
1
100
AcDbSymbolTableRecord
100
AcDbBlockTableRecord
  2
*D29
340
0
  0
BLOCK_RECORD
  5
370
330
1
100
AcDbSymbolTableRecord
100
AcDbBlockTableRecord
  2
*D30
340
0
  0
BLOCK_RECORD
  5
37E
330
1
100
AcDbSymbolTableRecord
100
AcDbBlockTableRecord
  2
*D31
340
0
  0
BLOCK_RECORD
  5
38C
330
1
100
AcDbSymbolTableRecord
100
AcDbBlockTableRecord
  2
*D32
340
0
  0
BLOCK_RECORD
  5
398
330
1
100
AcDbSymbolTableRecord
100
AcDbBlockTableRecord
  2
*D33
340
0
  0
BLOCK_RECORD
  5
3A5
330
1
100
AcDbSymbolTableRecord
100
AcDbBlockTableRecord
  2
*D34
340
0
  0
BLOCK_RECORD
  5
3B2
330
1
100
AcDbSymbolTableRecord
100
AcDbBlockTableRecord
  2
*D35
340
0
  0
ENDTAB
  0
ENDSEC
  0
SECTION
  2
BLOCKS
  0
BLOCK
  5
20
330
1F
100
AcDbEntity
  8
0
100
AcDbBlockBegin
  2
*Model_Space
 70
     0
 10
0.0
 20
0.0
 30
0.0
  3
*Model_Space
  1

  0
ENDBLK
  5
21
330
1F
100
AcDbEntity
  8
0
100
AcDbBlockEnd
  0
BLOCK
  5
1C
330
1B
100
AcDbEntity
 67
     1
  8
0
100
AcDbBlockBegin
  2
*Paper_Space
 70
     0
 10
0.0
 20
0.0
 30
0.0
  3
*Paper_Space
  1

  0
ENDBLK
  5
1D
330
1B
100
AcDbEntity
 67
     1
  8
0
100
AcDbBlockEnd
  0
BLOCK
  5
24
330
23
100
AcDbEntity
  8
0
100
AcDbBlockBegin
  2
*Paper_Space0
 70
     0
 10
0.0
 20
0.0
 30
0.0
  3
*Paper_Space0
  1

  0
ENDBLK
  5
25
330
23
100
AcDbEntity
  8
0
100
AcDbBlockEnd
  0
BLOCK
  5
31
330
30
100
AcDbEntity
  8
0
100
AcDbBlockBegin
  2
Block1
 70
     0
 10
0.0
 20
0.0
 30
0.0
  3
Block1
  1

  0
ENDBLK
  5
32
330
30
100
AcDbEntity
  8
0
100
AcDbBlockEnd
  0
BLOCK
  5
2BC
330
2A5
100
AcDbEntity
  8
0
100
AcDbBlockBegin
  2
HBA
 70
     0
 10
0.0
 20
0.0
 30
0.0
  3
HBA
  1

  0
TEXT
  5
2A6
330
2A5
100
AcDbEntity
  8
TEXT
100
AcDbText
 10
4.239867481422549
 20
7.500079195640082
 30
0.0
 40
0.125
  1
No.
  7
TXT
 72
     1
 11
4.364867481422549
 21
7.500079195640082
 31
0.0
100
AcDbText
  0
TEXT
  5
2A7
330
2A5
100
AcDbEntity
  8
TEXT
100
AcDbText
 10
4.135700814755882
 20
7.708412528973415
 30
0.0
 40
0.125
  1
PART
  7
TXT
 72
     1
 11
4.364867481422549
 21
7.708412528973415
 31
0.0
100
AcDbText
  0
LINE
  5
2A8
330
2A5
100
AcDbEntity
  8
TITLE
100
AcDbLine
 10
0.0619999999999976
 20
7.459999999999999
 30
0.0
 11
10.538
 21
7.459999999999999
 31
0.0
  0
LINE
  5
2A9
330
2A5
100
AcDbEntity
  8
TITLE
100
AcDbLine
 10
0.0619999999999976
 20
7.877999999999999
 30
0.0
 11
10.538
 21
7.877999999999999
 31
0.0
  0
LINE
  5
2AA
330
2A5
100
AcDbEntity
  8
TITLE
100
AcDbLine
 10
0.0
 20
7.940000000000001
 30
0.0
 11
10.6
 21
7.939999999999997
 31
0.0
  0
LINE
  5
2AB
330
2A5
100
AcDbEntity
  8
TITLE
100
AcDbLine
 10
0.0
 20
0.0
 30
0.0
 11
-0.0000000000000036
 21
7.940000000000001
 31
0.0
  0
LINE
  5
2AC
330
2A5
100
AcDbEntity
  8
TITLE
100
AcDbLine
 10
0.0619999999999976
 20
0.0620000000000012
 30
0.0
 11
0.0619999999999976
 21
7.877999999999999
 31
0.0
  0
LINE
  5
2AD
330
2A5
100
AcDbEntity
  8
TITLE
100
AcDbLine
 10
0.8120000000000047
 20
7.459999999999999
 30
0.0
 11
0.8119999999999976
 21
7.877999999999999
 31
0.0
  0
TEXT
  5
2AE
330
2A5
100
AcDbEntity
  8
TEXT
100
AcDbText
 10
0.2078333333333381
 20
7.708412528973415
 30
0.0
 40
0.125
  1
PART
  7
TXT
 72
     1
 11
0.4370000000000048
 21
7.708412528973415
 31
0.0
100
AcDbText
  0
TEXT
  5
2AF
330
2A5
100
AcDbEntity
  8
TEXT
100
AcDbText
 10
0.2078333333333381
 20
7.500079195640082
 30
0.0
 40
0.125
  1
NAME
  7
TXT
 72
     1
 11
0.4370000000000048
 21
7.500079195640082
 31
0.0
100
AcDbText
  0
LINE
  5
2B0
330
2A5
100
AcDbEntity
  8
TITLE
100
AcDbLine
 10
3.989867481422556
 20
7.877999999999999
 30
0.0
 11
3.989867481422556
 21
7.459999999999999
 31
0.0
  0
LINE
  5
2B1
330
2A5
100
AcDbEntity
  8
TITLE
100
AcDbLine
 10
3.927867481422552
 20
7.877999999999999
 30
0.0
 11
3.927867481422552
 21
7.459999999999999
 31
0.0
  0
LINE
  5
2B2
330
2A5
100
AcDbEntity
  8
TITLE
100
AcDbLine
 10
10.6
 20
-0.0000000000000018
 30
0.0
 11
10.59999999999999
 21
7.939999999999997
 31
0.0
  0
LINE
  5
2B3
330
2A5
100
AcDbEntity
  8
TITLE
100
AcDbLine
 10
10.538
 20
0.0619999999999994
 30
0.0
 11
10.538
 21
7.877999999999999
 31
0.0
  0
LINE
  5
2B4
330
2A5
100
AcDbEntity
  8
TITLE
100
AcDbLine
 10
4.739867481422556
 20
7.877999999999999
 30
0.0
 11
4.739867481422556
 21
7.459999999999999
 31
0.0
  0
LINE
  5
2B5
330
2A5
100
AcDbEntity
  8
TITLE
100
AcDbLine
 10
10.538
 20
0.0619999999999994
 30
0.0
 11
0.0619999999999976
 21
0.0620000000000012
 31
0.0
  0
LINE
  5
2B6
330
2A5
100
AcDbEntity
  8
TITLE
100
AcDbLine
 10
10.6
 20
-0.0000000000000018
 30
0.0
 11
0.0
 21
0.0
 31
0.0
  0
LINE
  5
2B7
330
2A5
100
AcDbEntity
  8
TITLE
100
AcDbLine
 10
8.569254870049483
 20
7.877999999999999
 30
0.0
 11
8.569254870049483
 21
7.459999999999999
 31
0.0
  0
LINE
  5
2B8
330
2A5
100
AcDbEntity
  8
TITLE
100
AcDbLine
 10
8.631254870049488
 20
7.877999999999999
 30
0.0
 11
8.631254870049488
 21
7.459999999999999
 31
0.0
  0
TEXT
  5
2B9
330
2A5
100
AcDbEntity
  8
TEXT
100
AcDbText
 10
8.797921536716147
 20
7.708412528973415
 30
0.0
 40
0.125
  1
REV.
  7
TXT
 72
     1
 11
9.006254870049481
 21
7.708412528973415
 31
0.0
100
AcDbText
  0
TEXT
  5
2BA
330
2A5
100
AcDbEntity
  8
TEXT
100
AcDbText
 10
8.777088203382815
 20
7.500079195640082
 30
0.0
 40
0.125
  1
DATE
  7
TXT
 72
     1
 11
9.006254870049481
 21
7.500079195640082
 31
0.0
100
AcDbText
  0
LINE
  5
2BB
330
2A5
100
AcDbEntity
  8
TITLE
100
AcDbLine
 10
9.381254870049488
 20
7.877999999999999
 30
0.0
 11
9.381254870049488
 21
7.459999999999999
 31
0.0
  0
ENDBLK
  5
2BD
330
2A5
100
AcDbEntity
  8
0
100
AcDbBlockEnd
  0
BLOCK
  5
33A
330
32F
100
AcDbEntity
  8
0
100
AcDbBlockBegin
  2
*D25
 70
     1
 10
0.0
 20
0.0
 30
0.0
  3
*D25
  1

  0
LINE
  5
672
330
32F
100
AcDbEntity
  8
0
 62
     0
370
    -2
100
AcDbLine
 10
14.17461209204896
 20
6.534488602914
 30
0.0
 11
14.17461209204896
 21
5.954547542113997
 31
0.0
  0
LINE
  5
673
330
32F
100
AcDbEntity
  8
0
 62
     0
370
    -2
100
AcDbLine
 10
16.32864757824896
 20
6.534488602914
 30
0.0
 11
16.32864757824896
 21
5.954547542113997
 31
0.0
  0
LINE
  5
674
330
32F
100
AcDbEntity
  8
0
 62
     0
370
    -2
100
AcDbLine
 10
14.35461209204896
 20
6.047547542113997
 30
0.0
 11
14.95040696484896
 21
6.047547542113997
 31
0.0
  0
LINE
  5
675
330
32F
100
AcDbEntity
  8
0
 62
     0
370
    -2
100
AcDbLine
 10
16.14864757824896
 20
6.047547542113997
 30
0.0
 11
15.47415696484896
 21
6.047547542113997
 31
0.0
  0
SOLID
  5
676
330
32F
100
AcDbEntity
  8
0
 62
     0
100
AcDbTrace
 10
14.35461209204896
 20
6.077547542113998
 30
0.0
 11
14.35461209204896
 21
6.017547542113997
 31
0.0
 12
14.17461209204896
 22
6.047547542113997
 32
0.0
 13
14.17461209204896
 23
6.047547542113997
 33
0.0
  0
SOLID
  5
677
330
32F
100
AcDbEntity
  8
0
 62
     0
100
AcDbTrace
 10
16.14864757824896
 20
6.077547542113998
 30
0.0
 11
16.14864757824896
 21
6.017547542113997
 31
0.0
 12
16.32864757824896
 22
6.047547542113997
 32
0.0
 13
16.32864757824896
 23
6.047547542113997
 33
0.0
  0
MTEXT
  5
678
330
32F
100
AcDbEntity
  8
0
 62
     0
100
AcDbMText
 10
15.21228196484896
 20
6.047547542113997
 30
0.0
 40
0.125
 41
0.0
 71
     5
 72
     1
  1
\A1;2.154
  7
TXT
 73
     1
 44
1.0
  0
POINT
  5
679
330
32F
100
AcDbEntity
  8
Defpoints
 62
     0
100
AcDbPoint
 10
14.17461209204896
 20
6.597488602913999
 30
0.0
  0
POINT
  5
67A
330
32F
100
AcDbEntity
  8
Defpoints
 62
     0
100
AcDbPoint
 10
16.32864757824896
 20
6.597488602913999
 30
0.0
  0
POINT
  5
67B
330
32F
100
AcDbEntity
  8
Defpoints
 62
     0
100
AcDbPoint
 10
16.32864757824896
 20
6.047547542113997
 30
0.0
  0
ENDBLK
  5
33B
330
32F
100
AcDbEntity
  8
0
100
AcDbBlockEnd
  0
BLOCK
  5
347
330
33C
100
AcDbEntity
  8
0
100
AcDbBlockBegin
  2
*D26
 70
     1
 10
0.0
 20
0.0
 30
0.0
  3
*D26
  1

  0
LINE
  5
67C
330
33C
100
AcDbEntity
  8
0
 62
     0
370
    -2
100
AcDbLine
 10
16.39164757824896
 20
6.597488602913999
 30
0.0
 11
17.06626211454896
 21
6.597488602913999
 31
0.0
  0
LINE
  5
67D
330
33C
100
AcDbEntity
  8
0
 62
     0
370
    -2
100
AcDbLine
 10
16.37147035974896
 20
7.420323248613999
 30
0.0
 11
17.06626211454896
 21
7.420323248613999
 31
0.0
  0
LINE
  5
67E
330
33C
100
AcDbEntity
  8
0
 62
     0
370
    -2
100
AcDbLine
 10
16.97326211454896
 20
6.777488602913999
 30
0.0
 11
16.97326211454896
 21
6.857305267913996
 31
0.0
  0
LINE
  5
67F
330
33C
100
AcDbEntity
  8
0
 62
     0
370
    -2
100
AcDbLine
 10
16.97326211454896
 20
7.240323248613999
 30
0.0
 11
16.97326211454896
 21
7.162305267913995
 31
0.0
  0
SOLID
  5
680
330
33C
100
AcDbEntity
  8
0
 62
     0
100
AcDbTrace
 10
16.94326211454896
 20
6.777488602913999
 30
0.0
 11
17.00326211454896
 21
6.777488602913999
 31
0.0
 12
16.97326211454896
 22
6.597488602913999
 32
0.0
 13
16.97326211454896
 23
6.597488602913999
 33
0.0
  0
SOLID
  5
681
330
33C
100
AcDbEntity
  8
0
 62
     0
100
AcDbTrace
 10
16.94326211454896
 20
7.240323248613999
 30
0.0
 11
17.00326211454896
 21
7.240323248613999
 31
0.0
 12
16.97326211454896
 22
7.420323248613999
 32
0.0
 13
16.97326211454896
 23
7.420323248613999
 33
0.0
  0
MTEXT
  5
682
330
33C
100
AcDbEntity
  8
0
 62
     0
100
AcDbMText
 10
16.97326211454896
 20
7.009805267913998
 30
0.0
 40
0.125
 41
0.0
 71
     5
 72
     1
  1
\A1;0.823
  7
TXT
 73
     1
 44
1.0
  0
POINT
  5
683
330
33C
100
AcDbEntity
  8
Defpoints
 62
     0
100
AcDbPoint
 10
16.32864757824896
 20
6.597488602913999
 30
0.0
  0
POINT
  5
684
330
33C
100
AcDbEntity
  8
Defpoints
 62
     0
100
AcDbPoint
 10
16.30847035974896
 20
7.420323248613999
 30
0.0
  0
POINT
  5
685
330
33C
100
AcDbEntity
  8
Defpoints
 62
     0
100
AcDbPoint
 10
16.97326211454896
 20
7.420323248613999
 30
0.0
  0
ENDBLK
  5
348
330
33C
100
AcDbEntity
  8
0
100
AcDbBlockEnd
  0
BLOCK
  5
354
330
349
100
AcDbEntity
  8
0
100
AcDbBlockBegin
  2
*D27
 70
     1
 10
0.0
 20
0.0
 30
0.0
  3
*D27
  1

  0
LINE
  5
619
330
349
100
AcDbEntity
  8
0
 62
     0
370
    -2
100
AcDbLine
 10
14.67067508414896
 20
10.286708813214
 30
0.0
 11
14.67067508414896
 21
10.962723825214
 31
0.0
  0
LINE
  5
61A
330
349
100
AcDbEntity
  8
0
 62
     0
370
    -2
100
AcDbLine
 10
15.77697429674896
 20
10.253136244214
 30
0.0
 11
15.77697429674896
 21
10.962723825214
 31
0.0
  0
LINE
  5
61B
330
349
100
AcDbEntity
  8
0
 62
     0
370
    -2
100
AcDbLine
 10
14.85067508414896
 20
10.86972382521399
 30
0.0
 11
14.95931132752717
 21
10.86972382521399
 31
0.0
  0
LINE
  5
61C
330
349
100
AcDbEntity
  8
0
 62
     0
370
    -2
100
AcDbLine
 10
15.59697429674896
 20
10.86972382521399
 30
0.0
 11
15.43618632752717
 21
10.86972382521399
 31
0.0
  0
SOLID
  5
61D
330
349
100
AcDbEntity
  8
0
 62
     0
100
AcDbTrace
 10
14.85067508414896
 20
10.89972382521399
 30
0.0
 11
14.85067508414896
 21
10.839723825214
 31
0.0
 12
14.67067508414896
 22
10.86972382521399
 32
0.0
 13
14.67067508414896
 23
10.86972382521399
 33
0.0
  0
SOLID
  5
61E
330
349
100
AcDbEntity
  8
0
 62
     0
100
AcDbTrace
 10
15.59697429674896
 20
10.89972382521399
 30
0.0
 11
15.59697429674896
 21
10.839723825214
 31
0.0
 12
15.77697429674896
 22
10.86972382521399
 32
0.0
 13
15.77697429674896
 23
10.86972382521399
 33
0.0
  0
MTEXT
  5
61F
330
349
100
AcDbEntity
  8
0
 62
     0
100
AcDbMText
 10
15.19774882752717
 20
10.86972382521399
 30
0.0
 40
0.125
 41
0.0
 71
     5
 72
     1
  1
\A1;1.106
  7
TXT
 73
     1
 44
1.0
  0
POINT
  5
620
330
349
100
AcDbEntity
  8
Defpoints
 62
     0
100
AcDbPoint
 10
14.67067508414896
 20
10.223708813214
 30
0.0
  0
POINT
  5
621
330
349
100
AcDbEntity
  8
Defpoints
 62
     0
100
AcDbPoint
 10
15.77697429674896
 20
10.19013624421399
 30
0.0
  0
POINT
  5
622
330
349
100
AcDbEntity
  8
Defpoints
 62
     0
100
AcDbPoint
 10
15.77697429674896
 20
10.86972382521399
 30
0.0
  0
ENDBLK
  5
355
330
349
100
AcDbEntity
  8
0
100
AcDbBlockEnd
  0
BLOCK
  5
361
330
356
100
AcDbEntity
  8
0
100
AcDbBlockBegin
  2
*D28
 70
     1
 10
0.0
 20
0.0
 30
0.0
  3
*D28
  1

  0
LINE
  5
623
330
356
100
AcDbEntity
  8
0
 62
     0
370
    -2
100
AcDbLine
 10
14.17461209204896
 20
10.350702185714
 30
0.0
 11
14.17461209204896
 21
10.962723825214
 31
0.0
  0
LINE
  5
624
330
356
100
AcDbEntity
  8
0
 62
     0
370
    -2
100
AcDbLine
 10
14.67067508414896
 20
10.286708813214
 30
0.0
 11
14.67067508414896
 21
10.962723825214
 31
0.0
  0
LINE
  5
625
330
356
100
AcDbEntity
  8
0
 62
     0
370
    -2
100
AcDbLine
 10
14.85067508414896
 20
10.86972382521399
 30
0.0
 11
15.03067508414896
 21
10.86972382521399
 31
0.0
  0
LINE
  5
626
330
356
100
AcDbEntity
  8
0
 62
     0
370
    -2
100
AcDbLine
 10
13.99461209204896
 20
10.86972382521399
 30
0.0
 11
13.64929959204896
 21
10.86972382521399
 31
0.0
  0
SOLID
  5
627
330
356
100
AcDbEntity
  8
0
 62
     0
100
AcDbTrace
 10
14.85067508414896
 20
10.89972382521399
 30
0.0
 11
14.85067508414896
 21
10.839723825214
 31
0.0
 12
14.67067508414896
 22
10.86972382521399
 32
0.0
 13
14.67067508414896
 23
10.86972382521399
 33
0.0
  0
SOLID
  5
628
330
356
100
AcDbEntity
  8
0
 62
     0
100
AcDbTrace
 10
13.99461209204896
 20
10.89972382521399
 30
0.0
 11
13.99461209204896
 21
10.839723825214
 31
0.0
 12
14.17461209204896
 22
10.86972382521399
 32
0.0
 13
14.17461209204896
 23
10.86972382521399
 33
0.0
  0
MTEXT
  5
629
330
356
100
AcDbEntity
  8
0
 62
     0
100
AcDbMText
 10
13.37961209204896
 20
10.86972382521399
 30
0.0
 40
0.125
 41
0.0
 71
     5
 72
     1
  1
\A1;0.496
  7
TXT
 73
     1
 44
1.0
  0
POINT
  5
62A
330
356
100
AcDbEntity
  8
Defpoints
 62
     0
100
AcDbPoint
 10
14.17461209204896
 20
10.287702185714
 30
0.0
  0
POINT
  5
62B
330
356
100
AcDbEntity
  8
Defpoints
 62
     0
100
AcDbPoint
 10
14.67067508414896
 20
10.223708813214
 30
0.0
  0
POINT
  5
62C
330
356
100
AcDbEntity
  8
Defpoints
 62
     0
100
AcDbPoint
 10
14.67067508414896
 20
10.86972382521399
 30
0.0
  0
ENDBLK
  5
362
330
356
100
AcDbEntity
  8
0
100
AcDbBlockEnd
  0
BLOCK
  5
36E
330
363
100
AcDbEntity
  8
0
100
AcDbBlockBegin
  2
*D29
 70
     1
 10
0.0
 20
0.0
 30
0.0
  3
*D29
  1

  0
LINE
  5
64A
330
363
100
AcDbEntity
  8
0
 62
     0
370
    -2
100
AcDbLine
 10
14.17461209204896
 20
9.039355729013996
 30
0.0
 11
14.17461209204896
 21
8.341149682901033
 31
0.0
  0
LINE
  5
64B
330
363
100
AcDbEntity
  8
0
 62
     0
370
    -2
100
AcDbLine
 10
15.23366721014896
 20
9.118095886513998
 30
0.0
 11
15.23366721014896
 21
8.341149682901033
 31
0.0
  0
LINE
  5
64C
330
363
100
AcDbEntity
  8
0
 62
     0
370
    -2
100
AcDbLine
 10
14.35461209204896
 20
8.434149682901033
 30
0.0
 11
14.44971911553742
 21
8.434149682901033
 31
0.0
  0
LINE
  5
64D
330
363
100
AcDbEntity
  8
0
 62
     0
370
    -2
100
AcDbLine
 10
15.05366721014896
 20
8.434149682901033
 30
0.0
 11
14.95784411553741
 21
8.434149682901033
 31
0.0
  0
SOLID
  5
64E
330
363
100
AcDbEntity
  8
0
 62
     0
100
AcDbTrace
 10
14.35461209204896
 20
8.464149682901032
 30
0.0
 11
14.35461209204896
 21
8.404149682901033
 31
0.0
 12
14.17461209204896
 22
8.434149682901033
 32
0.0
 13
14.17461209204896
 23
8.434149682901033
 33
0.0
  0
SOLID
  5
64F
330
363
100
AcDbEntity
  8
0
 62
     0
100
AcDbTrace
 10
15.05366721014896
 20
8.464149682901032
 30
0.0
 11
15.05366721014896
 21
8.404149682901033
 31
0.0
 12
15.23366721014896
 22
8.434149682901033
 32
0.0
 13
15.23366721014896
 23
8.434149682901033
 33
0.0
  0
MTEXT
  5
650
330
363
100
AcDbEntity
  8
0
 62
     0
100
AcDbMText
 10
14.70378161553742
 20
8.434149682901033
 30
0.0
 40
0.125
 41
0.0
 71
     5
 72
     1
  1
\A1;1.059
  7
TXT
 73
     1
 44
1.0
  0
POINT
  5
651
330
363
100
AcDbEntity
  8
Defpoints
 62
     0
100
AcDbPoint
 10
14.17461209204896
 20
9.102355729013996
 30
0.0
  0
POINT
  5
652
330
363
100
AcDbEntity
  8
Defpoints
 62
     0
100
AcDbPoint
 10
15.23366721014896
 20
9.181095886513999
 30
0.0
  0
POINT
  5
653
330
363
100
AcDbEntity
  8
Defpoints
 62
     0
100
AcDbPoint
 10
15.23366721014896
 20
8.434149682901033
 30
0.0
  0
ENDBLK
  5
36F
330
363
100
AcDbEntity
  8
0
100
AcDbBlockEnd
  0
BLOCK
  5
37C
330
370
100
AcDbEntity
  8
0
100
AcDbBlockBegin
  2
*D30
 70
     1
 10
0.0
 20
0.0
 30
0.0
  3
*D30
  1

  0
LINE
  5
62D
330
370
100
AcDbEntity
  8
0
 62
     0
370
    -2
100
AcDbLine
 10
15.17066721014896
 20
9.262391162113997
 30
0.0
 11
14.75668261591598
 21
9.262391162113997
 31
0.0
  0
LINE
  5
62E
330
370
100
AcDbEntity
  8
0
 62
     0
370
    -2
100
AcDbLine
 10
14.54712418804896
 20
10.12766675261399
 30
0.0
 11
14.94268261591598
 21
10.12766675261399
 31
0.0
  0
LINE
  5
62F
330
370
100
AcDbEntity
  8
0
 62
     0
370
    -2
100
AcDbLine
 10
14.84968261591599
 20
9.442391162113997
 30
0.0
 11
14.84968261591599
 21
9.572728652931035
 31
0.0
  0
LINE
  5
630
330
370
100
AcDbEntity
  8
0
 62
     0
370
    -2
100
AcDbLine
 10
14.84968261591599
 20
9.947666752613997
 30
0.0
 11
14.84968261591599
 21
9.877728652931034
 31
0.0
  0
SOLID
  5
631
330
370
100
AcDbEntity
  8
0
 62
     0
100
AcDbTrace
 10
14.81968261591599
 20
9.442391162113997
 30
0.0
 11
14.87968261591599
 21
9.442391162113997
 31
0.0
 12
14.84968261591599
 22
9.262391162113997
 32
0.0
 13
14.84968261591599
 23
9.262391162113997
 33
0.0
  0
SOLID
  5
632
330
370
100
AcDbEntity
  8
0
 62
     0
100
AcDbTrace
 10
14.81968261591599
 20
9.947666752613997
 30
0.0
 11
14.87968261591599
 21
9.947666752613997
 31
0.0
 12
14.84968261591599
 22
10.12766675261399
 32
0.0
 13
14.84968261591599
 23
10.12766675261399
 33
0.0
  0
MTEXT
  5
633
330
370
100
AcDbEntity
  8
0
 62
     0
100
AcDbMText
 10
14.84968261591598
 20
9.725228652931036
 30
0.0
 40
0.125
 41
0.0
 71
     5
 72
     1
  1
\A1;0.865
  7
TXT
 73
     1
 44
1.0
  0
POINT
  5
634
330
370
100
AcDbEntity
  8
Defpoints
 62
     0
100
AcDbPoint
 10
15.23366721014896
 20
9.262391162113997
 30
0.0
  0
POINT
  5
635
330
370
100
AcDbEntity
  8
Defpoints
 62
     0
100
AcDbPoint
 10
14.48412418804896
 20
10.12766675261399
 30
0.0
  0
POINT
  5
636
330
370
100
AcDbEntity
  8
Defpoints
 62
     0
100
AcDbPoint
 10
14.84968261591599
 20
10.12766675261399
 30
0.0
  0
ENDBLK
  5
37D
330
370
100
AcDbEntity
  8
0
100
AcDbBlockEnd
  0
BLOCK
  5
38A
330
37E
100
AcDbEntity
  8
0
100
AcDbBlockBegin
  2
*D31
 70
     1
 10
0.0
 20
0.0
 30
0.0
  3
*D31
  1

  0
LINE
  5
637
330
37E
100
AcDbEntity
  8
0
 62
     0
370
    -2
100
AcDbLine
 10
14.23761209204896
 20
9.102355729013996
 30
0.0
 11
14.94268261591598
 21
9.102355729013996
 31
0.0
  0
LINE
  5
638
330
37E
100
AcDbEntity
  8
0
 62
     0
370
    -2
100
AcDbLine
 10
15.17066721014896
 20
9.262391162113997
 30
0.0
 11
14.75668261591598
 21
9.262391162113997
 31
0.0
  0
LINE
  5
639
330
37E
100
AcDbEntity
  8
0
 62
     0
370
    -2
100
AcDbLine
 10
14.84968261591599
 20
9.442391162113997
 30
0.0
 11
14.84968261591599
 21
9.622391162113997
 31
0.0
  0
LINE
  5
63A
330
37E
100
AcDbEntity
  8
0
 62
     0
370
    -2
100
AcDbLine
 10
14.84968261591599
 20
8.922355729013997
 30
0.0
 11
14.84968261591599
 21
8.742355729013997
 31
0.0
  0
LINE
  5
63B
330
37E
100
AcDbEntity
  8
0
 62
     0
370
    -2
100
AcDbLine
 10
14.84968261591599
 20
8.742355729013997
 30
0.0
 11
14.66968261591599
 21
8.742355729013997
 31
0.0
  0
SOLID
  5
63C
330
37E
100
AcDbEntity
  8
0
 62
     0
100
AcDbTrace
 10
14.81968261591599
 20
9.442391162113997
 30
0.0
 11
14.87968261591599
 21
9.442391162113997
 31
0.0
 12
14.84968261591599
 22
9.262391162113997
 32
0.0
 13
14.84968261591599
 23
9.262391162113997
 33
0.0
  0
SOLID
  5
63D
330
37E
100
AcDbEntity
  8
0
 62
     0
100
AcDbTrace
 10
14.81968261591599
 20
8.922355729013997
 30
0.0
 11
14.87968261591599
 21
8.922355729013997
 31
0.0
 12
14.84968261591599
 22
9.102355729013996
 32
0.0
 13
14.84968261591599
 23
9.102355729013996
 33
0.0
  0
MTEXT
  5
63E
330
37E
100
AcDbEntity
  8
0
 62
     0
100
AcDbMText
 10
14.42343261591599
 20
8.742355729014001
 30
0.0
 40
0.125
 41
0.0
 71
     5
 72
     1
  1
\A1;0.160
  7
TXT
 73
     1
 44
1.0
  0
POINT
  5
63F
330
37E
100
AcDbEntity
  8
Defpoints
 62
     0
100
AcDbPoint
 10
14.17461209204896
 20
9.102355729013996
 30
0.0
  0
POINT
  5
640
330
37E
100
AcDbEntity
  8
Defpoints
 62
     0
100
AcDbPoint
 10
15.23366721014896
 20
9.262391162113997
 30
0.0
  0
POINT
  5
641
330
37E
100
AcDbEntity
  8
Defpoints
 62
     0
100
AcDbPoint
 10
14.84968261591599
 20
9.262391162113997
 30
0.0
  0
ENDBLK
  5
38B
330
37E
100
AcDbEntity
  8
0
100
AcDbBlockEnd
  0
BLOCK
  5
396
330
38C
100
AcDbEntity
  8
0
100
AcDbBlockBegin
  2
*D32
 70
     1
 10
0.0
 20
0.0
 30
0.0
  3
*D32
  1

  0
LINE
  5
642
330
38C
100
AcDbEntity
  8
0
 62
     0
370
    -2
100
AcDbLine
 10
15.70853196484896
 20
8.138974645514
 30
0.0
 11
15.96459296706423
 21
8.138974645513998
 31
0.0
  0
LINE
  5
643
330
38C
100
AcDbEntity
  8
0
 62
     0
370
    -2
100
AcDbLine
 10
15.96459296706423
 20
8.138974645513998
 30
0.0
 11
15.35652307600345
 21
9.073564448105983
 31
0.0
  0
MTEXT
  5
644
330
38C
100
AcDbEntity
  8
0
 62
     0
100
AcDbMText
 10
15.21228196484896
 20
8.138974645514
 30
0.0
 40
0.125
 41
0.0
 71
     5
 72
     1
  1
\A1;\U+22050.091 (3X)
  7
TXT
 73
     1
 44
1.0
  0
SOLID
  5
645
330
38C
100
AcDbEntity
  8
0
 62
     0
100
AcDbTrace
 10
15.38166917108812
 20
9.089925190815066
 30
0.0
 11
15.33137698091878
 21
9.057203705396901
 31
0.0
 12
15.25835861974896
 22
9.224441018613999
 32
0.0
 13
15.25835861974896
 23
9.224441018613999
 33
0.0
  0
LINE
  5
646
330
38C
100
AcDbEntity
  8
0
 62
     0
370
    -2
100
AcDbLine
 10
15.14366721014896
 20
9.262391162113996
 30
0.0
 11
15.32366721014896
 21
9.262391162113994
 31
0.0
  0
LINE
  5
647
330
38C
100
AcDbEntity
  8
0
 62
     0
370
    -2
100
AcDbLine
 10
15.23366721014896
 20
9.172391162113996
 30
0.0
 11
15.23366721014896
 21
9.352391162113995
 31
0.0
  0
POINT
  5
648
330
38C
100
AcDbEntity
  8
Defpoints
 62
     0
100
AcDbPoint
 10
15.25835861974896
 20
9.224441018613999
 30
0.0
  0
POINT
  5
649
330
38C
100
AcDbEntity
  8
Defpoints
 62
     0
100
AcDbPoint
 10
15.20897580054896
 20
9.300341305613994
 30
0.0
  0
ENDBLK
  5
397
330
38C
100
AcDbEntity
  8
0
100
AcDbBlockEnd
  0
BLOCK
  5
3A3
330
398
100
AcDbEntity
  8
0
100
AcDbBlockBegin
  2
*D33
 70
     1
 10
0.0
 20
0.0
 30
0.0
  3
*D33
  1

  0
LINE
  5
65E
330
398
100
AcDbEntity
  8
0
 62
     0
370
    -2
100
AcDbLine
 10
16.30847035974896
 20
9.039355729013996
 30
0.0
 11
16.30847035974896
 21
8.371267627313999
 31
0.0
  0
LINE
  5
65F
330
398
100
AcDbEntity
  8
0
 62
     0
370
    -2
100
AcDbLine
 10
19.29079877834896
 20
9.380308178813997
 30
0.0
 11
19.29079877834896
 21
8.371267627313999
 31
0.0
  0
LINE
  5
660
330
398
100
AcDbEntity
  8
0
 62
     0
370
    -2
100
AcDbLine
 10
16.48847035974896
 20
8.464267627313999
 30
0.0
 11
17.51575824424896
 21
8.464267627313999
 31
0.0
  0
LINE
  5
661
330
398
100
AcDbEntity
  8
0
 62
     0
370
    -2
100
AcDbLine
 10
19.11079877834896
 20
8.464267627313999
 30
0.0
 11
18.16450824424896
 21
8.464267627313999
 31
0.0
  0
SOLID
  5
662
330
398
100
AcDbEntity
  8
0
 62
     0
100
AcDbTrace
 10
16.48847035974896
 20
8.494267627313998
 30
0.0
 11
16.48847035974896
 21
8.434267627314
 31
0.0
 12
16.30847035974896
 22
8.464267627313999
 32
0.0
 13
16.30847035974896
 23
8.464267627313999
 33
0.0
  0
SOLID
  5
663
330
398
100
AcDbEntity
  8
0
 62
     0
100
AcDbTrace
 10
19.11079877834896
 20
8.494267627313998
 30
0.0
 11
19.11079877834896
 21
8.434267627314
 31
0.0
 12
19.29079877834896
 22
8.464267627313999
 32
0.0
 13
19.29079877834896
 23
8.464267627313999
 33
0.0
  0
MTEXT
  5
664
330
398
100
AcDbEntity
  8
0
 62
     0
100
AcDbMText
 10
17.84013324424896
 20
8.464267627313999
 30
0.0
 40
0.125
 41
0.0
 71
     5
 72
     1
  1
\A1;6.0%%p0.2
  7
TXT
 73
     1
 44
1.0
  0
POINT
  5
665
330
398
100
AcDbEntity
  8
Defpoints
 62
     0
100
AcDbPoint
 10
16.30847035974896
 20
9.102355729013996
 30
0.0
  0
POINT
  5
666
330
398
100
AcDbEntity
  8
Defpoints
 62
     0
100
AcDbPoint
 10
19.29079877834896
 20
9.443308178813998
 30
0.0
  0
POINT
  5
667
330
398
100
AcDbEntity
  8
Defpoints
 62
     0
100
AcDbPoint
 10
19.29079877834896
 20
8.464267627313999
 30
0.0
  0
ENDBLK
  5
3A4
330
398
100
AcDbEntity
  8
0
100
AcDbBlockEnd
  0
BLOCK
  5
3B0
330
3A5
100
AcDbEntity
  8
0
100
AcDbBlockBegin
  2
*D34
 70
     1
 10
0.0
 20
0.0
 30
0.0
  3
*D34
  1

  0
LINE
  5
654
330
3A5
100
AcDbEntity
  8
0
 62
     0
370
    -2
100
AcDbLine
 10
19.29079877834896
 20
9.380308178813997
 30
0.0
 11
19.29079877834896
 21
8.872201240414
 31
0.0
  0
LINE
  5
655
330
3A5
100
AcDbEntity
  8
0
 62
     0
370
    -2
100
AcDbLine
 10
18.92511693404896
 20
9.344875107913997
 30
0.0
 11
18.92511693404896
 21
8.872201240414
 31
0.0
  0
LINE
  5
656
330
3A5
100
AcDbEntity
  8
0
 62
     0
370
    -2
100
AcDbLine
 10
19.47079877834896
 20
8.965201240414
 30
0.0
 11
19.65079877834896
 21
8.965201240414
 31
0.0
  0
LINE
  5
657
330
3A5
100
AcDbEntity
  8
0
 62
     0
370
    -2
100
AcDbLine
 10
18.74511693404896
 20
8.965201240414
 30
0.0
 11
18.39271329054896
 21
8.965201240414
 31
0.0
  0
SOLID
  5
658
330
3A5
100
AcDbEntity
  8
0
 62
     0
100
AcDbTrace
 10
19.47079877834896
 20
8.995201240413999
 30
0.0
 11
19.47079877834896
 21
8.935201240414
 31
0.0
 12
19.29079877834896
 22
8.965201240414
 32
0.0
 13
19.29079877834896
 23
8.965201240414
 33
0.0
  0
SOLID
  5
659
330
3A5
100
AcDbEntity
  8
0
 62
     0
100
AcDbTrace
 10
18.74511693404896
 20
8.995201240413999
 30
0.0
 11
18.74511693404896
 21
8.935201240414
 31
0.0
 12
18.92511693404896
 22
8.965201240414
 32
0.0
 13
18.92511693404896
 23
8.965201240414
 33
0.0
  0
MTEXT
  5
65A
330
3A5
100
AcDbEntity
  8
0
 62
     0
100
AcDbMText
 10
17.74021329054896
 20
8.965201240414
 30
0.0
 40
0.125
 41
0.0
 71
     5
 72
     1
  1
\A1;0.2\P(LEAD LENGTH)
  7
TXT
 73
     1
 44
1.0
  0
POINT
  5
65B
330
3A5
100
AcDbEntity
  8
Defpoints
 62
     0
100
AcDbPoint
 10
19.29079877834896
 20
9.443308178813998
 30
0.0
  0
POINT
  5
65C
330
3A5
100
AcDbEntity
  8
Defpoints
 62
     0
100
AcDbPoint
 10
18.92511693404896
 20
9.407875107913998
 30
0.0
  0
POINT
  5
65D
330
3A5
100
AcDbEntity
  8
Defpoints
 62
     0
100
AcDbPoint
 10
18.92511693404896
 20
8.965201240414
 30
0.0
  0
ENDBLK
  5
3B1
330
3A5
100
AcDbEntity
  8
0
100
AcDbBlockEnd
  0
BLOCK
  5
3BD
330
3B2
100
AcDbEntity
  8
0
100
AcDbBlockBegin
  2
*D35
 70
     1
 10
0.0
 20
0.0
 30
0.0
  3
*D35
  1

  0
LINE
  5
668
330
3B2
100
AcDbEntity
  8
0
  6
Continuous
 62
     0
370
    -2
100
AcDbLine
 10
18.17120741454896
 20
6.534488602914
 30
0.0
 11
18.17120741454896
 21
5.963246653613998
 31
0.0
  0
LINE
  5
669
330
3B2
100
AcDbEntity
  8
0
  6
Continuous
 62
     0
370
    -2
100
AcDbLine
 10
19.35655387124896
 20
6.534488602914
 30
0.0
 11
19.35655387124896
 21
5.963246653613998
 31
0.0
  0
LINE
  5
66A
330
3B2
100
AcDbEntity
  8
0
  6
Continuous
 62
     0
370
    -2
100
AcDbLine
 10
18.35120741454896
 20
6.056246653613998
 30
0.0
 11
18.51408493454896
 21
6.056246653613998
 31
0.0
  0
LINE
  5
66B
330
3B2
100
AcDbEntity
  8
0
  6
Continuous
 62
     0
370
    -2
100
AcDbLine
 10
19.17655387124896
 20
6.056246653613998
 30
0.0
 11
19.00658493454896
 21
6.056246653613998
 31
0.0
  0
SOLID
  5
66C
330
3B2
100
AcDbEntity
  8
0
  6
Continuous
 62
     0
100
AcDbTrace
 10
18.35120741454896
 20
6.086246653613998
 30
0.0
 11
18.35120741454896
 21
6.026246653613998
 31
0.0
 12
18.17120741454896
 22
6.056246653613998
 32
0.0
 13
18.17120741454896
 23
6.056246653613998
 33
0.0
  0
SOLID
  5
66D
330
3B2
100
AcDbEntity
  8
0
  6
Continuous
 62
     0
100
AcDbTrace
 10
19.17655387124896
 20
6.086246653613998
 30
0.0
 11
19.17655387124896
 21
6.026246653613998
 31
0.0
 12
19.35655387124896
 22
6.056246653613998
 32
0.0
 13
19.35655387124896
 23
6.056246653613998
 33
0.0
  0
MTEXT
  5
66E
330
3B2
100
AcDbEntity
  8
0
  6
Continuous
 62
     0
370
     0
100
AcDbMText
 10
18.76033493454896
 20
6.056246653613998
 30
0.0
 40
0.125
 41
0.0
 71
     5
 72
     1
  1
\A1;1.185
  7
TXT
 73
     1
 44
1.0
  0
POINT
  5
66F
330
3B2
100
AcDbEntity
  8
Defpoints
  6
Continuous
 62
     0
100
AcDbPoint
 10
18.17120741454896
 20
6.597488602913999
 30
0.0
  0
POINT
  5
670
330
3B2
100
AcDbEntity
  8
Defpoints
  6
Continuous
 62
     0
100
AcDbPoint
 10
19.35655387124896
 20
6.597488602913999
 30
0.0
  0
POINT
  5
671
330
3B2
100
AcDbEntity
  8
Defpoints
  6
Continuous
 62
     0
100
AcDbPoint
 10
19.35655387124896
 20
6.056246653613998
 30
0.0
  0
ENDBLK
  5
3BE
330
3B2
100
AcDbEntity
  8
0
100
AcDbBlockEnd
  0
ENDSEC
  0
SECTION
  2
ENTITIES
  0
INSERT
  5
1F3
330
1F
100
AcDbEntity
  8
0
  6
Continuous
 62
     7
370
     0
100
AcDbBlockReference
  2
Block1
 10
0.6156177606000001
 20
7.417808880299998
 30
0.0
  0
INSERT
  5
2BE
330
1F
100
AcDbEntity
  8
0
100
AcDbBlockReference
  2
HBA
 10
11.54625998164896
 20
4.530003507113999
 30
0.0
  0
DIMENSION
  5
2BF
330
1F
100
AcDbEntity
  8
0
100
AcDbDimension
  2
*D26
 10
16.97326211454896
 20
7.420323248613999
 30
0.0
 11
16.97326211454896
 21
7.009805267913998
 31
0.0
 70
   160
 71
     5
 42
0.8228346456999995
  3
23NSTD
100
AcDbAlignedDimension
 13
16.32864757824896
 23
6.597488602913999
 33
0.0
 14
16.30847035974896
 24
7.420323248613999
 34
0.0
 50
90.0
100
AcDbRotatedDimension
  0
MTEXT
  5
2C0
330
1F
100
AcDbEntity
  8
0
  6
Continuous
 62
     7
370
     0
100
AcDbMText
 10
13.96029051064896
 20
5.023226710413998
 30
0.0
 40
0.1377952756
 41
0.0
 71
     1
 72
     1
  1
{ALL TOLERANCES ARE +/-0.015 UNLESS OTHERWISE SPECIFIED.}
  7
SLDTEXTSTYLE2
 73
     1
 44
1.0
  0
DIMENSION
  5
2C1
330
1F
100
AcDbEntity
  8
0
100
AcDbDimension
  2
*D33
 10
19.29079877834896
 20
8.464267627313999
 30
0.0
 11
17.84013324424896
 21
8.464267627313999
 31
0.0
 70
   160
  1
6.0%%p0.2
 71
     5
 42
2.982328418600001
  3
23NSTD
100
AcDbAlignedDimension
 13
16.30847035974896
 23
9.102355729013996
 33
0.0
 14
19.29079877834896
 24
9.443308178813998
 34
0.0
100
AcDbRotatedDimension
  0
LINE
  5
2C2
330
1F
100
AcDbEntity
  8
0
  6
Continuous
 62
     7
370
     0
100
AcDbLine
 10
16.30847035974896
 20
9.478741249613998
 30
0.0
 11
17.92294960284896
 21
9.478741249613998
 31
0.0
  0
LINE
  5
2C3
330
1F
100
AcDbEntity
  8
0
  6
Continuous
 62
     7
370
     0
100
AcDbLine
 10
16.30847035974896
 20
9.407875107913998
 30
0.0
 11
17.92294960284896
 21
9.407875107913998
 31
0.0
  0
LINE
  5
2C4
330
1F
100
AcDbEntity
  8
0
  6
Continuous
 62
     7
370
     0
100
AcDbLine
 10
16.30847035974896
 20
9.911316665114
 30
0.0
 11
17.92294960284896
 21
9.911316665114
 31
0.0
  0
LINE
  5
2C5
330
1F
100
AcDbEntity
  8
0
  6
Continuous
 62
     7
370
     0
100
AcDbLine
 10
16.30847035974896
 20
9.982182806813998
 30
0.0
 11
17.92294960284896
 21
9.982182806813998
 31
0.0
  0
DIMENSION
  5
2C6
330
1F
100
AcDbEntity
  8
0
100
AcDbDimension
  2
*D32
 10
15.20897580054896
 20
9.300341305613994
 30
0.0
 11
15.21228196484896
 21
8.138974645514
 31
0.0
 70
   163
  1
<> (3X)
 71
     5
 42
0.0905511811011959
  3
23NSTD
100
AcDbDiametricDimension
 15
15.25835861974896
 25
9.224441018613999
 35
0.0
 40
0.0
  0
DIMENSION
  5
2C7
330
1F
100
AcDbEntity
  8
0
100
AcDbDimension
  2
*D25
 10
16.32864757824896
 20
6.047547542113997
 30
0.0
 11
15.21228196484896
 21
6.047547542113997
 31
0.0
 70
   160
 71
     5
 42
2.154035486199997
  3
23NSTD
100
AcDbAlignedDimension
 13
14.17461209204896
 23
6.597488602913999
 33
0.0
 14
16.32864757824896
 24
6.597488602913999
 34
0.0
100
AcDbRotatedDimension
  0
LINE
  5
2C8
330
1F
100
AcDbEntity
  8
0
  6
Continuous
 62
     7
370
     0
100
AcDbLine
 10
14.17461209204896
 20
6.754968917913998
 30
0.0
 11
16.22973020224896
 21
6.754968917913998
 31
0.0
  0
LINE
  5
2C9
330
1F
100
AcDbEntity
  8
0
  6
Continuous
 62
     7
370
     0
100
AcDbLine
 10
14.42658059594896
 20
6.676228760413999
 30
0.0
 11
16.05650185584896
 21
6.676228760413999
 31
0.0
  0
LINE
  5
2CA
330
1F
100
AcDbEntity
  8
0
  6
Continuous
 62
     7
370
     0
100
AcDbLine
 10
14.21704112484896
 20
6.754968917913998
 30
0.0
 11
14.36133613404896
 21
7.114103162913998
 31
0.0
  0
LINE
  5
2CB
330
1F
100
AcDbEntity
  8
0
  6
Continuous
 62
     7
370
     0
100
AcDbLine
 10
14.17461209204896
 20
6.754968917913998
 30
0.0
 11
14.34681696404896
 21
7.183567710413997
 31
0.0
  0
LINE
  5
2CC
330
1F
100
AcDbEntity
  8
0
  6
Continuous
 62
     7
370
     0
100
AcDbLine
 10
14.17461209204896
 20
6.754968917913998
 30
0.0
 11
14.17461209204896
 21
6.597488602913999
 31
0.0
  0
LINE
  5
2CD
330
1F
100
AcDbEntity
  8
0
  6
Continuous
 62
     7
370
     0
100
AcDbLine
 10
14.17461209204896
 20
6.597488602913999
 30
0.0
 11
14.42658059594896
 21
6.597488602913999
 31
0.0
  0
LINE
  5
2CE
330
1F
100
AcDbEntity
  8
0
  6
Continuous
 62
     7
370
     0
100
AcDbLine
 10
14.42658059594896
 20
6.676228760413999
 30
0.0
 11
14.42658059594896
 21
6.597488602913999
 31
0.0
  0
ARC
  5
2CF
330
1F
100
AcDbEntity
  8
0
  6
Continuous
 62
     7
370
     0
100
AcDbCircle
 10
14.36508279514896
 20
7.176228760413998
 30
0.0
 40
0.0196850393700791
100
AcDbArc
 50
338.1104432300998
 51
90.0
  0
ARC
  5
2D0
330
1F
100
AcDbEntity
  8
0
  6
Continuous
 62
     7
370
     0
100
AcDbCircle
 10
14.36508279514896
 20
7.176228760413998
 30
0.0
 40
0.0196850393700787
100
AcDbArc
 50
90.0
 51
158.1104432301
  0
ARC
  5
2D1
330
1F
100
AcDbEntity
  8
0
  6
Continuous
 62
     7
370
     0
100
AcDbCircle
 10
14.37762629194896
 20
7.128772526613998
 30
0.0
 40
0.0196850393700788
100
AcDbArc
 50
338.1104432300998
 51
68.11044323010001
  0
ARC
  5
2D2
330
1F
100
AcDbEntity
  8
0
  6
Continuous
 62
     7
370
     0
100
AcDbCircle
 10
14.37762629194896
 20
7.128772526613998
 30
0.0
 40
0.019685039370079
100
AcDbArc
 50
248.1104432300999
 51
338.1104432300998
  0
LINE
  5
2D3
330
1F
100
AcDbEntity
  8
0
  6
Continuous
 62
     7
370
     0
100
AcDbLine
 10
14.37601403404896
 20
7.150634825213998
 30
0.0
 11
14.38334862634896
 21
7.168889810413997
 31
0.0
  0
LINE
  5
2D4
330
1F
100
AcDbEntity
  8
0
  6
Continuous
 62
     7
370
     0
100
AcDbLine
 10
14.36133613404896
 20
7.114103162913998
 30
0.0
 11
14.37028734194896
 21
7.110506695513999
 31
0.0
  0
LINE
  5
2D5
330
1F
100
AcDbEntity
  8
0
  6
Continuous
 62
     7
370
     0
100
AcDbLine
 10
14.37601403404896
 20
7.150634825213998
 30
0.0
 11
14.38496524194896
 21
7.147038357813997
 31
0.0
  0
LINE
  5
2D6
330
1F
100
AcDbEntity
  8
0
  6
Continuous
 62
     7
370
     0
100
AcDbLine
 10
16.22973020224896
 20
7.420323248613999
 30
0.0
 11
15.23366721014896
 21
6.754968917913998
 31
0.0
  0
LINE
  5
2D7
330
1F
100
AcDbEntity
  8
0
  6
Continuous
 62
     7
370
     0
100
AcDbLine
 10
16.22973020224896
 20
7.420323248613999
 30
0.0
 11
16.22973020224896
 21
6.754968917913998
 31
0.0
  0
LINE
  5
2D8
330
1F
100
AcDbEntity
  8
0
  6
Continuous
 62
     7
370
     0
100
AcDbLine
 10
16.30847035974896
 20
6.754968917913998
 30
0.0
 11
16.30847035974896
 21
7.420323248613999
 31
0.0
  0
LINE
  5
2D9
330
1F
100
AcDbEntity
  8
0
  6
Continuous
 62
     7
370
     0
100
AcDbLine
 10
15.15492705264896
 20
6.597488602913999
 30
0.0
 11
15.31240736764896
 21
6.597488602913999
 31
0.0
  0
LINE
  5
2DA
330
1F
100
AcDbEntity
  8
0
  6
Continuous
 62
     7
370
     0
100
AcDbLine
 10
15.15492705264896
 20
6.676228760413999
 30
0.0
 11
15.15492705264896
 21
6.597488602913999
 31
0.0
  0
LINE
  5
2DB
330
1F
100
AcDbEntity
  8
0
  6
Continuous
 62
     7
370
     0
100
AcDbLine
 10
15.31240736764896
 20
6.676228760413999
 30
0.0
 11
15.31240736764896
 21
6.597488602913999
 31
0.0
  0
LINE
  5
2DC
330
1F
100
AcDbEntity
  8
0
  6
Continuous
 62
     7
370
     0
100
AcDbLine
 10
16.05650185584896
 20
6.597488602913999
 30
0.0
 11
16.32864757824896
 21
6.597488602913999
 31
0.0
  0
LINE
  5
2DD
330
1F
100
AcDbEntity
  8
0
  6
Continuous
 62
     7
370
     0
100
AcDbLine
 10
16.05650185584896
 20
6.597488602913999
 30
0.0
 11
16.05650185584896
 21
6.676228760413999
 31
0.0
  0
LINE
  5
2DE
330
1F
100
AcDbEntity
  8
0
  6
Continuous
 62
     7
370
     0
100
AcDbLine
 10
16.32864757824896
 20
6.597488602913999
 30
0.0
 11
16.32864757824896
 21
6.754968917913998
 31
0.0
  0
LINE
  5
2DF
330
1F
100
AcDbEntity
  8
0
  6
Continuous
 62
     7
370
     0
100
AcDbLine
 10
16.30847035974896
 20
6.754968917913998
 30
0.0
 11
16.32864757824896
 21
6.754968917913998
 31
0.0
  0
LINE
  5
2E0
330
1F
100
AcDbEntity
  8
0
  6
Continuous
 62
     7
370
     0
100
AcDbLine
 10
16.30847035974896
 20
7.420323248613999
 30
0.0
 11
16.22973020224896
 21
7.420323248613999
 31
0.0
  0
DIMENSION
  5
2E1
330
1F
100
AcDbEntity
  8
0
100
AcDbDimension
  2
*D30
 10
14.84968261591599
 20
10.12766675261399
 30
0.0
 11
14.84968261591598
 21
9.725228652931036
 31
0.0
 70
   160
  1
<>
 71
     5
 42
0.8652755904999995
  3
23NSTD
100
AcDbAlignedDimension
 13
15.23366721014896
 23
9.262391162113997
 33
0.0
 14
14.48412418804896
 24
10.12766675261399
 34
0.0
 50
90.0
100
AcDbRotatedDimension
  0
DIMENSION
  5
2E2
330
1F
100
AcDbEntity
  8
0
100
AcDbDimension
  2
*D28
 10
14.67067508414896
 20
10.86972382521399
 30
0.0
 11
13.37961209204896
 21
10.86972382521399
 31
0.0
 70
   160
  1
<>
 71
     5
 42
0.4960629920999989
  3
23NSTD
100
AcDbAlignedDimension
 13
14.17461209204896
 23
10.287702185714
 33
0.0
 14
14.67067508414896
 24
10.223708813214
 34
0.0
100
AcDbRotatedDimension
  0
MTEXT
  5
2E3
330
1F
100
AcDbEntity
  8
0
  6
Continuous
 62
     7
370
     0
100
AcDbMText
 10
12.02191213224896
 20
11.676639273214
 30
0.0
 40
0.1666666667
 41
0.0
 71
     1
 72
     1
  1
{MATERIAL: POLYPROPYLENE}
  7
SLDTEXTSTYLE0
 73
     1
 44
1.0
  0
DIMENSION
  5
2E4
330
1F
100
AcDbEntity
  8
0
100
AcDbDimension
  2
*D27
 10
15.77697429674896
 20
10.86972382521399
 30
0.0
 11
15.19774882752717
 21
10.86972382521399
 31
0.0
 70
   160
  1
<>
 71
     5
 42
1.106299212600001
  3
23NSTD
100
AcDbAlignedDimension
 13
14.67067508414896
 23
10.223708813214
 33
0.0
 14
15.77697429674896
 24
10.19013624421399
 34
0.0
100
AcDbRotatedDimension
  0
DIMENSION
  5
2E5
330
1F
100
AcDbEntity
  8
0
100
AcDbDimension
  2
*D31
 10
14.84968261591599
 20
9.262391162113997
 30
0.0
 11
14.42343261591599
 21
8.742355729014001
 31
0.0
 70
   160
  1
<>
 71
     5
 42
0.1600354331000009
  3
23NSTD
100
AcDbAlignedDimension
 13
14.17461209204896
 23
9.102355729013996
 33
0.0
 14
15.23366721014896
 24
9.262391162113997
 34
0.0
 50
90.0
100
AcDbRotatedDimension
  0
DIMENSION
  5
2E6
330
1F
100
AcDbEntity
  8
0
100
AcDbDimension
  2
*D29
 10
15.23366721014896
 20
8.434149682901033
 30
0.0
 11
14.70378161553742
 21
8.434149682901033
 31
0.0
 70
   160
 71
     5
 42
1.059055118099999
  3
23NSTD
100
AcDbAlignedDimension
 13
14.17461209204896
 23
9.102355729013996
 33
0.0
 14
15.23366721014896
 24
9.181095886513999
 34
0.0
100
AcDbRotatedDimension
  0
LINE
  5
2E7
330
1F
100
AcDbEntity
  8
0
  6
Continuous
 62
     7
370
     0
100
AcDbLine
 10
16.30847035974896
 20
10.287702185714
 30
0.0
 11
14.17461209204896
 21
10.287702185714
 31
0.0
  0
LINE
  5
2E8
330
1F
100
AcDbEntity
  8
0
  6
Continuous
 62
     7
370
     0
100
AcDbLine
 10
14.17461209204896
 20
9.102355729013996
 30
0.0
 11
16.30847035974896
 21
9.102355729013996
 31
0.0
  0
LINE
  5
2E9
330
1F
100
AcDbEntity
  8
0
  6
Continuous
 62
     7
370
     0
100
AcDbLine
 10
14.35177744634896
 20
9.301328170013999
 30
0.0
 11
14.35177744634896
 21
10.088729744814
 31
0.0
  0
LINE
  5
2EA
330
1F
100
AcDbEntity
  8
0
  6
Continuous
 62
     7
370
     0
100
AcDbLine
 10
14.39114752514896
 20
9.301328170013999
 30
0.0
 11
14.39114752514896
 21
10.088729744814
 31
0.0
  0
LINE
  5
2EB
330
1F
100
AcDbEntity
  8
0
  6
Continuous
 62
     7
370
     0
100
AcDbLine
 10
14.17461209204896
 20
9.102355729013996
 30
0.0
 11
14.17461209204896
 21
10.287702185714
 31
0.0
  0
LINE
  5
2EC
330
1F
100
AcDbEntity
  8
0
  6
Continuous
 62
     7
370
     0
100
AcDbLine
 10
14.17461209204896
 20
9.301328170013999
 30
0.0
 11
14.39114752514896
 21
9.301328170013999
 31
0.0
  0
LINE
  5
2ED
330
1F
100
AcDbEntity
  8
0
  6
CENTER
 62
     7
370
     0
100
AcDbLine
 10
14.48412418804896
 20
10.12766675261399
 30
0.0
 11
14.88898333274896
 21
10.12766675261399
 31
0.0
  0
LINE
  5
2EE
330
1F
100
AcDbEntity
  8
0
  6
Continuous
 62
     7
370
     0
100
AcDbLine
 10
14.17461209204896
 20
10.088729744814
 30
0.0
 11
14.39114752514896
 21
10.088729744814
 31
0.0
  0
CIRCLE
  5
2EF
330
1F
100
AcDbEntity
  8
0
  6
Continuous
 62
     7
370
     0
100
AcDbCircle
 10
14.67067508414896
 20
10.12766675261399
 30
0.0
 40
0.076771653543307
  0
CIRCLE
  5
2F0
330
1F
100
AcDbEntity
  8
0
  6
Continuous
 62
     7
370
     0
100
AcDbCircle
 10
14.67067508414896
 20
10.12766675261399
 30
0.0
 40
0.045275590551181
  0
LINE
  5
2F1
330
1F
100
AcDbEntity
  8
0
  6
CENTER
 62
     7
370
     0
100
AcDbLine
 10
14.67067508414896
 20
10.25870881321399
 30
0.0
 11
14.67067508414896
 21
9.982607620913999
 31
0.0
  0
LINE
  5
2F2
330
1F
100
AcDbEntity
  8
0
  6
Continuous
 62
     7
370
     0
100
AcDbLine
 10
16.22973020224896
 20
9.181095886513999
 30
0.0
 11
16.22973020224896
 21
10.20896202821399
 31
0.0
  0
LINE
  5
2F3
330
1F
100
AcDbEntity
  8
0
  6
Continuous
 62
     7
370
     0
100
AcDbLine
 10
16.30847035974896
 20
9.102355729013996
 30
0.0
 11
16.30847035974896
 21
10.287702185714
 31
0.0
  0
LINE
  5
2F4
330
1F
100
AcDbEntity
  8
0
  6
Continuous
 62
     7
370
     0
100
AcDbLine
 10
15.23366721014896
 20
9.181095886513999
 30
0.0
 11
16.22973020224896
 21
9.181095886513999
 31
0.0
  0
LINE
  5
2F5
330
1F
100
AcDbEntity
  8
0
  6
CENTER
 62
     7
370
     0
100
AcDbLine
 10
15.03772970364896
 20
9.262391162113997
 30
0.0
 11
15.42633939464896
 21
9.262391162113997
 31
0.0
  0
CIRCLE
  5
2F6
330
1F
100
AcDbEntity
  8
0
  6
Continuous
 62
     7
370
     0
100
AcDbCircle
 10
15.23366721014896
 20
9.262391162113997
 30
0.0
 40
0.0767716535433065
  0
CIRCLE
  5
2F7
330
1F
100
AcDbEntity
  8
0
  6
Continuous
 62
     7
370
     0
100
AcDbCircle
 10
15.23366721014896
 20
9.262391162113997
 30
0.0
 40
0.0452755905511806
  0
LINE
  5
2F8
330
1F
100
AcDbEntity
  8
0
  6
CENTER
 62
     7
370
     0
100
AcDbLine
 10
15.23366721014896
 20
9.177633022913997
 30
0.0
 11
15.23366721014896
 21
9.415813181914
 31
0.0
  0
LINE
  5
2F9
330
1F
100
AcDbEntity
  8
0
  6
Continuous
 62
     7
370
     0
100
AcDbLine
 10
15.23366721014896
 20
9.102355729013996
 30
0.0
 11
15.23366721014896
 21
9.181095886513999
 31
0.0
  0
LINE
  5
2FA
330
1F
100
AcDbEntity
  8
0
  6
Continuous
 62
     7
370
     0
100
AcDbLine
 10
15.23366721014896
 20
9.102355729013996
 30
0.0
 11
15.23366721014896
 21
9.181095886513999
 31
0.0
  0
LINE
  5
2FB
330
1F
100
AcDbEntity
  8
0
  6
Continuous
 62
     7
370
     0
100
AcDbLine
 10
16.21607128524896
 20
9.477179982214
 30
0.0
 11
16.10189805684896
 21
9.477179982214
 31
0.0
  0
LINE
  5
2FC
330
1F
100
AcDbEntity
  8
0
  6
Continuous
 62
     7
370
     0
100
AcDbLine
 10
16.21607128524896
 20
9.485053997913997
 30
0.0
 11
16.10189805684896
 21
9.485053997913997
 31
0.0
  0
LINE
  5
2FD
330
1F
100
AcDbEntity
  8
0
  6
Continuous
 62
     7
370
     0
100
AcDbLine
 10
16.21607128524896
 20
9.401066908914
 30
0.0
 11
16.10189805684896
 21
9.401066908914
 31
0.0
  0
LINE
  5
2FE
330
1F
100
AcDbEntity
  8
0
  6
Continuous
 62
     7
370
     0
100
AcDbLine
 10
16.21607128524896
 20
9.408940924713999
 30
0.0
 11
16.10189805684896
 21
9.408940924713999
 31
0.0
  0
LINE
  5
2FF
330
1F
100
AcDbEntity
  8
0
  6
Continuous
 62
     7
370
     0
100
AcDbLine
 10
16.22788230884896
 20
9.330200767213998
 30
0.0
 11
16.10189805684896
 21
9.330200767213998
 31
0.0
  0
LINE
  5
300
330
1F
100
AcDbEntity
  8
0
  6
Continuous
 62
     7
370
     0
100
AcDbLine
 10
16.22973020224896
 20
9.555920139613998
 30
0.0
 11
16.10189805684896
 21
9.555920139613998
 31
0.0
  0
CIRCLE
  5
301
330
1F
100
AcDbEntity
  8
0
  6
Continuous
 62
     7
370
     0
100
AcDbCircle
 10
15.90504766314896
 20
9.417469902213998
 30
0.0
 40
0.0610236220472444
  0
LINE
  5
302
330
1F
100
AcDbEntity
  8
0
  6
Continuous
 62
     7
370
     0
100
AcDbLine
 10
15.90504766314896
 20
9.478493524314
 30
0.0
 11
15.90504766314896
 21
9.356446280213999
 31
0.0
  0
LINE
  5
303
330
1F
100
AcDbEntity
  8
0
  6
Continuous
 62
     7
370
     0
100
AcDbLine
 10
15.84402404114896
 20
9.417469902213998
 30
0.0
 11
15.96607128524896
 21
9.417469902213998
 31
0.0
  0
LINE
  5
304
330
1F
100
AcDbEntity
  8
0
  6
Continuous
 62
     7
370
     0
100
AcDbLine
 10
16.10189805684896
 20
9.555920139613998
 30
0.0
 11
16.10189805684896
 21
9.330200767213998
 31
0.0
  0
LINE
  5
305
330
1F
100
AcDbEntity
  8
0
  6
Continuous
 62
     7
370
     0
100
AcDbLine
 10
16.21607128524896
 20
9.555920139613998
 30
0.0
 11
16.21607128524896
 21
9.330200767213998
 31
0.0
  0
CIRCLE
  5
306
330
1F
100
AcDbEntity
  8
0
  6
Continuous
 62
     7
370
     0
100
AcDbCircle
 10
15.77697429674896
 20
10.12766675261399
 30
0.0
 40
0.0767716535433065
  0
CIRCLE
  5
307
330
1F
100
AcDbEntity
  8
0
  6
Continuous
 62
     7
370
     0
100
AcDbCircle
 10
15.77697429674896
 20
10.12766675261399
 30
0.0
 40
0.0452755905511806
  0
LINE
  5
308
330
1F
100
AcDbEntity
  8
0
  6
CENTER
 62
     7
370
     0
100
AcDbLine
 10
15.94358342824896
 20
10.12766675261399
 30
0.0
 11
15.61481503074896
 21
10.12766675261399
 31
0.0
  0
LINE
  5
309
330
1F
100
AcDbEntity
  8
0
  6
Continuous
 62
     7
370
     0
100
AcDbLine
 10
16.22973020224896
 20
10.20896202821399
 30
0.0
 11
15.48169870624896
 21
10.20896202821399
 31
0.0
  0
LINE
  5
30A
330
1F
100
AcDbEntity
  8
0
  6
Continuous
 62
     7
370
     0
100
AcDbLine
 10
15.23366721014896
 20
10.20896202821399
 30
0.0
 11
15.23366721014896
 21
10.287702185714
 31
0.0
  0
LINE
  5
30B
330
1F
100
AcDbEntity
  8
0
  6
Continuous
 62
     7
370
     0
100
AcDbLine
 10
15.23366721014896
 20
10.20896202821399
 30
0.0
 11
15.23366721014896
 21
10.287702185714
 31
0.0
  0
LINE
  5
30C
330
1F
100
AcDbEntity
  8
0
  6
Continuous
 62
     7
370
     0
100
AcDbLine
 10
15.48169870624896
 20
10.20896202821399
 30
0.0
 11
15.23366721014896
 21
10.20896202821399
 31
0.0
  0
LINE
  5
30D
330
1F
100
AcDbEntity
  8
0
  6
CENTER
 62
     7
370
     0
100
AcDbLine
 10
15.77697429674896
 20
10.22513624421399
 30
0.0
 11
15.77697429674896
 21
9.990620430313999
 31
0.0
  0
LINE
  5
30E
330
1F
100
AcDbEntity
  8
0
  6
Continuous
 62
     7
370
     0
100
AcDbLine
 10
16.22788230884896
 20
9.834005335313998
 30
0.0
 11
16.10189805684896
 21
9.834005335313998
 31
0.0
  0
LINE
  5
30F
330
1F
100
AcDbEntity
  8
0
  6
Continuous
 62
     7
370
     0
100
AcDbLine
 10
16.22973020224896
 20
10.05972470781399
 30
0.0
 11
16.10189805684896
 21
10.05972470781399
 31
0.0
  0
CIRCLE
  5
310
330
1F
100
AcDbEntity
  8
0
  6
Continuous
 62
     7
370
     0
100
AcDbCircle
 10
15.90504766314896
 20
9.972588012513998
 30
0.0
 40
0.0610236220472444
  0
LINE
  5
311
330
1F
100
AcDbEntity
  8
0
  6
Continuous
 62
     7
370
     0
100
AcDbLine
 10
16.10189805684896
 20
10.05972470781399
 30
0.0
 11
16.10189805684896
 21
9.834005335313998
 31
0.0
  0
LINE
  5
312
330
1F
100
AcDbEntity
  8
0
  6
Continuous
 62
     7
370
     0
100
AcDbLine
 10
15.84402404114896
 20
9.972588012513998
 30
0.0
 11
15.96607128524896
 21
9.972588012513998
 31
0.0
  0
LINE
  5
313
330
1F
100
AcDbEntity
  8
0
  6
Continuous
 62
     7
370
     0
100
AcDbLine
 10
16.21607128524896
 20
10.05972470781399
 30
0.0
 11
16.21607128524896
 21
9.834005335313998
 31
0.0
  0
DIMENSION
  5
314
330
1F
100
AcDbEntity
  8
0
  6
Continuous
370
     0
100
AcDbDimension
  2
*D35
 10
19.35655387124896
 20
6.056246653613998
 30
0.0
 11
18.76033493454896
 21
6.056246653613998
 31
0.0
 70
   160
 71
     5
 42
1.185346456700003
  3
23NSTD
100
AcDbAlignedDimension
 13
18.17120741454896
 23
6.597488602913999
 33
0.0
 14
19.35655387124896
 24
6.597488602913999
 34
0.0
100
AcDbRotatedDimension
  0
LINE
  5
315
330
1F
100
AcDbEntity
  8
0
  6
Continuous
 62
     7
370
     0
100
AcDbLine
 10
18.39773891064896
 20
6.597488602913999
 30
0.0
 11
18.17120741454896
 21
6.597488602913999
 31
0.0
  0
LINE
  5
316
330
1F
100
AcDbEntity
  8
0
  6
Continuous
 62
     7
370
     0
100
AcDbLine
 10
18.17120741454896
 20
6.754968917913998
 30
0.0
 11
19.35655387124896
 21
6.754968917913998
 31
0.0
  0
LINE
  5
317
330
1F
100
AcDbEntity
  8
0
  6
Continuous
 62
     7
370
     0
100
AcDbLine
 10
19.35655387124896
 20
7.420323248613999
 30
0.0
 11
18.17120741454896
 21
7.420323248613999
 31
0.0
  0
LINE
  5
318
330
1F
100
AcDbEntity
  8
0
  6
Continuous
 62
     7
370
     0
100
AcDbLine
 10
18.17120741454896
 20
7.420323248613999
 30
0.0
 11
18.17120741454896
 21
6.597488602913999
 31
0.0
  0
CIRCLE
  5
319
330
1F
100
AcDbEntity
  8
0
  6
Continuous
 62
     7
370
     0
100
AcDbCircle
 10
19.01550918724896
 20
7.107954834013998
 30
0.0
 40
0.1259842519685028
  0
CIRCLE
  5
31A
330
1F
100
AcDbEntity
  8
0
  6
Continuous
 62
     7
370
     0
100
AcDbCircle
 10
18.51225209854896
 20
7.107954834013998
 30
0.0
 40
0.1259842519685046
  0
LINE
  5
31B
330
1F
100
AcDbEntity
  8
0
  6
Continuous
 62
     7
370
     0
100
AcDbLine
 10
19.35655387124896
 20
6.597488602913999
 30
0.0
 11
19.35655387124896
 21
7.420323248613999
 31
0.0
  0
LINE
  5
31C
330
1F
100
AcDbEntity
  8
0
  6
Continuous
 62
     7
370
     0
100
AcDbLine
 10
18.39773891064896
 20
6.676228760413999
 30
0.0
 11
19.13002237524896
 21
6.676228760413999
 31
0.0
  0
LINE
  5
31D
330
1F
100
AcDbEntity
  8
0
  6
Continuous
 62
     7
370
     0
100
AcDbLine
 10
18.39773891064896
 20
6.676228760413999
 30
0.0
 11
18.39773891064896
 21
6.597488602913999
 31
0.0
  0
LINE
  5
31E
330
1F
100
AcDbEntity
  8
0
  6
Continuous
 62
     7
370
     0
100
AcDbLine
 10
19.35655387124896
 20
6.597488602913999
 30
0.0
 11
19.13002237524896
 21
6.597488602913999
 31
0.0
  0
LINE
  5
31F
330
1F
100
AcDbEntity
  8
0
  6
Continuous
 62
     7
370
     0
100
AcDbLine
 10
19.13002237524896
 20
6.597488602913999
 30
0.0
 11
19.13002237524896
 21
6.676228760413999
 31
0.0
  0
CIRCLE
  5
320
330
1F
100
AcDbEntity
  8
0
  6
Continuous
 62
     7
370
     0
100
AcDbCircle
 10
18.51225209854896
 20
7.107954834013998
 30
0.0
 40
0.0590551181102361
  0
CIRCLE
  5
321
330
1F
100
AcDbEntity
  8
0
  6
Continuous
 62
     7
370
     0
100
AcDbCircle
 10
19.01550918724896
 20
7.107954834013998
 30
0.0
 40
0.0590551181102361
  0
DIMENSION
  5
322
330
1F
100
AcDbEntity
  8
0
100
AcDbDimension
  2
*D34
 10
18.92511693404896
 20
8.965201240414
 30
0.0
 11
17.74021329054896
 21
8.965201240414
 31
0.0
 70
   160
  1
0.2\P(LEAD LENGTH)
 71
     5
 42
0.3656818442999992
  3
23NSTD
100
AcDbAlignedDimension
 13
19.29079877834896
 23
9.443308178813998
 33
0.0
 14
18.92511693404896
 24
9.407875107913998
 34
0.0
100
AcDbRotatedDimension
  0
LINE
  5
323
330
1F
100
AcDbEntity
  8
0
  6
Continuous
 62
     7
370
     0
100
AcDbLine
 10
18.92511693404896
 20
9.407875107913998
 30
0.0
 11
18.14680737524896
 21
9.407875107913998
 31
0.0
  0
LINE
  5
324
330
1F
100
AcDbEntity
  8
0
  6
Continuous
 62
     7
370
     0
100
AcDbLine
 10
18.14680737524896
 20
9.478741249613998
 30
0.0
 11
18.92511693404896
 21
9.478741249613998
 31
0.0
  0
LINE
  5
325
330
1F
100
AcDbEntity
  8
0
  6
Continuous
 62
     7
370
     0
100
AcDbLine
 10
18.92511693404896
 20
9.982182806813998
 30
0.0
 11
18.14680737524896
 21
9.982182806813998
 31
0.0
  0
LINE
  5
326
330
1F
100
AcDbEntity
  8
0
  6
Continuous
 62
     7
370
     0
100
AcDbLine
 10
18.14680737524896
 20
9.911316665114
 30
0.0
 11
18.92511693404896
 21
9.911316665114
 31
0.0
  0
ARC
  5
327
330
1F
100
AcDbEntity
  8
0
  6
Continuous
 62
     7
370
     0
100
AcDbCircle
 10
17.91712271814896
 20
9.443308178813998
 30
0.0
 40
0.0359089835039016
100
AcDbArc
 50
279.3385729569
 51
80.66142704310001
  0
ARC
  5
328
330
1F
100
AcDbEntity
  8
0
  6
Continuous
 62
     7
370
     0
100
AcDbCircle
 10
18.14098049054896
 20
9.443308178813998
 30
0.0
 40
0.0359089835038995
100
AcDbArc
 50
279.3385729569
 51
80.66142704310001
  0
ARC
  5
329
330
1F
100
AcDbEntity
  8
0
  6
Continuous
 62
     7
370
     0
100
AcDbCircle
 10
18.14098049054896
 20
9.946749736013998
 30
0.0
 40
0.0359089835038995
100
AcDbArc
 50
279.3385729569
 51
80.66142704310001
  0
ARC
  5
32A
330
1F
100
AcDbEntity
  8
0
  6
Continuous
 62
     7
370
     0
100
AcDbCircle
 10
17.91712271814896
 20
9.946749736013998
 30
0.0
 40
0.0359089835038998
100
AcDbArc
 50
279.3385729569
 51
80.66142704310001
  0
LINE
  5
32B
330
1F
100
AcDbEntity
  8
0
  6
Continuous
 62
     7
370
     0
100
AcDbLine
 10
18.92511693404896
 20
9.443308178813998
 30
0.0
 11
19.29079877834896
 21
9.443308178813998
 31
0.0
  0
LINE
  5
32C
330
1F
100
AcDbEntity
  8
0
  6
Continuous
 62
     7
370
     0
100
AcDbLine
 10
18.92511693404896
 20
9.478741249613998
 30
0.0
 11
18.92511693404896
 21
9.407875107913998
 31
0.0
  0
LINE
  5
32D
330
1F
100
AcDbEntity
  8
0
  6
Continuous
 62
     7
370
     0
100
AcDbLine
 10
18.92511693404896
 20
9.946749736013998
 30
0.0
 11
19.29079877834896
 21
9.946749736013998
 31
0.0
  0
LINE
  5
32E
330
1F
100
AcDbEntity
  8
0
  6
Continuous
 62
     7
370
     0
100
AcDbLine
 10
18.92511693404896
 20
9.911316665114
 30
0.0
 11
18.92511693404896
 21
9.982182806813998
 31
0.0
  0
MTEXT
  5
42E
330
1F
100
AcDbEntity
  8
0
  6
Continuous
 62
     7
370
     0
100
AcDbMText
 10
12.60142893894895
 20
12.290748505814
 30
0.0
 40
0.1875
 41
0.0
 71
     1
 72
     1
  1
{BATTERY HOLDER- 9V}
  7
SLDTEXTSTYLE1
 73
     1
 44
1.0
  0
MTEXT
  5
42F
330
1F
100
AcDbEntity
  8
0
  6
Continuous
 62
     7
370
     0
100
AcDbMText
 10
17.74549689714896
 20
12.311865506814
 30
0.0
 40
0.1875
 41
0.0
 71
     1
 72
     1
  1
{HH-3634}
  7
SLDTEXTSTYLE0
 73
     1
 44
1.0
  0
MTEXT
  5
430
330
1F
100
AcDbEntity
  8
0
  6
Continuous
 62
     7
370
     0
100
AcDbMText
 10
21.03195577684952
 20
12.309454414714
 30
0.0
 40
0.1875
 41
0.0
 71
     1
 72
     1
  1
1-27-11
  7
SLDTEXTSTYLE0
 73
     1
 44
1.0
  0
TEXT
  5
688
330
1F
100
AcDbEntity
  8
0
100
AcDbText
 10
18.56025133218982
 20
11.466868991065
 30
0.0
 40
0.1247903349190903
  1
FOR USE WITH:
100
AcDbText
  0
TEXT
  5
689
330
1F
100
AcDbEntity
  8
0
100
AcDbText
 10
20.21517690913268
 20
11.466868991065
 30
0.0
 40
0.1247903349190903
  1
HH-3580-B
100
AcDbText
  0
TEXT
  5
68A
330
1F
100
AcDbEntity
  8
0
100
AcDbText
 10
20.21517690913268
 20
11.24340295160526
 30
0.0
 40
0.1247903349190903
  1
HH-3600-B
100
AcDbText
  0
TEXT
  5
68B
330
1F
100
AcDbEntity
  8
0
100
AcDbText
 10
20.21517690913268
 20
11.01993691214551
 30
0.0
 40
0.1247903349190903
  1
HH-3610-B
100
AcDbText
  0
ENDSEC
  0
SECTION
  2
OBJECTS
  0
DICTIONARY
  5
C
330
0
100
AcDbDictionary
281
     1
  3
ACAD_GROUP
350
D
  3
ACAD_LAYOUT
350
1A
  3
ACAD_MLINESTYLE
350
17
  3
ACAD_PLOTSETTINGS
350
19
  3
ACAD_PLOTSTYLENAME
350
E
  3
AcDbVariableDictionary
350
201
  0
DICTIONARY
  5
D
102
{ACAD_REACTORS
330
C
102
}
330
C
100
AcDbDictionary
281
     1
  0
DICTIONARY
  5
1A
102
{ACAD_REACTORS
330
C
102
}
330
C
100
AcDbDictionary
281
     1
  3
Layout1
350
1E
  3
Layout2
350
26
  3
Model
350
22
  0
DICTIONARY
  5
17
102
{ACAD_REACTORS
330
C
102
}
330
C
100
AcDbDictionary
281
     1
  3
Standard
350
18
  0
DICTIONARY
  5
19
102
{ACAD_REACTORS
330
C
102
}
330
C
100
AcDbDictionary
281
     1
  0
ACDBDICTIONARYWDFLT
  5
E
102
{ACAD_REACTORS
330
C
102
}
330
C
100
AcDbDictionary
281
     1
  3
Normal
350
F
100
AcDbDictionaryWithDefault
340
F
  0
DICTIONARY
  5
201
102
{ACAD_REACTORS
330
C
102
}
330
C
100
AcDbDictionary
281
     1
  3
SORTENTS
350
202
  0
LAYOUT
  5
1E
102
{ACAD_REACTORS
330
1A
102
}
330
1A
100
AcDbPlotSettings
  1

  2

  4

  6

 40
0.0
 41
0.0
 42
0.0
 43
0.0
 44
0.0
 45
0.0
 46
0.0
 47
0.0
 48
0.0
 49
0.0
140
0.0
141
0.0
142
1.0
143
1.0
 70
   688
 72
     0
 73
     0
 74
     5
  7
monochrome.ctb
 75
    16
147
1.0
148
0.0
149
0.0
100
AcDbLayout
  1
Layout1
 70
     1
 71
     1
 10
0.0
 20
0.0
 11
12.0
 21
9.0
 12
0.0
 22
0.0
 32
0.0
 14
1.000000000000000E+20
 24
1.000000000000000E+20
 34
1.000000000000000E+20
 15
-1.000000000000000E+20
 25
-1.000000000000000E+20
 35
-1.000000000000000E+20
146
0.0
 13
0.0
 23
0.0
 33
0.0
 16
1.0
 26
0.0
 36
0.0
 17
0.0
 27
1.0
 37
0.0
 76
     0
330
1B
  0
LAYOUT
  5
26
102
{ACAD_REACTORS
330
1A
102
}
330
1A
100
AcDbPlotSettings
  1

  2

  4

  6

 40
0.0
 41
0.0
 42
0.0
 43
0.0
 44
0.0
 45
0.0
 46
0.0
 47
0.0
 48
0.0
 49
0.0
140
0.0
141
0.0
142
1.0
143
1.0
 70
   688
 72
     0
 73
     0
 74
     5
  7
monochrome.ctb
 75
    16
147
1.0
148
0.0
149
0.0
100
AcDbLayout
  1
Layout2
 70
     1
 71
     2
 10
0.0
 20
0.0
 11
0.0
 21
0.0
 12
0.0
 22
0.0
 32
0.0
 14
0.0
 24
0.0
 34
0.0
 15
0.0
 25
0.0
 35
0.0
146
0.0
 13
0.0
 23
0.0
 33
0.0
 16
1.0
 26
0.0
 36
0.0
 17
0.0
 27
1.0
 37
0.0
 76
     0
330
23
  0
LAYOUT
  5
22
102
{ACAD_REACTORS
330
1A
102
}
330
1A
100
AcDbPlotSettings
  1

  2
C:\Program Files\ACAD2000\plotters\RICOH Aficio 1060 PCL 5e.pc3
  4
Letter
  6

 40
7.143749713897705
 41
5.027085304260253
 42
7.14373779296875
 43
5.027069091796875
 44
215.8999938964843
 45
279.3999938964843
 46
0.0
 47
0.0
 48
0.0
 49
0.0
140
0.0
141
0.0
142
1.0
143
1.0
 70
 11952
 72
     0
 73
     1
 74
     0
  7

 75
     0
147
1.0
148
-325.9218472348177
149
-113.9163517639034
100
AcDbLayout
  1
Model
 70
     1
 71
     0
 10
0.0
 20
0.0
 11
0.0
 21
0.0
 12
0.0
 22
0.0
 32
0.0
 14
0.0
 24
0.0
 34
0.0
 15
11.0
 25
8.5
 35
0.0
146
0.0
 13
0.0
 23
0.0
 33
0.0
 16
1.0
 26
0.0
 36
0.0
 17
0.0
 27
1.0
 37
0.0
 76
     0
330
1F
  0
MLINESTYLE
  5
18
102
{ACAD_REACTORS
330
17
102
}
330
17
100
AcDbMlineStyle
  2
STANDARD
 70
     0
  3

 62
   256
 51
90.0
 52
90.0
 71
     2
 49
0.5
 62
   256
  6
BYLAYER
 49
-0.5
 62
   256
  6
BYLAYER
  0
ACDBPLACEHOLDER
  5
F
102
{ACAD_REACTORS
330
E
102
}
330
E
  0
DICTIONARYVAR
  5
202
102
{ACAD_REACTORS
330
201
102
}
330
201
100
DictionaryVariables
280
     0
  1
96
  0
ENDSEC
  0
EOF
