  0
SECTION
  2
HEADER
  9
$ACADVER
  1
AC1009
  9
$INSBASE
 10
0.0
 20
0.0
 30
0.0
  9
$EXTMIN
 10
0.0
 20
-0.0000000000000044
 30
0.0
  9
$EXTMAX
 10
25.29999999999999
 20
38.75
 30
0.0
  9
$LIMMIN
 10
0.0
 20
0.0
  9
$LIMMAX
 10
25.29999999999999
 20
38.749999999999993
  9
$ORTHOMODE
 70
     1
  9
$REGENMODE
 70
     1
  9
$FILLMODE
 70
     1
  9
$QTEXTMODE
 70
     0
  9
$MIRRTEXT
 70
     0
  9
$DRAGMODE
 70
     2
  9
$LTSCALE
 40
0.875
  9
$OSMODE
 70
    37
  9
$ATTMODE
 70
     1
  9
$TEXTSIZE
 40
0.3125
  9
$TRACEWID
 40
0.05
  9
$TEXTSTYLE
  7
STANDARD
  9
$CLAYER
  8
OBJECT
  9
$CELTYPE
  6
BYLAYER
  9
$CECOLOR
 62
   256
  9
$DIMSCALE
 40
2.5
  9
$DIMASZ
 40
0.18
  9
$DIMEXO
 40
0.063
  9
$DIMDLI
 40
0.38
  9
$DIMRND
 40
0.0
  9
$DIMDLE
 40
0.0
  9
$DIMEXE
 40
0.093
  9
$DIMTP
 40
0.0
  9
$DIMTM
 40
0.0
  9
$DIMTXT
 40
0.125
  9
$DIMCEN
 40
0.09
  9
$DIMTSZ
 40
0.0
  9
$DIMTOL
 70
     0
  9
$DIMLIM
 70
     0
  9
$DIMTIH
 70
     1
  9
$DIMTOH
 70
     1
  9
$DIMSE1
 70
     0
  9
$DIMSE2
 70
     0
  9
$DIMTAD
 70
     0
  9
$DIMZIN
 70
     0
  9
$DIMBLK
  1

  9
$DIMASO
 70
     1
  9
$DIMSHO
 70
     1
  9
$DIMPOST
  1

  9
$DIMAPOST
  1

  9
$DIMALT
 70
     0
  9
$DIMALTD
 70
     2
  9
$DIMALTF
 40
25.399999999999999
  9
$DIMLFAC
 40
1.0
  9
$DIMTOFL
 70
     0
  9
$DIMTVP
 40
0.0
  9
$DIMTIX
 70
     0
  9
$DIMSOXD
 70
     0
  9
$DIMSAH
 70
     0
  9
$DIMBLK1
  1

  9
$DIMBLK2
  1

  9
$DIMSTYLE
  2
23NSTD
  9
$DIMCLRD
 70
     0
  9
$DIMCLRE
 70
     0
  9
$DIMCLRT
 70
     0
  9
$DIMTFAC
 40
1.0
  9
$DIMGAP
 40
0.09
  9
$LUNITS
 70
     2
  9
$LUPREC
 70
     3
  9
$SKETCHINC
 40
0.1
  9
$FILLETRAD
 40
0.0
  9
$AUNITS
 70
     0
  9
$AUPREC
 70
     0
  9
$MENU
  1
acad
  9
$ELEVATION
 40
0.0
  9
$PELEVATION
 40
0.0
  9
$THICKNESS
 40
0.0
  9
$LIMCHECK
 70
     0
  9
$BLIPMODE
 70
     0
  9
$CHAMFERA
 40
0.156
  9
$CHAMFERB
 40
0.156
  9
$SKPOLY
 70
     0
  9
$TDCREATE
 40
2448392.4088564808
  9
$TDUPDATE
 40
2452240.369724201
  9
$TDINDWG
 40
0.0464280903
  9
$TDUSRTIMER
 40
0.0464280903
  9
$USRTIMER
 70
     1
  9
$ANGBASE
 50
0.0
  9
$ANGDIR
 70
     0
  9
$PDMODE
 70
     0
  9
$PDSIZE
 40
0.0
  9
$PLINEWID
 40
0.0
  9
$COORDS
 70
     0
  9
$SPLFRAME
 70
     0
  9
$SPLINETYPE
 70
     6
  9
$SPLINESEGS
 70
     8
  9
$ATTDIA
 70
     0
  9
$ATTREQ
 70
     1
  9
$HANDLING
 70
  4097
  9
$HANDSEED
  5
387
  9
$SURFTAB1
 70
     6
  9
$SURFTAB2
 70
     6
  9
$SURFTYPE
 70
     6
  9
$SURFU
 70
     6
  9
$SURFV
 70
     6
  9
$UCSNAME
  2

  9
$UCSORG
 10
0.0
 20
0.0
 30
0.0
  9
$UCSXDIR
 10
1.0
 20
0.0
 30
0.0
  9
$UCSYDIR
 10
0.0
 20
1.0
 30
0.0
  9
$PUCSNAME
  2

  9
$PUCSORG
 10
0.0
 20
0.0
 30
0.0
  9
$PUCSXDIR
 10
1.0
 20
0.0
 30
0.0
  9
$PUCSYDIR
 10
0.0
 20
1.0
 30
0.0
  9
$USERI1
 70
     0
  9
$USERI2
 70
     0
  9
$USERI3
 70
     0
  9
$USERI4
 70
     0
  9
$USERI5
 70
     0
  9
$USERR1
 40
0.0
  9
$USERR2
 40
0.0
  9
$USERR3
 40
0.0
  9
$USERR4
 40
0.0
  9
$USERR5
 40
0.0
  9
$WORLDVIEW
 70
     1
  9
$SHADEDGE
 70
     3
  9
$SHADEDIF
 70
    70
  9
$TILEMODE
 70
     1
  9
$MAXACTVP
 70
    16
  9
$PLIMCHECK
 70
     0
  9
$PEXTMIN
 10
1.0000000000000000E+020
 20
1.0000000000000000E+020
 30
1.0000000000000000E+020
  9
$PEXTMAX
 10
-1.0000000000000000E+020
 20
-1.0000000000000000E+020
 30
-1.0000000000000000E+020
  9
$PLIMMIN
 10
0.0
 20
0.0
  9
$PLIMMAX
 10
12.0
 20
9.0
  9
$UNITMODE
 70
     0
  9
$VISRETAIN
 70
     0
  9
$PLINEGEN
 70
     0
  9
$PSLTSCALE
 70
     0
  0
ENDSEC
  0
SECTION
  2
TABLES
  0
TABLE
  2
VPORT
 70
     2
  0
VPORT
  2
*ACTIVE
 70
     0
 10
0.0
 20
0.0
 11
1.0
 21
1.0
 12
12.650000117815891
 22
19.375000180449231
 13
0.0
 23
0.0
 14
1.0
 24
1.0
 15
0.5
 25
0.5
 16
0.0
 26
0.0
 36
1.0
 17
0.0
 27
0.0
 37
0.0
 40
39.174456690655482
 41
1.7450271247739599
 42
50.0
 43
0.0
 44
0.0
 50
0.0
 51
0.0
 71
     0
 72
   100
 73
     1
 74
     0
 75
     0
 76
     0
 77
     0
 78
     0
  0
ENDTAB
  0
TABLE
  2
LTYPE
 70
     4
  0
LTYPE
  2
CONTINUOUS
 70
     0
  3
Solid line
 72
    65
 73
     0
 40
0.0
  0
LTYPE
  2
HIDDEN
 70
     0
  3
_ _ _ _ _ _ _ _ _ _ _ _ _ _ _ _ _ _ _ _ _ _ _
 72
    65
 73
     2
 40
0.375
 49
0.25
 49
-0.125
  0
LTYPE
  2
PHANTOM
 70
     0
  3
_____ _ _ _____ _ _ _____ _ _ _____ _ _ ____
 72
    65
 73
     6
 40
2.5
 49
1.25
 49
-0.25
 49
0.25
 49
-0.25
 49
0.25
 49
-0.25
  0
LTYPE
  2
CENTER
 70
     0
  3
____ _ ____ _ ____ _ ____ _ ____ _ ____ _ ____
 72
    65
 73
     4
 40
2.0
 49
1.25
 49
-0.25
 49
0.25
 49
-0.25
  0
ENDTAB
  0
TABLE
  2
LAYER
 70
     9
  0
LAYER
  2
0
 70
     0
 62
     7
  6
CONTINUOUS
  0
LAYER
  2
OBJECT
 70
     0
 62
     7
  6
CONTINUOUS
  0
LAYER
  2
DIM
 70
     0
 62
     2
  6
CONTINUOUS
  0
LAYER
  2
HIDDEN
 70
     0
 62
     6
  6
HIDDEN
  0
LAYER
  2
BEND
 70
     0
 62
     4
  6
PHANTOM
  0
LAYER
  2
TEXT
 70
     0
 62
     1
  6
CONTINUOUS
  0
LAYER
  2
TITLE
 70
     0
 62
     8
  6
CONTINUOUS
  0
LAYER
  2
CENTER
 70
     0
 62
     3
  6
CENTER
  0
LAYER
  2
DEFPOINTS
 70
     0
 62
     7
  6
CONTINUOUS
  0
ENDTAB
  0
TABLE
  2
STYLE
 70
     1
  0
STYLE
  2
STANDARD
 70
     0
 40
0.0
 41
0.75
 50
0.0
 71
     0
 42
0.3125
  3
TXT.shx
  4

  0
ENDTAB
  0
TABLE
  2
VIEW
 70
     0
  0
ENDTAB
  0
TABLE
  2
UCS
 70
     0
  0
ENDTAB
  0
TABLE
  2
APPID
 70
     1
  0
APPID
  2
ACAD
 70
     0
  0
ENDTAB
  0
TABLE
  2
DIMSTYLE
 70
     2
  0
DIMSTYLE
  2
23NSTD
 70
     0
  3

  4

  5

  6

  7

 40
2.5
 41
0.18
 42
0.063
 43
0.38
 44
0.093
 45
0.0
 46
0.0
 47
0.0
 48
0.0
140
0.125
141
0.09
142
0.0
143
25.399999999999999
144
1.0
145
0.0
146
1.0
147
0.09
 71
     0
 72
     0
 73
     1
 74
     1
 75
     0
 76
     0
 77
     0
 78
     0
170
     0
171
     2
172
     0
173
     0
174
     0
175
     0
176
     0
177
     0
178
     0
  0
DIMSTYLE
  2
23NSTDI
 70
     0
  3

  4

  5

  6

  7

 40
2.5
 41
0.18
 42
0.063
 43
0.38
 44
0.093
 45
0.0
 46
0.0
 47
0.0
 48
0.0
140
0.125
141
0.09
142
0.0
143
25.399999999999999
144
1.0
145
0.0
146
1.0
147
0.09
 71
     0
 72
     0
 73
     1
 74
     1
 75
     0
 76
     0
 77
     0
 78
     0
170
     0
171
     2
172
     0
173
     0
174
     1
175
     0
176
     0
177
     0
178
     0
  0
ENDTAB
  0
ENDSEC
  0
SECTION
  2
BLOCKS
  0
BLOCK
  8
0
  2
$MODEL_SPACE
 70
     0
 10
0.0
 20
0.0
 30
0.0
  3
$MODEL_SPACE
  1

  0
ENDBLK
  5
44
  8
0
  0
BLOCK
 67
     1
  8
0
  2
$PAPER_SPACE
 70
     0
 10
0.0
 20
0.0
 30
0.0
  3
$PAPER_SPACE
  1

  0
ENDBLK
  5
42
 67
     1
  8
0
  0
BLOCK
  8
0
  2
*D0
 70
     1
 10
0.0
 20
0.0
 30
0.0
  3
*D0
  1

  0
LINE
  5
46
  8
0
  6
BYBLOCK
 62
     0
 10
5.2485824552317464
 20
24.849185861510509
 30
0.0
 11
5.2485824552317464
 21
21.96327744193777
 31
0.0
  0
LINE
  5
47
  8
0
  6
BYBLOCK
 62
     0
 10
6.7485824552317464
 20
24.849185861510509
 30
0.0
 11
6.7485824552317464
 21
21.96327744193777
 31
0.0
  0
LINE
  5
48
  8
0
  6
BYBLOCK
 62
     0
 10
4.7985824552317462
 20
22.195777441937771
 30
0.0
 11
4.348582455231746
 21
22.195777441937771
 31
0.0
  0
LINE
  5
49
  8
0
  6
BYBLOCK
 62
     0
 10
7.1985824552317457
 20
22.195777441937771
 30
0.0
 11
7.6485824552317458
 21
22.195777441937771
 31
0.0
  0
SOLID
  5
4A
  8
0
  6
BYBLOCK
 62
     0
 10
4.7985824552317462
 20
22.270777441937771
 30
0.0
 11
4.7985824552317462
 21
22.120777441937779
 31
0.0
 12
5.2485824552317464
 22
22.195777441937771
 32
0.0
 13
5.2485824552317464
 23
22.195777441937771
 33
0.0
  0
SOLID
  5
4B
  8
0
  6
BYBLOCK
 62
     0
 10
7.1985824552317457
 20
22.270777441937771
 30
0.0
 11
7.1985824552317457
 21
22.120777441937779
 31
0.0
 12
6.7485824552317464
 22
22.195777441937771
 32
0.0
 13
6.7485824552317464
 23
22.195777441937771
 33
0.0
  0
TEXT
  5
4C
  8
0
  6
BYBLOCK
 62
     0
 10
5.6079574552317464
 20
22.039527441937771
 30
0.0
 40
0.3125
  1
1.500
 41
0.75
 72
     1
 11
5.9985824552317464
 21
22.195777441937771
 31
0.0
 73
     2
  0
POINT
  5
4E
  8
DEFPOINTS
  6
BYBLOCK
 62
     0
 10
5.2485824552317464
 20
25.006685861510501
 30
0.0
  0
POINT
  5
4F
  8
DEFPOINTS
  6
BYBLOCK
 62
     0
 10
6.7485824552317464
 20
25.006685861510501
 30
0.0
  0
POINT
  5
50
  8
DEFPOINTS
  6
BYBLOCK
 62
     0
 10
6.7485824552317464
 20
22.195777441937771
 30
0.0
  0
ENDBLK
  5
51
  8
0
  0
BLOCK
  8
0
  2
*D1
 70
     1
 10
0.0
 20
0.0
 30
0.0
  3
*D1
  1

  0
LINE
  5
53
  8
0
  6
BYBLOCK
 62
     0
 10
19.279829228471211
 20
31.923337164118522
 30
0.0
 11
17.700998108123301
 21
31.923337164118522
 31
0.0
  0
LINE
  5
54
  8
0
  6
BYBLOCK
 62
     0
 10
19.279829228471211
 20
33.673337164118507
 30
0.0
 11
17.700998108123301
 21
33.673337164118507
 31
0.0
  0
LINE
  5
55
  8
0
  6
BYBLOCK
 62
     0
 10
17.933498108123299
 20
31.473337164118519
 30
0.0
 11
17.933498108123299
 21
31.023337164118519
 31
0.0
  0
LINE
  5
56
  8
0
  6
BYBLOCK
 62
     0
 10
17.933498108123299
 20
34.12333716411851
 30
0.0
 11
17.933498108123299
 21
34.573337164118499
 31
0.0
  0
SOLID
  5
57
  8
0
  6
BYBLOCK
 62
     0
 10
17.858498108123289
 20
31.473337164118519
 30
0.0
 11
18.008498108123291
 21
31.473337164118519
 31
0.0
 12
17.933498108123299
 22
31.923337164118522
 32
0.0
 13
17.933498108123299
 23
31.923337164118522
 33
0.0
  0
SOLID
  5
58
  8
0
  6
BYBLOCK
 62
     0
 10
17.858498108123289
 20
34.12333716411851
 30
0.0
 11
18.008498108123291
 21
34.12333716411851
 31
0.0
 12
17.933498108123299
 22
33.673337164118507
 32
0.0
 13
17.933498108123299
 23
33.673337164118507
 33
0.0
  0
TEXT
  5
59
  8
0
  6
BYBLOCK
 62
     0
 10
17.523341858123299
 20
32.642087164118507
 30
0.0
 40
0.3125
  1
1.750
 41
0.75
 72
     1
 11
17.933498108123299
 21
32.798337164118507
 31
0.0
 73
     2
  0
POINT
  5
5A
  8
DEFPOINTS
  6
BYBLOCK
 62
     0
 10
19.43732922847121
 20
31.923337164118522
 30
0.0
  0
POINT
  5
5B
  8
DEFPOINTS
  6
BYBLOCK
 62
     0
 10
19.43732922847121
 20
33.673337164118507
 30
0.0
  0
POINT
  5
5C
  8
DEFPOINTS
  6
BYBLOCK
 62
     0
 10
17.933498108123299
 20
33.673337164118507
 30
0.0
  0
ENDBLK
  5
5D
  8
0
  0
BLOCK
  8
0
  2
*D2
 70
     1
 10
0.0
 20
0.0
 30
0.0
  3
*D2
  1

  0
LINE
  5
5F
  8
0
  6
BYBLOCK
 62
     0
 10
18.93732922847121
 20
27.770541838109189
 30
0.0
 11
18.93732922847121
 21
26.646557936315968
 31
0.0
  0
LINE
  5
60
  8
0
  6
BYBLOCK
 62
     0
 10
22.93732922847121
 20
27.770541838109189
 30
0.0
 11
22.93732922847121
 21
26.646557936315968
 31
0.0
  0
LINE
  5
61
  8
0
  6
BYBLOCK
 62
     0
 10
19.387329228471209
 20
26.87905793631597
 30
0.0
 11
20.302172978471209
 21
26.87905793631597
 31
0.0
  0
LINE
  5
62
  8
0
  6
BYBLOCK
 62
     0
 10
22.487329228471211
 20
26.87905793631597
 30
0.0
 11
21.572485478471211
 21
26.87905793631597
 31
0.0
  0
SOLID
  5
63
  8
0
  6
BYBLOCK
 62
     0
 10
19.387329228471209
 20
26.954057936315969
 30
0.0
 11
19.387329228471209
 21
26.804057936315971
 31
0.0
 12
18.93732922847121
 22
26.87905793631597
 32
0.0
 13
18.93732922847121
 23
26.87905793631597
 33
0.0
  0
SOLID
  5
64
  8
0
  6
BYBLOCK
 62
     0
 10
22.487329228471211
 20
26.954057936315969
 30
0.0
 11
22.487329228471211
 21
26.804057936315971
 31
0.0
 12
22.93732922847121
 22
26.87905793631597
 32
0.0
 13
22.93732922847121
 23
26.87905793631597
 33
0.0
  0
TEXT
  5
65
  8
0
  6
BYBLOCK
 62
     0
 10
20.52717297847121
 20
26.72280793631597
 30
0.0
 40
0.3125
  1
4.000
 41
0.75
 72
     1
 11
20.93732922847121
 21
26.87905793631597
 31
0.0
 73
     2
  0
POINT
  5
66
  8
DEFPOINTS
  6
BYBLOCK
 62
     0
 10
18.93732922847121
 20
27.928041838109181
 30
0.0
  0
POINT
  5
67
  8
DEFPOINTS
  6
BYBLOCK
 62
     0
 10
22.93732922847121
 20
27.928041838109181
 30
0.0
  0
POINT
  5
68
  8
DEFPOINTS
  6
BYBLOCK
 62
     0
 10
22.93732922847121
 20
26.87905793631597
 30
0.0
  0
ENDBLK
  5
69
  8
0
  0
BLOCK
  8
0
  2
*D3
 70
     1
 10
0.0
 20
0.0
 30
0.0
  3
*D3
  1

  0
LINE
  5
6B
  8
0
  6
BYBLOCK
 62
     0
 10
19.43732922847121
 20
31.765837164118508
 30
0.0
 11
19.43732922847121
 21
30.547497183561831
 31
0.0
  0
LINE
  5
6C
  8
0
  6
BYBLOCK
 62
     0
 10
22.43732922847121
 20
31.765837164118508
 30
0.0
 11
22.43732922847121
 21
30.547497183561831
 31
0.0
  0
LINE
  5
6D
  8
0
  6
BYBLOCK
 62
     0
 10
19.887329228471209
 20
30.779997183561829
 30
0.0
 11
20.302172978471209
 21
30.779997183561829
 31
0.0
  0
LINE
  5
6E
  8
0
  6
BYBLOCK
 62
     0
 10
21.987329228471211
 20
30.779997183561829
 30
0.0
 11
21.572485478471211
 21
30.779997183561829
 31
0.0
  0
SOLID
  5
6F
  8
0
  6
BYBLOCK
 62
     0
 10
19.887329228471209
 20
30.854997183561821
 30
0.0
 11
19.887329228471209
 21
30.704997183561829
 31
0.0
 12
19.43732922847121
 22
30.779997183561829
 32
0.0
 13
19.43732922847121
 23
30.779997183561829
 33
0.0
  0
SOLID
  5
70
  8
0
  6
BYBLOCK
 62
     0
 10
21.987329228471211
 20
30.854997183561821
 30
0.0
 11
21.987329228471211
 21
30.704997183561829
 31
0.0
 12
22.43732922847121
 22
30.779997183561829
 32
0.0
 13
22.43732922847121
 23
30.779997183561829
 33
0.0
  0
TEXT
  5
71
  8
0
  6
BYBLOCK
 62
     0
 10
20.52717297847121
 20
30.623747183561829
 30
0.0
 40
0.3125
  1
3.000
 41
0.75
 72
     1
 11
20.93732922847121
 21
30.779997183561829
 31
0.0
 73
     2
  0
POINT
  5
72
  8
DEFPOINTS
  6
BYBLOCK
 62
     0
 10
19.43732922847121
 20
31.923337164118522
 30
0.0
  0
POINT
  5
73
  8
DEFPOINTS
  6
BYBLOCK
 62
     0
 10
22.43732922847121
 20
31.923337164118522
 30
0.0
  0
POINT
  5
74
  8
DEFPOINTS
  6
BYBLOCK
 62
     0
 10
22.43732922847121
 20
30.779997183561829
 30
0.0
  0
ENDBLK
  5
75
  8
0
  0
BLOCK
  8
0
  2
*D4
 70
     1
 10
0.0
 20
0.0
 30
0.0
  3
*D4
  1

  0
LINE
  5
77
  8
0
  6
BYBLOCK
 62
     0
 10
23.094829228471198
 20
34.0483371641185
 30
0.0
 11
24.22438896652217
 21
34.0483371641185
 31
0.0
  0
LINE
  5
78
  8
0
  6
BYBLOCK
 62
     0
 10
23.094829228471198
 20
31.548337164118511
 30
0.0
 11
24.22438896652217
 21
31.548337164118511
 31
0.0
  0
LINE
  5
79
  8
0
  6
BYBLOCK
 62
     0
 10
23.991888966522168
 20
33.598337164118497
 30
0.0
 11
23.991888966522168
 21
33.179587164118509
 31
0.0
  0
LINE
  5
7A
  8
0
  6
BYBLOCK
 62
     0
 10
23.991888966522168
 20
31.99833716411851
 30
0.0
 11
23.991888966522168
 21
32.417087164118499
 31
0.0
  0
SOLID
  5
7B
  8
0
  6
BYBLOCK
 62
     0
 10
23.91688896652218
 20
33.598337164118497
 30
0.0
 11
24.066888966522178
 21
33.598337164118497
 31
0.0
 12
23.991888966522168
 22
34.0483371641185
 32
0.0
 13
23.991888966522168
 23
34.0483371641185
 33
0.0
  0
SOLID
  5
7C
  8
0
  6
BYBLOCK
 62
     0
 10
23.91688896652218
 20
31.99833716411851
 30
0.0
 11
24.066888966522178
 21
31.99833716411851
 31
0.0
 12
23.991888966522168
 22
31.548337164118511
 32
0.0
 13
23.991888966522168
 23
31.548337164118511
 33
0.0
  0
TEXT
  5
7D
  8
0
  6
BYBLOCK
 62
     0
 10
23.562201466522168
 20
32.6420871641185
 30
0.0
 40
0.3125
  1
2.500
 41
0.75
 72
     1
 11
23.991888966522168
 21
32.7983371641185
 31
0.0
 73
     2
  0
POINT
  5
7E
  8
DEFPOINTS
  6
BYBLOCK
 62
     0
 10
22.93732922847121
 20
34.0483371641185
 30
0.0
  0
POINT
  5
7F
  8
DEFPOINTS
  6
BYBLOCK
 62
     0
 10
22.93732922847121
 20
31.548337164118511
 30
0.0
  0
POINT
  5
80
  8
DEFPOINTS
  6
BYBLOCK
 62
     0
 10
23.991888966522168
 20
31.548337164118511
 30
0.0
  0
ENDBLK
  5
81
  8
0
  0
BLOCK
  8
0
  2
*D5
 70
     1
 10
0.0
 20
0.0
 30
0.0
  3
*D5
  1

  0
LINE
  5
83
  8
0
  6
BYBLOCK
 62
     0
 10
3.5595824552317459
 20
32.54999999999999
 30
0.0
 11
1.024290706698439
 21
32.54999999999999
 31
0.0
  0
LINE
  5
84
  8
0
  6
BYBLOCK
 62
     0
 10
3.5595824552317459
 20
30.175000000000001
 30
0.0
 11
1.024290706698439
 21
30.175000000000001
 31
0.0
  0
LINE
  5
85
  8
0
  6
BYBLOCK
 62
     0
 10
1.2567907066984381
 20
32.099999999999987
 30
0.0
 11
1.2567907066984381
 21
31.743749999999991
 31
0.0
  0
LINE
  5
86
  8
0
  6
BYBLOCK
 62
     0
 10
1.2567907066984381
 20
30.625
 30
0.0
 11
1.2567907066984381
 21
30.981249999999989
 31
0.0
  0
SOLID
  5
87
  8
0
  6
BYBLOCK
 62
     0
 10
1.1817907066984381
 20
32.099999999999987
 30
0.0
 11
1.331790706698438
 21
32.099999999999987
 31
0.0
 12
1.2567907066984381
 22
32.54999999999999
 32
0.0
 13
1.2567907066984381
 23
32.54999999999999
 33
0.0
  0
SOLID
  5
88
  8
0
  6
BYBLOCK
 62
     0
 10
1.1817907066984381
 20
30.625
 30
0.0
 11
1.331790706698438
 21
30.625
 31
0.0
 12
1.2567907066984381
 22
30.175000000000001
 32
0.0
 13
1.2567907066984381
 23
30.175000000000001
 33
0.0
  0
TEXT
  5
89
  8
0
  6
BYBLOCK
 62
     0
 10
0.788040706698439
 20
31.20624999999999
 30
0.0
 40
0.3125
  1
2.375
 41
0.75
 72
     1
 11
1.2567907066984381
 21
31.36249999999999
 31
0.0
 73
     2
  0
POINT
  5
8A
  8
DEFPOINTS
  6
BYBLOCK
 62
     0
 10
3.7170824552317461
 20
32.54999999999999
 30
0.0
  0
POINT
  5
8B
  8
DEFPOINTS
  6
BYBLOCK
 62
     0
 10
3.7170824552317461
 20
30.175000000000001
 30
0.0
  0
POINT
  5
8C
  8
DEFPOINTS
  6
BYBLOCK
 62
     0
 10
1.2567907066984381
 20
30.175000000000001
 30
0.0
  0
ENDBLK
  5
8D
  8
0
  0
BLOCK
  8
0
  2
*D6
 70
     1
 10
0.0
 20
0.0
 30
0.0
  3
*D6
  1

  0
LINE
  5
8F
  8
0
  6
BYBLOCK
 62
     0
 10
3.5790824552317448
 20
32.23749999999999
 30
0.0
 11
2.245980799557203
 21
32.23749999999999
 31
0.0
  0
LINE
  5
90
  8
0
  6
BYBLOCK
 62
     0
 10
3.5790824552317448
 20
30.487500000000001
 30
0.0
 11
2.245980799557203
 21
30.487500000000001
 31
0.0
  0
LINE
  5
91
  8
0
  6
BYBLOCK
 62
     0
 10
2.4784807995572029
 20
32.6875
 30
0.0
 11
2.4784807995572029
 21
33.137499999999989
 31
0.0
  0
LINE
  5
92
  8
0
  6
BYBLOCK
 62
     0
 10
2.4784807995572029
 20
30.037500000000001
 30
0.0
 11
2.4784807995572029
 21
29.587499999999999
 31
0.0
  0
SOLID
  5
93
  8
0
  6
BYBLOCK
 62
     0
 10
2.4034807995572032
 20
32.6875
 30
0.0
 11
2.5534807995572031
 21
32.6875
 31
0.0
 12
2.4784807995572029
 22
32.23749999999999
 32
0.0
 13
2.4784807995572029
 23
32.23749999999999
 33
0.0
  0
SOLID
  5
94
  8
0
  6
BYBLOCK
 62
     0
 10
2.4034807995572032
 20
30.037500000000001
 30
0.0
 11
2.5534807995572031
 21
30.037500000000001
 31
0.0
 12
2.4784807995572029
 22
30.487500000000001
 32
0.0
 13
2.4784807995572029
 23
30.487500000000001
 33
0.0
  0
TEXT
  5
95
  8
0
  6
BYBLOCK
 62
     0
 10
2.0683245495572029
 20
31.20624999999999
 30
0.0
 40
0.3125
  1
1.750
 41
0.75
 72
     1
 11
2.4784807995572029
 21
31.36249999999999
 31
0.0
 73
     2
  0
POINT
  5
96
  8
DEFPOINTS
  6
BYBLOCK
 62
     0
 10
3.736582455231745
 20
32.23749999999999
 30
0.0
  0
POINT
  5
97
  8
DEFPOINTS
  6
BYBLOCK
 62
     0
 10
3.736582455231745
 20
30.487500000000001
 30
0.0
  0
POINT
  5
98
  8
DEFPOINTS
  6
BYBLOCK
 62
     0
 10
2.4784807995572029
 20
30.487500000000001
 30
0.0
  0
ENDBLK
  5
99
  8
0
  0
BLOCK
  8
0
  2
*D7
 70
     1
 10
0.0
 20
0.0
 30
0.0
  3
*D7
  1

  0
LINE
  5
9B
  8
0
  6
BYBLOCK
 62
     0
 10
6.5910824552317457
 20
23.096685861510512
 30
0.0
 11
2.245980799557203
 21
23.096685861510512
 31
0.0
  0
LINE
  5
9C
  8
0
  6
BYBLOCK
 62
     0
 10
3.2785824552317449
 20
28.221685861510501
 30
0.0
 11
2.245980799557203
 21
28.221685861510501
 31
0.0
  0
LINE
  5
9D
  8
0
  6
BYBLOCK
 62
     0
 10
2.4784807995572029
 20
23.546685861510511
 30
0.0
 11
2.4784807995572029
 21
25.2779358615105
 31
0.0
  0
LINE
  5
9E
  8
0
  6
BYBLOCK
 62
     0
 10
2.4784807995572029
 20
27.771685861510498
 30
0.0
 11
2.4784807995572029
 21
26.04043586151051
 31
0.0
  0
SOLID
  5
9F
  8
0
  6
BYBLOCK
 62
     0
 10
2.4034807995572032
 20
23.546685861510511
 30
0.0
 11
2.5534807995572031
 21
23.546685861510511
 31
0.0
 12
2.4784807995572029
 22
23.096685861510512
 32
0.0
 13
2.4784807995572029
 23
23.096685861510512
 33
0.0
  0
SOLID
  5
A0
  8
0
  6
BYBLOCK
 62
     0
 10
2.4034807995572032
 20
27.771685861510498
 30
0.0
 11
2.5534807995572031
 21
27.771685861510498
 31
0.0
 12
2.4784807995572029
 22
28.221685861510501
 32
0.0
 13
2.4784807995572029
 23
28.221685861510501
 33
0.0
  0
TEXT
  5
A1
  8
0
  6
BYBLOCK
 62
     0
 10
2.0487932995572029
 20
25.502935861510512
 30
0.0
 40
0.3125
  1
5.125
 41
0.75
 72
     1
 11
2.4784807995572029
 21
25.659185861510512
 31
0.0
 73
     2
  0
POINT
  5
A2
  8
DEFPOINTS
  6
BYBLOCK
 62
     0
 10
6.7485824552317464
 20
23.096685861510512
 30
0.0
  0
POINT
  5
A3
  8
DEFPOINTS
  6
BYBLOCK
 62
     0
 10
3.436082455231745
 20
28.221685861510501
 30
0.0
  0
POINT
  5
A4
  8
DEFPOINTS
  6
BYBLOCK
 62
     0
 10
2.4784807995572029
 20
28.221685861510501
 30
0.0
  0
ENDBLK
  5
A5
  8
0
  0
BLOCK
  8
0
  2
*D8
 70
     1
 10
0.0
 20
0.0
 30
0.0
  3
*D8
  1

  0
LINE
  5
A7
  8
0
  6
BYBLOCK
 62
     0
 10
8.7190824552317476
 20
30.73749999999999
 30
0.0
 11
9.9307838632720387
 21
30.73749999999999
 31
0.0
  0
LINE
  5
A8
  8
0
  6
BYBLOCK
 62
     0
 10
8.7190824552317476
 20
31.98749999999999
 30
0.0
 11
9.9307838632720387
 21
31.98749999999999
 31
0.0
  0
LINE
  5
A9
  8
0
  6
BYBLOCK
 62
     0
 10
9.6982838632720387
 20
30.287500000000001
 30
0.0
 11
9.6982838632720387
 21
29.837499999999999
 31
0.0
  0
LINE
  5
AA
  8
0
  6
BYBLOCK
 62
     0
 10
9.6982838632720387
 20
32.4375
 30
0.0
 11
9.6982838632720387
 21
32.887499999999989
 31
0.0
  0
SOLID
  5
AB
  8
0
  6
BYBLOCK
 62
     0
 10
9.6232838632720394
 20
30.287500000000001
 30
0.0
 11
9.773283863272038
 21
30.287500000000001
 31
0.0
 12
9.6982838632720387
 22
30.73749999999999
 32
0.0
 13
9.6982838632720387
 23
30.73749999999999
 33
0.0
  0
SOLID
  5
AC
  8
0
  6
BYBLOCK
 62
     0
 10
9.6232838632720394
 20
32.4375
 30
0.0
 11
9.773283863272038
 21
32.4375
 31
0.0
 12
9.6982838632720387
 22
31.98749999999999
 32
0.0
 13
9.6982838632720387
 23
31.98749999999999
 33
0.0
  0
TEXT
  5
AD
  8
0
  6
BYBLOCK
 62
     0
 10
9.2881276132720387
 20
31.20624999999999
 30
0.0
 40
0.3125
  1
1.250
 41
0.75
 72
     1
 11
9.6982838632720387
 21
31.36249999999999
 31
0.0
 73
     2
  0
POINT
  5
AE
  8
DEFPOINTS
  6
BYBLOCK
 62
     0
 10
8.5615824552317452
 20
30.73749999999999
 30
0.0
  0
POINT
  5
AF
  8
DEFPOINTS
  6
BYBLOCK
 62
     0
 10
8.5615824552317452
 20
31.98749999999999
 30
0.0
  0
POINT
  5
B0
  8
DEFPOINTS
  6
BYBLOCK
 62
     0
 10
9.6982838632720387
 20
31.98749999999999
 30
0.0
  0
ENDBLK
  5
B1
  8
0
  0
BLOCK
  8
0
  2
*D9
 70
     1
 10
0.0
 20
0.0
 30
0.0
  3
*D9
  1

  0
LINE
  5
B3
  8
0
  6
BYBLOCK
 62
     0
 10
5.2485824552317464
 20
28.688726704511812
 30
0.0
 11
5.2485824552317464
 21
29.21413063344902
 31
0.0
  0
LINE
  5
B4
  8
0
  6
BYBLOCK
 62
     0
 10
3.436082455231745
 20
28.379185861510511
 30
0.0
 11
3.436082455231745
 21
29.21413063344902
 31
0.0
  0
LINE
  5
B5
  8
0
  6
BYBLOCK
 62
     0
 10
5.6985824552317457
 20
28.981630633449019
 30
0.0
 11
6.1485824552317458
 21
28.981630633449019
 31
0.0
  0
LINE
  5
B6
  8
0
  6
BYBLOCK
 62
     0
 10
2.9860824552317462
 20
28.981630633449019
 30
0.0
 11
2.536082455231746
 21
28.981630633449019
 31
0.0
  0
SOLID
  5
B7
  8
0
  6
BYBLOCK
 62
     0
 10
5.6985824552317457
 20
29.056630633449021
 30
0.0
 11
5.6985824552317457
 21
28.906630633449019
 31
0.0
 12
5.2485824552317464
 22
28.981630633449019
 32
0.0
 13
5.2485824552317464
 23
28.981630633449019
 33
0.0
  0
SOLID
  5
B8
  8
0
  6
BYBLOCK
 62
     0
 10
2.9860824552317462
 20
29.056630633449021
 30
0.0
 11
2.9860824552317462
 21
28.906630633449019
 31
0.0
 12
3.436082455231745
 22
28.981630633449019
 32
0.0
 13
3.436082455231745
 23
28.981630633449019
 33
0.0
  0
TEXT
  5
B9
  8
0
  6
BYBLOCK
 62
     0
 10
3.9517074552317459
 20
28.825380633449019
 30
0.0
 40
0.3125
  1
1.813
 41
0.75
 72
     1
 11
4.3423324552317464
 21
28.981630633449019
 31
0.0
 73
     2
  0
POINT
  5
BA
  8
DEFPOINTS
  6
BYBLOCK
 62
     0
 10
5.2485824552317464
 20
28.531226704511809
 30
0.0
  0
POINT
  5
BB
  8
DEFPOINTS
  6
BYBLOCK
 62
     0
 10
3.436082455231745
 20
28.221685861510501
 30
0.0
  0
POINT
  5
BC
  8
DEFPOINTS
  6
BYBLOCK
 62
     0
 10
3.436082455231745
 20
28.981630633449019
 30
0.0
  0
ENDBLK
  5
BD
  8
0
  0
BLOCK
  8
0
  2
*D10
 70
     1
 10
0.0
 20
0.0
 30
0.0
  3
*D10
  1

  0
LINE
  5
BF
  8
0
  6
BYBLOCK
 62
     0
 10
3.8265824552317449
 20
32.484999999999992
 30
0.0
 11
3.8265824552317449
 21
33.573133058339053
 31
0.0
  0
LINE
  5
C0
  8
0
  6
BYBLOCK
 62
     0
 10
6.6705824552317461
 20
32.484999999999992
 30
0.0
 11
6.6705824552317461
 21
33.573133058339053
 31
0.0
  0
LINE
  5
C1
  8
0
  6
BYBLOCK
 62
     0
 10
4.2765824552317451
 20
33.340633058339051
 30
0.0
 11
4.5548324552317458
 21
33.340633058339051
 31
0.0
  0
LINE
  5
C2
  8
0
  6
BYBLOCK
 62
     0
 10
6.2205824552317459
 20
33.340633058339051
 30
0.0
 11
5.942332455231746
 21
33.340633058339051
 31
0.0
  0
SOLID
  5
C3
  8
0
  6
BYBLOCK
 62
     0
 10
4.2765824552317451
 20
33.415633058339047
 30
0.0
 11
4.2765824552317451
 21
33.265633058339048
 31
0.0
 12
3.8265824552317449
 22
33.340633058339051
 32
0.0
 13
3.8265824552317449
 23
33.340633058339051
 33
0.0
  0
SOLID
  5
C4
  8
0
  6
BYBLOCK
 62
     0
 10
6.2205824552317459
 20
33.415633058339047
 30
0.0
 11
6.2205824552317459
 21
33.265633058339048
 31
0.0
 12
6.6705824552317461
 22
33.340633058339051
 32
0.0
 13
6.6705824552317461
 23
33.340633058339051
 33
0.0
  0
TEXT
  5
C5
  8
0
  6
BYBLOCK
 62
     0
 10
4.7798324552317464
 20
33.184383058339051
 30
0.0
 40
0.3125
  1
2.844
 41
0.75
 72
     1
 11
5.2485824552317464
 21
33.340633058339051
 31
0.0
 73
     2
  0
POINT
  5
C6
  8
DEFPOINTS
  6
BYBLOCK
 62
     0
 10
3.8265824552317449
 20
32.327500000000001
 30
0.0
  0
POINT
  5
C7
  8
DEFPOINTS
  6
BYBLOCK
 62
     0
 10
6.6705824552317461
 20
32.327500000000001
 30
0.0
  0
POINT
  5
C8
  8
DEFPOINTS
  6
BYBLOCK
 62
     0
 10
6.6705824552317461
 20
33.340633058339051
 30
0.0
  0
ENDBLK
  5
C9
  8
0
  0
BLOCK
  8
0
  2
*D11
 70
     1
 10
0.0
 20
0.0
 30
0.0
  3
*D11
  1

  0
LINE
  5
CB
  8
0
  6
BYBLOCK
 62
     0
 10
3.436082455231745
 20
32.42649999999999
 30
0.0
 11
3.436082455231745
 21
34.341281673074029
 31
0.0
  0
LINE
  5
CC
  8
0
  6
BYBLOCK
 62
     0
 10
7.0610824552317464
 20
32.42649999999999
 30
0.0
 11
7.0610824552317464
 21
34.341281673074029
 31
0.0
  0
LINE
  5
CD
  8
0
  6
BYBLOCK
 62
     0
 10
3.8860824552317448
 20
34.108781673074027
 30
0.0
 11
4.5548324552317458
 21
34.108781673074027
 31
0.0
  0
LINE
  5
CE
  8
0
  6
BYBLOCK
 62
     0
 10
6.6110824552317462
 20
34.108781673074027
 30
0.0
 11
5.942332455231746
 21
34.108781673074027
 31
0.0
  0
SOLID
  5
CF
  8
0
  6
BYBLOCK
 62
     0
 10
3.8860824552317448
 20
34.183781673074037
 30
0.0
 11
3.8860824552317448
 21
34.033781673074031
 31
0.0
 12
3.436082455231745
 22
34.108781673074027
 32
0.0
 13
3.436082455231745
 23
34.108781673074027
 33
0.0
  0
SOLID
  5
D0
  8
0
  6
BYBLOCK
 62
     0
 10
6.6110824552317462
 20
34.183781673074037
 30
0.0
 11
6.6110824552317462
 21
34.033781673074031
 31
0.0
 12
7.0610824552317464
 22
34.108781673074027
 32
0.0
 13
7.0610824552317464
 23
34.108781673074027
 33
0.0
  0
TEXT
  5
D1
  8
0
  6
BYBLOCK
 62
     0
 10
4.7798324552317464
 20
33.952531673074027
 30
0.0
 40
0.3125
  1
3.625
 41
0.75
 72
     1
 11
5.2485824552317464
 21
34.108781673074027
 31
0.0
 73
     2
  0
POINT
  5
D2
  8
DEFPOINTS
  6
BYBLOCK
 62
     0
 10
3.436082455231745
 20
32.268999999999991
 30
0.0
  0
POINT
  5
D3
  8
DEFPOINTS
  6
BYBLOCK
 62
     0
 10
7.0610824552317464
 20
32.268999999999991
 30
0.0
  0
POINT
  5
D4
  8
DEFPOINTS
  6
BYBLOCK
 62
     0
 10
7.0610824552317464
 20
34.108781673074027
 30
0.0
  0
ENDBLK
  5
D5
  8
0
  0
BLOCK
  8
0
  2
*D12
 70
     1
 10
0.0
 20
0.0
 30
0.0
  3
*D12
  1

  0
LINE
  5
EF
  8
0
  6
BYBLOCK
 62
     0
 10
18.904829228471211
 20
29.365041838109189
 30
0.0
 11
17.700998108123301
 21
29.365041838109189
 31
0.0
  0
LINE
  5
F0
  8
0
  6
BYBLOCK
 62
     0
 10
18.904829228471211
 20
27.803041838109191
 30
0.0
 11
17.700998108123301
 21
27.803041838109191
 31
0.0
  0
LINE
  5
F1
  8
0
  6
BYBLOCK
 62
     0
 10
17.933498108123299
 20
29.815041838109192
 30
0.0
 11
17.933498108123299
 21
30.265041838109191
 31
0.0
  0
LINE
  5
F2
  8
0
  6
BYBLOCK
 62
     0
 10
17.933498108123299
 20
27.353041838109188
 30
0.0
 11
17.933498108123299
 21
26.903041838109189
 31
0.0
  0
SOLID
  5
F3
  8
0
  6
BYBLOCK
 62
     0
 10
17.858498108123289
 20
29.815041838109192
 30
0.0
 11
18.008498108123291
 21
29.815041838109192
 31
0.0
 12
17.933498108123299
 22
29.365041838109189
 32
0.0
 13
17.933498108123299
 23
29.365041838109189
 33
0.0
  0
SOLID
  5
F4
  8
0
  6
BYBLOCK
 62
     0
 10
17.858498108123289
 20
27.353041838109188
 30
0.0
 11
18.008498108123291
 21
27.353041838109188
 31
0.0
 12
17.933498108123299
 22
27.803041838109191
 32
0.0
 13
17.933498108123299
 23
27.803041838109191
 33
0.0
  0
TEXT
  5
F5
  8
0
  6
BYBLOCK
 62
     0
 10
17.503810608123299
 20
28.427791838109179
 30
0.0
 40
0.3125
  1
1.562
 41
0.75
 72
     1
 11
17.933498108123299
 21
28.584041838109179
 31
0.0
 73
     2
  0
POINT
  5
F6
  8
DEFPOINTS
  6
BYBLOCK
 62
     0
 10
19.06232922847121
 20
29.365041838109189
 30
0.0
  0
POINT
  5
F7
  8
DEFPOINTS
  6
BYBLOCK
 62
     0
 10
19.06232922847121
 20
27.803041838109191
 30
0.0
  0
POINT
  5
F8
  8
DEFPOINTS
  6
BYBLOCK
 62
     0
 10
17.933498108123299
 20
27.803041838109191
 30
0.0
  0
ENDBLK
  5
F9
  8
0
  0
BLOCK
  8
0
  2
*D13
 70
     1
 10
0.0
 20
0.0
 30
0.0
  3
*D13
  1

  0
LINE
  5
FB
  8
0
  6
BYBLOCK
 62
     0
 10
18.904829228471211
 20
10.04401117401812
 30
0.0
 11
17.700998108123301
 21
10.04401117401812
 31
0.0
  0
LINE
  5
FC
  8
0
  6
BYBLOCK
 62
     0
 10
18.904829228471211
 20
8.4820111740181261
 30
0.0
 11
17.700998108123301
 21
8.4820111740181261
 31
0.0
  0
LINE
  5
FD
  8
0
  6
BYBLOCK
 62
     0
 10
17.933498108123299
 20
10.494011174018119
 30
0.0
 11
17.933498108123299
 21
10.944011174018121
 31
0.0
  0
LINE
  5
FE
  8
0
  6
BYBLOCK
 62
     0
 10
17.933498108123299
 20
8.0320111740181268
 30
0.0
 11
17.933498108123299
 21
7.5820111740181249
 31
0.0
  0
SOLID
  5
FF
  8
0
  6
BYBLOCK
 62
     0
 10
17.858498108123289
 20
10.494011174018119
 30
0.0
 11
18.008498108123291
 21
10.494011174018119
 31
0.0
 12
17.933498108123299
 22
10.04401117401812
 32
0.0
 13
17.933498108123299
 23
10.04401117401812
 33
0.0
  0
SOLID
  5
100
  8
0
  6
BYBLOCK
 62
     0
 10
17.858498108123289
 20
8.0320111740181268
 30
0.0
 11
18.008498108123291
 21
8.0320111740181268
 31
0.0
 12
17.933498108123299
 22
8.4820111740181261
 32
0.0
 13
17.933498108123299
 23
8.4820111740181261
 33
0.0
  0
TEXT
  5
101
  8
0
  6
BYBLOCK
 62
     0
 10
17.503810608123299
 20
9.1067611740181267
 30
0.0
 40
0.3125
  1
1.562
 41
0.75
 72
     1
 11
17.933498108123299
 21
9.2630111740181267
 31
0.0
 73
     2
  0
POINT
  5
102
  8
DEFPOINTS
  6
BYBLOCK
 62
     0
 10
19.06232922847121
 20
10.04401117401812
 30
0.0
  0
POINT
  5
103
  8
DEFPOINTS
  6
BYBLOCK
 62
     0
 10
19.06232922847121
 20
8.4820111740181261
 30
0.0
  0
POINT
  5
104
  8
DEFPOINTS
  6
BYBLOCK
 62
     0
 10
17.933498108123299
 20
8.4820111740181261
 30
0.0
  0
ENDBLK
  5
105
  8
0
  0
ENDSEC
  0
SECTION
  2
ENTITIES
  0
ARC
  5
106
  8
OBJECT
 10
6.7485824552317437
 20
5.7996858615105138
 30
0.0
 40
2.0
 50
144.5162402754286
 51
80.245264412586721
  0
LINE
  5
107
  8
CENTER
 10
6.6585824552317439
 20
5.7996858615105182
 30
0.0
 11
6.8385824552317436
 21
5.7996858615105182
 31
0.0
  0
LINE
  5
108
  8
CENTER
 10
6.7485824552317437
 20
5.7096858615105139
 30
0.0
 11
6.7485824552317437
 21
5.8896858615105137
 31
0.0
  0
LINE
  5
109
  8
OBJECT
 10
7.0610824552317437
 20
8.9246858615105182
 30
0.0
 11
3.4360824552317442
 21
8.9246858615105111
 31
0.0
  0
LINE
  5
10A
  8
OBJECT
 10
7.0610824552317437
 20
8.7596858615105102
 30
0.0
 11
3.4360824552317442
 21
8.7596858615105191
 31
0.0
  0
LINE
  5
10B
  8
OBJECT
 10
3.4360824552317442
 20
8.7596858615105191
 30
0.0
 11
3.4360824552317442
 21
8.9246858615105111
 31
0.0
  0
LINE
  5
10C
  8
OBJECT
 10
7.0610824552317437
 20
8.7596858615105102
 30
0.0
 11
7.0610824552317437
 21
8.9246858615105182
 31
0.0
  0
LINE
  5
10D
  8
OBJECT
 10
6.3485824552317442
 20
8.4746858615105154
 30
0.0
 11
4.1485824552317441
 21
8.4746858615105154
 31
0.0
  0
LINE
  5
10E
  8
OBJECT
 10
4.1485824552317441
 20
8.4746858615105154
 30
0.0
 11
4.1485824552317441
 21
8.5946858615105128
 31
0.0
  0
LINE
  5
10F
  8
OBJECT
 10
6.3485824552317442
 20
8.4746858615105154
 30
0.0
 11
6.3485824552317451
 21
8.5946858615105128
 31
0.0
  0
LINE
  5
110
  8
OBJECT
 10
6.3485824552317442
 20
8.5946858615105128
 30
0.0
 11
6.3475824552317448
 21
8.5946858615105128
 31
0.0
  0
LINE
  5
111
  8
OBJECT
 10
4.2185824552317452
 20
8.6636858615105155
 30
0.0
 11
4.2185824552317452
 21
8.6636858615105155
 31
0.0
  0
LINE
  5
112
  8
OBJECT
 10
6.2785824552317449
 20
8.6636858615105155
 30
0.0
 11
6.2785824552317449
 21
8.6636858615105155
 31
0.0
  0
LINE
  5
113
  8
OBJECT
 10
4.1495824552317444
 20
8.5946858615105128
 30
0.0
 11
4.1485824552317441
 21
8.5946858615105128
 31
0.0
  0
ARC
  5
114
  8
OBJECT
 10
4.1495824552317444
 20
8.6636858615105137
 30
0.0
 40
0.069
 50
270.0
 51
0.0
  0
ARC
  5
115
  8
OBJECT
 10
6.3475824552317448
 20
8.6636858615105137
 30
0.0
 40
0.069
 50
180.00000000000031
 51
270.0
  0
ARC
  5
116
  8
OBJECT
 10
4.3145824552317444
 20
8.6636858615105172
 30
0.0
 40
0.096
 50
90.0
 51
180.0
  0
ARC
  5
117
  8
OBJECT
 10
6.1825824552317448
 20
8.6636858615105172
 30
0.0
 40
0.096
 50
0.0000000000005089
 51
89.999999999999986
  0
LINE
  5
118
  8
OBJECT
 10
4.1485824552317441
 20
8.5946858615105128
 30
0.0
 11
6.3485824552317442
 21
8.5946858615105128
 31
0.0
  0
LINE
  5
119
  8
OBJECT
 10
4.068582455231744
 20
8.1746858615105111
 30
0.0
 11
4.068582455231744
 21
7.9246858615105138
 31
0.0
  0
LINE
  5
11A
  8
OBJECT
 10
6.4285824552317434
 20
8.1746858615105111
 30
0.0
 11
6.4285824552317434
 21
8.1136858615105147
 31
0.0
  0
LINE
  5
11B
  8
OBJECT
 10
6.1785824552317417
 20
8.4246858615105111
 30
0.0
 11
4.318582455231744
 21
8.4246858615105111
 31
0.0
  0
ARC
  5
11C
  8
OBJECT
 10
4.318582455231744
 20
8.1746858615105147
 30
0.0
 40
0.25
 50
90.000000000000028
 51
180.0
  0
ARC
  5
11D
  8
OBJECT
 10
6.1785824552317434
 20
8.1746858615105147
 30
0.0
 40
0.25
 50
0.0
 51
90.0
  0
LINE
  5
11E
  8
OBJECT
 10
6.9985824552317437
 20
5.4246858615105111
 30
0.0
 11
6.2160954758688538
 21
5.4246858615105111
 31
0.0
  0
ARC
  5
11F
  8
OBJECT
 10
6.9985824552317437
 20
5.6746858615105129
 30
0.0
 40
0.25
 50
270.0
 51
0.0
  0
LINE
  5
120
  8
OBJECT
 10
4.6765804569073746
 20
7.7358781662734009
 30
0.0
 11
5.8905844535561149
 21
5.6134935567476267
 31
0.0
  0
ARC
  5
121
  8
OBJECT
 10
6.2160954758688538
 20
5.7996858615105129
 30
0.0
 40
0.375
 50
209.76955648039211
 51
270.0
  0
LINE
  5
122
  8
OBJECT
 10
4.3510694345946357
 20
7.9246858615105138
 30
0.0
 11
4.068582455231744
 21
7.9246858615105111
 31
0.0
  0
ARC
  5
123
  8
OBJECT
 10
4.3510694345946348
 20
7.5496858615105138
 30
0.0
 40
0.375
 50
29.7695564803922
 51
90.0
  0
LINE
  5
124
  8
OBJECT
 10
7.0610824552317446
 20
8.1136858615105147
 30
0.0
 11
6.4285824552317434
 21
8.1136858615105147
 31
0.0
  0
LINE
  5
125
  8
OBJECT
 10
7.0610824552317446
 20
8.1136858615105147
 30
0.0
 11
7.2485824552317437
 21
5.6746858615105111
 31
0.0
  0
LINE
  5
126
  8
OBJECT
 10
6.5249284825529674
 20
7.7820811374126464
 30
0.0
 11
6.7743194951179229
 21
7.7995202558486758
 31
0.0
  0
LINE
  5
127
  8
OBJECT
 10
6.7743194951179229
 20
7.7995202558486758
 30
0.0
 11
6.8022220846155728
 21
7.4004946357447494
 31
0.0
  0
LINE
  5
128
  8
OBJECT
 10
6.8022220846155728
 20
7.4004946357447494
 30
0.0
 11
6.5528310720506182
 21
7.3830555173087191
 31
0.0
  0
LINE
  5
129
  8
OBJECT
 10
6.5528310720506182
 20
7.3830555173087191
 30
0.0
 11
6.5249284825529674
 21
7.7820811374126464
 31
0.0
  0
LINE
  5
12A
  8
OBJECT
 10
4.342582455231744
 20
8.4746858615105296
 30
0.0
 11
4.342582455231744
 21
8.4246858615105324
 31
0.0
  0
LINE
  5
12B
  8
OBJECT
 10
6.1545824552317452
 20
8.4746858615105012
 30
0.0
 11
6.1545824552317434
 21
8.4246858615104951
 31
0.0
  0
POLYLINE
  5
12C
  8
OBJECT
 66
     1
 10
0.0
 20
0.0
 30
0.0
 70
     1
  0
VERTEX
  5
379
  8
OBJECT
 10
6.4757844530396458
 20
5.642185861510514
 30
0.0
  0
VERTEX
  5
37A
  8
OBJECT
 10
6.7485824552317437
 20
5.4846858615105134
 30
0.0
  0
VERTEX
  5
37B
  8
OBJECT
 10
7.0213804574238434
 20
5.642185861510514
 30
0.0
  0
VERTEX
  5
37C
  8
OBJECT
 10
7.0213804574238434
 20
5.9571858615105127
 30
0.0
  0
VERTEX
  5
37D
  8
OBJECT
 10
6.7485824552317446
 20
6.1146858615105142
 30
0.0
  0
VERTEX
  5
37E
  8
OBJECT
 10
6.4757844530396467
 20
5.9571858615105144
 30
0.0
  0
SEQEND
  5
37F
  8
OBJECT
  0
CIRCLE
  5
134
  8
OBJECT
 10
6.7485824552317437
 20
5.7996858615105138
 30
0.0
 40
0.1875
  0
ARC
  5
135
  8
OBJECT
 10
6.7485824552317437
 20
5.7996858615105138
 30
0.0
 40
0.71
 50
211.16348304035711
 51
50.871965141240288
  0
ARC
  5
136
  8
OBJECT
 10
6.7485824552317437
 20
5.7996858615105138
 30
0.0
 40
0.915
 50
185.9736305482233
 51
62.094866525378542
  0
ARC
  5
137
  8
OBJECT
 10
6.7485824552317437
 20
5.7996858615105138
 30
0.0
 40
0.5
 50
228.5903778907294
 51
315.3005227106965
  0
ARC
  5
138
  8
OBJECT
 10
6.7485824552317437
 20
5.7996858615105138
 30
0.0
 40
0.5
 50
352.32678642401987
 51
16.465235038971919
  0
ARC
  5
139
  8
HIDDEN
 10
6.7485824552317437
 20
5.7996858615105138
 30
0.0
 40
1.9999999999999989
 50
80.245264412586707
 51
144.5162402754286
  0
LINE
  5
13A
  8
OBJECT
 10
6.780082455231744
 20
10.878
 30
0.0
 11
3.7170824552317439
 21
10.878
 31
0.0
  0
LINE
  5
13B
  8
OBJECT
 10
7.0610824552317437
 20
11.159000000000001
 30
0.0
 11
7.0610824552317437
 21
12.972
 31
0.0
  0
LINE
  5
13C
  8
OBJECT
 10
6.780082455231744
 20
13.253
 30
0.0
 11
3.7170824552317439
 21
13.253
 31
0.0
  0
LINE
  5
13D
  8
OBJECT
 10
3.4360824552317442
 20
12.972
 30
0.0
 11
3.4360824552317442
 21
11.159000000000001
 31
0.0
  0
ARC
  5
13E
  8
OBJECT
 10
3.7485824552317442
 20
12.9405
 30
0.0
 40
0.172
 50
90.000000000000142
 51
269.99999999999977
  0
ARC
  5
13F
  8
OBJECT
 10
3.904582455231743
 20
12.9405
 30
0.0
 40
0.172
 50
270.00000000000011
 51
89.999999999999872
  0
LINE
  5
140
  8
CENTER
 10
3.7365824552317428
 20
12.9405
 30
0.0
 11
3.916582455231743
 21
12.9405
 31
0.0
  0
LINE
  5
141
  8
CENTER
 10
3.8265824552317431
 20
12.8505
 30
0.0
 11
3.8265824552317431
 21
13.0305
 31
0.0
  0
LINE
  5
142
  8
OBJECT
 10
3.7485824552317442
 20
13.112500000000001
 30
0.0
 11
3.9045824552317439
 21
13.112500000000001
 31
0.0
  0
LINE
  5
143
  8
OBJECT
 10
3.7485824552317442
 20
12.7685
 30
0.0
 11
3.9045824552317439
 21
12.7685
 31
0.0
  0
LINE
  5
144
  8
OBJECT
 10
6.7485824552317437
 20
12.7685
 30
0.0
 11
6.592582455231744
 21
12.7685
 31
0.0
  0
LINE
  5
145
  8
OBJECT
 10
6.7485824552317437
 20
13.112500000000001
 30
0.0
 11
6.592582455231744
 21
13.112500000000001
 31
0.0
  0
LINE
  5
146
  8
CENTER
 10
6.6705824552317452
 20
12.8505
 30
0.0
 11
6.6705824552317452
 21
13.0305
 31
0.0
  0
LINE
  5
147
  8
CENTER
 10
6.7605824552317451
 20
12.9405
 30
0.0
 11
6.5805824552317453
 21
12.9405
 31
0.0
  0
ARC
  5
148
  8
OBJECT
 10
6.592582455231744
 20
12.9405
 30
0.0
 40
0.172
 50
90.000000000000114
 51
269.99999999999977
  0
ARC
  5
149
  8
OBJECT
 10
6.7485824552317437
 20
12.9405
 30
0.0
 40
0.172
 50
270.00000000000011
 51
89.999999999999872
  0
ARC
  5
14A
  8
OBJECT
 10
6.7485824552317437
 20
11.1905
 30
0.0
 40
0.172
 50
270.00000000000011
 51
89.999999999999844
  0
ARC
  5
14B
  8
OBJECT
 10
6.592582455231744
 20
11.1905
 30
0.0
 40
0.172
 50
90.000000000000114
 51
269.99999999999977
  0
LINE
  5
14C
  8
CENTER
 10
6.7605824552317451
 20
11.1905
 30
0.0
 11
6.5805824552317453
 21
11.1905
 31
0.0
  0
LINE
  5
14D
  8
CENTER
 10
6.6705824552317452
 20
11.2805
 30
0.0
 11
6.6705824552317452
 21
11.1005
 31
0.0
  0
LINE
  5
14E
  8
OBJECT
 10
6.7485824552317437
 20
11.0185
 30
0.0
 11
6.592582455231744
 21
11.0185
 31
0.0
  0
LINE
  5
14F
  8
OBJECT
 10
6.7485824552317437
 20
11.362500000000001
 30
0.0
 11
6.592582455231744
 21
11.362500000000001
 31
0.0
  0
LINE
  5
150
  8
OBJECT
 10
3.7485824552317442
 20
11.362500000000001
 30
0.0
 11
3.9045824552317439
 21
11.362500000000001
 31
0.0
  0
LINE
  5
151
  8
OBJECT
 10
3.7485824552317442
 20
11.0185
 30
0.0
 11
3.9045824552317439
 21
11.0185
 31
0.0
  0
LINE
  5
152
  8
CENTER
 10
3.8265824552317431
 20
11.2805
 30
0.0
 11
3.8265824552317431
 21
11.1005
 31
0.0
  0
LINE
  5
153
  8
CENTER
 10
3.7365824552317428
 20
11.1905
 30
0.0
 11
3.916582455231743
 21
11.1905
 31
0.0
  0
ARC
  5
154
  8
OBJECT
 10
3.904582455231743
 20
11.1905
 30
0.0
 40
0.172
 50
270.00000000000011
 51
89.999999999999844
  0
ARC
  5
155
  8
OBJECT
 10
3.7485824552317442
 20
11.1905
 30
0.0
 40
0.172
 50
90.000000000000114
 51
269.99999999999977
  0
ARC
  5
156
  8
OBJECT
 10
3.7170824552317439
 20
11.159000000000001
 30
0.0
 40
0.281
 50
180.0
 51
270.0
  0
ARC
  5
157
  8
OBJECT
 10
6.780082455231744
 20
11.159000000000001
 30
0.0
 40
0.281
 50
270.0
 51
0.0
  0
ARC
  5
158
  8
OBJECT
 10
6.780082455231744
 20
12.972
 30
0.0
 40
0.281
 50
0.0
 51
90.0
  0
ARC
  5
159
  8
OBJECT
 10
3.7170824552317439
 20
12.972
 30
0.0
 40
0.281
 50
89.999999999999986
 51
180.0
  0
CIRCLE
  5
15A
  8
OBJECT
 10
5.2485824552317437
 20
12.0655
 30
0.0
 40
0.45
  0
CIRCLE
  5
15B
  8
OBJECT
 10
5.2485824552317437
 20
12.0655
 30
0.0
 40
0.5150000000000001
  0
LINE
  5
15C
  8
OBJECT
 10
8.7485824552317464
 20
11.6275
 30
0.0
 11
8.7485824552317464
 21
12.503500000000001
 31
0.0
  0
LINE
  5
15D
  8
OBJECT
 10
7.0610824552317437
 20
12.6905
 30
0.0
 11
8.5615824552317452
 21
12.6905
 31
0.0
  0
LINE
  5
15E
  8
OBJECT
 10
7.0610824552317437
 20
11.4405
 30
0.0
 11
8.5615824552317452
 21
11.4405
 31
0.0
  0
ARC
  5
15F
  8
OBJECT
 10
8.5615824552317452
 20
11.6275
 30
0.0
 40
0.187
 50
270.0
 51
0.0
  0
ARC
  5
160
  8
OBJECT
 10
8.5615824552317452
 20
12.503500000000001
 30
0.0
 40
0.187
 50
0.0
 51
90.000000000000057
  0
LINE
  5
161
  8
OBJECT
 10
11.33370967108158
 20
3.986685861510515
 30
0.0
 11
11.33370967108158
 21
7.6126858615105126
 31
0.0
  0
LINE
  5
162
  8
OBJECT
 10
11.52070967108158
 20
7.7996858615105111
 30
0.0
 11
12.39670967108159
 21
7.7996858615105138
 31
0.0
  0
LINE
  5
163
  8
OBJECT
 10
12.583709671081589
 20
7.6126858615105126
 30
0.0
 11
12.583709671081589
 21
3.986685861510515
 31
0.0
  0
LINE
  5
164
  8
OBJECT
 10
12.39670967108159
 20
3.7996858615105178
 30
0.0
 11
11.52070967108158
 21
3.7996858615105178
 31
0.0
  0
ARC
  5
165
  8
OBJECT
 10
11.52070967108158
 20
3.9866858615105141
 30
0.0
 40
0.187
 50
180.0
 51
270.0
  0
ARC
  5
166
  8
OBJECT
 10
12.39670967108159
 20
3.9866858615105141
 30
0.0
 40
0.187
 50
270.0
 51
0.0
  0
ARC
  5
167
  8
OBJECT
 10
12.39670967108159
 20
7.6126858615105144
 30
0.0
 40
0.187
 50
0.0
 51
90.0
  0
ARC
  5
168
  8
OBJECT
 10
11.52070967108158
 20
7.6126858615105126
 30
0.0
 40
0.187
 50
90.0
 51
180.0
  0
LINE
  5
169
  8
OBJECT
 10
11.038709671081589
 20
5.4246858615105111
 30
0.0
 11
11.14770967108158
 21
5.4246858615105111
 31
0.0
  0
LINE
  5
16A
  8
OBJECT
 10
11.038709671081589
 20
7.8486858615105168
 30
0.0
 11
11.038709671081589
 21
5.4246858615105111
 31
0.0
  0
LINE
  5
16B
  8
OBJECT
 10
12.87870967108158
 20
7.8486858615105168
 30
0.0
 11
12.87870967108158
 21
5.4246858615105111
 31
0.0
  0
LINE
  5
16C
  8
OBJECT
 10
11.147709671081589
 20
7.8486858615105168
 30
0.0
 11
11.14770967108158
 21
5.4246858615105111
 31
0.0
  0
LINE
  5
16D
  8
OBJECT
 10
12.76970967108158
 20
7.8486858615105168
 30
0.0
 11
12.769709671081589
 21
5.4246858615105111
 31
0.0
  0
LINE
  5
16E
  8
OBJECT
 10
12.769709671081589
 20
5.4246858615105111
 30
0.0
 11
12.87870967108158
 21
5.4246858615105111
 31
0.0
  0
LINE
  5
16F
  8
OBJECT
 10
11.30370967108159
 20
8.1136858615105183
 30
0.0
 11
12.61370967108158
 21
8.1136858615105147
 31
0.0
  0
LINE
  5
170
  8
OBJECT
 10
11.30370967108159
 20
8.0046858615105165
 30
0.0
 11
12.61370967108158
 21
8.0046858615105165
 31
0.0
  0
ARC
  5
171
  8
OBJECT
 10
11.30370967108159
 20
7.8486858615105151
 30
0.0
 40
0.156
 50
90.0
 51
180.0
  0
ARC
  5
172
  8
OBJECT
 10
12.61370967108158
 20
7.8486858615105151
 30
0.0
 40
0.156
 50
0.0
 51
90.0
  0
ARC
  5
173
  8
OBJECT
 10
11.30370967108159
 20
7.8486858615105151
 30
0.0
 40
0.265
 50
90.0
 51
180.0
  0
ARC
  5
174
  8
OBJECT
 10
12.61370967108158
 20
7.8486858615105151
 30
0.0
 40
0.265
 50
0.0
 51
89.999999999999986
  0
LINE
  5
175
  8
OBJECT
 10
12.86470967108159
 20
8.4746858615105012
 30
0.0
 11
12.864709671081579
 21
8.4246858615104951
 31
0.0
  0
LINE
  5
176
  8
OBJECT
 10
11.05270967108158
 20
8.4746858615105296
 30
0.0
 11
11.05270967108158
 21
8.4246858615105324
 31
0.0
  0
ARC
  5
177
  8
OBJECT
 10
12.88870967108158
 20
8.1746858615105147
 30
0.0
 40
0.25
 50
0.0
 51
90.0
  0
ARC
  5
178
  8
OBJECT
 10
11.028709671081581
 20
8.1746858615105147
 30
0.0
 40
0.25
 50
90.000000000000028
 51
180.0
  0
LINE
  5
179
  8
OBJECT
 10
12.88870967108158
 20
8.4246858615105111
 30
0.0
 11
11.028709671081581
 21
8.4246858615105111
 31
0.0
  0
LINE
  5
17A
  8
OBJECT
 10
10.858709671081581
 20
8.5946858615105128
 30
0.0
 11
13.05870967108158
 21
8.5946858615105128
 31
0.0
  0
ARC
  5
17B
  8
OBJECT
 10
12.89270967108159
 20
8.6636858615105172
 30
0.0
 40
0.096
 50
0.0000000000005089
 51
89.999999999999986
  0
ARC
  5
17C
  8
OBJECT
 10
11.024709671081579
 20
8.6636858615105172
 30
0.0
 40
0.096
 50
90.0
 51
180.0
  0
ARC
  5
17D
  8
OBJECT
 10
13.057709671081589
 20
8.6636858615105137
 30
0.0
 40
0.069
 50
180.00000000000031
 51
270.0
  0
ARC
  5
17E
  8
OBJECT
 10
10.85970967108158
 20
8.6636858615105137
 30
0.0
 40
0.069
 50
270.0
 51
0.0
  0
LINE
  5
17F
  8
OBJECT
 10
10.85970967108158
 20
8.5946858615105128
 30
0.0
 11
10.858709671081581
 21
8.5946858615105128
 31
0.0
  0
LINE
  5
180
  8
OBJECT
 10
12.98870967108159
 20
8.6636858615105155
 30
0.0
 11
12.98870967108159
 21
8.6636858615105155
 31
0.0
  0
LINE
  5
181
  8
OBJECT
 10
10.92870967108159
 20
8.6636858615105155
 30
0.0
 11
10.92870967108159
 21
8.6636858615105155
 31
0.0
  0
LINE
  5
182
  8
OBJECT
 10
13.05870967108158
 20
8.5946858615105128
 30
0.0
 11
13.057709671081589
 21
8.5946858615105128
 31
0.0
  0
LINE
  5
183
  8
OBJECT
 10
13.05870967108158
 20
8.4746858615105154
 30
0.0
 11
13.05870967108158
 21
8.5946858615105128
 31
0.0
  0
LINE
  5
184
  8
OBJECT
 10
10.858709671081581
 20
8.4746858615105154
 30
0.0
 11
10.858709671081581
 21
8.5946858615105128
 31
0.0
  0
LINE
  5
185
  8
OBJECT
 10
13.05870967108158
 20
8.4746858615105154
 30
0.0
 11
10.858709671081581
 21
8.4746858615105154
 31
0.0
  0
LINE
  5
186
  8
OBJECT
 10
13.146209671081589
 20
8.7596858615105102
 30
0.0
 11
13.146209671081589
 21
8.9246858615105182
 31
0.0
  0
LINE
  5
187
  8
OBJECT
 10
10.77120967108158
 20
8.7596858615105191
 30
0.0
 11
10.77120967108158
 21
8.9246858615105111
 31
0.0
  0
LINE
  5
188
  8
OBJECT
 10
13.146209671081589
 20
8.7596858615105102
 30
0.0
 11
10.77120967108158
 21
8.7596858615105191
 31
0.0
  0
LINE
  5
189
  8
OBJECT
 10
13.146209671081589
 20
8.9246858615105182
 30
0.0
 11
10.77120967108158
 21
8.9246858615105111
 31
0.0
  0
LINE
  5
18A
  8
OBJECT
 10
11.19370967108158
 20
6.2996858615105111
 30
0.0
 11
11.19370967108158
 21
5.2996858615105182
 31
0.0
  0
LINE
  5
18B
  8
OBJECT
 10
11.19370967108158
 20
5.2996858615105182
 30
0.0
 11
11.33370967108158
 21
5.1690191948438482
 31
0.0
  0
LINE
  5
18C
  8
OBJECT
 10
11.19370967108158
 20
6.2996858615105111
 30
0.0
 11
11.33370967108158
 21
6.4303525281771812
 31
0.0
  0
LINE
  5
18D
  8
OBJECT
 10
12.723709671081579
 20
6.2996858615105111
 30
0.0
 11
12.723709671081579
 21
5.2996858615105182
 31
0.0
  0
LINE
  5
18E
  8
OBJECT
 10
12.723709671081579
 20
5.2996858615105182
 30
0.0
 11
12.58370967108158
 21
5.1690191948438482
 31
0.0
  0
LINE
  5
18F
  8
OBJECT
 10
12.723709671081579
 20
6.2996858615105111
 30
0.0
 11
12.58370967108158
 21
6.4303525281771812
 31
0.0
  0
LINE
  5
190
  8
OBJECT
 10
12.72370967108159
 20
5.986685861510515
 30
0.0
 11
12.769709671081589
 21
5.986685861510515
 31
0.0
  0
LINE
  5
191
  8
OBJECT
 10
12.72370967108159
 20
5.6126858615105126
 30
0.0
 11
12.769709671081589
 21
5.6126858615105126
 31
0.0
  0
LINE
  5
192
  8
OBJECT
 10
13.09670967108158
 20
5.986685861510515
 30
0.0
 11
13.23870967108158
 21
5.986685861510515
 31
0.0
  0
LINE
  5
193
  8
OBJECT
 10
13.09670967108158
 20
5.6126858615105126
 30
0.0
 11
13.23870967108158
 21
5.6126858615105126
 31
0.0
  0
LINE
  5
194
  8
OBJECT
 10
11.14770967108158
 20
5.6126858615105126
 30
0.0
 11
11.19370967108159
 21
5.6126858615105126
 31
0.0
  0
LINE
  5
195
  8
OBJECT
 10
11.14770967108158
 20
5.986685861510515
 30
0.0
 11
11.19370967108159
 21
5.986685861510515
 31
0.0
  0
LINE
  5
196
  8
OBJECT
 10
10.8607096710815
 20
6.114685861510508
 30
0.0
 11
10.99870967108145
 21
6.114685861510508
 31
0.0
  0
LINE
  5
197
  8
OBJECT
 10
10.8607096710815
 20
5.4846858615105196
 30
0.0
 11
10.998709671081571
 21
5.4846858615105196
 31
0.0
  0
LINE
  5
198
  8
OBJECT
 10
10.860709671081571
 20
5.9571858615105091
 30
0.0
 11
10.998709671081549
 21
5.9571858615105091
 31
0.0
  0
LINE
  5
199
  8
OBJECT
 10
10.860709671081571
 20
5.6421858615105123
 30
0.0
 11
10.998709671081579
 21
5.6421858615105123
 31
0.0
  0
LINE
  5
19A
  8
OBJECT
 10
13.23870967108158
 20
5.986685861510515
 30
0.0
 11
13.23870967108158
 21
5.6126858615105126
 31
0.0
  0
ARC
  5
19B
  8
OBJECT
 10
11.150787796081589
 20
5.7996858615105111
 30
0.0
 40
0.3300781250000053
 50
151.4999346043933
 51
208.50006539560661
  0
LINE
  5
19C
  8
OBJECT
 10
10.82070967108158
 20
6.0359358990764127
 30
0.0
 11
10.82070967108158
 21
5.5634359243765203
 31
0.0
  0
ARC
  5
19D
  8
OBJECT
 10
10.918229202331601
 20
6.0359358615105059
 30
0.0
 40
0.0975195312500108
 50
126.14464429792299
 51
233.8553557020677
  0
ARC
  5
19E
  8
OBJECT
 10
10.918229202331601
 20
5.5634358615105208
 30
0.0
 40
0.0975195312500108
 50
126.1446442979321
 51
233.85535570207691
  0
ARC
  5
19F
  8
OBJECT
 10
10.94119013983158
 20
5.5634358615105208
 30
0.0
 40
0.0975195312500108
 50
306.14464429792298
 51
53.855355702067797
  0
ARC
  5
1A0
  8
OBJECT
 10
10.70863154608158
 20
5.7996858615105111
 30
0.0
 40
0.3300781250000053
 50
331.49993460439327
 51
28.500065395606651
  0
ARC
  5
1A1
  8
OBJECT
 10
10.94119013983158
 20
6.0359358615105059
 30
0.0
 40
0.0975195312500108
 50
306.14464429793208
 51
53.855355702076942
  0
ARC
  5
1A2
  8
OBJECT
 10
12.9762292023316
 20
6.0359358615105059
 30
0.0
 40
0.0975195312500108
 50
126.14464429792299
 51
233.85535570206781
  0
ARC
  5
1A3
  8
OBJECT
 10
13.208787796081589
 20
5.7996858615105111
 30
0.0
 40
0.3300781250000053
 50
151.4999346043933
 51
208.5000653956067
  0
ARC
  5
1A4
  8
OBJECT
 10
12.9762292023316
 20
5.5634358615105208
 30
0.0
 40
0.0975195312500108
 50
126.1446442979321
 51
233.85535570207699
  0
ARC
  5
1A5
  8
OBJECT
 10
12.99919013983158
 20
5.5634358615105208
 30
0.0
 40
0.0975195312500108
 50
306.14464429792298
 51
53.855355702067797
  0
ARC
  5
1A6
  8
OBJECT
 10
12.99919013983158
 20
6.0359358615105059
 30
0.0
 40
0.0975195312500108
 50
306.14464429793208
 51
53.855355702076942
  0
LINE
  5
1A7
  8
OBJECT
 10
13.096709671081589
 20
6.0359358990764127
 30
0.0
 11
13.096709671081589
 21
5.5634359243765203
 31
0.0
  0
ARC
  5
1A8
  8
OBJECT
 10
12.76663154608158
 20
5.7996858615105111
 30
0.0
 40
0.3300781250000053
 50
331.49993460439327
 51
28.500065395606651
  0
LINE
  5
1A9
  8
OBJECT
 10
13.056709671081601
 20
5.6421858615105123
 30
0.0
 11
12.91870967108159
 21
5.6421858615105123
 31
0.0
  0
LINE
  5
1AA
  8
OBJECT
 10
13.056709671081601
 20
5.9571858615105091
 30
0.0
 11
12.91870967108162
 21
5.9571858615105091
 31
0.0
  0
LINE
  5
1AB
  8
OBJECT
 10
13.05670967108167
 20
5.4846858615105196
 30
0.0
 11
12.918709671081601
 21
5.4846858615105196
 31
0.0
  0
LINE
  5
1AC
  8
OBJECT
 10
13.05670967108167
 20
6.114685861510508
 30
0.0
 11
12.91870967108172
 21
6.114685861510508
 31
0.0
  0
LINE
  5
1AD
  8
OBJECT
 10
10.778709671081581
 20
8.1746858615105111
 30
0.0
 11
10.778709671081581
 21
6.9032914021458254
 31
0.0
  0
ARC
  5
1AE
  8
OBJECT
 10
18.72825820328757
 20
7.53898863182817
 30
0.0
 40
7.9749252556825994
 50
184.5720115957352
 51
190.28808651765331
  0
LINE
  5
1AF
  8
OBJECT
 10
13.13870967108158
 20
8.1746858615105111
 30
0.0
 11
13.13870967108158
 21
6.9032914021458254
 31
0.0
  0
ARC
  5
1B0
  8
OBJECT
 10
5.1891611388756012
 20
7.53898863182817
 30
0.0
 40
7.9749252556825994
 50
349.71191348234669
 51
355.4279884042648
  0
ARC
  5
1B1
  8
OBJECT
 10
6.7485824552317464
 20
25.096685861510512
 30
0.0
 40
2.0
 50
144.5162402754286
 51
57.500299429808933
  0
LINE
  5
1B2
  8
CENTER
 10
6.6585824552317456
 20
25.096685861510512
 30
0.0
 11
6.8385824552317462
 21
25.096685861510512
 31
0.0
  0
LINE
  5
1B3
  8
CENTER
 10
6.7485824552317464
 20
25.006685861510501
 30
0.0
 11
6.7485824552317464
 21
25.186685861510512
 31
0.0
  0
LINE
  5
1B4
  8
OBJECT
 10
7.0610824552317464
 20
28.221685861510512
 30
0.0
 11
3.436082455231745
 21
28.221685861510501
 31
0.0
  0
LINE
  5
1B5
  8
OBJECT
 10
7.0610824552317464
 20
28.056685861510509
 30
0.0
 11
3.436082455231745
 21
28.056685861510509
 31
0.0
  0
LINE
  5
1B6
  8
OBJECT
 10
3.436082455231745
 20
28.056685861510509
 30
0.0
 11
3.436082455231745
 21
28.221685861510501
 31
0.0
  0
LINE
  5
1B7
  8
OBJECT
 10
7.0610824552317464
 20
28.056685861510509
 30
0.0
 11
7.0610824552317464
 21
28.221685861510512
 31
0.0
  0
LINE
  5
1B8
  8
OBJECT
 10
6.348582455231746
 20
27.771685861510498
 30
0.0
 11
4.1485824552317458
 21
27.771685861510498
 31
0.0
  0
LINE
  5
1B9
  8
OBJECT
 10
4.1485824552317458
 20
27.771685861510498
 30
0.0
 11
4.1485824552317458
 21
27.89168586151051
 31
0.0
  0
LINE
  5
1BA
  8
OBJECT
 10
6.348582455231746
 20
27.771685861510498
 30
0.0
 11
6.348582455231746
 21
27.89168586151051
 31
0.0
  0
LINE
  5
1BB
  8
OBJECT
 10
6.348582455231746
 20
27.89168586151051
 30
0.0
 11
6.3475824552317466
 21
27.89168586151051
 31
0.0
  0
LINE
  5
1BC
  8
OBJECT
 10
4.218582455231747
 20
27.960685861510509
 30
0.0
 11
4.218582455231747
 21
27.960685861510509
 31
0.0
  0
LINE
  5
1BD
  8
OBJECT
 10
6.2785824552317466
 20
27.960685861510509
 30
0.0
 11
6.2785824552317466
 21
27.960685861510509
 31
0.0
  0
LINE
  5
1BE
  8
OBJECT
 10
4.1495824552317462
 20
27.89168586151051
 30
0.0
 11
4.1485824552317458
 21
27.89168586151051
 31
0.0
  0
ARC
  5
1BF
  8
OBJECT
 10
4.1495824552317462
 20
27.960685861510509
 30
0.0
 40
0.069
 50
270.0
 51
0.0
  0
ARC
  5
1C0
  8
OBJECT
 10
6.3475824552317466
 20
27.960685861510509
 30
0.0
 40
0.069
 50
180.00000000000031
 51
270.0
  0
ARC
  5
1C1
  8
OBJECT
 10
4.3145824552317462
 20
27.960685861510509
 30
0.0
 40
0.096
 50
90.0
 51
180.0
  0
ARC
  5
1C2
  8
OBJECT
 10
6.1825824552317474
 20
27.960685861510509
 30
0.0
 40
0.096
 50
0.0000000000005089
 51
89.999999999999986
  0
LINE
  5
1C3
  8
OBJECT
 10
4.1485824552317458
 20
27.89168586151051
 30
0.0
 11
6.348582455231746
 21
27.89168586151051
 31
0.0
  0
LINE
  5
1C4
  8
OBJECT
 10
4.0685824552317458
 20
27.471685861510512
 30
0.0
 11
4.0685824552317458
 21
27.221685861510512
 31
0.0
  0
LINE
  5
1C5
  8
OBJECT
 10
6.4285824552317452
 20
27.471685861510512
 30
0.0
 11
6.4285824552317452
 21
27.410685861510508
 31
0.0
  0
LINE
  5
1C6
  8
OBJECT
 10
6.1785824552317443
 20
27.721685861510501
 30
0.0
 11
4.3185824552317458
 21
27.721685861510501
 31
0.0
  0
ARC
  5
1C7
  8
OBJECT
 10
4.3185824552317458
 20
27.471685861510512
 30
0.0
 40
0.25
 50
90.000000000000028
 51
180.0
  0
ARC
  5
1C8
  8
OBJECT
 10
6.1785824552317452
 20
27.471685861510512
 30
0.0
 40
0.25
 50
0.0
 51
90.0
  0
LINE
  5
1C9
  8
OBJECT
 10
4.6765804569073772
 20
27.032878166273392
 30
0.0
 11
5.9118281439064972
 21
24.87335423795324
 31
0.0
  0
LINE
  5
1CA
  8
OBJECT
 10
4.3510694345946384
 20
27.221685861510512
 30
0.0
 11
4.0685824552317458
 21
27.221685861510512
 31
0.0
  0
ARC
  5
1CB
  8
OBJECT
 10
4.3510694345946366
 20
26.846685861510512
 30
0.0
 40
0.375
 50
29.7695564803922
 51
90.0
  0
LINE
  5
1CC
  8
OBJECT
 10
7.0610824552317473
 20
27.410685861510508
 30
0.0
 11
6.4285824552317452
 21
27.410685861510508
 31
0.0
  0
LINE
  5
1CD
  8
OBJECT
 10
7.0610824552317473
 20
27.410685861510508
 30
0.0
 11
7.0754558972598884
 21
27.223716127608451
 31
0.0
  0
LINE
  5
1CE
  8
OBJECT
 10
6.5249284825529692
 20
27.07908113741264
 30
0.0
 11
6.7743194951179246
 21
27.09652025584867
 31
0.0
  0
LINE
  5
1CF
  8
OBJECT
 10
6.7743194951179246
 20
27.09652025584867
 30
0.0
 11
6.7830603466108652
 21
26.97152025584867
 31
0.0
  0
LINE
  5
1D0
  8
OBJECT
 10
6.532449872090571
 20
26.97152025584867
 30
0.0
 11
6.5249284825529692
 21
27.07908113741264
 31
0.0
  0
LINE
  5
1D1
  8
OBJECT
 10
4.3425824552317449
 20
27.77168586151052
 30
0.0
 11
4.3425824552317449
 21
27.721685861510519
 31
0.0
  0
LINE
  5
1D2
  8
OBJECT
 10
6.1545824552317461
 20
27.771685861510491
 30
0.0
 11
6.1545824552317452
 21
27.72168586151049
 31
0.0
  0
POLYLINE
  5
1D3
  8
OBJECT
 66
     1
 10
0.0
 20
0.0
 30
0.0
 70
     1
  0
VERTEX
  5
380
  8
OBJECT
 10
6.4757844530396476
 20
24.939185861510509
 30
0.0
  0
VERTEX
  5
381
  8
OBJECT
 10
6.7485824552317464
 20
24.7816858615105
 30
0.0
  0
VERTEX
  5
382
  8
OBJECT
 10
7.0213804574238452
 20
24.939185861510509
 30
0.0
  0
VERTEX
  5
383
  8
OBJECT
 10
7.0213804574238452
 20
25.254185861510511
 30
0.0
  0
VERTEX
  5
384
  8
OBJECT
 10
6.7485824552317473
 20
25.411685861510509
 30
0.0
  0
VERTEX
  5
385
  8
OBJECT
 10
6.4757844530396493
 20
25.254185861510511
 30
0.0
  0
SEQEND
  5
386
  8
OBJECT
  0
CIRCLE
  5
1DB
  8
OBJECT
 10
6.7485824552317464
 20
25.096685861510512
 30
0.0
 40
0.1875
  0
ARC
  5
1DC
  8
OBJECT
 10
6.7485824552317464
 20
25.096685861510512
 30
0.0
 40
0.71
 50
222.97585820365441
 51
14.99026231417737
  0
ARC
  5
1DD
  8
OBJECT
 10
6.7485824552317464
 20
25.096685861510512
 30
0.0
 40
0.915
 50
217.21191021416561
 51
29.28112943357452
  0
ARC
  5
1DE
  8
HIDDEN
 10
6.7485824552317464
 20
25.096685861510512
 30
0.0
 40
1.9999999999999989
 50
57.500299429808912
 51
144.5162402754286
  0
LINE
  5
1DF
  8
OBJECT
 10
6.7800824552317458
 20
30.175000000000001
 30
0.0
 11
3.7170824552317461
 21
30.175000000000001
 31
0.0
  0
LINE
  5
1E0
  8
OBJECT
 10
7.0610824552317464
 20
30.456
 30
0.0
 11
7.0610824552317464
 21
32.268999999999991
 31
0.0
  0
LINE
  5
1E1
  8
OBJECT
 10
6.7800824552317458
 20
32.54999999999999
 30
0.0
 11
3.7170824552317461
 21
32.54999999999999
 31
0.0
  0
LINE
  5
1E2
  8
OBJECT
 10
3.436082455231745
 20
32.268999999999991
 30
0.0
 11
3.436082455231745
 21
30.456
 31
0.0
  0
ARC
  5
1E3
  8
OBJECT
 10
3.748582455231745
 20
32.23749999999999
 30
0.0
 40
0.172
 50
90.000000000000142
 51
269.99999999999977
  0
ARC
  5
1E4
  8
OBJECT
 10
3.9045824552317452
 20
32.23749999999999
 30
0.0
 40
0.172
 50
270.00000000000011
 51
89.999999999999872
  0
LINE
  5
1E5
  8
CENTER
 10
3.736582455231745
 20
32.23749999999999
 30
0.0
 11
3.9165824552317452
 21
32.23749999999999
 31
0.0
  0
LINE
  5
1E6
  8
CENTER
 10
3.8265824552317449
 20
32.147499999999987
 30
0.0
 11
3.8265824552317449
 21
32.327500000000001
 31
0.0
  0
LINE
  5
1E7
  8
OBJECT
 10
3.748582455231745
 20
32.409499999999987
 30
0.0
 11
3.9045824552317461
 21
32.409499999999987
 31
0.0
  0
LINE
  5
1E8
  8
OBJECT
 10
3.748582455231745
 20
32.0655
 30
0.0
 11
3.9045824552317461
 21
32.0655
 31
0.0
  0
LINE
  5
1E9
  8
OBJECT
 10
6.7485824552317464
 20
32.0655
 30
0.0
 11
6.5925824552317449
 21
32.0655
 31
0.0
  0
LINE
  5
1EA
  8
OBJECT
 10
6.7485824552317464
 20
32.409499999999987
 30
0.0
 11
6.5925824552317449
 21
32.409499999999987
 31
0.0
  0
LINE
  5
1EB
  8
CENTER
 10
6.6705824552317461
 20
32.147499999999987
 30
0.0
 11
6.6705824552317461
 21
32.327500000000001
 31
0.0
  0
LINE
  5
1EC
  8
CENTER
 10
6.7605824552317459
 20
32.23749999999999
 30
0.0
 11
6.5805824552317471
 21
32.23749999999999
 31
0.0
  0
ARC
  5
1ED
  8
OBJECT
 10
6.5925824552317458
 20
32.23749999999999
 30
0.0
 40
0.172
 50
90.000000000000114
 51
269.99999999999977
  0
ARC
  5
1EE
  8
OBJECT
 10
6.7485824552317464
 20
32.23749999999999
 30
0.0
 40
0.172
 50
270.00000000000011
 51
89.999999999999872
  0
ARC
  5
1EF
  8
OBJECT
 10
6.7485824552317464
 20
30.487500000000001
 30
0.0
 40
0.172
 50
270.00000000000011
 51
89.999999999999844
  0
ARC
  5
1F0
  8
OBJECT
 10
6.5925824552317458
 20
30.487500000000001
 30
0.0
 40
0.172
 50
90.000000000000114
 51
269.99999999999977
  0
LINE
  5
1F1
  8
CENTER
 10
6.7605824552317459
 20
30.487500000000001
 30
0.0
 11
6.5805824552317471
 21
30.487500000000001
 31
0.0
  0
LINE
  5
1F2
  8
CENTER
 10
6.6705824552317461
 20
30.57749999999999
 30
0.0
 11
6.6705824552317461
 21
30.39749999999999
 31
0.0
  0
LINE
  5
1F3
  8
OBJECT
 10
6.7485824552317464
 20
30.315499999999989
 30
0.0
 11
6.5925824552317449
 21
30.315499999999989
 31
0.0
  0
LINE
  5
1F4
  8
OBJECT
 10
6.7485824552317464
 20
30.659499999999991
 30
0.0
 11
6.5925824552317449
 21
30.659499999999991
 31
0.0
  0
LINE
  5
1F5
  8
OBJECT
 10
3.748582455231745
 20
30.659499999999991
 30
0.0
 11
3.9045824552317461
 21
30.659499999999991
 31
0.0
  0
LINE
  5
1F6
  8
OBJECT
 10
3.748582455231745
 20
30.315499999999989
 30
0.0
 11
3.9045824552317461
 21
30.315499999999989
 31
0.0
  0
LINE
  5
1F7
  8
CENTER
 10
3.8265824552317449
 20
30.57749999999999
 30
0.0
 11
3.8265824552317449
 21
30.39749999999999
 31
0.0
  0
LINE
  5
1F8
  8
CENTER
 10
3.736582455231745
 20
30.487500000000001
 30
0.0
 11
3.9165824552317452
 21
30.487500000000001
 31
0.0
  0
ARC
  5
1F9
  8
OBJECT
 10
3.9045824552317452
 20
30.487500000000001
 30
0.0
 40
0.172
 50
270.00000000000011
 51
89.999999999999844
  0
ARC
  5
1FA
  8
OBJECT
 10
3.748582455231745
 20
30.487500000000001
 30
0.0
 40
0.172
 50
90.000000000000114
 51
269.99999999999977
  0
ARC
  5
1FB
  8
OBJECT
 10
3.7170824552317461
 20
30.456
 30
0.0
 40
0.281
 50
180.0
 51
270.0
  0
ARC
  5
1FC
  8
OBJECT
 10
6.7800824552317458
 20
30.456
 30
0.0
 40
0.281
 50
270.0
 51
0.0
  0
ARC
  5
1FD
  8
OBJECT
 10
6.7800824552317458
 20
32.268999999999991
 30
0.0
 40
0.281
 50
0.0
 51
90.0
  0
ARC
  5
1FE
  8
OBJECT
 10
3.7170824552317461
 20
32.268999999999991
 30
0.0
 40
0.281
 50
89.999999999999986
 51
180.0
  0
CIRCLE
  5
1FF
  8
OBJECT
 10
5.2485824552317464
 20
31.36249999999999
 30
0.0
 40
0.45
  0
CIRCLE
  5
200
  8
OBJECT
 10
5.2485824552317464
 20
31.36249999999999
 30
0.0
 40
0.5150000000000001
  0
LINE
  5
201
  8
OBJECT
 10
8.7485824552317482
 20
30.924499999999991
 30
0.0
 11
8.7485824552317482
 21
31.800499999999989
 31
0.0
  0
LINE
  5
202
  8
OBJECT
 10
7.0610824552317464
 20
31.98749999999999
 30
0.0
 11
8.5615824552317452
 21
31.98749999999999
 31
0.0
  0
LINE
  5
203
  8
OBJECT
 10
7.9309284825529689
 20
30.73749999999999
 30
0.0
 11
8.5615824552317452
 21
30.73749999999999
 31
0.0
  0
ARC
  5
204
  8
OBJECT
 10
8.5615824552317452
 20
30.924499999999991
 30
0.0
 40
0.187
 50
270.0
 51
0.0
  0
ARC
  5
205
  8
OBJECT
 10
8.5615824552317452
 20
31.800499999999989
 30
0.0
 40
0.187
 50
0.0
 51
90.000000000000057
  0
LINE
  5
206
  8
OBJECT
 10
11.333709671081589
 20
23.283685861510509
 30
0.0
 11
11.33370967108158
 21
26.816785378132909
 31
0.0
  0
LINE
  5
207
  8
OBJECT
 10
12.583709671081589
 20
26.909685861510511
 30
0.0
 11
12.583709671081589
 21
23.283685861510509
 31
0.0
  0
LINE
  5
208
  8
OBJECT
 10
12.39670967108159
 20
23.096685861510512
 30
0.0
 11
11.52070967108159
 21
23.096685861510512
 31
0.0
  0
ARC
  5
209
  8
OBJECT
 10
11.52070967108159
 20
23.283685861510509
 30
0.0
 40
0.187
 50
180.0
 51
270.0
  0
ARC
  5
20A
  8
OBJECT
 10
12.39670967108159
 20
23.283685861510509
 30
0.0
 40
0.187
 50
270.0
 51
0.0
  0
ARC
  5
20B
  8
OBJECT
 10
12.39670967108159
 20
26.909685861510511
 30
0.0
 40
0.187
 50
0.0
 51
90.0
  0
LINE
  5
20C
  8
OBJECT
 10
11.038709671081589
 20
24.721685861510512
 30
0.0
 11
11.147709671081589
 21
24.721685861510512
 31
0.0
  0
LINE
  5
20D
  8
DIM
 10
11.038709671081589
 20
26.691785378132909
 30
0.0
 11
11.038709671081589
 21
24.534685861510511
 31
0.0
  0
LINE
  5
20E
  8
OBJECT
 10
12.87870967108158
 20
27.145685861510511
 30
0.0
 11
12.878709671081589
 21
24.721685861510512
 31
0.0
  0
LINE
  5
20F
  8
OBJECT
 10
11.147709671081589
 20
26.816785378132909
 30
0.0
 11
11.147709671081589
 21
24.721685861510512
 31
0.0
  0
LINE
  5
210
  8
OBJECT
 10
12.769709671081589
 20
27.145685861510511
 30
0.0
 11
12.769709671081589
 21
24.721685861510512
 31
0.0
  0
LINE
  5
211
  8
OBJECT
 10
12.769709671081589
 20
24.721685861510512
 30
0.0
 11
12.878709671081589
 21
24.721685861510512
 31
0.0
  0
LINE
  5
212
  8
OBJECT
 10
11.30370967108159
 20
27.410685861510508
 30
0.0
 11
12.61370967108158
 21
27.410685861510508
 31
0.0
  0
LINE
  5
213
  8
OBJECT
 10
11.30370967108159
 20
27.30168586151051
 30
0.0
 11
12.61370967108158
 21
27.30168586151051
 31
0.0
  0
ARC
  5
214
  8
OBJECT
 10
11.30370967108159
 20
27.145685861510511
 30
0.0
 40
0.156
 50
90.0
 51
149.98716334325721
  0
ARC
  5
215
  8
OBJECT
 10
12.61370967108158
 20
27.145685861510511
 30
0.0
 40
0.156
 50
0.0
 51
90.0
  0
ARC
  5
216
  8
OBJECT
 10
11.30370967108159
 20
27.145685861510511
 30
0.0
 40
0.265
 50
90.0
 51
171.98002471255009
  0
ARC
  5
217
  8
OBJECT
 10
12.61370967108158
 20
27.145685861510511
 30
0.0
 40
0.265
 50
0.0
 51
89.999999999999986
  0
LINE
  5
218
  8
OBJECT
 10
12.86470967108159
 20
27.771685861510491
 30
0.0
 11
12.86470967108159
 21
27.72168586151049
 31
0.0
  0
LINE
  5
219
  8
OBJECT
 10
11.05270967108159
 20
27.77168586151052
 30
0.0
 11
11.05270967108159
 21
27.721685861510519
 31
0.0
  0
ARC
  5
21A
  8
OBJECT
 10
12.888709671081591
 20
27.471685861510512
 30
0.0
 40
0.25
 50
0.0
 51
90.0
  0
ARC
  5
21B
  8
OBJECT
 10
11.02870967108159
 20
27.471685861510512
 30
0.0
 40
0.25
 50
90.000000000000028
 51
180.0
  0
LINE
  5
21C
  8
OBJECT
 10
12.888709671081591
 20
27.721685861510501
 30
0.0
 11
11.02870967108159
 21
27.721685861510501
 31
0.0
  0
LINE
  5
21D
  8
OBJECT
 10
10.85870967108159
 20
27.89168586151051
 30
0.0
 11
13.058709671081591
 21
27.89168586151051
 31
0.0
  0
ARC
  5
21E
  8
OBJECT
 10
12.89270967108159
 20
27.960685861510509
 30
0.0
 40
0.096
 50
0.0000000000005089
 51
89.999999999999986
  0
ARC
  5
21F
  8
OBJECT
 10
11.02470967108159
 20
27.960685861510509
 30
0.0
 40
0.096
 50
90.0
 51
180.0
  0
ARC
  5
220
  8
OBJECT
 10
13.057709671081589
 20
27.960685861510509
 30
0.0
 40
0.069
 50
180.00000000000031
 51
270.0
  0
ARC
  5
221
  8
OBJECT
 10
10.859709671081591
 20
27.960685861510509
 30
0.0
 40
0.069
 50
270.0
 51
0.0
  0
LINE
  5
222
  8
OBJECT
 10
10.859709671081591
 20
27.89168586151051
 30
0.0
 11
10.85870967108159
 21
27.89168586151051
 31
0.0
  0
LINE
  5
223
  8
OBJECT
 10
12.98870967108159
 20
27.960685861510509
 30
0.0
 11
12.98870967108159
 21
27.960685861510509
 31
0.0
  0
LINE
  5
224
  8
OBJECT
 10
10.92870967108159
 20
27.960685861510509
 30
0.0
 11
10.92870967108159
 21
27.960685861510509
 31
0.0
  0
LINE
  5
225
  8
OBJECT
 10
13.058709671081591
 20
27.89168586151051
 30
0.0
 11
13.057709671081589
 21
27.89168586151051
 31
0.0
  0
LINE
  5
226
  8
OBJECT
 10
13.058709671081591
 20
27.771685861510498
 30
0.0
 11
13.058709671081591
 21
27.89168586151051
 31
0.0
  0
LINE
  5
227
  8
OBJECT
 10
10.85870967108159
 20
27.771685861510498
 30
0.0
 11
10.85870967108159
 21
27.89168586151051
 31
0.0
  0
LINE
  5
228
  8
OBJECT
 10
13.058709671081591
 20
27.771685861510498
 30
0.0
 11
10.85870967108159
 21
27.771685861510498
 31
0.0
  0
LINE
  5
229
  8
OBJECT
 10
13.146209671081589
 20
28.056685861510509
 30
0.0
 11
13.146209671081589
 21
28.221685861510512
 31
0.0
  0
LINE
  5
22A
  8
OBJECT
 10
10.771209671081589
 20
28.056685861510509
 30
0.0
 11
10.771209671081589
 21
28.221685861510501
 31
0.0
  0
LINE
  5
22B
  8
OBJECT
 10
13.146209671081589
 20
28.056685861510509
 30
0.0
 11
10.771209671081589
 21
28.056685861510509
 31
0.0
  0
LINE
  5
22C
  8
OBJECT
 10
13.146209671081589
 20
28.221685861510512
 30
0.0
 11
10.771209671081589
 21
28.221685861510501
 31
0.0
  0
LINE
  5
22D
  8
OBJECT
 10
11.19370967108159
 20
25.596685861510512
 30
0.0
 11
11.19370967108159
 21
24.596685861510512
 31
0.0
  0
LINE
  5
22E
  8
OBJECT
 10
11.19370967108159
 20
24.596685861510512
 30
0.0
 11
11.333709671081589
 21
24.466019194843842
 31
0.0
  0
LINE
  5
22F
  8
OBJECT
 10
11.19370967108159
 20
25.596685861510512
 30
0.0
 11
11.333709671081589
 21
25.727352528177171
 31
0.0
  0
LINE
  5
230
  8
OBJECT
 10
12.72370967108159
 20
25.596685861510512
 30
0.0
 11
12.72370967108159
 21
24.596685861510512
 31
0.0
  0
LINE
  5
231
  8
OBJECT
 10
12.72370967108159
 20
24.596685861510512
 30
0.0
 11
12.583709671081589
 21
24.466019194843842
 31
0.0
  0
LINE
  5
232
  8
OBJECT
 10
12.72370967108159
 20
25.596685861510512
 30
0.0
 11
12.583709671081589
 21
25.727352528177171
 31
0.0
  0
LINE
  5
233
  8
OBJECT
 10
12.72370967108159
 20
25.283685861510509
 30
0.0
 11
12.769709671081589
 21
25.283685861510509
 31
0.0
  0
LINE
  5
234
  8
OBJECT
 10
12.72370967108159
 20
24.909685861510511
 30
0.0
 11
12.769709671081589
 21
24.909685861510511
 31
0.0
  0
LINE
  5
235
  8
OBJECT
 10
13.096709671081589
 20
25.283685861510509
 30
0.0
 11
13.23870967108159
 21
25.283685861510509
 31
0.0
  0
LINE
  5
236
  8
OBJECT
 10
13.096709671081589
 20
24.909685861510511
 30
0.0
 11
13.23870967108159
 21
24.909685861510511
 31
0.0
  0
LINE
  5
237
  8
OBJECT
 10
11.147709671081589
 20
24.909685861510511
 30
0.0
 11
11.19370967108159
 21
24.909685861510511
 31
0.0
  0
LINE
  5
238
  8
OBJECT
 10
11.147709671081589
 20
25.283685861510509
 30
0.0
 11
11.19370967108159
 21
25.283685861510509
 31
0.0
  0
LINE
  5
239
  8
OBJECT
 10
10.704709671081501
 20
25.411685861510499
 30
0.0
 11
10.842709671081449
 21
25.411685861510499
 31
0.0
  0
LINE
  5
23A
  8
OBJECT
 10
10.704709671081501
 20
24.78168586151051
 30
0.0
 11
10.84270967108157
 21
24.78168586151051
 31
0.0
  0
LINE
  5
23B
  8
OBJECT
 10
10.70470967108157
 20
25.2541858615105
 30
0.0
 11
10.842709671081559
 21
25.2541858615105
 31
0.0
  0
LINE
  5
23C
  8
OBJECT
 10
10.70470967108157
 20
24.939185861510499
 30
0.0
 11
10.842709671081581
 21
24.939185861510499
 31
0.0
  0
LINE
  5
23D
  8
OBJECT
 10
13.23870967108159
 20
25.283685861510509
 30
0.0
 11
13.23870967108159
 21
24.909685861510511
 31
0.0
  0
ARC
  5
23E
  8
OBJECT
 10
10.994787796081591
 20
25.096685861510501
 30
0.0
 40
0.3300781250000053
 50
151.4999346043933
 51
208.50006539560661
  0
LINE
  5
23F
  8
OBJECT
 10
10.664709671081591
 20
25.332935899076411
 30
0.0
 11
10.664709671081591
 21
24.86043592437651
 31
0.0
  0
ARC
  5
240
  8
OBJECT
 10
10.7622292023316
 20
25.332935861510499
 30
0.0
 40
0.0975195312500108
 50
126.14464429792299
 51
233.8553557020677
  0
ARC
  5
241
  8
OBJECT
 10
10.7622292023316
 20
24.86043586151051
 30
0.0
 40
0.0975195312500108
 50
126.1446442979321
 51
233.85535570207691
  0
ARC
  5
242
  8
OBJECT
 10
10.785190139831579
 20
24.86043586151051
 30
0.0
 40
0.0975195312500108
 50
306.14464429792298
 51
53.855355702067797
  0
ARC
  5
243
  8
OBJECT
 10
10.55263154608158
 20
25.096685861510501
 30
0.0
 40
0.3300781250000053
 50
331.49993460439327
 51
28.500065395606651
  0
ARC
  5
244
  8
OBJECT
 10
10.785190139831579
 20
25.332935861510499
 30
0.0
 40
0.0975195312500108
 50
306.14464429793208
 51
53.855355702076942
  0
ARC
  5
245
  8
OBJECT
 10
12.9762292023316
 20
25.332935861510499
 30
0.0
 40
0.0975195312500108
 50
126.14464429792299
 51
233.85535570206781
  0
ARC
  5
246
  8
OBJECT
 10
13.208787796081589
 20
25.096685861510501
 30
0.0
 40
0.3300781250000053
 50
151.4999346043933
 51
208.5000653956067
  0
ARC
  5
247
  8
OBJECT
 10
12.9762292023316
 20
24.86043586151051
 30
0.0
 40
0.0975195312500108
 50
126.1446442979321
 51
233.85535570207699
  0
ARC
  5
248
  8
OBJECT
 10
12.99919013983158
 20
24.86043586151051
 30
0.0
 40
0.0975195312500108
 50
306.14464429792298
 51
53.855355702067797
  0
ARC
  5
249
  8
OBJECT
 10
12.99919013983158
 20
25.332935861510499
 30
0.0
 40
0.0975195312500108
 50
306.14464429793208
 51
53.855355702076942
  0
LINE
  5
24A
  8
OBJECT
 10
13.096709671081589
 20
25.332935899076411
 30
0.0
 11
13.096709671081589
 21
24.86043592437651
 31
0.0
  0
ARC
  5
24B
  8
OBJECT
 10
12.76663154608158
 20
25.096685861510501
 30
0.0
 40
0.3300781250000053
 50
331.49993460439327
 51
28.500065395606651
  0
LINE
  5
24C
  8
OBJECT
 10
13.056709671081601
 20
24.939185861510499
 30
0.0
 11
12.918709671081601
 21
24.939185861510499
 31
0.0
  0
LINE
  5
24D
  8
OBJECT
 10
13.056709671081601
 20
25.2541858615105
 30
0.0
 11
12.91870967108162
 21
25.2541858615105
 31
0.0
  0
LINE
  5
24E
  8
OBJECT
 10
13.056709671081681
 20
24.78168586151051
 30
0.0
 11
12.918709671081601
 21
24.78168586151051
 31
0.0
  0
LINE
  5
24F
  8
OBJECT
 10
13.056709671081681
 20
25.411685861510499
 30
0.0
 11
12.91870967108172
 21
25.411685861510499
 31
0.0
  0
LINE
  5
250
  8
OBJECT
 10
10.77870967108159
 20
27.471685861510512
 30
0.0
 11
10.77870967108159
 21
26.41392958718933
 31
0.0
  0
ARC
  5
251
  8
OBJECT
 10
18.72825820328757
 20
26.835988631828162
 30
0.0
 40
7.9749252556825994
 50
186.64211613438789
 51
190.28808651765331
  0
LINE
  5
252
  8
OBJECT
 10
13.138709671081591
 20
27.471685861510512
 30
0.0
 11
13.138709671081591
 21
26.200291402145819
 31
0.0
  0
ARC
  5
253
  8
OBJECT
 10
5.189161138875602
 20
26.835988631828162
 30
0.0
 40
7.9749252556825994
 50
349.71191348234669
 51
355.4279884042648
  0
SOLID
  5
254
  8
DIM
 10
6.935052944368663
 20
32.723127430251289
 30
0.0
 11
7.0266904628752007
 21
32.645697680787897
 31
0.0
 12
6.748582455231749
 22
32.409499999999987
 32
0.0
 13
6.748582455231749
 23
32.409499999999987
 33
0.0
  0
LINE
  5
255
  8
DIM
 10
6.980871703621931
 20
32.6844125555196
 30
0.0
 11
7.8835140623700068
 21
33.747948731529931
 31
0.0
  0
LINE
  5
256
  8
DIM
 10
7.8835140623700068
 20
33.747948731529931
 30
0.0
 11
8.2434240623700106
 21
33.747948731529931
 31
0.0
  0
TEXT
  5
257
  8
DIM
 10
8.3725044150177368
 20
33.615627066741112
 30
0.0
 40
0.3125
  1
0.344 x 0.500 OBLONG
 41
0.75
  0
TEXT
  5
258
  8
DIM
 10
8.3725044150177332
 20
33.109109413023901
 30
0.0
 40
0.3125
  1
(4) HOLES
 41
0.75
  0
LINE
  5
259
  8
CENTER
 10
5.2485824552317464
 20
29.20802840295277
 30
0.0
 11
5.2485824552317464
 21
25.006685861510501
 31
0.0
  0
TEXT
  5
25A
  8
TEXT
 10
2.0089896320748548
 20
35.924734530947099
 30
0.0
 40
0.3125
  1
%%uWHEEL MATERIAL:%%u HARD TREAD RUBBER
 41
0.75
  0
TEXT
  5
25B
  8
TEXT
 10
2.0089896320748548
 20
36.758172030947087
 30
0.0
 40
0.3125
  1
%%uLOAD RATING:%%u 240 LBS.
 41
0.75
  0
SOLID
  5
25C
  8
DIM
 10
13.221952979016899
 20
27.580345898122602
 30
0.0
 11
13.26011845714309
 21
27.694083302609432
 31
0.0
 12
12.899823504619521
 22
27.75171103474457
 32
0.0
 13
12.899823504619521
 23
27.75171103474457
 33
0.0
  0
LINE
  5
25D
  8
DIM
 10
13.241035718079999
 20
27.637214600366018
 30
0.0
 11
13.753098712131109
 21
27.465387846565338
 31
0.0
  0
LINE
  5
25E
  8
DIM
 10
13.753098712131109
 20
27.465387846565338
 30
0.0
 11
14.11300871213111
 21
27.465387846565338
 31
0.0
  0
TEXT
  5
25F
  8
DIM
 10
14.266236557092901
 20
27.358282764622739
 30
0.0
 40
0.3125
  1
SELF
 41
0.75
  0
TEXT
  5
260
  8
DIM
 10
14.266236557092901
 20
26.8673499223631
 30
0.0
 40
0.3125
  1
LUBRICATING
 41
0.75
  0
LINE
  5
261
  8
DIM
 10
6.9504558972598884
 20
26.97152025584867
 30
0.0
 11
6.3689284825529686
 21
26.97152025584867
 31
0.0
  0
LINE
  5
262
  8
DIM
 10
6.3689284825529686
 20
26.97152025584867
 30
0.0
 11
6.3689284825529677
 21
25.368631737491121
 31
0.0
  0
LINE
  5
263
  8
DIM
 10
6.8059284825529689
 20
24.534685861510511
 30
0.0
 11
6.3689284825529686
 21
24.5346858615105
 31
0.0
  0
LINE
  5
264
  8
DIM
 10
6.805928482552968
 20
24.61268586151051
 30
0.0
 11
6.8059284825529689
 21
24.534685861510511
 31
0.0
  0
LINE
  5
265
  8
DIM
 10
7.1189284825529686
 20
24.61268586151051
 30
0.0
 11
6.1189284825529686
 21
24.61268586151051
 31
0.0
  0
ARC
  5
266
  8
DIM
 10
6.7485824552317464
 20
25.096685861510512
 30
0.0
 40
2.1519999999999988
 50
56.672953577861293
 51
81.263363274559225
  0
ARC
  5
267
  8
DIM
 10
7.1189284825529686
 20
24.737685861510499
 30
0.0
 40
0.125
 50
270.00000000000011
 51
0.0
  0
ARC
  5
268
  8
DIM
 10
9.5937618979192614
 20
25.177252093222592
 30
0.0
 40
2.3905931381214929
 50
134.07294135867471
 51
163.80566434573029
  0
LINE
  5
269
  8
DIM
 10
7.0754558972598884
 20
27.223716127608451
 30
0.0
 11
7.0754558972598884
 21
27.09652025584867
 31
0.0
  0
ARC
  5
26A
  8
DIM
 10
6.9504558972598884
 20
27.09652025584867
 30
0.0
 40
0.125
 50
270.00000000000011
 51
0.0
  0
LINE
  5
26B
  8
DIM
 10
6.962928482552968
 20
25.88124936917858
 30
0.0
 11
6.712928482552968
 21
25.88124936917858
 31
0.0
  0
LINE
  5
26C
  8
DIM
 10
6.712928482552968
 20
25.88124936917858
 30
0.0
 11
6.712928482552968
 21
25.63124936917859
 31
0.0
  0
LINE
  5
26D
  8
DIM
 10
6.962928482552968
 20
25.88124936917858
 30
0.0
 11
6.962928482552968
 21
25.63124936917859
 31
0.0
  0
LINE
  5
26E
  8
DIM
 10
6.962928482552968
 20
25.63124936917859
 30
0.0
 11
6.712928482552968
 21
25.63124936917859
 31
0.0
  0
LINE
  5
26F
  8
DIM
 10
5.2023692196304907
 20
24.471806169048431
 30
0.0
 11
5.714339247311111
 21
24.83029144176783
 31
0.0
  0
LINE
  5
270
  8
DIM
 10
5.2023692196304907
 20
24.471806169048431
 30
0.0
 11
5.2943220730557607
 21
24.340483884714882
 31
0.0
  0
LINE
  5
271
  8
DIM
 10
7.864613363569716
 20
26.33592958718933
 30
0.0
 11
7.9565662169949798
 21
26.204607302855791
 31
0.0
  0
LINE
  5
272
  8
DIM
 10
7.8951723150104938
 20
25.85642518269578
 30
0.0
 11
7.587990298402123
 21
25.641334019064129
 31
0.0
  0
ARC
  5
273
  8
DIM
 10
5.4991100841280094
 20
24.48387799380264
 30
0.0
 40
0.25
 50
215.00000000000011
 51
305.00000000000011
  0
LINE
  5
274
  8
DIM
 10
5.2471081816658733
 20
24.40791230959389
 30
0.0
 11
6.2710482370271112
 21
25.124882855032698
 31
0.0
  0
ARC
  5
275
  8
DIM
 10
7.751778205922732
 20
26.06121319376803
 30
0.0
 40
0.25
 50
305.00000000000011
 51
35.000000000000007
  0
LINE
  5
276
  8
DIM
 10
6.1189284825529677
 20
24.61268586151051
 30
0.0
 11
5.6425041932157711
 21
24.27908998273039
 31
0.0
  0
LINE
  5
277
  8
DIM
 10
7.587990298402123
 20
25.641334019064129
 30
0.0
 11
7.3210784351668563
 21
25.01389061420263
 31
0.0
  0
ARC
  5
278
  8
DIM
 10
6.7075081301256638
 20
25.270388946404118
 30
0.0
 40
0.6650262503469204
 50
278.5107336306545
 51
337.31301008879802
  0
LINE
  5
279
  8
DIM
 10
7.3526433358890957
 20
25.977444314469921
 30
0.0
 11
7.3973822979244783
 21
25.913550455015379
 31
0.0
  0
LINE
  5
27A
  8
DIM
 10
5.7143392473111119
 20
24.83029144176783
 30
0.0
 11
5.7590782093464927
 21
24.766397582313289
 31
0.0
  0
LINE
  5
27B
  8
DIM
 10
7.3526433358890957
 20
25.977444314469921
 30
0.0
 11
7.864613363569716
 21
26.33592958718933
 31
0.0
  0
ARC
  5
27C
  8
DIM
 10
6.8683788651407918
 20
25.026544605371171
 30
0.0
 40
0.6053712006935723
 50
79.34871905417647
 51
170.6512809458232
  0
LINE
  5
27D
  8
DIM
 10
6.9802702446331057
 20
25.62148545102264
 30
0.0
 11
7.9093523256050977
 21
26.272035727734789
 31
0.0
  0
ARC
  5
27E
  8
DIM
 10
9.5937618979192614
 20
25.177252093222592
 30
0.0
 40
2.3905931381214929
 50
187.79489863040149
 51
190.5954499976659
  0
LINE
  5
27F
  8
DIM
 10
6.3689284825529677
 20
24.61268586151051
 30
0.0
 11
6.3689284825529686
 21
24.5346858615105
 31
0.0
  0
LINE
  5
280
  8
DIM
 10
10.96070967108159
 20
27.020716127608441
 30
0.0
 11
10.96070967108159
 21
24.61268586151051
 31
0.0
  0
LINE
  5
281
  8
DIM
 10
10.88270967108159
 20
26.33592958718933
 30
0.0
 11
10.88270967108159
 21
24.61268586151051
 31
0.0
  0
LINE
  5
282
  8
DIM
 10
10.788709671081589
 20
24.534685861510511
 30
0.0
 11
11.038709671081589
 21
24.534685861510511
 31
0.0
  0
LINE
  5
283
  8
DIM
 10
10.788709671081589
 20
24.61268586151051
 30
0.0
 11
10.788709671081589
 21
24.534685861510511
 31
0.0
  0
LINE
  5
284
  8
DIM
 10
10.788709671081589
 20
24.61268586151051
 30
0.0
 11
10.96070967108159
 21
24.61268586151051
 31
0.0
  0
LINE
  5
285
  8
DIM
 10
11.163709671081589
 20
27.223716127608451
 30
0.0
 11
12.397709671081589
 21
27.223716127608451
 31
0.0
  0
LINE
  5
286
  8
DIM
 10
11.163709671081589
 20
26.894785378132909
 30
0.0
 11
12.397709671081589
 21
26.894785378132909
 31
0.0
  0
LINE
  5
287
  8
DIM
 10
12.397709671081589
 20
27.223716127608451
 30
0.0
 11
12.397709671081589
 21
26.816785378132909
 31
0.0
  0
LINE
  5
288
  8
DIM
 10
11.163709671081589
 20
26.816785378132909
 30
0.0
 11
12.397709671081589
 21
26.816785378132909
 31
0.0
  0
ARC
  5
289
  8
DIM
 10
11.163709671081589
 20
26.691785378132909
 30
0.0
 40
0.125
 50
90.000000000000057
 51
179.99999999999989
  0
ARC
  5
28A
  8
DIM
 10
11.163709671081589
 20
26.691785378132909
 30
0.0
 40
0.203
 50
90.0
 51
179.99999999999989
  0
ARC
  5
28B
  8
DIM
 10
11.163709671081589
 20
27.020716127608441
 30
0.0
 40
0.203
 50
89.999999999999957
 51
179.99999999999989
  0
LINE
  5
28C
  8
DIM
 10
10.54670980417928
 20
26.33592958718933
 30
0.0
 11
10.88270967108159
 21
26.33592958718933
 31
0.0
  0
LINE
  5
28D
  8
DIM
 10
10.54670967108159
 20
25.913550455015379
 30
0.0
 11
10.88270967108159
 21
25.913550455015379
 31
0.0
  0
LINE
  5
28E
  8
DIM
 10
10.63270967108159
 20
24.23387799380264
 30
0.0
 11
10.71070967108159
 21
24.23387799380264
 31
0.0
  0
LINE
  5
28F
  8
DIM
 10
10.08570967108159
 20
24.665397704206299
 30
0.0
 11
10.08570967108159
 21
24.586912431664661
 31
0.0
  0
LINE
  5
290
  8
DIM
 10
10.63270967108159
 20
24.766397582313289
 30
0.0
 11
10.63270967108159
 21
24.23387799380264
 31
0.0
  0
LINE
  5
291
  8
DIM
 10
10.264709821714201
 20
24.407912309593879
 30
0.0
 11
10.63270967108158
 21
24.407912309593879
 31
0.0
  0
LINE
  5
292
  8
DIM
 10
10.26470967108159
 20
24.766397582313289
 30
0.0
 11
10.63270967108159
 21
24.766397582313289
 31
0.0
  0
LINE
  5
293
  8
DIM
 10
10.264709763164859
 20
24.844397582313292
 30
0.0
 11
10.66603755729097
 21
24.844397582313292
 31
0.0
  0
LINE
  5
294
  8
DIM
 10
10.83123238757638
 20
24.534685861510511
 30
0.0
 11
10.63270967108159
 21
24.23387799380264
 31
0.0
  0
LINE
  5
295
  8
DIM
 10
10.71070967108159
 20
24.23387799380264
 30
0.0
 11
10.909232387576379
 21
24.534685861510511
 31
0.0
  0
LINE
  5
296
  8
DIM
 10
10.33570967108159
 20
26.20292958718937
 30
0.0
 11
10.33570967108159
 21
26.12492970722521
 31
0.0
  0
LINE
  5
297
  8
DIM
 10
10.54670980417928
 20
26.41392958718933
 30
0.0
 11
10.96070967108159
 21
26.41392958718933
 31
0.0
  0
LINE
  5
298
  8
DIM
 10
7.8059284825529689
 20
31.801500000000001
 30
0.0
 11
7.0610824552317464
 21
31.801500000000001
 31
0.0
  0
LINE
  5
299
  8
DIM
 10
7.9309284825529689
 20
30.4895
 30
0.0
 11
7.9309284825529689
 21
31.676500000000001
 31
0.0
  0
LINE
  5
29A
  8
DIM
 10
8.0017782059227311
 20
30.3645
 30
0.0
 11
7.0457678895333267
 21
30.3645
 31
0.0
  0
ARC
  5
29B
  8
DIM
 10
7.8059284825529689
 20
31.676500000000001
 30
0.0
 40
0.125
 50
0.0
 51
90.0
  0
ARC
  5
29C
  8
DIM
 10
7.8059284825529689
 20
30.4895
 30
0.0
 40
0.125
 50
270.0
 51
0.0
  0
LINE
  5
29D
  8
DIM
 10
7.6866433358891006
 20
29.7395
 30
0.0
 11
7.6086433757514413
 21
29.7395
 31
0.0
  0
LINE
  5
29E
  8
DIM
 10
7.864613363569716
 20
29.991582739581801
 30
0.0
 11
7.864613363569716
 21
30.3645
 31
0.0
  0
LINE
  5
29F
  8
DIM
 10
7.3526433358890948
 20
29.9955
 30
0.0
 11
7.3526433358890957
 21
30.3645
 31
0.0
  0
LINE
  5
2A0
  8
DIM
 10
7.9426133635697163
 20
29.991582739579979
 30
0.0
 11
7.9426133635697163
 21
30.2865
 31
0.0
  0
LINE
  5
2A1
  8
DIM
 10
7.3526433358890948
 20
30.2865
 30
0.0
 11
7.0042046317338009
 21
30.2865
 31
0.0
  0
LINE
  5
2A2
  8
DIM
 10
5.536369294461549
 20
29.489499999999989
 30
0.0
 11
5.45836921963049
 21
29.489499999999989
 31
0.0
  0
LINE
  5
2A3
  8
DIM
 10
5.2023692196304907
 20
29.745500059195781
 30
0.0
 11
5.2023692196304916
 21
30.114499999999989
 31
0.0
  0
LINE
  5
2A4
  8
DIM
 10
5.7143392473111119
 20
29.741582739581659
 30
0.0
 11
5.7143392473111119
 21
30.114499999999989
 31
0.0
  0
LINE
  5
2A5
  8
DIM
 10
5.792339247311113
 20
29.741582739581659
 30
0.0
 11
5.792339247311113
 21
30.114499999999989
 31
0.0
  0
LINE
  5
2A6
  8
DIM
 10
5.792339247311113
 20
30.114499999999989
 30
0.0
 11
6.0575440276137726
 21
30.175000000000001
 31
0.0
  0
LINE
  5
2A7
  8
DIM
 10
5.7143392473111119
 20
30.114499999999989
 30
0.0
 11
5.9494130127857003
 21
30.175000000000001
 31
0.0
  0
LINE
  5
2A8
  8
DIM
 10
8.0017782059227311
 20
30.2865
 30
0.0
 11
8.0017782059227311
 21
30.3645
 31
0.0
  0
LINE
  5
2A9
  8
DIM
 10
8.0017782059227311
 20
30.2865
 30
0.0
 11
7.9426133635697163
 21
30.2865
 31
0.0
  0
TEXT
  5
2AA
  8
DIM
 10
5.2871694997357341
 20
29.665566467533189
 30
0.0
 40
0.3125
  1
OFF
 41
0.4451777060293982
 72
     5
 11
5.6581509214268992
 21
29.665566467533189
 31
0.0
  0
TEXT
  5
2AB
  8
DIM
 10
7.44961685274055
 20
29.928676407141982
 30
0.0
 40
0.3125
  1
ON
 41
0.6188699913326708
 72
     5
 11
7.7719449732263159
 21
29.928676407141982
 31
0.0
  0
LINE
  5
2AC
  8
DIM
 10
5.792339247311113
 20
30.114499999999989
 30
0.0
 11
5.2023692196304916
 21
30.114499999999989
 31
0.0
  0
ARC
  5
2AD
  8
DIM
 10
5.45836921963049
 20
29.745499999999989
 30
0.0
 40
0.256
 50
179.99998675129331
 51
0.8767626907408553
  0
ARC
  5
2AE
  8
DIM
 10
5.5363692196304912
 20
29.745499999999989
 30
0.0
 40
0.256
 50
270.00001674806191
 51
0.8767626907408553
  0
ARC
  5
2AF
  8
DIM
 10
7.608643335889095
 20
29.9955
 30
0.0
 40
0.256
 50
180.0
 51
0.8767626907110411
  0
ARC
  5
2B0
  8
DIM
 10
7.6866433358890989
 20
29.9955
 30
0.0
 40
0.256
 50
270.0000000000004
 51
0.8767626907110411
  0
ARC
  5
2B1
  8
DIM
 10
10.54670967108159
 20
26.124929587189332
 30
0.0
 40
0.211
 50
89.999963858122427
 51
270.0
  0
ARC
  5
2B2
  8
DIM
 10
10.54670967108159
 20
26.20292958718937
 30
0.0
 40
0.211
 50
89.999963858122427
 51
180.0
  0
ARC
  5
2B3
  8
DIM
 10
10.26470967108159
 20
24.586912309593881
 30
0.0
 40
0.179
 50
90.0
 51
270.00004821571412
  0
ARC
  5
2B4
  8
DIM
 10
10.26470967108159
 20
24.66539758231329
 30
0.0
 40
0.179
 50
90.0
 51
179.99996098349041
  0
LINE
  5
2B5
  8
OBJECT
 10
18.937329228471199
 20
31.5483371641185
 30
0.0
 11
22.93732922847121
 21
31.548337164118511
 31
0.0
  0
LINE
  5
2B6
  8
OBJECT
 10
22.93732922847121
 20
34.0483371641185
 30
0.0
 11
18.937329228471199
 21
34.0483371641185
 31
0.0
  0
CIRCLE
  5
2B7
  8
OBJECT
 10
22.43732922847121
 20
33.673337164118507
 30
0.0
 40
0.156
  0
CIRCLE
  5
2B8
  8
OBJECT
 10
22.43732922847121
 20
31.923337164118522
 30
0.0
 40
0.156
  0
LINE
  5
2B9
  8
OBJECT
 10
19.93732922847121
 20
29.365041838109189
 30
0.0
 11
19.06232922847121
 21
29.365041838109189
 31
0.0
  0
LINE
  5
2BA
  8
OBJECT
 10
18.93732922847121
 20
29.240041838109178
 30
0.0
 11
18.93732922847121
 21
27.928041838109181
 31
0.0
  0
LINE
  5
2BB
  8
OBJECT
 10
19.06232922847121
 20
27.803041838109191
 30
0.0
 11
22.81232922847121
 21
27.803041838109191
 31
0.0
  0
LINE
  5
2BC
  8
OBJECT
 10
19.93732922847121
 20
29.256041838109191
 30
0.0
 11
19.061329228471209
 21
29.256041838109191
 31
0.0
  0
LINE
  5
2BD
  8
OBJECT
 10
19.046329228471208
 20
29.24104183810919
 30
0.0
 11
19.046329228471208
 21
27.92704183810919
 31
0.0
  0
LINE
  5
2BE
  8
OBJECT
 10
19.061329228471209
 20
27.912041838109179
 30
0.0
 11
22.813329228471211
 21
27.912041838109179
 31
0.0
  0
LINE
  5
2BF
  8
OBJECT
 10
19.93732922847121
 20
29.365041838109189
 30
0.0
 11
19.93732922847121
 21
29.256041838109191
 31
0.0
  0
LINE
  5
2C0
  8
OBJECT
 10
21.93732922847121
 20
29.365041838109189
 30
0.0
 11
21.93732922847121
 21
29.256041838109191
 31
0.0
  0
LINE
  5
2C1
  8
OBJECT
 10
22.828329228471201
 20
29.24104183810919
 30
0.0
 11
22.828329228471208
 21
27.92704183810919
 31
0.0
  0
LINE
  5
2C2
  8
OBJECT
 10
21.93732922847121
 20
29.256041838109191
 30
0.0
 11
22.813329228471201
 21
29.256041838109191
 31
0.0
  0
LINE
  5
2C3
  8
OBJECT
 10
22.93732922847121
 20
29.240041838109178
 30
0.0
 11
22.93732922847121
 21
27.928041838109181
 31
0.0
  0
LINE
  5
2C4
  8
OBJECT
 10
21.93732922847121
 20
29.365041838109189
 30
0.0
 11
22.81232922847121
 21
29.365041838109189
 31
0.0
  0
LINE
  5
2C5
  8
CENTER
 10
22.43732922847121
 20
33.517337164118508
 30
0.0
 11
22.43732922847121
 21
32.079337164118513
 31
0.0
  0
CIRCLE
  5
2C6
  8
OBJECT
 10
19.43732922847121
 20
31.923337164118522
 30
0.0
 40
0.156
  0
CIRCLE
  5
2C7
  8
OBJECT
 10
19.43732922847121
 20
33.673337164118507
 30
0.0
 40
0.156
  0
LINE
  5
2C8
  8
CENTER
 10
19.43732922847121
 20
33.517337164118508
 30
0.0
 11
19.43732922847121
 21
32.079337164118513
 31
0.0
  0
LINE
  5
2C9
  8
CENTER
 10
19.593329228471202
 20
33.673337164118507
 30
0.0
 11
22.281329228471211
 21
33.673337164118507
 31
0.0
  0
LINE
  5
2CA
  8
CENTER
 10
19.593329228471202
 20
31.923337164118522
 30
0.0
 11
22.281329228471211
 21
31.923337164118522
 31
0.0
  0
ARC
  5
2CB
  8
OBJECT
 10
19.061329228471209
 20
29.24104183810919
 30
0.0
 40
0.015
 50
90.0
 51
180.0
  0
ARC
  5
2CC
  8
OBJECT
 10
19.061329228471209
 20
27.92704183810919
 30
0.0
 40
0.015
 50
180.0
 51
270.0
  0
ARC
  5
2CD
  8
OBJECT
 10
22.813329228471211
 20
27.92704183810919
 30
0.0
 40
0.015
 50
270.0
 51
0.0000000000000763
  0
ARC
  5
2CE
  8
OBJECT
 10
22.813329228471201
 20
29.24104183810919
 30
0.0
 40
0.015
 50
0.0000000000001018
 51
90.0
  0
ARC
  5
2CF
  8
OBJECT
 10
19.06232922847121
 20
29.240041838109178
 30
0.0
 40
0.125
 50
90.0
 51
180.0
  0
ARC
  5
2D0
  8
OBJECT
 10
19.06232922847121
 20
27.928041838109181
 30
0.0
 40
0.125
 50
180.0
 51
270.0
  0
ARC
  5
2D1
  8
OBJECT
 10
22.81232922847121
 20
27.928041838109181
 30
0.0
 40
0.125
 50
270.0
 51
0.0
  0
ARC
  5
2D2
  8
OBJECT
 10
22.81232922847121
 20
29.240041838109178
 30
0.0
 40
0.125
 50
0.0
 51
90.0
  0
LINE
  5
2D3
  8
OBJECT
 10
18.937329228471199
 20
34.0483371641185
 30
0.0
 11
18.93732922847121
 21
31.548337164118511
 31
0.0
  0
LINE
  5
2D4
  8
OBJECT
 10
22.93732922847121
 20
34.0483371641185
 30
0.0
 11
22.93732922847121
 21
31.548337164118511
 31
0.0
  0
LINE
  5
2D5
  8
OBJECT
 10
19.93732922847121
 20
34.0483371641185
 30
0.0
 11
19.93732922847121
 21
31.5483371641185
 31
0.0
  0
LINE
  5
2D6
  8
OBJECT
 10
21.93732922847121
 20
34.0483371641185
 30
0.0
 11
21.93732922847121
 21
31.548337164118511
 31
0.0
  0
LINE
  5
2D7
  8
HIDDEN
 10
19.046329228471201
 20
34.0483371641185
 30
0.0
 11
19.046329228471208
 21
31.548337164118511
 31
0.0
  0
LINE
  5
2D8
  8
HIDDEN
 10
22.828329228471201
 20
34.0483371641185
 30
0.0
 11
22.828329228471201
 21
31.548337164118511
 31
0.0
  0
LINE
  5
2D9
  8
DIM
 10
8.1703821025888104
 20
23.690099297243901
 30
0.0
 11
8.4912864146557432
 21
23.372628622238729
 31
0.0
  0
LINE
  5
2DA
  8
DIM
 10
8.4912864146557432
 20
23.372628622238729
 30
0.0
 11
8.8512864146557426
 21
23.372628622238729
 31
0.0
  0
TEXT
  5
2DB
  8
DIM
 10
8.9663903865175012
 20
23.247628622238729
 30
0.0
 40
0.3125
  1
2.000 R.
 41
0.75
  0
SOLID
  5
2DC
  8
DIM
 10
7.9566557629925363
 20
23.985938868232608
 30
0.0
 11
7.8722605691365413
 21
23.900630889391181
 31
0.0
 12
8.1703821025888104
 22
23.690099297243901
 32
0.0
 13
8.1703821025888104
 23
23.690099297243901
 33
0.0
  0
LINE
  5
2DD
  8
DIM
 10
7.9144581660645388
 20
23.943284878811891
 30
0.0
 11
6.7485824552317446
 21
25.096685861510512
 31
0.0
  0
TEXT
  5
2DE
  8
DIM
 10
8.3725044150177315
 20
13.858280006189849
 30
0.0
 40
0.3125
  1
(4) HOLES
 41
0.75
  0
TEXT
  5
2DF
  8
DIM
 10
8.372504415017735
 20
14.31862706674111
 30
0.0
 40
0.3125
  1
0.344 x 0.500 OBLONG
 41
0.75
  0
LINE
  5
2E0
  8
DIM
 10
7.8835140623700051
 20
14.450948731529939
 30
0.0
 11
8.2434240623700088
 21
14.450948731529939
 31
0.0
  0
LINE
  5
2E1
  8
DIM
 10
6.9808717036219301
 20
13.3874125555196
 30
0.0
 11
7.8835140623700051
 21
14.450948731529939
 31
0.0
  0
SOLID
  5
2E2
  8
DIM
 10
6.9350529443686613
 20
13.426127430251301
 30
0.0
 11
7.0266904628751989
 21
13.348697680787909
 31
0.0
 12
6.7485824552317482
 22
13.112500000000001
 32
0.0
 13
6.7485824552317482
 23
13.112500000000001
 33
0.0
  0
LINE
  5
2E3
  8
DIM
 10
7.914458166064537
 20
4.6462848788119038
 30
0.0
 11
6.7485824552317428
 21
5.7996858615105182
 31
0.0
  0
SOLID
  5
2E4
  8
DIM
 10
7.9566557629925336
 20
4.6889388682326132
 30
0.0
 11
7.8722605691365386
 21
4.603630889391189
 31
0.0
 12
8.1703821025888086
 22
4.3930992972439116
 32
0.0
 13
8.1703821025888086
 23
4.3930992972439116
 33
0.0
  0
TEXT
  5
2E5
  8
DIM
 10
8.9663903865175012
 20
3.950628622238737
 30
0.0
 40
0.3125
  1
2.000 R.
 41
0.75
  0
LINE
  5
2E6
  8
DIM
 10
8.4912864146557414
 20
4.0756286222387379
 30
0.0
 11
8.8512864146557408
 21
4.0756286222387379
 31
0.0
  0
LINE
  5
2E7
  8
DIM
 10
8.1703821025888086
 20
4.3930992972439142
 30
0.0
 11
8.4912864146557432
 21
4.0756286222387379
 31
0.0
  0
TEXT
  5
2E8
  8
DIM
 10
14.266236557092901
 20
7.5583693596482711
 30
0.0
 40
0.3125
  1
LUBRICATING
 41
0.75
  0
TEXT
  5
2E9
  8
DIM
 10
14.266236557092901
 20
8.0612827646227476
 30
0.0
 40
0.3125
  1
SELF
 41
0.75
  0
LINE
  5
2EA
  8
DIM
 10
13.753098712131109
 20
8.168387846565345
 30
0.0
 11
14.11300871213111
 21
8.168387846565345
 31
0.0
  0
LINE
  5
2EB
  8
DIM
 10
13.24103571807999
 20
8.3402146003660231
 30
0.0
 11
13.753098712131109
 21
8.168387846565345
 31
0.0
  0
SOLID
  5
2EC
  8
DIM
 10
13.221952979016899
 20
8.2833458981226098
 30
0.0
 11
13.26011845714309
 21
8.3970833026094365
 31
0.0
 12
12.899823504619521
 22
8.4547110347445749
 32
0.0
 13
12.899823504619521
 23
8.4547110347445749
 33
0.0
  0
LINE
  5
2ED
  8
CENTER
 10
5.2485824552317437
 20
9.7017064363630467
 30
0.0
 11
5.2485824552317437
 21
5.7096858615105139
 31
0.0
  0
LINE
  5
2EE
  8
CENTER
 10
19.43732922847121
 20
29.615041838109189
 30
0.0
 11
19.43732922847121
 21
27.553041838109191
 31
0.0
  0
LINE
  5
2EF
  8
CENTER
 10
22.43732922847121
 20
29.615041838109189
 30
0.0
 11
22.43732922847121
 21
27.553041838109191
 31
0.0
  0
TEXT
  5
2F0
  8
TEXT
 10
0.5195833333333408
 20
37.650197989100199
 30
0.0
 40
0.3125
  1
NAME
 72
     1
 11
1.0925000000000069
 21
37.650197989100199
 31
0.0
  0
TEXT
  5
2F1
  8
TEXT
 10
0.5195833333333408
 20
38.171031322433528
 30
0.0
 40
0.3125
  1
PART
 72
     1
 11
1.0925000000000069
 21
38.171031322433528
 31
0.0
  0
TEXT
  5
2F2
  8
TEXT
 10
13.429999999999991
 20
37.650197989100199
 30
0.0
 40
0.3125
  1
No.
 72
     1
 11
13.742499999999991
 21
37.650197989100199
 31
0.0
  0
TEXT
  5
2F3
  8
TEXT
 10
13.16958333333333
 20
38.171031322433528
 30
0.0
 40
0.3125
  1
PART
 72
     1
 11
13.742499999999991
 21
38.171031322433528
 31
0.0
  0
LINE
  5
2F4
  8
TITLE
 10
14.68
 20
38.594999999999999
 30
0.0
 11
14.68
 21
37.54999999999999
 31
0.0
  0
LINE
  5
2F5
  8
TITLE
 10
12.805
 20
38.594999999999999
 30
0.0
 11
12.805
 21
37.54999999999999
 31
0.0
  0
LINE
  5
2F6
  8
TITLE
 10
12.65
 20
38.594999999999999
 30
0.0
 11
12.65
 21
37.54999999999999
 31
0.0
  0
LINE
  5
2F7
  8
TITLE
 10
2.0300000000000069
 20
37.54999999999999
 30
0.0
 11
2.030000000000002
 21
38.594999999999999
 31
0.0
  0
LINE
  5
2F8
  8
TITLE
 10
0.1550000000000029
 20
37.54999999999999
 30
0.0
 11
25.145
 21
37.54999999999999
 31
0.0
  0
LINE
  5
2F9
  8
TITLE
 10
25.145
 20
0.1549999999999985
 30
0.0
 11
0.154999999999994
 21
0.1550000000000029
 31
0.0
  0
LINE
  5
2FA
  8
TITLE
 10
25.145
 20
38.594999999999999
 30
0.0
 11
25.145
 21
19.452999999999989
 31
0.0
  0
LINE
  5
2FB
  8
TITLE
 10
0.1550000000000029
 20
38.594999999999999
 30
0.0
 11
25.145
 21
38.594999999999999
 31
0.0
  0
LINE
  5
2FC
  8
TITLE
 10
0.154999999999994
 20
0.1550000000000029
 30
0.0
 11
0.1549999999999985
 21
19.297999999999998
 31
0.0
  0
LINE
  5
2FD
  8
TITLE
 10
0.0
 20
0.0
 30
0.0
 11
0.0
 21
38.75
 31
0.0
  0
LINE
  5
2FE
  8
TITLE
 10
25.29999999999999
 20
-0.0000000000000044
 30
0.0
 11
0.0
 21
0.0
 31
0.0
  0
LINE
  5
2FF
  8
TITLE
 10
25.29999999999999
 20
38.749999999999993
 30
0.0
 11
25.29999999999999
 21
-0.0000000000000044
 31
0.0
  0
LINE
  5
300
  8
TITLE
 10
0.0
 20
38.75
 30
0.0
 11
25.29999999999999
 21
38.749999999999993
 31
0.0
  0
LINE
  5
301
  8
TITLE
 10
0.1549999999999985
 20
19.452999999999999
 30
0.0
 11
25.145
 21
19.452999999999989
 31
0.0
  0
LINE
  5
302
  8
TITLE
 10
0.1550000000000011
 20
19.297999999999998
 30
0.0
 11
25.145
 21
19.297999999999998
 31
0.0
  0
LINE
  5
303
  8
TITLE
 10
0.1550000000000011
 20
18.253
 30
0.0
 11
25.145
 21
18.253
 31
0.0
  0
LINE
  5
304
  8
TITLE
 10
2.0300000000000078
 20
18.253
 30
0.0
 11
2.0300000000000011
 21
19.297999999999998
 31
0.0
  0
LINE
  5
305
  8
TITLE
 10
12.65
 20
19.297999999999998
 30
0.0
 11
12.65
 21
18.253
 31
0.0
  0
LINE
  5
306
  8
TITLE
 10
12.805
 20
19.297999999999998
 30
0.0
 11
12.805
 21
18.253
 31
0.0
  0
LINE
  5
307
  8
TITLE
 10
14.68
 20
19.297999999999998
 30
0.0
 11
14.68
 21
18.253
 31
0.0
  0
TEXT
  5
308
  8
TEXT
 10
13.16958333333333
 20
18.874031322433531
 30
0.0
 40
0.3125
  1
PART
 72
     1
 11
13.742499999999991
 21
18.874031322433531
 31
0.0
  0
TEXT
  5
309
  8
TEXT
 10
13.429999999999991
 20
18.353197989100199
 30
0.0
 40
0.3125
  1
No.
 72
     1
 11
13.742499999999991
 21
18.353197989100199
 31
0.0
  0
TEXT
  5
30A
  8
TEXT
 10
0.5195833333333408
 20
18.874031322433531
 30
0.0
 40
0.3125
  1
PART
 72
     1
 11
1.0925000000000069
 21
18.874031322433531
 31
0.0
  0
TEXT
  5
30B
  8
TEXT
 10
0.5195833333333408
 20
18.353197989100199
 30
0.0
 40
0.3125
  1
NAME
 72
     1
 11
1.0925000000000069
 21
18.353197989100199
 31
0.0
  0
LINE
  5
30C
  8
TITLE
 10
25.145
 20
19.297999999999998
 30
0.0
 11
25.145
 21
0.1549999999999985
 31
0.0
  0
LINE
  5
30D
  8
TITLE
 10
0.1549999999999985
 20
19.452999999999999
 30
0.0
 11
0.1550000000000029
 21
38.594999999999999
 31
0.0
  0
TEXT
  5
30E
  8
DIM
 10
14.266236557092901
 20
26.366355232606111
 30
0.0
 40
0.3125
  1
BEARINGS
 41
0.75
  0
TEXT
  5
30F
  8
DIM
 10
14.266236557092901
 20
7.034430615652826
 30
0.0
 40
0.3125
  1
BEARINGS
 41
0.75
  0
TEXT
  5
310
  8
TEXT
 10
2.0089896320748548
 20
21.124017570228052
 30
0.0
 40
0.3125
  1
SWIVEL RADIUS: 3.500
 41
0.75
  0
TEXT
  5
311
  8
TEXT
 10
1.9617951178060811
 20
20.286818555917581
 30
0.0
 40
0.3125
  1
CASTERS WILL RAISE SERIES-60 & -2000 CABINET RACKS BY 4.000 INCHES
 41
0.75
  0
TEXT
  5
312
  8
TEXT
 10
2.8249486865220699
 20
19.814615814402501
 30
0.0
 40
0.3125
  1
AND RAISE ECONOMIZER CABINET RACKS BY 4.125 INCHES.
 41
0.75
  0
TEXT
  5
313
  8
TEXT
 10
2.0089896320748548
 20
35.092734530947098
 30
0.0
 40
0.3125
  1
CASTERS ARE PACKAGED IN PAIRS.
 41
0.75
  0
TEXT
  5
314
  8
TEXT
 10
17.502016656174799
 20
36.758172030947087
 30
0.0
 40
0.3125
  1
%%uMOUNTING BRACKET
 41
0.75
  0
TEXT
  5
315
  8
TEXT
 10
17.92814296117794
 20
35.300734530947111
 30
0.0
 40
0.3125
  1
%%uFINISH:%%u FLAT BLACK SMOOTH
 41
0.75
  0
TEXT
  5
316
  8
TEXT
 10
17.92814296117794
 20
36.134172030947099
 30
0.0
 40
0.3125
  1
%%uMATERIAL:%%u 12 GA. STEEL
 41
0.75
  0
TEXT
  5
317
  8
TEXT
 10
3.830000000000001
 20
37.876999999999988
 30
0.0
 40
0.39
  1
SWIVEL CASTER WITH BRAKE
 41
0.75
 72
     1
 11
7.3400000000000043
 21
37.876999999999988
 31
0.0
  0
TEXT
  5
318
  8
TEXT
 10
18.986249999999998
 20
37.876999999999988
 30
0.0
 40
0.39
  1
RC-7761
 41
0.75
 72
     1
 11
19.912500000000001
 21
37.876999999999988
 31
0.0
  0
TEXT
  5
319
  8
TEXT
 10
5.4387500000000024
 20
18.579999999999991
 30
0.0
 40
0.39
  1
SWIVEL CASTER
 41
0.75
 72
     1
 11
7.3400000000000016
 21
18.579999999999991
 31
0.0
  0
TEXT
  5
31A
  8
TEXT
 10
18.9375
 20
18.579999999999991
 30
0.0
 40
0.39
  1
RC-7762
 41
0.75
 72
     1
 11
19.912500000000001
 21
18.579999999999991
 31
0.0
  0
TEXT
  5
31B
  8
TEXT
 10
17.92814296117794
 20
16.837172030947102
 30
0.0
 40
0.3125
  1
%%uMATERIAL:%%u 12 GA. STEEL
 41
0.75
  0
TEXT
  5
31C
  8
TEXT
 10
17.92814296117794
 20
16.00373453094711
 30
0.0
 40
0.3125
  1
%%uFINISH:%%u FLAT BLACK SMOOTH
 41
0.75
  0
TEXT
  5
31D
  8
TEXT
 10
17.502016656174799
 20
17.46117203094709
 30
0.0
 40
0.3125
  1
%%uMOUNTING BRACKET
 41
0.75
  0
TEXT
  5
31E
  8
TEXT
 10
2.008989632074853
 20
15.795734530947099
 30
0.0
 40
0.3125
  1
CASTERS ARE PACKAGED IN PAIRS.
 41
0.75
  0
TEXT
  5
31F
  8
TEXT
 10
2.008989632074853
 20
17.46117203094709
 30
0.0
 40
0.3125
  1
%%uLOAD RATING:%%u 240 LBS.
 41
0.75
  0
TEXT
  5
320
  8
TEXT
 10
2.008989632074853
 20
16.627734530947102
 30
0.0
 40
0.3125
  1
%%uWHEEL MATERIAL:%%u HARD TREAD RUBBER
 41
0.75
  0
TEXT
  5
321
  8
TEXT
 10
2.008989632074853
 20
1.827017570228054
 30
0.0
 40
0.3125
  1
SWIVEL RADIUS: 3.500
 41
0.75
  0
DIMENSION
  5
322
  8
DIM
  2
*D1
 10
17.933498108123299
 20
33.673337164118507
 30
0.0
 11
17.933498108123299
 21
32.798337164118507
 31
0.0
 13
19.43732922847121
 23
31.923337164118522
 33
0.0
 14
19.43732922847121
 24
33.673337164118507
 34
0.0
 50
90.0
  0
DIMENSION
  5
323
  8
DIM
  2
*D12
 10
17.933498108123299
 20
27.803041838109191
 30
0.0
 11
17.933498108123299
 21
28.584041838109179
 31
0.0
 13
19.06232922847121
 23
29.365041838109189
 33
0.0
 14
19.06232922847121
 24
27.803041838109191
 34
0.0
 50
90.0
  0
DIMENSION
  5
324
  8
DIM
  2
*D3
 10
22.43732922847121
 20
30.779997183561829
 30
0.0
 11
20.93732922847121
 21
30.779997183561829
 31
0.0
 13
19.43732922847121
 23
31.923337164118522
 33
0.0
 14
22.43732922847121
 24
31.923337164118522
 34
0.0
  0
DIMENSION
  5
325
  8
DIM
  2
*D2
 10
22.93732922847121
 20
26.87905793631597
 30
0.0
 11
20.93732922847121
 21
26.87905793631597
 31
0.0
 13
18.93732922847121
 23
27.928041838109181
 33
0.0
 14
22.93732922847121
 24
27.928041838109181
 34
0.0
  0
DIMENSION
  5
326
  8
DIM
  2
*D4
 10
23.991888966522168
 20
31.548337164118511
 30
0.0
 11
23.991888966522168
 21
32.7983371641185
 31
0.0
 13
22.93732922847121
 23
34.0483371641185
 33
0.0
 14
22.93732922847121
 24
31.548337164118511
 34
0.0
 50
90.0
  0
DIMENSION
  5
327
  8
DIM
  2
*D9
 10
3.436082455231745
 20
28.981630633449019
 30
0.0
 11
4.3423324552317464
 21
28.981630633449019
 31
0.0
 13
5.2485824552317464
 23
28.531226704511809
 33
0.0
 14
3.436082455231745
 24
28.221685861510501
 34
0.0
  0
DIMENSION
  5
328
  8
DIM
  2
*D7
 10
2.4784807995572029
 20
28.221685861510501
 30
0.0
 11
2.4784807995572029
 21
25.659185861510512
 31
0.0
 13
6.7485824552317464
 23
23.096685861510512
 33
0.0
 14
3.436082455231745
 24
28.221685861510501
 34
0.0
 50
90.0
  0
DIMENSION
  5
329
  8
DIM
  2
*D0
 10
6.7485824552317464
 20
22.195777441937771
 30
0.0
 11
5.9985824552317464
 21
22.195777441937771
 31
0.0
 13
5.2485824552317464
 23
25.006685861510501
 33
0.0
 14
6.7485824552317464
 24
25.006685861510501
 34
0.0
  0
DIMENSION
  5
32A
  8
DIM
  2
*D8
 10
9.6982838632720387
 20
31.98749999999999
 30
0.0
 11
9.6982838632720387
 21
31.36249999999999
 31
0.0
 13
8.5615824552317452
 23
30.73749999999999
 33
0.0
 14
8.5615824552317452
 24
31.98749999999999
 34
0.0
 50
90.0
  0
DIMENSION
  5
32B
  8
DIM
  2
*D6
 10
2.4784807995572029
 20
30.487500000000001
 30
0.0
 11
2.4784807995572029
 21
31.36249999999999
 31
0.0
 13
3.736582455231745
 23
32.23749999999999
 33
0.0
 14
3.736582455231745
 24
30.487500000000001
 34
0.0
 50
90.0
  0
DIMENSION
  5
32C
  8
DIM
  2
*D5
 10
1.2567907066984381
 20
30.175000000000001
 30
0.0
 11
1.2567907066984381
 21
31.36249999999999
 31
0.0
 13
3.7170824552317461
 23
32.54999999999999
 33
0.0
 14
3.7170824552317461
 24
30.175000000000001
 34
0.0
 50
90.0
  0
DIMENSION
  5
32D
  8
DIM
  2
*D10
 10
6.6705824552317461
 20
33.340633058339051
 30
0.0
 11
5.2485824552317464
 21
33.340633058339051
 31
0.0
 13
3.8265824552317449
 23
32.327500000000001
 33
0.0
 14
6.6705824552317461
 24
32.327500000000001
 34
0.0
  0
DIMENSION
  5
32E
  8
DIM
  2
*D11
 10
7.0610824552317464
 20
34.108781673074027
 30
0.0
 11
5.2485824552317464
 21
34.108781673074027
 31
0.0
 13
3.436082455231745
 23
32.268999999999991
 33
0.0
 14
7.0610824552317464
 24
32.268999999999991
 34
0.0
  0
DIMENSION
  5
32F
  8
DIM
  2
*D4
 10
23.991888966522168
 20
12.227306500027449
 30
0.0
 11
23.991888966522168
 21
13.47730650002744
 31
0.0
 12
0.0
 22
-19.321030664091062
 32
0.0
 13
22.93732922847121
 23
14.72730650002744
 33
0.0
 14
22.93732922847121
 24
12.227306500027449
 34
0.0
 50
90.0
  0
DIMENSION
  5
330
  8
DIM
  2
*D3
 10
22.43732922847121
 20
11.45896651947076
 30
0.0
 11
20.93732922847121
 21
11.45896651947076
 31
0.0
 12
0.0
 22
-19.321030664091062
 32
0.0
 13
19.43732922847121
 23
12.602306500027449
 33
0.0
 14
22.43732922847121
 24
12.602306500027449
 34
0.0
  0
DIMENSION
  5
331
  8
DIM
  2
*D1
 10
17.933498108123299
 20
14.35230650002744
 30
0.0
 11
17.933498108123299
 21
13.477306500027449
 31
0.0
 12
0.0
 22
-19.321030664091062
 32
0.0
 13
19.43732922847121
 23
12.602306500027449
 33
0.0
 14
19.43732922847121
 24
14.35230650002744
 34
0.0
 50
90.0
  0
LINE
  5
332
  8
HIDDEN
 10
22.828329228471201
 20
14.72730650002744
 30
0.0
 11
22.828329228471201
 21
12.227306500027449
 31
0.0
  0
LINE
  5
333
  8
HIDDEN
 10
19.046329228471201
 20
14.72730650002744
 30
0.0
 11
19.046329228471208
 21
12.227306500027449
 31
0.0
  0
LINE
  5
334
  8
OBJECT
 10
21.93732922847121
 20
14.72730650002744
 30
0.0
 11
21.93732922847121
 21
12.227306500027449
 31
0.0
  0
LINE
  5
335
  8
OBJECT
 10
19.93732922847121
 20
14.72730650002744
 30
0.0
 11
19.93732922847121
 21
12.22730650002744
 31
0.0
  0
LINE
  5
336
  8
OBJECT
 10
22.93732922847121
 20
14.72730650002744
 30
0.0
 11
22.93732922847121
 21
12.227306500027449
 31
0.0
  0
LINE
  5
337
  8
OBJECT
 10
18.937329228471199
 20
14.72730650002744
 30
0.0
 11
18.93732922847121
 21
12.227306500027449
 31
0.0
  0
DIMENSION
  5
338
  8
DIM
  2
*D13
 10
17.933498108123299
 20
8.4820111740181261
 30
0.0
 11
17.933498108123299
 21
9.2630111740181267
 31
0.0
 13
19.06232922847121
 23
10.04401117401812
 33
0.0
 14
19.06232922847121
 24
8.4820111740181261
 34
0.0
 50
90.0
  0
DIMENSION
  5
339
  8
DIM
  2
*D2
 10
22.93732922847121
 20
7.5580272722249111
 30
0.0
 11
20.93732922847121
 21
7.5580272722249111
 31
0.0
 12
0.0
 22
-19.321030664091062
 32
0.0
 13
18.93732922847121
 23
8.6070111740181261
 33
0.0
 14
22.93732922847121
 24
8.6070111740181261
 34
0.0
  0
LINE
  5
33A
  8
OBJECT
 10
19.06232922847121
 20
8.4820111740181261
 30
0.0
 11
22.81232922847121
 21
8.4820111740181261
 31
0.0
  0
LINE
  5
33B
  8
OBJECT
 10
19.061329228471209
 20
8.5910111740181279
 30
0.0
 11
22.813329228471211
 21
8.5910111740181279
 31
0.0
  0
LINE
  5
33C
  8
OBJECT
 10
18.937329228471199
 20
12.22730650002744
 30
0.0
 11
22.93732922847121
 21
12.227306500027449
 31
0.0
  0
LINE
  5
33D
  8
OBJECT
 10
18.93732922847121
 20
9.9190111740181273
 30
0.0
 11
18.93732922847121
 21
8.6070111740181261
 31
0.0
  0
LINE
  5
33E
  8
OBJECT
 10
19.046329228471208
 20
9.920011174018132
 30
0.0
 11
19.046329228471208
 21
8.6060111740181284
 31
0.0
  0
LINE
  5
33F
  8
CENTER
 10
19.43732922847121
 20
10.29401117401812
 30
0.0
 11
19.43732922847121
 21
8.2320111740181261
 31
0.0
  0
ARC
  5
340
  8
OBJECT
 10
19.06232922847121
 20
8.6070111740181261
 30
0.0
 40
0.125
 50
180.0
 51
270.0
  0
ARC
  5
341
  8
OBJECT
 10
19.061329228471209
 20
8.6060111740181284
 30
0.0
 40
0.015
 50
180.0
 51
270.0
  0
LINE
  5
342
  8
OBJECT
 10
19.93732922847121
 20
10.04401117401812
 30
0.0
 11
19.06232922847121
 21
10.04401117401812
 31
0.0
  0
LINE
  5
343
  8
OBJECT
 10
19.93732922847121
 20
9.9350111740181326
 30
0.0
 11
19.061329228471209
 21
9.9350111740181326
 31
0.0
  0
ARC
  5
344
  8
OBJECT
 10
19.06232922847121
 20
9.9190111740181273
 30
0.0
 40
0.125
 50
90.0
 51
180.0
  0
ARC
  5
345
  8
OBJECT
 10
19.061329228471209
 20
9.920011174018132
 30
0.0
 40
0.015
 50
90.0
 51
180.0
  0
LINE
  5
346
  8
OBJECT
 10
19.93732922847121
 20
10.04401117401812
 30
0.0
 11
19.93732922847121
 21
9.9350111740181326
 31
0.0
  0
LINE
  5
347
  8
OBJECT
 10
22.828329228471201
 20
9.920011174018132
 30
0.0
 11
22.828329228471208
 21
8.6060111740181284
 31
0.0
  0
LINE
  5
348
  8
OBJECT
 10
22.93732922847121
 20
9.9190111740181273
 30
0.0
 11
22.93732922847121
 21
8.6070111740181261
 31
0.0
  0
LINE
  5
349
  8
CENTER
 10
22.43732922847121
 20
10.29401117401812
 30
0.0
 11
22.43732922847121
 21
8.2320111740181261
 31
0.0
  0
ARC
  5
34A
  8
OBJECT
 10
22.81232922847121
 20
8.6070111740181261
 30
0.0
 40
0.125
 50
270.0
 51
0.0
  0
ARC
  5
34B
  8
OBJECT
 10
22.813329228471211
 20
8.6060111740181284
 30
0.0
 40
0.015
 50
270.0
 51
0.0000000000000763
  0
ARC
  5
34C
  8
OBJECT
 10
22.81232922847121
 20
9.9190111740181273
 30
0.0
 40
0.125
 50
0.0
 51
90.0
  0
LINE
  5
34D
  8
OBJECT
 10
21.93732922847121
 20
10.04401117401812
 30
0.0
 11
21.93732922847121
 21
9.9350111740181326
 31
0.0
  0
LINE
  5
34E
  8
OBJECT
 10
21.93732922847121
 20
9.9350111740181326
 30
0.0
 11
22.813329228471201
 21
9.9350111740181326
 31
0.0
  0
ARC
  5
34F
  8
OBJECT
 10
22.813329228471201
 20
9.920011174018132
 30
0.0
 40
0.015
 50
0.0000000000001018
 51
90.0
  0
LINE
  5
350
  8
OBJECT
 10
21.93732922847121
 20
10.04401117401812
 30
0.0
 11
22.81232922847121
 21
10.04401117401812
 31
0.0
  0
LINE
  5
351
  8
CENTER
 10
19.593329228471202
 20
12.602306500027449
 30
0.0
 11
22.281329228471211
 21
12.602306500027449
 31
0.0
  0
LINE
  5
352
  8
CENTER
 10
19.593329228471202
 20
14.35230650002744
 30
0.0
 11
22.281329228471211
 21
14.35230650002744
 31
0.0
  0
LINE
  5
353
  8
OBJECT
 10
22.93732922847121
 20
14.72730650002744
 30
0.0
 11
18.937329228471199
 21
14.72730650002744
 31
0.0
  0
LINE
  5
354
  8
CENTER
 10
19.43732922847121
 20
14.19630650002745
 30
0.0
 11
19.43732922847121
 21
12.75830650002745
 31
0.0
  0
CIRCLE
  5
355
  8
OBJECT
 10
19.43732922847121
 20
12.602306500027449
 30
0.0
 40
0.156
  0
CIRCLE
  5
356
  8
OBJECT
 10
19.43732922847121
 20
14.35230650002744
 30
0.0
 40
0.156
  0
LINE
  5
357
  8
CENTER
 10
22.43732922847121
 20
14.19630650002745
 30
0.0
 11
22.43732922847121
 21
12.75830650002745
 31
0.0
  0
CIRCLE
  5
358
  8
OBJECT
 10
22.43732922847121
 20
12.602306500027449
 30
0.0
 40
0.156
  0
CIRCLE
  5
359
  8
OBJECT
 10
22.43732922847121
 20
14.35230650002744
 30
0.0
 40
0.156
  0
DIMENSION
  5
35C
  8
DIM
  2
*D0
 10
6.7485824552317437
 20
2.898777441937781
 30
0.0
 11
5.9985824552317437
 21
2.898777441937781
 31
0.0
 12
-0.0000000000000018
 22
-19.29699999999999
 32
0.0
 13
5.2485824552317437
 23
5.7096858615105113
 33
0.0
 14
6.7485824552317437
 24
5.7096858615105113
 34
0.0
  0
DIMENSION
  5
35D
  8
DIM
  2
*D7
 10
2.478480799557202
 20
8.9246858615105111
 30
0.0
 11
2.478480799557202
 21
6.3621858615105111
 31
0.0
 12
-0.0000000000000018
 22
-19.29699999999999
 32
0.0
 13
6.7485824552317437
 23
3.7996858615105138
 33
0.0
 14
3.4360824552317442
 24
8.9246858615105111
 34
0.0
 50
90.0
  0
DIMENSION
  5
35E
  8
DIM
  2
*D5
 10
1.256790706698437
 20
10.878
 30
0.0
 11
1.256790706698437
 21
12.0655
 31
0.0
 12
-0.0000000000000018
 22
-19.29699999999999
 32
0.0
 13
3.7170824552317439
 23
13.253
 33
0.0
 14
3.7170824552317439
 24
10.878
 34
0.0
 50
90.0
  0
DIMENSION
  5
35F
  8
DIM
  2
*D6
 10
2.478480799557202
 20
11.1905
 30
0.0
 11
2.478480799557202
 21
12.0655
 31
0.0
 12
-0.0000000000000018
 22
-19.29699999999999
 32
0.0
 13
3.7365824552317428
 23
12.9405
 33
0.0
 14
3.7365824552317428
 24
11.1905
 34
0.0
 50
90.0
  0
DIMENSION
  5
360
  8
DIM
  2
*D10
 10
6.6705824552317452
 20
14.043633058339051
 30
0.0
 11
5.2485824552317437
 21
14.043633058339051
 31
0.0
 12
-0.0000000000000018
 22
-19.29699999999999
 32
0.0
 13
3.8265824552317431
 23
13.0305
 33
0.0
 14
6.6705824552317452
 24
13.0305
 34
0.0
  0
DIMENSION
  5
361
  8
DIM
  2
*D11
 10
7.0610824552317437
 20
14.81178167307403
 30
0.0
 11
5.2485824552317437
 21
14.81178167307403
 31
0.0
 12
-0.0000000000000018
 22
-19.29699999999999
 32
0.0
 13
3.4360824552317442
 23
12.971999999999991
 33
0.0
 14
7.0610824552317437
 24
12.971999999999991
 34
0.0
  0
DIMENSION
  5
362
  8
DIM
  2
*D8
 10
9.6982838632720352
 20
12.6905
 30
0.0
 11
9.6982838632720352
 21
12.0655
 31
0.0
 12
-0.0000000000000018
 22
-19.29699999999999
 32
0.0
 13
8.5615824552317452
 23
11.4405
 33
0.0
 14
8.5615824552317452
 24
12.6905
 34
0.0
 50
90.0
  0
DIMENSION
  5
363
  8
DIM
  2
*D9
 10
3.4360824552317442
 20
9.6846306334490251
 30
0.0
 11
4.3423324552317437
 21
9.6846306334490251
 31
0.0
 12
-0.0000000000000018
 22
-19.29699999999999
 32
0.0
 13
5.2485824552317437
 23
9.2342267045118156
 33
0.0
 14
3.4360824552317442
 24
8.9246858615105111
 34
0.0
  0
CIRCLE
  5
364
  8
OBJECT
 10
20.937329228471199
 20
13.47730650002744
 30
0.0
 40
0.273
  0
CIRCLE
  5
365
  8
OBJECT
 10
20.937329228471199
 20
32.7983371641185
 30
0.0
 40
0.273
  0
TEXT
  5
36D
  8
TEXT
 10
1.9617951178060771
 20
0.9888185559175859
 30
0.0
 40
0.3125
  1
CASTERS WILL RAISE SERIES-60 & -2000 CABINET RACKS BY 4.000 INCHES
 41
0.75
  0
TEXT
  5
36E
  8
TEXT
 10
2.824948686522065
 20
0.5166158144025062
 30
0.0
 40
0.3125
  1
AND RAISE ECONOMIZER CABINET RACKS BY 4.125 INCHES.
 41
0.75
  0
ENDSEC
  0
EOF
