  0
SECTION
  2
HEADER
  9
$ACADVER
  1
AC1015
  9
$ACADMAINTVER
 70
     6
  9
$DWGCODEPAGE
  3
ANSI_1252
  9
$INSBASE
 10
0.0
 20
0.0
 30
0.0
  9
$EXTMIN
 10
-0.0017313770269212
 20
-0.0011778458260565
 30
-0.000000000000013
  9
$EXTMAX
 10
24.99141214902576
 20
19.1440788474791
 30
0.0000000000000023
  9
$LIMMIN
 10
0.0
 20
0.0
  9
$LIMMAX
 10
24.99000000000001
 20
19.143
  9
$ORTHOMODE
 70
     1
  9
$REGENMODE
 70
     1
  9
$FILLMODE
 70
     1
  9
$QTEXTMODE
 70
     0
  9
$MIRRTEXT
 70
     0
  9
$LTSCALE
 40
0.875
  9
$ATTMODE
 70
     1
  9
$TEXTSIZE
 40
0.3125
  9
$TRACEWID
 40
0.05
  9
$TEXTSTYLE
  7
STANDARD
  9
$CLAYER
  8
DIM
  9
$CELTYPE
  6
ByLayer
  9
$CECOLOR
 62
   256
  9
$CELTSCALE
 40
1.0
  9
$DISPSILH
 70
     0
  9
$DIMSCALE
 40
2.5
  9
$DIMASZ
 40
0.18
  9
$DIMEXO
 40
0.063
  9
$DIMDLI
 40
0.38
  9
$DIMRND
 40
0.0
  9
$DIMDLE
 40
0.0
  9
$DIMEXE
 40
0.093
  9
$DIMTP
 40
0.0
  9
$DIMTM
 40
0.0
  9
$DIMTXT
 40
0.125
  9
$DIMCEN
 40
0.09
  9
$DIMTSZ
 40
0.0
  9
$DIMTOL
 70
     0
  9
$DIMLIM
 70
     0
  9
$DIMTIH
 70
     1
  9
$DIMTOH
 70
     1
  9
$DIMSE1
 70
     0
  9
$DIMSE2
 70
     0
  9
$DIMTAD
 70
     0
  9
$DIMZIN
 70
     0
  9
$DIMBLK
  1

  9
$DIMASO
 70
     1
  9
$DIMSHO
 70
     1
  9
$DIMPOST
  1

  9
$DIMAPOST
  1

  9
$DIMALT
 70
     0
  9
$DIMALTD
 70
     2
  9
$DIMALTF
 40
25.4
  9
$DIMLFAC
 40
1.0
  9
$DIMTOFL
 70
     0
  9
$DIMTVP
 40
0.0
  9
$DIMTIX
 70
     0
  9
$DIMSOXD
 70
     0
  9
$DIMSAH
 70
     0
  9
$DIMBLK1
  1

  9
$DIMBLK2
  1

  9
$DIMSTYLE
  2
23NSTD
  9
$DIMCLRD
 70
     0
  9
$DIMCLRE
 70
     0
  9
$DIMCLRT
 70
     0
  9
$DIMTFAC
 40
1.0
  9
$DIMGAP
 40
0.09
  9
$DIMJUST
 70
     0
  9
$DIMSD1
 70
     0
  9
$DIMSD2
 70
     0
  9
$DIMTOLJ
 70
     1
  9
$DIMTZIN
 70
     0
  9
$DIMALTZ
 70
     0
  9
$DIMALTTZ
 70
     0
  9
$DIMUPT
 70
     0
  9
$DIMDEC
 70
     3
  9
$DIMTDEC
 70
     3
  9
$DIMALTU
 70
     2
  9
$DIMALTTD
 70
     2
  9
$DIMTXSTY
  7
STANDARD
  9
$DIMAUNIT
 70
     0
  9
$DIMADEC
 70
     0
  9
$DIMALTRND
 40
0.0
  9
$DIMAZIN
 70
     0
  9
$DIMDSEP
 70
    46
  9
$DIMATFIT
 70
     1
  9
$DIMFRAC
 70
     0
  9
$DIMLDRBLK
  1

  9
$DIMLUNIT
 70
     2
  9
$DIMLWD
 70
    -2
  9
$DIMLWE
 70
    -2
  9
$DIMTMOVE
 70
     0
  9
$LUNITS
 70
     2
  9
$LUPREC
 70
     3
  9
$SKETCHINC
 40
0.1
  9
$FILLETRAD
 40
0.0
  9
$AUNITS
 70
     0
  9
$AUPREC
 70
     0
  9
$MENU
  1
acad
  9
$ELEVATION
 40
0.0
  9
$PELEVATION
 40
0.0
  9
$THICKNESS
 40
0.0
  9
$LIMCHECK
 70
     0
  9
$CHAMFERA
 40
0.156
  9
$CHAMFERB
 40
0.156
  9
$CHAMFERC
 40
0.0
  9
$CHAMFERD
 40
0.0
  9
$SKPOLY
 70
     0
  9
$TDCREATE
 40
2448392.408856481
  9
$TDUCREATE
 40
2448392.617189814
  9
$TDUPDATE
 40
2453452.637954791
  9
$TDUUPDATE
 40
2453452.846288125
  9
$TDINDWG
 40
0.1214899421
  9
$TDUSRTIMER
 40
0.1214899421
  9
$USRTIMER
 70
     1
  9
$ANGBASE
 50
0.0
  9
$ANGDIR
 70
     0
  9
$PDMODE
 70
     0
  9
$PDSIZE
 40
0.0
  9
$PLINEWID
 40
0.0
  9
$SPLFRAME
 70
     0
  9
$SPLINETYPE
 70
     6
  9
$SPLINESEGS
 70
     8
  9
$HANDSEED
  5
237F
  9
$SURFTAB1
 70
     6
  9
$SURFTAB2
 70
     6
  9
$SURFTYPE
 70
     6
  9
$SURFU
 70
     6
  9
$SURFV
 70
     6
  9
$UCSBASE
  2

  9
$UCSNAME
  2

  9
$UCSORG
 10
0.0
 20
0.0
 30
0.0
  9
$UCSXDIR
 10
1.0
 20
0.0
 30
0.0
  9
$UCSYDIR
 10
0.0
 20
1.0
 30
0.0
  9
$UCSORTHOREF
  2

  9
$UCSORTHOVIEW
 70
     0
  9
$UCSORGTOP
 10
0.0
 20
0.0
 30
0.0
  9
$UCSORGBOTTOM
 10
0.0
 20
0.0
 30
0.0
  9
$UCSORGLEFT
 10
0.0
 20
0.0
 30
0.0
  9
$UCSORGRIGHT
 10
0.0
 20
0.0
 30
0.0
  9
$UCSORGFRONT
 10
0.0
 20
0.0
 30
0.0
  9
$UCSORGBACK
 10
0.0
 20
0.0
 30
0.0
  9
$PUCSBASE
  2

  9
$PUCSNAME
  2

  9
$PUCSORG
 10
0.0
 20
0.0
 30
0.0
  9
$PUCSXDIR
 10
1.0
 20
0.0
 30
0.0
  9
$PUCSYDIR
 10
0.0
 20
1.0
 30
0.0
  9
$PUCSORTHOREF
  2

  9
$PUCSORTHOVIEW
 70
     0
  9
$PUCSORGTOP
 10
0.0
 20
0.0
 30
0.0
  9
$PUCSORGBOTTOM
 10
0.0
 20
0.0
 30
0.0
  9
$PUCSORGLEFT
 10
0.0
 20
0.0
 30
0.0
  9
$PUCSORGRIGHT
 10
0.0
 20
0.0
 30
0.0
  9
$PUCSORGFRONT
 10
0.0
 20
0.0
 30
0.0
  9
$PUCSORGBACK
 10
0.0
 20
0.0
 30
0.0
  9
$USERI1
 70
     0
  9
$USERI2
 70
     0
  9
$USERI3
 70
     0
  9
$USERI4
 70
     0
  9
$USERI5
 70
     0
  9
$USERR1
 40
0.0
  9
$USERR2
 40
0.0
  9
$USERR3
 40
0.0
  9
$USERR4
 40
0.0
  9
$USERR5
 40
0.0
  9
$WORLDVIEW
 70
     1
  9
$SHADEDGE
 70
     3
  9
$SHADEDIF
 70
    70
  9
$TILEMODE
 70
     1
  9
$MAXACTVP
 70
    16
  9
$PINSBASE
 10
0.0
 20
0.0
 30
0.0
  9
$PLIMCHECK
 70
     0
  9
$PEXTMIN
 10
1.000000000000000E+20
 20
1.000000000000000E+20
 30
1.000000000000000E+20
  9
$PEXTMAX
 10
-1.000000000000000E+20
 20
-1.000000000000000E+20
 30
-1.000000000000000E+20
  9
$PLIMMIN
 10
0.0
 20
0.0
  9
$PLIMMAX
 10
12.0
 20
9.0
  9
$UNITMODE
 70
     0
  9
$VISRETAIN
 70
     0
  9
$PLINEGEN
 70
     0
  9
$PSLTSCALE
 70
     0
  9
$TREEDEPTH
 70
  3020
  9
$CMLSTYLE
  2
Standard
  9
$CMLJUST
 70
     0
  9
$CMLSCALE
 40
1.0
  9
$PROXYGRAPHICS
 70
     1
  9
$MEASUREMENT
 70
     0
  9
$CELWEIGHT
370
    -1
  9
$ENDCAPS
280
     0
  9
$JOINSTYLE
280
     0
  9
$LWDISPLAY
290
     0
  9
$INSUNITS
 70
     0
  9
$HYPERLINKBASE
  1

  9
$STYLESHEET
  1
monochrome.ctb
  9
$XEDIT
290
     1
  9
$CEPSNTYPE
380
     0
  9
$PSTYLEMODE
290
     1
  9
$FINGERPRINTGUID
  2
{A4359117-9ABA-11D4-81CD-00C04F604D1B}
  9
$VERSIONGUID
  2
{A8CB9196-85A9-4D67-A7F7-27B6E5875095}
  9
$EXTNAMES
290
     1
  9
$PSVPSCALE
 40
0.0
  9
$OLESTARTUP
290
     0
  0
ENDSEC
  0
SECTION
  2
CLASSES
  0
CLASS
  1
ACDBDICTIONARYWDFLT
  2
AcDbDictionaryWithDefault
  3
AutoCAD 2000
 90
        0
280
     0
281
     0
  0
CLASS
  1
ACDBPLACEHOLDER
  2
AcDbPlaceHolder
  3
AutoCAD 2000
 90
        0
280
     0
281
     0
  0
CLASS
  1
LAYOUT
  2
AcDbLayout
  3
AutoCAD 2000
 90
        0
280
     0
281
     0
  0
ENDSEC
  0
SECTION
  2
TABLES
  0
TABLE
  2
VPORT
  5
8
330
0
100
AcDbSymbolTable
 70
     6
  0
VPORT
  5
237E
330
8
100
AcDbSymbolTableRecord
100
AcDbViewportTableRecord
  2
*Active
 70
     0
 10
0.0
 20
0.0
 11
1.0
 21
1.0
 12
12.49484032781128
 22
9.571588349148951
 13
0.0
 23
0.0
 14
1.0
 24
1.0
 15
0.5
 25
0.5
 16
0.0
 26
0.0
 36
1.0
 17
0.0
 27
0.0
 37
0.0
 40
19.36740193781538
 41
1.780130293159609
 42
50.0
 43
0.0
 44
0.0
 50
0.0
 51
0.0
 71
     0
 72
   100
 73
     1
 74
     0
 75
     0
 76
     0
 77
     0
 78
     0
281
     0
 65
     1
110
0.0
120
0.0
130
0.0
111
1.0
121
0.0
131
0.0
112
0.0
122
1.0
132
0.0
 79
     0
146
0.0
  0
ENDTAB
  0
TABLE
  2
LTYPE
  5
5
330
0
100
AcDbSymbolTable
 70
     4
  0
LTYPE
  5
13
330
5
100
AcDbSymbolTableRecord
100
AcDbLinetypeTableRecord
  2
ByBlock
 70
     0
  3

 72
    65
 73
     0
 40
0.0
  0
LTYPE
  5
14
330
5
100
AcDbSymbolTableRecord
100
AcDbLinetypeTableRecord
  2
ByLayer
 70
     0
  3

 72
    65
 73
     0
 40
0.0
  0
LTYPE
  5
15
330
5
100
AcDbSymbolTableRecord
100
AcDbLinetypeTableRecord
  2
CONTINUOUS
 70
     0
  3
Solid line
 72
    65
 73
     0
 40
0.0
  0
LTYPE
  5
32
330
5
100
AcDbSymbolTableRecord
100
AcDbLinetypeTableRecord
  2
HIDDEN
 70
     0
  3
_ _ _ _ _ _ _ _ _ _ _ _ _ _ _ _ _ _ _ _ _ _ _
 72
    65
 73
     2
 40
0.375
 49
0.25
 74
     0
 49
-0.125
 74
     0
  0
LTYPE
  5
33
330
5
100
AcDbSymbolTableRecord
100
AcDbLinetypeTableRecord
  2
PHANTOM
 70
     0
  3
_____ _ _ _____ _ _ _____ _ _ _____ _ _ ____
 72
    65
 73
     6
 40
2.5
 49
1.25
 74
     0
 49
-0.25
 74
     0
 49
0.25
 74
     0
 49
-0.25
 74
     0
 49
0.25
 74
     0
 49
-0.25
 74
     0
  0
LTYPE
  5
34
330
5
100
AcDbSymbolTableRecord
100
AcDbLinetypeTableRecord
  2
CENTER
 70
     0
  3
____ _ ____ _ ____ _ ____ _ ____ _ ____ _ ____
 72
    65
 73
     4
 40
2.0
 49
1.25
 74
     0
 49
-0.25
 74
     0
 49
0.25
 74
     0
 49
-0.25
 74
     0
  0
ENDTAB
  0
TABLE
  2
LAYER
  5
2
330
0
100
AcDbSymbolTable
 70
     9
  0
LAYER
  5
10
330
2
100
AcDbSymbolTableRecord
100
AcDbLayerTableRecord
  2
0
 70
     0
 62
     7
  6
CONTINUOUS
370
    -3
390
F
  0
LAYER
  5
39
330
2
100
AcDbSymbolTableRecord
100
AcDbLayerTableRecord
  2
OBJECT
 70
     0
 62
     7
  6
CONTINUOUS
370
    -3
390
F
  0
LAYER
  5
3A
330
2
100
AcDbSymbolTableRecord
100
AcDbLayerTableRecord
  2
DIM
 70
     0
 62
     2
  6
CONTINUOUS
370
    -3
390
F
  0
LAYER
  5
3B
330
2
100
AcDbSymbolTableRecord
100
AcDbLayerTableRecord
  2
HIDDEN
 70
     0
 62
     6
  6
HIDDEN
370
    -3
390
F
  0
LAYER
  5
3C
330
2
100
AcDbSymbolTableRecord
100
AcDbLayerTableRecord
  2
BEND
 70
     0
 62
     4
  6
PHANTOM
370
    -3
390
F
  0
LAYER
  5
3D
330
2
100
AcDbSymbolTableRecord
100
AcDbLayerTableRecord
  2
TEXT
 70
     0
 62
     1
  6
CONTINUOUS
370
    -3
390
F
  0
LAYER
  5
3E
330
2
100
AcDbSymbolTableRecord
100
AcDbLayerTableRecord
  2
TITLE
 70
     0
 62
     8
  6
CONTINUOUS
370
    -3
390
F
  0
LAYER
  5
3F
330
2
100
AcDbSymbolTableRecord
100
AcDbLayerTableRecord
  2
CENTER
 70
     0
 62
     3
  6
CENTER
370
    -3
390
F
  0
LAYER
  5
40
330
2
100
AcDbSymbolTableRecord
100
AcDbLayerTableRecord
  2
DEFPOINTS
 70
     0
 62
     7
  6
CONTINUOUS
290
     0
370
    -3
390
F
  0
ENDTAB
  0
TABLE
  2
STYLE
  5
3
330
0
100
AcDbSymbolTable
 70
     2
  0
STYLE
  5
11
330
3
100
AcDbSymbolTableRecord
100
AcDbTextStyleTableRecord
  2
STANDARD
 70
     0
 40
0.0
 41
0.75
 50
0.0
 71
     0
 42
0.3125
  3
TXT.shx
  4

  0
ENDTAB
  0
TABLE
  2
VIEW
  5
6
330
0
100
AcDbSymbolTable
 70
     0
  0
ENDTAB
  0
TABLE
  2
UCS
  5
7
330
0
100
AcDbSymbolTable
 70
     0
  0
ENDTAB
  0
TABLE
  2
APPID
  5
9
330
0
100
AcDbSymbolTable
 70
     1
  0
APPID
  5
12
330
9
100
AcDbSymbolTableRecord
100
AcDbRegAppTableRecord
  2
ACAD
 70
     0
  0
ENDTAB
  0
TABLE
  2
DIMSTYLE
  5
A
330
0
100
AcDbSymbolTable
 70
     2
100
AcDbDimStyleTable
 71
     2
340
38
340
37
  0
DIMSTYLE
105
37
102
{ACAD_REACTORS
330
1928
330
1927
330
1911
330
190C
330
190E
330
1906
330
18F2
330
18F4
330
18F5
330
1E65
330
1E77
330
2027
330
2247
330
2255
330
228D
330
18FD
330
229B
102
}
330
A
100
AcDbSymbolTableRecord
100
AcDbDimStyleTableRecord
  2
23NSTD
 70
     0
 40
2.5
 42
0.063
 44
0.093
140
0.125
271
     3
272
     3
289
     1
340
11
  0
DIMSTYLE
105
38
330
A
100
AcDbSymbolTableRecord
100
AcDbDimStyleTableRecord
  2
23NSTDI
 70
     0
 40
2.5
 42
0.063
 44
0.093
140
0.125
174
     1
271
     3
272
     3
340
11
  0
ENDTAB
  0
TABLE
  2
BLOCK_RECORD
  5
1
330
0
100
AcDbSymbolTable
 70
    15
  0
BLOCK_RECORD
  5
1E
330
1
100
AcDbSymbolTableRecord
100
AcDbBlockTableRecord
  2
*Model_Space
340
21
  0
BLOCK_RECORD
  5
1A
330
1
100
AcDbSymbolTableRecord
100
AcDbBlockTableRecord
  2
*Paper_Space
340
1D
  0
BLOCK_RECORD
  5
194C
330
1
100
AcDbSymbolTableRecord
100
AcDbBlockTableRecord
  2
*D0
340
0
  0
BLOCK_RECORD
  5
1959
330
1
100
AcDbSymbolTableRecord
100
AcDbBlockTableRecord
  2
*D1
340
0
  0
BLOCK_RECORD
  5
1965
330
1
100
AcDbSymbolTableRecord
100
AcDbBlockTableRecord
  2
*D2
340
0
  0
BLOCK_RECORD
  5
197E
330
1
100
AcDbSymbolTableRecord
100
AcDbBlockTableRecord
  2
*D3
340
0
  0
BLOCK_RECORD
  5
198B
330
1
100
AcDbSymbolTableRecord
100
AcDbBlockTableRecord
  2
*D4
340
0
  0
BLOCK_RECORD
  5
1998
330
1
100
AcDbSymbolTableRecord
100
AcDbBlockTableRecord
  2
*D5
340
0
  0
BLOCK_RECORD
  5
19A5
330
1
100
AcDbSymbolTableRecord
100
AcDbBlockTableRecord
  2
*D6
340
0
  0
BLOCK_RECORD
  5
19BF
330
1
100
AcDbSymbolTableRecord
100
AcDbBlockTableRecord
  2
*D7
340
0
  0
BLOCK_RECORD
  5
19CC
330
1
100
AcDbSymbolTableRecord
100
AcDbBlockTableRecord
  2
*D8
340
0
  0
BLOCK_RECORD
  5
1E66
330
1
100
AcDbSymbolTableRecord
100
AcDbBlockTableRecord
  2
*D9
340
0
  0
BLOCK_RECORD
  5
1E78
330
1
100
AcDbSymbolTableRecord
100
AcDbBlockTableRecord
  2
*D10
340
0
  0
BLOCK_RECORD
  5
2028
330
1
100
AcDbSymbolTableRecord
100
AcDbBlockTableRecord
  2
*D11
340
0
  0
BLOCK_RECORD
  5
2248
330
1
100
AcDbSymbolTableRecord
100
AcDbBlockTableRecord
  2
*D12
340
0
  0
BLOCK_RECORD
  5
2256
330
1
100
AcDbSymbolTableRecord
100
AcDbBlockTableRecord
  2
*D13
340
0
  0
BLOCK_RECORD
  5
228E
330
1
100
AcDbSymbolTableRecord
100
AcDbBlockTableRecord
  2
*D14
340
0
  0
ENDTAB
  0
ENDSEC
  0
SECTION
  2
BLOCKS
  0
BLOCK
  5
43
330
1E
100
AcDbEntity
  8
0
100
AcDbBlockBegin
  2
*Model_Space
 70
     0
 10
0.0
 20
0.0
 30
0.0
  3
*Model_Space
  1

  0
ENDBLK
  5
44
330
1E
100
AcDbEntity
  8
0
100
AcDbBlockEnd
  0
BLOCK
  5
41
330
1A
100
AcDbEntity
 67
     1
  8
0
100
AcDbBlockBegin
  2
*Paper_Space
 70
     0
 10
0.0
 20
0.0
 30
0.0
  3
*Paper_Space
  1

  0
ENDBLK
  5
42
330
1A
100
AcDbEntity
 67
     1
  8
0
100
AcDbBlockEnd
  0
BLOCK
  5
1957
330
194C
100
AcDbEntity
  8
0
100
AcDbBlockBegin
  2
*D0
 70
     1
 10
0.0
 20
0.0
 30
0.0
  3
*D0
  1

  0
LINE
  5
2322
330
194C
100
AcDbEntity
  8
DIM
 62
     0
370
    -2
100
AcDbLine
 10
4.062681431909023
 20
10.66846329180997
 30
0.0
 11
4.062681431909023
 21
9.403792934965204
 31
0.0
  0
LINE
  5
2323
330
194C
100
AcDbEntity
  8
DIM
 62
     0
370
    -2
100
AcDbLine
 10
6.437681431909023
 20
10.66846329180997
 30
0.0
 11
6.437681431909023
 21
9.403792934965204
 31
0.0
  0
LINE
  5
2324
330
194C
100
AcDbEntity
  8
DIM
 62
     0
370
    -2
100
AcDbLine
 10
4.512681431909023
 20
9.636292934965204
 30
0.0
 11
4.556764768734817
 21
9.636292934965204
 31
0.0
  0
LINE
  5
2325
330
194C
100
AcDbEntity
  8
DIM
 62
     0
370
    -2
100
AcDbLine
 10
5.987681431909023
 20
9.636292934965204
 30
0.0
 11
5.944264768734816
 21
9.636292934965204
 31
0.0
  0
SOLID
  5
2326
330
194C
100
AcDbEntity
  8
DIM
 62
     0
100
AcDbTrace
 10
4.512681431909023
 20
9.711292934965204
 30
0.0
 11
4.512681431909023
 21
9.561292934965205
 31
0.0
 12
4.062681431909023
 22
9.636292934965204
 32
0.0
 13
4.062681431909023
 23
9.636292934965204
 33
0.0
  0
SOLID
  5
2327
330
194C
100
AcDbEntity
  8
DIM
 62
     0
100
AcDbTrace
 10
5.987681431909023
 20
9.711292934965204
 30
0.0
 11
5.987681431909023
 21
9.561292934965205
 31
0.0
 12
6.437681431909023
 22
9.636292934965204
 32
0.0
 13
6.437681431909023
 23
9.636292934965204
 33
0.0
  0
MTEXT
  5
2328
330
194C
100
AcDbEntity
  8
DIM
 62
     0
100
AcDbMText
 10
5.250514768734817
 20
9.636292934965204
 30
0.0
 40
0.3125
 41
0.0
 71
     5
 72
     1
  1
\A1;2.375
 73
     1
 44
1.0
  0
POINT
  5
2329
330
194C
100
AcDbEntity
  8
DEFPOINTS
 62
     0
100
AcDbPoint
 10
4.062681431909023
 20
10.82596329180998
 30
0.0
  0
POINT
  5
232A
330
194C
100
AcDbEntity
  8
DEFPOINTS
 62
     0
100
AcDbPoint
 10
6.437681431909023
 20
10.82596329180998
 30
0.0
  0
POINT
  5
232B
330
194C
100
AcDbEntity
  8
DEFPOINTS
 62
     0
100
AcDbPoint
 10
6.437681431909023
 20
9.636292934965204
 30
0.0
  0
ENDBLK
  5
1958
330
194C
100
AcDbEntity
  8
0
100
AcDbBlockEnd
  0
BLOCK
  5
1963
330
1959
100
AcDbEntity
  8
0
100
AcDbBlockBegin
  2
*D1
 70
     1
 10
0.0
 20
0.0
 30
0.0
  3
*D1
  1

  0
LINE
  5
232C
330
1959
100
AcDbEntity
  8
DIM
 62
     0
370
    -2
100
AcDbLine
 10
6.125514768734817
 20
14.25679061003356
 30
0.0
 11
6.125514768734817
 21
15.35680269162079
 31
0.0
  0
LINE
  5
232D
330
1959
100
AcDbEntity
  8
DIM
 62
     0
370
    -2
100
AcDbLine
 10
4.375514768734817
 20
14.25679061003356
 30
0.0
 11
4.375514768734817
 21
15.35680269162079
 31
0.0
  0
LINE
  5
232E
330
1959
100
AcDbEntity
  8
DIM
 62
     0
370
    -2
100
AcDbLine
 10
6.575514768734817
 20
15.12430269162079
 30
0.0
 11
7.025514768734817
 21
15.12430269162079
 31
0.0
  0
LINE
  5
232F
330
1959
100
AcDbEntity
  8
DIM
 62
     0
370
    -2
100
AcDbLine
 10
3.925514768734816
 20
15.12430269162079
 30
0.0
 11
3.475514768734817
 21
15.12430269162079
 31
0.0
  0
SOLID
  5
2330
330
1959
100
AcDbEntity
  8
DIM
 62
     0
100
AcDbTrace
 10
6.575514768734817
 20
15.19930269162079
 30
0.0
 11
6.575514768734817
 21
15.0493026916208
 31
0.0
 12
6.125514768734817
 22
15.12430269162079
 32
0.0
 13
6.125514768734817
 23
15.12430269162079
 33
0.0
  0
SOLID
  5
2331
330
1959
100
AcDbEntity
  8
DIM
 62
     0
100
AcDbTrace
 10
3.925514768734816
 20
15.19930269162079
 30
0.0
 11
3.925514768734816
 21
15.0493026916208
 31
0.0
 12
4.375514768734817
 22
15.12430269162079
 32
0.0
 13
4.375514768734817
 23
15.12430269162079
 33
0.0
  0
MTEXT
  5
2332
330
1959
100
AcDbEntity
  8
DIM
 62
     0
100
AcDbMText
 10
5.250181431909023
 20
15.12430269162079
 30
0.0
 40
0.3125
 41
0.0
 71
     5
 72
     1
  1
\A1;1.750
 73
     1
 44
1.0
  0
POINT
  5
2333
330
1959
100
AcDbEntity
  8
DEFPOINTS
 62
     0
100
AcDbPoint
 10
6.125514768734817
 20
14.09929061003356
 30
0.0
  0
POINT
  5
2334
330
1959
100
AcDbEntity
  8
DEFPOINTS
 62
     0
100
AcDbPoint
 10
4.375514768734817
 20
14.09929061003356
 30
0.0
  0
POINT
  5
2335
330
1959
100
AcDbEntity
  8
DEFPOINTS
 62
     0
100
AcDbPoint
 10
4.375514768734817
 20
15.12430269162079
 30
0.0
  0
ENDBLK
  5
1964
330
1959
100
AcDbEntity
  8
0
100
AcDbBlockEnd
  0
BLOCK
  5
1970
330
1965
100
AcDbEntity
  8
0
100
AcDbBlockBegin
  2
*D2
 70
     1
 10
0.0
 20
0.0
 30
0.0
  3
*D2
  1

  0
LINE
  5
2336
330
1965
100
AcDbEntity
  8
DIM
 62
     0
370
    -2
100
AcDbLine
 10
3.687681431909023
 20
10.77121329180998
 30
0.0
 11
3.687681431909023
 21
8.634445778588224
 31
0.0
  0
LINE
  5
2337
330
1965
100
AcDbEntity
  8
DIM
 62
     0
370
    -2
100
AcDbLine
 10
6.812681431909023
 20
10.77121329180998
 30
0.0
 11
6.812681431909023
 21
8.634445778588224
 31
0.0
  0
LINE
  5
2338
330
1965
100
AcDbEntity
  8
DIM
 62
     0
370
    -2
100
AcDbLine
 10
4.137681431909023
 20
8.866945778588224
 30
0.0
 11
4.595827268734817
 21
8.866945778588224
 31
0.0
  0
LINE
  5
2339
330
1965
100
AcDbEntity
  8
DIM
 62
     0
370
    -2
100
AcDbLine
 10
6.362681431909023
 20
8.866945778588224
 30
0.0
 11
5.905202268734816
 21
8.866945778588224
 31
0.0
  0
SOLID
  5
233A
330
1965
100
AcDbEntity
  8
DIM
 62
     0
100
AcDbTrace
 10
4.137681431909023
 20
8.941945778588223
 30
0.0
 11
4.137681431909023
 21
8.791945778588225
 31
0.0
 12
3.687681431909023
 22
8.866945778588224
 32
0.0
 13
3.687681431909023
 23
8.866945778588224
 33
0.0
  0
SOLID
  5
233B
330
1965
100
AcDbEntity
  8
DIM
 62
     0
100
AcDbTrace
 10
6.362681431909023
 20
8.941945778588223
 30
0.0
 11
6.362681431909023
 21
8.791945778588225
 31
0.0
 12
6.812681431909023
 22
8.866945778588224
 32
0.0
 13
6.812681431909023
 23
8.866945778588224
 33
0.0
  0
MTEXT
  5
233C
330
1965
100
AcDbEntity
  8
DIM
 62
     0
100
AcDbMText
 10
5.250514768734817
 20
8.866945778588224
 30
0.0
 40
0.3125
 41
0.0
 71
     5
 72
     1
  1
\A1;3.125
 73
     1
 44
1.0
  0
POINT
  5
233D
330
1965
100
AcDbEntity
  8
DEFPOINTS
 62
     0
100
AcDbPoint
 10
3.687681431909023
 20
10.92871329180998
 30
0.0
  0
POINT
  5
233E
330
1965
100
AcDbEntity
  8
DEFPOINTS
 62
     0
100
AcDbPoint
 10
6.812681431909023
 20
10.92871329180998
 30
0.0
  0
POINT
  5
233F
330
1965
100
AcDbEntity
  8
DEFPOINTS
 62
     0
100
AcDbPoint
 10
6.812681431909023
 20
8.866945778588224
 30
0.0
  0
ENDBLK
  5
1971
330
1965
100
AcDbEntity
  8
0
100
AcDbBlockEnd
  0
BLOCK
  5
1989
330
197E
100
AcDbEntity
  8
0
100
AcDbBlockBegin
  2
*D3
 70
     1
 10
0.0
 20
0.0
 30
0.0
  3
*D3
  1

  0
LINE
  5
2318
330
197E
100
AcDbEntity
  8
DIM
 62
     0
370
    -2
100
AcDbLine
 10
7.997878582938761
 20
11.7914768835896
 30
0.0
 11
10.04076514944053
 21
11.7914768835896
 31
0.0
  0
LINE
  5
2319
330
197E
100
AcDbEntity
  8
DIM
 62
     0
370
    -2
100
AcDbLine
 10
7.997878582938761
 20
13.22844970003035
 30
0.0
 11
10.04076514944053
 21
13.22844970003035
 31
0.0
  0
LINE
  5
231A
330
197E
100
AcDbEntity
  8
DIM
 62
     0
370
    -2
100
AcDbLine
 10
9.808265149440531
 20
11.3414768835896
 30
0.0
 11
9.808265149440531
 21
10.8914768835896
 31
0.0
  0
LINE
  5
231B
330
197E
100
AcDbEntity
  8
DIM
 62
     0
370
    -2
100
AcDbLine
 10
9.808265149440533
 20
13.67844970003035
 30
0.0
 11
9.808265149440533
 21
14.12844970003035
 31
0.0
  0
SOLID
  5
231C
330
197E
100
AcDbEntity
  8
DIM
 62
     0
100
AcDbTrace
 10
9.733265149440532
 20
11.3414768835896
 30
0.0
 11
9.88326514944053
 21
11.3414768835896
 31
0.0
 12
9.808265149440531
 22
11.7914768835896
 32
0.0
 13
9.808265149440531
 23
11.7914768835896
 33
0.0
  0
SOLID
  5
231D
330
197E
100
AcDbEntity
  8
DIM
 62
     0
100
AcDbTrace
 10
9.733265149440534
 20
13.67844970003035
 30
0.0
 11
9.883265149440532
 21
13.67844970003035
 31
0.0
 12
9.808265149440533
 22
13.22844970003035
 32
0.0
 13
9.808265149440533
 23
13.22844970003035
 33
0.0
  0
MTEXT
  5
231E
330
197E
100
AcDbEntity
  8
DIM
 62
     0
100
AcDbMText
 10
9.808265149440529
 20
12.50996329180998
 30
0.0
 40
0.3125
 41
0.0
 71
     5
 72
     1
  1
\A1;1.437
 73
     1
 44
1.0
  0
POINT
  5
231F
330
197E
100
AcDbEntity
  8
DEFPOINTS
 62
     0
100
AcDbPoint
 10
7.840378582938761
 20
11.7914768835896
 30
0.0
  0
POINT
  5
2320
330
197E
100
AcDbEntity
  8
DEFPOINTS
 62
     0
100
AcDbPoint
 10
7.840378582938761
 20
13.22844970003035
 30
0.0
  0
POINT
  5
2321
330
197E
100
AcDbEntity
  8
DEFPOINTS
 62
     0
100
AcDbPoint
 10
9.808265149440533
 20
13.22844970003035
 30
0.0
  0
ENDBLK
  5
198A
330
197E
100
AcDbEntity
  8
0
100
AcDbBlockEnd
  0
BLOCK
  5
1996
330
198B
100
AcDbEntity
  8
0
100
AcDbBlockBegin
  2
*D4
 70
     1
 10
0.0
 20
0.0
 30
0.0
  3
*D4
  1

  0
LINE
  5
2304
330
198B
100
AcDbEntity
  8
DIM
 62
     0
370
    -2
100
AcDbLine
 10
3.815181431909023
 20
10.91596329180998
 30
0.0
 11
1.817656121484762
 21
10.91596329180998
 31
0.0
  0
LINE
  5
2305
330
198B
100
AcDbEntity
  8
DIM
 62
     0
370
    -2
100
AcDbLine
 10
3.815181431909023
 20
14.10396329180998
 30
0.0
 11
1.817656121484763
 21
14.10396329180998
 31
0.0
  0
LINE
  5
2306
330
198B
100
AcDbEntity
  8
DIM
 62
     0
370
    -2
100
AcDbLine
 10
2.050156121484763
 20
11.36596329180997
 30
0.0
 11
2.050156121484763
 21
12.19519718300872
 31
0.0
  0
LINE
  5
2307
330
198B
100
AcDbEntity
  8
DIM
 62
     0
370
    -2
100
AcDbLine
 10
2.050156121484763
 20
13.65396329180998
 30
0.0
 11
2.050156121484763
 21
12.95769718300872
 31
0.0
  0
SOLID
  5
2308
330
198B
100
AcDbEntity
  8
DIM
 62
     0
100
AcDbTrace
 10
1.975156121484762
 20
11.36596329180997
 30
0.0
 11
2.125156121484763
 21
11.36596329180997
 31
0.0
 12
2.050156121484762
 22
10.91596329180998
 32
0.0
 13
2.050156121484762
 23
10.91596329180998
 33
0.0
  0
SOLID
  5
2309
330
198B
100
AcDbEntity
  8
DIM
 62
     0
100
AcDbTrace
 10
1.975156121484763
 20
13.65396329180998
 30
0.0
 11
2.125156121484763
 21
13.65396329180998
 31
0.0
 12
2.050156121484763
 22
14.10396329180998
 32
0.0
 13
2.050156121484763
 23
14.10396329180998
 33
0.0
  0
MTEXT
  5
230A
330
198B
100
AcDbEntity
  8
DIM
 62
     0
100
AcDbMText
 10
2.050156121484761
 20
12.57644718300872
 30
0.0
 40
0.3125
 41
0.0
 71
     5
 72
     1
  1
\A1;3.188
 73
     1
 44
1.0
  0
POINT
  5
230B
330
198B
100
AcDbEntity
  8
DEFPOINTS
 62
     0
100
AcDbPoint
 10
3.972681431909023
 20
10.91596329180998
 30
0.0
  0
POINT
  5
230C
330
198B
100
AcDbEntity
  8
DEFPOINTS
 62
     0
100
AcDbPoint
 10
3.972681431909023
 20
14.10396329180998
 30
0.0
  0
POINT
  5
230D
330
198B
100
AcDbEntity
  8
DEFPOINTS
 62
     0
100
AcDbPoint
 10
2.050156121484763
 20
14.10396329180998
 30
0.0
  0
ENDBLK
  5
1997
330
198B
100
AcDbEntity
  8
0
100
AcDbBlockEnd
  0
BLOCK
  5
19A3
330
1998
100
AcDbEntity
  8
0
100
AcDbBlockBegin
  2
*D5
 70
     1
 10
0.0
 20
0.0
 30
0.0
  3
*D5
  1

  0
LINE
  5
230E
330
1998
100
AcDbEntity
  8
DIM
 62
     0
370
    -2
100
AcDbLine
 10
4.155014768734822
 20
11.00929061003356
 30
0.0
 11
2.569329439700316
 21
11.00929061003356
 31
0.0
  0
LINE
  5
230F
330
1998
100
AcDbEntity
  8
DIM
 62
     0
370
    -2
100
AcDbLine
 10
4.155014768734822
 20
14.00929061003356
 30
0.0
 11
2.569329439700317
 21
14.00929061003356
 31
0.0
  0
LINE
  5
2310
330
1998
100
AcDbEntity
  8
DIM
 62
     0
370
    -2
100
AcDbLine
 10
2.801829439700316
 20
11.45929061003356
 30
0.0
 11
2.801829439700316
 21
12.77031426250199
 31
0.0
  0
LINE
  5
2311
330
1998
100
AcDbEntity
  8
DIM
 62
     0
370
    -2
100
AcDbLine
 10
2.801829439700317
 20
13.55929061003356
 30
0.0
 11
2.801829439700317
 21
13.53281426250199
 31
0.0
  0
SOLID
  5
2312
330
1998
100
AcDbEntity
  8
DIM
 62
     0
100
AcDbTrace
 10
2.726829439700316
 20
11.45929061003356
 30
0.0
 11
2.876829439700316
 21
11.45929061003356
 31
0.0
 12
2.801829439700316
 22
11.00929061003356
 32
0.0
 13
2.801829439700316
 23
11.00929061003356
 33
0.0
  0
SOLID
  5
2313
330
1998
100
AcDbEntity
  8
DIM
 62
     0
100
AcDbTrace
 10
2.726829439700316
 20
13.55929061003356
 30
0.0
 11
2.876829439700317
 21
13.55929061003356
 31
0.0
 12
2.801829439700317
 22
14.00929061003356
 32
0.0
 13
2.801829439700317
 23
14.00929061003356
 33
0.0
  0
MTEXT
  5
2314
330
1998
100
AcDbEntity
  8
DIM
 62
     0
100
AcDbMText
 10
2.801829439700314
 20
13.15156426250199
 30
0.0
 40
0.3125
 41
0.0
 71
     5
 72
     1
  1
\A1;3.000
 73
     1
 44
1.0
  0
POINT
  5
2315
330
1998
100
AcDbEntity
  8
DEFPOINTS
 62
     0
100
AcDbPoint
 10
4.312514768734821
 20
11.00929061003356
 30
0.0
  0
POINT
  5
2316
330
1998
100
AcDbEntity
  8
DEFPOINTS
 62
     0
100
AcDbPoint
 10
4.312514768734821
 20
14.00929061003356
 30
0.0
  0
POINT
  5
2317
330
1998
100
AcDbEntity
  8
DEFPOINTS
 62
     0
100
AcDbPoint
 10
2.801829439700317
 20
14.00929061003356
 30
0.0
  0
ENDBLK
  5
19A4
330
1998
100
AcDbEntity
  8
0
100
AcDbBlockEnd
  0
BLOCK
  5
19B0
330
19A5
100
AcDbEntity
  8
0
100
AcDbBlockBegin
  2
*D6
 70
     1
 10
0.0
 20
0.0
 30
0.0
  3
*D6
  1

  0
LINE
  5
22FA
330
19A5
100
AcDbEntity
  8
DIM
 62
     0
370
    -2
100
AcDbLine
 10
3.855181431909022
 20
10.60371329180998
 30
0.0
 11
0.9930057057864761
 21
10.60371329180998
 31
0.0
  0
LINE
  5
22FB
330
19A5
100
AcDbEntity
  8
DIM
 62
     0
370
    -2
100
AcDbLine
 10
3.855181431909022
 20
14.41621329180998
 30
0.0
 11
0.993005705786477
 21
14.41621329180998
 31
0.0
  0
LINE
  5
22FC
330
19A5
100
AcDbEntity
  8
DIM
 62
     0
370
    -2
100
AcDbLine
 10
1.225505705786476
 20
11.05371329180998
 30
0.0
 11
1.225505705786476
 21
11.45692213697445
 31
0.0
  0
LINE
  5
22FD
330
19A5
100
AcDbEntity
  8
DIM
 62
     0
370
    -2
100
AcDbLine
 10
1.225505705786477
 20
13.96621329180998
 30
0.0
 11
1.225505705786476
 21
12.21942213697444
 31
0.0
  0
SOLID
  5
22FE
330
19A5
100
AcDbEntity
  8
DIM
 62
     0
100
AcDbTrace
 10
1.150505705786476
 20
11.05371329180998
 30
0.0
 11
1.300505705786476
 21
11.05371329180998
 31
0.0
 12
1.225505705786476
 22
10.60371329180998
 32
0.0
 13
1.225505705786476
 23
10.60371329180998
 33
0.0
  0
SOLID
  5
22FF
330
19A5
100
AcDbEntity
  8
DIM
 62
     0
100
AcDbTrace
 10
1.150505705786477
 20
13.96621329180998
 30
0.0
 11
1.300505705786477
 21
13.96621329180998
 31
0.0
 12
1.225505705786477
 22
14.41621329180998
 32
0.0
 13
1.225505705786477
 23
14.41621329180998
 33
0.0
  0
MTEXT
  5
2300
330
19A5
100
AcDbEntity
  8
DIM
 62
     0
100
AcDbMText
 10
1.225505705786474
 20
11.83817213697444
 30
0.0
 40
0.3125
 41
0.0
 71
     5
 72
     1
  1
\A1;3.813
 73
     1
 44
1.0
  0
POINT
  5
2301
330
19A5
100
AcDbEntity
  8
DEFPOINTS
 62
     0
100
AcDbPoint
 10
4.012681431909022
 20
10.60371329180998
 30
0.0
  0
POINT
  5
2302
330
19A5
100
AcDbEntity
  8
DEFPOINTS
 62
     0
100
AcDbPoint
 10
4.012681431909022
 20
14.41621329180998
 30
0.0
  0
POINT
  5
2303
330
19A5
100
AcDbEntity
  8
DEFPOINTS
 62
     0
100
AcDbPoint
 10
1.225505705786477
 20
14.41621329180998
 30
0.0
  0
ENDBLK
  5
19B1
330
19A5
100
AcDbEntity
  8
0
100
AcDbBlockEnd
  0
BLOCK
  5
19CA
330
19BF
100
AcDbEntity
  8
0
100
AcDbBlockBegin
  2
*D7
 70
     1
 10
0.0
 20
0.0
 30
0.0
  3
*D7
  1

  0
LINE
  5
22F0
330
19BF
100
AcDbEntity
  8
DIM
 62
     0
370
    -2
100
AcDbLine
 10
6.688181431909029
 20
4.225419523816287
 30
0.0
 11
6.688181431909029
 21
2.264508211737893
 31
0.0
  0
LINE
  5
22F1
330
19BF
100
AcDbEntity
  8
DIM
 62
     0
370
    -2
100
AcDbLine
 10
5.250181431909023
 20
4.450419523816286
 30
0.0
 11
5.250181431909023
 21
2.264508211737893
 31
0.0
  0
LINE
  5
22F2
330
19BF
100
AcDbEntity
  8
DIM
 62
     0
370
    -2
100
AcDbLine
 10
7.138181431909029
 20
2.497008211737893
 30
0.0
 11
7.588181431909029
 21
2.497008211737893
 31
0.0
  0
LINE
  5
22F3
330
19BF
100
AcDbEntity
  8
DIM
 62
     0
370
    -2
100
AcDbLine
 10
4.800181431909023
 20
2.497008211737893
 30
0.0
 11
4.350181431909023
 21
2.497008211737893
 31
0.0
  0
SOLID
  5
22F4
330
19BF
100
AcDbEntity
  8
DIM
 62
     0
100
AcDbTrace
 10
7.138181431909029
 20
2.572008211737893
 30
0.0
 11
7.138181431909029
 21
2.422008211737893
 31
0.0
 12
6.688181431909029
 22
2.497008211737893
 32
0.0
 13
6.688181431909029
 23
2.497008211737893
 33
0.0
  0
SOLID
  5
22F5
330
19BF
100
AcDbEntity
  8
DIM
 62
     0
100
AcDbTrace
 10
4.800181431909023
 20
2.572008211737893
 30
0.0
 11
4.800181431909023
 21
2.422008211737893
 31
0.0
 12
5.250181431909023
 22
2.497008211737893
 32
0.0
 13
5.250181431909023
 23
2.497008211737893
 33
0.0
  0
MTEXT
  5
22F6
330
19BF
100
AcDbEntity
  8
DIM
 62
     0
100
AcDbMText
 10
5.981311251890588
 20
2.497008211737893
 30
0.0
 40
0.3125
 41
0.0
 71
     5
 72
     1
  1
\A1;1.438
 73
     1
 44
1.0
  0
POINT
  5
22F7
330
19BF
100
AcDbEntity
  8
DEFPOINTS
 62
     0
100
AcDbPoint
 10
6.688181431909029
 20
4.382919523816287
 30
0.0
  0
POINT
  5
22F8
330
19BF
100
AcDbEntity
  8
DEFPOINTS
 62
     0
100
AcDbPoint
 10
5.250181431909023
 20
4.607919523816286
 30
0.0
  0
POINT
  5
22F9
330
19BF
100
AcDbEntity
  8
DEFPOINTS
 62
     0
100
AcDbPoint
 10
5.250181431909023
 20
2.497008211737893
 30
0.0
  0
ENDBLK
  5
19CB
330
19BF
100
AcDbEntity
  8
0
100
AcDbBlockEnd
  0
BLOCK
  5
19D7
330
19CC
100
AcDbEntity
  8
0
100
AcDbBlockBegin
  2
*D8
 70
     1
 10
0.0
 20
0.0
 30
0.0
  3
*D8
  1

  0
LINE
  5
22E6
330
19CC
100
AcDbEntity
  8
DIM
 62
     0
370
    -2
100
AcDbLine
 10
3.530181431909023
 20
6.857552117112159
 30
0.0
 11
2.734146212317443
 21
6.857552117112159
 31
0.0
  0
LINE
  5
22E7
330
19CC
100
AcDbEntity
  8
DIM
 62
     0
370
    -2
100
AcDbLine
 10
6.530681431909026
 20
3.357919523816287
 30
0.0
 11
2.734146212317443
 21
3.357919523816288
 31
0.0
  0
LINE
  5
22E8
330
19CC
100
AcDbEntity
  8
DIM
 62
     0
370
    -2
100
AcDbLine
 10
2.966646212317443
 20
6.407552117112158
 30
0.0
 11
2.966646212317443
 21
5.488985820464221
 31
0.0
  0
LINE
  5
22E9
330
19CC
100
AcDbEntity
  8
DIM
 62
     0
370
    -2
100
AcDbLine
 10
2.966646212317442
 20
3.807919523816288
 30
0.0
 11
2.966646212317442
 21
4.726485820464222
 31
0.0
  0
SOLID
  5
22EA
330
19CC
100
AcDbEntity
  8
DIM
 62
     0
100
AcDbTrace
 10
2.891646212317443
 20
6.407552117112158
 30
0.0
 11
3.041646212317443
 21
6.407552117112158
 31
0.0
 12
2.966646212317443
 22
6.857552117112159
 32
0.0
 13
2.966646212317443
 23
6.857552117112159
 33
0.0
  0
SOLID
  5
22EB
330
19CC
100
AcDbEntity
  8
DIM
 62
     0
100
AcDbTrace
 10
2.891646212317442
 20
3.807919523816288
 30
0.0
 11
3.041646212317443
 21
3.807919523816288
 31
0.0
 12
2.966646212317442
 22
3.357919523816288
 32
0.0
 13
2.966646212317442
 23
3.357919523816288
 33
0.0
  0
MTEXT
  5
22EC
330
19CC
100
AcDbEntity
  8
DIM
 62
     0
100
AcDbMText
 10
2.966646212317442
 20
5.107735820464222
 30
0.0
 40
0.3125
 41
0.0
 71
     5
 72
     1
  1
\A1;3.500
 73
     1
 44
1.0
  0
POINT
  5
22ED
330
19CC
100
AcDbEntity
  8
DEFPOINTS
 62
     0
100
AcDbPoint
 10
3.687681431909023
 20
6.857552117112159
 30
0.0
  0
POINT
  5
22EE
330
19CC
100
AcDbEntity
  8
DEFPOINTS
 62
     0
100
AcDbPoint
 10
6.688181431909026
 20
3.357919523816287
 30
0.0
  0
POINT
  5
22EF
330
19CC
100
AcDbEntity
  8
DEFPOINTS
 62
     0
100
AcDbPoint
 10
2.966646212317442
 20
3.357919523816288
 30
0.0
  0
ENDBLK
  5
19D8
330
19CC
100
AcDbEntity
  8
0
100
AcDbBlockEnd
  0
BLOCK
  5
1E6D
330
1E66
100
AcDbEntity
  8
0
100
AcDbBlockBegin
  2
*D9
 70
     1
 10
0.0
 20
0.0
 30
0.0
  3
*D9
  1

  0
LINE
  5
2340
330
1E66
100
AcDbEntity
  8
DIM
 62
     0
370
    -2
100
AcDbLine
 10
8.142236766755521
 20
5.48867095481397
 30
0.0
 11
8.788292149870795
 21
5.880000080704908
 31
0.0
  0
LINE
  5
2341
330
1E66
100
AcDbEntity
  8
DIM
 62
     0
370
    -2
100
AcDbLine
 10
8.788292149870795
 20
5.880000080704908
 30
0.0
 11
9.238292149870797
 21
5.880000080704908
 31
0.0
  0
SOLID
  5
2342
330
1E66
100
AcDbEntity
  8
DIM
 62
     0
100
AcDbTrace
 10
8.103380085976212
 20
5.552820454880727
 30
0.0
 11
8.181093447534831
 21
5.424521454747213
 31
0.0
 12
7.757339766354982
 22
5.255530870138113
 32
0.0
 13
7.757339766354982
 23
5.255530870138113
 33
0.0
  0
MTEXT
  5
2343
330
1E66
100
AcDbEntity
  8
DIM
 62
     0
100
AcDbMText
 10
10.01016714987079
 20
5.880000080704907
 30
0.0
 40
0.3125
 41
0.0
 71
     5
 72
     1
  1
\A1;\U+22052.500
 73
     1
 44
1.0
  0
LINE
  5
2344
330
1E66
100
AcDbEntity
  8
DIM
 62
     0
370
    -2
100
AcDbLine
 10
6.463181431909029
 20
4.607919523816287
 30
0.0
 11
6.913181431909031
 21
4.607919523816288
 31
0.0
  0
LINE
  5
2345
330
1E66
100
AcDbEntity
  8
DIM
 62
     0
370
    -2
100
AcDbLine
 10
6.68818143190903
 20
4.382919523816289
 30
0.0
 11
6.688181431909031
 21
4.832919523816288
 31
0.0
  0
POINT
  5
2346
330
1E66
100
AcDbEntity
  8
DEFPOINTS
 62
     0
100
AcDbPoint
 10
7.757339766354982
 20
5.255530870138113
 30
0.0
  0
POINT
  5
2347
330
1E66
100
AcDbEntity
  8
DEFPOINTS
 62
     0
100
AcDbPoint
 10
5.619023097463081
 20
3.960308177494463
 30
0.0
  0
ENDBLK
  5
1E6E
330
1E66
100
AcDbEntity
  8
0
100
AcDbBlockEnd
  0
BLOCK
  5
1E82
330
1E78
100
AcDbEntity
  8
0
100
AcDbBlockBegin
  2
*D10
 70
     1
 10
0.0
 20
0.0
 30
0.0
  3
*D10
  1

  0
LINE
  5
2348
330
1E78
100
AcDbEntity
  8
DIM
 62
     0
370
    -2
100
AcDbLine
 10
5.250181431909012
 20
7.672552117112155
 30
0.0
 11
5.250181431909012
 21
7.747552117112155
 31
0.0
  0
LINE
  5
2349
330
1E78
100
AcDbEntity
  8
DIM
 62
     0
370
    -2
100
AcDbLine
 10
3.687681431909023
 20
7.015052117112158
 30
0.0
 11
3.687681431909023
 21
7.747552117112155
 31
0.0
  0
LINE
  5
234A
330
1E78
100
AcDbEntity
  8
DIM
 62
     0
370
    -2
100
AcDbLine
 10
5.700181431909013
 20
7.515052117112155
 30
0.0
 11
6.150181431909013
 21
7.515052117112155
 31
0.0
  0
LINE
  5
234B
330
1E78
100
AcDbEntity
  8
DIM
 62
     0
370
    -2
100
AcDbLine
 10
3.237681431909023
 20
7.515052117112155
 30
0.0
 11
2.787681431909023
 21
7.515052117112155
 31
0.0
  0
SOLID
  5
234C
330
1E78
100
AcDbEntity
  8
DIM
 62
     0
100
AcDbTrace
 10
5.700181431909013
 20
7.590052117112155
 30
0.0
 11
5.700181431909013
 21
7.440052117112155
 31
0.0
 12
5.250181431909012
 22
7.515052117112155
 32
0.0
 13
5.250181431909012
 23
7.515052117112155
 33
0.0
  0
SOLID
  5
234D
330
1E78
100
AcDbEntity
  8
DIM
 62
     0
100
AcDbTrace
 10
3.237681431909023
 20
7.590052117112155
 30
0.0
 11
3.237681431909023
 21
7.440052117112155
 31
0.0
 12
3.687681431909023
 22
7.515052117112155
 32
0.0
 13
3.687681431909023
 23
7.515052117112155
 33
0.0
  0
MTEXT
  5
234E
330
1E78
100
AcDbEntity
  8
DIM
 62
     0
100
AcDbMText
 10
4.468931431909018
 20
7.515052117112155
 30
0.0
 40
0.3125
 41
0.0
 71
     5
 72
     1
  1
\A1;1.563
 73
     1
 44
1.0
  0
POINT
  5
234F
330
1E78
100
AcDbEntity
  8
DEFPOINTS
 62
     0
100
AcDbPoint
 10
5.250181431909012
 20
7.515052117112155
 30
0.0
  0
POINT
  5
2350
330
1E78
100
AcDbEntity
  8
DEFPOINTS
 62
     0
100
AcDbPoint
 10
3.687681431909023
 20
6.857552117112158
 30
0.0
  0
POINT
  5
2351
330
1E78
100
AcDbEntity
  8
DEFPOINTS
 62
     0
100
AcDbPoint
 10
3.687681431909023
 20
7.515052117112155
 30
0.0
  0
ENDBLK
  5
1E83
330
1E78
100
AcDbEntity
  8
0
100
AcDbBlockEnd
  0
BLOCK
  5
2032
330
2028
100
AcDbEntity
  8
0
100
AcDbBlockBegin
  2
*D11
 70
     1
 10
0.0
 20
0.0
 30
0.0
  3
*D11
  1

  0
LINE
  5
2352
330
2028
100
AcDbEntity
  8
DIM
 62
     0
370
    -2
100
AcDbLine
 10
10.3801481767988
 20
7.015052117112155
 30
0.0
 11
10.3801481767988
 21
7.747552117112155
 31
0.0
  0
LINE
  5
2353
330
2028
100
AcDbEntity
  8
DIM
 62
     0
370
    -2
100
AcDbLine
 10
12.2863981767988
 20
7.515052117112151
 30
0.0
 11
12.2863981767988
 21
7.747552117112155
 31
0.0
  0
LINE
  5
2354
330
2028
100
AcDbEntity
  8
DIM
 62
     0
370
    -2
100
AcDbLine
 10
9.930148176798805
 20
7.515052117112155
 30
0.0
 11
9.480148176798804
 21
7.515052117112155
 31
0.0
  0
LINE
  5
2355
330
2028
100
AcDbEntity
  8
DIM
 62
     0
370
    -2
100
AcDbLine
 10
12.7363981767988
 20
7.515052117112155
 30
0.0
 11
13.18639817679881
 21
7.515052117112155
 31
0.0
  0
SOLID
  5
2356
330
2028
100
AcDbEntity
  8
DIM
 62
     0
100
AcDbTrace
 10
9.930148176798805
 20
7.590052117112155
 30
0.0
 11
9.930148176798805
 21
7.440052117112155
 31
0.0
 12
10.3801481767988
 22
7.515052117112155
 32
0.0
 13
10.3801481767988
 23
7.515052117112155
 33
0.0
  0
SOLID
  5
2357
330
2028
100
AcDbEntity
  8
DIM
 62
     0
100
AcDbTrace
 10
12.7363981767988
 20
7.590052117112155
 30
0.0
 11
12.7363981767988
 21
7.440052117112155
 31
0.0
 12
12.2863981767988
 22
7.515052117112155
 32
0.0
 13
12.2863981767988
 23
7.515052117112155
 33
0.0
  0
MTEXT
  5
2358
330
2028
100
AcDbEntity
  8
DIM
 62
     0
100
AcDbMText
 10
11.3332731767988
 20
7.515052117112155
 30
0.0
 40
0.3125
 41
0.0
 71
     5
 72
     1
  1
\A1;1.906
 73
     1
 44
1.0
  0
POINT
  5
2359
330
2028
100
AcDbEntity
  8
DEFPOINTS
 62
     0
100
AcDbPoint
 10
10.3801481767988
 20
6.857552117112155
 30
0.0
  0
POINT
  5
235A
330
2028
100
AcDbEntity
  8
DEFPOINTS
 62
     0
100
AcDbPoint
 10
12.2863981767988
 20
7.357552117112152
 30
0.0
  0
POINT
  5
235B
330
2028
100
AcDbEntity
  8
DEFPOINTS
 62
     0
100
AcDbPoint
 10
12.2863981767988
 20
7.515052117112155
 30
0.0
  0
ENDBLK
  5
2033
330
2028
100
AcDbEntity
  8
0
100
AcDbBlockEnd
  0
BLOCK
  5
2253
330
2248
100
AcDbEntity
  8
0
100
AcDbBlockBegin
  2
*D12
 70
     1
 10
0.0
 20
0.0
 30
0.0
  3
*D12
  1

  0
LINE
  5
235C
330
2248
100
AcDbEntity
  8
DIM
 62
     0
370
    -2
100
AcDbLine
 10
18.82690349370658
 20
8.579477146401149
 30
0.0
 11
18.82690349370658
 21
9.216447355853452
 31
0.0
  0
LINE
  5
235D
330
2248
100
AcDbEntity
  8
DIM
 62
     0
370
    -2
100
AcDbLine
 10
22.82690349370658
 20
8.579477146401147
 30
0.0
 11
22.82690349370658
 21
9.216447355853452
 31
0.0
  0
LINE
  5
235E
330
2248
100
AcDbEntity
  8
DIM
 62
     0
370
    -2
100
AcDbLine
 10
19.27690349370658
 20
8.983947355853452
 30
0.0
 11
20.19174724370658
 21
8.983947355853452
 31
0.0
  0
LINE
  5
235F
330
2248
100
AcDbEntity
  8
DIM
 62
     0
370
    -2
100
AcDbLine
 10
22.37690349370658
 20
8.983947355853452
 30
0.0
 11
21.46205974370658
 21
8.983947355853452
 31
0.0
  0
SOLID
  5
2360
330
2248
100
AcDbEntity
  8
DIM
 62
     0
100
AcDbTrace
 10
19.27690349370658
 20
9.058947355853451
 30
0.0
 11
19.27690349370658
 21
8.908947355853452
 31
0.0
 12
18.82690349370658
 22
8.983947355853452
 32
0.0
 13
18.82690349370658
 23
8.983947355853452
 33
0.0
  0
SOLID
  5
2361
330
2248
100
AcDbEntity
  8
DIM
 62
     0
100
AcDbTrace
 10
22.37690349370658
 20
9.058947355853451
 30
0.0
 11
22.37690349370658
 21
8.908947355853452
 31
0.0
 12
22.82690349370658
 22
8.983947355853452
 32
0.0
 13
22.82690349370658
 23
8.983947355853452
 33
0.0
  0
MTEXT
  5
2362
330
2248
100
AcDbEntity
  8
DIM
 62
     0
100
AcDbMText
 10
20.82690349370658
 20
8.983947355853452
 30
0.0
 40
0.3125
 41
0.0
 71
     5
 72
     1
  1
\A1;4.000
 73
     1
 44
1.0
  0
POINT
  5
2363
330
2248
100
AcDbEntity
  8
DEFPOINTS
 62
     0
100
AcDbPoint
 10
18.82690349370658
 20
8.421977146401149
 30
0.0
  0
POINT
  5
2364
330
2248
100
AcDbEntity
  8
DEFPOINTS
 62
     0
100
AcDbPoint
 10
22.82690349370658
 20
8.421977146401147
 30
0.0
  0
POINT
  5
2365
330
2248
100
AcDbEntity
  8
DEFPOINTS
 62
     0
100
AcDbPoint
 10
22.82690349370658
 20
8.983947355853452
 30
0.0
  0
ENDBLK
  5
2254
330
2248
100
AcDbEntity
  8
0
100
AcDbBlockEnd
  0
BLOCK
  5
2260
330
2256
100
AcDbEntity
  8
0
100
AcDbBlockBegin
  2
*D13
 70
     1
 10
0.0
 20
0.0
 30
0.0
  3
*D13
  1

  0
LINE
  5
2366
330
2256
100
AcDbEntity
  8
DIM
 62
     0
370
    -2
100
AcDbLine
 10
22.98440349370657
 20
8.421977146401149
 30
0.0
 11
23.6970171120651
 21
8.421977146401149
 31
0.0
  0
LINE
  5
2367
330
2256
100
AcDbEntity
  8
DIM
 62
     0
370
    -2
100
AcDbLine
 10
22.98440349370657
 20
6.859977146401149
 30
0.0
 11
23.69701711206509
 21
6.859977146401149
 31
0.0
  0
LINE
  5
2368
330
2256
100
AcDbEntity
  8
DIM
 62
     0
370
    -2
100
AcDbLine
 10
23.4645171120651
 20
8.871977146401148
 30
0.0
 11
23.4645171120651
 21
9.321977146401149
 31
0.0
  0
LINE
  5
2369
330
2256
100
AcDbEntity
  8
DIM
 62
     0
370
    -2
100
AcDbLine
 10
23.46451711206509
 20
6.409977146401149
 30
0.0
 11
23.46451711206509
 21
5.959977146401149
 31
0.0
  0
SOLID
  5
236A
330
2256
100
AcDbEntity
  8
DIM
 62
     0
100
AcDbTrace
 10
23.38951711206509
 20
8.871977146401148
 30
0.0
 11
23.5395171120651
 21
8.871977146401148
 31
0.0
 12
23.4645171120651
 22
8.421977146401149
 32
0.0
 13
23.4645171120651
 23
8.421977146401149
 33
0.0
  0
SOLID
  5
236B
330
2256
100
AcDbEntity
  8
DIM
 62
     0
100
AcDbTrace
 10
23.38951711206509
 20
6.409977146401149
 30
0.0
 11
23.53951711206509
 21
6.409977146401149
 31
0.0
 12
23.46451711206509
 22
6.859977146401149
 32
0.0
 13
23.46451711206509
 23
6.859977146401149
 33
0.0
  0
MTEXT
  5
236C
330
2256
100
AcDbEntity
  8
DIM
 62
     0
100
AcDbMText
 10
23.46451711206509
 20
7.640977146401152
 30
0.0
 40
0.3125
 41
0.0
 71
     5
 72
     1
  1
\A1;1.562
 73
     1
 44
1.0
  0
POINT
  5
236D
330
2256
100
AcDbEntity
  8
DEFPOINTS
 62
     0
100
AcDbPoint
 10
22.82690349370658
 20
8.421977146401149
 30
0.0
  0
POINT
  5
236E
330
2256
100
AcDbEntity
  8
DEFPOINTS
 62
     0
100
AcDbPoint
 10
22.82690349370658
 20
6.859977146401149
 30
0.0
  0
POINT
  5
236F
330
2256
100
AcDbEntity
  8
DEFPOINTS
 62
     0
100
AcDbPoint
 10
23.46451711206509
 20
6.859977146401149
 30
0.0
  0
ENDBLK
  5
2261
330
2256
100
AcDbEntity
  8
0
100
AcDbBlockEnd
  0
BLOCK
  5
2299
330
228E
100
AcDbEntity
  8
0
100
AcDbBlockBegin
  2
*D14
 70
     1
 10
0.0
 20
0.0
 30
0.0
  3
*D14
  1

  0
LINE
  5
2370
330
228E
100
AcDbEntity
  8
DIM
 62
     0
370
    -2
100
AcDbLine
 10
18.66940349370658
 20
8.421977146401147
 30
0.0
 11
17.78109896571122
 21
8.421977146401147
 31
0.0
  0
LINE
  5
2371
330
228E
100
AcDbEntity
  8
DIM
 62
     0
370
    -2
100
AcDbLine
 10
20.65745793947467
 20
3.357919536676102
 30
0.0
 11
17.78109896571122
 21
3.357919536676102
 31
0.0
  0
LINE
  5
2372
330
228E
100
AcDbEntity
  8
DIM
 62
     0
370
    -2
100
AcDbLine
 10
18.01359896571122
 20
7.971977146401146
 30
0.0
 11
18.01359896571122
 21
6.271198341538624
 31
0.0
  0
LINE
  5
2373
330
228E
100
AcDbEntity
  8
DIM
 62
     0
370
    -2
100
AcDbLine
 10
18.01359896571122
 20
3.807919536676102
 30
0.0
 11
18.01359896571122
 21
5.508698341538624
 31
0.0
  0
SOLID
  5
2374
330
228E
100
AcDbEntity
  8
DIM
 62
     0
100
AcDbTrace
 10
17.93859896571122
 20
7.971977146401147
 30
0.0
 11
18.08859896571122
 21
7.971977146401146
 31
0.0
 12
18.01359896571122
 22
8.421977146401147
 32
0.0
 13
18.01359896571122
 23
8.421977146401147
 33
0.0
  0
SOLID
  5
2375
330
228E
100
AcDbEntity
  8
DIM
 62
     0
100
AcDbTrace
 10
17.93859896571122
 20
3.807919536676102
 30
0.0
 11
18.08859896571122
 21
3.807919536676102
 31
0.0
 12
18.01359896571122
 22
3.357919536676102
 32
0.0
 13
18.01359896571122
 23
3.357919536676102
 33
0.0
  0
MTEXT
  5
2376
330
228E
100
AcDbEntity
  8
DIM
 62
     0
100
AcDbMText
 10
18.01359896571122
 20
5.889948341538628
 30
0.0
 40
0.3125
 41
0.0
 71
     5
 72
     1
  1
\A1;5.064
 73
     1
 44
1.0
  0
POINT
  5
2377
330
228E
100
AcDbEntity
  8
DEFPOINTS
 62
     0
100
AcDbPoint
 10
18.82690349370658
 20
8.421977146401147
 30
0.0
  0
POINT
  5
2378
330
228E
100
AcDbEntity
  8
DEFPOINTS
 62
     0
100
AcDbPoint
 10
20.81495793947467
 20
3.357919536676102
 30
0.0
  0
POINT
  5
2379
330
228E
100
AcDbEntity
  8
DEFPOINTS
 62
     0
100
AcDbPoint
 10
18.01359896571122
 20
3.357919536676102
 30
0.0
  0
ENDBLK
  5
229A
330
228E
100
AcDbEntity
  8
0
100
AcDbBlockEnd
  0
ENDSEC
  0
SECTION
  2
ENTITIES
  0
LINE
  5
2F9
330
1E
100
AcDbEntity
  8
TITLE
100
AcDbLine
 10
24.99
 20
-0.0000000000000044
 30
0.0
 11
0.0
 21
0.0
 31
0.0
  0
LINE
  5
2FC
330
1E
100
AcDbEntity
  8
TITLE
100
AcDbLine
 10
0.0
 20
0.0
 30
0.0
 11
0.0000000000000044
 21
19.143
 31
0.0
  0
LINE
  5
302
330
1E
100
AcDbEntity
  8
TITLE
100
AcDbLine
 10
0.0000000000000071
 20
19.143
 30
0.0
 11
24.99
 21
19.143
 31
0.0
  0
LINE
  5
303
330
1E
100
AcDbEntity
  8
TITLE
100
AcDbLine
 10
0.0000000000000071
 20
18.098
 30
0.0
 11
24.99
 21
18.098
 31
0.0
  0
LINE
  5
304
330
1E
100
AcDbEntity
  8
TITLE
100
AcDbLine
 10
1.875000000000014
 20
18.098
 30
0.0
 11
1.875000000000007
 21
19.143
 31
0.0
  0
LINE
  5
305
330
1E
100
AcDbEntity
  8
TITLE
100
AcDbLine
 10
12.495
 20
19.143
 30
0.0
 11
12.495
 21
18.098
 31
0.0
  0
LINE
  5
306
330
1E
100
AcDbEntity
  8
TITLE
100
AcDbLine
 10
12.65000000000001
 20
19.143
 30
0.0
 11
12.65000000000001
 21
18.098
 31
0.0
  0
LINE
  5
307
330
1E
100
AcDbEntity
  8
TITLE
100
AcDbLine
 10
14.52500000000001
 20
19.143
 30
0.0
 11
14.52500000000001
 21
18.098
 31
0.0
  0
TEXT
  5
308
330
1E
100
AcDbEntity
  8
TEXT
100
AcDbText
 10
13.01458333333333
 20
18.71903132243353
 30
0.0
 40
0.3125
  1
PART
 72
     1
 11
13.5875
 21
18.71903132243353
 31
0.0
100
AcDbText
  0
TEXT
  5
309
330
1E
100
AcDbEntity
  8
TEXT
100
AcDbText
 10
13.275
 20
18.1981979891002
 30
0.0
 40
0.3125
  1
No.
 72
     1
 11
13.5875
 21
18.1981979891002
 31
0.0
100
AcDbText
  0
TEXT
  5
30A
330
1E
100
AcDbEntity
  8
TEXT
100
AcDbText
 10
0.3645833333333467
 20
18.71903132243353
 30
0.0
 40
0.3125
  1
PART
 72
     1
 11
0.9375000000000133
 21
18.71903132243353
 31
0.0
100
AcDbText
  0
TEXT
  5
30B
330
1E
100
AcDbEntity
  8
TEXT
100
AcDbText
 10
0.3645833333333467
 20
18.1981979891002
 30
0.0
 40
0.3125
  1
NAME
 72
     1
 11
0.9375000000000133
 21
18.1981979891002
 31
0.0
100
AcDbText
  0
LINE
  5
30C
330
1E
100
AcDbEntity
  8
TITLE
100
AcDbLine
 10
24.99000000000001
 20
19.143
 30
0.0
 11
24.99
 21
-0.0000000000000044
 31
0.0
  0
TEXT
  5
319
330
1E
100
AcDbEntity
  8
TEXT
100
AcDbText
 10
6.356250000000008
 20
18.42499999999999
 30
0.0
 40
0.39
  1
CASTER
 41
0.75
 72
     1
 11
7.185000000000008
 21
18.42499999999999
 31
0.0
100
AcDbText
  0
TEXT
  5
31A
330
1E
100
AcDbEntity
  8
TEXT
100
AcDbText
 10
18.34375
 20
18.42499999999999
 30
0.0
 40
0.39
  1
RC-7764-PR
 41
0.75
 72
     1
 11
19.7575
 21
18.42499999999999
 31
0.0
100
AcDbText
  0
TEXT
  5
31E
330
1E
100
AcDbEntity
  8
TEXT
100
AcDbText
 10
17.26856581789151
 20
14.6279698993432
 30
0.0
 40
0.3125
  1
(2) CASTERS (7764)
 41
0.75
100
AcDbText
  0
TEXT
  5
31F
330
1E
100
AcDbEntity
  8
TEXT
100
AcDbText
 10
17.19059460636295
 20
17.30617203094709
 30
0.0
 40
0.3125
  1
%%uLOAD RATING:%%u 550 LBS.
 41
0.75
100
AcDbText
  0
TEXT
  5
320
330
1E
100
AcDbEntity
  8
TEXT
100
AcDbText
 10
17.19059460636295
 20
16.4727345309471
 30
0.0
 40
0.3125
  1
%%uWHEEL MATERIAL:%%u GRAY NYLON
 41
0.75
100
AcDbText
  0
TEXT
  5
321
330
1E
100
AcDbEntity
  8
TEXT
100
AcDbText
 10
17.22958021212723
 20
15.80083382323764
 30
0.0
 40
0.3125
  1
CASTER SWIVEL RADIUS: 2.688
 41
0.75
100
AcDbText
  0
ARC
  5
18F0
330
1E
100
AcDbEntity
  8
OBJECT
100
AcDbCircle
 10
6.48768143190902
 20
14.09121329180998
 30
0.0
 40
0.325
100
AcDbArc
 50
0.0
 51
90.0
  0
ARC
  5
18F1
330
1E
100
AcDbEntity
  8
OBJECT
100
AcDbCircle
 10
4.012681431909022
 20
14.09121329180998
 30
0.0
 40
0.325
100
AcDbArc
 50
90.0
 51
180.0
  0
DIMENSION
  5
18F2
330
1E
100
AcDbEntity
  8
DIM
100
AcDbDimension
  2
*D0
 10
6.437681431909023
 20
9.636292934965204
 30
0.0
 11
5.250514768734817
 21
9.636292934965204
 31
0.0
 70
   160
 71
     5
 42
2.375
  3
23NSTD
100
AcDbAlignedDimension
 13
4.062681431909023
 23
10.82596329180998
 33
0.0
 14
6.437681431909023
 24
10.82596329180998
 34
0.0
 50
180.0
100
AcDbRotatedDimension
1001
ACAD
1000
DSTYLE
1002
{
1070
   279
1070
     0
1002
}
  0
CIRCLE
  5
18F3
330
1E
100
AcDbEntity
  8
OBJECT
100
AcDbCircle
 10
5.25018143190902
 20
12.50996329180998
 30
0.0
 40
1.4375
  0
DIMENSION
  5
18F4
330
1E
100
AcDbEntity
  8
DIM
100
AcDbDimension
  2
*D1
 10
4.375514768734817
 20
15.12430269162079
 30
0.0
 11
5.250181431909023
 21
15.12430269162079
 31
0.0
 70
   160
 71
     5
 42
1.75
  3
23NSTD
100
AcDbAlignedDimension
 13
6.125514768734817
 23
14.09929061003356
 33
0.0
 14
4.375514768734817
 24
14.09929061003356
 34
0.0
 50
180.0
100
AcDbRotatedDimension
1001
ACAD
1000
DSTYLE
1002
{
1070
   279
1070
     0
1002
}
  0
DIMENSION
  5
18F5
330
1E
100
AcDbEntity
  8
DIM
100
AcDbDimension
  2
*D2
 10
6.812681431909023
 20
8.866945778588224
 30
0.0
 11
5.250514768734817
 21
8.866945778588224
 31
0.0
 70
   160
 71
     5
 42
3.125
  3
23NSTD
100
AcDbAlignedDimension
 13
3.687681431909023
 23
10.92871329180998
 33
0.0
 14
6.812681431909023
 24
10.92871329180998
 34
0.0
 50
180.0
100
AcDbRotatedDimension
1001
ACAD
1000
DSTYLE
1002
{
1070
   279
1070
     0
1002
}
  0
CIRCLE
  5
18F7
330
1E
100
AcDbEntity
  8
OBJECT
100
AcDbCircle
 10
5.25018143190902
 20
12.50996329180998
 30
0.0
 40
1.1875
  0
CIRCLE
  5
18F8
330
1E
100
AcDbEntity
  8
OBJECT
100
AcDbCircle
 10
5.25018143190902
 20
12.50996329180998
 30
0.0
 40
0.85
  0
CIRCLE
  5
18F9
330
1E
100
AcDbEntity
  8
OBJECT
100
AcDbCircle
 10
5.25018143190902
 20
12.50996329180998
 30
0.0
 40
0.6150000000000001
  0
LINE
  5
18FA
330
1E
100
AcDbEntity
  8
OBJECT
100
AcDbLine
 10
6.487681431909024
 20
10.60371329180998
 30
0.0
 11
4.012681431909022
 21
10.60371329180998
 31
0.0
  0
LINE
  5
18FB
330
1E
100
AcDbEntity
  8
OBJECT
100
AcDbLine
 10
4.012681431909022
 20
14.41621329180998
 30
0.0
 11
6.487681431909024
 21
14.41621329180998
 31
0.0
  0
MTEXT
  5
18FC
102
{ACAD_REACTORS
330
18FD
102
}
330
1E
100
AcDbEntity
  8
DIM
100
AcDbMText
 10
8.494742081940351
 20
9.698019535480311
 30
0.0
 40
0.3125
 41
0.0
 71
     4
 72
     1
  1
\A1;0.344 x 0.700 SLOT\P(4) PLACES
 73
     1
 44
1.0
  0
LEADER
  5
18FD
330
1E
100
AcDbEntity
  8
DIM
100
AcDbLeader
  3
23NSTD
 73
     0
 40
0.8333333333333332
 41
3.671875
 76
     3
 10
6.60235460002012
 20
10.86673156089124
 30
0.0
 10
7.79121794821636
 20
10.0265242384297
 30
0.0
 10
8.229012634237335
 20
10.02270434608282
 30
0.0
340
18FC
213
-0.0407294477030167
223
0.3246848106025144
233
0.0
  0
LWPOLYLINE
  5
18FE
330
1E
100
AcDbEntity
  8
OBJECT
100
AcDbPolyline
 90
        4
 70
     1
 43
0.0
 10
6.174746499653551
 20
11.17396377814465
 42
1.0
 10
6.076283037816089
 20
10.84461744192246
 10
6.388449700990292
 20
10.75129012369888
 42
0.9999999999999987
 10
6.486913162827754
 20
11.08063645992107
  0
LINE
  5
18FF
330
1E
100
AcDbEntity
  8
OBJECT
100
AcDbLine
 10
6.812681431909023
 20
14.09121329180998
 30
0.0
 11
6.812681431909023
 21
10.92871329180998
 31
0.0
  0
LINE
  5
1900
330
1E
100
AcDbEntity
  8
CENTER
100
AcDbLine
 10
6.527681431909023
 20
10.91596329180998
 30
0.0
 11
6.347681431909023
 21
10.91596329180998
 31
0.0
  0
ARC
  5
1901
330
1E
100
AcDbEntity
  8
OBJECT
100
AcDbCircle
 10
6.48768143190902
 20
10.92871329180998
 30
0.0
 40
0.325
100
AcDbArc
 50
270.0
 51
0.0
  0
LINE
  5
1902
330
1E
100
AcDbEntity
  8
CENTER
100
AcDbLine
 10
6.21551476873482
 20
11.00929061003356
 30
0.0
 11
6.03551476873482
 21
11.00929061003356
 31
0.0
  0
LINE
  5
1903
330
1E
100
AcDbEntity
  8
CENTER
100
AcDbLine
 10
6.437681431909023
 20
10.82596329180998
 30
0.0
 11
6.437681431909023
 21
11.00596329180998
 31
0.0
  0
LINE
  5
1904
330
1E
100
AcDbEntity
  8
CENTER
100
AcDbLine
 10
6.125514768734817
 20
10.91929061003356
 30
0.0
 11
6.125514768734817
 21
11.09929061003356
 31
0.0
  0
LWPOLYLINE
  5
1905
330
1E
100
AcDbEntity
  8
OBJECT
100
AcDbPolyline
 90
        6
 70
     0
 43
0.0
 10
6.812681431909023
 20
11.79096329180998
 10
7.792823354274212
 20
11.79145311785813
 42
0.3418580503762187
 10
7.852823549567517
 20
11.83795286972554
 42
0.1270186883065623
 10
7.852823549567517
 20
13.18197371389441
 42
0.3418580503762219
 10
7.792823354274212
 20
13.22847346576182
 10
6.812681431909023
 20
13.22896329180998
  0
DIMENSION
  5
1906
330
1E
100
AcDbEntity
  8
DIM
100
AcDbDimension
  2
*D3
 10
9.808265149440533
 20
13.22844970003035
 30
0.0
 11
9.808265149440529
 21
12.50996329180998
 31
0.0
 70
   160
 71
     5
 42
1.43697281644075
  3
23NSTD
100
AcDbAlignedDimension
 13
7.840378582938761
 23
11.7914768835896
 33
0.0
 14
7.840378582938761
 24
13.22844970003035
 34
0.0
 50
90.0
100
AcDbRotatedDimension
1001
ACAD
1000
DSTYLE
1002
{
1070
   279
1070
     0
1002
}
  0
LINE
  5
1907
330
1E
100
AcDbEntity
  8
CENTER
100
AcDbLine
 10
6.527681431909023
 20
14.10396329180998
 30
0.0
 11
6.347681431909023
 21
14.10396329180998
 31
0.0
  0
LWPOLYLINE
  5
1908
330
1E
100
AcDbEntity
  8
OBJECT
100
AcDbPolyline
 90
        4
 70
     1
 43
0.0
 10
6.174746499653551
 20
13.8459628054753
 42
-1.0
 10
6.076283037816089
 20
14.17530914169749
 10
6.388449700990292
 20
14.26863645992107
 42
-0.9999999999999987
 10
6.486913162827754
 20
13.93929012369888
  0
LINE
  5
1909
330
1E
100
AcDbEntity
  8
CENTER
100
AcDbLine
 10
6.437681431909023
 20
14.19396329180997
 30
0.0
 11
6.437681431909023
 21
14.01396329180998
 31
0.0
  0
LINE
  5
190A
330
1E
100
AcDbEntity
  8
CENTER
100
AcDbLine
 10
6.125514768734817
 20
13.91929061003356
 30
0.0
 11
6.125514768734817
 21
14.09929061003356
 31
0.0
  0
LINE
  5
190B
330
1E
100
AcDbEntity
  8
CENTER
100
AcDbLine
 10
6.21551476873482
 20
14.00929061003356
 30
0.0
 11
6.03551476873482
 21
14.00929061003356
 31
0.0
  0
DIMENSION
  5
190C
330
1E
100
AcDbEntity
  8
DIM
100
AcDbDimension
  2
*D4
 10
2.050156121484763
 20
14.10396329180998
 30
0.0
 11
2.050156121484761
 21
12.57644718300872
 31
0.0
 70
   160
 71
     5
 42
3.188000000000002
  3
23NSTD
100
AcDbAlignedDimension
 13
3.972681431909023
 23
10.91596329180998
 33
0.0
 14
3.972681431909023
 24
14.10396329180998
 34
0.0
 50
90.0
100
AcDbRotatedDimension
1001
ACAD
1000
DSTYLE
1002
{
1070
   279
1070
     0
1002
}
  0
LWPOLYLINE
  5
190D
330
1E
100
AcDbEntity
  8
OBJECT
100
AcDbPolyline
 90
        4
 70
     1
 43
0.0
 10
4.325616364164496
 20
11.17396377814465
 42
-1.0
 10
4.424079826001957
 20
10.84461744192246
 10
4.111913162827754
 20
10.75129012369888
 42
-0.9999999999999987
 10
4.013449700990292
 20
11.08063645992107
  0
DIMENSION
  5
190E
330
1E
100
AcDbEntity
  8
DIM
100
AcDbDimension
  2
*D5
 10
2.801829439700317
 20
14.00929061003356
 30
0.0
 11
2.801829439700314
 21
13.15156426250199
 31
0.0
 70
   160
 71
     5
 42
3.0
  3
23NSTD
100
AcDbAlignedDimension
 13
4.312514768734821
 23
11.00929061003356
 33
0.0
 14
4.312514768734821
 24
14.00929061003356
 34
0.0
 50
90.0
100
AcDbRotatedDimension
1001
ACAD
1000
DSTYLE
1002
{
1070
   279
1070
     0
1002
}
  0
DIMENSION
  5
1911
330
1E
100
AcDbEntity
  8
DIM
100
AcDbDimension
  2
*D6
 10
1.225505705786477
 20
14.41621329180998
 30
0.0
 11
1.225505705786474
 21
11.83817213697444
 31
0.0
 70
   160
 71
     5
 42
3.8125
  3
23NSTD
100
AcDbAlignedDimension
 13
4.012681431909022
 23
10.60371329180998
 33
0.0
 14
4.012681431909022
 24
14.41621329180998
 34
0.0
 50
90.0
100
AcDbRotatedDimension
1001
ACAD
1000
DSTYLE
1002
{
1070
   279
1070
     0
1002
}
  0
LINE
  5
1912
330
1E
100
AcDbEntity
  8
OBJECT
100
AcDbLine
 10
3.687681431909023
 20
10.92871329180998
 30
0.0
 11
3.687681431909023
 21
14.09121329180997
 31
0.0
  0
ARC
  5
1913
330
1E
100
AcDbEntity
  8
OBJECT
100
AcDbCircle
 10
4.012681431909022
 20
10.92871329180998
 30
0.0
 40
0.325
100
AcDbArc
 50
180.0
 51
270.0
  0
LINE
  5
1914
330
1E
100
AcDbEntity
  8
CENTER
100
AcDbLine
 10
4.375514768734817
 20
10.91929061003356
 30
0.0
 11
4.375514768734817
 21
11.09929061003356
 31
0.0
  0
LINE
  5
1915
330
1E
100
AcDbEntity
  8
CENTER
100
AcDbLine
 10
4.46551476873482
 20
11.00929061003356
 30
0.0
 11
4.28551476873482
 21
11.00929061003356
 31
0.0
  0
LINE
  5
1916
330
1E
100
AcDbEntity
  8
CENTER
100
AcDbLine
 10
4.062681431909023
 20
10.82596329180998
 30
0.0
 11
4.062681431909023
 21
11.00596329180998
 31
0.0
  0
LINE
  5
1917
330
1E
100
AcDbEntity
  8
CENTER
100
AcDbLine
 10
3.972681431909023
 20
10.91596329180998
 30
0.0
 11
4.152681431909023
 21
10.91596329180998
 31
0.0
  0
CIRCLE
  5
1919
330
1E
100
AcDbEntity
  8
OBJECT
100
AcDbCircle
 10
5.25018143190902
 20
12.50996329180998
 30
0.0
 40
0.3235
  0
LINE
  5
191A
330
1E
100
AcDbEntity
  8
CENTER
100
AcDbLine
 10
5.340181431909023
 20
12.50996329180998
 30
0.0
 11
5.160181431909023
 21
12.50996329180998
 31
0.0
  0
LINE
  5
191B
330
1E
100
AcDbEntity
  8
CENTER
100
AcDbLine
 10
5.250181431909023
 20
12.41996329180998
 30
0.0
 11
5.250181431909023
 21
12.59996329180997
 31
0.0
  0
LWPOLYLINE
  5
191C
330
1E
100
AcDbEntity
  8
OBJECT
100
AcDbPolyline
 90
        4
 70
     1
 43
0.0
 10
4.325616364164496
 20
13.8459628054753
 42
1.0
 10
4.424079826001957
 20
14.17530914169749
 10
4.111913162827754
 20
14.26863645992107
 42
0.9999999999999987
 10
4.013449700990292
 20
13.93929012369888
  0
LINE
  5
191D
330
1E
100
AcDbEntity
  8
CENTER
100
AcDbLine
 10
4.062681431909023
 20
14.19396329180997
 30
0.0
 11
4.062681431909023
 21
14.01396329180998
 31
0.0
  0
LINE
  5
191E
330
1E
100
AcDbEntity
  8
CENTER
100
AcDbLine
 10
4.375514768734817
 20
13.91929061003356
 30
0.0
 11
4.375514768734817
 21
14.09929061003356
 31
0.0
  0
LINE
  5
191F
330
1E
100
AcDbEntity
  8
CENTER
100
AcDbLine
 10
4.46551476873482
 20
14.00929061003356
 30
0.0
 11
4.28551476873482
 21
14.00929061003356
 31
0.0
  0
LINE
  5
1920
330
1E
100
AcDbEntity
  8
CENTER
100
AcDbLine
 10
3.972681431909023
 20
14.10396329180998
 30
0.0
 11
4.152681431909023
 21
14.10396329180998
 31
0.0
  0
ARC
  5
1921
330
1E
100
AcDbEntity
  8
OBJECT
100
AcDbCircle
 10
6.688181431909026
 20
4.607919523816287
 30
0.0
 40
1.0
100
AcDbArc
 50
171.8867045591293
 51
75.01767628487622
  0
LWPOLYLINE
  5
1922
330
1E
100
AcDbEntity
  8
OBJECT
100
AcDbPolyline
 90
       11
 70
     1
 43
0.0
 10
6.880501758787165
 20
6.330602715654785
 10
7.028611268313913
 20
4.637703275227702
 42
-0.4400105308918339
 10
6.688181431909026
 20
4.266189300741425
 10
6.126866485226752
 20
4.266189300741425
 42
-0.2235117622257542
 10
6.079096880580767
 20
4.288666334355207
 10
4.979467572438306
 20
5.617738064290564
 42
0.1384075542582519
 10
4.128351042982831
 20
6.230602715654784
 10
4.128351042982838
 20
6.330602715654785
 42
-0.4142135623730951
 10
4.328351042982841
 20
6.530602715654788
 10
6.333351042982844
 20
6.530602715654788
 42
-0.4142135623730951
 10
6.53335104298284
 20
6.330602715654785
  0
LWPOLYLINE
  5
1923
330
1E
100
AcDbEntity
  8
OBJECT
100
AcDbPolyline
 90
        6
 70
     0
 43
0.0
 10
6.687681431909023
 20
6.753552117112151
 10
6.687681431909023
 20
6.707552117112159
 42
-0.4142135623730951
 10
6.562681431909023
 20
6.582552117112159
 10
3.937681431909023
 20
6.582552117112159
 42
-0.4142135623730951
 10
3.812681431909023
 20
6.707552117112159
 10
3.812681431909023
 20
6.753552117112151
  0
LWPOLYLINE
  5
1924
330
1E
100
AcDbEntity
  8
OBJECT
100
AcDbPolyline
 90
        4
 70
     1
 43
0.0
 10
6.812681431909023
 20
6.753552117112151
 10
6.812681431909023
 20
6.857552117112151
 10
3.687681431909023
 20
6.857552117112158
 10
3.687681431909023
 20
6.753552117112151
  0
ARC
  5
1926
330
1E
100
AcDbEntity
  8
OBJECT
100
AcDbCircle
 10
6.688181431909026
 20
4.607919523816287
 30
0.0
 40
1.25
100
AcDbArc
 50
162.1670874439601
 51
79.13425513147519
  0
DIMENSION
  5
1927
330
1E
100
AcDbEntity
  8
DIM
100
AcDbDimension
  2
*D7
 10
5.250181431909023
 20
2.497008211737893
 30
0.0
 11
5.981311251890588
 21
2.497008211737893
 31
0.0
 70
   160
 71
     5
 42
1.438000000000005
  3
23NSTD
100
AcDbAlignedDimension
 13
6.688181431909029
 23
4.382919523816287
 33
0.0
 14
5.250181431909023
 24
4.607919523816286
 34
0.0
 50
180.0
100
AcDbRotatedDimension
1001
ACAD
1000
DSTYLE
1002
{
1070
   279
1070
     0
1002
}
  0
DIMENSION
  5
1928
330
1E
100
AcDbEntity
  8
DIM
100
AcDbDimension
  2
*D8
 10
2.966646212317442
 20
3.357919523816288
 30
0.0
 11
2.966646212317442
 21
5.107735820464222
 31
0.0
 70
   160
 71
     5
 42
3.499632593295871
  3
23NSTD
100
AcDbAlignedDimension
 13
3.687681431909023
 23
6.857552117112159
 33
0.0
 14
6.688181431909026
 24
3.357919523816287
 34
0.0
 50
270.0
100
AcDbRotatedDimension
1001
ACAD
1000
DSTYLE
1002
{
1070
   279
1070
     0
1002
}
  0
ARC
  5
1929
330
1E
100
AcDbEntity
  8
OBJECT
100
AcDbCircle
 10
6.688181431909026
 20
4.607919523816287
 30
0.0
 40
0.6
100
AcDbArc
 50
214.7188777609111
 51
60.28112223908915
  0
ARC
  5
192A
330
1E
100
AcDbEntity
  8
OBJECT
100
AcDbCircle
 10
6.688181431909026
 20
4.607919523816287
 30
0.0
 40
0.6559999999999999
100
AcDbArc
 50
213.1455899829599
 51
61.85441001704005
  0
ARC
  5
192B
330
1E
100
AcDbEntity
  8
OBJECT
100
AcDbCircle
 10
6.032402690005593
 20
6.548631883429495
 30
0.0
 40
0.09375
100
AcDbArc
 50
348.9123104901244
 51
21.2117540601239
  0
ARC
  5
192C
330
1E
100
AcDbEntity
  8
OBJECT
100
AcDbCircle
 10
5.786209120126716
 20
6.548631883429495
 30
0.0
 40
0.09375
100
AcDbArc
 50
348.9123104901244
 51
21.2117540601239
  0
ARC
  5
192D
330
1E
100
AcDbEntity
  8
OBJECT
100
AcDbCircle
 10
6.032402690005593
 20
6.548631883429495
 30
0.0
 40
0.09375
100
AcDbArc
 50
158.7882459398763
 51
191.0876895098756
  0
CIRCLE
  5
192E
330
1E
100
AcDbEntity
  8
OBJECT
100
AcDbCircle
 10
6.688181431909026
 20
4.607919523816287
 30
0.0
 40
0.25
  0
LINE
  5
192F
330
1E
100
AcDbEntity
  8
CENTER
100
AcDbLine
 10
6.688181431909026
 20
4.69791952381629
 30
0.0
 11
6.688181431909026
 21
4.51791952381629
 31
0.0
  0
LINE
  5
1930
330
1E
100
AcDbEntity
  8
CENTER
100
AcDbLine
 10
6.778181431909022
 20
4.607919523816287
 30
0.0
 11
6.598181431909022
 21
4.607919523816287
 31
0.0
  0
ARC
  5
1932
330
1E
100
AcDbEntity
  8
OBJECT
100
AcDbCircle
 10
4.483838874855255
 20
6.548631883429495
 30
0.0
 40
0.09375
100
AcDbArc
 50
348.9123104901244
 51
21.2117540601239
  0
ARC
  5
1933
330
1E
100
AcDbEntity
  8
OBJECT
100
AcDbCircle
 10
5.786209120126716
 20
6.548631883429495
 30
0.0
 40
0.09375
100
AcDbArc
 50
158.7882459398761
 51
191.0876895098756
  0
ARC
  5
1934
330
1E
100
AcDbEntity
  8
OBJECT
100
AcDbCircle
 10
5.559983562309437
 20
6.548631883429495
 30
0.0
 40
0.09375
100
AcDbArc
 50
348.9123104901244
 51
21.2117540601239
  0
ARC
  5
1935
330
1E
100
AcDbEntity
  8
OBJECT
100
AcDbCircle
 10
5.335808439132573
 20
6.548631883429495
 30
0.0
 40
0.09375
100
AcDbArc
 50
348.9123104901244
 51
21.2117540601239
  0
ARC
  5
1936
330
1E
100
AcDbEntity
  8
OBJECT
100
AcDbCircle
 10
5.559983562309437
 20
6.548631883429495
 30
0.0
 40
0.09375
100
AcDbArc
 50
158.7882459398763
 51
191.0876895098756
  0
ARC
  5
1937
330
1E
100
AcDbEntity
  8
OBJECT
100
AcDbCircle
 10
5.122816039014548
 20
6.548631883429495
 30
0.0
 40
0.09375
100
AcDbArc
 50
348.9123104901244
 51
21.2117540601239
  0
ARC
  5
1938
330
1E
100
AcDbEntity
  8
OBJECT
100
AcDbCircle
 10
5.335808439132573
 20
6.548631883429495
 30
0.0
 40
0.09375
100
AcDbArc
 50
158.7882459398761
 51
191.0876895098756
  0
ARC
  5
1939
330
1E
100
AcDbEntity
  8
OBJECT
100
AcDbCircle
 10
4.906495636886251
 20
6.548631883429495
 30
0.0
 40
0.09375
100
AcDbArc
 50
348.9123104901244
 51
21.2117540601239
  0
ARC
  5
193A
330
1E
100
AcDbEntity
  8
OBJECT
100
AcDbCircle
 10
5.122816039014548
 20
6.548631883429495
 30
0.0
 40
0.09375
100
AcDbArc
 50
158.7882459398763
 51
191.0876895098756
  0
ARC
  5
193B
330
1E
100
AcDbEntity
  8
OBJECT
100
AcDbCircle
 10
4.693503254865621
 20
6.548631883429495
 30
0.0
 40
0.09375
100
AcDbArc
 50
348.9123104901244
 51
21.2117540601239
  0
ARC
  5
193C
330
1E
100
AcDbEntity
  8
OBJECT
100
AcDbCircle
 10
4.906495636886251
 20
6.548631883429495
 30
0.0
 40
0.09375
100
AcDbArc
 50
158.7882459398763
 51
191.0876895098756
  0
ARC
  5
193D
330
1E
100
AcDbEntity
  8
OBJECT
100
AcDbCircle
 10
4.693503254865621
 20
6.548631883429495
 30
0.0
 40
0.09375
100
AcDbArc
 50
158.7882459398763
 51
191.0876895098756
  0
ARC
  5
193F
330
1E
100
AcDbEntity
  8
OBJECT
100
AcDbCircle
 10
4.483838874855255
 20
6.548631883429495
 30
0.0
 40
0.09375
100
AcDbArc
 50
158.7882459398763
 51
191.0876895098756
  0
LINE
  5
1B79
330
1E
100
AcDbEntity
  8
OBJECT
100
AcDbLine
 10
13.09739817679882
 20
4.232919523816287
 30
0.0
 11
13.20639817679882
 21
4.232919523816287
 31
0.0
  0
ARC
  5
1B7A
330
1E
100
AcDbEntity
  8
OBJECT
100
AcDbCircle
 10
12.94139817679881
 20
6.065602715654784
 30
0.0
 40
0.265
100
AcDbArc
 50
0.0
 51
89.99999999999998
  0
LINE
  5
1B80
330
1E
100
AcDbEntity
  8
OBJECT
100
AcDbLine
 10
13.09739817679882
 20
6.065602715654785
 30
0.0
 11
13.09739817679882
 21
4.232919523816287
 31
0.0
  0
LINE
  5
1B83
330
1E
100
AcDbEntity
  8
OBJECT
100
AcDbLine
 10
11.36639817679881
 20
6.065602715654785
 30
0.0
 11
11.36639817679881
 21
4.232919523816287
 31
0.0
  0
LINE
  5
1B84
330
1E
100
AcDbEntity
  8
OBJECT
100
AcDbLine
 10
11.47539817679881
 20
6.065602715654784
 30
0.0
 11
11.47539817679881
 21
4.232919523816287
 31
0.0
  0
LINE
  5
1B85
330
1E
100
AcDbEntity
  8
OBJECT
100
AcDbLine
 10
11.08389817679881
 20
6.133037715145095
 30
0.0
 11
11.08389817679881
 21
6.330602715654783
 31
0.0
  0
ARC
  5
1B87
330
1E
100
AcDbEntity
  8
OBJECT
100
AcDbCircle
 10
19.0559467090048
 20
6.347222294133946
 30
0.0
 40
7.974925255682599
100
AcDbArc
 50
181.5389922546684
 51
193.5776103705821
  0
LINE
  5
1B8E
330
1E
100
AcDbEntity
  8
OBJECT
100
AcDbLine
 10
11.52139817679881
 20
5.107919523816287
 30
0.0
 11
11.52139817679881
 21
4.107919523816294
 31
0.0
  0
LINE
  5
1B90
330
1E
100
AcDbEntity
  8
OBJECT
100
AcDbLine
 10
11.52139817679881
 20
4.107919523816294
 30
0.0
 11
11.57033704107564
 21
4.062243250491248
 31
0.0
  0
LINE
  5
1B91
330
1E
100
AcDbEntity
  8
OBJECT
100
AcDbLine
 10
11.36639817679881
 20
4.232919523816287
 30
0.0
 11
11.47539817679881
 21
4.232919523816287
 31
0.0
  0
LINE
  5
1B95
330
1E
100
AcDbEntity
  8
OBJECT
100
AcDbLine
 10
11.47539817679881
 20
4.420919523816289
 30
0.0
 11
11.52139817679881
 21
4.420919523816289
 31
0.0
  0
LINE
  5
1B96
330
1E
100
AcDbEntity
  8
OBJECT
100
AcDbLine
 10
11.52139817679881
 20
5.107919523816287
 30
0.0
 11
11.57033704107564
 21
5.153595797141334
 31
0.0
  0
LINE
  5
1B9A
330
1E
100
AcDbEntity
  8
OBJECT
100
AcDbLine
 10
11.47539817679881
 20
4.794919523816291
 30
0.0
 11
11.52139817679881
 21
4.794919523816291
 31
0.0
  0
LINE
  5
1B9B
330
1E
100
AcDbEntity
  8
OBJECT
100
AcDbLine
 10
13.05139817679881
 20
5.107919523816287
 30
0.0
 11
13.05139817679881
 21
4.107919523816294
 31
0.0
  0
LINE
  5
1B9C
330
1E
100
AcDbEntity
  8
OBJECT
100
AcDbLine
 10
13.05139817679881
 20
4.420919523816289
 30
0.0
 11
13.09739817679882
 21
4.420919523816289
 31
0.0
  0
LINE
  5
1B9D
330
1E
100
AcDbEntity
  8
OBJECT
100
AcDbLine
 10
13.05139817679881
 20
4.107919523816294
 30
0.0
 11
13.00735738897933
 21
4.066814788518115
 31
0.0
  0
LINE
  5
1B9E
330
1E
100
AcDbEntity
  8
OBJECT
100
AcDbLine
 10
13.05139817679881
 20
4.794919523816291
 30
0.0
 11
13.09739817679882
 21
4.794919523816291
 31
0.0
  0
LINE
  5
1B9F
330
1E
100
AcDbEntity
  8
OBJECT
100
AcDbLine
 10
13.05139817679881
 20
5.107919523816287
 30
0.0
 11
13.00735738897933
 21
5.149024259114463
 31
0.0
  0
LINE
  5
1BA3
330
1E
100
AcDbEntity
  8
OBJECT
100
AcDbLine
 10
11.63139817679881
 20
6.330602715654787
 30
0.0
 11
12.94139817679881
 21
6.330602715654784
 31
0.0
  0
LINE
  5
1BA4
330
1E
100
AcDbEntity
  8
OBJECT
100
AcDbLine
 10
11.63139817679881
 20
6.221602715654785
 30
0.0
 11
12.94139817679881
 21
6.221602715654785
 31
0.0
  0
ARC
  5
1BA6
330
1E
100
AcDbEntity
  8
OBJECT
100
AcDbCircle
 10
11.63139817679881
 20
6.065602715654785
 30
0.0
 40
0.265
100
AcDbArc
 50
90.0
 51
180.0
  0
ARC
  5
1BA7
330
1E
100
AcDbEntity
  8
OBJECT
100
AcDbCircle
 10
11.63139817679881
 20
6.065602715654784
 30
0.0
 40
0.156
100
AcDbArc
 50
90.0
 51
180.0
  0
ARC
  5
1BAF
330
1E
100
AcDbEntity
  8
OBJECT
100
AcDbCircle
 10
12.94139817679881
 20
6.065602715654784
 30
0.0
 40
0.156
100
AcDbArc
 50
0.0
 51
90.0
  0
LINE
  5
1BB0
330
1E
100
AcDbEntity
  8
OBJECT
100
AcDbLine
 10
13.20639817679881
 20
6.065602715654784
 30
0.0
 11
13.20639817679881
 21
4.232919523816287
 31
0.0
  0
LINE
  5
1BB1
330
1E
100
AcDbEntity
  8
OBJECT
100
AcDbLine
 10
13.48889817679881
 20
6.133037715145222
 30
0.0
 11
13.48889817679881
 21
6.330602715654783
 31
0.0
  0
TEXT
  5
1BB2
330
1E
100
AcDbEntity
  8
DIM
100
AcDbText
 10
14.52878248736876
 20
5.128351464337743
 30
0.0
 40
0.3125
  1
BEARINGS
 41
0.75
100
AcDbText
  0
ARC
  5
1BBC
330
1E
100
AcDbEntity
  8
OBJECT
100
AcDbCircle
 10
5.516849644592827
 20
6.347222294133946
 30
0.0
 40
7.974925255682599
100
AcDbArc
 50
344.6259868039162
 51
345.5553456661088
  0
TEXT
  5
1BC2
330
1E
100
AcDbEntity
  8
DIM
100
AcDbText
 10
14.52878248736876
 20
6.155203613307665
 30
0.0
 40
0.3125
  1
SELF
 41
0.75
100
AcDbText
  0
TEXT
  5
1BC3
330
1E
100
AcDbEntity
  8
DIM
100
AcDbText
 10
14.52878248736876
 20
5.652290208333188
 30
0.0
 40
0.3125
  1
LUBRICATING
 41
0.75
100
AcDbText
  0
LINE
  5
1BC4
330
1E
100
AcDbEntity
  8
DIM
100
AcDbLine
 10
14.01564464240697
 20
6.262308695250262
 30
0.0
 11
14.37555464240697
 21
6.262308695250262
 31
0.0
  0
LINE
  5
1BC5
330
1E
100
AcDbEntity
  8
DIM
100
AcDbLine
 10
13.50358164835586
 20
6.434135449050942
 30
0.0
 11
14.01564464240697
 21
6.262308695250262
 31
0.0
  0
SOLID
  5
1BC8
330
1E
100
AcDbEntity
  8
DIM
100
AcDbTrace
 10
13.48449890929276
 20
6.377266746807527
 30
0.0
 11
13.52266438741895
 21
6.491004151294354
 31
0.0
 12
13.16236943489538
 22
6.548631883429492
 32
0.0
 13
13.16236943489538
 23
6.548631883429492
 33
0.0
  0
LINE
  5
1BD4
330
1E
100
AcDbEntity
  8
OBJECT
100
AcDbLine
 10
11.57033704107564
 20
5.712561446181476
 30
0.0
 11
11.57033704107564
 21
3.503277601451097
 31
0.0
  0
ARC
  5
1BD5
330
1E
100
AcDbEntity
  8
OBJECT
100
AcDbCircle
 10
11.63233703333339
 20
3.503308585954975
 30
0.0
 40
0.0620000000000007
100
AcDbArc
 50
180.0286335705874
 51
255.5222583775551
  0
ARC
  5
1BD6
330
1E
100
AcDbEntity
  8
OBJECT
100
AcDbCircle
 10
12.28884721502748
 20
6.04591952381628
 30
0.0
 40
2.687999999999992
100
AcDbArc
 50
255.5222583775528
 51
284.4777416224471
  0
ARC
  5
1BD7
330
1E
100
AcDbEntity
  8
OBJECT
100
AcDbCircle
 10
12.94535739672159
 20
3.503308585954975
 30
0.0
 40
0.0619999999999988
100
AcDbArc
 50
284.4777416224385
 51
359.9713664294125
  0
LINE
  5
1BD8
330
1E
100
AcDbEntity
  8
OBJECT
100
AcDbLine
 10
13.00735738897933
 20
3.503277601451097
 30
0.0
 11
13.00735738897933
 21
5.712561446181476
 31
0.0
  0
ARC
  5
1BD9
330
1E
100
AcDbEntity
  8
OBJECT
100
AcDbCircle
 10
12.28884721502748
 20
3.169919523816293
 30
0.0
 40
2.687999999999992
100
AcDbArc
 50
75.52225837755283
 51
104.4777416224471
  0
ARC
  5
1BDA
330
1E
100
AcDbEntity
  8
OBJECT
100
AcDbCircle
 10
11.63233703333339
 20
5.712530461677598
 30
0.0
 40
0.0620000000000007
100
AcDbArc
 50
104.4777416224448
 51
179.9713664294125
  0
ARC
  5
1BDB
330
1E
100
AcDbEntity
  8
OBJECT
100
AcDbCircle
 10
12.94535739672159
 20
5.712530461677598
 30
0.0
 40
0.0619999999999988
100
AcDbArc
 50
0.0286335705874655
 51
75.52225837756147
  0
LWPOLYLINE
  5
1BE1
330
1E
100
AcDbEntity
  8
OBJECT
100
AcDbPolyline
 90
        4
 70
     1
 43
0.0
 10
14.19264817679881
 20
6.753552117112149
 10
14.19264817679881
 20
6.857552117112148
 10
10.3801481767988
 20
6.857552117112155
 10
10.3801481767988
 20
6.753552117112149
  0
LWPOLYLINE
  5
1BE2
330
1E
100
AcDbEntity
  8
OBJECT
100
AcDbPolyline
 90
        6
 70
     0
 43
0.0
 10
13.72389817679881
 20
6.753552117112149
 10
13.72389817679881
 20
6.707552117112157
 42
-0.4142135623730951
 10
13.59889817679881
 20
6.582552117112157
 10
10.97389817679881
 20
6.582552117112157
 42
-0.4142135623730951
 10
10.84889817679881
 20
6.707552117112157
 10
10.84889817679881
 20
6.753552117112149
  0
ARC
  5
1BE3
330
1E
100
AcDbEntity
  8
OBJECT
100
AcDbCircle
 10
13.06861943489538
 20
6.548631883429492
 30
0.0
 40
0.09375
100
AcDbArc
 50
348.9123104901244
 51
21.2117540601239
  0
ARC
  5
1BE4
330
1E
100
AcDbEntity
  8
OBJECT
100
AcDbCircle
 10
13.06861943489538
 20
6.548631883429492
 30
0.0
 40
0.09375
100
AcDbArc
 50
158.7882459398763
 51
191.0876895098756
  0
ARC
  5
1BE5
330
1E
100
AcDbEntity
  8
OBJECT
100
AcDbCircle
 10
12.8224258650165
 20
6.548631883429492
 30
0.0
 40
0.09375
100
AcDbArc
 50
348.9123104901244
 51
21.2117540601239
  0
ARC
  5
1BE6
330
1E
100
AcDbEntity
  8
OBJECT
100
AcDbCircle
 10
12.59620030719922
 20
6.548631883429492
 30
0.0
 40
0.09375
100
AcDbArc
 50
348.9123104901244
 51
21.2117540601239
  0
ARC
  5
1BE7
330
1E
100
AcDbEntity
  8
OBJECT
100
AcDbCircle
 10
12.8224258650165
 20
6.548631883429492
 30
0.0
 40
0.09375
100
AcDbArc
 50
158.7882459398761
 51
191.0876895098756
  0
ARC
  5
1BE8
330
1E
100
AcDbEntity
  8
OBJECT
100
AcDbCircle
 10
12.59620030719922
 20
6.548631883429492
 30
0.0
 40
0.09375
100
AcDbArc
 50
158.7882459398763
 51
191.0876895098756
  0
ARC
  5
1BE9
330
1E
100
AcDbEntity
  8
OBJECT
100
AcDbCircle
 10
12.37202518402236
 20
6.548631883429492
 30
0.0
 40
0.09375
100
AcDbArc
 50
348.9123104901244
 51
21.2117540601239
  0
ARC
  5
1BEA
330
1E
100
AcDbEntity
  8
OBJECT
100
AcDbCircle
 10
12.37202518402236
 20
6.548631883429492
 30
0.0
 40
0.09375
100
AcDbArc
 50
158.7882459398761
 51
191.0876895098756
  0
ARC
  5
1BEB
330
1E
100
AcDbEntity
  8
OBJECT
100
AcDbCircle
 10
12.15903278390433
 20
6.548631883429492
 30
0.0
 40
0.09375
100
AcDbArc
 50
348.9123104901244
 51
21.2117540601239
  0
ARC
  5
1BEC
330
1E
100
AcDbEntity
  8
OBJECT
100
AcDbCircle
 10
12.15903278390433
 20
6.548631883429492
 30
0.0
 40
0.09375
100
AcDbArc
 50
158.7882459398763
 51
191.0876895098756
  0
ARC
  5
1BED
330
1E
100
AcDbEntity
  8
OBJECT
100
AcDbCircle
 10
11.94271238177604
 20
6.548631883429492
 30
0.0
 40
0.09375
100
AcDbArc
 50
348.9123104901244
 51
21.2117540601239
  0
ARC
  5
1BEE
330
1E
100
AcDbEntity
  8
OBJECT
100
AcDbCircle
 10
11.94271238177604
 20
6.548631883429492
 30
0.0
 40
0.09375
100
AcDbArc
 50
158.7882459398763
 51
191.0876895098756
  0
ARC
  5
1BEF
330
1E
100
AcDbEntity
  8
OBJECT
100
AcDbCircle
 10
11.72971999975541
 20
6.548631883429492
 30
0.0
 40
0.09375
100
AcDbArc
 50
348.9123104901244
 51
21.2117540601239
  0
ARC
  5
1BF0
330
1E
100
AcDbEntity
  8
OBJECT
100
AcDbCircle
 10
11.72971999975541
 20
6.548631883429492
 30
0.0
 40
0.09375
100
AcDbArc
 50
158.7882459398763
 51
191.0876895098756
  0
ARC
  5
1BF1
330
1E
100
AcDbEntity
  8
OBJECT
100
AcDbCircle
 10
11.52005561974504
 20
6.548631883429492
 30
0.0
 40
0.09375
100
AcDbArc
 50
348.9123104901244
 51
21.2117540601239
  0
ARC
  5
1BF2
330
1E
100
AcDbEntity
  8
OBJECT
100
AcDbCircle
 10
11.52005561974504
 20
6.548631883429492
 30
0.0
 40
0.09375
100
AcDbArc
 50
158.7882459398763
 51
191.0876895098756
  0
ARC
  5
1BFC
330
1E
100
AcDbEntity
  8
OBJECT
100
AcDbCircle
 10
11.28389817679881
 20
6.330602715654783
 30
0.0
 40
0.2000000000000028
100
AcDbArc
 50
90.0
 51
180.0
  0
LINE
  5
1BFD
330
1E
100
AcDbEntity
  8
OBJECT
100
AcDbLine
 10
11.28389817679881
 20
6.530602715654786
 30
0.0
 11
13.28889817679881
 21
6.530602715654786
 31
0.0
  0
ARC
  5
1BFE
330
1E
100
AcDbEntity
  8
OBJECT
100
AcDbCircle
 10
13.28889817679881
 20
6.330602715654786
 30
0.0
 40
0.1999999999999993
100
AcDbArc
 50
359.9999999999989
 51
90.0
  0
LINE
  5
1C03
330
1E
100
AcDbEntity
  8
OBJECT
100
AcDbLine
 10
11.30389817679881
 20
4.857919523816287
 30
0.0
 11
11.36639817679882
 21
4.857919523816287
 31
0.0
  0
LINE
  5
1C04
330
1E
100
AcDbEntity
  8
OBJECT
100
AcDbLine
 10
11.30389817679881
 20
4.357919523816287
 30
0.0
 11
11.36639817679881
 21
4.357919523816287
 31
0.0
  0
LINE
  5
1C05
330
1E
100
AcDbEntity
  8
OBJECT
100
AcDbLine
 10
13.26889817679881
 20
4.357919523816287
 30
0.0
 11
13.20639817679882
 21
4.357919523816287
 31
0.0
  0
LINE
  5
1C07
330
1E
100
AcDbEntity
  8
OBJECT
100
AcDbLine
 10
11.30389817679881
 20
4.357919523816287
 30
0.0
 11
11.30389817679881
 21
4.857919523816287
 31
0.0
  0
LINE
  5
1C08
330
1E
100
AcDbEntity
  8
OBJECT
100
AcDbLine
 10
13.20639817679881
 20
4.357919523816287
 30
0.0
 11
13.26889817679881
 21
4.357919523816287
 31
0.0
  0
LINE
  5
1C09
330
1E
100
AcDbEntity
  8
OBJECT
100
AcDbLine
 10
13.20639817679882
 20
4.857919523816287
 30
0.0
 11
13.26889817679881
 21
4.857919523816287
 31
0.0
  0
ARC
  5
1C0A
330
1E
100
AcDbEntity
  8
OBJECT
100
AcDbCircle
 10
19.0559467090048
 20
6.347222294133946
 30
0.0
 40
7.974925255682599
100
AcDbArc
 50
194.4446543338911
 51
195.3740131960837
  0
LINE
  5
1C0C
330
1E
100
AcDbEntity
  8
OBJECT
100
AcDbLine
 10
13.26889817679881
 20
4.357919523816287
 30
0.0
 11
13.26889817679881
 21
4.857919523816287
 31
0.0
  0
ARC
  5
1C0E
330
1E
100
AcDbEntity
  8
OBJECT
100
AcDbCircle
 10
5.516849644592827
 20
6.347222294133946
 30
0.0
 40
7.974925255682599
100
AcDbArc
 50
346.4223896294179
 51
358.4610077453323
  0
LINE
  5
1D4A
330
1E
100
AcDbEntity
  8
CENTER
100
AcDbLine
 10
5.250181431909023
 20
12.41996329180998
 30
0.0
 11
5.250181431909023
 21
12.41996329180998
 31
0.0
  0
LINE
  5
1D4B
330
1E
100
AcDbEntity
  8
CENTER
100
AcDbLine
 10
5.250181431909012
 20
7.672552117112156
 30
0.0
 11
5.250181431909023
 21
4.607919523816286
 31
0.0
  0
DIMENSION
  5
1E65
330
1E
100
AcDbEntity
  8
DIM
100
AcDbDimension
  2
*D9
 10
5.619023097463081
 20
3.960308177494463
 30
0.0
 11
10.01016714987079
 21
5.880000080704907
 31
0.0
 70
   163
 71
     5
 42
2.500000000000001
  3
23NSTD
100
AcDbDiametricDimension
 15
7.757339766354982
 25
5.255530870138113
 35
0.0
 40
0.0
1001
ACAD
1000
DSTYLE
1002
{
1070
   279
1070
     0
1002
}
  0
DIMENSION
  5
1E77
330
1E
100
AcDbEntity
  8
DIM
100
AcDbDimension
  2
*D10
 10
3.687681431909023
 20
7.515052117112155
 30
0.0
 11
4.468931431909018
 21
7.515052117112155
 31
0.0
 70
   160
 71
     5
 42
1.562499999999989
  3
23NSTD
100
AcDbAlignedDimension
 13
5.250181431909012
 23
7.515052117112155
 33
0.0
 14
3.687681431909023
 24
6.857552117112158
 34
0.0
100
AcDbRotatedDimension
1001
ACAD
1000
DSTYLE
1002
{
1070
   279
1070
     0
1002
}
  0
LINE
  5
2025
330
1E
100
AcDbEntity
  8
CENTER
100
AcDbLine
 10
12.2863981767988
 20
7.515052117112151
 30
0.0
 11
12.28884721502748
 21
2.857919523816287
 31
0.0
  0
DIMENSION
  5
2027
330
1E
100
AcDbEntity
  8
DIM
100
AcDbDimension
  2
*D11
 10
12.2863981767988
 20
7.515052117112155
 30
0.0
 11
11.3332731767988
 21
7.515052117112155
 31
0.0
 70
   160
 71
     5
 42
1.906250000000003
  3
23NSTD
100
AcDbAlignedDimension
 13
10.3801481767988
 23
6.857552117112155
 33
0.0
 14
12.2863981767988
 24
7.357552117112152
 34
0.0
100
AcDbRotatedDimension
1001
ACAD
1000
DSTYLE
1002
{
1070
   279
1070
     0
1002
}
  0
ARC
  5
20D0
330
1E
100
AcDbEntity
  8
HIDDEN
100
AcDbCircle
 10
6.688181431909026
 20
4.607919523816287
 30
0.0
 40
1.25
100
AcDbArc
 50
79.13425513147508
 51
162.16708744396
  0
LWPOLYLINE
  5
21D0
330
1E
100
AcDbEntity
  8
OBJECT
100
AcDbPolyline
 90
        6
 70
     0
 43
0.0
 10
22.25027183538439
 20
6.753552117112149
 10
22.25027183538439
 20
6.707552117112157
 42
-0.4142135623730951
 10
22.12527183538439
 20
6.582552117112157
 10
19.50027183538439
 20
6.582552117112157
 42
-0.4142135623730951
 10
19.37527183538439
 20
6.707552117112157
 10
19.37527183538439
 20
6.753552117112149
  0
LWPOLYLINE
  5
21D1
330
1E
100
AcDbEntity
  8
OBJECT
100
AcDbPolyline
 90
        4
 70
     1
 43
0.0
 10
22.71902183538439
 20
6.753552117112149
 10
22.71902183538439
 20
6.857552117112148
 10
18.90652183538438
 20
6.857552117112155
 10
18.90652183538438
 20
6.753552117112149
  0
LINE
  5
21D2
330
1E
100
AcDbEntity
  8
OBJECT
100
AcDbLine
 10
20.1577718353844
 20
6.330602715654787
 30
0.0
 11
21.46777183538439
 21
6.330602715654784
 31
0.0
  0
LINE
  5
21D3
330
1E
100
AcDbEntity
  8
OBJECT
100
AcDbLine
 10
20.1577718353844
 20
6.221602715654785
 30
0.0
 11
21.46777183538439
 21
6.221602715654785
 31
0.0
  0
ARC
  5
21D4
330
1E
100
AcDbEntity
  8
OBJECT
100
AcDbCircle
 10
20.81522087361307
 20
3.169919523816293
 30
0.0
 40
2.687999999999992
100
AcDbArc
 50
75.52225837755283
 51
104.4777416224471
  0
LINE
  5
21D5
330
1E
100
AcDbEntity
  8
OBJECT
100
AcDbLine
 10
19.81027183538439
 20
6.530602715654786
 30
0.0
 11
21.81527183538439
 21
6.530602715654786
 31
0.0
  0
ARC
  5
21D6
330
1E
100
AcDbEntity
  8
OBJECT
100
AcDbCircle
 10
20.81522087361307
 20
6.04591952381628
 30
0.0
 40
2.687999999999992
100
AcDbArc
 50
255.5222583775528
 51
284.4777416224471
  0
LINE
  5
21D7
330
1E
100
AcDbEntity
  8
OBJECT
100
AcDbLine
 10
20.09671069966123
 20
5.712561446181476
 30
0.0
 11
20.09671069966123
 21
3.503277601451097
 31
0.0
  0
ARC
  5
21D8
330
1E
100
AcDbEntity
  8
OBJECT
100
AcDbCircle
 10
20.15871069191897
 20
3.503308585954975
 30
0.0
 40
0.0620000000000007
100
AcDbArc
 50
180.0286335705874
 51
255.5222583775551
  0
ARC
  5
21D9
330
1E
100
AcDbEntity
  8
OBJECT
100
AcDbCircle
 10
20.25609365834099
 20
6.548631883429492
 30
0.0
 40
0.09375
100
AcDbArc
 50
158.7882459398763
 51
191.0876895098756
  0
ARC
  5
21DA
330
1E
100
AcDbEntity
  8
OBJECT
100
AcDbCircle
 10
20.04642927833062
 20
6.548631883429492
 30
0.0
 40
0.09375
100
AcDbArc
 50
348.9123104901244
 51
21.2117540601239
  0
ARC
  5
21DB
330
1E
100
AcDbEntity
  8
OBJECT
100
AcDbCircle
 10
20.04642927833062
 20
6.548631883429492
 30
0.0
 40
0.09375
100
AcDbArc
 50
158.7882459398763
 51
191.0876895098756
  0
LINE
  5
21DC
330
1E
100
AcDbEntity
  8
OBJECT
100
AcDbLine
 10
19.8927718353844
 20
6.065602715654785
 30
0.0
 11
19.8927718353844
 21
4.232919523816287
 31
0.0
  0
LINE
  5
21DD
330
1E
100
AcDbEntity
  8
OBJECT
100
AcDbLine
 10
20.0017718353844
 20
6.065602715654784
 30
0.0
 11
20.0017718353844
 21
4.232919523816287
 31
0.0
  0
ARC
  5
21DE
330
1E
100
AcDbEntity
  8
OBJECT
100
AcDbCircle
 10
27.58232036759038
 20
6.347222294133946
 30
0.0
 40
7.974925255682599
100
AcDbArc
 50
181.5389922546684
 51
193.5776103705821
  0
LINE
  5
21DF
330
1E
100
AcDbEntity
  8
OBJECT
100
AcDbLine
 10
20.04777183538439
 20
5.107919523816287
 30
0.0
 11
20.04777183538439
 21
4.107919523816294
 31
0.0
  0
ARC
  5
21E0
330
1E
100
AcDbEntity
  8
OBJECT
100
AcDbCircle
 10
27.58232036759038
 20
6.347222294133946
 30
0.0
 40
7.974925255682599
100
AcDbArc
 50
194.4446543338911
 51
195.3740131960837
  0
LINE
  5
21E1
330
1E
100
AcDbEntity
  8
OBJECT
100
AcDbLine
 10
20.04777183538439
 20
4.107919523816294
 30
0.0
 11
20.09671069966123
 21
4.062243250491248
 31
0.0
  0
LINE
  5
21E2
330
1E
100
AcDbEntity
  8
OBJECT
100
AcDbLine
 10
19.89277183538439
 20
4.232919523816287
 30
0.0
 11
20.0017718353844
 21
4.232919523816287
 31
0.0
  0
LINE
  5
21E3
330
1E
100
AcDbEntity
  8
OBJECT
100
AcDbLine
 10
19.8302718353844
 20
4.357919523816287
 30
0.0
 11
19.8302718353844
 21
4.857919523816287
 31
0.0
  0
LINE
  5
21E4
330
1E
100
AcDbEntity
  8
OBJECT
100
AcDbLine
 10
20.0017718353844
 20
4.420919523816289
 30
0.0
 11
20.0477718353844
 21
4.420919523816289
 31
0.0
  0
LINE
  5
21E5
330
1E
100
AcDbEntity
  8
OBJECT
100
AcDbLine
 10
19.8302718353844
 20
4.357919523816287
 30
0.0
 11
19.8927718353844
 21
4.357919523816287
 31
0.0
  0
LINE
  5
21E6
330
1E
100
AcDbEntity
  8
OBJECT
100
AcDbLine
 10
20.0017718353844
 20
4.794919523816291
 30
0.0
 11
20.0477718353844
 21
4.794919523816291
 31
0.0
  0
LINE
  5
21E7
330
1E
100
AcDbEntity
  8
OBJECT
100
AcDbLine
 10
19.8302718353844
 20
4.857919523816287
 30
0.0
 11
19.8927718353844
 21
4.857919523816287
 31
0.0
  0
LINE
  5
21E8
330
1E
100
AcDbEntity
  8
OBJECT
100
AcDbLine
 10
20.04777183538439
 20
5.107919523816287
 30
0.0
 11
20.09671069966123
 21
5.153595797141334
 31
0.0
  0
ARC
  5
21E9
330
1E
100
AcDbEntity
  8
OBJECT
100
AcDbCircle
 10
20.15871069191897
 20
5.712530461677598
 30
0.0
 40
0.0620000000000007
100
AcDbArc
 50
104.4777416224448
 51
179.9713664294125
  0
LINE
  5
21EA
330
1E
100
AcDbEntity
  8
OBJECT
100
AcDbLine
 10
19.6102718353844
 20
6.133037715145095
 30
0.0
 11
19.61027183538439
 21
6.330602715654783
 31
0.0
  0
ARC
  5
21EB
330
1E
100
AcDbEntity
  8
OBJECT
100
AcDbCircle
 10
19.81027183538439
 20
6.330602715654783
 30
0.0
 40
0.2000000000000028
100
AcDbArc
 50
90.0
 51
180.0
  0
ARC
  5
21EC
330
1E
100
AcDbEntity
  8
OBJECT
100
AcDbCircle
 10
20.1577718353844
 20
6.065602715654785
 30
0.0
 40
0.265
100
AcDbArc
 50
90.0
 51
180.0
  0
ARC
  5
21ED
330
1E
100
AcDbEntity
  8
OBJECT
100
AcDbCircle
 10
20.1577718353844
 20
6.065602715654784
 30
0.0
 40
0.156
100
AcDbArc
 50
90.0
 51
180.0
  0
LINE
  5
21EE
330
1E
100
AcDbEntity
  8
OBJECT
100
AcDbLine
 10
21.53373104756491
 20
3.503277601451097
 30
0.0
 11
21.53373104756492
 21
5.712561446181476
 31
0.0
  0
LINE
  5
21EF
330
1E
100
AcDbEntity
  8
CENTER
100
AcDbLine
 10
20.81277183538439
 20
7.515052117112151
 30
0.0
 11
20.81522087361307
 21
2.857919523816287
 31
0.0
  0
ARC
  5
21F0
330
1E
100
AcDbEntity
  8
OBJECT
100
AcDbCircle
 10
21.47173105530717
 20
3.503308585954975
 30
0.0
 40
0.0619999999999988
100
AcDbArc
 50
284.4777416224385
 51
359.9713664294125
  0
ARC
  5
21F3
330
1E
100
AcDbEntity
  8
OBJECT
100
AcDbCircle
 10
21.59499309348096
 20
6.548631883429492
 30
0.0
 40
0.09375
100
AcDbArc
 50
348.9123104901244
 51
21.2117540601239
  0
ARC
  5
21F4
330
1E
100
AcDbEntity
  8
OBJECT
100
AcDbCircle
 10
21.59499309348096
 20
6.548631883429492
 30
0.0
 40
0.09375
100
AcDbArc
 50
158.7882459398763
 51
191.0876895098756
  0
ARC
  5
21F5
330
1E
100
AcDbEntity
  8
OBJECT
100
AcDbCircle
 10
21.34879952360209
 20
6.548631883429492
 30
0.0
 40
0.09375
100
AcDbArc
 50
348.9123104901244
 51
21.2117540601239
  0
ARC
  5
21F6
330
1E
100
AcDbEntity
  8
OBJECT
100
AcDbCircle
 10
21.12257396578481
 20
6.548631883429492
 30
0.0
 40
0.09375
100
AcDbArc
 50
348.9123104901244
 51
21.2117540601239
  0
ARC
  5
21F7
330
1E
100
AcDbEntity
  8
OBJECT
100
AcDbCircle
 10
21.34879952360209
 20
6.548631883429492
 30
0.0
 40
0.09375
100
AcDbArc
 50
158.7882459398761
 51
191.0876895098756
  0
ARC
  5
21F8
330
1E
100
AcDbEntity
  8
OBJECT
100
AcDbCircle
 10
21.12257396578481
 20
6.548631883429492
 30
0.0
 40
0.09375
100
AcDbArc
 50
158.7882459398763
 51
191.0876895098756
  0
ARC
  5
21F9
330
1E
100
AcDbEntity
  8
OBJECT
100
AcDbCircle
 10
20.89839884260794
 20
6.548631883429492
 30
0.0
 40
0.09375
100
AcDbArc
 50
348.9123104901244
 51
21.2117540601239
  0
ARC
  5
21FA
330
1E
100
AcDbEntity
  8
OBJECT
100
AcDbCircle
 10
20.89839884260794
 20
6.548631883429492
 30
0.0
 40
0.09375
100
AcDbArc
 50
158.7882459398761
 51
191.0876895098756
  0
ARC
  5
21FB
330
1E
100
AcDbEntity
  8
OBJECT
100
AcDbCircle
 10
20.68540644248991
 20
6.548631883429492
 30
0.0
 40
0.09375
100
AcDbArc
 50
348.9123104901244
 51
21.2117540601239
  0
ARC
  5
21FC
330
1E
100
AcDbEntity
  8
OBJECT
100
AcDbCircle
 10
20.68540644248991
 20
6.548631883429492
 30
0.0
 40
0.09375
100
AcDbArc
 50
158.7882459398763
 51
191.0876895098756
  0
ARC
  5
21FD
330
1E
100
AcDbEntity
  8
OBJECT
100
AcDbCircle
 10
20.46908604036162
 20
6.548631883429492
 30
0.0
 40
0.09375
100
AcDbArc
 50
348.9123104901244
 51
21.2117540601239
  0
ARC
  5
21FE
330
1E
100
AcDbEntity
  8
OBJECT
100
AcDbCircle
 10
20.46908604036162
 20
6.548631883429492
 30
0.0
 40
0.09375
100
AcDbArc
 50
158.7882459398763
 51
191.0876895098756
  0
ARC
  5
21FF
330
1E
100
AcDbEntity
  8
OBJECT
100
AcDbCircle
 10
20.25609365834099
 20
6.548631883429492
 30
0.0
 40
0.09375
100
AcDbArc
 50
348.9123104901244
 51
21.2117540601239
  0
LINE
  5
2201
330
1E
100
AcDbEntity
  8
OBJECT
100
AcDbLine
 10
21.6237718353844
 20
6.065602715654785
 30
0.0
 11
21.6237718353844
 21
4.232919523816287
 31
0.0
  0
LINE
  5
2202
330
1E
100
AcDbEntity
  8
OBJECT
100
AcDbLine
 10
21.57777183538439
 20
5.107919523816287
 30
0.0
 11
21.57777183538439
 21
4.107919523816294
 31
0.0
  0
LINE
  5
2203
330
1E
100
AcDbEntity
  8
OBJECT
100
AcDbLine
 10
21.73277183538439
 20
6.065602715654784
 30
0.0
 11
21.73277183538439
 21
4.232919523816287
 31
0.0
  0
ARC
  5
2204
330
1E
100
AcDbEntity
  8
OBJECT
100
AcDbCircle
 10
14.04322330317841
 20
6.347222294133946
 30
0.0
 40
7.974925255682599
100
AcDbArc
 50
346.4223896294179
 51
358.4610077453323
  0
ARC
  5
2205
330
1E
100
AcDbEntity
  8
OBJECT
100
AcDbCircle
 10
14.04322330317841
 20
6.347222294133946
 30
0.0
 40
7.974925255682599
100
AcDbArc
 50
344.6259868039162
 51
345.5553456661088
  0
LINE
  5
2206
330
1E
100
AcDbEntity
  8
OBJECT
100
AcDbLine
 10
21.57777183538439
 20
4.107919523816294
 30
0.0
 11
21.53373104756492
 21
4.066814788518115
 31
0.0
  0
LINE
  5
2207
330
1E
100
AcDbEntity
  8
OBJECT
100
AcDbLine
 10
21.6237718353844
 20
4.232919523816287
 30
0.0
 11
21.7327718353844
 21
4.232919523816287
 31
0.0
  0
LINE
  5
2208
330
1E
100
AcDbEntity
  8
OBJECT
100
AcDbLine
 10
21.7327718353844
 20
4.857919523816287
 30
0.0
 11
21.79527183538439
 21
4.857919523816287
 31
0.0
  0
LINE
  5
2209
330
1E
100
AcDbEntity
  8
OBJECT
100
AcDbLine
 10
21.79527183538439
 20
4.357919523816287
 30
0.0
 11
21.7327718353844
 21
4.357919523816287
 31
0.0
  0
LINE
  5
220A
330
1E
100
AcDbEntity
  8
OBJECT
100
AcDbLine
 10
21.73277183538439
 20
4.357919523816287
 30
0.0
 11
21.79527183538439
 21
4.357919523816287
 31
0.0
  0
LINE
  5
220B
330
1E
100
AcDbEntity
  8
OBJECT
100
AcDbLine
 10
21.57777183538439
 20
4.420919523816289
 30
0.0
 11
21.6237718353844
 21
4.420919523816289
 31
0.0
  0
LINE
  5
220C
330
1E
100
AcDbEntity
  8
OBJECT
100
AcDbLine
 10
21.57777183538439
 20
4.794919523816291
 30
0.0
 11
21.6237718353844
 21
4.794919523816291
 31
0.0
  0
LINE
  5
220D
330
1E
100
AcDbEntity
  8
OBJECT
100
AcDbLine
 10
21.79527183538439
 20
4.357919523816287
 30
0.0
 11
21.79527183538439
 21
4.857919523816287
 31
0.0
  0
LINE
  5
220E
330
1E
100
AcDbEntity
  8
OBJECT
100
AcDbLine
 10
21.57777183538439
 20
5.107919523816287
 30
0.0
 11
21.53373104756492
 21
5.149024259114463
 31
0.0
  0
ARC
  5
220F
330
1E
100
AcDbEntity
  8
OBJECT
100
AcDbCircle
 10
21.47173105530717
 20
5.712530461677598
 30
0.0
 40
0.0619999999999988
100
AcDbArc
 50
0.0286335705874655
 51
75.52225837756147
  0
ARC
  5
2211
330
1E
100
AcDbEntity
  8
OBJECT
100
AcDbCircle
 10
21.46777183538439
 20
6.065602715654784
 30
0.0
 40
0.265
100
AcDbArc
 50
0.0
 51
89.99999999999998
  0
ARC
  5
2212
330
1E
100
AcDbEntity
  8
OBJECT
100
AcDbCircle
 10
21.46777183538439
 20
6.065602715654784
 30
0.0
 40
0.156
100
AcDbArc
 50
0.0
 51
90.0
  0
LINE
  5
2213
330
1E
100
AcDbEntity
  8
OBJECT
100
AcDbLine
 10
22.01527183538439
 20
6.133037715145222
 30
0.0
 11
22.01527183538439
 21
6.330602715654783
 31
0.0
  0
ARC
  5
2214
330
1E
100
AcDbEntity
  8
OBJECT
100
AcDbCircle
 10
21.81527183538439
 20
6.330602715654786
 30
0.0
 40
0.1999999999999993
100
AcDbArc
 50
359.9999999999989
 51
90.0
  0
LINE
  5
223B
330
1E
100
AcDbEntity
  8
DIM
100
AcDbLine
 10
18.82690349370658
 20
8.421977146401147
 30
0.0
 11
18.82690349370658
 21
6.859977146401149
 31
0.0
  0
LINE
  5
223C
330
1E
100
AcDbEntity
  8
DIM
100
AcDbLine
 10
18.82690349370658
 20
6.859977146401149
 30
0.0
 11
19.82690349370658
 21
6.859977146401148
 31
0.0
  0
LINE
  5
223D
330
1E
100
AcDbEntity
  8
DIM
100
AcDbLine
 10
22.82690349370658
 20
8.421977146401147
 30
0.0
 11
22.82690349370658
 21
6.859977146401149
 31
0.0
  0
LINE
  5
223E
330
1E
100
AcDbEntity
  8
DIM
100
AcDbLine
 10
18.93590349370658
 20
8.312977146401149
 30
0.0
 11
18.93590349370658
 21
6.968977146401149
 31
0.0
  0
LINE
  5
223F
330
1E
100
AcDbEntity
  8
DIM
100
AcDbLine
 10
22.71790349370658
 20
8.312977146401149
 30
0.0
 11
22.71790349370657
 21
6.968977146401149
 31
0.0
  0
LINE
  5
2240
330
1E
100
AcDbEntity
  8
DIM
100
AcDbLine
 10
19.82690349370658
 20
6.968977146401149
 30
0.0
 11
19.82690349370658
 21
6.859977146401149
 31
0.0
  0
LINE
  5
2241
330
1E
100
AcDbEntity
  8
DIM
100
AcDbLine
 10
21.82690349370658
 20
6.968977146401149
 30
0.0
 11
21.82690349370658
 21
6.859977146401149
 31
0.0
  0
LINE
  5
2242
330
1E
100
AcDbEntity
  8
DIM
100
AcDbLine
 10
18.93590349370658
 20
6.968977146401149
 30
0.0
 11
19.82690349370658
 21
6.968977146401148
 31
0.0
  0
LINE
  5
2243
330
1E
100
AcDbEntity
  8
DIM
100
AcDbLine
 10
18.82690349370658
 20
8.421977146401149
 30
0.0
 11
22.82690349370658
 21
8.421977146401149
 31
0.0
  0
LINE
  5
2244
330
1E
100
AcDbEntity
  8
DIM
100
AcDbLine
 10
18.93590349370658
 20
8.312977146401149
 30
0.0
 11
22.71790349370658
 21
8.312977146401149
 31
0.0
  0
LINE
  5
2245
330
1E
100
AcDbEntity
  8
DIM
100
AcDbLine
 10
21.82690349370658
 20
6.968977146401149
 30
0.0
 11
22.71790349370657
 21
6.968977146401149
 31
0.0
  0
LINE
  5
2246
330
1E
100
AcDbEntity
  8
DIM
100
AcDbLine
 10
21.82690349370658
 20
6.859977146401149
 30
0.0
 11
22.82690349370658
 21
6.859977146401149
 31
0.0
  0
DIMENSION
  5
2247
330
1E
100
AcDbEntity
  8
DIM
100
AcDbDimension
  2
*D12
 10
22.82690349370658
 20
8.983947355853452
 30
0.0
 11
20.82690349370658
 21
8.983947355853452
 31
0.0
 70
    32
 71
     5
 42
4.0
  3
23NSTD
100
AcDbAlignedDimension
 13
18.82690349370658
 23
8.421977146401149
 33
0.0
 14
22.82690349370658
 24
8.421977146401147
 34
0.0
100
AcDbRotatedDimension
  0
DIMENSION
  5
2255
330
1E
100
AcDbEntity
  8
DIM
100
AcDbDimension
  2
*D13
 10
23.46451711206509
 20
6.859977146401149
 30
0.0
 11
23.46451711206509
 21
7.640977146401152
 31
0.0
 70
    32
 71
     5
 42
1.561999999999999
  3
23NSTD
100
AcDbAlignedDimension
 13
22.82690349370658
 23
8.421977146401149
 33
0.0
 14
22.82690349370658
 24
6.859977146401149
 34
0.0
 50
90.0
100
AcDbRotatedDimension
  0
DIMENSION
  5
228D
330
1E
100
AcDbEntity
  8
DIM
100
AcDbDimension
  2
*D14
 10
18.01359896571122
 20
3.357919536676102
 30
0.0
 11
18.01359896571122
 21
5.889948341538628
 31
0.0
 70
    32
 71
     5
 42
5.064057609725043
  3
23NSTD
100
AcDbAlignedDimension
 13
18.82690349370658
 23
8.421977146401147
 33
0.0
 14
20.81495793947467
 24
3.357919536676102
 34
0.0
 50
90.0
100
AcDbRotatedDimension
  0
LEADER
  5
229B
330
1E
100
AcDbEntity
  8
DIM
100
AcDbLeader
  3
23NSTD
 73
     0
 75
     1
 40
0.3125000000000001
 41
1.953125
 76
     3
 10
18.82690349370658
 20
8.421977146401147
 30
0.0
 10
18.29550823935355
 20
9.452736032665377
 30
0.0
 10
17.84550823935355
 20
9.452736032665377
 30
0.0
340
229C
1001
ACAD
1000
DSTYLE
1002
{
1070
   147
1040
0.09
1070
    77
1070
     0
1002
}
  0
MTEXT
  5
229C
102
{ACAD_REACTORS
330
229B
102
}
330
1E
100
AcDbEntity
  8
DIM
100
AcDbMText
 10
17.62050823935355
 20
9.452736032665377
 30
0.0
 40
0.3125
 41
0.9509999999999999
 71
     6
 72
     1
  1
7761-MB-B
 73
     1
 44
1.0
  0
TEXT
  5
22A3
330
1E
100
AcDbEntity
  8
TEXT
100
AcDbText
 10
17.21491873118661
 20
15.22968400397004
 30
0.0
 40
0.3125
  1
CASTER KIT INCLUDES:
 41
0.75
100
AcDbText
  0
TEXT
  5
22B0
330
1E
100
AcDbEntity
  8
TEXT
100
AcDbText
 10
17.2539043369509
 20
14.10006192494075
 30
0.0
 40
0.3125
  1
(2) MOUNTING BRACKETS (7761-MB-B)
 41
0.75
100
AcDbText
  0
TEXT
  5
22B6
330
1E
100
AcDbEntity
  8
TEXT
100
AcDbText
 10
17.2539043369509
 20
13.55472711637178
 30
0.0
 40
0.3125
  1
(1) HARDWARE KIT (55463)
 41
0.75
100
AcDbText
  0
TEXT
  5
22BD
330
1E
100
AcDbEntity
  8
TEXT
100
AcDbText
 10
19.04724268312779
 20
12.191390140034
 30
0.0
 40
0.3125
  1
(8) 1/4-20x2.25 BOLT
 41
0.75
100
AcDbText
  0
TEXT
  5
22C3
330
1E
100
AcDbEntity
  8
TEXT
100
AcDbText
 10
19.00825707736351
 20
12.77567744136998
 30
0.0
 40
0.3125
  1
HARDWARE KIT INCLUDES:
 41
0.75
100
AcDbText
  0
TEXT
  5
22C9
330
1E
100
AcDbEntity
  8
TEXT
100
AcDbText
 10
19.08622828889209
 20
11.60710283869801
 30
0.0
 40
0.3125
  1
(8) 1/4-20 KEPS NUT
 41
0.75
100
AcDbText
  0
TEXT
  5
22CF
330
1E
100
AcDbEntity
  8
TEXT
100
AcDbText
 10
19.08622828889209
 20
11.06176807521369
 30
0.0
 40
0.3125
  1
(8) 1/4 FLAT WASHER
 41
0.75
100
AcDbText
  0
TEXT
  5
22D6
330
1E
100
AcDbEntity
  8
TEXT
100
AcDbText
 10
19.12521389465637
 20
10.51643326664471
 30
0.0
 40
0.3125
  1
INSTRUCTION SHEET
 41
0.75
100
AcDbText
  0
LINE
  5
22DC
330
1E
100
AcDbEntity
  8
CENTER
100
AcDbLine
 10
19.17925530884617
 20
7.515052117112151
 30
0.0
 11
19.17987761923928
 21
7.191161636010577
 31
0.0
  0
LINE
  5
22DD
330
1E
100
AcDbEntity
  8
CENTER
100
AcDbLine
 10
22.47800912471995
 20
7.515052117112151
 30
0.0
 11
22.47867852456423
 21
7.175315619377323
 31
0.0
  0
LINE
  5
22DE
330
1E
100
AcDbEntity
  8
CENTER
100
AcDbLine
 10
19.18006392262529
 20
7.094197333317914
 30
0.0
 11
19.18070982954217
 21
6.758025698757305
 31
0.0
  0
LINE
  5
22DF
330
1E
100
AcDbEntity
  8
CENTER
100
AcDbLine
 10
19.18100410593944
 20
6.604865274403816
 30
0.0
 11
19.18170434707485
 21
6.2404146067826
 31
0.0
  0
LINE
  5
22E0
330
1E
100
AcDbEntity
  8
CENTER
100
AcDbLine
 10
22.47998990435149
 20
6.509758882348201
 30
0.0
 11
22.48045816294863
 21
6.272106398279944
 31
0.0
  0
LINE
  5
22E1
330
1E
100
AcDbEntity
  8
CENTER
100
AcDbLine
 10
22.47940912592875
 20
6.857552117112148
 30
0.0
 11
22.47949712728102
 21
6.759855080483193
 31
0.0
  0
ENDSEC
  0
SECTION
  2
OBJECTS
  0
DICTIONARY
  5
C
330
0
100
AcDbDictionary
281
     1
  3
ACAD_GROUP
350
D
  3
ACAD_LAYOUT
350
19
  3
ACAD_MLINESTYLE
350
16
  3
ACAD_PLOTSETTINGS
350
18
  3
ACAD_PLOTSTYLENAME
350
E
  0
DICTIONARY
  5
D
102
{ACAD_REACTORS
330
C
102
}
330
C
100
AcDbDictionary
281
     1
  0
DICTIONARY
  5
19
102
{ACAD_REACTORS
330
C
102
}
330
C
100
AcDbDictionary
281
     1
  3
Layout1
350
1D
  3
Model
350
21
  0
DICTIONARY
  5
16
102
{ACAD_REACTORS
330
C
102
}
330
C
100
AcDbDictionary
281
     1
  3
Standard
350
17
  0
DICTIONARY
  5
18
102
{ACAD_REACTORS
330
C
102
}
330
C
100
AcDbDictionary
281
     1
  0
ACDBDICTIONARYWDFLT
  5
E
102
{ACAD_REACTORS
330
C
102
}
330
C
100
AcDbDictionary
281
     1
  3
Normal
350
F
100
AcDbDictionaryWithDefault
340
F
  0
LAYOUT
  5
1D
102
{ACAD_REACTORS
330
19
102
}
330
19
100
AcDbPlotSettings
  1

  2
HP DesignJet 430 (D/A1) by HP
  4

  6

 40
0.0
 41
0.0
 42
0.0
 43
0.0
 44
0.0
 45
0.0
 46
0.0
 47
0.0
 48
0.0
 49
0.0
140
0.0
141
0.0
142
1.0
143
1.0
 70
   688
 72
     0
 73
     0
 74
     5
  7
monochrome.ctb
 75
    16
147
1.0
148
0.0
149
0.0
100
AcDbLayout
  1
Layout1
 70
     0
 71
     1
 10
0.0
 20
0.0
 11
12.0
 21
9.0
 12
0.0
 22
0.0
 32
0.0
 14
1.000000000000000E+20
 24
1.000000000000000E+20
 34
1.000000000000000E+20
 15
-1.000000000000000E+20
 25
-1.000000000000000E+20
 35
-1.000000000000000E+20
146
0.0
 13
0.0
 23
0.0
 33
0.0
 16
1.0
 26
0.0
 36
0.0
 17
0.0
 27
1.0
 37
0.0
 76
     0
330
1A
  0
LAYOUT
  5
21
102
{ACAD_REACTORS
330
19
102
}
330
19
100
AcDbPlotSettings
  1

  2
Auto RICOH Aficio 1060 PCL 5e on RICOH
  4
Tabloid
  6

 40
7.143749713897705
 41
5.027085304260253
 42
7.651763916015625
 43
5.027069091796875
 44
279.3999938964843
 45
431.7999877929687
 46
0.0
 47
109.4739999999999
 48
0.0
 49
0.0
140
0.0
141
0.0
142
1.0
143
2.399040208323601
 70
 11956
 72
     0
 73
     0
 74
     1
  7
monochrome.ctb
 75
     0
147
0.4168333638304374
148
0.0052353069096682
149
0.0002403764750767
100
AcDbLayout
  1
Model
 70
     1
 71
     0
 10
0.0
 20
0.0
 11
12.0
 21
9.0
 12
0.0
 22
0.0
 32
0.0
 14
0.0
 24
0.0
 34
0.0
 15
0.0
 25
0.0
 35
0.0
146
0.0
 13
0.0
 23
0.0
 33
0.0
 16
1.0
 26
0.0
 36
0.0
 17
0.0
 27
1.0
 37
0.0
 76
     0
330
1E
  0
MLINESTYLE
  5
17
102
{ACAD_REACTORS
330
16
102
}
330
16
100
AcDbMlineStyle
  2
STANDARD
 70
     0
  3

 62
   256
 51
90.0
 52
90.0
 71
     2
 49
0.5
 62
   256
  6
BYLAYER
 49
-0.5
 62
   256
  6
BYLAYER
  0
ACDBPLACEHOLDER
  5
F
102
{ACAD_REACTORS
330
E
102
}
330
E
  0
ENDSEC
  0
EOF
