  0
SECTION
  2
HEADER
  9
$ACADVER
  1
AC1009
  9
$INSBASE
 10
0.0
 20
0.0
 30
0.0
  9
$EXTMIN
 10
0.0
 20
0.0
 30
0.0
  9
$EXTMAX
 10
10.12
 20
15.5
 30
0.0
  9
$LIMMIN
 10
0.0
 20
0.0
  9
$LIMMAX
 10
15.5
 20
15.5
  9
$ORTHOMODE
 70
     1
  9
$REGENMODE
 70
     1
  9
$FILLMODE
 70
     1
  9
$QTEXTMODE
 70
     0
  9
$MIRRTEXT
 70
     0
  9
$DRAGMODE
 70
     2
  9
$LTSCALE
 40
0.25
  9
$OSMODE
 70
     0
  9
$ATTMODE
 70
     1
  9
$TEXTSIZE
 40
0.125
  9
$TRACEWID
 40
0.05
  9
$TEXTSTYLE
  7
TXT
  9
$CLAYER
  8
DIM
  9
$CELTYPE
  6
BYLAYER
  9
$CECOLOR
 62
   256
  9
$DIMSCALE
 40
1.0
  9
$DIMASZ
 40
0.18
  9
$DIMEXO
 40
0.063
  9
$DIMDLI
 40
0.38
  9
$DIMRND
 40
0.0
  9
$DIMDLE
 40
0.0
  9
$DIMEXE
 40
0.093
  9
$DIMTP
 40
0.0
  9
$DIMTM
 40
0.0
  9
$DIMTXT
 40
0.125
  9
$DIMCEN
 40
0.09
  9
$DIMTSZ
 40
0.0
  9
$DIMTOL
 70
     0
  9
$DIMLIM
 70
     0
  9
$DIMTIH
 70
     1
  9
$DIMTOH
 70
     1
  9
$DIMSE1
 70
     0
  9
$DIMSE2
 70
     0
  9
$DIMTAD
 70
     0
  9
$DIMZIN
 70
     0
  9
$DIMBLK
  1

  9
$DIMASO
 70
     1
  9
$DIMSHO
 70
     1
  9
$DIMPOST
  1

  9
$DIMAPOST
  1

  9
$DIMALT
 70
     0
  9
$DIMALTD
 70
     2
  9
$DIMALTF
 40
25.4
  9
$DIMLFAC
 40
1.0
  9
$DIMTOFL
 70
     0
  9
$DIMTVP
 40
0.0
  9
$DIMTIX
 70
     1
  9
$DIMSOXD
 70
     0
  9
$DIMSAH
 70
     0
  9
$DIMBLK1
  1

  9
$DIMBLK2
  1

  9
$DIMSTYLE
  2
23NSTD
  9
$DIMCLRD
 70
     0
  9
$DIMCLRE
 70
     0
  9
$DIMCLRT
 70
     0
  9
$DIMTFAC
 40
1.0
  9
$DIMGAP
 40
0.09
  9
$LUNITS
 70
     2
  9
$LUPREC
 70
     3
  9
$SKETCHINC
 40
0.1
  9
$FILLETRAD
 40
0.5
  9
$AUNITS
 70
     0
  9
$AUPREC
 70
     3
  9
$MENU
  1
acad
  9
$ELEVATION
 40
0.0
  9
$PELEVATION
 40
0.0
  9
$THICKNESS
 40
0.0
  9
$LIMCHECK
 70
     0
  9
$BLIPMODE
 70
     1
  9
$CHAMFERA
 40
0.0
  9
$CHAMFERB
 40
0.0
  9
$SKPOLY
 70
     0
  9
$TDCREATE
 40
2449874.396014699
  9
$TDUPDATE
 40
2449874.396014699
  9
$TDINDWG
 40
0.0000000000
  9
$TDUSRTIMER
 40
0.0000000000
  9
$USRTIMER
 70
     1
  9
$ANGBASE
 50
0.0
  9
$ANGDIR
 70
     0
  9
$PDMODE
 70
     0
  9
$PDSIZE
 40
0.0
  9
$PLINEWID
 40
0.0
  9
$COORDS
 70
     1
  9
$SPLFRAME
 70
     0
  9
$SPLINETYPE
 70
     6
  9
$SPLINESEGS
 70
     8
  9
$ATTDIA
 70
     1
  9
$ATTREQ
 70
     1
  9
$HANDLING
 70
     0
  9
$HANDSEED
  5
0
  9
$SURFTAB1
 70
     6
  9
$SURFTAB2
 70
     6
  9
$SURFTYPE
 70
     6
  9
$SURFU
 70
     6
  9
$SURFV
 70
     6
  9
$UCSNAME
  2

  9
$UCSORG
 10
0.0
 20
0.0
 30
0.0
  9
$UCSXDIR
 10
1.0
 20
0.0
 30
0.0
  9
$UCSYDIR
 10
0.0
 20
1.0
 30
0.0
  9
$PUCSNAME
  2

  9
$PUCSORG
 10
0.0
 20
0.0
 30
0.0
  9
$PUCSXDIR
 10
1.0
 20
0.0
 30
0.0
  9
$PUCSYDIR
 10
0.0
 20
1.0
 30
0.0
  9
$USERI1
 70
     0
  9
$USERI2
 70
     0
  9
$USERI3
 70
     0
  9
$USERI4
 70
     0
  9
$USERI5
 70
     0
  9
$USERR1
 40
0.0
  9
$USERR2
 40
0.0
  9
$USERR3
 40
0.0
  9
$USERR4
 40
0.0
  9
$USERR5
 40
0.0
  9
$WORLDVIEW
 70
     1
  9
$SHADEDGE
 70
     3
  9
$SHADEDIF
 70
    70
  9
$TILEMODE
 70
     1
  9
$MAXACTVP
 70
    16
  9
$PINSBASE
 10
0.0
 20
0.0
 30
0.0
  9
$PLIMCHECK
 70
     0
  9
$PEXTMIN
 10
1.000000E+20
 20
1.000000E+20
 30
1.000000E+20
  9
$PEXTMAX
 10
-1.000000E+20
 20
-1.000000E+20
 30
-1.000000E+20
  9
$PLIMMIN
 10
0.0
 20
0.0
  9
$PLIMMAX
 10
12.0
 20
9.0
  9
$UNITMODE
 70
     0
  9
$VISRETAIN
 70
     0
  9
$PLINEGEN
 70
     0
  9
$PSLTSCALE
 70
     1
  9
$TREEDEPTH
 70
  3020
  9
$DWGCODEPAGE
  3
ascii
  0
ENDSEC
  0
SECTION
  2
TABLES
  0
TABLE
  2
VPORT
 70
     2
  0
VPORT
  2
*ACTIVE
 70
     0
 10
0.0
 20
0.0
 11
1.0
 21
1.0
 12
10.558131
 22
7.75
 13
0.0
 23
0.0
 14
1.0
 24
1.0
 15
0.0
 25
0.0
 16
0.0
 26
0.0
 36
1.0
 17
0.0
 27
0.0
 37
0.0
 40
15.5
 41
1.36234
 42
50.0
 43
0.0
 44
0.0
 50
0.0
 51
0.0
 71
     0
 72
   100
 73
     1
 74
     0
 75
     0
 76
     0
 77
     0
 78
     0
  0
ENDTAB
  0
TABLE
  2
LTYPE
 70
     4
  0
LTYPE
  2
CONTINUOUS
 70
    64
  3
Solid line
 72
    65
 73
     0
 40
0.0
  0
LTYPE
  2
HIDDEN
 70
    64
  3
_ _ _ _ _ _ _ _ _ _ _ _ _ _ _ _ _ _ _ _ _ _ _
 72
    65
 73
     2
 40
0.375
 49
0.25
 49
-0.125
  0
LTYPE
  2
PHANTOM
 70
    64
  3
_____ _ _ _____ _ _ _____ _ _ _____ _ _ ____
 72
    65
 73
     6
 40
2.5
 49
1.25
 49
-0.25
 49
0.25
 49
-0.25
 49
0.25
 49
-0.25
  0
LTYPE
  2
CENTER
 70
    64
  3
____ _ ____ _ ____ _ ____ _ ____ _ ____ _ ____
 72
    65
 73
     4
 40
2.0
 49
1.25
 49
-0.25
 49
0.25
 49
-0.25
  0
ENDTAB
  0
TABLE
  2
LAYER
 70
     9
  0
LAYER
  2
0
 70
    64
 62
     7
  6
CONTINUOUS
  0
LAYER
  2
OBJECT
 70
    64
 62
     7
  6
CONTINUOUS
  0
LAYER
  2
DIM
 70
    64
 62
     7
  6
CONTINUOUS
  0
LAYER
  2
HIDDEN
 70
    64
 62
     7
  6
HIDDEN
  0
LAYER
  2
BEND
 70
    64
 62
     7
  6
PHANTOM
  0
LAYER
  2
TEXT
 70
    64
 62
     7
  6
CONTINUOUS
  0
LAYER
  2
TITLE
 70
    64
 62
     7
  6
CONTINUOUS
  0
LAYER
  2
CENTER
 70
    64
 62
     7
  6
CENTER
  0
LAYER
  2
DEFPOINTS
 70
    64
 62
    -7
  6
CONTINUOUS
  0
ENDTAB
  0
TABLE
  2
STYLE
 70
     2
  0
STYLE
  2
STANDARD
 70
    64
 40
0.0
 41
0.75
 50
0.0
 71
     0
 42
0.2
  3
TXT.shx
  4

  0
STYLE
  2
TXT
 70
    64
 40
0.0
 41
0.75
 50
0.0
 71
     0
 42
0.125
  3
TXT.shx
  4

  0
ENDTAB
  0
TABLE
  2
VIEW
 70
     0
  0
ENDTAB
  0
TABLE
  2
UCS
 70
     0
  0
ENDTAB
  0
TABLE
  2
APPID
 70
     1
  0
APPID
  2
ACAD
 70
    64
  0
ENDTAB
  0
TABLE
  2
DIMSTYLE
 70
     3
  0
DIMSTYLE
  2
STD
 70
     0
  3

  4

  5

  6

  7

 40
3.0
 41
0.18
 42
0.063
 43
0.38
 44
0.093
 45
0.0
 46
0.0
 47
0.0
 48
0.0
140
0.125
141
0.09
142
0.0
143
25.4
144
1.0
145
0.0
146
1.0
147
0.09
 71
     0
 72
     0
 73
     1
 74
     1
 75
     0
 76
     0
 77
     0
 78
     0
170
     0
171
     2
172
     0
173
     0
174
     0
175
     0
176
     0
177
     0
178
     0
  0
DIMSTYLE
  2
DIM
 70
     0
  3

  4

  5

  6

  7

 40
3.0
 41
0.18
 42
0.063
 43
0.38
 44
0.093
 45
0.0
 46
0.0
 47
0.0
 48
0.0
140
0.125
141
0.09
142
0.0
143
25.4
144
1.0
145
0.0
146
1.0
147
0.09
 71
     0
 72
     0
 73
     1
 74
     1
 75
     0
 76
     0
 77
     0
 78
     0
170
     0
171
     2
172
     0
173
     0
174
     1
175
     0
176
     0
177
     0
178
     0
  0
DIMSTYLE
  2
23NSTD
 70
    64
  3

  4

  5

  6

  7

 40
1.0
 41
0.18
 42
0.063
 43
0.38
 44
0.093
 45
0.0
 46
0.0
 47
0.0
 48
0.0
140
0.125
141
0.09
142
0.0
143
25.4
144
1.0
145
0.0
146
1.0
147
0.09
 71
     0
 72
     0
 73
     1
 74
     1
 75
     0
 76
     0
 77
     0
 78
     0
170
     0
171
     2
172
     0
173
     0
174
     1
175
     0
176
     0
177
     0
178
     0
  0
ENDTAB
  0
ENDSEC
  0
SECTION
  2
BLOCKS
  0
BLOCK
  8
0
  2
B
 70
     2
 10
0.0
 20
0.0
 30
0.0
  3
B
  0
ATTDEF
  8
TEXT
 10
10.305976
 20
0.539405
 30
0.0
 40
0.125
  1
TNT
  3
ENTER INITIALS
  2
NAME
 70
     4
 41
0.75
 72
     1
 11
10.477851
 21
0.539405
 31
0.0
  0
ATTDEF
  8
TEXT
 10
11.001361
 20
0.539405
 30
0.0
 40
0.125
  1

  3
ENTER DATE
  2
DATE
 70
     4
 41
0.75
 72
     1
 11
11.173236
 21
0.539405
 31
0.0
  0
ATTDEF
  8
TEXT
 10
14.199248
 20
0.738288
 30
0.0
 40
0.125
  1

  3
ENTER TITLE LINE #1
  2
TITLE1
 70
     4
 41
0.75
 72
     1
 11
14.433623
 21
0.738288
 31
0.0
  0
ATTDEF
  8
TEXT
 10
14.183623
 20
0.510992
 30
0.0
 40
0.125
  1
 
  3
ENTER TITLE LINE #2
  2
TITLE2
 70
     4
 41
0.75
 72
     1
 11
14.433623
 21
0.510992
 31
0.0
  0
ATTDEF
  8
TEXT
 10
14.41092
 20
0.118174
 30
0.0
 40
0.156
  1
 
  3
ENTER PART #
  2
PART
 70
     4
 41
0.75
 72
     1
 11
14.62542
 21
0.118174
 31
0.0
  0
ATTDEF
  8
TEXT
 10
14.41092
 20
9.797641
 30
0.0
 40
0.156
  1

  3
ENTER PART #
  2
PART
 70
     4
 41
0.75
 72
     1
 11
14.62542
 21
9.797641
 31
0.0
  0
ATTDEF
  8
TEXT
 10
6.056898
 20
1.182012
 30
0.0
 40
0.125
  1

  3
ENTER CUT SIZE
  2
CUTSIZE
 70
     4
 41
4.936416
 72
     5
 11
9.964894
 21
1.182012
 31
0.0
  0
ATTDEF
  8
TEXT
 10
6.069371
 20
0.286779
 30
0.0
 40
0.125
  1

  3
ENTER QUANTITY
  2
QTY
 70
     4
 41
0.75
 72
     1
 11
6.194371
 21
0.286779
 31
0.0
  0
ATTDEF
  8
TEXT
 10
6.967179
 20
0.286779
 30
0.0
 40
0.125
  1

  3
ENTER "USED ON" PART #
  2
USED
 70
     4
 41
0.75
 72
     1
 11
7.139054
 21
0.286779
 31
0.0
  0
ATTDEF
  8
TEXT
 10
10.958356
 20
0.955532
 30
0.0
 40
0.125
  1
AS NOTED
  3
ENTER MATERIAL
  2
MAT
 70
     4
 41
0.75
 72
     1
 11
11.083356
 21
0.955532
 31
0.0
  0
ATTDEF
  8
TEXT
 10
10.848981
 20
0.743654
 30
0.0
 40
0.125
  1
SEE SPEC.
  3
ENTER FINISH
  2
FINISH
 70
     4
 41
0.75
 72
     1
 11
11.083356
 21
0.743654
 31
0.0
  0
LINE
  8
TITLE
 10
15.5
 20
0.0
 30
0.0
 11
15.5
 21
10.12
 31
0.0
  0
LINE
  8
TITLE
 10
0.0
 20
10.12
 30
0.0
 11
0.0
 21
0.0
 31
0.0
  0
LINE
  8
TITLE
 10
0.0
 20
0.0
 30
0.0
 11
15.5
 21
0.0
 31
0.0
  0
LINE
  8
TITLE
 10
0.0
 20
10.12
 30
0.0
 11
15.5
 21
10.12
 31
0.0
  0
LINE
  8
TITLE
 10
6.02
 20
1.377
 30
0.0
 11
6.02
 21
0.0
 31
0.0
  0
LINE
  8
TITLE
 62
     8
 10
13.6875
 20
9.4325
 30
0.0
 11
13.6875
 21
9.6825
 31
0.0
  0
TEXT
  8
TITLE
 62
     8
 10
13.1875
 20
9.9325
 30
0.0
 40
0.09375
  1
DWG.
  0
TEXT
  8
TITLE
 62
     8
 10
13.179285
 20
9.518672
 30
0.0
 40
0.09375
  1
ISSUE
  0
LINE
  8
TITLE
 10
13.0625
 20
9.4325
 30
0.0
 11
13.0625
 21
10.12
 31
0.0
  0
TEXT
  8
TITLE
 62
     8
 10
13.1875
 20
9.77625
 30
0.0
 40
0.09375
  1
NO.
  0
LINE
  8
TITLE
 62
     8
 10
13.0625
 20
9.4325
 30
0.0
 11
15.5
 21
9.4325
 31
0.0
  0
LINE
  8
TITLE
 62
     8
 10
13.0625
 20
9.6825
 30
0.0
 11
15.5
 21
9.6825
 31
0.0
  0
TEXT
  8
TITLE
 62
     8
 10
14.12324
 20
9.520848
 30
0.0
 40
0.09375
  1
REVISIONS
  0
TEXT
  8
TITLE
 62
     8
 10
13.4375
 20
0.990354
 30
0.0
 40
0.09375
  1
NAME:
  0
TEXT
  8
TITLE
 62
     8
 10
13.4375
 20
0.063166
 30
0.0
 40
0.0938
  1
NO.
  0
TEXT
  8
TITLE
 62
     8
 10
13.4375
 20
0.219499
 30
0.0
 40
0.0938
  1
DWG.
  0
LINE
  8
TITLE
 62
     8
 10
13.367246
 20
0.0
 30
0.0
 11
13.367246
 21
1.127
 31
0.0
  0
LINE
  8
TITLE
 62
     8
 10
12.4365
 20
1.127
 30
0.0
 11
12.4365
 21
1.377
 31
0.0
  0
LINE
  8
TITLE
 10
12.636733
 20
0.859007
 30
0.0
 11
12.669763
 21
0.859007
 31
0.0
  0
ARC
  8
TITLE
 10
12.669763
 20
0.76607
 30
0.0
 40
0.092937
 50
0.0
 51
90.0
  0
LINE
  8
TITLE
 10
12.713861
 20
0.732878
 30
0.0
 11
12.672564
 21
0.732878
 31
0.0
  0
LINE
  8
TITLE
 10
12.636733
 20
0.593473
 30
0.0
 11
12.669763
 21
0.593473
 31
0.0
  0
ARC
  8
TITLE
 10
12.669763
 20
0.68641
 30
0.0
 40
0.092937
 50
270.0
 51
0.0
  0
LINE
  8
TITLE
 10
12.713861
 20
0.719602
 30
0.0
 11
12.672564
 21
0.719602
 31
0.0
  0
LINE
  8
TITLE
 10
12.636733
 20
0.593473
 30
0.0
 11
12.636733
 21
0.859007
 31
0.0
  0
LINE
  8
TITLE
 10
12.672564
 20
0.719602
 30
0.0
 11
12.672564
 21
0.732878
 31
0.0
  0
LINE
  8
TITLE
 10
12.7627
 20
0.68641
 30
0.0
 11
12.7627
 21
0.76607
 31
0.0
  0
LINE
  8
TITLE
 10
12.713861
 20
0.719602
 30
0.0
 11
12.713861
 21
0.732878
 31
0.0
  0
LINE
  8
TITLE
 10
12.533885
 20
0.859007
 30
0.0
 11
12.582422
 21
0.859007
 31
0.0
  0
LINE
  8
TITLE
 10
12.462234
 20
0.859007
 30
0.0
 11
12.510772
 21
0.859007
 31
0.0
  0
ARC
  8
TITLE
 10
12.524048
 20
0.636796
 30
0.0
 40
0.013277
 50
180.0
 51
262.555716
  0
ARC
  8
TITLE
 10
12.520608
 20
0.636796
 30
0.0
 40
0.013277
 50
277.444284
 51
0.0
  0
ARC
  8
TITLE
 10
12.565826
 20
0.610069
 30
0.0
 40
0.016596
 50
270.0
 51
0.0
  0
ARC
  8
TITLE
 10
12.47883
 20
0.610069
 30
0.0
 40
0.016596
 50
180.0
 51
270.0
  0
LINE
  8
TITLE
 10
12.47883
 20
0.593473
 30
0.0
 11
12.565826
 21
0.593473
 31
0.0
  0
LINE
  8
TITLE
 10
12.510772
 20
0.636796
 30
0.0
 11
12.510772
 21
0.859007
 31
0.0
  0
LINE
  8
TITLE
 10
12.533885
 20
0.636796
 30
0.0
 11
12.533885
 21
0.859007
 31
0.0
  0
LINE
  8
TITLE
 10
12.462234
 20
0.610069
 30
0.0
 11
12.462234
 21
0.859007
 31
0.0
  0
LINE
  8
TITLE
 10
12.582422
 20
0.610069
 30
0.0
 11
12.582422
 21
0.859007
 31
0.0
  0
LINE
  8
TITLE
 10
12.362847
 20
0.732878
 30
0.0
 11
12.290041
 21
0.732878
 31
0.0
  0
LINE
  8
TITLE
 10
12.277329
 20
0.859007
 30
0.0
 11
12.362847
 21
0.859007
 31
0.0
  0
LINE
  8
TITLE
 10
12.290041
 20
0.719602
 30
0.0
 11
12.290041
 21
0.72624
 31
0.0
  0
LINE
  8
TITLE
 10
12.277329
 20
0.593473
 30
0.0
 11
12.362847
 21
0.593473
 31
0.0
  0
LINE
  8
TITLE
 10
12.362847
 20
0.719602
 30
0.0
 11
12.290041
 21
0.719602
 31
0.0
  0
LINE
  8
TITLE
 10
12.277329
 20
0.593473
 30
0.0
 11
12.277329
 21
0.859007
 31
0.0
  0
LINE
  8
TITLE
 10
12.290041
 20
0.732878
 30
0.0
 11
12.290041
 21
0.72624
 31
0.0
  0
ARC
  8
TITLE
 10
12.362847
 20
0.795943
 30
0.0
 40
0.063065
 50
270.0
 51
90.0
  0
ARC
  8
TITLE
 10
12.362847
 20
0.656537
 30
0.0
 40
0.063065
 50
270.0
 51
90.0
  0
TEXT
  8
TITLE
 62
     8
 10
11.3755
 20
1.197741
 30
0.0
 40
0.09375
  1
PART NO.
  0
TEXT
  8
TITLE
 62
     8
 10
11.70238
 20
0.975598
 30
0.0
 40
0.09375
  1
SCALE:
  0
LINE
  8
TITLE
 62
     8
 10
11.663538
 20
0.0
 30
0.0
 11
11.663538
 21
1.127
 31
0.0
  0
TEXT
  8
TITLE
 62
     8
 10
11.763895
 20
0.125
 30
0.0
 40
0.09375
  1
WILLOUGHBY, OHIO
  0
TEXT
  8
TITLE
 62
     8
 10
11.704615
 20
0.375
 30
0.0
 40
0.09375
  1
BUD INDUSTRIES, INC.
  0
LINE
  8
TITLE
 62
     8
 10
13.367246
 20
0.382
 30
0.0
 11
15.5
 21
0.382
 31
0.0
  0
TEXT
  8
TITLE
 62
     8
 10
13.502446
 20
1.197741
 30
0.0
 40
0.09375
  1
DESCRIPTION
  0
LINE
  8
TITLE
 62
     8
 10
10.9375
 20
1.127
 30
0.0
 11
10.9375
 21
1.377
 31
0.0
  0
LINE
  8
TITLE
 62
     8
 10
10.419296
 20
1.127
 30
0.0
 11
10.419296
 21
1.377
 31
0.0
  0
TEXT
  8
TITLE
 62
     8
 10
10.470847
 20
1.197741
 30
0.0
 40
0.09375
  1
REQ'D.
  0
TEXT
  8
TITLE
 62
     8
 10
10.063
 20
0.972877
 30
0.0
 40
0.09375
  1
MAT:
  0
TEXT
  8
TITLE
 62
     8
 10
10.056572
 20
1.199408
 30
0.0
 40
0.09375
  1
ITEM
  0
TEXT
  8
TITLE
 62
     8
 10
10.063
 20
0.3125
 30
0.0
 40
0.09375
  1
CH.
  0
TEXT
  8
TITLE
 62
     8
 10
10.063
 20
0.569374
 30
0.0
 40
0.09375
  1
DR.
  0
TEXT
  8
TITLE
 62
     8
 10
10.063
 20
0.774118
 30
0.0
 40
0.09375
  1
FINISH:
  0
TEXT
  8
TITLE
 62
     8
 10
10.063
 20
0.0625
 30
0.0
 40
0.09375
  1
APP.
  0
LINE
  8
TITLE
 62
     8
 10
10.697756
 20
0.0
 30
0.0
 11
10.697756
 21
0.709
 31
0.0
  0
LINE
  8
TITLE
 62
     8
 10
10.0005
 20
0.0
 30
0.0
 11
10.0005
 21
1.377
 31
0.0
  0
TEXT
  8
TITLE
 10
8.045906
 20
0.952072
 30
0.0
 40
0.111789
  1
%%uTOLERANCES:
  0
TEXT
  8
TITLE
 62
     8
 10
8.091485
 20
0.23449
 30
0.0
 40
0.077242
  1
    SURFACES
  0
TEXT
  8
TITLE
 62
     8
 10
7.99372
 20
0.749439
 30
0.0
 40
0.077242
  1
%%p.005 BETWEEN HOLE CENTERS
  0
TEXT
  8
TITLE
 62
     8
 10
7.99372
 20
0.620702
 30
0.0
 40
0.077242
  1
%%p.015 FROM SHEARED EDGE
  0
TEXT
  8
TITLE
 62
     8
 10
7.99372
 20
0.491964
 30
0.0
 40
0.077242
  1
%%p.032 FROM A BENT SURFACE
  0
TEXT
  8
TITLE
 62
     8
 10
7.99865
 20
0.056475
 30
0.0
 40
0.077242
  1
UNLESS OTHERWISE SPECIFIED
  0
TEXT
  8
TITLE
 62
     8
 10
7.99372
 20
0.363227
 30
0.0
 40
0.077242
  1
%%p.063 BETWEEN ASSEMBLED
  0
LINE
  8
TITLE
 62
     8
 10
6.395
 20
0.0
 30
0.0
 11
6.395
 21
0.25
 31
0.0
  0
TEXT
  8
TITLE
 62
     8
 10
6.81726
 20
0.077628
 30
0.0
 40
0.09375
  1
USED ON
  0
LINE
  8
TITLE
 62
     8
 10
7.9225
 20
0.0
 30
0.0
 11
7.9225
 21
1.127
 31
0.0
  0
LINE
  8
TITLE
 10
6.02
 20
0.25
 30
0.0
 11
7.9225
 21
0.25
 31
0.0
  0
LINE
  8
TITLE
 10
7.9225
 20
1.127
 30
0.0
 11
6.02
 21
1.127
 31
0.0
  0
TEXT
  8
TITLE
 62
     8
 10
6.071749
 20
0.077628
 30
0.0
 40
0.09375
  1
QTY.
  0
LINE
  8
TITLE
 10
10.0005
 20
1.377
 30
0.0
 11
6.02
 21
1.377
 31
0.0
  0
LINE
  8
TITLE
 10
10.0005
 20
1.377
 30
0.0
 11
15.5
 21
1.377
 31
0.0
  0
LINE
  8
TITLE
 10
7.9225
 20
1.127
 30
0.0
 11
15.5
 21
1.127
 31
0.0
  0
LINE
  8
TITLE
 10
10.0005
 20
0.918
 30
0.0
 11
13.367246
 21
0.918
 31
0.0
  0
LINE
  8
TITLE
 10
10.0005
 20
0.25
 30
0.0
 11
11.663538
 21
0.25
 31
0.0
  0
LINE
  8
TITLE
 10
10.0005
 20
0.709
 30
0.0
 11
11.663538
 21
0.709
 31
0.0
  0
LINE
  8
TITLE
 10
10.0005
 20
0.5
 30
0.0
 11
11.663538
 21
0.5
 31
0.0
  0
ENDBLK
  8
0
  0
BLOCK
  8
0
  2
ACAD
 70
    64
 10
0.0
 20
0.0
 30
0.0
  3
ACAD
  0
ENDBLK
  8
0
  0
BLOCK
  8
0
  2
*X2
 70
    65
 10
0.0
 20
0.0
 30
0.0
  3
*X
  0
LINE
  8
0
 62
     0
 10
9.40775
 20
14.379594
 30
0.0
 11
9.649406
 21
14.62125
 31
0.0
  0
LINE
  8
0
 62
     0
 10
9.340754
 20
14.423084
 30
0.0
 11
9.605916
 21
14.688246
 31
0.0
  0
LINE
  8
0
 62
     0
 10
9.297874
 20
14.490689
 30
0.0
 11
9.538311
 21
14.731126
 31
0.0
  0
LINE
  8
0
 62
     0
 10
9.290574
 20
14.593875
 30
0.0
 11
9.435125
 21
14.738426
 31
0.0
  0
LINE
  8
0
 62
     0
 10
9.50954
 20
14.370899
 30
0.0
 11
9.658101
 21
14.51946
 31
0.0
  0
ENDBLK
  8
0
  0
BLOCK
  8
0
  2
*D3
 70
    65
 10
0.0
 20
0.0
 30
0.0
  3
*D
  0
LINE
  8
0
  6
BYBLOCK
 62
     0
 10
2.460985
 20
13.386142
 30
0.0
 11
2.460985
 21
13.190793
 31
0.0
  0
LINE
  8
0
  6
BYBLOCK
 62
     0
 10
6.960985
 20
13.386142
 30
0.0
 11
6.960985
 21
13.190793
 31
0.0
  0
LINE
  8
0
  6
BYBLOCK
 62
     0
 10
2.640985
 20
13.283793
 30
0.0
 11
4.589735
 21
13.283793
 31
0.0
  0
LINE
  8
0
  6
BYBLOCK
 62
     0
 10
6.780985
 20
13.283793
 30
0.0
 11
4.832235
 21
13.283793
 31
0.0
  0
SOLID
  8
0
  6
BYBLOCK
 62
     0
 10
2.640985
 20
13.313793
 30
0.0
 11
2.640985
 21
13.253793
 31
0.0
 12
2.460985
 22
13.283793
 32
0.0
 13
2.460985
 23
13.283793
 33
0.0
  0
SOLID
  8
0
  6
BYBLOCK
 62
     0
 10
6.780985
 20
13.313793
 30
0.0
 11
6.780985
 21
13.253793
 31
0.0
 12
6.960985
 22
13.283793
 32
0.0
 13
6.960985
 23
13.283793
 33
0.0
  0
TEXT
  8
0
  6
BYBLOCK
 62
     0
 10
4.679735
 20
13.221293
 30
0.0
 40
0.125
  1
A
 41
0.75
  7
TXT
 72
     1
 11
4.710985
 21
13.283793
 31
0.0
 73
     2
  0
POINT
  8
DEFPOINTS
  6
BYBLOCK
 62
     0
 10
2.460985
 20
13.449142
 30
0.0
  0
POINT
  8
DEFPOINTS
  6
BYBLOCK
 62
     0
 10
6.960985
 20
13.449142
 30
0.0
  0
POINT
  8
DEFPOINTS
  6
BYBLOCK
 62
     0
 10
6.960985
 20
13.283793
 30
0.0
  0
ENDBLK
  8
0
  0
BLOCK
  8
0
  2
*D4
 70
    65
 10
0.0
 20
0.0
 30
0.0
  3
*D
  0
LINE
  8
0
  6
BYBLOCK
 62
     0
 10
8.454504
 20
13.824142
 30
0.0
 11
8.104965
 21
13.824142
 31
0.0
  0
LINE
  8
0
  6
BYBLOCK
 62
     0
 10
8.548254
 20
13.449142
 30
0.0
 11
8.104965
 21
13.449142
 31
0.0
  0
LINE
  8
0
  6
BYBLOCK
 62
     0
 10
8.197965
 20
14.004142
 30
0.0
 11
8.197965
 21
14.184142
 31
0.0
  0
LINE
  8
0
  6
BYBLOCK
 62
     0
 10
8.197965
 20
13.269142
 30
0.0
 11
8.197965
 21
13.089142
 31
0.0
  0
SOLID
  8
0
  6
BYBLOCK
 62
     0
 10
8.167965
 20
14.004142
 30
0.0
 11
8.227965
 21
14.004142
 31
0.0
 12
8.197965
 22
13.824142
 32
0.0
 13
8.197965
 23
13.824142
 33
0.0
  0
SOLID
  8
0
  6
BYBLOCK
 62
     0
 10
8.167965
 20
13.269142
 30
0.0
 11
8.227965
 21
13.269142
 31
0.0
 12
8.197965
 22
13.449142
 32
0.0
 13
8.197965
 23
13.449142
 33
0.0
  0
TEXT
  8
0
  6
BYBLOCK
 62
     0
 10
8.033902
 20
13.574142
 30
0.0
 40
0.125
  1
0.500
 41
0.75
  7
TXT
 72
     1
 11
8.197965
 21
13.636642
 31
0.0
 73
     2
  0
POINT
  8
DEFPOINTS
  6
BYBLOCK
 62
     0
 10
8.517504
 20
13.824142
 30
0.0
  0
POINT
  8
DEFPOINTS
  6
BYBLOCK
 62
     0
 10
8.611254
 20
13.449142
 30
0.0
  0
POINT
  8
DEFPOINTS
  6
BYBLOCK
 62
     0
 10
8.197965
 20
13.449142
 30
0.0
  0
ENDBLK
  8
0
  0
BLOCK
  8
0
  2
*D5
 70
    65
 10
0.0
 20
0.0
 30
0.0
  3
*D
  0
LINE
  8
0
  6
BYBLOCK
 62
     0
 10
8.454504
 20
13.824142
 30
0.0
 11
7.724965
 21
13.824142
 31
0.0
  0
LINE
  8
0
  6
BYBLOCK
 62
     0
 10
8.594839
 20
14.526553
 30
0.0
 11
7.724965
 21
14.526553
 31
0.0
  0
LINE
  8
0
  6
BYBLOCK
 62
     0
 10
7.817965
 20
13.644142
 30
0.0
 11
7.817965
 21
13.464142
 31
0.0
  0
LINE
  8
0
  6
BYBLOCK
 62
     0
 10
7.817965
 20
14.706553
 30
0.0
 11
7.817965
 21
14.886553
 31
0.0
  0
SOLID
  8
0
  6
BYBLOCK
 62
     0
 10
7.787965
 20
13.644142
 30
0.0
 11
7.847965
 21
13.644142
 31
0.0
 12
7.817965
 22
13.824142
 32
0.0
 13
7.817965
 23
13.824142
 33
0.0
  0
SOLID
  8
0
  6
BYBLOCK
 62
     0
 10
7.787965
 20
14.706553
 30
0.0
 11
7.847965
 21
14.706553
 31
0.0
 12
7.817965
 22
14.526553
 32
0.0
 13
7.817965
 23
14.526553
 33
0.0
  0
TEXT
  8
0
  6
BYBLOCK
 62
     0
 10
7.638277
 20
14.112847
 30
0.0
 40
0.125
  1
0.938
 41
0.75
  7
TXT
 72
     1
 11
7.817965
 21
14.175347
 31
0.0
 73
     2
  0
POINT
  8
DEFPOINTS
  6
BYBLOCK
 62
     0
 10
8.517504
 20
13.824142
 30
0.0
  0
POINT
  8
DEFPOINTS
  6
BYBLOCK
 62
     0
 10
8.657839
 20
14.526553
 30
0.0
  0
POINT
  8
DEFPOINTS
  6
BYBLOCK
 62
     0
 10
7.817965
 20
14.526553
 30
0.0
  0
ENDBLK
  8
0
  0
BLOCK
  8
0
  2
*D6
 70
    65
 10
0.0
 20
0.0
 30
0.0
  3
*D
  0
LINE
  8
0
  6
BYBLOCK
 62
     0
 10
8.720839
 20
14.807803
 30
0.0
 11
9.265254
 21
14.807803
 31
0.0
  0
LINE
  8
0
  6
BYBLOCK
 62
     0
 10
8.720839
 20
14.526553
 30
0.0
 11
9.265254
 21
14.526553
 31
0.0
  0
LINE
  8
0
  6
BYBLOCK
 62
     0
 10
9.172254
 20
14.987803
 30
0.0
 11
9.172254
 21
15.167803
 31
0.0
  0
LINE
  8
0
  6
BYBLOCK
 62
     0
 10
9.172254
 20
14.346553
 30
0.0
 11
9.172254
 21
14.166553
 31
0.0
  0
SOLID
  8
0
  6
BYBLOCK
 62
     0
 10
9.142254
 20
14.987803
 30
0.0
 11
9.202254
 21
14.987803
 31
0.0
 12
9.172254
 22
14.807803
 32
0.0
 13
9.172254
 23
14.807803
 33
0.0
  0
SOLID
  8
0
  6
BYBLOCK
 62
     0
 10
9.142254
 20
14.346553
 30
0.0
 11
9.202254
 21
14.346553
 31
0.0
 12
9.172254
 22
14.526553
 32
0.0
 13
9.172254
 23
14.526553
 33
0.0
  0
TEXT
  8
0
  6
BYBLOCK
 62
     0
 10
9.031629
 20
14.604678
 30
0.0
 40
0.125
  1
.375
 41
0.75
  7
TXT
 72
     1
 11
9.172254
 21
14.667178
 31
0.0
 73
     2
  0
POINT
  8
DEFPOINTS
  6
BYBLOCK
 62
     0
 10
8.657839
 20
14.807803
 30
0.0
  0
POINT
  8
DEFPOINTS
  6
BYBLOCK
 62
     0
 10
8.657839
 20
14.526553
 30
0.0
  0
POINT
  8
DEFPOINTS
  6
BYBLOCK
 62
     0
 10
9.172254
 20
14.526553
 30
0.0
  0
ENDBLK
  8
0
  0
BLOCK
  8
0
  2
*D7
 70
    65
 10
0.0
 20
0.0
 30
0.0
  3
*D
  0
LINE
  8
0
  6
BYBLOCK
 62
     0
 10
2.317087
 20
12.740226
 30
0.0
 11
2.317087
 21
12.419631
 31
0.0
  0
LINE
  8
0
  6
BYBLOCK
 62
     0
 10
7.099087
 20
12.740226
 30
0.0
 11
7.099087
 21
12.419631
 31
0.0
  0
LINE
  8
0
  6
BYBLOCK
 62
     0
 10
2.497087
 20
12.512631
 30
0.0
 11
4.586837
 21
12.512631
 31
0.0
  0
LINE
  8
0
  6
BYBLOCK
 62
     0
 10
6.919087
 20
12.512631
 30
0.0
 11
4.829337
 21
12.512631
 31
0.0
  0
SOLID
  8
0
  6
BYBLOCK
 62
     0
 10
2.497087
 20
12.542631
 30
0.0
 11
2.497087
 21
12.482631
 31
0.0
 12
2.317087
 22
12.512631
 32
0.0
 13
2.317087
 23
12.512631
 33
0.0
  0
SOLID
  8
0
  6
BYBLOCK
 62
     0
 10
6.919087
 20
12.542631
 30
0.0
 11
6.919087
 21
12.482631
 31
0.0
 12
7.099087
 22
12.512631
 32
0.0
 13
7.099087
 23
12.512631
 33
0.0
  0
TEXT
  8
0
  6
BYBLOCK
 62
     0
 10
4.676837
 20
12.450131
 30
0.0
 40
0.125
  1
B
 41
0.75
  7
TXT
 72
     1
 11
4.708087
 21
12.512631
 31
0.0
 73
     2
  0
POINT
  8
DEFPOINTS
  6
BYBLOCK
 62
     0
 10
2.317087
 20
12.803226
 30
0.0
  0
POINT
  8
DEFPOINTS
  6
BYBLOCK
 62
     0
 10
7.099087
 20
12.803226
 30
0.0
  0
POINT
  8
DEFPOINTS
  6
BYBLOCK
 62
     0
 10
7.099087
 20
12.512631
 30
0.0
  0
ENDBLK
  8
0
  0
BLOCK
  8
0
  2
*D8
 70
    65
 10
0.0
 20
0.0
 30
0.0
  3
*D
  0
LINE
  8
0
  6
BYBLOCK
 62
     0
 10
2.540384
 20
9.899417
 30
0.0
 11
2.540384
 21
9.633769
 31
0.0
  0
LINE
  8
0
  6
BYBLOCK
 62
     0
 10
7.540384
 20
9.899417
 30
0.0
 11
7.540384
 21
9.633769
 31
0.0
  0
LINE
  8
0
  6
BYBLOCK
 62
     0
 10
2.720384
 20
9.726769
 30
0.0
 11
4.786322
 21
9.726769
 31
0.0
  0
LINE
  8
0
  6
BYBLOCK
 62
     0
 10
7.360384
 20
9.726769
 30
0.0
 11
5.294447
 21
9.726769
 31
0.0
  0
SOLID
  8
0
  6
BYBLOCK
 62
     0
 10
2.720384
 20
9.756769
 30
0.0
 11
2.720384
 21
9.696769
 31
0.0
 12
2.540384
 22
9.726769
 32
0.0
 13
2.540384
 23
9.726769
 33
0.0
  0
SOLID
  8
0
  6
BYBLOCK
 62
     0
 10
7.360384
 20
9.756769
 30
0.0
 11
7.360384
 21
9.696769
 31
0.0
 12
7.540384
 22
9.726769
 32
0.0
 13
7.540384
 23
9.726769
 33
0.0
  0
TEXT
  8
0
  6
BYBLOCK
 62
     0
 10
4.876322
 20
9.664269
 30
0.0
 40
0.125
  1
5.000
 41
0.75
  7
TXT
 72
     1
 11
5.040384
 21
9.726769
 31
0.0
 73
     2
  0
POINT
  8
DEFPOINTS
  6
BYBLOCK
 62
     0
 10
2.540384
 20
9.962417
 30
0.0
  0
POINT
  8
DEFPOINTS
  6
BYBLOCK
 62
     0
 10
7.540384
 20
9.962417
 30
0.0
  0
POINT
  8
DEFPOINTS
  6
BYBLOCK
 62
     0
 10
7.540384
 20
9.726769
 30
0.0
  0
ENDBLK
  8
0
  0
BLOCK
  8
0
  2
*D9
 70
    65
 10
0.0
 20
0.0
 30
0.0
  3
*D
  0
LINE
  8
0
  6
BYBLOCK
 62
     0
 10
2.540384
 20
9.025417
 30
0.0
 11
2.540384
 21
9.251967
 31
0.0
  0
LINE
  8
0
  6
BYBLOCK
 62
     0
 10
3.040384
 20
8.650417
 30
0.0
 11
3.040384
 21
9.251967
 31
0.0
  0
LINE
  8
0
  6
BYBLOCK
 62
     0
 10
2.360384
 20
9.158967
 30
0.0
 11
2.180384
 21
9.158967
 31
0.0
  0
LINE
  8
0
  6
BYBLOCK
 62
     0
 10
3.220384
 20
9.158967
 30
0.0
 11
3.400384
 21
9.158967
 31
0.0
  0
SOLID
  8
0
  6
BYBLOCK
 62
     0
 10
2.360384
 20
9.188967
 30
0.0
 11
2.360384
 21
9.128967
 31
0.0
 12
2.540384
 22
9.158967
 32
0.0
 13
2.540384
 23
9.158967
 33
0.0
  0
SOLID
  8
0
  6
BYBLOCK
 62
     0
 10
3.220384
 20
9.188967
 30
0.0
 11
3.220384
 21
9.128967
 31
0.0
 12
3.040384
 22
9.158967
 32
0.0
 13
3.040384
 23
9.158967
 33
0.0
  0
TEXT
  8
0
  6
BYBLOCK
 62
     0
 10
2.626322
 20
9.096467
 30
0.0
 40
0.125
  1
0.500
 41
0.75
  7
TXT
 72
     1
 11
2.790384
 21
9.158967
 31
0.0
 73
     2
  0
POINT
  8
DEFPOINTS
  6
BYBLOCK
 62
     0
 10
2.540384
 20
8.962417
 30
0.0
  0
POINT
  8
DEFPOINTS
  6
BYBLOCK
 62
     0
 10
3.040384
 20
8.587417
 30
0.0
  0
POINT
  8
DEFPOINTS
  6
BYBLOCK
 62
     0
 10
3.040384
 20
9.158967
 30
0.0
  0
ENDBLK
  8
0
  0
BLOCK
  8
0
  2
*D10
 70
    65
 10
0.0
 20
0.0
 30
0.0
  3
*D
  0
LINE
  8
0
  6
BYBLOCK
 62
     0
 10
7.040384
 20
8.713417
 30
0.0
 11
7.040384
 21
9.251967
 31
0.0
  0
LINE
  8
0
  6
BYBLOCK
 62
     0
 10
7.540384
 20
9.025417
 30
0.0
 11
7.540384
 21
9.251967
 31
0.0
  0
LINE
  8
0
  6
BYBLOCK
 62
     0
 10
6.860384
 20
9.158967
 30
0.0
 11
6.680384
 21
9.158967
 31
0.0
  0
LINE
  8
0
  6
BYBLOCK
 62
     0
 10
7.720384
 20
9.158967
 30
0.0
 11
7.900384
 21
9.158967
 31
0.0
  0
SOLID
  8
0
  6
BYBLOCK
 62
     0
 10
6.860384
 20
9.188967
 30
0.0
 11
6.860384
 21
9.128967
 31
0.0
 12
7.040384
 22
9.158967
 32
0.0
 13
7.040384
 23
9.158967
 33
0.0
  0
SOLID
  8
0
  6
BYBLOCK
 62
     0
 10
7.720384
 20
9.188967
 30
0.0
 11
7.720384
 21
9.128967
 31
0.0
 12
7.540384
 22
9.158967
 32
0.0
 13
7.540384
 23
9.158967
 33
0.0
  0
TEXT
  8
0
  6
BYBLOCK
 62
     0
 10
7.126322
 20
9.096467
 30
0.0
 40
0.125
  1
0.500
 41
0.75
  7
TXT
 72
     1
 11
7.290384
 21
9.158967
 31
0.0
 73
     2
  0
POINT
  8
DEFPOINTS
  6
BYBLOCK
 62
     0
 10
7.040384
 20
8.650417
 30
0.0
  0
POINT
  8
DEFPOINTS
  6
BYBLOCK
 62
     0
 10
7.540384
 20
8.962417
 30
0.0
  0
POINT
  8
DEFPOINTS
  6
BYBLOCK
 62
     0
 10
7.540384
 20
9.158967
 30
0.0
  0
ENDBLK
  8
0
  0
BLOCK
  8
0
  2
*D11
 70
    65
 10
0.0
 20
0.0
 30
0.0
  3
*D
  0
LINE
  8
0
  6
BYBLOCK
 62
     0
 10
9.477384
 20
8.962417
 30
0.0
 11
7.721553
 21
8.962417
 31
0.0
  0
LINE
  8
0
  6
BYBLOCK
 62
     0
 10
9.477384
 20
7.962417
 30
0.0
 11
7.721553
 21
7.962417
 31
0.0
  0
LINE
  8
0
  6
BYBLOCK
 62
     0
 10
7.814553
 20
8.782417
 30
0.0
 11
7.814553
 21
8.614917
 31
0.0
  0
LINE
  8
0
  6
BYBLOCK
 62
     0
 10
7.814553
 20
8.142417
 30
0.0
 11
7.814553
 21
8.309917
 31
0.0
  0
SOLID
  8
0
  6
BYBLOCK
 62
     0
 10
7.784553
 20
8.782417
 30
0.0
 11
7.844553
 21
8.782417
 31
0.0
 12
7.814553
 22
8.962417
 32
0.0
 13
7.814553
 23
8.962417
 33
0.0
  0
SOLID
  8
0
  6
BYBLOCK
 62
     0
 10
7.784553
 20
8.142417
 30
0.0
 11
7.844553
 21
8.142417
 31
0.0
 12
7.814553
 22
7.962417
 32
0.0
 13
7.814553
 23
7.962417
 33
0.0
  0
TEXT
  8
0
  6
BYBLOCK
 62
     0
 10
7.666115
 20
8.399917
 30
0.0
 40
0.125
  1
1.000
 41
0.75
  7
TXT
 72
     1
 11
7.814553
 21
8.462417
 31
0.0
 73
     2
  0
POINT
  8
DEFPOINTS
  6
BYBLOCK
 62
     0
 10
9.540384
 20
8.962417
 30
0.0
  0
POINT
  8
DEFPOINTS
  6
BYBLOCK
 62
     0
 10
9.540384
 20
7.962417
 30
0.0
  0
POINT
  8
DEFPOINTS
  6
BYBLOCK
 62
     0
 10
7.814553
 20
7.962417
 30
0.0
  0
ENDBLK
  8
0
  0
BLOCK
  8
0
  2
*D12
 70
    65
 10
0.0
 20
0.0
 30
0.0
  3
*D
  0
LINE
  8
0
  6
BYBLOCK
 62
     0
 10
8.477384
 20
8.712417
 30
0.0
 11
8.12609
 21
8.712417
 31
0.0
  0
LINE
  8
0
  6
BYBLOCK
 62
     0
 10
8.477384
 20
8.462417
 30
0.0
 11
8.12609
 21
8.462417
 31
0.0
  0
LINE
  8
0
  6
BYBLOCK
 62
     0
 10
8.21909
 20
8.892417
 30
0.0
 11
8.21909
 21
9.072417
 31
0.0
  0
LINE
  8
0
  6
BYBLOCK
 62
     0
 10
8.21909
 20
8.282417
 30
0.0
 11
8.21909
 21
8.102417
 31
0.0
  0
SOLID
  8
0
  6
BYBLOCK
 62
     0
 10
8.18909
 20
8.892417
 30
0.0
 11
8.24909
 21
8.892417
 31
0.0
 12
8.21909
 22
8.712417
 32
0.0
 13
8.21909
 23
8.712417
 33
0.0
  0
SOLID
  8
0
  6
BYBLOCK
 62
     0
 10
8.18909
 20
8.282417
 30
0.0
 11
8.24909
 21
8.282417
 31
0.0
 12
8.21909
 22
8.462417
 32
0.0
 13
8.21909
 23
8.462417
 33
0.0
  0
TEXT
  8
0
  6
BYBLOCK
 62
     0
 10
8.047215
 20
8.524917
 30
0.0
 40
0.125
  1
0.250
 41
0.75
  7
TXT
 72
     1
 11
8.21909
 21
8.587417
 31
0.0
 73
     2
  0
POINT
  8
DEFPOINTS
  6
BYBLOCK
 62
     0
 10
8.540384
 20
8.712417
 30
0.0
  0
POINT
  8
DEFPOINTS
  6
BYBLOCK
 62
     0
 10
8.540384
 20
8.462417
 30
0.0
  0
POINT
  8
DEFPOINTS
  6
BYBLOCK
 62
     0
 10
8.21909
 20
8.462417
 30
0.0
  0
ENDBLK
  8
0
  0
BLOCK
  8
0
  2
*D13
 70
    65
 10
0.0
 20
0.0
 30
0.0
  3
*D
  0
LINE
  8
0
  6
BYBLOCK
 62
     0
 10
8.540384
 20
8.775417
 30
0.0
 11
8.540384
 21
9.251967
 31
0.0
  0
LINE
  8
0
  6
BYBLOCK
 62
     0
 10
9.540384
 20
9.025417
 30
0.0
 11
9.540384
 21
9.251967
 31
0.0
  0
LINE
  8
0
  6
BYBLOCK
 62
     0
 10
8.360384
 20
9.158967
 30
0.0
 11
8.180384
 21
9.158967
 31
0.0
  0
LINE
  8
0
  6
BYBLOCK
 62
     0
 10
9.720384
 20
9.158967
 30
0.0
 11
9.900384
 21
9.158967
 31
0.0
  0
SOLID
  8
0
  6
BYBLOCK
 62
     0
 10
8.360384
 20
9.188967
 30
0.0
 11
8.360384
 21
9.128967
 31
0.0
 12
8.540384
 22
9.158967
 32
0.0
 13
8.540384
 23
9.158967
 33
0.0
  0
SOLID
  8
0
  6
BYBLOCK
 62
     0
 10
9.720384
 20
9.188967
 30
0.0
 11
9.720384
 21
9.128967
 31
0.0
 12
9.540384
 22
9.158967
 32
0.0
 13
9.540384
 23
9.158967
 33
0.0
  0
TEXT
  8
0
  6
BYBLOCK
 62
     0
 10
8.891947
 20
9.096467
 30
0.0
 40
0.125
  1
1.000
 41
0.75
  7
TXT
 72
     1
 11
9.040384
 21
9.158967
 31
0.0
 73
     2
  0
POINT
  8
DEFPOINTS
  6
BYBLOCK
 62
     0
 10
8.540384
 20
8.712417
 30
0.0
  0
POINT
  8
DEFPOINTS
  6
BYBLOCK
 62
     0
 10
9.540384
 20
8.962417
 30
0.0
  0
POINT
  8
DEFPOINTS
  6
BYBLOCK
 62
     0
 10
9.540384
 20
9.158967
 30
0.0
  0
ENDBLK
  8
0
  0
BLOCK
  8
0
  2
*D14
 70
    65
 10
0.0
 20
0.0
 30
0.0
  3
*D
  0
LINE
  8
0
  6
BYBLOCK
 62
     0
 10
2.59915
 20
8.713298
 30
0.0
 11
2.59915
 21
9.319651
 31
0.0
  0
LINE
  8
0
  6
BYBLOCK
 62
     0
 10
6.59915
 20
8.713298
 30
0.0
 11
6.59915
 21
9.319651
 31
0.0
  0
LINE
  8
0
  6
BYBLOCK
 62
     0
 10
2.77915
 20
9.226651
 30
0.0
 11
4.345088
 21
9.226651
 31
0.0
  0
LINE
  8
0
  6
BYBLOCK
 62
     0
 10
6.41915
 20
9.226651
 30
0.0
 11
4.853213
 21
9.226651
 31
0.0
  0
SOLID
  8
0
  6
BYBLOCK
 62
     0
 10
2.77915
 20
9.256651
 30
0.0
 11
2.77915
 21
9.196651
 31
0.0
 12
2.59915
 22
9.226651
 32
0.0
 13
2.59915
 23
9.226651
 33
0.0
  0
SOLID
  8
0
  6
BYBLOCK
 62
     0
 10
6.41915
 20
9.256651
 30
0.0
 11
6.41915
 21
9.196651
 31
0.0
 12
6.59915
 22
9.226651
 32
0.0
 13
6.59915
 23
9.226651
 33
0.0
  0
TEXT
  8
0
  6
BYBLOCK
 62
     0
 10
4.435088
 20
9.164151
 30
0.0
 40
0.125
  1
4.000
 41
0.75
  7
TXT
 72
     1
 11
4.59915
 21
9.226651
 31
0.0
 73
     2
  0
POINT
  8
DEFPOINTS
  6
BYBLOCK
 62
     0
 10
2.59915
 20
8.650298
 30
0.0
  0
POINT
  8
DEFPOINTS
  6
BYBLOCK
 62
     0
 10
6.59915
 20
8.650298
 30
0.0
  0
POINT
  8
DEFPOINTS
  6
BYBLOCK
 62
     0
 10
6.59915
 20
9.226651
 30
0.0
  0
ENDBLK
  8
0
  0
BLOCK
  8
0
  2
*X15
 70
    65
 10
0.0
 20
0.0
 30
0.0
  3
*X
  0
LINE
  8
0
 62
     0
 10
8.791456
 20
2.493787
 30
0.0
 11
9.047802
 21
2.750133
 31
0.0
  0
LINE
  8
0
 62
     0
 10
8.709795
 20
2.522611
 30
0.0
 11
8.945947
 21
2.758763
 31
0.0
  0
LINE
  8
0
 62
     0
 10
8.646266
 20
2.569567
 30
0.0
 11
8.826374
 21
2.749675
 31
0.0
  0
LINE
  8
0
 62
     0
 10
8.887813
 20
2.479658
 30
0.0
 11
9.135642
 21
2.727487
 31
0.0
  0
LINE
  8
0
 62
     0
 10
8.999096
 20
2.480456
 30
0.0
 11
9.207226
 21
2.688586
 31
0.0
  0
LINE
  8
0
 62
     0
 10
9.13986
 20
2.510734
 30
0.0
 11
9.250915
 21
2.621789
 31
0.0
  0
ENDBLK
  8
0
  0
BLOCK
  8
0
  2
*D16
 70
    65
 10
0.0
 20
0.0
 30
0.0
  3
*D
  0
LINE
  8
0
  6
BYBLOCK
 62
     0
 10
2.6405
 20
0.687
 30
0.0
 11
2.6405
 21
0.333739
 31
0.0
  0
LINE
  8
0
  6
BYBLOCK
 62
     0
 10
7.2025
 20
0.687
 30
0.0
 11
7.2025
 21
0.333739
 31
0.0
  0
LINE
  8
0
  6
BYBLOCK
 62
     0
 10
2.8205
 20
0.426739
 30
0.0
 11
4.644
 21
0.426739
 31
0.0
  0
LINE
  8
0
  6
BYBLOCK
 62
     0
 10
7.0225
 20
0.426739
 30
0.0
 11
5.199
 21
0.426739
 31
0.0
  0
SOLID
  8
0
  6
BYBLOCK
 62
     0
 10
2.8205
 20
0.456739
 30
0.0
 11
2.8205
 21
0.396739
 31
0.0
 12
2.6405
 22
0.426739
 32
0.0
 13
2.6405
 23
0.426739
 33
0.0
  0
SOLID
  8
0
  6
BYBLOCK
 62
     0
 10
7.0225
 20
0.456739
 30
0.0
 11
7.0225
 21
0.396739
 31
0.0
 12
7.2025
 22
0.426739
 32
0.0
 13
7.2025
 23
0.426739
 33
0.0
  0
TEXT
  8
0
  6
BYBLOCK
 62
     0
 10
4.734
 20
0.364239
 30
0.0
 40
0.125
  1
4.562
 41
0.75
  7
TXT
 72
     1
 11
4.9215
 21
0.426739
 31
0.0
 73
     2
  0
POINT
  8
DEFPOINTS
  6
BYBLOCK
 62
     0
 10
2.6405
 20
0.75
 30
0.0
  0
POINT
  8
DEFPOINTS
  6
BYBLOCK
 62
     0
 10
7.2025
 20
0.75
 30
0.0
  0
POINT
  8
DEFPOINTS
  6
BYBLOCK
 62
     0
 10
7.2025
 20
0.426739
 30
0.0
  0
ENDBLK
  8
0
  0
BLOCK
  8
0
  2
*D17
 70
    65
 10
0.0
 20
0.0
 30
0.0
  3
*D
  0
LINE
  8
0
  6
BYBLOCK
 62
     0
 10
2.437
 20
0.75
 30
0.0
 11
1.852221
 21
0.75
 31
0.0
  0
LINE
  8
0
  6
BYBLOCK
 62
     0
 10
3.264156
 20
2.624832
 30
0.0
 11
1.852221
 21
2.624832
 31
0.0
  0
LINE
  8
0
  6
BYBLOCK
 62
     0
 10
1.945221
 20
0.93
 30
0.0
 11
1.945221
 21
1.534916
 31
0.0
  0
LINE
  8
0
  6
BYBLOCK
 62
     0
 10
1.945221
 20
2.444832
 30
0.0
 11
1.945221
 21
1.839916
 31
0.0
  0
SOLID
  8
0
  6
BYBLOCK
 62
     0
 10
1.915221
 20
0.93
 30
0.0
 11
1.975221
 21
0.93
 31
0.0
 12
1.945221
 22
0.75
 32
0.0
 13
1.945221
 23
0.75
 33
0.0
  0
SOLID
  8
0
  6
BYBLOCK
 62
     0
 10
1.915221
 20
2.444832
 30
0.0
 11
1.975221
 21
2.444832
 31
0.0
 12
1.945221
 22
2.624832
 32
0.0
 13
1.945221
 23
2.624832
 33
0.0
  0
TEXT
  8
0
  6
BYBLOCK
 62
     0
 10
1.773346
 20
1.624916
 30
0.0
 40
0.125
  1
1.875
 41
0.75
  7
TXT
 72
     1
 11
1.945221
 21
1.687416
 31
0.0
 73
     2
  0
POINT
  8
DEFPOINTS
  6
BYBLOCK
 62
     0
 10
2.5
 20
0.75
 30
0.0
  0
POINT
  8
DEFPOINTS
  6
BYBLOCK
 62
     0
 10
3.327156
 20
2.624832
 30
0.0
  0
POINT
  8
DEFPOINTS
  6
BYBLOCK
 62
     0
 10
1.945221
 20
2.624832
 30
0.0
  0
ENDBLK
  8
0
  0
BLOCK
  8
0
  2
*D18
 70
    65
 10
0.0
 20
0.0
 30
0.0
  3
*D
  0
LINE
  8
0
  6
BYBLOCK
 62
     0
 10
7.406
 20
0.75
 30
0.0
 11
7.706053
 21
0.75
 31
0.0
  0
LINE
  8
0
  6
BYBLOCK
 62
     0
 10
7.125
 20
2.125
 30
0.0
 11
7.706053
 21
2.125
 31
0.0
  0
LINE
  8
0
  6
BYBLOCK
 62
     0
 10
7.613053
 20
0.93
 30
0.0
 11
7.613053
 21
1.285
 31
0.0
  0
LINE
  8
0
  6
BYBLOCK
 62
     0
 10
7.613053
 20
1.945
 30
0.0
 11
7.613053
 21
1.59
 31
0.0
  0
SOLID
  8
0
  6
BYBLOCK
 62
     0
 10
7.583053
 20
0.93
 30
0.0
 11
7.643053
 21
0.93
 31
0.0
 12
7.613053
 22
0.75
 32
0.0
 13
7.613053
 23
0.75
 33
0.0
  0
SOLID
  8
0
  6
BYBLOCK
 62
     0
 10
7.583053
 20
1.945
 30
0.0
 11
7.643053
 21
1.945
 31
0.0
 12
7.613053
 22
2.125
 32
0.0
 13
7.613053
 23
2.125
 33
0.0
  0
TEXT
  8
0
  6
BYBLOCK
 62
     0
 10
7.441178
 20
1.375
 30
0.0
 40
0.125
  1
1.375
 41
0.75
  7
TXT
 72
     1
 11
7.613053
 21
1.4375
 31
0.0
 73
     2
  0
POINT
  8
DEFPOINTS
  6
BYBLOCK
 62
     0
 10
7.343
 20
0.75
 30
0.0
  0
POINT
  8
DEFPOINTS
  6
BYBLOCK
 62
     0
 10
7.062
 20
2.125
 30
0.0
  0
POINT
  8
DEFPOINTS
  6
BYBLOCK
 62
     0
 10
7.613053
 20
2.125
 30
0.0
  0
ENDBLK
  8
0
  0
BLOCK
  8
0
  2
*D19
 70
    65
 10
0.0
 20
0.0
 30
0.0
  3
*D
  0
LINE
  8
0
  6
BYBLOCK
 62
     0
 10
2.5
 20
2.788575
 30
0.0
 11
2.5
 21
3.3659
 31
0.0
  0
LINE
  8
0
  6
BYBLOCK
 62
     0
 10
3.327156
 20
2.624832
 30
0.0
 11
1.864372
 21
2.80299
 31
0.0
  0
ARC
  8
0
  6
BYBLOCK
 62
     0
 10
2.5
 20
2.725575
 30
0.0
 40
0.547325
 50
108.928945
 51
135.002366
  0
ARC
  8
0
  6
BYBLOCK
 62
     0
 10
2.5
 20
2.725575
 30
0.0
 40
0.547325
 50
135.714373
 51
154.126968
  0
SOLID
  8
0
  6
BYBLOCK
 62
     0
 10
2.317517
 20
3.272893
 30
0.0
 11
2.327383
 21
3.21371
 31
0.0
 12
2.5
 22
3.2729
 32
0.0
 13
2.5
 23
3.2729
 33
0.0
  0
SOLID
  8
0
  6
BYBLOCK
 62
     0
 10
2.036315
 20
2.955941
 30
0.0
 11
1.978759
 21
2.97289
 31
0.0
 12
1.956689
 22
2.791747
 32
0.0
 13
1.956689
 23
2.791747
 33
0.0
  0
TEXT
  8
0
  6
BYBLOCK
 62
     0
 10
2.198187
 20
2.897576
 30
0.0
 40
0.125
  1
82%%D
 41
0.75
  7
TXT
 72
     1
 11
2.307562
 21
2.960076
 31
0.0
 73
     2
  0
POINT
  8
DEFPOINTS
  6
BYBLOCK
 62
     0
 10
2.20386
 20
3.185864
 30
0.0
  0
POINT
  8
DEFPOINTS
  6
BYBLOCK
 62
     0
 10
3.389694
 20
2.617215
 30
0.0
  0
POINT
  8
DEFPOINTS
  6
BYBLOCK
 62
     0
 10
2.5
 20
0.75
 30
0.0
  0
POINT
  8
DEFPOINTS
  6
BYBLOCK
 62
     0
 10
2.5
 20
1.843816
 30
0.0
  0
POINT
  8
DEFPOINTS
  6
BYBLOCK
 62
     0
 10
6.670694
 20
2.217609
 30
0.0
  0
ENDBLK
  8
0
  0
BLOCK
  8
0
  2
*D20
 70
    65
 10
0.0
 20
0.0
 30
0.0
  3
*D
  0
LINE
  8
0
  6
BYBLOCK
 62
     0
 10
8.7495
 20
2.344
 30
0.0
 11
8.020047
 21
2.344
 31
0.0
  0
LINE
  8
0
  6
BYBLOCK
 62
     0
 10
8.7495
 20
2.625
 30
0.0
 11
8.020047
 21
2.625
 31
0.0
  0
LINE
  8
0
  6
BYBLOCK
 62
     0
 10
8.113047
 20
2.164
 30
0.0
 11
8.113047
 21
1.984
 31
0.0
  0
LINE
  8
0
  6
BYBLOCK
 62
     0
 10
8.113047
 20
2.805
 30
0.0
 11
8.113047
 21
2.985
 31
0.0
  0
SOLID
  8
0
  6
BYBLOCK
 62
     0
 10
8.083047
 20
2.164
 30
0.0
 11
8.143047
 21
2.164
 31
0.0
 12
8.113047
 22
2.344
 32
0.0
 13
8.113047
 23
2.344
 33
0.0
  0
SOLID
  8
0
  6
BYBLOCK
 62
     0
 10
8.083047
 20
2.805
 30
0.0
 11
8.143047
 21
2.805
 31
0.0
 12
8.113047
 22
2.625
 32
0.0
 13
8.113047
 23
2.625
 33
0.0
  0
TEXT
  8
0
  6
BYBLOCK
 62
     0
 10
7.948984
 20
2.422
 30
0.0
 40
0.125
  1
0.281
 41
0.75
  7
TXT
 72
     1
 11
8.113047
 21
2.4845
 31
0.0
 73
     2
  0
POINT
  8
DEFPOINTS
  6
BYBLOCK
 62
     0
 10
8.8125
 20
2.344
 30
0.0
  0
POINT
  8
DEFPOINTS
  6
BYBLOCK
 62
     0
 10
8.8125
 20
2.625
 30
0.0
  0
POINT
  8
DEFPOINTS
  6
BYBLOCK
 62
     0
 10
8.113047
 20
2.625
 30
0.0
  0
ENDBLK
  8
0
  0
BLOCK
  8
0
  2
*D21
 70
    65
 10
0.0
 20
0.0
 30
0.0
  3
*D
  0
LINE
  8
0
  6
BYBLOCK
 62
     0
 10
8.5
 20
2.5475
 30
0.0
 11
8.5
 21
3.152423
 31
0.0
  0
LINE
  8
0
  6
BYBLOCK
 62
     0
 10
9.125
 20
2.5475
 30
0.0
 11
9.125
 21
3.152423
 31
0.0
  0
LINE
  8
0
  6
BYBLOCK
 62
     0
 10
8.32
 20
3.059423
 30
0.0
 11
8.14
 21
3.059423
 31
0.0
  0
LINE
  8
0
  6
BYBLOCK
 62
     0
 10
9.305
 20
3.059423
 30
0.0
 11
9.485
 21
3.059423
 31
0.0
  0
SOLID
  8
0
  6
BYBLOCK
 62
     0
 10
8.32
 20
3.089423
 30
0.0
 11
8.32
 21
3.029423
 31
0.0
 12
8.5
 22
3.059423
 32
0.0
 13
8.5
 23
3.059423
 33
0.0
  0
SOLID
  8
0
  6
BYBLOCK
 62
     0
 10
9.305
 20
3.089423
 30
0.0
 11
9.305
 21
3.029423
 31
0.0
 12
9.125
 22
3.059423
 32
0.0
 13
9.125
 23
3.059423
 33
0.0
  0
TEXT
  8
0
  6
BYBLOCK
 62
     0
 10
8.632813
 20
2.996923
 30
0.0
 40
0.125
  1
0.625
 41
0.75
  7
TXT
 72
     1
 11
8.8125
 21
3.059423
 31
0.0
 73
     2
  0
POINT
  8
DEFPOINTS
  6
BYBLOCK
 62
     0
 10
8.5
 20
2.4845
 30
0.0
  0
POINT
  8
DEFPOINTS
  6
BYBLOCK
 62
     0
 10
9.125
 20
2.4845
 30
0.0
  0
POINT
  8
DEFPOINTS
  6
BYBLOCK
 62
     0
 10
9.125
 20
3.059423
 30
0.0
  0
ENDBLK
  8
0
  0
BLOCK
  8
0
  2
*D22
 70
    65
 10
0.0
 20
0.0
 30
0.0
  3
*D
  0
LINE
  8
0
  6
BYBLOCK
 62
     0
 10
2.917377
 20
6.449888
 30
0.0
 11
2.917377
 21
6.766961
 31
0.0
  0
LINE
  8
0
  6
BYBLOCK
 62
     0
 10
7.917377
 20
6.449888
 30
0.0
 11
7.917377
 21
6.766961
 31
0.0
  0
LINE
  8
0
  6
BYBLOCK
 62
     0
 10
3.097377
 20
6.673961
 30
0.0
 11
5.163314
 21
6.673961
 31
0.0
  0
LINE
  8
0
  6
BYBLOCK
 62
     0
 10
7.737377
 20
6.673961
 30
0.0
 11
5.671439
 21
6.673961
 31
0.0
  0
SOLID
  8
0
  6
BYBLOCK
 62
     0
 10
3.097377
 20
6.703961
 30
0.0
 11
3.097377
 21
6.643961
 31
0.0
 12
2.917377
 22
6.673961
 32
0.0
 13
2.917377
 23
6.673961
 33
0.0
  0
SOLID
  8
0
  6
BYBLOCK
 62
     0
 10
7.737377
 20
6.703961
 30
0.0
 11
7.737377
 21
6.643961
 31
0.0
 12
7.917377
 22
6.673961
 32
0.0
 13
7.917377
 23
6.673961
 33
0.0
  0
TEXT
  8
0
  6
BYBLOCK
 62
     0
 10
5.253314
 20
6.611461
 30
0.0
 40
0.125
  1
5.000
 41
0.75
  7
TXT
 72
     1
 11
5.417377
 21
6.673961
 31
0.0
 73
     2
  0
POINT
  8
DEFPOINTS
  6
BYBLOCK
 62
     0
 10
2.917377
 20
6.386888
 30
0.0
  0
POINT
  8
DEFPOINTS
  6
BYBLOCK
 62
     0
 10
7.917377
 20
6.386888
 30
0.0
  0
POINT
  8
DEFPOINTS
  6
BYBLOCK
 62
     0
 10
7.917377
 20
6.673961
 30
0.0
  0
ENDBLK
  8
0
  0
BLOCK
  8
0
  2
*D23
 70
    65
 10
0.0
 20
0.0
 30
0.0
  3
*D
  0
LINE
  8
0
  6
BYBLOCK
 62
     0
 10
2.917377
 20
5.324888
 30
0.0
 11
2.917377
 21
5.639312
 31
0.0
  0
LINE
  8
0
  6
BYBLOCK
 62
     0
 10
3.416992
 20
5.023641
 30
0.0
 11
3.416992
 21
5.639312
 31
0.0
  0
LINE
  8
0
  6
BYBLOCK
 62
     0
 10
2.737377
 20
5.546312
 30
0.0
 11
2.557377
 21
5.546312
 31
0.0
  0
LINE
  8
0
  6
BYBLOCK
 62
     0
 10
3.596992
 20
5.546312
 30
0.0
 11
3.776992
 21
5.546312
 31
0.0
  0
SOLID
  8
0
  6
BYBLOCK
 62
     0
 10
2.737377
 20
5.576312
 30
0.0
 11
2.737377
 21
5.516312
 31
0.0
 12
2.917377
 22
5.546312
 32
0.0
 13
2.917377
 23
5.546312
 33
0.0
  0
SOLID
  8
0
  6
BYBLOCK
 62
     0
 10
3.596992
 20
5.576312
 30
0.0
 11
3.596992
 21
5.516312
 31
0.0
 12
3.416992
 22
5.546312
 32
0.0
 13
3.416992
 23
5.546312
 33
0.0
  0
TEXT
  8
0
  6
BYBLOCK
 62
     0
 10
3.003122
 20
5.483812
 30
0.0
 40
0.125
  1
0.500
 41
0.75
  7
TXT
 72
     1
 11
3.167184
 21
5.546312
 31
0.0
 73
     2
  0
POINT
  8
DEFPOINTS
  6
BYBLOCK
 62
     0
 10
2.917377
 20
5.261888
 30
0.0
  0
POINT
  8
DEFPOINTS
  6
BYBLOCK
 62
     0
 10
3.416992
 20
4.960641
 30
0.0
  0
POINT
  8
DEFPOINTS
  6
BYBLOCK
 62
     0
 10
3.416992
 20
5.546312
 30
0.0
  0
ENDBLK
  8
0
  0
BLOCK
  8
0
  2
*D24
 70
    65
 10
0.0
 20
0.0
 30
0.0
  3
*D
  0
LINE
  8
0
  6
BYBLOCK
 62
     0
 10
3.416992
 20
5.023641
 30
0.0
 11
3.416992
 21
5.639312
 31
0.0
  0
LINE
  8
0
  6
BYBLOCK
 62
     0
 10
7.416992
 20
5.023641
 30
0.0
 11
7.416992
 21
5.639312
 31
0.0
  0
LINE
  8
0
  6
BYBLOCK
 62
     0
 10
3.596992
 20
5.546312
 30
0.0
 11
5.16293
 21
5.546312
 31
0.0
  0
LINE
  8
0
  6
BYBLOCK
 62
     0
 10
7.236992
 20
5.546312
 30
0.0
 11
5.671055
 21
5.546312
 31
0.0
  0
SOLID
  8
0
  6
BYBLOCK
 62
     0
 10
3.596992
 20
5.576312
 30
0.0
 11
3.596992
 21
5.516312
 31
0.0
 12
3.416992
 22
5.546312
 32
0.0
 13
3.416992
 23
5.546312
 33
0.0
  0
SOLID
  8
0
  6
BYBLOCK
 62
     0
 10
7.236992
 20
5.576312
 30
0.0
 11
7.236992
 21
5.516312
 31
0.0
 12
7.416992
 22
5.546312
 32
0.0
 13
7.416992
 23
5.546312
 33
0.0
  0
TEXT
  8
0
  6
BYBLOCK
 62
     0
 10
5.25293
 20
5.483812
 30
0.0
 40
0.125
  1
4.000
 41
0.75
  7
TXT
 72
     1
 11
5.416992
 21
5.546312
 31
0.0
 73
     2
  0
POINT
  8
DEFPOINTS
  6
BYBLOCK
 62
     0
 10
3.416992
 20
4.960641
 30
0.0
  0
POINT
  8
DEFPOINTS
  6
BYBLOCK
 62
     0
 10
7.416992
 20
4.960641
 30
0.0
  0
POINT
  8
DEFPOINTS
  6
BYBLOCK
 62
     0
 10
7.416992
 20
5.546312
 30
0.0
  0
ENDBLK
  8
0
  0
BLOCK
  8
0
  2
*D25
 70
    65
 10
0.0
 20
0.0
 30
0.0
  3
*D
  0
LINE
  8
0
  6
BYBLOCK
 62
     0
 10
7.416992
 20
5.023641
 30
0.0
 11
7.416992
 21
5.639312
 31
0.0
  0
LINE
  8
0
  6
BYBLOCK
 62
     0
 10
7.917377
 20
5.324888
 30
0.0
 11
7.917377
 21
5.639312
 31
0.0
  0
LINE
  8
0
  6
BYBLOCK
 62
     0
 10
7.236992
 20
5.546312
 30
0.0
 11
7.056992
 21
5.546312
 31
0.0
  0
LINE
  8
0
  6
BYBLOCK
 62
     0
 10
8.097377
 20
5.546312
 30
0.0
 11
8.277377
 21
5.546312
 31
0.0
  0
SOLID
  8
0
  6
BYBLOCK
 62
     0
 10
7.236992
 20
5.576312
 30
0.0
 11
7.236992
 21
5.516312
 31
0.0
 12
7.416992
 22
5.546312
 32
0.0
 13
7.416992
 23
5.546312
 33
0.0
  0
SOLID
  8
0
  6
BYBLOCK
 62
     0
 10
8.097377
 20
5.576312
 30
0.0
 11
8.097377
 21
5.516312
 31
0.0
 12
7.917377
 22
5.546312
 32
0.0
 13
7.917377
 23
5.546312
 33
0.0
  0
TEXT
  8
0
  6
BYBLOCK
 62
     0
 10
7.503122
 20
5.483812
 30
0.0
 40
0.125
  1
0.500
 41
0.75
  7
TXT
 72
     1
 11
7.667184
 21
5.546312
 31
0.0
 73
     2
  0
POINT
  8
DEFPOINTS
  6
BYBLOCK
 62
     0
 10
7.416992
 20
4.960641
 30
0.0
  0
POINT
  8
DEFPOINTS
  6
BYBLOCK
 62
     0
 10
7.917377
 20
5.261888
 30
0.0
  0
POINT
  8
DEFPOINTS
  6
BYBLOCK
 62
     0
 10
7.917377
 20
5.546312
 30
0.0
  0
ENDBLK
  8
0
  0
BLOCK
  8
0
  2
*D26
 70
    65
 10
0.0
 20
0.0
 30
0.0
  3
*D
  0
LINE
  8
0
  6
BYBLOCK
 62
     0
 10
8.542377
 20
5.324888
 30
0.0
 11
8.542377
 21
6.152173
 31
0.0
  0
LINE
  8
0
  6
BYBLOCK
 62
     0
 10
9.042377
 20
5.324888
 30
0.0
 11
9.042377
 21
6.152173
 31
0.0
  0
LINE
  8
0
  6
BYBLOCK
 62
     0
 10
8.362377
 20
6.059173
 30
0.0
 11
8.182377
 21
6.059173
 31
0.0
  0
LINE
  8
0
  6
BYBLOCK
 62
     0
 10
9.222377
 20
6.059173
 30
0.0
 11
9.402377
 21
6.059173
 31
0.0
  0
SOLID
  8
0
  6
BYBLOCK
 62
     0
 10
8.362377
 20
6.089173
 30
0.0
 11
8.362377
 21
6.029173
 31
0.0
 12
8.542377
 22
6.059173
 32
0.0
 13
8.542377
 23
6.059173
 33
0.0
  0
SOLID
  8
0
  6
BYBLOCK
 62
     0
 10
9.222377
 20
6.089173
 30
0.0
 11
9.222377
 21
6.029173
 31
0.0
 12
9.042377
 22
6.059173
 32
0.0
 13
9.042377
 23
6.059173
 33
0.0
  0
TEXT
  8
0
  6
BYBLOCK
 62
     0
 10
8.628314
 20
5.996673
 30
0.0
 40
0.125
  1
0.500
 41
0.75
  7
TXT
 72
     1
 11
8.792377
 21
6.059173
 31
0.0
 73
     2
  0
POINT
  8
DEFPOINTS
  6
BYBLOCK
 62
     0
 10
8.542377
 20
5.261888
 30
0.0
  0
POINT
  8
DEFPOINTS
  6
BYBLOCK
 62
     0
 10
9.042377
 20
5.261888
 30
0.0
  0
POINT
  8
DEFPOINTS
  6
BYBLOCK
 62
     0
 10
9.042377
 20
6.059173
 30
0.0
  0
ENDBLK
  8
0
  0
BLOCK
  8
0
  2
*D27
 70
    65
 10
0.0
 20
0.0
 30
0.0
  3
*D
  0
LINE
  8
0
  6
BYBLOCK
 62
     0
 10
9.105377
 20
5.136888
 30
0.0
 11
9.564826
 21
5.136888
 31
0.0
  0
LINE
  8
0
  6
BYBLOCK
 62
     0
 10
9.105377
 20
4.761888
 30
0.0
 11
9.564826
 21
4.761888
 31
0.0
  0
LINE
  8
0
  6
BYBLOCK
 62
     0
 10
9.471826
 20
5.316888
 30
0.0
 11
9.471826
 21
5.496888
 31
0.0
  0
LINE
  8
0
  6
BYBLOCK
 62
     0
 10
9.471826
 20
4.581888
 30
0.0
 11
9.471826
 21
4.401888
 31
0.0
  0
SOLID
  8
0
  6
BYBLOCK
 62
     0
 10
9.441826
 20
5.316888
 30
0.0
 11
9.501826
 21
5.316888
 31
0.0
 12
9.471826
 22
5.136888
 32
0.0
 13
9.471826
 23
5.136888
 33
0.0
  0
SOLID
  8
0
  6
BYBLOCK
 62
     0
 10
9.441826
 20
4.581888
 30
0.0
 11
9.501826
 21
4.581888
 31
0.0
 12
9.471826
 22
4.761888
 32
0.0
 13
9.471826
 23
4.761888
 33
0.0
  0
TEXT
  8
0
  6
BYBLOCK
 62
     0
 10
9.292138
 20
4.886888
 30
0.0
 40
0.125
  1
0.375
 41
0.75
  7
TXT
 72
     1
 11
9.471826
 21
4.949388
 31
0.0
 73
     2
  0
POINT
  8
DEFPOINTS
  6
BYBLOCK
 62
     0
 10
9.042377
 20
5.136888
 30
0.0
  0
POINT
  8
DEFPOINTS
  6
BYBLOCK
 62
     0
 10
9.042377
 20
4.761888
 30
0.0
  0
POINT
  8
DEFPOINTS
  6
BYBLOCK
 62
     0
 10
9.471826
 20
4.761888
 30
0.0
  0
ENDBLK
  8
0
  0
BLOCK
  8
0
  2
*D28
 70
    65
 10
0.0
 20
0.0
 30
0.0
  3
*D
  0
LINE
  8
0
  6
BYBLOCK
 62
     0
 10
9.105377
 20
5.261888
 30
0.0
 11
10.016672
 21
5.261888
 31
0.0
  0
LINE
  8
0
  6
BYBLOCK
 62
     0
 10
9.105377
 20
4.636888
 30
0.0
 11
10.016672
 21
4.636888
 31
0.0
  0
LINE
  8
0
  6
BYBLOCK
 62
     0
 10
9.923672
 20
5.441888
 30
0.0
 11
9.923672
 21
5.621888
 31
0.0
  0
LINE
  8
0
  6
BYBLOCK
 62
     0
 10
9.923672
 20
4.456888
 30
0.0
 11
9.923672
 21
4.276888
 31
0.0
  0
SOLID
  8
0
  6
BYBLOCK
 62
     0
 10
9.893672
 20
5.441888
 30
0.0
 11
9.953672
 21
5.441888
 31
0.0
 12
9.923672
 22
5.261888
 32
0.0
 13
9.923672
 23
5.261888
 33
0.0
  0
SOLID
  8
0
  6
BYBLOCK
 62
     0
 10
9.893672
 20
4.456888
 30
0.0
 11
9.953672
 21
4.456888
 31
0.0
 12
9.923672
 22
4.636888
 32
0.0
 13
9.923672
 23
4.636888
 33
0.0
  0
TEXT
  8
0
  6
BYBLOCK
 62
     0
 10
9.743984
 20
4.886888
 30
0.0
 40
0.125
  1
0.625
 41
0.75
  7
TXT
 72
     1
 11
9.923672
 21
4.949388
 31
0.0
 73
     2
  0
POINT
  8
DEFPOINTS
  6
BYBLOCK
 62
     0
 10
9.042377
 20
5.261888
 30
0.0
  0
POINT
  8
DEFPOINTS
  6
BYBLOCK
 62
     0
 10
9.042377
 20
4.636888
 30
0.0
  0
POINT
  8
DEFPOINTS
  6
BYBLOCK
 62
     0
 10
9.923672
 20
4.636888
 30
0.0
  0
ENDBLK
  8
0
  0
BLOCK
  8
0
  2
*D29
 70
    65
 10
0.0
 20
0.0
 30
0.0
  3
*D
  0
LINE
  8
0
  6
BYBLOCK
 62
     0
 10
8.256116
 20
5.258442
 30
0.0
 11
8.256116
 21
5.779411
 31
0.0
  0
LINE
  8
0
  6
BYBLOCK
 62
     0
 10
8.631116
 20
5.258442
 30
0.0
 11
8.631116
 21
5.779411
 31
0.0
  0
LINE
  8
0
  6
BYBLOCK
 62
     0
 10
8.076116
 20
5.686411
 30
0.0
 11
7.896116
 21
5.686411
 31
0.0
  0
LINE
  8
0
  6
BYBLOCK
 62
     0
 10
8.811116
 20
5.686411
 30
0.0
 11
8.991116
 21
5.686411
 31
0.0
  0
SOLID
  8
0
  6
BYBLOCK
 62
     0
 10
8.076116
 20
5.716411
 30
0.0
 11
8.076116
 21
5.656411
 31
0.0
 12
8.256116
 22
5.686411
 32
0.0
 13
8.256116
 23
5.686411
 33
0.0
  0
SOLID
  8
0
  6
BYBLOCK
 62
     0
 10
8.811116
 20
5.716411
 30
0.0
 11
8.811116
 21
5.656411
 31
0.0
 12
8.631116
 22
5.686411
 32
0.0
 13
8.631116
 23
5.686411
 33
0.0
  0
TEXT
  8
0
  6
BYBLOCK
 62
     0
 10
9.020417
 20
5.623911
 30
0.0
 40
0.125
  1
0.375
 41
0.75
  7
TXT
 72
     1
 11
9.200104
 21
5.686411
 31
0.0
 73
     2
  0
POINT
  8
DEFPOINTS
  6
BYBLOCK
 62
     0
 10
8.256116
 20
5.195442
 30
0.0
  0
POINT
  8
DEFPOINTS
  6
BYBLOCK
 62
     0
 10
8.631116
 20
5.195442
 30
0.0
  0
POINT
  8
DEFPOINTS
  6
BYBLOCK
 62
     0
 10
8.631116
 20
5.686411
 30
0.0
  0
ENDBLK
  8
0
  0
ENDSEC
  0
SECTION
  2
ENTITIES
  0
TEXT
  8
TEXT
 10
0.207833
 20
15.060079
 30
0.0
 40
0.125
  1
NAME
 72
     1
 11
0.437
 21
15.060079
 31
0.0
  0
TEXT
  8
TEXT
 10
0.207833
 20
15.268413
 30
0.0
 40
0.125
  1
PART
 72
     1
 11
0.437
 21
15.268413
 31
0.0
  0
TEXT
  8
TEXT
 10
5.372
 20
15.060079
 30
0.0
 40
0.125
  1
No.
 72
     1
 11
5.497
 21
15.060079
 31
0.0
  0
TEXT
  8
TEXT
 10
5.267833
 20
15.268413
 30
0.0
 40
0.125
  1
PART
 72
     1
 11
5.497
 21
15.268413
 31
0.0
  0
LINE
  8
TITLE
 10
5.872
 20
15.438
 30
0.0
 11
5.872
 21
15.02
 31
0.0
  0
LINE
  8
TITLE
 10
5.122
 20
15.438
 30
0.0
 11
5.122
 21
15.02
 31
0.0
  0
LINE
  8
TITLE
 10
5.06
 20
15.438
 30
0.0
 11
5.06
 21
15.02
 31
0.0
  0
LINE
  8
TITLE
 10
0.812
 20
15.02
 30
0.0
 11
0.812
 21
15.438
 31
0.0
  0
LINE
  8
TITLE
 10
0.062
 20
15.02
 30
0.0
 11
10.058
 21
15.02
 31
0.0
  0
LINE
  8
TITLE
 10
10.058
 20
0.062
 30
0.0
 11
0.062
 21
0.062
 31
0.0
  0
LINE
  8
TITLE
 10
10.058
 20
15.438
 30
0.0
 11
10.058
 21
11.656
 31
0.0
  0
LINE
  8
TITLE
 10
0.062
 20
15.438
 30
0.0
 11
10.058
 21
15.438
 31
0.0
  0
LINE
  8
TITLE
 10
0.062
 20
0.062
 30
0.0
 11
0.062
 21
3.906
 31
0.0
  0
LINE
  8
TITLE
 10
0.0
 20
0.0
 30
0.0
 11
0.0
 21
15.5
 31
0.0
  0
LINE
  8
TITLE
 10
10.12
 20
0.0
 30
0.0
 11
0.0
 21
0.0
 31
0.0
  0
LINE
  8
TITLE
 10
10.12
 20
15.5
 30
0.0
 11
10.12
 21
0.0
 31
0.0
  0
LINE
  8
TITLE
 10
0.0
 20
15.5
 30
0.0
 11
10.12
 21
15.5
 31
0.0
  0
INSERT
  8
0
  2
ACAD
 10
5.952955
 20
14.608832
 30
0.0
 41
0.25
 42
0.25
 43
0.25
  0
TEXT
  8
TEXT
 10
2.6045
 20
15.151
 30
0.0
 40
0.156
  1
HANDLE
 41
0.75
  7
TXT
 72
     4
 11
2.936
 21
15.229
 31
0.0
  0
TEXT
  8
TEXT
 10
7.068
 20
15.151
 30
0.0
 40
0.156
  1
H-9115 AND H-9116
 41
0.75
  7
TXT
 72
     4
 11
7.965
 21
15.229
 31
0.0
  0
LINE
  8
TITLE
 10
0.062
 20
11.656
 30
0.0
 11
10.058
 21
11.656
 31
0.0
  0
LINE
  8
TITLE
 10
0.062
 20
11.594
 30
0.0
 11
10.058
 21
11.594
 31
0.0
  0
LINE
  8
TITLE
 10
0.062
 20
11.176
 30
0.0
 11
10.058
 21
11.176
 31
0.0
  0
LINE
  8
TITLE
 10
0.812
 20
11.176
 30
0.0
 11
0.812
 21
11.594
 31
0.0
  0
TEXT
  8
TEXT
 10
0.207833
 20
11.216079
 30
0.0
 40
0.125
  1
NAME
 72
     1
 11
0.437
 21
11.216079
 31
0.0
  0
TEXT
  8
TEXT
 10
0.207833
 20
11.424413
 30
0.0
 40
0.125
  1
PART
 72
     1
 11
0.437
 21
11.424413
 31
0.0
  0
TEXT
  8
TEXT
 10
7.653
 20
11.307
 30
0.0
 40
0.156
  1
H-9179
 41
0.75
  7
TXT
 72
     4
 11
7.965
 21
11.385
 31
0.0
  0
TEXT
  8
TEXT
 10
5.267833
 20
11.424413
 30
0.0
 40
0.125
  1
PART
 72
     1
 11
5.497
 21
11.424413
 31
0.0
  0
TEXT
  8
TEXT
 10
2.6045
 20
11.307
 30
0.0
 40
0.156
  1
HANDLE
 41
0.75
  7
TXT
 72
     4
 11
2.936
 21
11.385
 31
0.0
  0
LINE
  8
TITLE
 10
5.06
 20
11.594
 30
0.0
 11
5.06
 21
11.176
 31
0.0
  0
LINE
  8
TITLE
 10
5.122
 20
11.594
 30
0.0
 11
5.122
 21
11.176
 31
0.0
  0
LINE
  8
TITLE
 10
5.872
 20
11.594
 30
0.0
 11
5.872
 21
11.176
 31
0.0
  0
TEXT
  8
TEXT
 10
5.372
 20
11.216079
 30
0.0
 40
0.125
  1
No.
 72
     1
 11
5.497
 21
11.216079
 31
0.0
  0
LINE
  8
TITLE
 10
0.062
 20
7.812
 30
0.0
 11
10.058
 21
7.812
 31
0.0
  0
LINE
  8
TITLE
 10
0.062
 20
7.75
 30
0.0
 11
10.058
 21
7.75
 31
0.0
  0
LINE
  8
TITLE
 10
0.062
 20
7.332
 30
0.0
 11
10.058
 21
7.332
 31
0.0
  0
LINE
  8
TITLE
 10
0.812
 20
7.332
 30
0.0
 11
0.812
 21
7.75
 31
0.0
  0
TEXT
  8
TEXT
 10
0.207833
 20
7.372079
 30
0.0
 40
0.125
  1
NAME
 72
     1
 11
0.437
 21
7.372079
 31
0.0
  0
TEXT
  8
TEXT
 10
0.207833
 20
7.580413
 30
0.0
 40
0.125
  1
PART
 72
     1
 11
0.437
 21
7.580413
 31
0.0
  0
TEXT
  8
TEXT
 10
7.66275
 20
7.463
 30
0.0
 40
0.156
  1
H-9180
 41
0.75
  7
TXT
 72
     4
 11
7.965
 21
7.541
 31
0.0
  0
TEXT
  8
TEXT
 10
5.267833
 20
7.580413
 30
0.0
 40
0.125
  1
PART
 72
     1
 11
5.497
 21
7.580413
 31
0.0
  0
TEXT
  8
TEXT
 10
2.6045
 20
7.463
 30
0.0
 40
0.156
  1
HANDLE
 41
0.75
  7
TXT
 72
     4
 11
2.936
 21
7.541
 31
0.0
  0
LINE
  8
TITLE
 10
5.06
 20
7.75
 30
0.0
 11
5.06
 21
7.332
 31
0.0
  0
LINE
  8
TITLE
 10
5.122
 20
7.75
 30
0.0
 11
5.122
 21
7.332
 31
0.0
  0
LINE
  8
TITLE
 10
5.872
 20
7.75
 30
0.0
 11
5.872
 21
7.332
 31
0.0
  0
TEXT
  8
TEXT
 10
5.372
 20
7.372079
 30
0.0
 40
0.125
  1
No.
 72
     1
 11
5.497
 21
7.372079
 31
0.0
  0
LINE
  8
TITLE
 10
0.062
 20
3.968
 30
0.0
 11
10.058
 21
3.968
 31
0.0
  0
LINE
  8
TITLE
 10
0.062
 20
3.906
 30
0.0
 11
10.058
 21
3.906
 31
0.0
  0
LINE
  8
TITLE
 10
0.062
 20
3.488
 30
0.0
 11
10.058
 21
3.488
 31
0.0
  0
LINE
  8
TITLE
 10
0.812
 20
3.488
 30
0.0
 11
0.812
 21
3.906
 31
0.0
  0
TEXT
  8
TEXT
 10
0.207833
 20
3.528079
 30
0.0
 40
0.125
  1
NAME
 72
     1
 11
0.437
 21
3.528079
 31
0.0
  0
TEXT
  8
TEXT
 10
0.207833
 20
3.736413
 30
0.0
 40
0.125
  1
PART
 72
     1
 11
0.437
 21
3.736413
 31
0.0
  0
TEXT
  8
TEXT
 10
7.653
 20
3.619
 30
0.0
 40
0.156
  1
H-9183
 41
0.75
  7
TXT
 72
     4
 11
7.965
 21
3.697
 31
0.0
  0
TEXT
  8
TEXT
 10
5.267833
 20
3.736413
 30
0.0
 40
0.125
  1
PART
 72
     1
 11
5.497
 21
3.736413
 31
0.0
  0
TEXT
  8
TEXT
 10
2.6045
 20
3.619
 30
0.0
 40
0.156
  1
HANDLE
 41
0.75
  7
TXT
 72
     4
 11
2.936
 21
3.697
 31
0.0
  0
LINE
  8
TITLE
 10
5.06
 20
3.906
 30
0.0
 11
5.06
 21
3.488
 31
0.0
  0
LINE
  8
TITLE
 10
5.122
 20
3.906
 30
0.0
 11
5.122
 21
3.488
 31
0.0
  0
LINE
  8
TITLE
 10
5.872
 20
3.906
 30
0.0
 11
5.872
 21
3.488
 31
0.0
  0
TEXT
  8
TEXT
 10
5.372
 20
3.528079
 30
0.0
 40
0.125
  1
No.
 72
     1
 11
5.497
 21
3.528079
 31
0.0
  0
LINE
  8
TITLE
 10
10.058
 20
7.75
 30
0.0
 11
10.058
 21
3.968
 31
0.0
  0
LINE
  8
TITLE
 10
10.058
 20
11.594
 30
0.0
 11
10.058
 21
7.812
 31
0.0
  0
LINE
  8
TITLE
 10
10.058
 20
3.906
 30
0.0
 11
10.058
 21
0.062
 31
0.0
  0
LINE
  8
TITLE
 10
0.062
 20
3.968
 30
0.0
 11
0.062
 21
7.75
 31
0.0
  0
LINE
  8
TITLE
 10
0.062
 20
7.812
 30
0.0
 11
0.062
 21
11.594
 31
0.0
  0
LINE
  8
TITLE
 10
0.062
 20
11.656
 30
0.0
 11
0.062
 21
15.438
 31
0.0
  0
LINE
  8
OBJECT
 10
2.32036
 20
13.650492
 30
0.0
 11
2.32036
 21
14.119242
 31
0.0
  0
LINE
  8
OBJECT
 10
2.83561
 20
14.634492
 30
0.0
 11
6.58636
 21
14.634492
 31
0.0
  0
LINE
  8
OBJECT
 10
7.10161
 20
14.119242
 30
0.0
 11
7.10161
 21
13.650492
 31
0.0
  0
LINE
  8
OBJECT
 10
7.00786
 20
13.275492
 30
0.0
 11
6.91411
 21
13.275492
 31
0.0
  0
LINE
  8
OBJECT
 10
2.83561
 20
14.353242
 30
0.0
 11
6.58636
 21
14.353242
 31
0.0
  0
LINE
  8
OBJECT
 10
2.60161
 20
13.650492
 30
0.0
 11
2.60161
 21
14.119242
 31
0.0
  0
LINE
  8
OBJECT
 10
6.82036
 20
14.119242
 30
0.0
 11
6.82036
 21
13.650492
 31
0.0
  0
LINE
  8
OBJECT
 10
2.50786
 20
13.275492
 30
0.0
 11
2.41411
 21
13.275492
 31
0.0
  0
ARC
  8
OBJECT
 10
2.83561
 20
14.119242
 30
0.0
 40
0.234
 50
90.0
 51
180.0
  0
ARC
  8
OBJECT
 10
6.58636
 20
14.119242
 30
0.0
 40
0.234
 50
0.0
 51
90.0
  0
ARC
  8
OBJECT
 10
2.83561
 20
14.119242
 30
0.0
 40
0.51525
 50
90.0
 51
180.0
  0
ARC
  8
OBJECT
 10
6.58636
 20
14.119242
 30
0.0
 40
0.51525
 50
0.0
 51
90.0
  0
LINE
  8
OBJECT
 10
2.60161
 20
13.650492
 30
0.0
 11
2.32036
 21
13.650492
 31
0.0
  0
LINE
  8
OBJECT
 10
7.10161
 20
13.650492
 30
0.0
 11
6.82036
 21
13.650492
 31
0.0
  0
LINE
  8
OBJECT
 10
2.367235
 20
13.322367
 30
0.0
 11
2.367235
 21
13.650492
 31
0.0
  0
LINE
  8
OBJECT
 10
2.554735
 20
13.322367
 30
0.0
 11
2.554735
 21
13.650492
 31
0.0
  0
LINE
  8
OBJECT
 10
6.867235
 20
13.650492
 30
0.0
 11
6.867235
 21
13.322367
 31
0.0
  0
LINE
  8
OBJECT
 10
7.054735
 20
13.650492
 30
0.0
 11
7.054735
 21
13.322367
 31
0.0
  0
LINE
  8
OBJECT
 10
2.554735
 20
13.322367
 30
0.0
 11
2.367235
 21
13.322367
 31
0.0
  0
LINE
  8
OBJECT
 10
7.054735
 20
13.322367
 30
0.0
 11
6.867235
 21
13.322367
 31
0.0
  0
LINE
  8
OBJECT
 10
2.50786
 20
13.369242
 30
0.0
 11
2.41411
 21
13.369242
 31
0.0
  0
LINE
  8
OBJECT
 10
7.00786
 20
13.369242
 30
0.0
 11
6.91411
 21
13.369242
 31
0.0
  0
LINE
  8
OBJECT
 10
2.554735
 20
13.416117
 30
0.0
 11
2.367235
 21
13.416117
 31
0.0
  0
LINE
  8
OBJECT
 10
7.054735
 20
13.416117
 30
0.0
 11
6.867235
 21
13.416117
 31
0.0
  0
LINE
  8
OBJECT
 10
2.50786
 20
13.462992
 30
0.0
 11
2.41411
 21
13.462992
 31
0.0
  0
LINE
  8
OBJECT
 10
7.00786
 20
13.462992
 30
0.0
 11
6.91411
 21
13.462992
 31
0.0
  0
LINE
  8
OBJECT
 10
2.554735
 20
13.509867
 30
0.0
 11
2.367235
 21
13.509867
 31
0.0
  0
LINE
  8
OBJECT
 10
7.054735
 20
13.509867
 30
0.0
 11
6.867235
 21
13.509867
 31
0.0
  0
LINE
  8
OBJECT
 10
2.50786
 20
13.556742
 30
0.0
 11
2.41411
 21
13.556742
 31
0.0
  0
LINE
  8
OBJECT
 10
7.00786
 20
13.556742
 30
0.0
 11
6.91411
 21
13.556742
 31
0.0
  0
LINE
  8
OBJECT
 10
2.554735
 20
13.603617
 30
0.0
 11
2.367235
 21
13.603617
 31
0.0
  0
LINE
  8
OBJECT
 10
7.054735
 20
13.603617
 30
0.0
 11
6.867235
 21
13.603617
 31
0.0
  0
LINE
  8
OBJECT
 10
6.867235
 20
13.322367
 30
0.0
 11
6.91411
 21
13.275492
 31
0.0
  0
LINE
  8
OBJECT
 10
7.00786
 20
13.275492
 30
0.0
 11
7.054735
 21
13.322367
 31
0.0
  0
LINE
  8
OBJECT
 10
2.367235
 20
13.322367
 30
0.0
 11
2.41411
 21
13.275492
 31
0.0
  0
LINE
  8
OBJECT
 10
2.50786
 20
13.275492
 30
0.0
 11
2.554735
 21
13.322367
 31
0.0
  0
LINE
  8
OBJECT
 10
2.457712
 20
12.844397
 30
0.0
 11
6.958462
 21
12.844397
 31
0.0
  0
LINE
  8
OBJECT
 10
6.958462
 20
12.563147
 30
0.0
 11
2.457712
 21
12.563147
 31
0.0
  0
CIRCLE
  8
OBJECT
 10
2.457712
 20
12.703772
 30
0.0
 40
0.046875
  0
CIRCLE
  8
OBJECT
 10
6.958462
 20
12.703772
 30
0.0
 40
0.046875
  0
CIRCLE
  8
OBJECT
 10
2.457712
 20
12.703772
 30
0.0
 40
0.09375
  0
CIRCLE
  8
OBJECT
 10
6.958462
 20
12.703772
 30
0.0
 40
0.09375
  0
CIRCLE
  8
OBJECT
 10
2.457712
 20
12.703772
 30
0.0
 40
0.140625
  0
CIRCLE
  8
OBJECT
 10
6.958462
 20
12.703772
 30
0.0
 40
0.140625
  0
LINE
  8
OBJECT
 10
8.517504
 20
14.029334
 30
0.0
 11
8.517504
 21
13.650492
 31
0.0
  0
LINE
  8
OBJECT
 10
8.798754
 20
14.029334
 30
0.0
 11
8.798754
 21
13.650492
 31
0.0
  0
LINE
  8
OBJECT
 10
8.564379
 20
13.650492
 30
0.0
 11
8.564379
 21
13.322367
 31
0.0
  0
LINE
  8
OBJECT
 10
8.751879
 20
13.650492
 30
0.0
 11
8.751879
 21
13.322367
 31
0.0
  0
LINE
  8
OBJECT
 10
8.751879
 20
13.322367
 30
0.0
 11
8.564379
 21
13.322367
 31
0.0
  0
LINE
  8
OBJECT
 10
8.705004
 20
13.275492
 30
0.0
 11
8.611254
 21
13.275492
 31
0.0
  0
LINE
  8
OBJECT
 10
8.751879
 20
13.416117
 30
0.0
 11
8.564379
 21
13.416117
 31
0.0
  0
LINE
  8
OBJECT
 10
8.705004
 20
13.369242
 30
0.0
 11
8.611254
 21
13.369242
 31
0.0
  0
LINE
  8
OBJECT
 10
8.705004
 20
13.462992
 30
0.0
 11
8.611254
 21
13.462992
 31
0.0
  0
LINE
  8
OBJECT
 10
8.564379
 20
13.322367
 30
0.0
 11
8.611254
 21
13.275492
 31
0.0
  0
LINE
  8
OBJECT
 10
8.705004
 20
13.275492
 30
0.0
 11
8.751879
 21
13.322367
 31
0.0
  0
LINE
  8
OBJECT
 10
8.798754
 20
13.650492
 30
0.0
 11
8.517504
 21
13.650492
 31
0.0
  0
LINE
  8
OBJECT
 10
8.751879
 20
13.603617
 30
0.0
 11
8.564379
 21
13.603617
 31
0.0
  0
LINE
  8
OBJECT
 10
8.751879
 20
13.509867
 30
0.0
 11
8.564379
 21
13.509867
 31
0.0
  0
LINE
  8
OBJECT
 10
8.705004
 20
13.556742
 30
0.0
 11
8.611254
 21
13.556742
 31
0.0
  0
LINE
  8
OBJECT
 10
8.517504
 20
14.029334
 30
0.0
 11
8.517214
 21
14.493529
 31
0.0
  0
CIRCLE
  8
OBJECT
 10
8.657839
 20
14.493529
 30
0.0
 40
0.140625
  0
LINE
  8
OBJECT
 10
8.798754
 20
14.029334
 30
0.0
 11
8.798464
 21
14.493529
 31
0.0
  0
INSERT
  8
OBJECT
  2
*X2
 10
1.552339
 20
3.577279
 30
0.0
 41
0.75
 42
0.75
 43
0.75
1001
ACAD
1000
HATCH
1002
{
1070
    16
1000
ANSI31
1040
0.625
1040
0.0
1002
}
  0
TEXT
  8
TEXT
 10
0.183482
 20
14.752566
 30
0.0
 40
0.125
  1
MATERIAL:
 41
0.75
  7
TXT
 11
0.183482
 21
14.815066
 31
0.0
 73
     2
  0
TEXT
  8
TEXT
 10
0.183482
 20
14.544232
 30
0.0
 40
0.125
  1
   STEEL
 41
0.75
  7
TXT
 11
0.183482
 21
14.606732
 31
0.0
 73
     2
  0
TEXT
  8
TEXT
 10
0.183482
 20
14.127899
 30
0.0
 40
0.125
  1
FINISH:
 41
0.75
  7
TXT
 11
0.183482
 21
14.190399
 31
0.0
 73
     2
  0
TEXT
  8
TEXT
 10
0.183482
 20
13.919566
 30
0.0
 40
0.125
  1
   CHROME PLATED
 41
0.75
  7
TXT
 11
0.183482
 21
13.982066
 31
0.0
 73
     2
  0
LINE
  8
TITLE
 10
3.394
 20
11.656
 30
0.0
 11
3.394
 21
12.28
 31
0.0
  0
LINE
  8
TITLE
 10
6.726
 20
11.656
 30
0.0
 11
6.726
 21
12.28
 31
0.0
  0
LINE
  8
TITLE
 10
0.062
 20
11.864
 30
0.0
 11
10.058
 21
11.864
 31
0.0
  0
LINE
  8
TITLE
 10
0.062
 20
12.072
 30
0.0
 11
10.058
 21
12.072
 31
0.0
  0
LINE
  8
TITLE
 10
0.062
 20
12.28
 30
0.0
 11
10.058
 21
12.28
 31
0.0
  0
TEXT
  8
TEXT
 10
1.399875
 20
12.1135
 30
0.0
 40
0.125
  1
PART No.
 41
0.75
  7
TXT
 72
     4
 11
1.728
 21
12.176
 31
0.0
  0
TEXT
  8
TEXT
 10
5.02875
 20
12.1135
 30
0.0
 40
0.125
  1
A
 41
0.75
  7
TXT
 72
     4
 11
5.06
 21
12.176
 31
0.0
  0
TEXT
  8
TEXT
 10
8.36075
 20
12.1135
 30
0.0
 40
0.125
  1
B
 41
0.75
  7
TXT
 72
     4
 11
8.392
 21
12.176
 31
0.0
  0
TEXT
  8
TEXT
 10
1.493625
 20
11.9055
 30
0.0
 40
0.125
  1
H-9115
 41
0.75
  7
TXT
 72
     4
 11
1.728
 21
11.968
 31
0.0
  0
TEXT
  8
TEXT
 10
4.895938
 20
11.9055
 30
0.0
 40
0.125
  1
4.000
 41
0.75
  7
TXT
 72
     4
 11
5.06
 21
11.968
 31
0.0
  0
TEXT
  8
TEXT
 10
8.2045
 20
11.9055
 30
0.0
 40
0.125
  1
4.375
 41
0.75
  7
TXT
 72
     4
 11
8.392
 21
11.968
 31
0.0
  0
TEXT
  8
TEXT
 10
1.493625
 20
11.6975
 30
0.0
 40
0.125
  1
H-9116
 41
0.75
  7
TXT
 72
     4
 11
1.728
 21
11.76
 31
0.0
  0
TEXT
  8
TEXT
 10
4.895938
 20
11.6975
 30
0.0
 40
0.125
  1
6.000
 41
0.75
  7
TXT
 72
     4
 11
5.06
 21
11.76
 31
0.0
  0
TEXT
  8
TEXT
 10
8.2045
 20
11.6975
 30
0.0
 40
0.125
  1
6.375
 41
0.75
  7
TXT
 72
     4
 11
8.392
 21
11.76
 31
0.0
  0
DIMENSION
  8
DIM
  2
*D3
 10
6.960985
 20
13.110143
 30
0.0
 11
4.710985
 21
13.110143
 31
0.0
 12
0.0
 22
-0.17365
 32
0.0
  1
A
 13
2.460985
 23
13.275492
 33
0.0
 14
6.960985
 24
13.275492
 34
0.0
  3
23NSTD
  0
DIMENSION
  8
DIM
  2
*D5
 10
7.817965
 20
14.352904
 30
0.0
 11
7.817965
 21
14.001698
 31
0.0
 12
0.0
 22
-0.17365
 32
0.0
  1
0.938
 13
8.517504
 23
13.650492
 33
0.0
 14
8.657839
 24
14.352904
 34
0.0
 50
90.0
  3
23NSTD
  0
DIMENSION
  8
DIM
  2
*D4
 10
8.197965
 20
13.275492
 30
0.0
 11
8.197965
 21
13.462992
 31
0.0
 12
0.0
 22
-0.17365
 32
0.0
  1
0.500
 13
8.517504
 23
13.650492
 33
0.0
 14
8.611254
 24
13.275492
 34
0.0
 50
90.0
  3
23NSTD
  0
DIMENSION
  8
DIM
  2
*D6
 10
9.172254
 20
14.352904
 30
0.0
 11
9.172254
 21
14.493529
 31
0.0
 12
0.0
 22
-0.17365
 32
0.0
  1
.375
 13
8.657839
 23
14.634154
 33
0.0
 14
8.657839
 24
14.352904
 34
0.0
 50
90.0
  3
23NSTD
  0
POLYLINE
  8
DIM
 66
     1
 10
0.0
 20
0.0
 30
0.0
 41
0.0675
  0
VERTEX
  8
DIM
 10
8.751879
 20
13.509867
 30
0.0
  0
VERTEX
  8
DIM
 10
8.931879
 20
13.509867
 30
0.0
 41
0.0
  0
VERTEX
  8
DIM
 10
9.01516
 20
13.509867
 30
0.0
 41
0.0
  0
VERTEX
  8
DIM
 10
9.19516
 20
13.509867
 30
0.0
 41
0.0
  0
SEQEND
  8
DIM
  0
TEXT
  8
DIM
 10
9.28516
 20
13.447367
 30
0.0
 40
0.125
  1
1/4-28
 41
0.75
  7
TXT
 11
9.28516
 21
13.509867
 31
0.0
 73
     2
  0
DIMENSION
  8
DIM
  2
*D7
 10
7.099087
 20
12.413177
 30
0.0
 11
4.708087
 21
12.413177
 31
0.0
 12
0.0
 22
-0.099454
 32
0.0
  1
B
 13
2.317087
 23
12.703772
 33
0.0
 14
7.099087
 24
12.703772
 34
0.0
  3
23NSTD
  0
LINE
  8
OBJECT
 10
2.09915
 20
10.025298
 30
0.0
 11
2.09915
 21
11.025298
 31
0.0
  0
LINE
  8
OBJECT
 10
2.09915
 20
11.025298
 30
0.0
 11
7.09915
 21
11.025298
 31
0.0
  0
LINE
  8
OBJECT
 10
7.09915
 20
11.025298
 30
0.0
 11
7.09915
 21
10.025298
 31
0.0
  0
LINE
  8
OBJECT
 10
7.09915
 20
10.025298
 30
0.0
 11
2.09915
 21
10.025298
 31
0.0
  0
LINE
  8
OBJECT
 10
7.09915
 20
8.025298
 30
0.0
 11
2.09915
 21
8.025298
 31
0.0
  0
LINE
  8
OBJECT
 10
2.09915
 20
9.025298
 30
0.0
 11
7.09915
 21
9.025298
 31
0.0
  0
LINE
  8
OBJECT
 10
2.09915
 20
8.025298
 30
0.0
 11
2.09915
 21
9.025298
 31
0.0
  0
LINE
  8
OBJECT
 10
7.09915
 20
9.025298
 30
0.0
 11
7.09915
 21
8.025298
 31
0.0
  0
LINE
  8
OBJECT
 10
2.09915
 20
8.775298
 30
0.0
 11
7.09915
 21
8.775298
 31
0.0
  0
LINE
  8
OBJECT
 10
2.09915
 20
8.525298
 30
0.0
 11
7.09915
 21
8.525298
 31
0.0
  0
CIRCLE
  8
HIDDEN
 10
2.59915
 20
8.650298
 30
0.0
 40
0.0465
  0
CIRCLE
  8
HIDDEN
 10
2.59915
 20
8.650298
 30
0.0
 40
0.078
  0
CIRCLE
  8
HIDDEN
 10
6.59915
 20
8.650298
 30
0.0
 40
0.078
  0
CIRCLE
  8
HIDDEN
 10
6.59915
 20
8.650298
 30
0.0
 40
0.0465
  0
LINE
  8
HIDDEN
 10
2.09915
 20
10.713298
 30
0.0
 11
7.09915
 21
10.713298
 31
0.0
  0
LINE
  8
HIDDEN
 10
2.55315
 20
10.025298
 30
0.0
 11
2.55315
 21
10.494298
 31
0.0
  0
LINE
  8
HIDDEN
 10
2.64515
 20
10.025298
 30
0.0
 11
2.64515
 21
10.494298
 31
0.0
  0
LINE
  8
HIDDEN
 10
6.55315
 20
10.494298
 30
0.0
 11
6.55315
 21
10.025298
 31
0.0
  0
LINE
  8
HIDDEN
 10
6.64515
 20
10.494298
 30
0.0
 11
6.64515
 21
10.025298
 31
0.0
  0
LINE
  8
HIDDEN
 10
2.52115
 20
10.025298
 30
0.0
 11
2.52115
 21
10.400298
 31
0.0
  0
LINE
  8
HIDDEN
 10
2.67715
 20
10.025298
 30
0.0
 11
2.67715
 21
10.400298
 31
0.0
  0
LINE
  8
HIDDEN
 10
6.67715
 20
10.400298
 30
0.0
 11
6.52115
 21
10.400298
 31
0.0
  0
LINE
  8
HIDDEN
 10
6.52115
 20
10.400298
 30
0.0
 11
6.52115
 21
10.025298
 31
0.0
  0
LINE
  8
HIDDEN
 10
6.67715
 20
10.400298
 30
0.0
 11
6.67715
 21
10.025298
 31
0.0
  0
LINE
  8
HIDDEN
 10
2.67715
 20
10.400298
 30
0.0
 11
2.52115
 21
10.400298
 31
0.0
  0
LINE
  8
HIDDEN
 10
2.64515
 20
10.494298
 30
0.0
 11
2.55315
 21
10.494298
 31
0.0
  0
LINE
  8
HIDDEN
 10
2.55315
 20
10.494298
 30
0.0
 11
2.59915
 21
10.525298
 31
0.0
  0
LINE
  8
HIDDEN
 10
2.59915
 20
10.525298
 30
0.0
 11
2.64515
 21
10.494298
 31
0.0
  0
LINE
  8
HIDDEN
 10
6.64515
 20
10.494298
 30
0.0
 11
6.55315
 21
10.494298
 31
0.0
  0
LINE
  8
HIDDEN
 10
6.55315
 20
10.494298
 30
0.0
 11
6.59915
 21
10.525298
 31
0.0
  0
LINE
  8
HIDDEN
 10
6.59915
 20
10.525298
 30
0.0
 11
6.64515
 21
10.494298
 31
0.0
  0
LINE
  8
OBJECT
 10
8.09915
 20
8.775298
 30
0.0
 11
8.09915
 21
8.525298
 31
0.0
  0
LINE
  8
OBJECT
 10
9.09915
 20
9.025298
 30
0.0
 11
9.09915
 21
8.931021
 31
0.0
  0
LINE
  8
OBJECT
 10
8.09915
 20
8.775298
 30
0.0
 11
8.583764
 21
8.775298
 31
0.0
  0
LINE
  8
OBJECT
 10
8.09915
 20
8.525298
 30
0.0
 11
8.452857
 21
8.525298
 31
0.0
  0
LINE
  8
CENTER
 10
2.59915
 20
10.634298
 30
0.0
 11
2.59915
 21
9.931298
 31
0.0
  0
LINE
  8
CENTER
 10
6.59915
 20
10.634298
 30
0.0
 11
6.59915
 21
9.931298
 31
0.0
  0
LINE
  8
HIDDEN
 10
8.47415
 20
8.572298
 30
0.0
 11
8.09915
 21
8.572298
 31
0.0
  0
LINE
  8
HIDDEN
 10
8.47415
 20
8.728298
 30
0.0
 11
8.09915
 21
8.728298
 31
0.0
  0
LINE
  8
HIDDEN
 10
8.56815
 20
8.604298
 30
0.0
 11
8.09915
 21
8.604298
 31
0.0
  0
LINE
  8
HIDDEN
 10
8.56815
 20
8.696298
 30
0.0
 11
8.09915
 21
8.696298
 31
0.0
  0
LINE
  8
HIDDEN
 10
8.59915
 20
8.650298
 30
0.0
 11
8.56815
 21
8.604298
 31
0.0
  0
LINE
  8
HIDDEN
 10
8.56815
 20
8.604298
 30
0.0
 11
8.56815
 21
8.696298
 31
0.0
  0
LINE
  8
HIDDEN
 10
8.47415
 20
8.572298
 30
0.0
 11
8.47415
 21
8.728298
 31
0.0
  0
LINE
  8
HIDDEN
 10
8.56815
 20
8.696298
 30
0.0
 11
8.59915
 21
8.650298
 31
0.0
  0
ARC
  8
OBJECT
 10
9.11415
 20
8.525298
 30
0.0
 40
0.406
 50
92.117321
 51
267.882679
  0
LINE
  8
HIDDEN
 10
7.09915
 20
8.119298
 30
0.0
 11
2.09915
 21
8.119298
 31
0.0
  0
LINE
  8
HIDDEN
 10
2.09915
 20
8.931298
 30
0.0
 11
7.09915
 21
8.931298
 31
0.0
  0
ARC
  8
OBJECT
 10
9.11415
 20
8.525298
 30
0.0
 40
0.500225
 50
91.718358
 51
140.513918
  0
LINE
  8
OBJECT
 10
9.09915
 20
8.119575
 30
0.0
 11
9.09915
 21
8.025298
 31
0.0
  0
ARC
  8
OBJECT
 10
9.11415
 20
8.525298
 30
0.0
 40
0.500225
 50
195.789795
 51
268.281642
  0
ARC
  8
OBJECT
 10
8.452857
 20
8.338298
 30
0.0
 40
0.187
 50
15.789795
 51
90.0
  0
ARC
  8
OBJECT
 10
8.583764
 20
8.962298
 30
0.0
 40
0.187
 50
270.0
 51
320.513918
  0
TEXT
  8
TEXT
 10
0.186925
 20
10.870087
 30
0.0
 40
0.125
  1
MATERIAL:
 41
0.75
  7
TXT
 11
0.186925
 21
10.932587
 31
0.0
 73
     2
  0
TEXT
  8
TEXT
 10
0.186925
 20
10.661754
 30
0.0
 40
0.125
  1
   ALUMINUM
 41
0.75
  7
TXT
 11
0.186925
 21
10.724254
 31
0.0
 73
     2
  0
TEXT
  8
TEXT
 10
0.186925
 20
10.245087
 30
0.0
 40
0.125
  1
FINISH:
 41
0.75
  7
TXT
 11
0.186925
 21
10.307587
 31
0.0
 73
     2
  0
TEXT
  8
TEXT
 10
0.186925
 20
10.036754
 30
0.0
 40
0.125
  1
   SATIN BRUSH
 41
0.75
  7
TXT
 11
0.186925
 21
10.099254
 31
0.0
 73
     2
  0
DIMENSION
  8
DIM
  2
*D8
 10
7.09915
 20
9.789649
 30
0.0
 11
4.59915
 21
9.789649
 31
0.0
 12
-0.441234
 22
0.06288
 32
0.0
 13
2.09915
 23
10.025298
 33
0.0
 14
7.09915
 24
10.025298
 34
0.0
  3
23NSTD
  0
DIMENSION
  8
DIM
  2
*D9
 10
2.59915
 20
9.221847
 30
0.0
 11
2.34915
 21
9.221847
 31
0.0
 12
-0.441234
 22
0.06288
 32
0.0
 13
2.09915
 23
9.025298
 33
0.0
 14
2.59915
 24
8.650298
 34
0.0
  3
23NSTD
  0
DIMENSION
  8
DIM
  2
*D10
 10
7.09915
 20
9.221847
 30
0.0
 11
6.84915
 21
9.221847
 31
0.0
 12
-0.441234
 22
0.06288
 32
0.0
 13
6.59915
 23
8.713298
 33
0.0
 14
7.09915
 24
9.025298
 34
0.0
  3
23NSTD
  0
DIMENSION
  8
DIM
  2
*D11
 10
7.373319
 20
8.025298
 30
0.0
 11
7.373319
 21
8.525298
 31
0.0
 12
-0.441234
 22
0.06288
 32
0.0
 13
9.09915
 23
9.025298
 33
0.0
 14
9.09915
 24
8.025298
 34
0.0
 50
90.0
  3
23NSTD
  0
DIMENSION
  8
DIM
  2
*D12
 10
7.777856
 20
8.525298
 30
0.0
 11
7.777856
 21
8.650298
 31
0.0
 12
-0.441234
 22
0.06288
 32
0.0
 13
8.09915
 23
8.775298
 33
0.0
 14
8.09915
 24
8.525298
 34
0.0
 50
90.0
  3
23NSTD
  0
DIMENSION
  8
DIM
  2
*D13
 10
9.09915
 20
9.221847
 30
0.0
 11
8.59915
 21
9.221847
 31
0.0
 12
-0.441234
 22
0.06288
 32
0.0
 13
8.09915
 23
8.775298
 33
0.0
 14
9.09915
 24
9.025298
 34
0.0
  3
23NSTD
  0
POLYLINE
  8
DIM
 66
     1
 10
0.0
 20
0.0
 30
0.0
 41
0.0675
  0
VERTEX
  8
DIM
 10
8.922023
 20
8.167634
 30
0.0
  0
VERTEX
  8
DIM
 10
9.007202
 20
8.326204
 30
0.0
 41
0.0
  0
VERTEX
  8
DIM
 10
9.11415
 20
8.525298
 30
0.0
 41
0.0
  0
VERTEX
  8
DIM
 10
9.29415
 20
8.525298
 30
0.0
 41
0.0
  0
SEQEND
  8
DIM
  0
TEXT
  8
DIM
 10
9.38415
 20
8.462798
 30
0.0
 40
0.125
  1
R0.406
 41
0.75
  7
TXT
 11
9.38415
 21
8.525298
 31
0.0
 73
     2
  0
DIMENSION
  8
DIM
  2
*D14
 10
6.59915
 20
9.226651
 30
0.0
 11
4.59915
 21
9.226651
 31
0.0
 13
2.59915
 23
8.650298
 33
0.0
 14
6.59915
 24
8.650298
 34
0.0
  3
23NSTD
  0
LINE
  8
CENTER
 10
8.70815
 20
8.650298
 30
0.0
 11
8.042997
 21
8.650298
 31
0.0
  0
POLYLINE
  8
DIM
 66
     1
 10
0.0
 20
0.0
 30
0.0
 41
0.0675
  0
VERTEX
  8
DIM
 10
2.526259
 20
8.678062
 30
0.0
  0
VERTEX
  8
DIM
 10
2.354639
 20
8.732345
 30
0.0
 41
0.0
  0
VERTEX
  8
DIM
 10
1.630113
 20
8.961512
 30
0.0
 41
0.0
  0
VERTEX
  8
DIM
 10
1.450113
 20
8.961512
 30
0.0
 41
0.0
  0
SEQEND
  8
DIM
  0
TEXT
  8
DIM
 10
0.266363
 20
8.899012
 30
0.0
 40
0.125
  1
TAPPED #8-32
 41
0.75
  7
TXT
 72
     2
 11
1.360113
 21
8.961512
 31
0.0
 73
     2
  0
LINE
  8
OBJECT
 10
2.781
 20
0.75
 30
0.0
 11
2.781
 21
1.843816
 31
0.0
  0
LINE
  8
OBJECT
 10
3.350587
 20
2.33895
 30
0.0
 11
6.631587
 21
1.939343
 31
0.0
  0
ARC
  8
OBJECT
 10
3.281
 20
1.843816
 30
0.0
 40
0.5
 50
82.0
 51
180.0
  0
LINE
  8
OBJECT
 10
7.062
 20
0.75
 30
0.0
 11
7.062
 21
1.444209
 31
0.0
  0
ARC
  8
OBJECT
 10
6.562
 20
1.444209
 30
0.0
 40
0.5
 50
0.0
 51
82.0
  0
LINE
  8
OBJECT
 10
2.5
 20
0.75
 30
0.0
 11
2.5
 21
1.843816
 31
0.0
  0
ARC
  8
OBJECT
 10
3.281
 20
1.843816
 30
0.0
 40
0.781
 50
82.0
 51
180.0
  0
LINE
  8
OBJECT
 10
3.389694
 20
2.617215
 30
0.0
 11
6.670694
 21
2.217609
 31
0.0
  0
ARC
  8
OBJECT
 10
6.562
 20
1.444209
 30
0.0
 40
0.781
 50
0.0
 51
82.0
  0
LINE
  8
OBJECT
 10
7.343
 20
0.75
 30
0.0
 11
7.343
 21
1.444209
 31
0.0
  0
LINE
  8
OBJECT
 10
2.5
 20
0.75
 30
0.0
 11
2.781
 21
0.75
 31
0.0
  0
LINE
  8
OBJECT
 10
7.062
 20
0.75
 30
0.0
 11
7.343
 21
0.75
 31
0.0
  0
LINE
  8
OBJECT
 10
8.5
 20
2.4845
 30
0.0
 11
8.5
 21
0.75
 31
0.0
  0
LINE
  8
OBJECT
 10
8.5
 20
0.75
 30
0.0
 11
9.125
 21
0.75
 31
0.0
  0
LINE
  8
OBJECT
 10
9.125
 20
0.75
 30
0.0
 11
9.125
 21
2.4845
 31
0.0
  0
POLYLINE
  8
OBJECT
 66
     1
 10
0.0
 20
0.0
 30
0.0
 70
     1
  0
VERTEX
  8
OBJECT
 10
8.8125
 20
2.625
 30
0.0
 42
0.046063
  0
VERTEX
  8
OBJECT
 10
8.685571
 20
2.613282
 30
0.0
 42
0.059671
  0
VERTEX
  8
OBJECT
 10
8.591529
 20
2.583849
 30
0.0
 42
0.101299
 70
     2
 50
204.208684
  0
VERTEX
  8
OBJECT
 10
8.518141
 20
2.530963
 30
0.0
 42
0.188293
 50
204.208684
  0
VERTEX
  8
OBJECT
 10
8.5
 20
2.4845
 30
0.0
 42
0.188293
  0
VERTEX
  8
OBJECT
 10
8.518141
 20
2.438037
 30
0.0
 42
0.101299
  0
VERTEX
  8
OBJECT
 10
8.591529
 20
2.385151
 30
0.0
 42
0.059671
 70
     2
 50
335.791316
  0
VERTEX
  8
OBJECT
 10
8.685571
 20
2.355718
 30
0.0
 42
0.046063
 50
335.791316
  0
VERTEX
  8
OBJECT
 10
8.8125
 20
2.344
 30
0.0
 42
0.046063
  0
VERTEX
  8
OBJECT
 10
8.939429
 20
2.355718
 30
0.0
 42
0.059671
  0
VERTEX
  8
OBJECT
 10
9.033471
 20
2.385151
 30
0.0
 42
0.101299
 70
     2
 50
24.208684
  0
VERTEX
  8
OBJECT
 10
9.106859
 20
2.438037
 30
0.0
 42
0.188293
 50
24.208684
  0
VERTEX
  8
OBJECT
 10
9.125
 20
2.4845
 30
0.0
 42
0.188293
  0
VERTEX
  8
OBJECT
 10
9.106859
 20
2.530963
 30
0.0
 42
0.101299
  0
VERTEX
  8
OBJECT
 10
9.033471
 20
2.583849
 30
0.0
 42
0.059671
 70
     2
 50
155.791316
  0
VERTEX
  8
OBJECT
 10
8.939429
 20
2.613282
 30
0.0
 42
0.046063
 50
155.791316
  0
SEQEND
  8
OBJECT
  0
INSERT
  8
OBJECT
  2
*X15
 10
-0.126003
 20
-0.133803
 30
0.0
1001
ACAD
1000
HATCH
1002
{
1070
    16
1000
ANSI31
1040
0.625
1040
0.0
1002
}
  0
LINE
  8
HIDDEN
 10
2.6405
 20
1.125
 30
0.0
 11
2.6865
 21
1.094
 31
0.0
  0
LINE
  8
HIDDEN
 10
2.6865
 20
1.094
 30
0.0
 11
2.5945
 21
1.094
 31
0.0
  0
LINE
  8
HIDDEN
 10
2.7185
 20
1.0
 30
0.0
 11
2.5625
 21
1.0
 31
0.0
  0
LINE
  8
CENTER
 10
2.6405
 20
1.234
 30
0.0
 11
2.6405
 21
0.641
 31
0.0
  0
LINE
  8
HIDDEN
 10
2.5945
 20
0.75
 30
0.0
 11
2.5945
 21
1.094
 31
0.0
  0
LINE
  8
HIDDEN
 10
2.5625
 20
0.75
 30
0.0
 11
2.5625
 21
1.0
 31
0.0
  0
LINE
  8
HIDDEN
 10
2.5945
 20
1.094
 30
0.0
 11
2.6405
 21
1.125
 31
0.0
  0
LINE
  8
HIDDEN
 10
2.6865
 20
0.75
 30
0.0
 11
2.6865
 21
1.094
 31
0.0
  0
LINE
  8
HIDDEN
 10
2.7185
 20
0.75
 30
0.0
 11
2.7185
 21
1.0
 31
0.0
  0
LINE
  8
HIDDEN
 10
7.2025
 20
1.125
 30
0.0
 11
7.2485
 21
1.094
 31
0.0
  0
LINE
  8
HIDDEN
 10
7.2485
 20
1.094
 30
0.0
 11
7.1565
 21
1.094
 31
0.0
  0
LINE
  8
HIDDEN
 10
7.2805
 20
1.0
 30
0.0
 11
7.1245
 21
1.0
 31
0.0
  0
LINE
  8
CENTER
 10
7.2025
 20
1.234
 30
0.0
 11
7.2025
 21
0.641
 31
0.0
  0
LINE
  8
HIDDEN
 10
7.1565
 20
0.75
 30
0.0
 11
7.1565
 21
1.094
 31
0.0
  0
LINE
  8
HIDDEN
 10
7.1245
 20
0.75
 30
0.0
 11
7.1245
 21
1.0
 31
0.0
  0
LINE
  8
HIDDEN
 10
7.1565
 20
1.094
 30
0.0
 11
7.2025
 21
1.125
 31
0.0
  0
LINE
  8
HIDDEN
 10
7.2485
 20
0.75
 30
0.0
 11
7.2485
 21
1.094
 31
0.0
  0
LINE
  8
HIDDEN
 10
7.2805
 20
0.75
 30
0.0
 11
7.2805
 21
1.0
 31
0.0
  0
LINE
  8
HIDDEN
 10
8.8125
 20
1.125
 30
0.0
 11
8.8585
 21
1.094
 31
0.0
  0
LINE
  8
HIDDEN
 10
8.8585
 20
1.094
 30
0.0
 11
8.7665
 21
1.094
 31
0.0
  0
LINE
  8
HIDDEN
 10
8.8905
 20
1.0
 30
0.0
 11
8.7345
 21
1.0
 31
0.0
  0
LINE
  8
CENTER
 10
8.8125
 20
1.234
 30
0.0
 11
8.8125
 21
0.641
 31
0.0
  0
LINE
  8
HIDDEN
 10
8.7665
 20
0.75
 30
0.0
 11
8.7665
 21
1.094
 31
0.0
  0
LINE
  8
HIDDEN
 10
8.7345
 20
0.75
 30
0.0
 11
8.7345
 21
1.0
 31
0.0
  0
LINE
  8
HIDDEN
 10
8.7665
 20
1.094
 30
0.0
 11
8.8125
 21
1.125
 31
0.0
  0
LINE
  8
HIDDEN
 10
8.8585
 20
0.75
 30
0.0
 11
8.8585
 21
1.094
 31
0.0
  0
LINE
  8
HIDDEN
 10
8.8905
 20
0.75
 30
0.0
 11
8.8905
 21
1.0
 31
0.0
  0
DIMENSION
  8
DIM
  2
*D16
 10
7.2025
 20
0.426739
 30
0.0
 11
4.9215
 21
0.426739
 31
0.0
 13
2.6405
 23
0.75
 33
0.0
 14
7.2025
 24
0.75
 34
0.0
  3
23NSTD
  0
DIMENSION
  8
DIM
  2
*D17
 10
1.945221
 20
2.624832
 30
0.0
 11
1.945221
 21
1.687416
 31
0.0
 13
2.5
 23
0.75
 33
0.0
 14
3.327156
 24
2.624832
 34
0.0
 50
90.0
  3
23NSTD
  0
DIMENSION
  8
DIM
  2
*D18
 10
7.613053
 20
2.125
 30
0.0
 11
7.613053
 21
1.4375
 31
0.0
 13
7.343
 23
0.75
 33
0.0
 14
7.062
 24
2.125
 34
0.0
 50
90.0
  3
23NSTD
  0
DIMENSION
  8
DIM
  2
*D19
 10
6.670694
 20
2.217609
 30
0.0
 11
2.307562
 21
2.960076
 31
0.0
 70
   130
  1
82%%D
 13
2.5
 23
0.75
 33
0.0
 14
2.5
 24
1.843816
 34
0.0
 15
3.389694
 25
2.617215
 35
0.0
 16
2.20386
 26
3.185864
 36
0.0
  3
23NSTD
  0
POLYLINE
  8
DIM
 66
     1
 10
0.0
 20
0.0
 30
0.0
 41
0.0675
  0
VERTEX
  8
DIM
 10
2.88278
 20
2.146175
 30
0.0
  0
VERTEX
  8
DIM
 10
3.026006
 20
2.037151
 30
0.0
 41
0.0
  0
VERTEX
  8
DIM
 10
3.282242
 20
1.842105
 30
0.0
 41
0.0
  0
VERTEX
  8
DIM
 10
3.462242
 20
1.842105
 30
0.0
 41
0.0
  0
SEQEND
  8
DIM
  0
TEXT
  8
DIM
 10
3.552242
 20
1.779605
 30
0.0
 40
0.125
  1
R0.500
 41
0.75
  7
TXT
 11
3.552242
 21
1.842105
 31
0.0
 73
     2
  0
POLYLINE
  8
DIM
 66
     1
 10
0.0
 20
0.0
 30
0.0
 41
0.0675
  0
VERTEX
  8
DIM
 10
6.959348
 20
1.747713
 30
0.0
  0
VERTEX
  8
DIM
 10
6.815806
 20
1.639106
 30
0.0
 41
0.0
  0
VERTEX
  8
DIM
 10
6.560597
 20
1.446009
 30
0.0
 41
0.0
  0
VERTEX
  8
DIM
 10
6.380597
 20
1.446009
 30
0.0
 41
0.0
  0
SEQEND
  8
DIM
  0
TEXT
  8
DIM
 10
5.868722
 20
1.383509
 30
0.0
 40
0.125
  1
R0.500
 41
0.75
  7
TXT
 72
     2
 11
6.290597
 21
1.446009
 31
0.0
 73
     2
  0
DIMENSION
  8
DIM
  2
*D20
 10
8.113047
 20
2.625
 30
0.0
 11
8.113047
 21
2.4845
 31
0.0
 13
8.8125
 23
2.344
 33
0.0
 14
8.8125
 24
2.625
 34
0.0
 50
90.0
  3
23NSTD
  0
DIMENSION
  8
DIM
  2
*D21
 10
9.125
 20
3.059423
 30
0.0
 11
8.8125
 21
3.059423
 31
0.0
 13
8.5
 23
2.4845
 33
0.0
 14
9.125
 24
2.4845
 34
0.0
  3
23NSTD
  0
POLYLINE
  8
DIM
 66
     1
 10
0.0
 20
0.0
 30
0.0
 41
0.0675
  0
VERTEX
  8
DIM
 10
8.8125
 20
0.75
 30
0.0
  0
VERTEX
  8
DIM
 10
8.673295
 20
0.635886
 30
0.0
 41
0.0
  0
VERTEX
  8
DIM
 10
8.242675
 20
0.28288
 30
0.0
 41
0.0
  0
VERTEX
  8
DIM
 10
8.475388
 20
0.28288
 30
0.0
 41
0.0
  0
VERTEX
  8
DIM
 10
8.655388
 20
0.28288
 30
0.0
 41
0.0
  0
SEQEND
  8
DIM
  0
TEXT
  8
DIM
 10
8.745388
 20
0.22038
 30
0.0
 40
0.125
  1
TAPPED #8-32
 41
0.75
  7
TXT
 11
8.745388
 21
0.28288
 31
0.0
 73
     2
  0
TEXT
  8
TEXT
 10
0.186925
 20
3.164277
 30
0.0
 40
0.125
  1
MATERIAL:
 41
0.75
  7
TXT
 11
0.186925
 21
3.226777
 31
0.0
 73
     2
  0
TEXT
  8
TEXT
 10
0.186925
 20
2.539277
 30
0.0
 40
0.125
  1
FINISH:
 41
0.75
  7
TXT
 11
0.186925
 21
2.601777
 31
0.0
 73
     2
  0
TEXT
  8
TEXT
 10
0.186925
 20
2.330943
 30
0.0
 40
0.125
  1
   SATIN BRUSH
 41
0.75
  7
TXT
 11
0.186925
 21
2.393443
 31
0.0
 73
     2
  0
TEXT
  8
TEXT
 10
0.186925
 20
2.955943
 30
0.0
 40
0.125
  1
   ALUMINUM
 41
0.75
  7
TXT
 11
0.186925
 21
3.018443
 31
0.0
 73
     2
  0
LINE
  8
OBJECT
 10
2.568616
 20
6.320442
 30
0.0
 11
7.568616
 21
6.320442
 31
0.0
  0
LINE
  8
OBJECT
 10
2.568616
 20
5.820442
 30
0.0
 11
7.568616
 21
5.820442
 31
0.0
  0
LINE
  8
OBJECT
 10
2.568616
 20
5.195442
 30
0.0
 11
7.568616
 21
5.195442
 31
0.0
  0
LINE
  8
OBJECT
 10
2.568616
 20
4.570442
 30
0.0
 11
7.568616
 21
4.570442
 31
0.0
  0
LINE
  8
OBJECT
 10
2.568616
 20
6.320442
 30
0.0
 11
2.568616
 21
5.820442
 31
0.0
  0
LINE
  8
OBJECT
 10
2.568616
 20
5.195442
 30
0.0
 11
2.568616
 21
4.570442
 31
0.0
  0
LINE
  8
OBJECT
 10
7.568616
 20
5.195442
 30
0.0
 11
7.568616
 21
4.570442
 31
0.0
  0
LINE
  8
OBJECT
 10
7.568616
 20
6.320442
 30
0.0
 11
7.568616
 21
5.820442
 31
0.0
  0
LINE
  8
OBJECT
 10
2.568616
 20
6.257942
 30
0.0
 11
7.568616
 21
6.257942
 31
0.0
  0
LINE
  8
OBJECT
 10
2.568616
 20
5.882942
 30
0.0
 11
7.568616
 21
5.882942
 31
0.0
  0
LINE
  8
OBJECT
 10
8.193616
 20
5.195442
 30
0.0
 11
8.193616
 21
4.570442
 31
0.0
  0
LINE
  8
OBJECT
 10
8.693616
 20
5.195442
 30
0.0
 11
8.693616
 21
5.070442
 31
0.0
  0
LINE
  8
OBJECT
 10
8.193616
 20
5.195442
 30
0.0
 11
8.256116
 21
5.195442
 31
0.0
  0
LINE
  8
OBJECT
 10
8.693616
 20
4.570442
 30
0.0
 11
8.631116
 21
4.570442
 31
0.0
  0
LINE
  8
OBJECT
 10
8.256116
 20
5.164442
 30
0.0
 11
8.631116
 21
5.164442
 31
0.0
  0
LINE
  8
OBJECT
 10
8.662616
 20
5.070442
 30
0.0
 11
8.662616
 21
4.695442
 31
0.0
  0
LINE
  8
OBJECT
 10
8.631116
 20
4.601442
 30
0.0
 11
8.256116
 21
4.601442
 31
0.0
  0
LINE
  8
OBJECT
 10
8.256116
 20
5.195442
 30
0.0
 11
8.256116
 21
5.164442
 31
0.0
  0
LINE
  8
OBJECT
 10
8.631116
 20
5.195442
 30
0.0
 11
8.631116
 21
5.164442
 31
0.0
  0
LINE
  8
OBJECT
 10
8.662616
 20
5.070442
 30
0.0
 11
8.693616
 21
5.070442
 31
0.0
  0
LINE
  8
OBJECT
 10
8.693616
 20
4.695442
 30
0.0
 11
8.662616
 21
4.695442
 31
0.0
  0
LINE
  8
OBJECT
 10
8.631116
 20
5.195442
 30
0.0
 11
8.693616
 21
5.195442
 31
0.0
  0
LINE
  8
OBJECT
 10
8.256116
 20
4.570442
 30
0.0
 11
8.193616
 21
4.570442
 31
0.0
  0
LINE
  8
OBJECT
 10
8.693616
 20
4.695442
 30
0.0
 11
8.693616
 21
4.570442
 31
0.0
  0
LINE
  8
OBJECT
 10
8.256116
 20
4.601442
 30
0.0
 11
8.256116
 21
4.570442
 31
0.0
  0
LINE
  8
OBJECT
 10
8.631116
 20
4.601442
 30
0.0
 11
8.631116
 21
4.570442
 31
0.0
  0
CIRCLE
  8
HIDDEN
 10
3.068231
 20
4.894195
 30
0.0
 40
0.078
  0
CIRCLE
  8
HIDDEN
 10
3.068231
 20
4.894195
 30
0.0
 40
0.0465
  0
CIRCLE
  8
HIDDEN
 10
7.068231
 20
4.894195
 30
0.0
 40
0.078
  0
CIRCLE
  8
HIDDEN
 10
7.068231
 20
4.894195
 30
0.0
 40
0.0465
  0
LINE
  8
CENTER
 10
3.068616
 20
6.241942
 30
0.0
 11
3.068616
 21
5.711442
 31
0.0
  0
LINE
  8
HIDDEN
 10
3.146616
 20
5.820442
 30
0.0
 11
3.146616
 21
6.007942
 31
0.0
  0
LINE
  8
HIDDEN
 10
2.990616
 20
5.820442
 30
0.0
 11
2.990616
 21
6.007942
 31
0.0
  0
LINE
  8
HIDDEN
 10
3.114616
 20
5.820442
 30
0.0
 11
3.114616
 21
6.101942
 31
0.0
  0
LINE
  8
HIDDEN
 10
3.022616
 20
5.820442
 30
0.0
 11
3.022616
 21
6.101942
 31
0.0
  0
LINE
  8
HIDDEN
 10
3.068616
 20
6.132942
 30
0.0
 11
3.114616
 21
6.101942
 31
0.0
  0
LINE
  8
HIDDEN
 10
3.114616
 20
6.101942
 30
0.0
 11
3.022616
 21
6.101942
 31
0.0
  0
LINE
  8
HIDDEN
 10
3.146616
 20
6.007942
 30
0.0
 11
2.990616
 21
6.007942
 31
0.0
  0
LINE
  8
HIDDEN
 10
3.022616
 20
6.101942
 30
0.0
 11
3.068616
 21
6.132942
 31
0.0
  0
LINE
  8
CENTER
 10
7.068616
 20
6.241942
 30
0.0
 11
7.068616
 21
5.711442
 31
0.0
  0
LINE
  8
HIDDEN
 10
7.146616
 20
6.007942
 30
0.0
 11
7.146616
 21
5.820442
 31
0.0
  0
LINE
  8
HIDDEN
 10
6.990616
 20
6.007942
 30
0.0
 11
6.990616
 21
5.820442
 31
0.0
  0
LINE
  8
HIDDEN
 10
7.114616
 20
6.101942
 30
0.0
 11
7.114616
 21
5.820442
 31
0.0
  0
LINE
  8
HIDDEN
 10
7.022616
 20
6.101942
 30
0.0
 11
7.022616
 21
5.820442
 31
0.0
  0
LINE
  8
HIDDEN
 10
7.146616
 20
6.007942
 30
0.0
 11
6.990616
 21
6.007942
 31
0.0
  0
LINE
  8
HIDDEN
 10
7.068616
 20
6.132942
 30
0.0
 11
7.114616
 21
6.101942
 31
0.0
  0
LINE
  8
HIDDEN
 10
7.022616
 20
6.101942
 30
0.0
 11
7.068616
 21
6.132942
 31
0.0
  0
LINE
  8
HIDDEN
 10
7.114616
 20
6.101942
 30
0.0
 11
7.022616
 21
6.101942
 31
0.0
  0
LINE
  8
CENTER
 10
8.615116
 20
4.882942
 30
0.0
 11
8.084616
 21
4.882942
 31
0.0
  0
LINE
  8
HIDDEN
 10
8.475116
 20
4.928942
 30
0.0
 11
8.193616
 21
4.928942
 31
0.0
  0
LINE
  8
HIDDEN
 10
8.475116
 20
4.836942
 30
0.0
 11
8.193616
 21
4.836942
 31
0.0
  0
LINE
  8
HIDDEN
 10
8.381116
 20
4.960942
 30
0.0
 11
8.193616
 21
4.960942
 31
0.0
  0
LINE
  8
HIDDEN
 10
8.381116
 20
4.804942
 30
0.0
 11
8.193616
 21
4.804942
 31
0.0
  0
LINE
  8
HIDDEN
 10
8.475116
 20
4.928942
 30
0.0
 11
8.506116
 21
4.882942
 31
0.0
  0
LINE
  8
HIDDEN
 10
8.381116
 20
4.804942
 30
0.0
 11
8.381116
 21
4.960942
 31
0.0
  0
LINE
  8
HIDDEN
 10
8.475116
 20
4.836942
 30
0.0
 11
8.475116
 21
4.928942
 31
0.0
  0
LINE
  8
HIDDEN
 10
8.506116
 20
4.882942
 30
0.0
 11
8.475116
 21
4.836942
 31
0.0
  0
TEXT
  8
TEXT
 10
0.186925
 20
6.178365
 30
0.0
 40
0.125
  1
   SATIN BRUSH WITH
 41
0.75
  7
TXT
 11
0.186925
 21
6.240865
 31
0.0
 73
     2
  0
TEXT
  8
TEXT
 10
0.186925
 20
6.386698
 30
0.0
 40
0.125
  1
FINISH:
 41
0.75
  7
TXT
 11
0.186925
 21
6.449198
 31
0.0
 73
     2
  0
TEXT
  8
TEXT
 10
0.186925
 20
6.803365
 30
0.0
 40
0.125
  1
   ALUMINUM
 41
0.75
  7
TXT
 11
0.186925
 21
6.865865
 31
0.0
 73
     2
  0
TEXT
  8
TEXT
 10
0.186925
 20
7.011698
 30
0.0
 40
0.125
  1
MATERIAL:
 41
0.75
  7
TXT
 11
0.186925
 21
7.074198
 31
0.0
 73
     2
  0
TEXT
  8
TEXT
 10
0.186925
 20
5.970365
 30
0.0
 40
0.125
  1
   BLACK TRIM
 41
0.75
  7
TXT
 11
0.186925
 21
6.032865
 31
0.0
 73
     2
  0
DIMENSION
  8
DIM
  2
*D22
 10
7.568616
 20
6.607514
 30
0.0
 11
5.068616
 21
6.607514
 31
0.0
 12
-0.348761
 22
-0.066446
 32
0.0
 13
2.568616
 23
6.320442
 33
0.0
 14
7.568616
 24
6.320442
 34
0.0
  3
23NSTD
  0
DIMENSION
  8
DIM
  2
*D23
 10
3.068231
 20
5.479866
 30
0.0
 11
2.818423
 21
5.479866
 31
0.0
 12
-0.348761
 22
-0.066446
 32
0.0
 13
2.568616
 23
5.195442
 33
0.0
 14
3.068231
 24
4.894195
 34
0.0
  3
23NSTD
  0
DIMENSION
  8
DIM
  2
*D24
 10
7.068231
 20
5.479866
 30
0.0
 11
5.068231
 21
5.479866
 31
0.0
 12
-0.348761
 22
-0.066446
 32
0.0
 13
3.068231
 23
4.894195
 33
0.0
 14
7.068231
 24
4.894195
 34
0.0
  3
23NSTD
  0
DIMENSION
  8
DIM
  2
*D25
 10
7.568616
 20
5.479866
 30
0.0
 11
7.318423
 21
5.479866
 31
0.0
 12
-0.348761
 22
-0.066446
 32
0.0
 13
7.068231
 23
4.894195
 33
0.0
 14
7.568616
 24
5.195442
 34
0.0
  3
23NSTD
  0
POLYLINE
  8
DIM
 66
     1
 10
0.0
 20
0.0
 30
0.0
 41
0.0675
  0
VERTEX
  8
DIM
 10
2.99653
 20
4.924903
 30
0.0
  0
VERTEX
  8
DIM
 10
2.819541
 20
4.957691
 30
0.0
 41
0.0
  0
VERTEX
  8
DIM
 10
2.086731
 20
5.093447
 30
0.0
 41
0.0
  0
VERTEX
  8
DIM
 10
1.906731
 20
5.093447
 30
0.0
 41
0.0
  0
SEQEND
  8
DIM
  0
TEXT
  8
DIM
 10
0.722981
 20
5.030947
 30
0.0
 40
0.125
  1
TAPPED #8-32
 41
0.75
  7
TXT
 72
     2
 11
1.816731
 21
5.093447
 31
0.0
 73
     2
  0
DIMENSION
  8
DIM
  2
*D29
 10
8.631116
 20
5.686411
 30
0.0
 11
9.200104
 21
5.686411
 31
0.0
 70
   128
 13
8.256116
 23
5.195442
 33
0.0
 14
8.631116
 24
5.195442
 34
0.0
  3
23NSTD
  0
DIMENSION
  8
DIM
  2
*D26
 10
8.693616
 20
5.992727
 30
0.0
 11
8.443616
 21
5.992727
 31
0.0
 12
-0.348761
 22
-0.066446
 32
0.0
 13
8.193616
 23
5.195442
 33
0.0
 14
8.693616
 24
5.195442
 34
0.0
  3
23NSTD
  0
DIMENSION
  8
DIM
  2
*D27
 10
9.123065
 20
4.695442
 30
0.0
 11
9.123065
 21
4.882942
 31
0.0
 12
-0.348761
 22
-0.066446
 32
0.0
 13
8.693616
 23
5.070442
 33
0.0
 14
8.693616
 24
4.695442
 34
0.0
 50
90.0
  3
23NSTD
  0
DIMENSION
  8
DIM
  2
*D28
 10
9.574911
 20
4.570442
 30
0.0
 11
9.574911
 21
4.882942
 31
0.0
 12
-0.348761
 22
-0.066446
 32
0.0
 13
8.693616
 23
5.195442
 33
0.0
 14
8.693616
 24
4.570442
 34
0.0
 50
90.0
  3
23NSTD
  0
LINE
  8
DIM
 10
2.5
 20
2.788575
 30
0.0
 11
2.5
 21
1.843816
 31
0.0
  0
ENDSEC
  0
EOF
