  0
SECTION
  2
HEADER
  9
$ACADVER
  1
AC1015
  9
$ACADMAINTVER
 70
     6
  9
$DWGCODEPAGE
  3
ANSI_1252
  9
$INSBASE
 10
0.0
 20
0.0
 30
0.0
  9
$EXTMIN
 10
0.0
 20
0.0
 30
0.0
  9
$EXTMAX
 10
5.5
 20
4.25
 30
0.0
  9
$LIMMIN
 10
0.0
 20
0.0
  9
$LIMMAX
 10
5.5
 20
4.25
  9
$ORTHOMODE
 70
     0
  9
$REGENMODE
 70
     1
  9
$FILLMODE
 70
     1
  9
$QTEXTMODE
 70
     0
  9
$MIRRTEXT
 70
     1
  9
$LTSCALE
 40
0.5
  9
$ATTMODE
 70
     1
  9
$TEXTSIZE
 40
0.0625
  9
$TRACEWID
 40
0.05
  9
$TEXTSTYLE
  7
Standard
  9
$CLAYER
  8
0
  9
$CELTYPE
  6
ByLayer
  9
$CECOLOR
 62
   256
  9
$CELTSCALE
 40
1.0
  9
$DISPSILH
 70
     0
  9
$DIMSCALE
 40
1.0
  9
$DIMASZ
 40
0.065
  9
$DIMEXO
 40
0.025
  9
$DIMDLI
 40
0.38
  9
$DIMRND
 40
0.0
  9
$DIMDLE
 40
0.0
  9
$DIMEXE
 40
0.0625
  9
$DIMTP
 40
0.0
  9
$DIMTM
 40
0.0
  9
$DIMTXT
 40
0.0625
  9
$DIMCEN
 40
0.09
  9
$DIMTSZ
 40
0.0
  9
$DIMTOL
 70
     0
  9
$DIMLIM
 70
     0
  9
$DIMTIH
 70
     1
  9
$DIMTOH
 70
     1
  9
$DIMSE1
 70
     0
  9
$DIMSE2
 70
     0
  9
$DIMTAD
 70
     1
  9
$DIMZIN
 70
     0
  9
$DIMBLK
  1

  9
$DIMASO
 70
     1
  9
$DIMSHO
 70
     1
  9
$DIMPOST
  1

  9
$DIMAPOST
  1

  9
$DIMALT
 70
     0
  9
$DIMALTD
 70
     2
  9
$DIMALTF
 40
25.4
  9
$DIMLFAC
 40
1.0
  9
$DIMTOFL
 70
     0
  9
$DIMTVP
 40
0.0
  9
$DIMTIX
 70
     0
  9
$DIMSOXD
 70
     0
  9
$DIMSAH
 70
     0
  9
$DIMBLK1
  1

  9
$DIMBLK2
  1

  9
$DIMSTYLE
  2
Standard
  9
$DIMCLRD
 70
     0
  9
$DIMCLRE
 70
     0
  9
$DIMCLRT
 70
     0
  9
$DIMTFAC
 40
1.0
  9
$DIMGAP
 40
0.03
  9
$DIMJUST
 70
     0
  9
$DIMSD1
 70
     0
  9
$DIMSD2
 70
     0
  9
$DIMTOLJ
 70
     1
  9
$DIMTZIN
 70
     0
  9
$DIMALTZ
 70
     0
  9
$DIMALTTZ
 70
     0
  9
$DIMUPT
 70
     0
  9
$DIMDEC
 70
     2
  9
$DIMTDEC
 70
     2
  9
$DIMALTU
 70
     2
  9
$DIMALTTD
 70
     2
  9
$DIMTXSTY
  7
Standard
  9
$DIMAUNIT
 70
     0
  9
$DIMADEC
 70
     2
  9
$DIMALTRND
 40
0.0
  9
$DIMAZIN
 70
     0
  9
$DIMDSEP
 70
    46
  9
$DIMATFIT
 70
     3
  9
$DIMFRAC
 70
     0
  9
$DIMLDRBLK
  1

  9
$DIMLUNIT
 70
     2
  9
$DIMLWD
 70
    -2
  9
$DIMLWE
 70
    -2
  9
$DIMTMOVE
 70
     0
  9
$LUNITS
 70
     2
  9
$LUPREC
 70
     2
  9
$SKETCHINC
 40
0.1
  9
$FILLETRAD
 40
0.5
  9
$AUNITS
 70
     0
  9
$AUPREC
 70
     2
  9
$MENU
  1
.
  9
$ELEVATION
 40
0.0
  9
$PELEVATION
 40
0.0
  9
$THICKNESS
 40
0.0
  9
$LIMCHECK
 70
     0
  9
$CHAMFERA
 40
0.5
  9
$CHAMFERB
 40
0.5
  9
$CHAMFERC
 40
1.0
  9
$CHAMFERD
 40
0.0
  9
$SKPOLY
 70
     0
  9
$TDCREATE
 40
2455693.346325151
  9
$TDUCREATE
 40
2455693.512991817
  9
$TDUPDATE
 40
2455693.346325162
  9
$TDUUPDATE
 40
2455693.512991829
  9
$TDINDWG
 40
0.0000000116
  9
$TDUSRTIMER
 40
0.0000000116
  9
$USRTIMER
 70
     1
  9
$ANGBASE
 50
0.0
  9
$ANGDIR
 70
     0
  9
$PDMODE
 70
     0
  9
$PDSIZE
 40
-1.0
  9
$PLINEWID
 40
0.0
  9
$SPLFRAME
 70
     0
  9
$SPLINETYPE
 70
     6
  9
$SPLINESEGS
 70
     8
  9
$HANDSEED
  5
202
  9
$SURFTAB1
 70
     6
  9
$SURFTAB2
 70
     6
  9
$SURFTYPE
 70
     6
  9
$SURFU
 70
     6
  9
$SURFV
 70
     6
  9
$UCSBASE
  2

  9
$UCSNAME
  2

  9
$UCSORG
 10
0.0
 20
0.0
 30
0.0
  9
$UCSXDIR
 10
1.0
 20
0.0
 30
0.0
  9
$UCSYDIR
 10
0.0
 20
1.0
 30
0.0
  9
$UCSORTHOREF
  2

  9
$UCSORTHOVIEW
 70
     0
  9
$UCSORGTOP
 10
0.0
 20
0.0
 30
0.0
  9
$UCSORGBOTTOM
 10
0.0
 20
0.0
 30
0.0
  9
$UCSORGLEFT
 10
0.0
 20
0.0
 30
0.0
  9
$UCSORGRIGHT
 10
0.0
 20
0.0
 30
0.0
  9
$UCSORGFRONT
 10
0.0
 20
0.0
 30
0.0
  9
$UCSORGBACK
 10
0.0
 20
0.0
 30
0.0
  9
$PUCSBASE
  2

  9
$PUCSNAME
  2

  9
$PUCSORG
 10
0.0
 20
0.0
 30
0.0
  9
$PUCSXDIR
 10
1.0
 20
0.0
 30
0.0
  9
$PUCSYDIR
 10
0.0
 20
1.0
 30
0.0
  9
$PUCSORTHOREF
  2

  9
$PUCSORTHOVIEW
 70
     0
  9
$PUCSORGTOP
 10
0.0
 20
0.0
 30
0.0
  9
$PUCSORGBOTTOM
 10
0.0
 20
0.0
 30
0.0
  9
$PUCSORGLEFT
 10
0.0
 20
0.0
 30
0.0
  9
$PUCSORGRIGHT
 10
0.0
 20
0.0
 30
0.0
  9
$PUCSORGFRONT
 10
0.0
 20
0.0
 30
0.0
  9
$PUCSORGBACK
 10
0.0
 20
0.0
 30
0.0
  9
$USERI1
 70
     0
  9
$USERI2
 70
     0
  9
$USERI3
 70
     0
  9
$USERI4
 70
     0
  9
$USERI5
 70
     0
  9
$USERR1
 40
0.0
  9
$USERR2
 40
0.0
  9
$USERR3
 40
0.0
  9
$USERR4
 40
0.0
  9
$USERR5
 40
0.0
  9
$WORLDVIEW
 70
     1
  9
$SHADEDGE
 70
     3
  9
$SHADEDIF
 70
    70
  9
$TILEMODE
 70
     1
  9
$MAXACTVP
 70
    64
  9
$PINSBASE
 10
0.0
 20
0.0
 30
0.0
  9
$PLIMCHECK
 70
     0
  9
$PEXTMIN
 10
1.0000000000E+20
 20
1.0000000000E+20
 30
1.0000000000E+20
  9
$PEXTMAX
 10
-1.0000000000E+20
 20
-1.0000000000E+20
 30
-1.0000000000E+20
  9
$PLIMMIN
 10
0.0
 20
0.0
  9
$PLIMMAX
 10
12.0
 20
9.0
  9
$UNITMODE
 70
     0
  9
$VISRETAIN
 70
     1
  9
$PLINEGEN
 70
     0
  9
$PSLTSCALE
 70
     1
  9
$TREEDEPTH
 70
  3020
  9
$CMLSTYLE
  2
Standard
  9
$CMLJUST
 70
     0
  9
$CMLSCALE
 40
1.0
  9
$PROXYGRAPHICS
 70
     1
  9
$MEASUREMENT
 70
     0
  9
$CELWEIGHT
370
    -1
  9
$ENDCAPS
280
     0
  9
$JOINSTYLE
280
     0
  9
$LWDISPLAY
290
     1
  9
$INSUNITS
 70
     1
  9
$HYPERLINKBASE
  1

  9
$STYLESHEET
  1

  9
$XEDIT
290
     1
  9
$CEPSNTYPE
380
     0
  9
$PSTYLEMODE
290
     1
  9
$FINGERPRINTGUID
  2
{98D6A138-3067-4448-95B1-427A247FB639}
  9
$VERSIONGUID
  2
{FAEB1C32-E019-11D5-929B-00C0DF256EC4}
  9
$EXTNAMES
290
     1
  9
$PSVPSCALE
 40
0.0
  9
$OLESTARTUP
290
     0
  0
ENDSEC
  0
SECTION
  2
CLASSES
  0
CLASS
  1
ACDBDICTIONARYWDFLT
  2
AcDbDictionaryWithDefault
  3
ObjectDBX Classes
 90
        0
280
     0
281
     0
  0
CLASS
  1
VISUALSTYLE
  2
AcDbVisualStyle
  3
ObjectDBX Classes
 90
     4095
280
     0
281
     0
  0
CLASS
  1
MATERIAL
  2
AcDbMaterial
  3
ObjectDBX Classes
 90
     1153
280
     0
281
     0
  0
CLASS
  1
SCALE
  2
AcDbScale
  3
ObjectDBX Classes
 90
     1153
280
     0
281
     0
  0
CLASS
  1
DICTIONARYVAR
  2
AcDbDictionaryVar
  3
ObjectDBX Classes
 90
        0
280
     0
281
     0
  0
CLASS
  1
ACDBPLACEHOLDER
  2
AcDbPlaceHolder
  3
ObjectDBX Classes
 90
        0
280
     0
281
     0
  0
CLASS
  1
LAYOUT
  2
AcDbLayout
  3
ObjectDBX Classes
 90
        0
280
     0
281
     0
  0
ENDSEC
  0
SECTION
  2
TABLES
  0
TABLE
  2
VPORT
  5
8
330
0
100
AcDbSymbolTable
 70
     1
  0
VPORT
  5
29
330
8
100
AcDbSymbolTableRecord
100
AcDbViewportTableRecord
  2
*Active
 70
     0
 10
0.0
 20
0.0
 11
1.0
 21
1.0
 12
2.75
 22
2.125
 13
0.0
 23
0.0
 14
0.5
 24
0.5
 15
0.5
 25
0.5
 16
0.0
 26
0.0
 36
1.0
 17
0.0
 27
0.0
 37
0.0
 40
4.25
 41
1.2941176471
 42
50.0
 43
0.0
 44
0.0
 50
0.0
 51
0.0
 71
     0
 72
  2000
 73
     1
 74
     3
 75
     0
 76
     0
 77
     0
 78
     0
281
     0
 65
     1
110
0.0
120
0.0
130
0.0
111
1.0
121
0.0
131
0.0
112
0.0
122
1.0
132
0.0
 79
     0
146
0.0
  0
ENDTAB
  0
TABLE
  2
LTYPE
  5
5
330
0
100
AcDbSymbolTable
 70
     6
  0
LTYPE
  5
14
330
5
100
AcDbSymbolTableRecord
100
AcDbLinetypeTableRecord
  2
ByBlock
 70
     0
  3

 72
    65
 73
     0
 40
0.0
  0
LTYPE
  5
15
330
5
100
AcDbSymbolTableRecord
100
AcDbLinetypeTableRecord
  2
ByLayer
 70
     0
  3

 72
    65
 73
     0
 40
0.0
  0
LTYPE
  5
16
330
5
100
AcDbSymbolTableRecord
100
AcDbLinetypeTableRecord
  2
Continuous
 70
     0
  3
Solid line
 72
    65
 73
     0
 40
0.0
  0
LTYPE
  5
3F
330
5
100
AcDbSymbolTableRecord
100
AcDbLinetypeTableRecord
  2
HIDDEN
 70
     0
  3
Hidden __ __ __ __ __ __ __ __ __ __ __ __ __ __
 72
    65
 73
     2
 40
0.075
 49
0.05
 74
     0
 49
-0.025
 74
     0
  0
LTYPE
  5
40
330
5
100
AcDbSymbolTableRecord
100
AcDbLinetypeTableRecord
  2
PHANTOM
 70
     0
  3
Phantom ______  __  __  ______  __  __  ______
 72
    65
 73
     6
 40
0.5
 49
0.25
 74
     0
 49
-0.05
 74
     0
 49
0.05
 74
     0
 49
-0.05
 74
     0
 49
0.05
 74
     0
 49
-0.05
 74
     0
  0
LTYPE
  5
41
330
5
100
AcDbSymbolTableRecord
100
AcDbLinetypeTableRecord
  2
CENTER
 70
     0
  3
Center ____ _ ____ _ ____ _ ____ _ ____ _ ____
 72
    65
 73
     4
 40
0.4
 49
0.25
 74
     0
 49
-0.05
 74
     0
 49
0.05
 74
     0
 49
-0.05
 74
     0
  0
LTYPE
  5
42
330
5
100
AcDbSymbolTableRecord
100
AcDbLinetypeTableRecord
  2
CENTERX2
 70
     0
  3
Center (2x) ________  __  ________  __  _____
 72
    65
 73
     4
 40
0.8
 49
0.5
 74
     0
 49
-0.1
 74
     0
 49
0.1
 74
     0
 49
-0.1
 74
     0
  0
LTYPE
  5
43
330
5
100
AcDbSymbolTableRecord
100
AcDbLinetypeTableRecord
  2
DOT2
 70
     0
  3
Dot (.5x) ........................................
 72
    65
 73
     2
 40
0.025
 49
0.0
 74
     0
 49
-0.025
 74
     0
  0
ENDTAB
  0
TABLE
  2
LAYER
  5
2
330
0
100
AcDbSymbolTable
 70
     1
  0
LAYER
  5
10
330
2
100
AcDbSymbolTableRecord
100
AcDbLayerTableRecord
  2
0
 70
     0
 62
     7
  6
Continuous
370
    -3
390
F
  0
ENDTAB
  0
TABLE
  2
STYLE
  5
3
330
0
100
AcDbSymbolTable
 70
     2
  0
STYLE
  5
11
330
3
100
AcDbSymbolTableRecord
100
AcDbTextStyleTableRecord
  2
Standard
 70
     0
 40
0.0
 41
1.0
 50
0.0
 71
     0
 42
0.2
  3
txt
  4

  0
STYLE
  5
55
330
3
100
AcDbSymbolTableRecord
100
AcDbTextStyleTableRecord
  2
SLDTEXTSTYLE0
 70
     0
 40
0.0
 41
0.75
 50
0.0
 71
     0
 42
0.2
  3
TXT
  4

  0
ENDTAB
  0
TABLE
  2
VIEW
  5
6
330
0
100
AcDbSymbolTable
 70
     0
  0
ENDTAB
  0
TABLE
  2
UCS
  5
7
330
0
100
AcDbSymbolTable
 70
     0
  0
ENDTAB
  0
TABLE
  2
APPID
  5
9
330
0
100
AcDbSymbolTable
 70
     1
  0
APPID
  5
12
330
9
100
AcDbSymbolTableRecord
100
AcDbRegAppTableRecord
  2
ACAD
 70
     0
  0
ENDTAB
  0
TABLE
  2
DIMSTYLE
  5
A
330
0
100
AcDbSymbolTable
 70
     6
100
AcDbDimStyleTable
  0
DIMSTYLE
105
27
330
A
100
AcDbSymbolTableRecord
100
AcDbDimStyleTableRecord
  2
Standard
 70
     0
340
11
  0
DIMSTYLE
105
B1
102
{ACAD_REACTORS
330
B0
102
}
330
A
100
AcDbSymbolTableRecord
100
AcDbDimStyleTableRecord
  2
SLDDIMSTYLE0
 70
     0
 41
0.065
 44
0.0
 45
0.000000001
 78
    12
140
0.0625
147
0.015625
148
0.000000001
170
     1
173
     1
271
     2
272
     2
284
    12
340
55
  0
DIMSTYLE
105
C3
102
{ACAD_REACTORS
330
C2
102
}
330
A
100
AcDbSymbolTableRecord
100
AcDbDimStyleTableRecord
  2
SLDDIMSTYLE1
 70
     0
 41
0.065
 44
0.0
 45
0.000000001
 78
    12
140
0.0625
147
0.015625
148
0.000000001
170
     1
172
     1
173
     1
271
     3
272
     3
284
    12
340
55
  0
DIMSTYLE
105
D5
102
{ACAD_REACTORS
330
D4
330
FA
330
10C
330
130
330
154
330
178
330
19C
330
1AE
102
}
330
A
100
AcDbSymbolTableRecord
100
AcDbDimStyleTableRecord
  2
SLDDIMSTYLE2
 70
     0
 41
0.065
 44
0.0
 45
0.000000001
 78
    12
140
0.0625
147
0.015625
148
0.000000001
170
     1
173
     1
271
     2
272
     2
284
    12
340
55
  0
DIMSTYLE
105
E8
102
{ACAD_REACTORS
330
E7
330
11E
330
142
330
166
102
}
330
A
100
AcDbSymbolTableRecord
100
AcDbDimStyleTableRecord
  2
SLDDIMSTYLE3
 70
     0
 41
0.065
 44
0.0
 45
0.000000001
 78
     4
140
0.0625
147
0.015625
148
0.000000001
170
     1
173
     1
271
     2
272
     2
284
    12
340
55
  0
DIMSTYLE
105
18B
102
{ACAD_REACTORS
330
18A
102
}
330
A
100
AcDbSymbolTableRecord
100
AcDbDimStyleTableRecord
  2
SLDDIMSTYLE4
 70
     0
 41
0.065
 44
0.0
 45
0.000000001
 78
    12
140
0.0625
147
0.015625
148
0.000000001
170
     1
173
     1
271
     2
272
     2
284
    12
340
55
  0
ENDTAB
  0
TABLE
  2
BLOCK_RECORD
  5
1
330
0
100
AcDbSymbolTable
 70
    20
  0
BLOCK_RECORD
  5
1F
330
1
100
AcDbSymbolTableRecord
100
AcDbBlockTableRecord
  2
*Model_Space
340
22
  0
BLOCK_RECORD
  5
1B
330
1
100
AcDbSymbolTableRecord
100
AcDbBlockTableRecord
  2
*Paper_Space
340
1E
  0
BLOCK_RECORD
  5
23
330
1
100
AcDbSymbolTableRecord
100
AcDbBlockTableRecord
  2
*Paper_Space0
340
26
  0
BLOCK_RECORD
  5
52
330
1
100
AcDbSymbolTableRecord
100
AcDbBlockTableRecord
  2
SW_NOTE_0
340
0
102
{BLKREFS
331
80
102
}
  0
BLOCK_RECORD
  5
81
330
1
100
AcDbSymbolTableRecord
100
AcDbBlockTableRecord
  2
SW_NOTE_1
340
0
102
{BLKREFS
331
86
102
}
  0
BLOCK_RECORD
  5
87
330
1
100
AcDbSymbolTableRecord
100
AcDbBlockTableRecord
  2
SW_NOTE_2
340
0
102
{BLKREFS
331
8C
102
}
  0
BLOCK_RECORD
  5
8D
330
1
100
AcDbSymbolTableRecord
100
AcDbBlockTableRecord
  2
SW_NOTE_3
340
0
102
{BLKREFS
331
92
102
}
  0
BLOCK_RECORD
  5
B2
330
1
100
AcDbSymbolTableRecord
100
AcDbBlockTableRecord
  2
*D5
340
0
  0
BLOCK_RECORD
  5
C4
330
1
100
AcDbSymbolTableRecord
100
AcDbBlockTableRecord
  2
*D6
340
0
  0
BLOCK_RECORD
  5
D6
330
1
100
AcDbSymbolTableRecord
100
AcDbBlockTableRecord
  2
*D7
340
0
  0
BLOCK_RECORD
  5
E9
330
1
100
AcDbSymbolTableRecord
100
AcDbBlockTableRecord
  2
*D8
340
0
  0
BLOCK_RECORD
  5
FB
330
1
100
AcDbSymbolTableRecord
100
AcDbBlockTableRecord
  2
*D9
340
0
  0
BLOCK_RECORD
  5
10D
330
1
100
AcDbSymbolTableRecord
100
AcDbBlockTableRecord
  2
*D10
340
0
  0
BLOCK_RECORD
  5
11F
330
1
100
AcDbSymbolTableRecord
100
AcDbBlockTableRecord
  2
*D11
340
0
  0
BLOCK_RECORD
  5
131
330
1
100
AcDbSymbolTableRecord
100
AcDbBlockTableRecord
  2
*D12
340
0
  0
BLOCK_RECORD
  5
143
330
1
100
AcDbSymbolTableRecord
100
AcDbBlockTableRecord
  2
*D13
340
0
  0
BLOCK_RECORD
  5
155
330
1
100
AcDbSymbolTableRecord
100
AcDbBlockTableRecord
  2
*D14
340
0
  0
BLOCK_RECORD
  5
167
330
1
100
AcDbSymbolTableRecord
100
AcDbBlockTableRecord
  2
*D15
340
0
  0
BLOCK_RECORD
  5
179
330
1
100
AcDbSymbolTableRecord
100
AcDbBlockTableRecord
  2
*D16
340
0
  0
BLOCK_RECORD
  5
18C
330
1
100
AcDbSymbolTableRecord
100
AcDbBlockTableRecord
  2
*D17
340
0
  0
BLOCK_RECORD
  5
19D
330
1
100
AcDbSymbolTableRecord
100
AcDbBlockTableRecord
  2
*D18
340
0
  0
BLOCK_RECORD
  5
1AF
330
1
100
AcDbSymbolTableRecord
100
AcDbBlockTableRecord
  2
*D19
340
0
  0
ENDTAB
  0
ENDSEC
  0
SECTION
  2
BLOCKS
  0
BLOCK
  5
20
330
1F
100
AcDbEntity
  8
0
100
AcDbBlockBegin
  2
*Model_Space
 70
     0
 10
0.0
 20
0.0
 30
0.0
  3
*Model_Space
  1

  0
ENDBLK
  5
21
330
1F
100
AcDbEntity
  8
0
100
AcDbBlockEnd
  0
BLOCK
  5
1C
330
1B
100
AcDbEntity
 67
     1
  8
0
100
AcDbBlockBegin
  2
*Paper_Space
 70
     0
 10
0.0
 20
0.0
 30
0.0
  3
*Paper_Space
  1

  0
ENDBLK
  5
1D
330
1B
100
AcDbEntity
 67
     1
  8
0
100
AcDbBlockEnd
  0
BLOCK
  5
24
330
23
100
AcDbEntity
  8
0
100
AcDbBlockBegin
  2
*Paper_Space0
 70
     0
 10
0.0
 20
0.0
 30
0.0
  3
*Paper_Space0
  1

  0
ENDBLK
  5
25
330
23
100
AcDbEntity
  8
0
100
AcDbBlockEnd
  0
BLOCK
  5
53
330
52
100
AcDbEntity
  8
0
100
AcDbBlockBegin
  2
SW_NOTE_0
 70
     0
 10
0.0
 20
0.0
 30
0.0
  3
SW_NOTE_0
  1

  0
MTEXT
  5
78
330
52
100
AcDbEntity
  8
0
  6
Continuous
 62
     0
 48
0.5
370
     0
100
AcDbMText
 10
0.0
 20
0.0805667337
 30
0.0
 40
0.0625
 41
0.0
 71
     1
 72
     1
  1
MATERIAL - .060 [1.5mm] THK. ALUMINUM
  7
SLDTEXTSTYLE0
 73
     1
 44
1.0
  0
MTEXT
  5
79
330
52
100
AcDbEntity
  8
0
  6
Continuous
 62
     0
 48
0.5
370
     0
100
AcDbMText
 10
0.0
 20
-0.0838033408
 30
0.0
 40
0.0625
 41
0.0
 71
     1
 72
     1
  1
FINISH - NATURAL
  7
SLDTEXTSTYLE0
 73
     1
 44
1.0
  0
MTEXT
  5
7A
330
52
100
AcDbEntity
  8
0
  6
Continuous
 62
     0
 48
0.5
370
     0
100
AcDbMText
 10
0.0
 20
-0.2481734153
 30
0.0
 40
0.0625
 41
0.0
 71
     1
 72
     1
  1
SUPPLIED WITH M3.5 x 6mm LG. SELF-THREADING SCREWS
  7
SLDTEXTSTYLE0
 73
     1
 44
1.0
  0
MTEXT
  5
7B
330
52
100
AcDbEntity
  8
0
  6
Continuous
 62
     0
 48
0.5
370
     0
100
AcDbMText
 10
0.0
 20
-0.3303584526
 30
0.0
 40
0.0625
 41
0.0
 71
     1
 72
     1
  1
    (PAN HD., PHILLIPS DRIVE, STEEL, ZINC PLATED) FOR
  7
SLDTEXTSTYLE0
 73
     1
 44
1.0
  0
MTEXT
  5
7C
330
52
100
AcDbEntity
  8
0
  6
Continuous
 62
     0
 48
0.5
370
     0
100
AcDbMText
 10
0.0
 20
-0.4125434898
 30
0.0
 40
0.0625
 41
0.0
 71
     1
 72
     1
  1
     MOUNTING.
  7
SLDTEXTSTYLE0
 73
     1
 44
1.0
  0
MTEXT
  5
7D
330
52
100
AcDbEntity
  8
0
  6
Continuous
 62
     0
 48
0.5
370
     0
100
AcDbMText
 10
0.0
 20
-0.5769135643
 30
0.0
 40
0.0625
 41
0.0
 71
     1
 72
     1
  1
PANEL FITS THE FOLLOWING ENCLOSURES:
  7
SLDTEXTSTYLE0
 73
     1
 44
1.0
  0
MTEXT
  5
7E
330
52
100
AcDbEntity
  8
0
  6
Continuous
 62
     0
 48
0.5
370
     0
100
AcDbMText
 10
0.0
 20
-0.6590986016
 30
0.0
 40
0.0625
 41
0.0
 71
     1
 72
     1
  1
  AN-1301, AN-1301-G, AN-2801, AN-2801-B, AN-2851 &
  7
SLDTEXTSTYLE0
 73
     1
 44
1.0
  0
MTEXT
  5
7F
330
52
100
AcDbEntity
  8
0
  6
Continuous
 62
     0
 48
0.5
370
     0
100
AcDbMText
 10
0.0
 20
-0.7412836388
 30
0.0
 40
0.0625
 41
0.0
 71
     1
 72
     1
  1
  AN-2851-B
  7
SLDTEXTSTYLE0
 73
     1
 44
1.0
  0
ENDBLK
  5
54
330
52
100
AcDbEntity
  8
0
100
AcDbBlockEnd
  0
BLOCK
  5
82
330
81
100
AcDbEntity
  8
0
100
AcDbBlockBegin
  2
SW_NOTE_1
 70
     0
 10
0.0
 20
0.0
 30
0.0
  3
SW_NOTE_1
  1

  0
MTEXT
  5
84
330
81
100
AcDbEntity
  8
0
  6
Continuous
 62
     0
 48
0.5
370
     0
100
AcDbMText
 10
0.0
 20
0.0805667337
 30
0.0
 40
0.0625
 41
0.0
 71
     1
 72
     1
  1
PART
  7
SLDTEXTSTYLE0
 73
     1
 44
1.0
  0
MTEXT
  5
85
330
81
100
AcDbEntity
  8
0
  6
Continuous
 62
     0
 48
0.5
370
     0
100
AcDbMText
 10
-0.0237413191
 20
-0.0016183035
 30
0.0
 40
0.0625
 41
0.0
 71
     1
 72
     1
  1
NAME
  7
SLDTEXTSTYLE0
 73
     1
 44
1.0
  0
ENDBLK
  5
83
330
81
100
AcDbEntity
  8
0
100
AcDbBlockEnd
  0
BLOCK
  5
88
330
87
100
AcDbEntity
  8
0
100
AcDbBlockBegin
  2
SW_NOTE_2
 70
     0
 10
0.0
 20
0.0
 30
0.0
  3
SW_NOTE_2
  1

  0
MTEXT
  5
8A
330
87
100
AcDbEntity
  8
0
  6
Continuous
 62
     0
 48
0.5
370
     0
100
AcDbMText
 10
0.0
 20
0.0805667337
 30
0.0
 40
0.0625
 41
0.0
 71
     1
 72
     1
  1
PART
  7
SLDTEXTSTYLE0
 73
     1
 44
1.0
  0
MTEXT
  5
8B
330
87
100
AcDbEntity
  8
0
  6
Continuous
 62
     0
 48
0.5
370
     0
100
AcDbMText
 10
0.0288628416
 20
-0.0016183035
 30
0.0
 40
0.0625
 41
0.0
 71
     1
 72
     1
  1
No.
  7
SLDTEXTSTYLE0
 73
     1
 44
1.0
  0
ENDBLK
  5
89
330
87
100
AcDbEntity
  8
0
100
AcDbBlockEnd
  0
BLOCK
  5
8E
330
8D
100
AcDbEntity
  8
0
100
AcDbBlockBegin
  2
SW_NOTE_3
 70
     0
 10
0.0
 20
0.0
 30
0.0
  3
SW_NOTE_3
  1

  0
MTEXT
  5
90
330
8D
100
AcDbEntity
  8
0
  6
Continuous
 62
     0
 48
0.5
370
     0
100
AcDbMText
 10
0.0
 20
0.0805667337
 30
0.0
 40
0.0625
 41
0.0
 71
     1
 72
     1
  1
REV.
  7
SLDTEXTSTYLE0
 73
     1
 44
1.0
  0
MTEXT
  5
91
330
8D
100
AcDbEntity
  8
0
  6
Continuous
 62
     0
 48
0.5
370
     0
100
AcDbMText
 10
-0.0134548612
 20
-0.0016183035
 30
0.0
 40
0.0625
 41
0.0
 71
     1
 72
     1
  1
DATE
  7
SLDTEXTSTYLE0
 73
     1
 44
1.0
  0
ENDBLK
  5
8F
330
8D
100
AcDbEntity
  8
0
100
AcDbBlockEnd
  0
BLOCK
  5
B3
330
B2
100
AcDbEntity
  8
0
100
AcDbBlockBegin
  2
*D5
 70
     1
 10
0.0
 20
0.0
 30
0.0
  3
*D5
  1

  0
SOLID
  5
B5
330
B2
100
AcDbEntity
  8
0
  6
Continuous
 62
     7
 48
0.5
370
     0
100
AcDbTrace
 10
1.2343762904
 20
1.6053318545
 30
0.0
 11
1.2755267056
 21
1.6566313995
 31
0.0
 12
1.2582042798
 22
1.6666280772
 32
0.0
 13
1.2582042798
 23
1.6666280772
 33
0.0
  0
LINE
  5
B6
330
B2
100
AcDbEntity
  8
0
  6
Continuous
 62
     7
 48
0.5
370
     0
100
AcDbLine
 10
1.5127210185
 20
1.8737897807
 30
0.0
 11
1.5127210185
 21
1.7894673694
 31
0.0
  0
LINE
  5
B7
330
B2
100
AcDbEntity
  8
0
  6
Continuous
 62
     7
 48
0.5
370
     0
100
AcDbLine
 10
1.5127210185
 20
1.7894673694
 30
0.0
 11
1.5254087253
 21
1.7894673694
 31
0.0
  0
LINE
  5
B8
330
B2
100
AcDbEntity
  8
0
  6
Continuous
 62
     7
 48
0.5
370
     0
100
AcDbLine
 10
1.5127210185
 20
1.8737897807
 30
0.0
 11
1.5254087253
 21
1.8737897807
 31
0.0
  0
LINE
  5
B9
330
B2
100
AcDbEntity
  8
0
  6
Continuous
 62
     7
 48
0.5
370
     0
100
AcDbLine
 10
1.6788990327
 20
1.8737897807
 30
0.0
 11
1.6788990327
 21
1.7894673694
 31
0.0
  0
LINE
  5
BA
330
B2
100
AcDbEntity
  8
0
  6
Continuous
 62
     7
 48
0.5
370
     0
100
AcDbLine
 10
1.6788990327
 20
1.7894673694
 30
0.0
 11
1.6662113258
 21
1.7894673694
 31
0.0
  0
LINE
  5
BB
330
B2
100
AcDbEntity
  8
0
  6
Continuous
 62
     7
 48
0.5
370
     0
100
AcDbLine
 10
1.6788990327
 20
1.8737897807
 30
0.0
 11
1.6662113258
 21
1.8737897807
 31
0.0
  0
LINE
  5
BC
330
B2
100
AcDbEntity
  8
0
  6
Continuous
 62
     7
 48
0.5
370
     0
100
AcDbLine
 10
1.2343762904
 20
1.6053318545
 30
0.0
 11
1.3935956048
 21
1.8812299935
 31
0.0
  0
LINE
  5
BD
330
B2
100
AcDbEntity
  8
0
  6
Continuous
 62
     7
 48
0.5
370
     0
100
AcDbLine
 10
1.3935956048
 20
1.8812299935
 30
0.0
 11
1.4560956048
 21
1.8812299935
 31
0.0
  0
MTEXT
  5
BE
330
B2
100
AcDbEntity
  8
0
  6
Continuous
 62
     7
 48
0.5
370
     0
100
AcDbMText
 10
1.5128094345
 20
1.9617967238
 30
0.0
 40
0.0625
 41
0.0
 71
     1
 72
     1
  1
R
  7
SLDTEXTSTYLE0
 73
     1
 44
1.0
  0
MTEXT
  5
BF
330
B2
100
AcDbEntity
  8
0
  6
Continuous
 62
     7
 48
0.5
370
     0
100
AcDbMText
 10
1.5633834298
 20
1.9617967238
 30
0.0
 40
0.0625
 41
0.0
 71
     1
 72
     1
  1
.27
  7
SLDTEXTSTYLE0
 73
     1
 44
1.0
  0
MTEXT
  5
C0
330
B2
100
AcDbEntity
  8
0
  6
Continuous
 62
     7
 48
0.5
370
     0
100
AcDbMText
 10
1.7042744464
 20
1.9617967238
 30
0.0
 40
0.0625
 41
0.0
 71
     1
 72
     1
  1
 (4x)
  7
SLDTEXTSTYLE0
 73
     1
 44
1.0
  0
MTEXT
  5
C1
330
B2
100
AcDbEntity
  8
0
  6
Continuous
 62
     7
 48
0.5
370
     0
100
AcDbMText
 10
1.5380964322
 20
1.8625938869
 30
0.0
 40
0.0625
 41
0.0
 71
     1
 72
     1
  1
6.8
  7
SLDTEXTSTYLE0
 73
     1
 44
1.0
  0
ENDBLK
  5
B4
330
B2
100
AcDbEntity
  8
0
100
AcDbBlockEnd
  0
BLOCK
  5
C5
330
C4
100
AcDbEntity
  8
0
100
AcDbBlockBegin
  2
*D6
 70
     1
 10
0.0
 20
0.0
 30
0.0
  3
*D6
  1

  0
SOLID
  5
C7
330
C4
100
AcDbEntity
  8
0
  6
Continuous
 62
     7
 48
0.5
370
     0
100
AcDbTrace
 10
2.6954274713
 20
2.9997737643
 30
0.0
 11
2.6424081685
 21
2.9608642085
 31
0.0
 12
2.656555286
 22
2.9467270565
 32
0.0
 13
2.656555286
 23
2.9467270565
 33
0.0
  0
LINE
  5
C8
330
C4
100
AcDbEntity
  8
0
  6
Continuous
 62
     7
 48
0.5
370
     0
100
AcDbLine
 10
1.9711395623
 20
2.7651223526
 30
0.0
 11
1.9711395623
 21
2.6807999412
 31
0.0
  0
LINE
  5
C9
330
C4
100
AcDbEntity
  8
0
  6
Continuous
 62
     7
 48
0.5
370
     0
100
AcDbLine
 10
1.9711395623
 20
2.6807999412
 30
0.0
 11
1.9838272692
 21
2.6807999412
 31
0.0
  0
LINE
  5
CA
330
C4
100
AcDbEntity
  8
0
  6
Continuous
 62
     7
 48
0.5
370
     0
100
AcDbLine
 10
1.9711395623
 20
2.7651223526
 30
0.0
 11
1.9838272692
 21
2.7651223526
 31
0.0
  0
LINE
  5
CB
330
C4
100
AcDbEntity
  8
0
  6
Continuous
 62
     7
 48
0.5
370
     0
100
AcDbLine
 10
2.183514976
 20
2.7651223526
 30
0.0
 11
2.183514976
 21
2.6807999412
 31
0.0
  0
LINE
  5
CC
330
C4
100
AcDbEntity
  8
0
  6
Continuous
 62
     7
 48
0.5
370
     0
100
AcDbLine
 10
2.183514976
 20
2.6807999412
 30
0.0
 11
2.1708272692
 21
2.6807999412
 31
0.0
  0
LINE
  5
CD
330
C4
100
AcDbEntity
  8
0
  6
Continuous
 62
     7
 48
0.5
370
     0
100
AcDbLine
 10
2.183514976
 20
2.7651223526
 30
0.0
 11
2.1708272692
 21
2.7651223526
 31
0.0
  0
LINE
  5
CE
330
C4
100
AcDbEntity
  8
0
  6
Continuous
 62
     7
 48
0.5
370
     0
100
AcDbLine
 10
2.6954274713
 20
2.9997737643
 30
0.0
 11
2.4683763236
 21
2.7725625653
 31
0.0
  0
LINE
  5
CF
330
C4
100
AcDbEntity
  8
0
  6
Continuous
 62
     7
 48
0.5
370
     0
100
AcDbLine
 10
2.4683763236
 20
2.7725625653
 30
0.0
 11
2.4058763236
 21
2.7725625653
 31
0.0
  0
MTEXT
  5
D0
330
C4
100
AcDbEntity
  8
0
  6
Continuous
 62
     7
 48
0.5
370
     0
100
AcDbMText
 10
1.9518736994
 20
2.8531292968
 30
0.0
 40
0.0625
 41
0.0
 71
     1
 72
     1
  1
%%c
  7
SLDTEXTSTYLE0
 73
     1
 44
1.0
  0
MTEXT
  5
D1
330
C4
100
AcDbEntity
  8
0
  6
Continuous
 62
     7
 48
0.5
370
     0
100
AcDbMText
 10
2.0411562526
 20
2.8531292956
 30
0.0
 40
0.0625
 41
0.0
 71
     1
 72
     1
  1
.177
  7
SLDTEXTSTYLE0
 73
     1
 44
1.0
  0
MTEXT
  5
D2
330
C4
100
AcDbEntity
  8
0
  6
Continuous
 62
     7
 48
0.5
370
     0
100
AcDbMText
 10
2.2088903897
 20
2.8531292956
 30
0.0
 40
0.0625
 41
0.0
 71
     1
 72
     1
  1
 (2x)
  7
SLDTEXTSTYLE0
 73
     1
 44
1.0
  0
MTEXT
  5
D3
330
C4
100
AcDbEntity
  8
0
  6
Continuous
 62
     7
 48
0.5
370
     0
100
AcDbMText
 10
1.996514976
 20
2.7539264588
 30
0.0
 40
0.0625
 41
0.0
 71
     1
 72
     1
  1
4.50
  7
SLDTEXTSTYLE0
 73
     1
 44
1.0
  0
ENDBLK
  5
C6
330
C4
100
AcDbEntity
  8
0
100
AcDbBlockEnd
  0
BLOCK
  5
D7
330
D6
100
AcDbEntity
  8
0
100
AcDbBlockBegin
  2
*D7
 70
     1
 10
0.0
 20
0.0
 30
0.0
  3
*D7
  1

  0
SOLID
  5
D9
330
D6
100
AcDbEntity
  8
0
  6
Continuous
 62
     7
 48
0.5
370
     0
100
AcDbTrace
 10
1.0651294241
 20
3.5971276596
 30
0.0
 11
1.1301294241
 21
3.5871276596
 31
0.0
 12
1.1301294241
 22
3.6071276596
 32
0.0
 13
1.1301294241
 23
3.6071276596
 33
0.0
  0
SOLID
  5
DA
330
D6
100
AcDbEntity
  8
0
  6
Continuous
 62
     7
 48
0.5
370
     0
100
AcDbTrace
 10
3.1911136761
 20
3.5971276596
 30
0.0
 11
3.1261136761
 21
3.6071276596
 31
0.0
 12
3.1261136761
 22
3.5871276596
 32
0.0
 13
3.1261136761
 23
3.5871276596
 33
0.0
  0
LINE
  5
DB
330
D6
100
AcDbEntity
  8
0
  6
Continuous
 62
     7
 48
0.5
370
     0
100
AcDbLine
 10
2.0565708409
 20
3.5896874468
 30
0.0
 11
2.0565708409
 21
3.5053650355
 31
0.0
  0
LINE
  5
DC
330
D6
100
AcDbEntity
  8
0
  6
Continuous
 62
     7
 48
0.5
370
     0
100
AcDbLine
 10
2.0565708409
 20
3.5053650355
 30
0.0
 11
2.0692585478
 21
3.5053650355
 31
0.0
  0
LINE
  5
DD
330
D6
100
AcDbEntity
  8
0
  6
Continuous
 62
     7
 48
0.5
370
     0
100
AcDbLine
 10
2.0565708409
 20
3.5896874468
 30
0.0
 11
2.0692585478
 21
3.5896874468
 31
0.0
  0
LINE
  5
DE
330
D6
100
AcDbEntity
  8
0
  6
Continuous
 62
     7
 48
0.5
370
     0
100
AcDbLine
 10
2.1996722593
 20
3.5896874468
 30
0.0
 11
2.1996722593
 21
3.5053650355
 31
0.0
  0
LINE
  5
DF
330
D6
100
AcDbEntity
  8
0
  6
Continuous
 62
     7
 48
0.5
370
     0
100
AcDbLine
 10
2.1996722593
 20
3.5053650355
 30
0.0
 11
2.1869845525
 21
3.5053650355
 31
0.0
  0
LINE
  5
E0
330
D6
100
AcDbEntity
  8
0
  6
Continuous
 62
     7
 48
0.5
370
     0
100
AcDbLine
 10
2.1996722593
 20
3.5896874468
 30
0.0
 11
2.1869845525
 21
3.5896874468
 31
0.0
  0
LINE
  5
E1
330
D6
100
AcDbEntity
  8
0
  6
Continuous
 62
     7
 48
0.5
370
     0
100
AcDbLine
 10
1.0651294241
 20
2.8984568633
 30
0.0
 11
1.0651294241
 21
3.6596276596
 31
0.0
  0
LINE
  5
E2
330
D6
100
AcDbEntity
  8
0
  6
Continuous
 62
     7
 48
0.5
370
     0
100
AcDbLine
 10
3.1911136761
 20
2.9338899342
 30
0.0
 11
3.1911136761
 21
3.6596276596
 31
0.0
  0
LINE
  5
E3
330
D6
100
AcDbEntity
  8
0
  6
Continuous
 62
     7
 48
0.5
370
     0
100
AcDbLine
 10
1.0651294241
 20
3.5971276596
 30
0.0
 11
1.9872687724
 21
3.5971276596
 31
0.0
  0
LINE
  5
E4
330
D6
100
AcDbEntity
  8
0
  6
Continuous
 62
     7
 48
0.5
370
     0
100
AcDbLine
 10
3.1911136761
 20
3.5971276596
 30
0.0
 11
2.2689743279
 21
3.5971276596
 31
0.0
  0
MTEXT
  5
E5
330
D6
100
AcDbEntity
  8
0
  6
Continuous
 62
     7
 48
0.5
370
     0
100
AcDbMText
 10
2.047309257
 20
3.6776943899
 30
0.0
 40
0.0625
 41
0.0
 71
     1
 72
     1
  1
2.13
  7
SLDTEXTSTYLE0
 73
     1
 44
1.0
  0
MTEXT
  5
E6
330
D6
100
AcDbEntity
  8
0
  6
Continuous
 62
     7
 48
0.5
370
     0
100
AcDbMText
 10
2.0819462546
 20
3.578491553
 30
0.0
 40
0.0625
 41
0.0
 71
     1
 72
     1
  1
54
  7
SLDTEXTSTYLE0
 73
     1
 44
1.0
  0
ENDBLK
  5
D8
330
D6
100
AcDbEntity
  8
0
100
AcDbBlockEnd
  0
BLOCK
  5
EA
330
E9
100
AcDbEntity
  8
0
100
AcDbBlockBegin
  2
*D8
 70
     1
 10
0.0
 20
0.0
 30
0.0
  3
*D8
  1

  0
SOLID
  5
EC
330
E9
100
AcDbEntity
  8
0
  6
Continuous
 62
     7
 48
0.5
370
     0
100
AcDbTrace
 10
0.7931258148
 20
1.6411733988
 30
0.0
 11
0.8031258148
 21
1.7061733988
 31
0.0
 12
0.7831258148
 22
1.7061733988
 32
0.0
 13
0.7831258148
 23
1.7061733988
 33
0.0
  0
SOLID
  5
ED
330
E9
100
AcDbEntity
  8
0
  6
Continuous
 62
     7
 48
0.5
370
     0
100
AcDbTrace
 10
0.7931258148
 20
1.3380237925
 30
0.0
 11
0.7831258148
 21
1.2730237925
 31
0.0
 12
0.8031258148
 22
1.2730237925
 32
0.0
 13
0.8031258148
 23
1.2730237925
 33
0.0
  0
LINE
  5
EE
330
E9
100
AcDbEntity
  8
0
  6
Continuous
 62
     7
 48
0.5
370
     0
100
AcDbLine
 10
0.7100368077
 20
1.4821583828
 30
0.0
 11
0.7100368077
 21
1.3978359715
 31
0.0
  0
LINE
  5
EF
330
E9
100
AcDbEntity
  8
0
  6
Continuous
 62
     7
 48
0.5
370
     0
100
AcDbLine
 10
0.7100368077
 20
1.3978359715
 30
0.0
 11
0.7227245146
 21
1.3978359715
 31
0.0
  0
LINE
  5
F0
330
E9
100
AcDbEntity
  8
0
  6
Continuous
 62
     7
 48
0.5
370
     0
100
AcDbLine
 10
0.7100368077
 20
1.4821583828
 30
0.0
 11
0.7227245146
 21
1.4821583828
 31
0.0
  0
LINE
  5
F1
330
E9
100
AcDbEntity
  8
0
  6
Continuous
 62
     7
 48
0.5
370
     0
100
AcDbLine
 10
0.8762148219
 20
1.4821583828
 30
0.0
 11
0.8762148219
 21
1.3978359715
 31
0.0
  0
LINE
  5
F2
330
E9
100
AcDbEntity
  8
0
  6
Continuous
 62
     7
 48
0.5
370
     0
100
AcDbLine
 10
0.8762148219
 20
1.3978359715
 30
0.0
 11
0.863527115
 21
1.3978359715
 31
0.0
  0
LINE
  5
F3
330
E9
100
AcDbEntity
  8
0
  6
Continuous
 62
     7
 48
0.5
370
     0
100
AcDbLine
 10
0.8762148219
 20
1.4821583828
 30
0.0
 11
0.863527115
 21
1.4821583828
 31
0.0
  0
LINE
  5
F4
330
E9
100
AcDbEntity
  8
0
  6
Continuous
 62
     7
 48
0.5
370
     0
100
AcDbLine
 10
1.0401294241
 20
1.6411733988
 30
0.0
 11
0.7306258148
 21
1.6411733988
 31
0.0
  0
LINE
  5
F5
330
E9
100
AcDbEntity
  8
0
  6
Continuous
 62
     7
 48
0.5
370
     0
100
AcDbLine
 10
1.3432790304
 20
1.3380237925
 30
0.0
 11
0.7306258148
 21
1.3380237925
 31
0.0
  0
LINE
  5
F6
330
E9
100
AcDbEntity
  8
0
  6
Continuous
 62
     7
 48
0.5
370
     0
100
AcDbLine
 10
0.7931258148
 20
1.6411733988
 30
0.0
 11
0.7931258148
 21
1.7661733988
 31
0.0
  0
LINE
  5
F7
330
E9
100
AcDbEntity
  8
0
  6
Continuous
 62
     7
 48
0.5
370
     0
100
AcDbLine
 10
0.7931258148
 20
1.3380237925
 30
0.0
 11
0.7931258148
 21
1.2130237925
 31
0.0
  0
MTEXT
  5
F8
330
E9
100
AcDbEntity
  8
0
  6
Continuous
 62
     7
 48
0.5
370
     0
100
AcDbMText
 10
0.7354122214
 20
1.5701653259
 30
0.0
 40
0.0625
 41
0.0
 71
     1
 72
     1
  1
.30
  7
SLDTEXTSTYLE0
 73
     1
 44
1.0
  0
MTEXT
  5
F9
330
E9
100
AcDbEntity
  8
0
  6
Continuous
 62
     7
 48
0.5
370
     0
100
AcDbMText
 10
0.7354122214
 20
1.470962489
 30
0.0
 40
0.0625
 41
0.0
 71
     1
 72
     1
  1
7.7
  7
SLDTEXTSTYLE0
 73
     1
 44
1.0
  0
ENDBLK
  5
EB
330
E9
100
AcDbEntity
  8
0
100
AcDbBlockEnd
  0
BLOCK
  5
FC
330
FB
100
AcDbEntity
  8
0
100
AcDbBlockBegin
  2
*D9
 70
     1
 10
0.0
 20
0.0
 30
0.0
  3
*D9
  1

  0
SOLID
  5
FE
330
FB
100
AcDbEntity
  8
0
  6
Continuous
 62
     7
 48
0.5
370
     0
100
AcDbTrace
 10
0.7931258148
 20
1.6411733988
 30
0.0
 11
0.8031258148
 21
1.7061733988
 31
0.0
 12
0.7831258148
 22
1.7061733988
 32
0.0
 13
0.7831258148
 23
1.7061733988
 33
0.0
  0
SOLID
  5
FF
330
FB
100
AcDbEntity
  8
0
  6
Continuous
 62
     7
 48
0.5
370
     0
100
AcDbTrace
 10
0.7931258148
 20
2.8734568633
 30
0.0
 11
0.7831258148
 21
2.8084568633
 31
0.0
 12
0.8031258148
 22
2.8084568633
 32
0.0
 13
0.8031258148
 23
2.8084568633
 33
0.0
  0
LINE
  5
100
330
FB
100
AcDbEntity
  8
0
  6
Continuous
 62
     7
 48
0.5
370
     0
100
AcDbLine
 10
0.686938108
 20
2.2498749183
 30
0.0
 11
0.686938108
 21
2.1655525069
 31
0.0
  0
LINE
  5
101
330
FB
100
AcDbEntity
  8
0
  6
Continuous
 62
     7
 48
0.5
370
     0
100
AcDbLine
 10
0.686938108
 20
2.1655525069
 30
0.0
 11
0.6996258148
 21
2.1655525069
 31
0.0
  0
LINE
  5
102
330
FB
100
AcDbEntity
  8
0
  6
Continuous
 62
     7
 48
0.5
370
     0
100
AcDbLine
 10
0.686938108
 20
2.2498749183
 30
0.0
 11
0.6996258148
 21
2.2498749183
 31
0.0
  0
LINE
  5
103
330
FB
100
AcDbEntity
  8
0
  6
Continuous
 62
     7
 48
0.5
370
     0
100
AcDbLine
 10
0.8993135217
 20
2.2498749183
 30
0.0
 11
0.8993135217
 21
2.1655525069
 31
0.0
  0
LINE
  5
104
330
FB
100
AcDbEntity
  8
0
  6
Continuous
 62
     7
 48
0.5
370
     0
100
AcDbLine
 10
0.8993135217
 20
2.1655525069
 30
0.0
 11
0.8866258148
 21
2.1655525069
 31
0.0
  0
LINE
  5
105
330
FB
100
AcDbEntity
  8
0
  6
Continuous
 62
     7
 48
0.5
370
     0
100
AcDbLine
 10
0.8993135217
 20
2.2498749183
 30
0.0
 11
0.8866258148
 21
2.2498749183
 31
0.0
  0
LINE
  5
106
330
FB
100
AcDbEntity
  8
0
  6
Continuous
 62
     7
 48
0.5
370
     0
100
AcDbLine
 10
1.0401294241
 20
1.6411733988
 30
0.0
 11
0.7306258148
 21
1.6411733988
 31
0.0
  0
LINE
  5
107
330
FB
100
AcDbEntity
  8
0
  6
Continuous
 62
     7
 48
0.5
370
     0
100
AcDbLine
 10
1.0401294241
 20
2.8734568633
 30
0.0
 11
0.7306258148
 21
2.8734568633
 31
0.0
  0
LINE
  5
108
330
FB
100
AcDbEntity
  8
0
  6
Continuous
 62
     7
 48
0.5
370
     0
100
AcDbLine
 10
0.7931258148
 20
1.6411733988
 30
0.0
 11
0.7931258148
 21
2.1581122942
 31
0.0
  0
LINE
  5
109
330
FB
100
AcDbEntity
  8
0
  6
Continuous
 62
     7
 48
0.5
370
     0
100
AcDbLine
 10
0.7931258148
 20
2.8734568633
 30
0.0
 11
0.7931258148
 21
2.3565179679
 31
0.0
  0
MTEXT
  5
10A
330
FB
100
AcDbEntity
  8
0
  6
Continuous
 62
     7
 48
0.5
370
     0
100
AcDbMText
 10
0.7123135217
 20
2.3378818613
 30
0.0
 40
0.0625
 41
0.0
 71
     1
 72
     1
  1
1.23
  7
SLDTEXTSTYLE0
 73
     1
 44
1.0
  0
MTEXT
  5
10B
330
FB
100
AcDbEntity
  8
0
  6
Continuous
 62
     7
 48
0.5
370
     0
100
AcDbMText
 10
0.7123135217
 20
2.2386790245
 30
0.0
 40
0.0625
 41
0.0
 71
     1
 72
     1
  1
31.3
  7
SLDTEXTSTYLE0
 73
     1
 44
1.0
  0
ENDBLK
  5
FD
330
FB
100
AcDbEntity
  8
0
100
AcDbBlockEnd
  0
BLOCK
  5
10E
330
10D
100
AcDbEntity
  8
0
100
AcDbBlockBegin
  2
*D10
 70
     1
 10
0.0
 20
0.0
 30
0.0
  3
*D10
  1

  0
SOLID
  5
110
330
10D
100
AcDbEntity
  8
0
  6
Continuous
 62
     7
 48
0.5
370
     0
100
AcDbTrace
 10
1.4982002903
 20
0.9049529263
 30
0.0
 11
1.5632002903
 21
0.8949529263
 31
0.0
 12
1.5632002903
 22
0.9149529263
 32
0.0
 13
1.5632002903
 23
0.9149529263
 33
0.0
  0
SOLID
  5
111
330
10D
100
AcDbEntity
  8
0
  6
Continuous
 62
     7
 48
0.5
370
     0
100
AcDbTrace
 10
2.75804281
 20
0.9049529263
 30
0.0
 11
2.69304281
 21
0.9149529263
 31
0.0
 12
2.69304281
 22
0.8949529263
 32
0.0
 13
2.69304281
 23
0.8949529263
 33
0.0
  0
LINE
  5
112
330
10D
100
AcDbEntity
  8
0
  6
Continuous
 62
     7
 48
0.5
370
     0
100
AcDbLine
 10
2.0565708409
 20
0.8975127136
 30
0.0
 11
2.0565708409
 21
0.8131903022
 31
0.0
  0
LINE
  5
113
330
10D
100
AcDbEntity
  8
0
  6
Continuous
 62
     7
 48
0.5
370
     0
100
AcDbLine
 10
2.0565708409
 20
0.8131903022
 30
0.0
 11
2.0692585478
 21
0.8131903022
 31
0.0
  0
LINE
  5
114
330
10D
100
AcDbEntity
  8
0
  6
Continuous
 62
     7
 48
0.5
370
     0
100
AcDbLine
 10
2.0565708409
 20
0.8975127136
 30
0.0
 11
2.0692585478
 21
0.8975127136
 31
0.0
  0
LINE
  5
115
330
10D
100
AcDbEntity
  8
0
  6
Continuous
 62
     7
 48
0.5
370
     0
100
AcDbLine
 10
2.1996722593
 20
0.8975127136
 30
0.0
 11
2.1996722593
 21
0.8131903022
 31
0.0
  0
LINE
  5
116
330
10D
100
AcDbEntity
  8
0
  6
Continuous
 62
     7
 48
0.5
370
     0
100
AcDbLine
 10
2.1996722593
 20
0.8131903022
 30
0.0
 11
2.1869845525
 21
0.8131903022
 31
0.0
  0
LINE
  5
117
330
10D
100
AcDbEntity
  8
0
  6
Continuous
 62
     7
 48
0.5
370
     0
100
AcDbLine
 10
2.1996722593
 20
0.8975127136
 30
0.0
 11
2.1869845525
 21
0.8975127136
 31
0.0
  0
LINE
  5
118
330
10D
100
AcDbEntity
  8
0
  6
Continuous
 62
     7
 48
0.5
370
     0
100
AcDbLine
 10
1.4982002903
 20
1.4626300917
 30
0.0
 11
1.4982002903
 21
0.8424529263
 31
0.0
  0
LINE
  5
119
330
10D
100
AcDbEntity
  8
0
  6
Continuous
 62
     7
 48
0.5
370
     0
100
AcDbLine
 10
2.75804281
 20
3.0374332413
 30
0.0
 11
2.75804281
 21
0.8424529263
 31
0.0
  0
LINE
  5
11A
330
10D
100
AcDbEntity
  8
0
  6
Continuous
 62
     7
 48
0.5
370
     0
100
AcDbLine
 10
1.4982002903
 20
0.9049529263
 30
0.0
 11
1.9872687724
 21
0.9049529263
 31
0.0
  0
LINE
  5
11B
330
10D
100
AcDbEntity
  8
0
  6
Continuous
 62
     7
 48
0.5
370
     0
100
AcDbLine
 10
2.75804281
 20
0.9049529263
 30
0.0
 11
2.2689743279
 21
0.9049529263
 31
0.0
  0
MTEXT
  5
11C
330
10D
100
AcDbEntity
  8
0
  6
Continuous
 62
     7
 48
0.5
370
     0
100
AcDbMText
 10
2.047309257
 20
0.9855196566
 30
0.0
 40
0.0625
 41
0.0
 71
     1
 72
     1
  1
1.26
  7
SLDTEXTSTYLE0
 73
     1
 44
1.0
  0
MTEXT
  5
11D
330
10D
100
AcDbEntity
  8
0
  6
Continuous
 62
     7
 48
0.5
370
     0
100
AcDbMText
 10
2.0819462546
 20
0.8863168197
 30
0.0
 40
0.0625
 41
0.0
 71
     1
 72
     1
  1
32
  7
SLDTEXTSTYLE0
 73
     1
 44
1.0
  0
ENDBLK
  5
10F
330
10D
100
AcDbEntity
  8
0
100
AcDbBlockEnd
  0
BLOCK
  5
120
330
11F
100
AcDbEntity
  8
0
100
AcDbBlockBegin
  2
*D11
 70
     1
 10
0.0
 20
0.0
 30
0.0
  3
*D11
  1

  0
SOLID
  5
122
330
11F
100
AcDbEntity
  8
0
  6
Continuous
 62
     7
 48
0.5
370
     0
100
AcDbTrace
 10
2.8879640698
 20
3.4088899342
 30
0.0
 11
2.8229640698
 21
3.4188899342
 31
0.0
 12
2.8229640698
 22
3.3988899342
 32
0.0
 13
2.8229640698
 23
3.3988899342
 33
0.0
  0
SOLID
  5
123
330
11F
100
AcDbEntity
  8
0
  6
Continuous
 62
     7
 48
0.5
370
     0
100
AcDbTrace
 10
3.1911136761
 20
3.4088899342
 30
0.0
 11
3.2561136761
 21
3.3988899342
 31
0.0
 12
3.2561136761
 22
3.4188899342
 32
0.0
 13
3.2561136761
 23
3.4188899342
 33
0.0
  0
LINE
  5
124
330
11F
100
AcDbEntity
  8
0
  6
Continuous
 62
     7
 48
0.5
370
     0
100
AcDbLine
 10
2.9564498659
 20
3.4014497214
 30
0.0
 11
2.9564498659
 21
3.3171273101
 31
0.0
  0
LINE
  5
125
330
11F
100
AcDbEntity
  8
0
  6
Continuous
 62
     7
 48
0.5
370
     0
100
AcDbLine
 10
2.9564498659
 20
3.3171273101
 30
0.0
 11
2.9691375727
 21
3.3171273101
 31
0.0
  0
LINE
  5
126
330
11F
100
AcDbEntity
  8
0
  6
Continuous
 62
     7
 48
0.5
370
     0
100
AcDbLine
 10
2.9564498659
 20
3.4014497214
 30
0.0
 11
2.9691375727
 21
3.4014497214
 31
0.0
  0
LINE
  5
127
330
11F
100
AcDbEntity
  8
0
  6
Continuous
 62
     7
 48
0.5
370
     0
100
AcDbLine
 10
3.1226278801
 20
3.4014497214
 30
0.0
 11
3.1226278801
 21
3.3171273101
 31
0.0
  0
LINE
  5
128
330
11F
100
AcDbEntity
  8
0
  6
Continuous
 62
     7
 48
0.5
370
     0
100
AcDbLine
 10
3.1226278801
 20
3.3171273101
 30
0.0
 11
3.1099401732
 21
3.3171273101
 31
0.0
  0
LINE
  5
129
330
11F
100
AcDbEntity
  8
0
  6
Continuous
 62
     7
 48
0.5
370
     0
100
AcDbLine
 10
3.1226278801
 20
3.4014497214
 30
0.0
 11
3.1099401732
 21
3.4014497214
 31
0.0
  0
LINE
  5
12A
330
11F
100
AcDbEntity
  8
0
  6
Continuous
 62
     7
 48
0.5
370
     0
100
AcDbLine
 10
2.8879640698
 20
3.2370395405
 30
0.0
 11
2.8879640698
 21
3.4713899342
 31
0.0
  0
LINE
  5
12B
330
11F
100
AcDbEntity
  8
0
  6
Continuous
 62
     7
 48
0.5
370
     0
100
AcDbLine
 10
3.1911136761
 20
2.9338899342
 30
0.0
 11
3.1911136761
 21
3.4713899342
 31
0.0
  0
LINE
  5
12C
330
11F
100
AcDbEntity
  8
0
  6
Continuous
 62
     7
 48
0.5
370
     0
100
AcDbLine
 10
2.8879640698
 20
3.4088899342
 30
0.0
 11
2.7629640698
 21
3.4088899342
 31
0.0
  0
LINE
  5
12D
330
11F
100
AcDbEntity
  8
0
  6
Continuous
 62
     7
 48
0.5
370
     0
100
AcDbLine
 10
3.1911136761
 20
3.4088899342
 30
0.0
 11
3.3161136761
 21
3.4088899342
 31
0.0
  0
MTEXT
  5
12E
330
11F
100
AcDbEntity
  8
0
  6
Continuous
 62
     7
 48
0.5
370
     0
100
AcDbMText
 10
2.9818252796
 20
3.4894566645
 30
0.0
 40
0.0625
 41
0.0
 71
     1
 72
     1
  1
.30
  7
SLDTEXTSTYLE0
 73
     1
 44
1.0
  0
MTEXT
  5
12F
330
11F
100
AcDbEntity
  8
0
  6
Continuous
 62
     7
 48
0.5
370
     0
100
AcDbMText
 10
2.9818252796
 20
3.3902538276
 30
0.0
 40
0.0625
 41
0.0
 71
     1
 72
     1
  1
7.7
  7
SLDTEXTSTYLE0
 73
     1
 44
1.0
  0
ENDBLK
  5
121
330
11F
100
AcDbEntity
  8
0
100
AcDbBlockEnd
  0
BLOCK
  5
132
330
131
100
AcDbEntity
  8
0
100
AcDbBlockBegin
  2
*D12
 70
     1
 10
0.0
 20
0.0
 30
0.0
  3
*D12
  1

  0
SOLID
  5
134
330
131
100
AcDbEntity
  8
0
  6
Continuous
 62
     7
 48
0.5
370
     0
100
AcDbTrace
 10
2.8879640698
 20
3.4088899342
 30
0.0
 11
2.8229640698
 21
3.4188899342
 31
0.0
 12
2.8229640698
 22
3.3988899342
 32
0.0
 13
2.8229640698
 23
3.3988899342
 33
0.0
  0
SOLID
  5
135
330
131
100
AcDbEntity
  8
0
  6
Continuous
 62
     7
 48
0.5
370
     0
100
AcDbTrace
 10
1.75804281
 20
3.4088899342
 30
0.0
 11
1.82304281
 21
3.3988899342
 31
0.0
 12
1.82304281
 22
3.4188899342
 32
0.0
 13
1.82304281
 23
3.4188899342
 33
0.0
  0
LINE
  5
136
330
131
100
AcDbEntity
  8
0
  6
Continuous
 62
     7
 48
0.5
370
     0
100
AcDbLine
 10
2.216815733
 20
3.4014497214
 30
0.0
 11
2.216815733
 21
3.3171273101
 31
0.0
  0
LINE
  5
137
330
131
100
AcDbEntity
  8
0
  6
Continuous
 62
     7
 48
0.5
370
     0
100
AcDbLine
 10
2.216815733
 20
3.3171273101
 30
0.0
 11
2.2295034399
 21
3.3171273101
 31
0.0
  0
LINE
  5
138
330
131
100
AcDbEntity
  8
0
  6
Continuous
 62
     7
 48
0.5
370
     0
100
AcDbLine
 10
2.216815733
 20
3.4014497214
 30
0.0
 11
2.2295034399
 21
3.4014497214
 31
0.0
  0
LINE
  5
139
330
131
100
AcDbEntity
  8
0
  6
Continuous
 62
     7
 48
0.5
370
     0
100
AcDbLine
 10
2.4291911467
 20
3.4014497214
 30
0.0
 11
2.4291911467
 21
3.3171273101
 31
0.0
  0
LINE
  5
13A
330
131
100
AcDbEntity
  8
0
  6
Continuous
 62
     7
 48
0.5
370
     0
100
AcDbLine
 10
2.4291911467
 20
3.3171273101
 30
0.0
 11
2.4165034399
 21
3.3171273101
 31
0.0
  0
LINE
  5
13B
330
131
100
AcDbEntity
  8
0
  6
Continuous
 62
     7
 48
0.5
370
     0
100
AcDbLine
 10
2.4291911467
 20
3.4014497214
 30
0.0
 11
2.4165034399
 21
3.4014497214
 31
0.0
  0
LINE
  5
13C
330
131
100
AcDbEntity
  8
0
  6
Continuous
 62
     7
 48
0.5
370
     0
100
AcDbLine
 10
2.8879640698
 20
3.2370395405
 30
0.0
 11
2.8879640698
 21
3.4713899342
 31
0.0
  0
LINE
  5
13D
330
131
100
AcDbEntity
  8
0
  6
Continuous
 62
     7
 48
0.5
370
     0
100
AcDbLine
 10
1.75804281
 20
3.2370395405
 30
0.0
 11
1.75804281
 21
3.4713899342
 31
0.0
  0
LINE
  5
13E
330
131
100
AcDbEntity
  8
0
  6
Continuous
 62
     7
 48
0.5
370
     0
100
AcDbLine
 10
2.8879640698
 20
3.4088899342
 30
0.0
 11
2.4984932153
 21
3.4088899342
 31
0.0
  0
LINE
  5
13F
330
131
100
AcDbEntity
  8
0
  6
Continuous
 62
     7
 48
0.5
370
     0
100
AcDbLine
 10
1.75804281
 20
3.4088899342
 30
0.0
 11
2.1475136645
 21
3.4088899342
 31
0.0
  0
MTEXT
  5
140
330
131
100
AcDbEntity
  8
0
  6
Continuous
 62
     7
 48
0.5
370
     0
100
AcDbMText
 10
2.2421911467
 20
3.4894566645
 30
0.0
 40
0.0625
 41
0.0
 71
     1
 72
     1
  1
1.13
  7
SLDTEXTSTYLE0
 73
     1
 44
1.0
  0
MTEXT
  5
141
330
131
100
AcDbEntity
  8
0
  6
Continuous
 62
     7
 48
0.5
370
     0
100
AcDbMText
 10
2.2421911467
 20
3.3902538276
 30
0.0
 40
0.0625
 41
0.0
 71
     1
 72
     1
  1
28.7
  7
SLDTEXTSTYLE0
 73
     1
 44
1.0
  0
ENDBLK
  5
133
330
131
100
AcDbEntity
  8
0
100
AcDbBlockEnd
  0
BLOCK
  5
144
330
143
100
AcDbEntity
  8
0
100
AcDbBlockBegin
  2
*D13
 70
     1
 10
0.0
 20
0.0
 30
0.0
  3
*D13
  1

  0
SOLID
  5
146
330
143
100
AcDbEntity
  8
0
  6
Continuous
 62
     7
 48
0.5
370
     0
100
AcDbTrace
 10
1.3682790304
 20
1.1411733988
 30
0.0
 11
1.4332790304
 21
1.1311733988
 31
0.0
 12
1.4332790304
 22
1.1511733988
 32
0.0
 13
1.4332790304
 23
1.1511733988
 33
0.0
  0
SOLID
  5
147
330
143
100
AcDbEntity
  8
0
  6
Continuous
 62
     7
 48
0.5
370
     0
100
AcDbTrace
 10
1.0651294241
 20
1.1411733988
 30
0.0
 11
1.0001294241
 21
1.1511733988
 31
0.0
 12
1.0001294241
 22
1.1311733988
 32
0.0
 13
1.0001294241
 23
1.1311733988
 33
0.0
  0
LINE
  5
148
330
143
100
AcDbEntity
  8
0
  6
Continuous
 62
     7
 48
0.5
370
     0
100
AcDbLine
 10
1.1336152202
 20
1.133733186
 30
0.0
 11
1.1336152202
 21
1.0494107746
 31
0.0
  0
LINE
  5
149
330
143
100
AcDbEntity
  8
0
  6
Continuous
 62
     7
 48
0.5
370
     0
100
AcDbLine
 10
1.1336152202
 20
1.0494107746
 30
0.0
 11
1.1463029271
 21
1.0494107746
 31
0.0
  0
LINE
  5
14A
330
143
100
AcDbEntity
  8
0
  6
Continuous
 62
     7
 48
0.5
370
     0
100
AcDbLine
 10
1.1336152202
 20
1.133733186
 30
0.0
 11
1.1463029271
 21
1.133733186
 31
0.0
  0
LINE
  5
14B
330
143
100
AcDbEntity
  8
0
  6
Continuous
 62
     7
 48
0.5
370
     0
100
AcDbLine
 10
1.2997932344
 20
1.133733186
 30
0.0
 11
1.2997932344
 21
1.0494107746
 31
0.0
  0
LINE
  5
14C
330
143
100
AcDbEntity
  8
0
  6
Continuous
 62
     7
 48
0.5
370
     0
100
AcDbLine
 10
1.2997932344
 20
1.0494107746
 30
0.0
 11
1.2871055275
 21
1.0494107746
 31
0.0
  0
LINE
  5
14D
330
143
100
AcDbEntity
  8
0
  6
Continuous
 62
     7
 48
0.5
370
     0
100
AcDbLine
 10
1.2997932344
 20
1.133733186
 30
0.0
 11
1.2871055275
 21
1.133733186
 31
0.0
  0
LINE
  5
14E
330
143
100
AcDbEntity
  8
0
  6
Continuous
 62
     7
 48
0.5
370
     0
100
AcDbLine
 10
1.3682790304
 20
1.3130237925
 30
0.0
 11
1.3682790304
 21
1.0786733988
 31
0.0
  0
LINE
  5
14F
330
143
100
AcDbEntity
  8
0
  6
Continuous
 62
     7
 48
0.5
370
     0
100
AcDbLine
 10
1.0651294241
 20
1.6161733988
 30
0.0
 11
1.0651294241
 21
1.0786733988
 31
0.0
  0
LINE
  5
150
330
143
100
AcDbEntity
  8
0
  6
Continuous
 62
     7
 48
0.5
370
     0
100
AcDbLine
 10
1.3682790304
 20
1.1411733988
 30
0.0
 11
1.4932790304
 21
1.1411733988
 31
0.0
  0
LINE
  5
151
330
143
100
AcDbEntity
  8
0
  6
Continuous
 62
     7
 48
0.5
370
     0
100
AcDbLine
 10
1.0651294241
 20
1.1411733988
 30
0.0
 11
0.9401294241
 21
1.1411733988
 31
0.0
  0
MTEXT
  5
152
330
143
100
AcDbEntity
  8
0
  6
Continuous
 62
     7
 48
0.5
370
     0
100
AcDbMText
 10
1.1589906339
 20
1.2217401291
 30
0.0
 40
0.0625
 41
0.0
 71
     1
 72
     1
  1
.30
  7
SLDTEXTSTYLE0
 73
     1
 44
1.0
  0
MTEXT
  5
153
330
143
100
AcDbEntity
  8
0
  6
Continuous
 62
     7
 48
0.5
370
     0
100
AcDbMText
 10
1.1589906339
 20
1.1225372922
 30
0.0
 40
0.0625
 41
0.0
 71
     1
 72
     1
  1
7.7
  7
SLDTEXTSTYLE0
 73
     1
 44
1.0
  0
ENDBLK
  5
145
330
143
100
AcDbEntity
  8
0
100
AcDbBlockEnd
  0
BLOCK
  5
156
330
155
100
AcDbEntity
  8
0
100
AcDbBlockBegin
  2
*D14
 70
     1
 10
0.0
 20
0.0
 30
0.0
  3
*D14
  1

  0
SOLID
  5
158
330
155
100
AcDbEntity
  8
0
  6
Continuous
 62
     7
 48
0.5
370
     0
100
AcDbTrace
 10
2.4982002903
 20
1.1411733988
 30
0.0
 11
2.4332002903
 21
1.1511733988
 31
0.0
 12
2.4332002903
 22
1.1311733988
 32
0.0
 13
2.4332002903
 23
1.1311733988
 33
0.0
  0
SOLID
  5
159
330
155
100
AcDbEntity
  8
0
  6
Continuous
 62
     7
 48
0.5
370
     0
100
AcDbTrace
 10
1.3682790304
 20
1.1411733988
 30
0.0
 11
1.4332790304
 21
1.1311733988
 31
0.0
 12
1.4332790304
 22
1.1511733988
 32
0.0
 13
1.4332790304
 23
1.1511733988
 33
0.0
  0
LINE
  5
15A
330
155
100
AcDbEntity
  8
0
  6
Continuous
 62
     7
 48
0.5
370
     0
100
AcDbLine
 10
1.8270519535
 20
1.133733186
 30
0.0
 11
1.8270519535
 21
1.0494107746
 31
0.0
  0
LINE
  5
15B
330
155
100
AcDbEntity
  8
0
  6
Continuous
 62
     7
 48
0.5
370
     0
100
AcDbLine
 10
1.8270519535
 20
1.0494107746
 30
0.0
 11
1.8397396604
 21
1.0494107746
 31
0.0
  0
LINE
  5
15C
330
155
100
AcDbEntity
  8
0
  6
Continuous
 62
     7
 48
0.5
370
     0
100
AcDbLine
 10
1.8270519535
 20
1.133733186
 30
0.0
 11
1.8397396604
 21
1.133733186
 31
0.0
  0
LINE
  5
15D
330
155
100
AcDbEntity
  8
0
  6
Continuous
 62
     7
 48
0.5
370
     0
100
AcDbLine
 10
2.0394273672
 20
1.133733186
 30
0.0
 11
2.0394273672
 21
1.0494107746
 31
0.0
  0
LINE
  5
15E
330
155
100
AcDbEntity
  8
0
  6
Continuous
 62
     7
 48
0.5
370
     0
100
AcDbLine
 10
2.0394273672
 20
1.0494107746
 30
0.0
 11
2.0267396604
 21
1.0494107746
 31
0.0
  0
LINE
  5
15F
330
155
100
AcDbEntity
  8
0
  6
Continuous
 62
     7
 48
0.5
370
     0
100
AcDbLine
 10
2.0394273672
 20
1.133733186
 30
0.0
 11
2.0267396604
 21
1.133733186
 31
0.0
  0
LINE
  5
160
330
155
100
AcDbEntity
  8
0
  6
Continuous
 62
     7
 48
0.5
370
     0
100
AcDbLine
 10
2.4982002903
 20
1.3130237925
 30
0.0
 11
2.4982002903
 21
1.0786733988
 31
0.0
  0
LINE
  5
161
330
155
100
AcDbEntity
  8
0
  6
Continuous
 62
     7
 48
0.5
370
     0
100
AcDbLine
 10
1.3682790304
 20
1.3130237925
 30
0.0
 11
1.3682790304
 21
1.0786733988
 31
0.0
  0
LINE
  5
162
330
155
100
AcDbEntity
  8
0
  6
Continuous
 62
     7
 48
0.5
370
     0
100
AcDbLine
 10
2.4982002903
 20
1.1411733988
 30
0.0
 11
2.1087294358
 21
1.1411733988
 31
0.0
  0
LINE
  5
163
330
155
100
AcDbEntity
  8
0
  6
Continuous
 62
     7
 48
0.5
370
     0
100
AcDbLine
 10
1.3682790304
 20
1.1411733988
 30
0.0
 11
1.757749885
 21
1.1411733988
 31
0.0
  0
MTEXT
  5
164
330
155
100
AcDbEntity
  8
0
  6
Continuous
 62
     7
 48
0.5
370
     0
100
AcDbMText
 10
1.8524273672
 20
1.2217401291
 30
0.0
 40
0.0625
 41
0.0
 71
     1
 72
     1
  1
1.13
  7
SLDTEXTSTYLE0
 73
     1
 44
1.0
  0
MTEXT
  5
165
330
155
100
AcDbEntity
  8
0
  6
Continuous
 62
     7
 48
0.5
370
     0
100
AcDbMText
 10
1.8524273672
 20
1.1225372922
 30
0.0
 40
0.0625
 41
0.0
 71
     1
 72
     1
  1
28.7
  7
SLDTEXTSTYLE0
 73
     1
 44
1.0
  0
ENDBLK
  5
157
330
155
100
AcDbEntity
  8
0
100
AcDbBlockEnd
  0
BLOCK
  5
168
330
167
100
AcDbEntity
  8
0
100
AcDbBlockBegin
  2
*D15
 70
     1
 10
0.0
 20
0.0
 30
0.0
  3
*D15
  1

  0
SOLID
  5
16A
330
167
100
AcDbEntity
  8
0
  6
Continuous
 62
     7
 48
0.5
370
     0
100
AcDbTrace
 10
3.506074306
 20
3.2120395405
 30
0.0
 11
3.516074306
 21
3.2770395405
 31
0.0
 12
3.496074306
 22
3.2770395405
 32
0.0
 13
3.496074306
 23
3.2770395405
 33
0.0
  0
SOLID
  5
16B
330
167
100
AcDbEntity
  8
0
  6
Continuous
 62
     7
 48
0.5
370
     0
100
AcDbTrace
 10
3.506074306
 20
2.9088899342
 30
0.0
 11
3.496074306
 21
2.8438899342
 31
0.0
 12
3.516074306
 22
2.8438899342
 32
0.0
 13
3.516074306
 23
2.8438899342
 33
0.0
  0
LINE
  5
16C
330
167
100
AcDbEntity
  8
0
  6
Continuous
 62
     7
 48
0.5
370
     0
100
AcDbLine
 10
3.4229852989
 20
3.0530245246
 30
0.0
 11
3.4229852989
 21
2.9687021132
 31
0.0
  0
LINE
  5
16D
330
167
100
AcDbEntity
  8
0
  6
Continuous
 62
     7
 48
0.5
370
     0
100
AcDbLine
 10
3.4229852989
 20
2.9687021132
 30
0.0
 11
3.4356730058
 21
2.9687021132
 31
0.0
  0
LINE
  5
16E
330
167
100
AcDbEntity
  8
0
  6
Continuous
 62
     7
 48
0.5
370
     0
100
AcDbLine
 10
3.4229852989
 20
3.0530245246
 30
0.0
 11
3.4356730058
 21
3.0530245246
 31
0.0
  0
LINE
  5
16F
330
167
100
AcDbEntity
  8
0
  6
Continuous
 62
     7
 48
0.5
370
     0
100
AcDbLine
 10
3.5891633131
 20
3.0530245246
 30
0.0
 11
3.5891633131
 21
2.9687021132
 31
0.0
  0
LINE
  5
170
330
167
100
AcDbEntity
  8
0
  6
Continuous
 62
     7
 48
0.5
370
     0
100
AcDbLine
 10
3.5891633131
 20
2.9687021132
 30
0.0
 11
3.5764756063
 21
2.9687021132
 31
0.0
  0
LINE
  5
171
330
167
100
AcDbEntity
  8
0
  6
Continuous
 62
     7
 48
0.5
370
     0
100
AcDbLine
 10
3.5891633131
 20
3.0530245246
 30
0.0
 11
3.5764756063
 21
3.0530245246
 31
0.0
  0
LINE
  5
172
330
167
100
AcDbEntity
  8
0
  6
Continuous
 62
     7
 48
0.5
370
     0
100
AcDbLine
 10
2.9129640698
 20
3.2120395405
 30
0.0
 11
3.568574306
 21
3.2120395405
 31
0.0
  0
LINE
  5
173
330
167
100
AcDbEntity
  8
0
  6
Continuous
 62
     7
 48
0.5
370
     0
100
AcDbLine
 10
3.2161136761
 20
2.9088899342
 30
0.0
 11
3.568574306
 21
2.9088899342
 31
0.0
  0
LINE
  5
174
330
167
100
AcDbEntity
  8
0
  6
Continuous
 62
     7
 48
0.5
370
     0
100
AcDbLine
 10
3.506074306
 20
3.2120395405
 30
0.0
 11
3.506074306
 21
3.3370395405
 31
0.0
  0
LINE
  5
175
330
167
100
AcDbEntity
  8
0
  6
Continuous
 62
     7
 48
0.5
370
     0
100
AcDbLine
 10
3.506074306
 20
2.9088899342
 30
0.0
 11
3.506074306
 21
2.7838899342
 31
0.0
  0
MTEXT
  5
176
330
167
100
AcDbEntity
  8
0
  6
Continuous
 62
     7
 48
0.5
370
     0
100
AcDbMText
 10
3.4483607127
 20
3.1410314676
 30
0.0
 40
0.0625
 41
0.0
 71
     1
 72
     1
  1
.30
  7
SLDTEXTSTYLE0
 73
     1
 44
1.0
  0
MTEXT
  5
177
330
167
100
AcDbEntity
  8
0
  6
Continuous
 62
     7
 48
0.5
370
     0
100
AcDbMText
 10
3.4483607127
 20
3.0418286308
 30
0.0
 40
0.0625
 41
0.0
 71
     1
 72
     1
  1
7.7
  7
SLDTEXTSTYLE0
 73
     1
 44
1.0
  0
ENDBLK
  5
169
330
167
100
AcDbEntity
  8
0
100
AcDbBlockEnd
  0
BLOCK
  5
17A
330
179
100
AcDbEntity
  8
0
100
AcDbBlockBegin
  2
*D16
 70
     1
 10
0.0
 20
0.0
 30
0.0
  3
*D16
  1

  0
SOLID
  5
17C
330
179
100
AcDbEntity
  8
0
  6
Continuous
 62
     7
 48
0.5
370
     0
100
AcDbTrace
 10
3.506074306
 20
1.6766064696
 30
0.0
 11
3.516074306
 21
1.7416064696
 31
0.0
 12
3.496074306
 22
1.7416064696
 32
0.0
 13
3.496074306
 23
1.7416064696
 33
0.0
  0
SOLID
  5
17D
330
179
100
AcDbEntity
  8
0
  6
Continuous
 62
     7
 48
0.5
370
     0
100
AcDbTrace
 10
3.506074306
 20
2.9088899342
 30
0.0
 11
3.496074306
 21
2.8438899342
 31
0.0
 12
3.516074306
 22
2.8438899342
 32
0.0
 13
3.516074306
 23
2.8438899342
 33
0.0
  0
LINE
  5
17E
330
179
100
AcDbEntity
  8
0
  6
Continuous
 62
     7
 48
0.5
370
     0
100
AcDbLine
 10
3.3998865992
 20
2.2853079891
 30
0.0
 11
3.3998865992
 21
2.2009855778
 31
0.0
  0
LINE
  5
17F
330
179
100
AcDbEntity
  8
0
  6
Continuous
 62
     7
 48
0.5
370
     0
100
AcDbLine
 10
3.3998865992
 20
2.2009855778
 30
0.0
 11
3.412574306
 21
2.2009855778
 31
0.0
  0
LINE
  5
180
330
179
100
AcDbEntity
  8
0
  6
Continuous
 62
     7
 48
0.5
370
     0
100
AcDbLine
 10
3.3998865992
 20
2.2853079891
 30
0.0
 11
3.412574306
 21
2.2853079891
 31
0.0
  0
LINE
  5
181
330
179
100
AcDbEntity
  8
0
  6
Continuous
 62
     7
 48
0.5
370
     0
100
AcDbLine
 10
3.6122620129
 20
2.2853079891
 30
0.0
 11
3.6122620129
 21
2.2009855778
 31
0.0
  0
LINE
  5
182
330
179
100
AcDbEntity
  8
0
  6
Continuous
 62
     7
 48
0.5
370
     0
100
AcDbLine
 10
3.6122620129
 20
2.2009855778
 30
0.0
 11
3.599574306
 21
2.2009855778
 31
0.0
  0
LINE
  5
183
330
179
100
AcDbEntity
  8
0
  6
Continuous
 62
     7
 48
0.5
370
     0
100
AcDbLine
 10
3.6122620129
 20
2.2853079891
 30
0.0
 11
3.599574306
 21
2.2853079891
 31
0.0
  0
LINE
  5
184
330
179
100
AcDbEntity
  8
0
  6
Continuous
 62
     7
 48
0.5
370
     0
100
AcDbLine
 10
3.2161136761
 20
1.6766064696
 30
0.0
 11
3.568574306
 21
1.6766064696
 31
0.0
  0
LINE
  5
185
330
179
100
AcDbEntity
  8
0
  6
Continuous
 62
     7
 48
0.5
370
     0
100
AcDbLine
 10
3.2161136761
 20
2.9088899342
 30
0.0
 11
3.568574306
 21
2.9088899342
 31
0.0
  0
LINE
  5
186
330
179
100
AcDbEntity
  8
0
  6
Continuous
 62
     7
 48
0.5
370
     0
100
AcDbLine
 10
3.506074306
 20
1.6766064696
 30
0.0
 11
3.506074306
 21
2.193545365
 31
0.0
  0
LINE
  5
187
330
179
100
AcDbEntity
  8
0
  6
Continuous
 62
     7
 48
0.5
370
     0
100
AcDbLine
 10
3.506074306
 20
2.9088899342
 30
0.0
 11
3.506074306
 21
2.3919510388
 31
0.0
  0
MTEXT
  5
188
330
179
100
AcDbEntity
  8
0
  6
Continuous
 62
     7
 48
0.5
370
     0
100
AcDbMText
 10
3.4252620129
 20
2.3733149322
 30
0.0
 40
0.0625
 41
0.0
 71
     1
 72
     1
  1
1.23
  7
SLDTEXTSTYLE0
 73
     1
 44
1.0
  0
MTEXT
  5
189
330
179
100
AcDbEntity
  8
0
  6
Continuous
 62
     7
 48
0.5
370
     0
100
AcDbMText
 10
3.4252620129
 20
2.2741120953
 30
0.0
 40
0.0625
 41
0.0
 71
     1
 72
     1
  1
31.3
  7
SLDTEXTSTYLE0
 73
     1
 44
1.0
  0
ENDBLK
  5
17B
330
179
100
AcDbEntity
  8
0
100
AcDbBlockEnd
  0
BLOCK
  5
18D
330
18C
100
AcDbEntity
  8
0
100
AcDbBlockBegin
  2
*D17
 70
     1
 10
0.0
 20
0.0
 30
0.0
  3
*D17
  1

  0
SOLID
  5
18F
330
18C
100
AcDbEntity
  8
0
  6
Continuous
 62
     7
 48
0.5
370
     0
100
AcDbTrace
 10
1.0806355252
 20
2.8693071723
 30
0.0
 11
1.0568097076
 21
2.9306042393
 31
0.0
 12
1.0394869276
 22
2.9206081755
 32
0.0
 13
1.0394869276
 23
2.9206081755
 33
0.0
  0
LINE
  5
190
330
18C
100
AcDbEntity
  8
0
  6
Continuous
 62
     7
 48
0.5
370
     0
100
AcDbLine
 10
0.3927690975
 20
3.2636218032
 30
0.0
 11
0.3927690975
 21
3.1792993919
 31
0.0
  0
LINE
  5
191
330
18C
100
AcDbEntity
  8
0
  6
Continuous
 62
     7
 48
0.5
370
     0
100
AcDbLine
 10
0.3927690975
 20
3.1792993919
 30
0.0
 11
0.4054568044
 21
3.1792993919
 31
0.0
  0
LINE
  5
192
330
18C
100
AcDbEntity
  8
0
  6
Continuous
 62
     7
 48
0.5
370
     0
100
AcDbLine
 10
0.3927690975
 20
3.2636218032
 30
0.0
 11
0.4054568044
 21
3.2636218032
 31
0.0
  0
LINE
  5
193
330
18C
100
AcDbEntity
  8
0
  6
Continuous
 62
     7
 48
0.5
370
     0
100
AcDbLine
 10
0.5589471117
 20
3.2636218032
 30
0.0
 11
0.5589471117
 21
3.1792993919
 31
0.0
  0
LINE
  5
194
330
18C
100
AcDbEntity
  8
0
  6
Continuous
 62
     7
 48
0.5
370
     0
100
AcDbLine
 10
0.5589471117
 20
3.1792993919
 30
0.0
 11
0.5462594049
 21
3.1792993919
 31
0.0
  0
LINE
  5
195
330
18C
100
AcDbEntity
  8
0
  6
Continuous
 62
     7
 48
0.5
370
     0
100
AcDbLine
 10
0.5589471117
 20
3.2636218032
 30
0.0
 11
0.5462594049
 21
3.2636218032
 31
0.0
  0
LINE
  5
196
330
18C
100
AcDbEntity
  8
0
  6
Continuous
 62
     7
 48
0.5
370
     0
100
AcDbLine
 10
1.0806355252
 20
2.8693071723
 30
0.0
 11
0.8488039675
 21
3.271062016
 31
0.0
  0
LINE
  5
197
330
18C
100
AcDbEntity
  8
0
  6
Continuous
 62
     7
 48
0.5
370
     0
100
AcDbLine
 10
0.8488039675
 20
3.271062016
 30
0.0
 11
0.7863039675
 21
3.271062016
 31
0.0
  0
MTEXT
  5
198
330
18C
100
AcDbEntity
  8
0
  6
Continuous
 62
     7
 48
0.5
370
     0
100
AcDbMText
 10
0.3928575136
 20
3.3516287463
 30
0.0
 40
0.0625
 41
0.0
 71
     1
 72
     1
  1
R
  7
SLDTEXTSTYLE0
 73
     1
 44
1.0
  0
MTEXT
  5
199
330
18C
100
AcDbEntity
  8
0
  6
Continuous
 62
     7
 48
0.5
370
     0
100
AcDbMText
 10
0.4434315089
 20
3.3516287463
 30
0.0
 40
0.0625
 41
0.0
 71
     1
 72
     1
  1
.03
  7
SLDTEXTSTYLE0
 73
     1
 44
1.0
  0
MTEXT
  5
19A
330
18C
100
AcDbEntity
  8
0
  6
Continuous
 62
     7
 48
0.5
370
     0
100
AcDbMText
 10
0.5843225254
 20
3.3516287463
 30
0.0
 40
0.0625
 41
0.0
 71
     1
 72
     1
  1
 (8x)
  7
SLDTEXTSTYLE0
 73
     1
 44
1.0
  0
MTEXT
  5
19B
330
18C
100
AcDbEntity
  8
0
  6
Continuous
 62
     7
 48
0.5
370
     0
100
AcDbMText
 10
0.4181445113
 20
3.2524259094
 30
0.0
 40
0.0625
 41
0.0
 71
     1
 72
     1
  1
0.8
  7
SLDTEXTSTYLE0
 73
     1
 44
1.0
  0
ENDBLK
  5
18E
330
18C
100
AcDbEntity
  8
0
100
AcDbBlockEnd
  0
BLOCK
  5
19E
330
19D
100
AcDbEntity
  8
0
100
AcDbBlockBegin
  2
*D18
 70
     1
 10
0.0
 20
0.0
 30
0.0
  3
*D18
  1

  0
SOLID
  5
1A0
330
19D
100
AcDbEntity
  8
0
  6
Continuous
 62
     7
 48
0.5
370
     0
100
AcDbTrace
 10
3.8604050147
 20
1.3380237925
 30
0.0
 11
3.8704050147
 21
1.4030237925
 31
0.0
 12
3.8504050147
 22
1.4030237925
 32
0.0
 13
3.8504050147
 23
1.4030237925
 33
0.0
  0
SOLID
  5
1A1
330
19D
100
AcDbEntity
  8
0
  6
Continuous
 62
     7
 48
0.5
370
     0
100
AcDbTrace
 10
3.8604050147
 20
3.2120395405
 30
0.0
 11
3.8504050147
 21
3.1470395405
 31
0.0
 12
3.8704050147
 22
3.1470395405
 32
0.0
 13
3.8704050147
 23
3.1470395405
 33
0.0
  0
LINE
  5
1A2
330
19D
100
AcDbEntity
  8
0
  6
Continuous
 62
     7
 48
0.5
370
     0
100
AcDbLine
 10
3.7542173078
 20
2.2675914537
 30
0.0
 11
3.7542173078
 21
2.1832690424
 31
0.0
  0
LINE
  5
1A3
330
19D
100
AcDbEntity
  8
0
  6
Continuous
 62
     7
 48
0.5
370
     0
100
AcDbLine
 10
3.7542173078
 20
2.1832690424
 30
0.0
 11
3.7669050147
 21
2.1832690424
 31
0.0
  0
LINE
  5
1A4
330
19D
100
AcDbEntity
  8
0
  6
Continuous
 62
     7
 48
0.5
370
     0
100
AcDbLine
 10
3.7542173078
 20
2.2675914537
 30
0.0
 11
3.7669050147
 21
2.2675914537
 31
0.0
  0
LINE
  5
1A5
330
19D
100
AcDbEntity
  8
0
  6
Continuous
 62
     7
 48
0.5
370
     0
100
AcDbLine
 10
3.9665927216
 20
2.2675914537
 30
0.0
 11
3.9665927216
 21
2.1832690424
 31
0.0
  0
LINE
  5
1A6
330
19D
100
AcDbEntity
  8
0
  6
Continuous
 62
     7
 48
0.5
370
     0
100
AcDbLine
 10
3.9665927216
 20
2.1832690424
 30
0.0
 11
3.9539050147
 21
2.1832690424
 31
0.0
  0
LINE
  5
1A7
330
19D
100
AcDbEntity
  8
0
  6
Continuous
 62
     7
 48
0.5
370
     0
100
AcDbLine
 10
3.9665927216
 20
2.2675914537
 30
0.0
 11
3.9539050147
 21
2.2675914537
 31
0.0
  0
LINE
  5
1A8
330
19D
100
AcDbEntity
  8
0
  6
Continuous
 62
     7
 48
0.5
370
     0
100
AcDbLine
 10
2.5232002903
 20
1.3380237925
 30
0.0
 11
3.9229050147
 21
1.3380237925
 31
0.0
  0
LINE
  5
1A9
330
19D
100
AcDbEntity
  8
0
  6
Continuous
 62
     7
 48
0.5
370
     0
100
AcDbLine
 10
2.9129640698
 20
3.2120395405
 30
0.0
 11
3.9229050147
 21
3.2120395405
 31
0.0
  0
LINE
  5
1AA
330
19D
100
AcDbEntity
  8
0
  6
Continuous
 62
     7
 48
0.5
370
     0
100
AcDbLine
 10
3.8604050147
 20
1.3380237925
 30
0.0
 11
3.8604050147
 21
2.1758288296
 31
0.0
  0
LINE
  5
1AB
330
19D
100
AcDbEntity
  8
0
  6
Continuous
 62
     7
 48
0.5
370
     0
100
AcDbLine
 10
3.8604050147
 20
3.2120395405
 30
0.0
 11
3.8604050147
 21
2.3742345034
 31
0.0
  0
MTEXT
  5
1AC
330
19D
100
AcDbEntity
  8
0
  6
Continuous
 62
     7
 48
0.5
370
     0
100
AcDbMText
 10
3.7795927216
 20
2.3555983968
 30
0.0
 40
0.0625
 41
0.0
 71
     1
 72
     1
  1
1.87
  7
SLDTEXTSTYLE0
 73
     1
 44
1.0
  0
MTEXT
  5
1AD
330
19D
100
AcDbEntity
  8
0
  6
Continuous
 62
     7
 48
0.5
370
     0
100
AcDbMText
 10
3.7795927216
 20
2.2563955599
 30
0.0
 40
0.0625
 41
0.0
 71
     1
 72
     1
  1
47.6
  7
SLDTEXTSTYLE0
 73
     1
 44
1.0
  0
ENDBLK
  5
19F
330
19D
100
AcDbEntity
  8
0
100
AcDbBlockEnd
  0
BLOCK
  5
1B0
330
1AF
100
AcDbEntity
  8
0
100
AcDbBlockBegin
  2
*D19
 70
     1
 10
0.0
 20
0.0
 30
0.0
  3
*D19
  1

  0
SOLID
  5
1B2
330
1AF
100
AcDbEntity
  8
0
  6
Continuous
 62
     7
 48
0.5
370
     0
100
AcDbTrace
 10
0.4622340426
 20
3.0624332413
 30
0.0
 11
0.4522340426
 21
2.9974332413
 31
0.0
 12
0.4722340426
 22
2.9974332413
 32
0.0
 13
0.4722340426
 23
2.9974332413
 33
0.0
  0
SOLID
  5
1B3
330
1AF
100
AcDbEntity
  8
0
  6
Continuous
 62
     7
 48
0.5
370
     0
100
AcDbTrace
 10
0.4622340426
 20
1.4876300917
 30
0.0
 11
0.4722340426
 21
1.5526300917
 31
0.0
 12
0.4522340426
 22
1.5526300917
 32
0.0
 13
0.4522340426
 23
1.5526300917
 33
0.0
  0
LINE
  5
1B4
330
1AF
100
AcDbEntity
  8
0
  6
Continuous
 62
     7
 48
0.5
370
     0
100
AcDbLine
 10
0.3906833333
 20
2.2675914537
 30
0.0
 11
0.3906833333
 21
2.1832690424
 31
0.0
  0
LINE
  5
1B5
330
1AF
100
AcDbEntity
  8
0
  6
Continuous
 62
     7
 48
0.5
370
     0
100
AcDbLine
 10
0.3906833333
 20
2.1832690424
 30
0.0
 11
0.4033710402
 21
2.1832690424
 31
0.0
  0
LINE
  5
1B6
330
1AF
100
AcDbEntity
  8
0
  6
Continuous
 62
     7
 48
0.5
370
     0
100
AcDbLine
 10
0.3906833333
 20
2.2675914537
 30
0.0
 11
0.4033710402
 21
2.2675914537
 31
0.0
  0
LINE
  5
1B7
330
1AF
100
AcDbEntity
  8
0
  6
Continuous
 62
     7
 48
0.5
370
     0
100
AcDbLine
 10
0.5337847518
 20
2.2675914537
 30
0.0
 11
0.5337847518
 21
2.1832690424
 31
0.0
  0
LINE
  5
1B8
330
1AF
100
AcDbEntity
  8
0
  6
Continuous
 62
     7
 48
0.5
370
     0
100
AcDbLine
 10
0.5337847518
 20
2.1832690424
 30
0.0
 11
0.5210970449
 21
2.1832690424
 31
0.0
  0
LINE
  5
1B9
330
1AF
100
AcDbEntity
  8
0
  6
Continuous
 62
     7
 48
0.5
370
     0
100
AcDbLine
 10
0.5337847518
 20
2.2675914537
 30
0.0
 11
0.5210970449
 21
2.2675914537
 31
0.0
  0
LINE
  5
1BA
330
1AF
100
AcDbEntity
  8
0
  6
Continuous
 62
     7
 48
0.5
370
     0
100
AcDbLine
 10
2.73304281
 20
3.0624332413
 30
0.0
 11
0.3997340426
 21
3.0624332413
 31
0.0
  0
LINE
  5
1BB
330
1AF
100
AcDbEntity
  8
0
  6
Continuous
 62
     7
 48
0.5
370
     0
100
AcDbLine
 10
1.4732002903
 20
1.4876300917
 30
0.0
 11
0.3997340426
 21
1.4876300917
 31
0.0
  0
LINE
  5
1BC
330
1AF
100
AcDbEntity
  8
0
  6
Continuous
 62
     7
 48
0.5
370
     0
100
AcDbLine
 10
0.4622340426
 20
3.0624332413
 30
0.0
 11
0.4622340426
 21
2.3742345034
 31
0.0
  0
LINE
  5
1BD
330
1AF
100
AcDbEntity
  8
0
  6
Continuous
 62
     7
 48
0.5
370
     0
100
AcDbLine
 10
0.4622340426
 20
1.4876300917
 30
0.0
 11
0.4622340426
 21
2.1758288296
 31
0.0
  0
MTEXT
  5
1BE
330
1AF
100
AcDbEntity
  8
0
  6
Continuous
 62
     7
 48
0.5
370
     0
100
AcDbMText
 10
0.3814217494
 20
2.3555983968
 30
0.0
 40
0.0625
 41
0.0
 71
     1
 72
     1
  1
1.57
  7
SLDTEXTSTYLE0
 73
     1
 44
1.0
  0
MTEXT
  5
1BF
330
1AF
100
AcDbEntity
  8
0
  6
Continuous
 62
     7
 48
0.5
370
     0
100
AcDbMText
 10
0.416058747
 20
2.2563955599
 30
0.0
 40
0.0625
 41
0.0
 71
     1
 72
     1
  1
40
  7
SLDTEXTSTYLE0
 73
     1
 44
1.0
  0
ENDBLK
  5
1B1
330
1AF
100
AcDbEntity
  8
0
100
AcDbBlockEnd
  0
ENDSEC
  0
SECTION
  2
ENTITIES
  0
LINE
  5
44
330
1F
100
AcDbEntity
  8
0
  6
Continuous
 62
     7
 48
0.5
370
     0
100
AcDbLine
 10
0.1959635
 20
4.0650365854
 30
0.0
 11
0.1959635
 21
0.2270365854
 31
0.0
  0
LINE
  5
45
330
1F
100
AcDbEntity
  8
0
  6
Continuous
 62
     7
 48
0.5
370
     0
100
AcDbLine
 10
0.1649635
 20
4.0960365854
 30
0.0
 11
0.1649635
 21
0.1960365854
 31
0.0
  0
LINE
  5
46
330
1F
100
AcDbEntity
  8
0
  6
Continuous
 62
     7
 48
0.5
370
     0
100
AcDbLine
 10
5.3149635
 20
0.1960365854
 30
0.0
 11
0.1649635
 21
0.1960365854
 31
0.0
  0
LINE
  5
47
330
1F
100
AcDbEntity
  8
0
  6
Continuous
 62
     7
 48
0.5
370
     0
100
AcDbLine
 10
5.3149635
 20
0.1960365854
 30
0.0
 11
5.3149635
 21
4.0960365854
 31
0.0
  0
LINE
  5
48
330
1F
100
AcDbEntity
  8
0
  6
Continuous
 62
     7
 48
0.5
370
     0
100
AcDbLine
 10
5.2839635
 20
0.2270365854
 30
0.0
 11
0.1959635
 21
0.2270365854
 31
0.0
  0
LINE
  5
49
330
1F
100
AcDbEntity
  8
0
  6
Continuous
 62
     7
 48
0.5
370
     0
100
AcDbLine
 10
5.2839635
 20
0.2270365854
 30
0.0
 11
5.2839635
 21
4.0650365854
 31
0.0
  0
LINE
  5
4A
330
1F
100
AcDbEntity
  8
0
  6
Continuous
 62
     7
 48
0.5
370
     0
100
AcDbLine
 10
0.1959635
 20
4.0650365854
 30
0.0
 11
5.2839635
 21
4.0650365854
 31
0.0
  0
LINE
  5
4B
330
1F
100
AcDbEntity
  8
0
  6
Continuous
 62
     7
 48
0.5
370
     0
100
AcDbLine
 10
0.1959635
 20
3.8620365854
 30
0.0
 11
5.2839635
 21
3.8620365854
 31
0.0
  0
LINE
  5
4C
330
1F
100
AcDbEntity
  8
0
  6
Continuous
 62
     7
 48
0.5
370
     0
100
AcDbLine
 10
0.4769635
 20
4.0650365854
 30
0.0
 11
0.4769635
 21
3.8620365854
 31
0.0
  0
LINE
  5
4D
330
1F
100
AcDbEntity
  8
0
  6
Continuous
 62
     7
 48
0.5
370
     0
100
AcDbLine
 10
4.5104580815
 20
4.0650365854
 30
0.0
 11
4.5104580815
 21
3.8620365854
 31
0.0
  0
LINE
  5
4E
330
1F
100
AcDbEntity
  8
0
  6
Continuous
 62
     7
 48
0.5
370
     0
100
AcDbLine
 10
4.7914580815
 20
4.0650365854
 30
0.0
 11
4.7914580815
 21
3.8620365854
 31
0.0
  0
LINE
  5
4F
330
1F
100
AcDbEntity
  8
0
  6
Continuous
 62
     7
 48
0.5
370
     0
100
AcDbLine
 10
2.7269635
 20
4.0650365854
 30
0.0
 11
2.7269635
 21
3.8620365854
 31
0.0
  0
LINE
  5
50
330
1F
100
AcDbEntity
  8
0
  6
Continuous
 62
     7
 48
0.5
370
     0
100
AcDbLine
 10
3.0079635
 20
4.0650365854
 30
0.0
 11
3.0079635
 21
3.8620365854
 31
0.0
  0
LINE
  5
51
330
1F
100
AcDbEntity
  8
0
  6
Continuous
 62
     7
 48
0.5
370
     0
100
AcDbLine
 10
0.1649635
 20
4.0960365854
 30
0.0
 11
5.3149635
 21
4.0960365854
 31
0.0
  0
INSERT
  5
80
330
1F
100
AcDbEntity
  8
0
  6
Continuous
 62
     7
 48
0.5
370
     0
100
AcDbBlockReference
  2
SW_NOTE_0
 10
2.9754043718
 20
1.1031567835
 30
0.0
  0
INSERT
  5
86
330
1F
100
AcDbEntity
  8
0
  6
Continuous
 62
     7
 48
0.5
370
     0
100
AcDbBlockReference
  2
SW_NOTE_1
 10
0.2350065437
 20
3.9570159452
 30
0.0
  0
INSERT
  5
8C
330
1F
100
AcDbEntity
  8
0
  6
Continuous
 62
     7
 48
0.5
370
     0
100
AcDbBlockReference
  2
SW_NOTE_2
 10
2.7696940772
 20
3.9567856035
 30
0.0
  0
INSERT
  5
92
330
1F
100
AcDbEntity
  8
0
  6
Continuous
 62
     7
 48
0.5
370
     0
100
AcDbBlockReference
  2
SW_NOTE_3
 10
4.5645245934
 20
3.9599864617
 30
0.0
  0
MTEXT
  5
93
330
1F
100
AcDbEntity
  8
0
  6
Continuous
 62
     7
 48
0.5
370
     0
100
AcDbMText
 10
1.0393843415
 20
4.0176222867
 30
0.0
 40
0.09375
 41
0.0
 71
     1
 72
     1
  1
INTERNAL PANEL
  7
SLDTEXTSTYLE0
 73
     1
 44
1.0
  0
MTEXT
  5
94
330
1F
100
AcDbEntity
  8
0
  6
Continuous
 62
     7
 48
0.5
370
     0
100
AcDbMText
 10
3.4564542514
 20
4.0129099535
 30
0.0
 40
0.09375
 41
0.0
 71
     1
 72
     1
  1
ANX-91301
  7
SLDTEXTSTYLE0
 73
     1
 44
1.0
  0
MTEXT
  5
95
330
1F
100
AcDbEntity
  8
0
  6
Continuous
 62
     7
 48
0.5
370
     0
100
AcDbMText
 10
4.8171077925
 20
4.0114512981
 30
0.0
 40
0.09375
 41
0.0
 71
     1
 72
     1
  1
5-10-11
  7
SLDTEXTSTYLE0
 73
     1
 44
1.0
  0
ARC
  5
96
330
1F
100
AcDbEntity
  8
0
  6
Continuous
 62
     7
 48
0.25
370
    15
100
AcDbCircle
 10
1.78904281
 20
3.1810395405
 30
0.0
 40
0.0310000000000001
100
AcDbArc
 50
90.0
 51
180.0
  0
ARC
  5
97
330
1F
100
AcDbEntity
  8
0
  6
Continuous
 62
     7
 48
0.25
370
    15
100
AcDbCircle
 10
2.8569640698
 20
3.1810395405
 30
0.0
 40
0.0310000000000001
100
AcDbArc
 50
0.0
 51
90.0
  0
ARC
  5
98
330
1F
100
AcDbEntity
  8
0
  6
Continuous
 62
     7
 48
0.25
370
    15
100
AcDbCircle
 10
3.1601136761
 20
1.7076064696
 30
0.0
 40
0.0310000000000001
100
AcDbArc
 50
270.0
 51
0.0
  0
ARC
  5
99
330
1F
100
AcDbEntity
  8
0
  6
Continuous
 62
     7
 48
0.25
370
    15
100
AcDbCircle
 10
2.4672002903
 20
1.3690237925
 30
0.0
 40
0.0310000000000001
100
AcDbArc
 50
270.0
 51
0.0
  0
ARC
  5
9A
330
1F
100
AcDbEntity
  8
0
  6
Continuous
 62
     7
 48
0.25
370
    15
100
AcDbCircle
 10
1.3992790304
 20
1.3690237925
 30
0.0
 40
0.0310000000000001
100
AcDbArc
 50
180.0
 51
270.0
  0
ARC
  5
9B
330
1F
100
AcDbEntity
  8
0
  6
Continuous
 62
     7
 48
0.25
370
    15
100
AcDbCircle
 10
1.0961294241
 20
1.6721733988
 30
0.0
 40
0.0310000000000001
100
AcDbArc
 50
180.0
 51
270.0
  0
ARC
  5
9C
330
1F
100
AcDbEntity
  8
0
  6
Continuous
 62
     7
 48
0.25
370
    15
100
AcDbCircle
 10
1.0961294241
 20
2.8424568633
 30
0.0
 40
0.0309999999999999
100
AcDbArc
 50
90.0
 51
180.0
  0
CIRCLE
  5
9D
330
1F
100
AcDbEntity
  8
0
  6
Continuous
 62
     7
 48
0.25
370
    15
100
AcDbCircle
 10
1.4982002903
 20
1.4876300917
 30
0.0
 40
0.0885826771653546
  0
CIRCLE
  5
9E
330
1F
100
AcDbEntity
  8
0
  6
Continuous
 62
     7
 48
0.25
370
    15
100
AcDbCircle
 10
2.75804281
 20
3.0624332413
 30
0.0
 40
0.0885826771653537
  0
ARC
  5
9F
330
1F
100
AcDbEntity
  8
0
  6
Continuous
 62
     7
 48
0.25
370
    15
100
AcDbCircle
 10
3.1601136761
 20
2.8778899342
 30
0.0
 40
0.0310000000000006
100
AcDbArc
 50
0.0
 51
90.0
  0
LINE
  5
A0
330
1F
100
AcDbEntity
  8
0
  6
Continuous
 62
     7
 48
0.5
370
    15
100
AcDbLine
 10
2.887964099
 20
3.1766064781
 30
0.0
 11
2.887964099
 21
3.1810395735
 31
0.0
  0
LINE
  5
A1
330
1F
100
AcDbEntity
  8
0
  6
Continuous
 62
     7
 48
0.5
370
    15
100
AcDbLine
 10
2.8569640371
 20
3.2120395621
 30
0.0
 11
1.7890428039
 21
3.2120395621
 31
0.0
  0
LINE
  5
A2
330
1F
100
AcDbEntity
  8
0
  6
Continuous
 62
     7
 48
0.5
370
    15
100
AcDbLine
 10
1.7580428153
 20
3.1810395735
 30
0.0
 11
1.7580428153
 21
3.1411733941
 31
0.0
  0
ARC
  5
A3
330
1F
100
AcDbEntity
  8
0
  6
Continuous
 62
     7
 48
0.25
370
    15
100
AcDbCircle
 10
1.4903262745
 20
3.1411733988
 30
0.0
 40
0.2677165354330708
100
AcDbArc
 50
270.0
 51
0.0
  0
LINE
  5
A4
330
1F
100
AcDbEntity
  8
0
  6
Continuous
 62
     7
 48
0.5
370
    15
100
AcDbLine
 10
1.490326258
 20
2.8734568734
 30
0.0
 11
1.0961294585
 21
2.8734568734
 31
0.0
  0
LINE
  5
A5
330
1F
100
AcDbEntity
  8
0
  6
Continuous
 62
     7
 48
0.5
370
    15
100
AcDbLine
 10
1.0651293966
 20
2.8424568482
 30
0.0
 11
1.0651293966
 21
1.6721734007
 31
0.0
  0
LINE
  5
A6
330
1F
100
AcDbEntity
  8
0
  6
Continuous
 62
     7
 48
0.5
370
    15
100
AcDbLine
 10
1.0961294585
 20
1.6411733755
 30
0.0
 11
1.1005624806
 21
1.6411733755
 31
0.0
  0
ARC
  5
A7
330
1F
100
AcDbEntity
  8
0
  6
Continuous
 62
     7
 48
0.25
370
    15
100
AcDbCircle
 10
1.100562495
 20
1.3734568633
 30
0.0
 40
0.2677165354330708
100
AcDbArc
 50
0.0
 51
90.0
  0
LINE
  5
A8
330
1F
100
AcDbEntity
  8
0
  6
Continuous
 62
     7
 48
0.5
370
    15
100
AcDbLine
 10
1.3682790012
 20
1.3734568549
 30
0.0
 11
1.3682790012
 21
1.3690237594
 31
0.0
  0
LINE
  5
A9
330
1F
100
AcDbEntity
  8
0
  6
Continuous
 62
     7
 48
0.5
370
    15
100
AcDbLine
 10
1.3992790631
 20
1.3380237709
 30
0.0
 11
2.4672002964
 21
1.3380237709
 31
0.0
  0
LINE
  5
AA
330
1F
100
AcDbEntity
  8
0
  6
Continuous
 62
     7
 48
0.5
370
    15
100
AcDbLine
 10
2.4982002849
 20
1.3690237594
 30
0.0
 11
2.4982002849
 21
1.4088899389
 31
0.0
  0
ARC
  5
AB
330
1F
100
AcDbEntity
  8
0
  6
Continuous
 62
     7
 48
0.25
370
    15
100
AcDbCircle
 10
2.7659168257
 20
1.4088899342
 30
0.0
 40
0.2677165354330708
100
AcDbArc
 50
90.0
 51
180.0
  0
LINE
  5
AC
330
1F
100
AcDbEntity
  8
0
  6
Continuous
 62
     7
 48
0.5
370
    15
100
AcDbLine
 10
2.7659168423
 20
1.6766064595
 30
0.0
 11
3.1601136418
 21
1.6766064595
 31
0.0
  0
LINE
  5
AD
330
1F
100
AcDbEntity
  8
0
  6
Continuous
 62
     7
 48
0.5
370
    15
100
AcDbLine
 10
3.1911137037
 20
1.7076064848
 30
0.0
 11
3.1911137037
 21
2.8778899322
 31
0.0
  0
LINE
  5
AE
330
1F
100
AcDbEntity
  8
0
  6
Continuous
 62
     7
 48
0.5
370
    15
100
AcDbLine
 10
3.1601136418
 20
2.9088899574
 30
0.0
 11
3.1556806197
 21
2.9088899574
 31
0.0
  0
ARC
  5
AF
330
1F
100
AcDbEntity
  8
0
  6
Continuous
 62
     7
 48
0.25
370
    15
100
AcDbCircle
 10
3.1556806052
 20
3.1766064696
 30
0.0
 40
0.2677165354330713
100
AcDbArc
 50
180.0
 51
270.0
  0
DIMENSION
  5
B0
330
1F
100
AcDbEntity
  8
0
  6
Continuous
 62
     7
 48
0.5
370
     0
100
AcDbDimension
  2
*D5
 10
1.100562495
 20
1.3734568633
 30
0.0
 11
1.6811757466
 21
1.8812299935
 31
0.0
 70
   164
  1
<> (4x)
 71
     1
 42
-1.0
  3
SLDDIMSTYLE0
100
AcDbRadialDimension
 15
1.2343762904
 25
1.6053318545
 35
0.0
 40
0.0
  0
DIMENSION
  5
C2
330
1F
100
AcDbEntity
  8
0
  6
Continuous
 62
     7
 48
0.5
370
     0
100
AcDbDimension
  2
*D6
 10
2.8206581486
 20
3.1250927183
 30
0.0
 11
2.1576974819
 21
2.7725625653
 31
0.0
 70
   163
  1
<> (2x)
 71
     1
 42
-1.0
  3
SLDDIMSTYLE1
100
AcDbDiametricDimension
 15
2.6954274713
 25
2.9997737643
 35
0.0
 40
0.0
  0
DIMENSION
  5
D4
330
1F
100
AcDbEntity
  8
0
  6
Continuous
 62
     7
 48
0.5
370
     0
100
AcDbDimension
  2
*D7
 10
3.1911136761
 20
3.5971276596
 30
0.0
 11
2.1281215501
 21
3.5971276596
 31
0.0
 70
   160
 71
     2
 42
-1.0
  3
SLDDIMSTYLE2
100
AcDbAlignedDimension
 13
1.0651294241
 23
2.8734568633
 33
0.0
 14
3.1911136761
 24
2.9088899342
 34
0.0
100
AcDbRotatedDimension
  0
DIMENSION
  5
E7
330
1F
100
AcDbEntity
  8
0
  6
Continuous
 62
     7
 48
0.5
370
     0
100
AcDbDimension
  2
*D8
 10
0.7931258148
 20
1.3380237925
 30
0.0
 11
0.7931258148
 21
1.4895985956
 31
0.0
 70
   160
 71
     2
 42
-1.0
  3
SLDDIMSTYLE3
100
AcDbAlignedDimension
 13
1.0651294241
 23
1.6411733988
 33
0.0
 14
1.3682790304
 24
1.3380237925
 34
0.0
 50
90.0
100
AcDbRotatedDimension
  0
DIMENSION
  5
FA
330
1F
100
AcDbEntity
  8
0
  6
Continuous
 62
     7
 48
0.5
370
     0
100
AcDbDimension
  2
*D9
 10
0.7931258148
 20
2.8734568633
 30
0.0
 11
0.7931258148
 21
2.257315131
 31
0.0
 70
   160
 71
     2
 42
-1.0
  3
SLDDIMSTYLE2
100
AcDbAlignedDimension
 13
1.0651294241
 23
1.6411733988
 33
0.0
 14
1.0651294241
 24
2.8734568633
 34
0.0
 50
90.0
100
AcDbRotatedDimension
  0
DIMENSION
  5
10C
330
1F
100
AcDbEntity
  8
0
  6
Continuous
 62
     7
 48
0.5
370
     0
100
AcDbDimension
  2
*D10
 10
2.75804281
 20
0.9049529263
 30
0.0
 11
2.1281215501
 21
0.9049529263
 31
0.0
 70
   160
 71
     2
 42
-1.0
  3
SLDDIMSTYLE2
100
AcDbAlignedDimension
 13
1.4982002903
 23
1.4876300917
 33
0.0
 14
2.75804281
 24
3.0624332413
 34
0.0
 50
0.0
100
AcDbRotatedDimension
  0
DIMENSION
  5
11E
330
1F
100
AcDbEntity
  8
0
  6
Continuous
 62
     7
 48
0.5
370
     0
100
AcDbDimension
  2
*D11
 10
3.1911136761
 20
3.4088899342
 30
0.0
 11
3.039538873
 21
3.4088899342
 31
0.0
 70
   160
 71
     2
 42
-1.0
  3
SLDDIMSTYLE3
100
AcDbAlignedDimension
 13
2.8879640698
 23
3.2120395405
 33
0.0
 14
3.1911136761
 24
2.9088899342
 34
0.0
100
AcDbRotatedDimension
  0
DIMENSION
  5
130
330
1F
100
AcDbEntity
  8
0
  6
Continuous
 62
     7
 48
0.5
370
     0
100
AcDbDimension
  2
*D12
 10
1.75804281
 20
3.4088899342
 30
0.0
 11
2.3230034399
 21
3.4088899342
 31
0.0
 70
   160
 71
     2
 42
-1.0
  3
SLDDIMSTYLE2
100
AcDbAlignedDimension
 13
2.8879640698
 23
3.2120395405
 33
0.0
 14
1.75804281
 24
3.2120395405
 34
0.0
100
AcDbRotatedDimension
  0
DIMENSION
  5
142
330
1F
100
AcDbEntity
  8
0
  6
Continuous
 62
     7
 48
0.5
370
     0
100
AcDbDimension
  2
*D13
 10
1.0651294241
 20
1.1411733988
 30
0.0
 11
1.2167042273
 21
1.1411733988
 31
0.0
 70
   160
 71
     2
 42
-1.0
  3
SLDDIMSTYLE3
100
AcDbAlignedDimension
 13
1.3682790304
 23
1.3380237925
 33
0.0
 14
1.0651294241
 24
1.6411733988
 34
0.0
100
AcDbRotatedDimension
  0
DIMENSION
  5
154
330
1F
100
AcDbEntity
  8
0
  6
Continuous
 62
     7
 48
0.5
370
     0
100
AcDbDimension
  2
*D14
 10
1.3682790304
 20
1.1411733988
 30
0.0
 11
1.9332396604
 21
1.1411733988
 31
0.0
 70
   160
 71
     2
 42
-1.0
  3
SLDDIMSTYLE2
100
AcDbAlignedDimension
 13
2.4982002903
 23
1.3380237925
 33
0.0
 14
1.3682790304
 24
1.3380237925
 34
0.0
100
AcDbRotatedDimension
  0
DIMENSION
  5
166
330
1F
100
AcDbEntity
  8
0
  6
Continuous
 62
     7
 48
0.5
370
     0
100
AcDbDimension
  2
*D15
 10
3.506074306
 20
2.9088899342
 30
0.0
 11
3.506074306
 21
3.0604647373
 31
0.0
 70
   160
 71
     2
 42
-1.0
  3
SLDDIMSTYLE3
100
AcDbAlignedDimension
 13
2.8879640698
 23
3.2120395405
 33
0.0
 14
3.1911136761
 24
2.9088899342
 34
0.0
 50
90.0
100
AcDbRotatedDimension
  0
DIMENSION
  5
178
330
1F
100
AcDbEntity
  8
0
  6
Continuous
 62
     7
 48
0.5
370
     0
100
AcDbDimension
  2
*D16
 10
3.506074306
 20
2.9088899342
 30
0.0
 11
3.506074306
 21
2.2927482019
 31
0.0
 70
   160
 71
     2
 42
-1.0
  3
SLDDIMSTYLE2
100
AcDbAlignedDimension
 13
3.1911136761
 23
1.6766064696
 33
0.0
 14
3.1911136761
 24
2.9088899342
 34
0.0
 50
90.0
100
AcDbRotatedDimension
  0
DIMENSION
  5
18A
330
1F
100
AcDbEntity
  8
0
  6
Continuous
 62
     7
 48
0.5
370
     0
100
AcDbDimension
  2
*D17
 10
1.0961294241
 20
2.8424568633
 30
0.0
 11
0.5612238257
 21
3.271062016
 31
0.0
 70
   164
  1
<> (8x)
 71
     1
 42
-1.0
  3
SLDDIMSTYLE4
100
AcDbRadialDimension
 15
1.0806355252
 25
2.8693071723
 35
0.0
 40
0.0
  0
DIMENSION
  5
19C
330
1F
100
AcDbEntity
  8
0
  6
Continuous
 62
     7
 48
0.5
370
     0
100
AcDbDimension
  2
*D18
 10
3.8604050147
 20
3.2120395405
 30
0.0
 11
3.8604050147
 21
2.2750316665
 31
0.0
 70
   160
 71
     2
 42
-1.0
  3
SLDDIMSTYLE2
100
AcDbAlignedDimension
 13
2.4982002903
 23
1.3380237925
 33
0.0
 14
2.8879640698
 24
3.2120395405
 34
0.0
 50
90.0
100
AcDbRotatedDimension
  0
DIMENSION
  5
1AE
330
1F
100
AcDbEntity
  8
0
  6
Continuous
 62
     7
 48
0.5
370
     0
100
AcDbDimension
  2
*D19
 10
0.4622340426
 20
1.4876300917
 30
0.0
 11
0.4622340426
 21
2.2750316665
 31
0.0
 70
   160
 71
     2
 42
-1.0
  3
SLDDIMSTYLE2
100
AcDbAlignedDimension
 13
2.75804281
 23
3.0624332413
 33
0.0
 14
1.4982002903
 24
1.4876300917
 34
0.0
 50
90.0
100
AcDbRotatedDimension
  0
LINE
  5
1C0
330
1F
100
AcDbEntity
  8
0
  6
Continuous
 62
     7
 48
0.5
370
    15
100
AcDbLine
 10
4.3268540184
 20
1.6766064595
 30
0.0
 11
4.2677988998
 21
1.6766064595
 31
0.0
  0
LINE
  5
1C1
330
1F
100
AcDbEntity
  8
0
  6
Continuous
 62
     7
 48
0.5
370
    15
100
AcDbLine
 10
4.2677988998
 20
1.6766064595
 30
0.0
 11
4.2677988998
 21
1.7076064848
 31
0.0
  0
LINE
  5
1C2
330
1F
100
AcDbEntity
  8
0
  6
Continuous
 62
     7
 48
0.5
370
    15
100
AcDbLine
 10
4.3268540184
 20
1.7076064848
 30
0.0
 11
4.3268540184
 21
1.6766064595
 31
0.0
  0
LINE
  5
1C3
330
1F
100
AcDbEntity
  8
0
  6
Continuous
 62
     7
 48
0.5
370
    15
100
AcDbLine
 10
4.2677988998
 20
1.7076064848
 30
0.0
 11
4.2677988998
 21
2.8778899322
 31
0.0
  0
LINE
  5
1C4
330
1F
100
AcDbEntity
  8
0
  6
Continuous
 62
     7
 48
0.5
370
    15
100
AcDbLine
 10
4.3268540184
 20
1.7076064848
 30
0.0
 11
4.3268540184
 21
2.8778899322
 31
0.0
  0
LINE
  5
1C5
330
1F
100
AcDbEntity
  8
0
  6
Continuous
 62
     7
 48
0.5
370
    15
100
AcDbLine
 10
4.2677988998
 20
2.8778899322
 30
0.0
 11
4.2677988998
 21
2.9088899574
 31
0.0
  0
LINE
  5
1C6
330
1F
100
AcDbEntity
  8
0
  6
Continuous
 62
     7
 48
0.5
370
    15
100
AcDbLine
 10
4.2677988998
 20
2.9088899574
 30
0.0
 11
4.3268540184
 21
2.9088899574
 31
0.0
  0
LINE
  5
1C7
330
1F
100
AcDbEntity
  8
0
  6
Continuous
 62
     7
 48
0.5
370
    15
100
AcDbLine
 10
4.3268540184
 20
2.9088899574
 30
0.0
 11
4.3268540184
 21
2.8778899322
 31
0.0
  0
LINE
  5
1C8
330
1F
100
AcDbEntity
  8
0
  6
Continuous
 62
     7
 48
0.5
370
    15
100
AcDbLine
 10
4.2677988998
 20
2.9088899574
 30
0.0
 11
4.2677988998
 21
3.1766064781
 31
0.0
  0
LINE
  5
1C9
330
1F
100
AcDbEntity
  8
0
  6
Continuous
 62
     7
 48
0.5
370
    15
100
AcDbLine
 10
4.3268540184
 20
2.9088899574
 30
0.0
 11
4.3268540184
 21
3.1766064781
 31
0.0
  0
LINE
  5
1CA
330
1F
100
AcDbEntity
  8
0
  6
Continuous
 62
     7
 48
0.5
370
    15
100
AcDbLine
 10
4.2677988998
 20
3.2120395621
 30
0.0
 11
4.3268540184
 21
3.2120395621
 31
0.0
  0
LINE
  5
1CB
330
1F
100
AcDbEntity
  8
0
  6
Continuous
 62
     7
 48
0.5
370
    15
100
AcDbLine
 10
4.2677988998
 20
3.1810395735
 30
0.0
 11
4.2677988998
 21
3.2120395621
 31
0.0
  0
LINE
  5
1CC
330
1F
100
AcDbEntity
  8
0
  6
Continuous
 62
     7
 48
0.5
370
    15
100
AcDbLine
 10
4.3268540184
 20
3.2120395621
 30
0.0
 11
4.3268540184
 21
3.1810395735
 31
0.0
  0
LINE
  5
1CD
330
1F
100
AcDbEntity
  8
0
  6
Continuous
 62
     7
 48
0.5
370
    15
100
AcDbLine
 10
4.2677988998
 20
3.1766064781
 30
0.0
 11
4.2677988998
 21
3.1810395735
 31
0.0
  0
LINE
  5
1CE
330
1F
100
AcDbEntity
  8
0
  6
Continuous
 62
     7
 48
0.5
370
    15
100
AcDbLine
 10
4.3268540184
 20
3.1766064781
 30
0.0
 11
4.3268540184
 21
3.1810395735
 31
0.0
  0
LINE
  5
1CF
330
1F
100
AcDbEntity
  8
0
  6
Continuous
 62
     7
 48
0.5
370
    15
100
AcDbLine
 10
4.2677988998
 20
1.4088899389
 30
0.0
 11
4.2677988998
 21
1.6766064595
 31
0.0
  0
LINE
  5
1D0
330
1F
100
AcDbEntity
  8
0
  6
Continuous
 62
     7
 48
0.5
370
    15
100
AcDbLine
 10
4.3268540184
 20
1.4088899389
 30
0.0
 11
4.3268540184
 21
1.6766064595
 31
0.0
  0
LINE
  5
1D1
330
1F
100
AcDbEntity
  8
0
  6
Continuous
 62
     7
 48
0.5
370
    15
100
AcDbLine
 10
4.2677988998
 20
1.3690237594
 30
0.0
 11
4.2677988998
 21
1.4088899389
 31
0.0
  0
LINE
  5
1D2
330
1F
100
AcDbEntity
  8
0
  6
Continuous
 62
     7
 48
0.5
370
    15
100
AcDbLine
 10
4.3268540184
 20
1.3690237594
 30
0.0
 11
4.3268540184
 21
1.4088899389
 31
0.0
  0
LINE
  5
1D3
330
1F
100
AcDbEntity
  8
0
  6
Continuous
 62
     7
 48
0.5
370
    15
100
AcDbLine
 10
4.3268540184
 20
1.3380237709
 30
0.0
 11
4.2677988998
 21
1.3380237709
 31
0.0
  0
LINE
  5
1D4
330
1F
100
AcDbEntity
  8
0
  6
Continuous
 62
     7
 48
0.5
370
    15
100
AcDbLine
 10
4.2677988998
 20
1.3380237709
 30
0.0
 11
4.2677988998
 21
1.3690237594
 31
0.0
  0
LINE
  5
1D5
330
1F
100
AcDbEntity
  8
0
  6
Continuous
 62
     7
 48
0.5
370
    15
100
AcDbLine
 10
4.3268540184
 20
1.3690237594
 30
0.0
 11
4.3268540184
 21
1.3380237709
 31
0.0
  0
ENDSEC
  0
SECTION
  2
OBJECTS
  0
DICTIONARY
  5
C
330
0
100
AcDbDictionary
281
     1
  3
ACAD_GROUP
350
D
  3
ACAD_LAYOUT
350
1A
  3
ACAD_MATERIAL
350
3B
  3
ACAD_MLEADERSTYLE
350
1D8
  3
ACAD_MLINESTYLE
350
17
  3
ACAD_PLOTSETTINGS
350
19
  3
ACAD_PLOTSTYLENAME
350
E
  3
ACAD_SCALELIST
350
56
  3
ACAD_VISUALSTYLE
350
2A
  3
AcDbVariableDictionary
350
1D6
  0
DICTIONARY
  5
D
102
{ACAD_REACTORS
330
C
102
}
330
C
100
AcDbDictionary
281
     1
  0
DICTIONARY
  5
1A
102
{ACAD_REACTORS
330
C
102
}
330
C
100
AcDbDictionary
281
     1
  3
Layout1
350
1E
  3
Layout2
350
26
  3
Model
350
22
  0
DICTIONARY
  5
3B
102
{ACAD_REACTORS
330
C
102
}
330
C
100
AcDbDictionary
281
     1
  3
ByBlock
350
3D
  3
ByLayer
350
3C
  3
Global
350
3E
  0
DICTIONARY
  5
1D8
102
{ACAD_REACTORS
330
C
102
}
330
C
100
AcDbDictionary
281
     1
  0
DICTIONARY
  5
17
102
{ACAD_REACTORS
330
C
102
}
330
C
100
AcDbDictionary
281
     1
  3
Standard
350
18
  0
DICTIONARY
  5
19
102
{ACAD_REACTORS
330
C
102
}
330
C
100
AcDbDictionary
281
     1
  0
ACDBDICTIONARYWDFLT
  5
E
102
{ACAD_REACTORS
330
C
102
}
330
C
100
AcDbDictionary
281
     1
  3
Normal
350
F
100
AcDbDictionaryWithDefault
340
F
  0
DICTIONARY
  5
56
102
{ACAD_REACTORS
330
C
102
}
330
C
100
AcDbDictionary
281
     1
  3
A0
350
57
  3
A1
350
58
  3
A2
350
59
  3
A3
350
5A
  3
A4
350
5B
  3
A5
350
5C
  3
A6
350
5D
  3
A7
350
5E
  3
A8
350
5F
  3
A9
350
60
  3
B0
350
61
  3
B1
350
62
  3
B2
350
63
  3
B3
350
64
  3
B4
350
65
  3
B5
350
66
  3
B6
350
67
  3
B7
350
68
  3
B8
350
69
  3
B9
350
6A
  3
C0
350
6B
  3
C1
350
6C
  3
C2
350
6D
  3
C3
350
6E
  3
C4
350
6F
  3
C5
350
70
  3
C6
350
71
  3
C7
350
72
  3
C8
350
73
  3
C9
350
74
  3
D0
350
75
  3
D1
350
76
  3
D2
350
77
  0
DICTIONARY
  5
2A
102
{ACAD_REACTORS
330
C
102
}
330
C
100
AcDbDictionary
281
     1
  3
2dWireframe
350
2F
  3
3D Hidden
350
31
  3
3dWireframe
350
30
  3
Basic
350
32
  3
Brighten
350
36
  3
ColorChange
350
3A
  3
Conceptual
350
34
  3
Dim
350
35
  3
Facepattern
350
39
  3
Flat
350
2B
  3
FlatWithEdges
350
2C
  3
Gouraud
350
2D
  3
GouraudWithEdges
350
2E
  3
Linepattern
350
38
  3
Realistic
350
33
  3
Thicken
350
37
  0
DICTIONARY
  5
1D6
102
{ACAD_REACTORS
330
C
102
}
330
C
100
AcDbDictionary
281
     1
  3
CANNOSCALE
350
1D9
  3
DIMASSOC
350
1DA
  3
HIDETEXT
350
1DB
  0
LAYOUT
  5
1E
102
{ACAD_REACTORS
330
1A
102
}
330
1A
100
AcDbPlotSettings
  1

  2
none_device
  4

  6

 40
0.0
 41
0.0
 42
0.0
 43
0.0
 44
0.0
 45
0.0
 46
0.0
 47
0.0
 48
0.0
 49
0.0
140
0.0
141
0.0
142
1.0
143
1.0
 70
   688
 72
     0
 73
     0
 74
     5
  7

 75
    16
147
1.0
148
0.0
149
0.0
100
AcDbLayout
  1
Layout1
 70
     1
 71
     1
 10
0.0
 20
0.0
 11
12.0
 21
9.0
 12
0.0
 22
0.0
 32
0.0
 14
1.0000000000E+20
 24
1.0000000000E+20
 34
1.0000000000E+20
 15
-1.0000000000E+20
 25
-1.0000000000E+20
 35
-1.0000000000E+20
146
0.0
 13
0.0
 23
0.0
 33
0.0
 16
1.0
 26
0.0
 36
0.0
 17
0.0
 27
1.0
 37
0.0
 76
     0
330
1B
  0
LAYOUT
  5
26
102
{ACAD_REACTORS
330
1A
102
}
330
1A
100
AcDbPlotSettings
  1

  2
none_device
  4

  6

 40
0.0
 41
0.0
 42
0.0
 43
0.0
 44
0.0
 45
0.0
 46
0.0
 47
0.0
 48
0.0
 49
0.0
140
0.0
141
0.0
142
1.0
143
1.0
 70
   688
 72
     0
 73
     0
 74
     5
  7

 75
    16
147
1.0
148
0.0
149
0.0
100
AcDbLayout
  1
Layout2
 70
     1
 71
     2
 10
0.0
 20
0.0
 11
0.0
 21
0.0
 12
0.0
 22
0.0
 32
0.0
 14
0.0
 24
0.0
 34
0.0
 15
0.0
 25
0.0
 35
0.0
146
0.0
 13
0.0
 23
0.0
 33
0.0
 16
1.0
 26
0.0
 36
0.0
 17
0.0
 27
1.0
 37
0.0
 76
     0
330
23
  0
LAYOUT
  5
22
102
{ACAD_REACTORS
330
1A
102
}
330
1A
100
AcDbPlotSettings
  1

  2
none_device
  4

  6

 40
0.0
 41
0.0
 42
0.0
 43
0.0
 44
0.0
 45
0.0
 46
0.0
 47
0.0
 48
0.0
 49
0.0
140
0.0
141
0.0
142
1.0
143
1.0
 70
  1712
 72
     0
 73
     0
 74
     0
  7

 75
     0
147
1.0
148
0.0
149
0.0
100
AcDbLayout
  1
Model
 70
     1
 71
     0
 10
0.0
 20
0.0
 11
5.5
 21
4.25
 12
0.0
 22
0.0
 32
0.0
 14
0.0
 24
0.0
 34
0.0
 15
5.5
 25
4.25
 35
0.0
146
0.0
 13
0.0
 23
0.0
 33
0.0
 16
1.0
 26
0.0
 36
0.0
 17
0.0
 27
1.0
 37
0.0
 76
     0
330
1F
331
29
  0
MATERIAL
  5
3D
102
{ACAD_REACTORS
330
3B
102
}
102
{ACAD_XDICTIONARY
360
1FE
102
}
330
3B
100
AcDbMaterial
  1
ByBlock
  0
MATERIAL
  5
3C
102
{ACAD_REACTORS
330
3B
102
}
102
{ACAD_XDICTIONARY
360
1FC
102
}
330
3B
100
AcDbMaterial
  1
ByLayer
  0
MATERIAL
  5
3E
102
{ACAD_REACTORS
330
3B
102
}
102
{ACAD_XDICTIONARY
360
200
102
}
330
3B
100
AcDbMaterial
  1
Global
  0
MLINESTYLE
  5
18
102
{ACAD_REACTORS
330
17
102
}
330
17
100
AcDbMlineStyle
  2
Standard
 70
     0
  3

 62
   256
 51
90.0
 52
90.0
 71
     2
 49
0.5
 62
   256
  6
BYLAYER
 49
-0.5
 62
   256
  6
BYLAYER
  0
ACDBPLACEHOLDER
  5
F
102
{ACAD_REACTORS
330
E
102
}
330
E
  0
SCALE
  5
57
102
{ACAD_REACTORS
330
56
102
}
330
56
100
AcDbScale
 70
     0
300
1:1
140
1.0
141
1.0
290
     1
  0
SCALE
  5
58
102
{ACAD_REACTORS
330
56
102
}
330
56
100
AcDbScale
 70
     0
300
1:2
140
1.0
141
2.0
290
     0
  0
SCALE
  5
59
102
{ACAD_REACTORS
330
56
102
}
330
56
100
AcDbScale
 70
     0
300
1:4
140
1.0
141
4.0
290
     0
  0
SCALE
  5
5A
102
{ACAD_REACTORS
330
56
102
}
330
56
100
AcDbScale
 70
     0
300
1:5
140
1.0
141
5.0
290
     0
  0
SCALE
  5
5B
102
{ACAD_REACTORS
330
56
102
}
330
56
100
AcDbScale
 70
     0
300
1:8
140
1.0
141
8.0
290
     0
  0
SCALE
  5
5C
102
{ACAD_REACTORS
330
56
102
}
330
56
100
AcDbScale
 70
     0
300
1:10
140
1.0
141
10.0
290
     0
  0
SCALE
  5
5D
102
{ACAD_REACTORS
330
56
102
}
330
56
100
AcDbScale
 70
     0
300
1:16
140
1.0
141
16.0
290
     0
  0
SCALE
  5
5E
102
{ACAD_REACTORS
330
56
102
}
330
56
100
AcDbScale
 70
     0
300
1:20
140
1.0
141
20.0
290
     0
  0
SCALE
  5
5F
102
{ACAD_REACTORS
330
56
102
}
330
56
100
AcDbScale
 70
     0
300
1:30
140
1.0
141
30.0
290
     0
  0
SCALE
  5
60
102
{ACAD_REACTORS
330
56
102
}
330
56
100
AcDbScale
 70
     0
300
1:40
140
1.0
141
40.0
290
     0
  0
SCALE
  5
61
102
{ACAD_REACTORS
330
56
102
}
330
56
100
AcDbScale
 70
     0
300
1:50
140
1.0
141
50.0
290
     0
  0
SCALE
  5
62
102
{ACAD_REACTORS
330
56
102
}
330
56
100
AcDbScale
 70
     0
300
1:100
140
1.0
141
100.0
290
     0
  0
SCALE
  5
63
102
{ACAD_REACTORS
330
56
102
}
330
56
100
AcDbScale
 70
     0
300
2:1
140
2.0
141
1.0
290
     0
  0
SCALE
  5
64
102
{ACAD_REACTORS
330
56
102
}
330
56
100
AcDbScale
 70
     0
300
4:1
140
4.0
141
1.0
290
     0
  0
SCALE
  5
65
102
{ACAD_REACTORS
330
56
102
}
330
56
100
AcDbScale
 70
     0
300
8:1
140
8.0
141
1.0
290
     0
  0
SCALE
  5
66
102
{ACAD_REACTORS
330
56
102
}
330
56
100
AcDbScale
 70
     0
300
10:1
140
10.0
141
1.0
290
     0
  0
SCALE
  5
67
102
{ACAD_REACTORS
330
56
102
}
330
56
100
AcDbScale
 70
     0
300
100:1
140
100.0
141
1.0
290
     0
  0
SCALE
  5
68
102
{ACAD_REACTORS
330
56
102
}
330
56
100
AcDbScale
 70
     0
300
1/128" = 1'-0"
140
0.0078125
141
12.0
290
     0
  0
SCALE
  5
69
102
{ACAD_REACTORS
330
56
102
}
330
56
100
AcDbScale
 70
     0
300
1/64" = 1'-0"
140
0.015625
141
12.0
290
     0
  0
SCALE
  5
6A
102
{ACAD_REACTORS
330
56
102
}
330
56
100
AcDbScale
 70
     0
300
1/32" = 1'-0"
140
0.03125
141
12.0
290
     0
  0
SCALE
  5
6B
102
{ACAD_REACTORS
330
56
102
}
330
56
100
AcDbScale
 70
     0
300
1/16" = 1'-0"
140
0.0625
141
12.0
290
     0
  0
SCALE
  5
6C
102
{ACAD_REACTORS
330
56
102
}
330
56
100
AcDbScale
 70
     0
300
3/32" = 1'-0"
140
0.09375
141
12.0
290
     0
  0
SCALE
  5
6D
102
{ACAD_REACTORS
330
56
102
}
330
56
100
AcDbScale
 70
     0
300
1/8" = 1'-0"
140
0.125
141
12.0
290
     0
  0
SCALE
  5
6E
102
{ACAD_REACTORS
330
56
102
}
330
56
100
AcDbScale
 70
     0
300
3/16" = 1'-0"
140
0.1875
141
12.0
290
     0
  0
SCALE
  5
6F
102
{ACAD_REACTORS
330
56
102
}
330
56
100
AcDbScale
 70
     0
300
1/4" = 1'-0"
140
0.25
141
12.0
290
     0
  0
SCALE
  5
70
102
{ACAD_REACTORS
330
56
102
}
330
56
100
AcDbScale
 70
     0
300
3/8" = 1'-0"
140
0.375
141
12.0
290
     0
  0
SCALE
  5
71
102
{ACAD_REACTORS
330
56
102
}
330
56
100
AcDbScale
 70
     0
300
1/2" = 1'-0"
140
0.5
141
12.0
290
     0
  0
SCALE
  5
72
102
{ACAD_REACTORS
330
56
102
}
330
56
100
AcDbScale
 70
     0
300
3/4" = 1'-0"
140
0.75
141
12.0
290
     0
  0
SCALE
  5
73
102
{ACAD_REACTORS
330
56
102
}
330
56
100
AcDbScale
 70
     0
300
1" = 1'-0"
140
1.0
141
12.0
290
     0
  0
SCALE
  5
74
102
{ACAD_REACTORS
330
56
102
}
330
56
100
AcDbScale
 70
     0
300
1-1/2" = 1'-0"
140
1.5
141
12.0
290
     0
  0
SCALE
  5
75
102
{ACAD_REACTORS
330
56
102
}
330
56
100
AcDbScale
 70
     0
300
3" = 1'-0"
140
3.0
141
12.0
290
     0
  0
SCALE
  5
76
102
{ACAD_REACTORS
330
56
102
}
330
56
100
AcDbScale
 70
     0
300
6" = 1'-0"
140
6.0
141
12.0
290
     0
  0
SCALE
  5
77
102
{ACAD_REACTORS
330
56
102
}
330
56
100
AcDbScale
 70
     0
300
1'-0" = 1'-0"
140
12.0
141
12.0
290
     0
  0
VISUALSTYLE
  5
2F
102
{ACAD_REACTORS
330
2A
102
}
102
{ACAD_XDICTIONARY
360
1E4
102
}
330
2A
100
AcDbVisualStyle
  2
2dWireframe
 70
     4
 71
     0
 72
     2
 73
     0
 90
        0
 40
-0.6
 41
-30.0
 62
     5
 63
     7
 74
     1
 91
        4
 64
     7
 65
   257
 75
     1
175
     1
 42
1.0
 92
        0
 66
   257
 43
1.0
 76
     1
 77
     6
 78
     2
 67
     7
 79
     5
170
     0
171
     0
290
     0
174
     0
 93
        1
 44
0.0
173
     0
291
     0
 45
0.0
1001
ACAD
1000
AcDbSavedByObjectVersion
1070
     0
  0
VISUALSTYLE
  5
31
102
{ACAD_REACTORS
330
2A
102
}
102
{ACAD_XDICTIONARY
360
1E8
102
}
330
2A
100
AcDbVisualStyle
  2
3D Hidden
 70
     6
 71
     1
 72
     2
 73
     2
 90
        0
 40
-0.6
 41
-30.0
 62
     5
 63
     7
 74
     2
 91
        2
 64
     7
 65
   257
 75
     2
175
     1
 42
40.0
 92
        0
 66
   257
 43
1.0
 76
     1
 77
     6
 78
     2
 67
     7
 79
     3
170
     0
171
     0
290
     0
174
     0
 93
        1
 44
0.0
173
     0
291
     0
 45
0.0
1001
ACAD
1000
AcDbSavedByObjectVersion
1070
     0
  0
VISUALSTYLE
  5
30
102
{ACAD_REACTORS
330
2A
102
}
102
{ACAD_XDICTIONARY
360
1E6
102
}
330
2A
100
AcDbVisualStyle
  2
3dWireframe
 70
     5
 71
     0
 72
     2
 73
     0
 90
        0
 40
-0.6
 41
-30.0
 62
     5
 63
     7
 74
     1
 91
        4
 64
     7
 65
   257
 75
     1
175
     1
 42
1.0
 92
        0
 66
   257
 43
1.0
 76
     1
 77
     6
 78
     2
 67
     7
 79
     5
170
     0
171
     0
290
     0
174
     0
 93
        1
 44
0.0
173
     0
291
     0
 45
0.0
1001
ACAD
1000
AcDbSavedByObjectVersion
1070
     0
  0
VISUALSTYLE
  5
32
102
{ACAD_REACTORS
330
2A
102
}
102
{ACAD_XDICTIONARY
360
1EA
102
}
330
2A
100
AcDbVisualStyle
  2
Basic
 70
     7
 71
     1
 72
     0
 73
     1
 90
        0
 40
-0.6
 41
-30.0
 62
     5
 63
     7
 74
     0
 91
        4
 64
     7
 65
   257
 75
     1
175
     1
 42
1.0
 92
        8
 66
     7
 43
1.0
 76
     1
 77
     6
 78
     2
 67
     7
 79
     5
170
     0
171
     0
290
     0
174
     0
 93
        1
 44
0.0
173
     0
291
     1
 45
0.0
1001
ACAD
1000
AcDbSavedByObjectVersion
1070
     0
  0
VISUALSTYLE
  5
36
102
{ACAD_REACTORS
330
2A
102
}
102
{ACAD_XDICTIONARY
360
1F2
102
}
330
2A
100
AcDbVisualStyle
  2
Brighten
 70
    12
 71
     2
 72
     2
 73
     0
 90
        0
 40
-0.6
 41
-30.0
 62
     5
 63
     7
 74
     1
 91
        4
 64
     7
 65
   257
 75
     1
175
     1
 42
1.0
 92
        8
 66
     7
 43
1.0
 76
     1
 77
     6
 78
     2
 67
     7
 79
     5
170
     0
171
     0
290
     0
174
     0
 93
        1
 44
50.0
173
     0
291
     1
 45
0.0
1001
ACAD
1000
AcDbSavedByObjectVersion
1070
     0
  0
VISUALSTYLE
  5
3A
102
{ACAD_REACTORS
330
2A
102
}
102
{ACAD_XDICTIONARY
360
1FA
102
}
330
2A
100
AcDbVisualStyle
  2
ColorChange
 70
    16
 71
     2
 72
     2
 73
     3
 90
        0
 40
-0.6
 41
-30.0
 62
     5
 63
     8
 74
     1
 91
        4
 64
     7
 65
   257
 75
     1
175
     1
 42
1.0
 92
        8
 66
     8
 43
1.0
 76
     1
 77
     6
 78
     2
 67
     7
 79
     5
170
     0
171
     0
290
     0
174
     0
 93
        1
 44
0.0
173
     0
291
     1
 45
0.0
1001
ACAD
1000
AcDbSavedByObjectVersion
1070
     0
  0
VISUALSTYLE
  5
34
102
{ACAD_REACTORS
330
2A
102
}
102
{ACAD_XDICTIONARY
360
1EE
102
}
330
2A
100
AcDbVisualStyle
  2
Conceptual
 70
     9
 71
     3
 72
     2
 73
     0
 90
        0
 40
-0.6
 41
-30.0
 62
     5
 63
     7
 74
     2
 91
        2
 64
     7
 65
   257
 75
     1
175
     1
 42
40.0
 92
        8
 66
     7
 43
1.0
 76
     1
 77
     6
 78
     2
 67
     7
 79
     3
170
     0
171
     0
290
     0
174
     0
 93
        1
 44
0.0
173
     0
291
     0
 45
0.0
1001
ACAD
1000
AcDbSavedByObjectVersion
1070
     0
  0
VISUALSTYLE
  5
35
102
{ACAD_REACTORS
330
2A
102
}
102
{ACAD_XDICTIONARY
360
1F0
102
}
330
2A
100
AcDbVisualStyle
  2
Dim
 70
    11
 71
     2
 72
     2
 73
     0
 90
        0
 40
-0.6
 41
-30.0
 62
     5
 63
     7
 74
     1
 91
        4
 64
     7
 65
   257
 75
     1
175
     1
 42
1.0
 92
        8
 66
     7
 43
1.0
 76
     1
 77
     6
 78
     2
 67
     7
 79
     5
170
     0
171
     0
290
     0
174
     0
 93
        1
 44
-50.0
173
     0
291
     1
 45
0.0
1001
ACAD
1000
AcDbSavedByObjectVersion
1070
     0
  0
VISUALSTYLE
  5
39
102
{ACAD_REACTORS
330
2A
102
}
102
{ACAD_XDICTIONARY
360
1F8
102
}
330
2A
100
AcDbVisualStyle
  2
Facepattern
 70
    15
 71
     2
 72
     2
 73
     0
 90
        0
 40
-0.6
 41
-30.0
 62
     5
 63
     7
 74
     1
 91
        4
 64
     7
 65
   257
 75
     1
175
     1
 42
1.0
 92
        8
 66
     7
 43
1.0
 76
     1
 77
     6
 78
     2
 67
     7
 79
     5
170
     0
171
     0
290
     0
174
     0
 93
        1
 44
0.0
173
     0
291
     1
 45
0.0
1001
ACAD
1000
AcDbSavedByObjectVersion
1070
     0
  0
VISUALSTYLE
  5
2B
102
{ACAD_REACTORS
330
2A
102
}
102
{ACAD_XDICTIONARY
360
1DC
102
}
330
2A
100
AcDbVisualStyle
  2
Flat
 70
     0
 71
     2
 72
     1
 73
     1
 90
        2
 40
-0.6
 41
30.0
 62
     5
 63
     7
 74
     0
 91
        4
 64
     7
 65
   257
 75
     1
175
     1
 42
1.0
 92
        8
 66
     7
 43
1.0
 76
     1
 77
     6
 78
     2
 67
     7
 79
     5
170
     0
171
     0
290
     0
174
     0
 93
       13
 44
0.0
173
     0
291
     1
 45
0.0
1001
ACAD
1000
AcDbSavedByObjectVersion
1070
     0
  0
VISUALSTYLE
  5
2C
102
{ACAD_REACTORS
330
2A
102
}
102
{ACAD_XDICTIONARY
360
1DE
102
}
330
2A
100
AcDbVisualStyle
  2
FlatWithEdges
 70
     1
 71
     2
 72
     1
 73
     1
 90
        2
 40
-0.6
 41
30.0
 62
     5
 63
     7
 74
     1
 91
        4
 64
     7
 65
   257
 75
     1
175
     1
 42
1.0
 92
        0
 66
   257
 43
1.0
 76
     1
 77
     6
 78
     2
 67
     7
 79
     5
170
     0
171
     0
290
     0
174
     0
 93
       13
 44
0.0
173
     0
291
     1
 45
0.0
1001
ACAD
1000
AcDbSavedByObjectVersion
1070
     0
  0
VISUALSTYLE
  5
2D
102
{ACAD_REACTORS
330
2A
102
}
102
{ACAD_XDICTIONARY
360
1E0
102
}
330
2A
100
AcDbVisualStyle
  2
Gouraud
 70
     2
 71
     2
 72
     2
 73
     1
 90
        2
 40
-0.6
 41
30.0
 62
     5
 63
     7
 74
     0
 91
        4
 64
     7
 65
   257
 75
     1
175
     1
 42
1.0
 92
        0
 66
     7
 43
1.0
 76
     1
 77
     6
 78
     2
 67
     7
 79
     5
170
     0
171
     0
290
     0
174
     0
 93
       13
 44
0.0
173
     0
291
     1
 45
0.0
1001
ACAD
1000
AcDbSavedByObjectVersion
1070
     0
  0
VISUALSTYLE
  5
2E
102
{ACAD_REACTORS
330
2A
102
}
102
{ACAD_XDICTIONARY
360
1E2
102
}
330
2A
100
AcDbVisualStyle
  2
GouraudWithEdges
 70
     3
 71
     2
 72
     2
 73
     1
 90
        2
 40
-0.6
 41
30.0
 62
     5
 63
     7
 74
     1
 91
        4
 64
     7
 65
   257
 75
     1
175
     1
 42
1.0
 92
        0
 66
   257
 43
1.0
 76
     1
 77
     6
 78
     2
 67
     7
 79
     5
170
     0
171
     0
290
     0
174
     0
 93
       13
 44
0.0
173
     0
291
     1
 45
0.0
1001
ACAD
1000
AcDbSavedByObjectVersion
1070
     0
  0
VISUALSTYLE
  5
38
102
{ACAD_REACTORS
330
2A
102
}
102
{ACAD_XDICTIONARY
360
1F6
102
}
330
2A
100
AcDbVisualStyle
  2
Linepattern
 70
    14
 71
     2
 72
     2
 73
     0
 90
        0
 40
-0.6
 41
-30.0
 62
     5
 63
     7
 74
     1
 91
        4
 64
     7
 65
   257
 75
     7
175
     7
 42
1.0
 92
        8
 66
     7
 43
1.0
 76
     1
 77
     6
 78
     2
 67
     7
 79
     5
170
     0
171
     0
290
     0
174
     0
 93
        1
 44
0.0
173
     0
291
     1
 45
0.0
1001
ACAD
1000
AcDbSavedByObjectVersion
1070
     0
  0
VISUALSTYLE
  5
33
102
{ACAD_REACTORS
330
2A
102
}
102
{ACAD_XDICTIONARY
360
1EC
102
}
330
2A
100
AcDbVisualStyle
  2
Realistic
 70
     8
 71
     2
 72
     2
 73
     0
 90
        0
 40
-0.6
 41
-30.0
 62
     5
 63
     7
 74
     1
 91
        0
 64
     7
 65
   257
 75
     1
175
     1
 42
1.0
 92
        8
 66
     8
 43
1.0
 76
     1
 77
     6
 78
     2
 67
     7
 79
     5
170
     0
171
     0
290
     0
174
     0
 93
       13
 44
0.0
173
     0
291
     0
 45
0.0
1001
ACAD
1000
AcDbSavedByObjectVersion
1070
     0
  0
VISUALSTYLE
  5
37
102
{ACAD_REACTORS
330
2A
102
}
102
{ACAD_XDICTIONARY
360
1F4
102
}
330
2A
100
AcDbVisualStyle
  2
Thicken
 70
    13
 71
     2
 72
     2
 73
     0
 90
        0
 40
-0.6
 41
-30.0
 62
     5
 63
     7
 74
     1
 91
        4
 64
     7
 65
   257
 75
     1
175
     1
 42
1.0
 92
       12
 66
     7
 43
1.0
 76
     1
 77
     6
 78
     2
 67
     7
 79
     5
170
     0
171
     0
290
     0
174
     0
 93
        1
 44
0.0
173
     0
291
     1
 45
0.0
1001
ACAD
1000
AcDbSavedByObjectVersion
1070
     0
  0
DICTIONARYVAR
  5
1D9
102
{ACAD_REACTORS
330
1D6
102
}
330
1D6
100
DictionaryVariables
280
     0
  1
1:1
  0
DICTIONARYVAR
  5
1DA
102
{ACAD_REACTORS
330
1D6
102
}
330
1D6
100
DictionaryVariables
280
     0
  1
2
  0
DICTIONARYVAR
  5
1DB
102
{ACAD_REACTORS
330
1D6
102
}
330
1D6
100
DictionaryVariables
280
     0
  1
1
  0
DICTIONARY
  5
1FE
330
3D
100
AcDbDictionary
280
     1
281
     1
  3
ACAD_XREC_ROUNDTRIP
360
1FF
  0
DICTIONARY
  5
1FC
330
3C
100
AcDbDictionary
280
     1
281
     1
  3
ACAD_XREC_ROUNDTRIP
360
1FD
  0
DICTIONARY
  5
200
330
3E
100
AcDbDictionary
280
     1
281
     1
  3
ACAD_XREC_ROUNDTRIP
360
201
  0
DICTIONARY
  5
1E4
330
2F
100
AcDbDictionary
280
     1
281
     1
  3
ACAD_XREC_ROUNDTRIP
360
1E5
  0
DICTIONARY
  5
1E8
330
31
100
AcDbDictionary
280
     1
281
     1
  3
ACAD_XREC_ROUNDTRIP
360
1E9
  0
DICTIONARY
  5
1E6
330
30
100
AcDbDictionary
280
     1
281
     1
  3
ACAD_XREC_ROUNDTRIP
360
1E7
  0
DICTIONARY
  5
1EA
330
32
100
AcDbDictionary
280
     1
281
     1
  3
ACAD_XREC_ROUNDTRIP
360
1EB
  0
DICTIONARY
  5
1F2
330
36
100
AcDbDictionary
280
     1
281
     1
  3
ACAD_XREC_ROUNDTRIP
360
1F3
  0
DICTIONARY
  5
1FA
330
3A
100
AcDbDictionary
280
     1
281
     1
  3
ACAD_XREC_ROUNDTRIP
360
1FB
  0
DICTIONARY
  5
1EE
330
34
100
AcDbDictionary
280
     1
281
     1
  3
ACAD_XREC_ROUNDTRIP
360
1EF
  0
DICTIONARY
  5
1F0
330
35
100
AcDbDictionary
280
     1
281
     1
  3
ACAD_XREC_ROUNDTRIP
360
1F1
  0
DICTIONARY
  5
1F8
330
39
100
AcDbDictionary
280
     1
281
     1
  3
ACAD_XREC_ROUNDTRIP
360
1F9
  0
DICTIONARY
  5
1DC
330
2B
100
AcDbDictionary
280
     1
281
     1
  3
ACAD_XREC_ROUNDTRIP
360
1DD
  0
DICTIONARY
  5
1DE
330
2C
100
AcDbDictionary
280
     1
281
     1
  3
ACAD_XREC_ROUNDTRIP
360
1DF
  0
DICTIONARY
  5
1E0
330
2D
100
AcDbDictionary
280
     1
281
     1
  3
ACAD_XREC_ROUNDTRIP
360
1E1
  0
DICTIONARY
  5
1E2
330
2E
100
AcDbDictionary
280
     1
281
     1
  3
ACAD_XREC_ROUNDTRIP
360
1E3
  0
DICTIONARY
  5
1F6
330
38
100
AcDbDictionary
280
     1
281
     1
  3
ACAD_XREC_ROUNDTRIP
360
1F7
  0
DICTIONARY
  5
1EC
330
33
100
AcDbDictionary
280
     1
281
     1
  3
ACAD_XREC_ROUNDTRIP
360
1ED
  0
DICTIONARY
  5
1F4
330
37
100
AcDbDictionary
280
     1
281
     1
  3
ACAD_XREC_ROUNDTRIP
360
1F5
  0
XRECORD
  5
1FF
102
{ACAD_REACTORS
330
1FE
102
}
330
1FE
100
AcDbXrecord
280
     1
102
MATERIAL
148
0.0
149
0.0
149
0.0
 93
        0
 94
      127
282
     0
 72
     1
 77
     1
171
     1
175
     1
179
     1
273
     0
  0
XRECORD
  5
1FD
102
{ACAD_REACTORS
330
1FC
102
}
330
1FC
100
AcDbXrecord
280
     1
102
MATERIAL
148
0.0
149
0.0
149
0.0
 93
        0
 94
      127
282
     0
 72
     1
 77
     1
171
     1
175
     1
179
     1
273
     0
  0
XRECORD
  5
201
102
{ACAD_REACTORS
330
200
102
}
330
200
100
AcDbXrecord
280
     1
102
MATERIAL
148
0.0
149
0.0
149
0.0
 93
        0
 94
      127
282
     0
 72
     1
 77
     1
171
     1
175
     1
179
     1
273
     0
  0
XRECORD
  5
1E5
102
{ACAD_REACTORS
330
1E4
102
}
330
1E4
100
AcDbXrecord
280
     1
102
RTVSPropertyOp0
 70
     1
102
RTVSPropertyOp1
 70
     1
102
RTVSPropertyOp2
 70
     1
102
RTVSPropertyOp3
 70
     1
102
RTVSPropertyOp4
 70
     1
102
RTVSPropertyOp5
 70
     1
102
RTVSPropertyOp6
 70
     1
102
RTVSPropertyOp7
 70
     1
102
RTVSPropertyOp8
 70
     1
102
RTVSPropertyOp9
 70
     1
102
RTVSPropertyOp10
 70
     1
102
RTVSPropertyOp11
 70
     1
102
RTVSPropertyOp12
 70
     1
102
RTVSPropertyOp13
 70
     1
102
RTVSPropertyOp14
 70
     1
102
RTVSPropertyOp15
 70
     1
102
RTVSPropertyOp16
 70
     1
102
RTVSPropertyOp17
 70
     1
102
RTVSPropertyOp18
 70
     1
102
RTVSPropertyOp19
 70
     1
102
RTVSPropertyOp20
 70
     1
102
RTVSPropertyOp21
 70
     1
102
RTVSPropertyOp22
 70
     1
102
RTVSPropertyOp23
 70
     1
102
RTVSPropertyOp24
 70
     1
102
RTVSPropertyOp25
 70
     1
102
RTVSPropertyOp26
 70
     1
102
RTVSPropertyOp27
 70
     1
  0
XRECORD
  5
1E9
102
{ACAD_REACTORS
330
1E8
102
}
330
1E8
100
AcDbXrecord
280
     1
102
RTVSPropertyOp0
 70
     1
102
RTVSPropertyOp1
 70
     1
102
RTVSPropertyOp2
 70
     1
102
RTVSPropertyOp3
 70
     1
102
RTVSPropertyOp4
 70
     1
102
RTVSPropertyOp5
 70
     1
102
RTVSPropertyOp6
 70
     1
102
RTVSPropertyOp7
 70
     1
102
RTVSPropertyOp8
 70
     1
102
RTVSPropertyOp9
 70
     1
102
RTVSPropertyOp10
 70
     1
102
RTVSPropertyOp11
 70
     1
102
RTVSPropertyOp12
 70
     1
102
RTVSPropertyOp13
 70
     1
102
RTVSPropertyOp14
 70
     1
102
RTVSPropertyOp15
 70
     1
102
RTVSPropertyOp16
 70
     1
102
RTVSPropertyOp17
 70
     1
102
RTVSPropertyOp18
 70
     1
102
RTVSPropertyOp19
 70
     1
102
RTVSPropertyOp20
 70
     1
102
RTVSPropertyOp21
 70
     1
102
RTVSPropertyOp22
 70
     1
102
RTVSPropertyOp23
 70
     1
102
RTVSPropertyOp24
 70
     1
102
RTVSPropertyOp25
 70
     1
102
RTVSPropertyOp26
 70
     1
102
RTVSPropertyOp27
 70
     1
  0
XRECORD
  5
1E7
102
{ACAD_REACTORS
330
1E6
102
}
330
1E6
100
AcDbXrecord
280
     1
102
RTVSPropertyOp0
 70
     1
102
RTVSPropertyOp1
 70
     1
102
RTVSPropertyOp2
 70
     1
102
RTVSPropertyOp3
 70
     1
102
RTVSPropertyOp4
 70
     1
102
RTVSPropertyOp5
 70
     1
102
RTVSPropertyOp6
 70
     1
102
RTVSPropertyOp7
 70
     1
102
RTVSPropertyOp8
 70
     1
102
RTVSPropertyOp9
 70
     1
102
RTVSPropertyOp10
 70
     1
102
RTVSPropertyOp11
 70
     1
102
RTVSPropertyOp12
 70
     1
102
RTVSPropertyOp13
 70
     1
102
RTVSPropertyOp14
 70
     1
102
RTVSPropertyOp15
 70
     1
102
RTVSPropertyOp16
 70
     1
102
RTVSPropertyOp17
 70
     1
102
RTVSPropertyOp18
 70
     1
102
RTVSPropertyOp19
 70
     1
102
RTVSPropertyOp20
 70
     1
102
RTVSPropertyOp21
 70
     1
102
RTVSPropertyOp22
 70
     1
102
RTVSPropertyOp23
 70
     1
102
RTVSPropertyOp24
 70
     1
102
RTVSPropertyOp25
 70
     1
102
RTVSPropertyOp26
 70
     1
102
RTVSPropertyOp27
 70
     1
  0
XRECORD
  5
1EB
102
{ACAD_REACTORS
330
1EA
102
}
330
1EA
100
AcDbXrecord
280
     1
102
RTVSPropertyOp0
 70
     1
102
RTVSPropertyOp1
 70
     1
102
RTVSPropertyOp2
 70
     1
102
RTVSPropertyOp3
 70
     1
102
RTVSPropertyOp4
 70
     1
102
RTVSPropertyOp5
 70
     1
102
RTVSPropertyOp6
 70
     1
102
RTVSPropertyOp7
 70
     1
102
RTVSPropertyOp8
 70
     1
102
RTVSPropertyOp9
 70
     1
102
RTVSPropertyOp10
 70
     1
102
RTVSPropertyOp11
 70
     1
102
RTVSPropertyOp12
 70
     1
102
RTVSPropertyOp13
 70
     1
102
RTVSPropertyOp14
 70
     1
102
RTVSPropertyOp15
 70
     1
102
RTVSPropertyOp16
 70
     1
102
RTVSPropertyOp17
 70
     1
102
RTVSPropertyOp18
 70
     1
102
RTVSPropertyOp19
 70
     1
102
RTVSPropertyOp20
 70
     1
102
RTVSPropertyOp21
 70
     1
102
RTVSPropertyOp22
 70
     1
102
RTVSPropertyOp23
 70
     1
102
RTVSPropertyOp24
 70
     1
102
RTVSPropertyOp25
 70
     1
102
RTVSPropertyOp26
 70
     1
102
RTVSPropertyOp27
 70
     1
  0
XRECORD
  5
1F3
102
{ACAD_REACTORS
330
1F2
102
}
330
1F2
100
AcDbXrecord
280
     1
102
RTVSPropertyOp0
 70
     1
102
RTVSPropertyOp1
 70
     1
102
RTVSPropertyOp2
 70
     1
102
RTVSPropertyOp3
 70
     1
102
RTVSPropertyOp4
 70
     1
102
RTVSPropertyOp5
 70
     1
102
RTVSPropertyOp6
 70
     1
102
RTVSPropertyOp7
 70
     1
102
RTVSPropertyOp8
 70
     1
102
RTVSPropertyOp9
 70
     1
102
RTVSPropertyOp10
 70
     1
102
RTVSPropertyOp11
 70
     1
102
RTVSPropertyOp12
 70
     1
102
RTVSPropertyOp13
 70
     1
102
RTVSPropertyOp14
 70
     1
102
RTVSPropertyOp15
 70
     1
102
RTVSPropertyOp16
 70
     1
102
RTVSPropertyOp17
 70
     1
102
RTVSPropertyOp18
 70
     1
102
RTVSPropertyOp19
 70
     1
102
RTVSPropertyOp20
 70
     1
102
RTVSPropertyOp21
 70
     1
102
RTVSPropertyOp22
 70
     1
102
RTVSPropertyOp23
 70
     1
102
RTVSPropertyOp24
 70
     1
102
RTVSPropertyOp25
 70
     1
102
RTVSPropertyOp26
 70
     1
102
RTVSPropertyOp27
 70
     1
  0
XRECORD
  5
1FB
102
{ACAD_REACTORS
330
1FA
102
}
330
1FA
100
AcDbXrecord
280
     1
102
RTVSPropertyOp0
 70
     1
102
RTVSPropertyOp1
 70
     1
102
RTVSPropertyOp2
 70
     1
102
RTVSPropertyOp3
 70
     1
102
RTVSPropertyOp4
 70
     1
102
RTVSPropertyOp5
 70
     1
102
RTVSPropertyOp6
 70
     1
102
RTVSPropertyOp7
 70
     1
102
RTVSPropertyOp8
 70
     1
102
RTVSPropertyOp9
 70
     1
102
RTVSPropertyOp10
 70
     1
102
RTVSPropertyOp11
 70
     1
102
RTVSPropertyOp12
 70
     1
102
RTVSPropertyOp13
 70
     1
102
RTVSPropertyOp14
 70
     1
102
RTVSPropertyOp15
 70
     1
102
RTVSPropertyOp16
 70
     1
102
RTVSPropertyOp17
 70
     1
102
RTVSPropertyOp18
 70
     1
102
RTVSPropertyOp19
 70
     1
102
RTVSPropertyOp20
 70
     1
102
RTVSPropertyOp21
 70
     1
102
RTVSPropertyOp22
 70
     1
102
RTVSPropertyOp23
 70
     1
102
RTVSPropertyOp24
 70
     1
102
RTVSPropertyOp25
 70
     1
102
RTVSPropertyOp26
 70
     1
102
RTVSPropertyOp27
 70
     1
  0
XRECORD
  5
1EF
102
{ACAD_REACTORS
330
1EE
102
}
330
1EE
100
AcDbXrecord
280
     1
102
RTVSPropertyOp0
 70
     1
102
RTVSPropertyOp1
 70
     1
102
RTVSPropertyOp2
 70
     1
102
RTVSPropertyOp3
 70
     1
102
RTVSPropertyOp4
 70
     1
102
RTVSPropertyOp5
 70
     1
102
RTVSPropertyOp6
 70
     1
102
RTVSPropertyOp7
 70
     1
102
RTVSPropertyOp8
 70
     1
102
RTVSPropertyOp9
 70
     1
102
RTVSPropertyOp10
 70
     1
102
RTVSPropertyOp11
 70
     1
102
RTVSPropertyOp12
 70
     1
102
RTVSPropertyOp13
 70
     1
102
RTVSPropertyOp14
 70
     1
102
RTVSPropertyOp15
 70
     1
102
RTVSPropertyOp16
 70
     1
102
RTVSPropertyOp17
 70
     1
102
RTVSPropertyOp18
 70
     1
102
RTVSPropertyOp19
 70
     1
102
RTVSPropertyOp20
 70
     1
102
RTVSPropertyOp21
 70
     1
102
RTVSPropertyOp22
 70
     1
102
RTVSPropertyOp23
 70
     1
102
RTVSPropertyOp24
 70
     1
102
RTVSPropertyOp25
 70
     1
102
RTVSPropertyOp26
 70
     1
102
RTVSPropertyOp27
 70
     1
  0
XRECORD
  5
1F1
102
{ACAD_REACTORS
330
1F0
102
}
330
1F0
100
AcDbXrecord
280
     1
102
RTVSPropertyOp0
 70
     1
102
RTVSPropertyOp1
 70
     1
102
RTVSPropertyOp2
 70
     1
102
RTVSPropertyOp3
 70
     1
102
RTVSPropertyOp4
 70
     1
102
RTVSPropertyOp5
 70
     1
102
RTVSPropertyOp6
 70
     1
102
RTVSPropertyOp7
 70
     1
102
RTVSPropertyOp8
 70
     1
102
RTVSPropertyOp9
 70
     1
102
RTVSPropertyOp10
 70
     1
102
RTVSPropertyOp11
 70
     1
102
RTVSPropertyOp12
 70
     1
102
RTVSPropertyOp13
 70
     1
102
RTVSPropertyOp14
 70
     1
102
RTVSPropertyOp15
 70
     1
102
RTVSPropertyOp16
 70
     1
102
RTVSPropertyOp17
 70
     1
102
RTVSPropertyOp18
 70
     1
102
RTVSPropertyOp19
 70
     1
102
RTVSPropertyOp20
 70
     1
102
RTVSPropertyOp21
 70
     1
102
RTVSPropertyOp22
 70
     1
102
RTVSPropertyOp23
 70
     1
102
RTVSPropertyOp24
 70
     1
102
RTVSPropertyOp25
 70
     1
102
RTVSPropertyOp26
 70
     1
102
RTVSPropertyOp27
 70
     1
  0
XRECORD
  5
1F9
102
{ACAD_REACTORS
330
1F8
102
}
330
1F8
100
AcDbXrecord
280
     1
102
RTVSPropertyOp0
 70
     1
102
RTVSPropertyOp1
 70
     1
102
RTVSPropertyOp2
 70
     1
102
RTVSPropertyOp3
 70
     1
102
RTVSPropertyOp4
 70
     1
102
RTVSPropertyOp5
 70
     1
102
RTVSPropertyOp6
 70
     1
102
RTVSPropertyOp7
 70
     1
102
RTVSPropertyOp8
 70
     1
102
RTVSPropertyOp9
 70
     1
102
RTVSPropertyOp10
 70
     1
102
RTVSPropertyOp11
 70
     1
102
RTVSPropertyOp12
 70
     1
102
RTVSPropertyOp13
 70
     1
102
RTVSPropertyOp14
 70
     1
102
RTVSPropertyOp15
 70
     1
102
RTVSPropertyOp16
 70
     1
102
RTVSPropertyOp17
 70
     1
102
RTVSPropertyOp18
 70
     1
102
RTVSPropertyOp19
 70
     1
102
RTVSPropertyOp20
 70
     1
102
RTVSPropertyOp21
 70
     1
102
RTVSPropertyOp22
 70
     1
102
RTVSPropertyOp23
 70
     1
102
RTVSPropertyOp24
 70
     1
102
RTVSPropertyOp25
 70
     1
102
RTVSPropertyOp26
 70
     1
102
RTVSPropertyOp27
 70
     1
  0
XRECORD
  5
1DD
102
{ACAD_REACTORS
330
1DC
102
}
330
1DC
100
AcDbXrecord
280
     1
102
RTVSPropertyOp0
 70
     1
102
RTVSPropertyOp1
 70
     1
102
RTVSPropertyOp2
 70
     1
102
RTVSPropertyOp3
 70
     1
102
RTVSPropertyOp4
 70
     1
102
RTVSPropertyOp5
 70
     1
102
RTVSPropertyOp6
 70
     1
102
RTVSPropertyOp7
 70
     1
102
RTVSPropertyOp8
 70
     1
102
RTVSPropertyOp9
 70
     1
102
RTVSPropertyOp10
 70
     1
102
RTVSPropertyOp11
 70
     1
102
RTVSPropertyOp12
 70
     1
102
RTVSPropertyOp13
 70
     1
102
RTVSPropertyOp14
 70
     1
102
RTVSPropertyOp15
 70
     1
102
RTVSPropertyOp16
 70
     1
102
RTVSPropertyOp17
 70
     1
102
RTVSPropertyOp18
 70
     1
102
RTVSPropertyOp19
 70
     1
102
RTVSPropertyOp20
 70
     1
102
RTVSPropertyOp21
 70
     1
102
RTVSPropertyOp22
 70
     1
102
RTVSPropertyOp23
 70
     1
102
RTVSPropertyOp24
 70
     1
102
RTVSPropertyOp25
 70
     1
102
RTVSPropertyOp26
 70
     1
102
RTVSPropertyOp27
 70
     1
  0
XRECORD
  5
1DF
102
{ACAD_REACTORS
330
1DE
102
}
330
1DE
100
AcDbXrecord
280
     1
102
RTVSPropertyOp0
 70
     1
102
RTVSPropertyOp1
 70
     1
102
RTVSPropertyOp2
 70
     1
102
RTVSPropertyOp3
 70
     1
102
RTVSPropertyOp4
 70
     1
102
RTVSPropertyOp5
 70
     1
102
RTVSPropertyOp6
 70
     1
102
RTVSPropertyOp7
 70
     1
102
RTVSPropertyOp8
 70
     1
102
RTVSPropertyOp9
 70
     1
102
RTVSPropertyOp10
 70
     1
102
RTVSPropertyOp11
 70
     1
102
RTVSPropertyOp12
 70
     1
102
RTVSPropertyOp13
 70
     1
102
RTVSPropertyOp14
 70
     1
102
RTVSPropertyOp15
 70
     1
102
RTVSPropertyOp16
 70
     1
102
RTVSPropertyOp17
 70
     1
102
RTVSPropertyOp18
 70
     1
102
RTVSPropertyOp19
 70
     1
102
RTVSPropertyOp20
 70
     1
102
RTVSPropertyOp21
 70
     1
102
RTVSPropertyOp22
 70
     1
102
RTVSPropertyOp23
 70
     1
102
RTVSPropertyOp24
 70
     1
102
RTVSPropertyOp25
 70
     1
102
RTVSPropertyOp26
 70
     1
102
RTVSPropertyOp27
 70
     1
  0
XRECORD
  5
1E1
102
{ACAD_REACTORS
330
1E0
102
}
330
1E0
100
AcDbXrecord
280
     1
102
RTVSPropertyOp0
 70
     1
102
RTVSPropertyOp1
 70
     1
102
RTVSPropertyOp2
 70
     1
102
RTVSPropertyOp3
 70
     1
102
RTVSPropertyOp4
 70
     1
102
RTVSPropertyOp5
 70
     1
102
RTVSPropertyOp6
 70
     1
102
RTVSPropertyOp7
 70
     1
102
RTVSPropertyOp8
 70
     1
102
RTVSPropertyOp9
 70
     1
102
RTVSPropertyOp10
 70
     1
102
RTVSPropertyOp11
 70
     1
102
RTVSPropertyOp12
 70
     1
102
RTVSPropertyOp13
 70
     1
102
RTVSPropertyOp14
 70
     1
102
RTVSPropertyOp15
 70
     1
102
RTVSPropertyOp16
 70
     1
102
RTVSPropertyOp17
 70
     1
102
RTVSPropertyOp18
 70
     1
102
RTVSPropertyOp19
 70
     1
102
RTVSPropertyOp20
 70
     1
102
RTVSPropertyOp21
 70
     1
102
RTVSPropertyOp22
 70
     1
102
RTVSPropertyOp23
 70
     1
102
RTVSPropertyOp24
 70
     1
102
RTVSPropertyOp25
 70
     1
102
RTVSPropertyOp26
 70
     1
102
RTVSPropertyOp27
 70
     1
  0
XRECORD
  5
1E3
102
{ACAD_REACTORS
330
1E2
102
}
330
1E2
100
AcDbXrecord
280
     1
102
RTVSPropertyOp0
 70
     1
102
RTVSPropertyOp1
 70
     1
102
RTVSPropertyOp2
 70
     1
102
RTVSPropertyOp3
 70
     1
102
RTVSPropertyOp4
 70
     1
102
RTVSPropertyOp5
 70
     1
102
RTVSPropertyOp6
 70
     1
102
RTVSPropertyOp7
 70
     1
102
RTVSPropertyOp8
 70
     1
102
RTVSPropertyOp9
 70
     1
102
RTVSPropertyOp10
 70
     1
102
RTVSPropertyOp11
 70
     1
102
RTVSPropertyOp12
 70
     1
102
RTVSPropertyOp13
 70
     1
102
RTVSPropertyOp14
 70
     1
102
RTVSPropertyOp15
 70
     1
102
RTVSPropertyOp16
 70
     1
102
RTVSPropertyOp17
 70
     1
102
RTVSPropertyOp18
 70
     1
102
RTVSPropertyOp19
 70
     1
102
RTVSPropertyOp20
 70
     1
102
RTVSPropertyOp21
 70
     1
102
RTVSPropertyOp22
 70
     1
102
RTVSPropertyOp23
 70
     1
102
RTVSPropertyOp24
 70
     1
102
RTVSPropertyOp25
 70
     1
102
RTVSPropertyOp26
 70
     1
102
RTVSPropertyOp27
 70
     1
  0
XRECORD
  5
1F7
102
{ACAD_REACTORS
330
1F6
102
}
330
1F6
100
AcDbXrecord
280
     1
102
RTVSPropertyOp0
 70
     1
102
RTVSPropertyOp1
 70
     1
102
RTVSPropertyOp2
 70
     1
102
RTVSPropertyOp3
 70
     1
102
RTVSPropertyOp4
 70
     1
102
RTVSPropertyOp5
 70
     1
102
RTVSPropertyOp6
 70
     1
102
RTVSPropertyOp7
 70
     1
102
RTVSPropertyOp8
 70
     1
102
RTVSPropertyOp9
 70
     1
102
RTVSPropertyOp10
 70
     1
102
RTVSPropertyOp11
 70
     1
102
RTVSPropertyOp12
 70
     1
102
RTVSPropertyOp13
 70
     1
102
RTVSPropertyOp14
 70
     1
102
RTVSPropertyOp15
 70
     1
102
RTVSPropertyOp16
 70
     1
102
RTVSPropertyOp17
 70
     1
102
RTVSPropertyOp18
 70
     1
102
RTVSPropertyOp19
 70
     1
102
RTVSPropertyOp20
 70
     1
102
RTVSPropertyOp21
 70
     1
102
RTVSPropertyOp22
 70
     1
102
RTVSPropertyOp23
 70
     1
102
RTVSPropertyOp24
 70
     1
102
RTVSPropertyOp25
 70
     1
102
RTVSPropertyOp26
 70
     1
102
RTVSPropertyOp27
 70
     1
  0
XRECORD
  5
1ED
102
{ACAD_REACTORS
330
1EC
102
}
330
1EC
100
AcDbXrecord
280
     1
102
RTVSPropertyOp0
 70
     1
102
RTVSPropertyOp1
 70
     1
102
RTVSPropertyOp2
 70
     1
102
RTVSPropertyOp3
 70
     1
102
RTVSPropertyOp4
 70
     1
102
RTVSPropertyOp5
 70
     1
102
RTVSPropertyOp6
 70
     1
102
RTVSPropertyOp7
 70
     1
102
RTVSPropertyOp8
 70
     1
102
RTVSPropertyOp9
 70
     1
102
RTVSPropertyOp10
 70
     1
102
RTVSPropertyOp11
 70
     1
102
RTVSPropertyOp12
 70
     1
102
RTVSPropertyOp13
 70
     1
102
RTVSPropertyOp14
 70
     1
102
RTVSPropertyOp15
 70
     1
102
RTVSPropertyOp16
 70
     1
102
RTVSPropertyOp17
 70
     1
102
RTVSPropertyOp18
 70
     1
102
RTVSPropertyOp19
 70
     1
102
RTVSPropertyOp20
 70
     1
102
RTVSPropertyOp21
 70
     1
102
RTVSPropertyOp22
 70
     1
102
RTVSPropertyOp23
 70
     1
102
RTVSPropertyOp24
 70
     1
102
RTVSPropertyOp25
 70
     1
102
RTVSPropertyOp26
 70
     1
102
RTVSPropertyOp27
 70
     1
  0
XRECORD
  5
1F5
102
{ACAD_REACTORS
330
1F4
102
}
330
1F4
100
AcDbXrecord
280
     1
102
RTVSPropertyOp0
 70
     1
102
RTVSPropertyOp1
 70
     1
102
RTVSPropertyOp2
 70
     1
102
RTVSPropertyOp3
 70
     1
102
RTVSPropertyOp4
 70
     1
102
RTVSPropertyOp5
 70
     1
102
RTVSPropertyOp6
 70
     1
102
RTVSPropertyOp7
 70
     1
102
RTVSPropertyOp8
 70
     1
102
RTVSPropertyOp9
 70
     1
102
RTVSPropertyOp10
 70
     1
102
RTVSPropertyOp11
 70
     1
102
RTVSPropertyOp12
 70
     1
102
RTVSPropertyOp13
 70
     1
102
RTVSPropertyOp14
 70
     1
102
RTVSPropertyOp15
 70
     1
102
RTVSPropertyOp16
 70
     1
102
RTVSPropertyOp17
 70
     1
102
RTVSPropertyOp18
 70
     1
102
RTVSPropertyOp19
 70
     1
102
RTVSPropertyOp20
 70
     1
102
RTVSPropertyOp21
 70
     1
102
RTVSPropertyOp22
 70
     1
102
RTVSPropertyOp23
 70
     1
102
RTVSPropertyOp24
 70
     1
102
RTVSPropertyOp25
 70
     1
102
RTVSPropertyOp26
 70
     1
102
RTVSPropertyOp27
 70
     1
  0
ENDSEC
  0
EOF
