  0
SECTION
  2
HEADER
  9
$ACADVER
  1
AC1015
  9
$ACADMAINTVER
 70
     6
  9
$DWGCODEPAGE
  3
ANSI_1252
  9
$INSBASE
 10
0.0
 20
0.0
 30
0.0
  9
$EXTMIN
 10
-0.0000000000000108
 20
-0.0000000000000054
 30
0.0
  9
$EXTMAX
 10
31.79999999999999
 20
23.82
 30
0.0
  9
$LIMMIN
 10
0.0
 20
0.0
  9
$LIMMAX
 10
40.48
 20
62.0
  9
$ORTHOMODE
 70
     0
  9
$REGENMODE
 70
     1
  9
$FILLMODE
 70
     1
  9
$QTEXTMODE
 70
     0
  9
$MIRRTEXT
 70
     0
  9
$LTSCALE
 40
0.75
  9
$ATTMODE
 70
     1
  9
$TEXTSIZE
 40
0.375
  9
$TRACEWID
 40
0.05
  9
$TEXTSTYLE
  7
TXT
  9
$CLAYER
  8
TEXT
  9
$CELTYPE
  6
ByLayer
  9
$CECOLOR
 62
   256
  9
$CELTSCALE
 40
1.0
  9
$DISPSILH
 70
     0
  9
$DIMSCALE
 40
3.0
  9
$DIMASZ
 40
0.18
  9
$DIMEXO
 40
0.063
  9
$DIMDLI
 40
0.281
  9
$DIMRND
 40
0.0
  9
$DIMDLE
 40
0.0
  9
$DIMEXE
 40
0.093
  9
$DIMTP
 40
0.0
  9
$DIMTM
 40
0.0
  9
$DIMTXT
 40
0.125
  9
$DIMCEN
 40
0.09
  9
$DIMTSZ
 40
0.0
  9
$DIMTOL
 70
     0
  9
$DIMLIM
 70
     0
  9
$DIMTIH
 70
     1
  9
$DIMTOH
 70
     1
  9
$DIMSE1
 70
     0
  9
$DIMSE2
 70
     0
  9
$DIMTAD
 70
     0
  9
$DIMZIN
 70
     0
  9
$DIMBLK
  1

  9
$DIMASO
 70
     1
  9
$DIMSHO
 70
     1
  9
$DIMPOST
  1

  9
$DIMAPOST
  1

  9
$DIMALT
 70
     1
  9
$DIMALTD
 70
     1
  9
$DIMALTF
 40
25.4
  9
$DIMLFAC
 40
1.0
  9
$DIMTOFL
 70
     0
  9
$DIMTVP
 40
0.0
  9
$DIMTIX
 70
     0
  9
$DIMSOXD
 70
     0
  9
$DIMSAH
 70
     0
  9
$DIMBLK1
  1

  9
$DIMBLK2
  1

  9
$DIMSTYLE
  2
23NSTD
  9
$DIMCLRD
 70
     0
  9
$DIMCLRE
 70
     0
  9
$DIMCLRT
 70
     0
  9
$DIMTFAC
 40
1.0
  9
$DIMGAP
 40
0.09
  9
$DIMJUST
 70
     0
  9
$DIMSD1
 70
     0
  9
$DIMSD2
 70
     0
  9
$DIMTOLJ
 70
     1
  9
$DIMTZIN
 70
     0
  9
$DIMALTZ
 70
     0
  9
$DIMALTTZ
 70
     0
  9
$DIMUPT
 70
     0
  9
$DIMDEC
 70
     2
  9
$DIMTDEC
 70
     2
  9
$DIMALTU
 70
     2
  9
$DIMALTTD
 70
     1
  9
$DIMTXSTY
  7
TXT
  9
$DIMAUNIT
 70
     0
  9
$DIMADEC
 70
     0
  9
$DIMALTRND
 40
0.0
  9
$DIMAZIN
 70
     0
  9
$DIMDSEP
 70
    46
  9
$DIMATFIT
 70
     1
  9
$DIMFRAC
 70
     0
  9
$DIMLDRBLK
  1

  9
$DIMLUNIT
 70
     2
  9
$DIMLWD
 70
    -2
  9
$DIMLWE
 70
    -2
  9
$DIMTMOVE
 70
     0
  9
$LUNITS
 70
     2
  9
$LUPREC
 70
     3
  9
$SKETCHINC
 40
0.1
  9
$FILLETRAD
 40
0.0
  9
$AUNITS
 70
     0
  9
$AUPREC
 70
     0
  9
$MENU
  1
acad
  9
$ELEVATION
 40
0.0
  9
$PELEVATION
 40
0.0
  9
$THICKNESS
 40
0.0
  9
$LIMCHECK
 70
     0
  9
$CHAMFERA
 40
0.0
  9
$CHAMFERB
 40
0.0
  9
$CHAMFERC
 40
0.0
  9
$CHAMFERD
 40
0.0
  9
$SKPOLY
 70
     0
  9
$TDCREATE
 40
2450365.477886689
  9
$TDUCREATE
 40
2450365.644553356
  9
$TDUPDATE
 40
2456500.349088171
  9
$TDUUPDATE
 40
2456500.515754838
  9
$TDINDWG
 40
0.1677688542
  9
$TDUSRTIMER
 40
0.1677684954
  9
$USRTIMER
 70
     1
  9
$ANGBASE
 50
0.0
  9
$ANGDIR
 70
     0
  9
$PDMODE
 70
     0
  9
$PDSIZE
 40
0.0
  9
$PLINEWID
 40
0.0
  9
$SPLFRAME
 70
     0
  9
$SPLINETYPE
 70
     6
  9
$SPLINESEGS
 70
     8
  9
$HANDSEED
  5
885
  9
$SURFTAB1
 70
     6
  9
$SURFTAB2
 70
     6
  9
$SURFTYPE
 70
     6
  9
$SURFU
 70
     6
  9
$SURFV
 70
     6
  9
$UCSBASE
  2

  9
$UCSNAME
  2

  9
$UCSORG
 10
0.0
 20
0.0
 30
0.0
  9
$UCSXDIR
 10
1.0
 20
0.0
 30
0.0
  9
$UCSYDIR
 10
0.0
 20
1.0
 30
0.0
  9
$UCSORTHOREF
  2

  9
$UCSORTHOVIEW
 70
     0
  9
$UCSORGTOP
 10
0.0
 20
0.0
 30
0.0
  9
$UCSORGBOTTOM
 10
0.0
 20
0.0
 30
0.0
  9
$UCSORGLEFT
 10
0.0
 20
0.0
 30
0.0
  9
$UCSORGRIGHT
 10
0.0
 20
0.0
 30
0.0
  9
$UCSORGFRONT
 10
0.0
 20
0.0
 30
0.0
  9
$UCSORGBACK
 10
0.0
 20
0.0
 30
0.0
  9
$PUCSBASE
  2

  9
$PUCSNAME
  2

  9
$PUCSORG
 10
0.0
 20
0.0
 30
0.0
  9
$PUCSXDIR
 10
1.0
 20
0.0
 30
0.0
  9
$PUCSYDIR
 10
0.0
 20
1.0
 30
0.0
  9
$PUCSORTHOREF
  2

  9
$PUCSORTHOVIEW
 70
     0
  9
$PUCSORGTOP
 10
0.0
 20
0.0
 30
0.0
  9
$PUCSORGBOTTOM
 10
0.0
 20
0.0
 30
0.0
  9
$PUCSORGLEFT
 10
0.0
 20
0.0
 30
0.0
  9
$PUCSORGRIGHT
 10
0.0
 20
0.0
 30
0.0
  9
$PUCSORGFRONT
 10
0.0
 20
0.0
 30
0.0
  9
$PUCSORGBACK
 10
0.0
 20
0.0
 30
0.0
  9
$USERI1
 70
     0
  9
$USERI2
 70
     0
  9
$USERI3
 70
     0
  9
$USERI4
 70
     0
  9
$USERI5
 70
     0
  9
$USERR1
 40
0.0
  9
$USERR2
 40
0.0
  9
$USERR3
 40
0.0
  9
$USERR4
 40
0.0
  9
$USERR5
 40
0.0
  9
$WORLDVIEW
 70
     1
  9
$SHADEDGE
 70
     3
  9
$SHADEDIF
 70
    70
  9
$TILEMODE
 70
     1
  9
$MAXACTVP
 70
    16
  9
$PINSBASE
 10
0.0
 20
0.0
 30
0.0
  9
$PLIMCHECK
 70
     0
  9
$PEXTMIN
 10
1.000000000000000E+20
 20
1.000000000000000E+20
 30
1.000000000000000E+20
  9
$PEXTMAX
 10
-1.000000000000000E+20
 20
-1.000000000000000E+20
 30
-1.000000000000000E+20
  9
$PLIMMIN
 10
0.0
 20
0.0
  9
$PLIMMAX
 10
12.0
 20
9.0
  9
$UNITMODE
 70
     0
  9
$VISRETAIN
 70
     0
  9
$PLINEGEN
 70
     0
  9
$PSLTSCALE
 70
     1
  9
$TREEDEPTH
 70
  3020
  9
$CMLSTYLE
  2
Standard
  9
$CMLJUST
 70
     0
  9
$CMLSCALE
 40
1.0
  9
$PROXYGRAPHICS
 70
     1
  9
$MEASUREMENT
 70
     0
  9
$CELWEIGHT
370
    -1
  9
$ENDCAPS
280
     0
  9
$JOINSTYLE
280
     0
  9
$LWDISPLAY
290
     0
  9
$INSUNITS
 70
     0
  9
$HYPERLINKBASE
  1

  9
$STYLESHEET
  1
monochrome.ctb
  9
$XEDIT
290
     1
  9
$CEPSNTYPE
380
     0
  9
$PSTYLEMODE
290
     1
  9
$FINGERPRINTGUID
  2
{964A1FF5-1798-4185-97CA-07A1E34202D3}
  9
$VERSIONGUID
  2
{BAB0C9EB-4036-4ACA-930B-82F505F4424D}
  9
$EXTNAMES
290
     1
  9
$PSVPSCALE
 40
0.0
  9
$OLESTARTUP
290
     0
  0
ENDSEC
  0
SECTION
  2
CLASSES
  0
CLASS
  1
ACDBDICTIONARYWDFLT
  2
AcDbDictionaryWithDefault
  3
AutoCAD 2000
 90
        0
280
     0
281
     0
  0
CLASS
  1
ACDBPLACEHOLDER
  2
AcDbPlaceHolder
  3
AutoCAD 2000
 90
        0
280
     0
281
     0
  0
CLASS
  1
LAYOUT
  2
AcDbLayout
  3
AutoCAD 2000
 90
        0
280
     0
281
     0
  0
ENDSEC
  0
SECTION
  2
TABLES
  0
TABLE
  2
VPORT
  5
8
330
0
100
AcDbSymbolTable
 70
     2
  0
VPORT
  5
884
330
8
100
AcDbSymbolTableRecord
100
AcDbViewportTableRecord
  2
*Active
 70
     0
 10
0.0
 20
0.0
 11
1.0
 21
1.0
 12
15.90007768633397
 22
11.90965023810333
 13
0.0
 23
0.0
 14
1.0
 24
1.0
 15
0.0
 25
0.0
 16
0.0
 26
0.0
 36
1.0
 17
0.0
 27
0.0
 37
0.0
 40
24.06673617605603
 41
1.836974789915966
 42
50.0
 43
0.0
 44
0.0
 50
0.0
 51
0.0
 71
     0
 72
   500
 73
     1
 74
     0
 75
     0
 76
     0
 77
     0
 78
     0
281
     0
 65
     1
110
0.0
120
0.0
130
0.0
111
1.0
121
0.0
131
0.0
112
0.0
122
1.0
132
0.0
 79
     0
146
0.0
  0
ENDTAB
  0
TABLE
  2
LTYPE
  5
5
330
0
100
AcDbSymbolTable
 70
     6
  0
LTYPE
  5
13
330
5
100
AcDbSymbolTableRecord
100
AcDbLinetypeTableRecord
  2
ByBlock
 70
     0
  3

 72
    65
 73
     0
 40
0.0
  0
LTYPE
  5
14
330
5
100
AcDbSymbolTableRecord
100
AcDbLinetypeTableRecord
  2
ByLayer
 70
     0
  3

 72
    65
 73
     0
 40
0.0
  0
LTYPE
  5
15
330
5
100
AcDbSymbolTableRecord
100
AcDbLinetypeTableRecord
  2
CONTINUOUS
 70
     0
  3
Solid line
 72
    65
 73
     0
 40
0.0
  0
LTYPE
  5
25
330
5
100
AcDbSymbolTableRecord
100
AcDbLinetypeTableRecord
  2
HIDDEN
 70
     0
  3
_ _ _ _ _ _ _ _ _ _ _ _ _ _ _ _ _ _ _ _ _ _ _
 72
    65
 73
     2
 40
0.375
 49
0.25
 74
     0
 49
-0.125
 74
     0
  0
LTYPE
  5
26
330
5
100
AcDbSymbolTableRecord
100
AcDbLinetypeTableRecord
  2
PHANTOM
 70
     0
  3
_____ _ _ _____ _ _ _____ _ _ _____ _ _ ____
 72
    65
 73
     6
 40
2.5
 49
1.25
 74
     0
 49
-0.25
 74
     0
 49
0.25
 74
     0
 49
-0.25
 74
     0
 49
0.25
 74
     0
 49
-0.25
 74
     0
  0
LTYPE
  5
27
330
5
100
AcDbSymbolTableRecord
100
AcDbLinetypeTableRecord
  2
CENTER
 70
     0
  3
____ _ ____ _ ____ _ ____ _ ____ _ ____ _ ____
 72
    65
 73
     4
 40
2.0
 49
1.25
 74
     0
 49
-0.25
 74
     0
 49
0.25
 74
     0
 49
-0.25
 74
     0
  0
LTYPE
  5
631
330
5
100
AcDbSymbolTableRecord
100
AcDbLinetypeTableRecord
  2
HIDDEN2
 70
     0
  3
_ _ _ _ _ _ _ _ _ _ _ _ _ _ _ _ _ _ _ _ _ _ _ _
 72
    65
 73
     2
 40
0.1875
 49
0.125
 74
     0
 49
-0.0625
 74
     0
  0
LTYPE
  5
632
330
5
100
AcDbSymbolTableRecord
100
AcDbLinetypeTableRecord
  2
PHANTOM2
 70
     0
  3
___ _ _ ___ _ _ ___ _ _ ___ _ _ ___ _ _ ___ _ _
 72
    65
 73
     6
 40
1.25
 49
0.625
 74
     0
 49
-0.125
 74
     0
 49
0.125
 74
     0
 49
-0.125
 74
     0
 49
0.125
 74
     0
 49
-0.125
 74
     0
  0
ENDTAB
  0
TABLE
  2
LAYER
  5
2
330
0
100
AcDbSymbolTable
 70
     9
  0
LAYER
  5
10
330
2
100
AcDbSymbolTableRecord
100
AcDbLayerTableRecord
  2
0
 70
     0
 62
     7
  6
CONTINUOUS
370
    -3
390
F
  0
LAYER
  5
22
330
2
100
AcDbSymbolTableRecord
100
AcDbLayerTableRecord
  2
TEXT
 70
     0
 62
     7
  6
CONTINUOUS
370
    -3
390
F
  0
LAYER
  5
28
330
2
100
AcDbSymbolTableRecord
100
AcDbLayerTableRecord
  2
OBJECT
 70
     0
 62
     7
  6
CONTINUOUS
370
    -3
390
F
  0
LAYER
  5
29
330
2
100
AcDbSymbolTableRecord
100
AcDbLayerTableRecord
  2
DIM
 70
     0
 62
     7
  6
CONTINUOUS
370
    -3
390
F
  0
LAYER
  5
2A
330
2
100
AcDbSymbolTableRecord
100
AcDbLayerTableRecord
  2
HIDDEN
 70
     0
 62
     7
  6
HIDDEN
370
    -3
390
F
  0
LAYER
  5
2B
330
2
100
AcDbSymbolTableRecord
100
AcDbLayerTableRecord
  2
BEND
 70
     0
 62
     7
  6
PHANTOM
370
    -3
390
F
  0
LAYER
  5
2C
330
2
100
AcDbSymbolTableRecord
100
AcDbLayerTableRecord
  2
TITLE
 70
     0
 62
     7
  6
CONTINUOUS
370
    -3
390
F
  0
LAYER
  5
2D
330
2
100
AcDbSymbolTableRecord
100
AcDbLayerTableRecord
  2
CENTER
 70
     0
 62
     7
  6
CENTER
370
    -3
390
F
  0
LAYER
  5
2E
330
2
100
AcDbSymbolTableRecord
100
AcDbLayerTableRecord
  2
DEFPOINTS
 70
     0
 62
     7
  6
CONTINUOUS
290
     0
370
    -3
390
F
  0
ENDTAB
  0
TABLE
  2
STYLE
  5
3
330
0
100
AcDbSymbolTable
 70
     2
  0
STYLE
  5
11
330
3
100
AcDbSymbolTableRecord
100
AcDbTextStyleTableRecord
  2
STANDARD
 70
     0
 40
0.0
 41
1.0
 50
0.0
 71
     0
 42
0.2
  3
txt
  4

  0
STYLE
  5
23
330
3
100
AcDbSymbolTableRecord
100
AcDbTextStyleTableRecord
  2
TXT
 70
     0
 40
0.0
 41
0.75
 50
0.0
 71
     0
 42
0.375
  3
TXT.shx
  4

  0
ENDTAB
  0
TABLE
  2
VIEW
  5
6
330
0
100
AcDbSymbolTable
 70
     0
  0
ENDTAB
  0
TABLE
  2
UCS
  5
7
330
0
100
AcDbSymbolTable
 70
     0
  0
ENDTAB
  0
TABLE
  2
APPID
  5
9
330
0
100
AcDbSymbolTable
 70
     3
  0
APPID
  5
12
330
9
100
AcDbSymbolTableRecord
100
AcDbRegAppTableRecord
  2
ACAD
 70
     0
  0
APPID
  5
633
330
9
100
AcDbSymbolTableRecord
100
AcDbRegAppTableRecord
  2
MCAD_NO_VIS
 70
     0
  0
APPID
  5
634
330
9
100
AcDbSymbolTableRecord
100
AcDbRegAppTableRecord
  2
AD_SKETCHDIM
 70
     0
  0
ENDTAB
  0
TABLE
  2
DIMSTYLE
  5
A
330
0
100
AcDbSymbolTable
 70
     2
100
AcDbDimStyleTable
 71
     2
340
30
340
2F
  0
DIMSTYLE
105
2F
102
{ACAD_REACTORS
330
3BF
330
3CD
330
364
330
387
330
372
330
356
330
3B1
330
395
330
3A3
102
}
330
A
100
AcDbSymbolTableRecord
100
AcDbDimStyleTableRecord
  2
23NSTD
 70
     0
 40
3.0
 42
0.063
 43
0.281
 44
0.093
140
0.125
170
     1
171
     1
271
     2
272
     2
274
     1
289
     1
340
23
  0
DIMSTYLE
105
30
330
A
100
AcDbSymbolTableRecord
100
AcDbDimStyleTableRecord
  2
23NSTDI
 70
     0
 40
3.0
 42
0.063
 43
0.281
 44
0.093
140
0.125
170
     1
171
     1
174
     1
271
     2
272
     2
274
     1
340
23
  0
ENDTAB
  0
TABLE
  2
BLOCK_RECORD
  5
1
330
0
100
AcDbSymbolTable
 70
    10
  0
BLOCK_RECORD
  5
1E
330
1
100
AcDbSymbolTableRecord
100
AcDbBlockTableRecord
  2
*Model_Space
340
21
  0
BLOCK_RECORD
  5
1A
330
1
100
AcDbSymbolTableRecord
100
AcDbBlockTableRecord
  2
*Paper_Space
340
1D
  0
BLOCK_RECORD
  5
357
330
1
100
AcDbSymbolTableRecord
100
AcDbBlockTableRecord
  2
*D0
340
0
  0
BLOCK_RECORD
  5
365
330
1
100
AcDbSymbolTableRecord
100
AcDbBlockTableRecord
  2
*D1
340
0
  0
BLOCK_RECORD
  5
373
330
1
100
AcDbSymbolTableRecord
100
AcDbBlockTableRecord
  2
*D2
340
0
  0
BLOCK_RECORD
  5
388
330
1
100
AcDbSymbolTableRecord
100
AcDbBlockTableRecord
  2
*D3
340
0
  0
BLOCK_RECORD
  5
396
330
1
100
AcDbSymbolTableRecord
100
AcDbBlockTableRecord
  2
*D4
340
0
  0
BLOCK_RECORD
  5
3A4
330
1
100
AcDbSymbolTableRecord
100
AcDbBlockTableRecord
  2
*D5
340
0
  0
BLOCK_RECORD
  5
3B2
330
1
100
AcDbSymbolTableRecord
100
AcDbBlockTableRecord
  2
*D6
340
0
  0
BLOCK_RECORD
  5
3C0
330
1
100
AcDbSymbolTableRecord
100
AcDbBlockTableRecord
  2
*D7
340
0
  0
BLOCK_RECORD
  5
3CE
330
1
100
AcDbSymbolTableRecord
100
AcDbBlockTableRecord
  2
*D8
340
0
  0
BLOCK_RECORD
  5
635
330
1
100
AcDbSymbolTableRecord
100
AcDbBlockTableRecord
  2
HBA
340
0
102
{BLKREFS
331
64F
331
847
331
87D
102
}
  0
ENDTAB
  0
ENDSEC
  0
SECTION
  2
BLOCKS
  0
BLOCK
  5
1F
330
1E
100
AcDbEntity
  8
0
100
AcDbBlockBegin
  2
*Model_Space
 70
     0
 10
0.0
 20
0.0
 30
0.0
  3
*Model_Space
  1

  0
ENDBLK
  5
20
330
1E
100
AcDbEntity
  8
0
100
AcDbBlockEnd
  0
BLOCK
  5
1B
330
1A
100
AcDbEntity
 67
     1
  8
0
100
AcDbBlockBegin
  2
*Paper_Space
 70
     0
 10
0.0
 20
0.0
 30
0.0
  3
*Paper_Space
  1

  0
ENDBLK
  5
1C
330
1A
100
AcDbEntity
 67
     1
  8
0
100
AcDbBlockEnd
  0
BLOCK
  5
362
330
357
100
AcDbEntity
  8
0
100
AcDbBlockBegin
  2
*D0
 70
     1
 10
0.0
 20
0.0
 30
0.0
  3
*D0
  1

  0
LINE
  5
7E0
330
357
100
AcDbEntity
  8
DIM
 62
     0
370
    -2
100
AcDbLine
 10
26.85927527086842
 20
6.677886943203926
 30
0.0
 11
29.49260427086842
 21
6.677886943203926
 31
0.0
  0
LINE
  5
7E1
330
357
100
AcDbEntity
  8
DIM
 62
     0
370
    -2
100
AcDbLine
 10
28.01477527086841
 20
9.177886943203924
 30
0.0
 11
29.49260427086842
 21
9.177886943203924
 31
0.0
  0
LINE
  5
7E2
330
357
100
AcDbEntity
  8
DIM
 62
     0
370
    -2
100
AcDbLine
 10
29.21360427086842
 20
7.217886943203926
 30
0.0
 11
29.21360427086842
 21
7.470386943203926
 31
0.0
  0
LINE
  5
7E3
330
357
100
AcDbEntity
  8
DIM
 62
     0
370
    -2
100
AcDbLine
 10
29.21360427086842
 20
8.637886943203923
 30
0.0
 11
29.21360427086842
 21
8.385386943203924
 31
0.0
  0
SOLID
  5
7E4
330
357
100
AcDbEntity
  8
DIM
 62
     0
100
AcDbTrace
 10
29.12360427086841
 20
7.217886943203926
 30
0.0
 11
29.30360427086842
 21
7.217886943203926
 31
0.0
 12
29.21360427086842
 22
6.677886943203926
 32
0.0
 13
29.21360427086842
 23
6.677886943203926
 33
0.0
  0
SOLID
  5
7E5
330
357
100
AcDbEntity
  8
DIM
 62
     0
100
AcDbTrace
 10
29.12360427086842
 20
8.637886943203923
 30
0.0
 11
29.30360427086842
 21
8.637886943203923
 31
0.0
 12
29.21360427086842
 22
9.177886943203924
 32
0.0
 13
29.21360427086842
 23
9.177886943203924
 33
0.0
  0
MTEXT
  5
7E6
330
357
100
AcDbEntity
  8
DIM
 62
     0
100
AcDbMText
 10
29.21360427086842
 20
7.92788694320393
 30
0.0
 40
0.375
 41
0.0
 71
     5
 72
     1
  1
\A1;2.50 [63.5]
  7
TXT
 73
     1
 44
1.0
  0
POINT
  5
7E7
330
357
100
AcDbEntity
  8
DEFPOINTS
 62
     0
100
AcDbPoint
 10
26.67027527086842
 20
6.677886943203926
 30
0.0
  0
POINT
  5
7E8
330
357
100
AcDbEntity
  8
DEFPOINTS
 62
     0
100
AcDbPoint
 10
27.82577527086842
 20
9.177886943203926
 30
0.0
  0
POINT
  5
7E9
330
357
100
AcDbEntity
  8
DEFPOINTS
 62
     0
100
AcDbPoint
 10
29.21360427086842
 20
9.177886943203924
 30
0.0
  0
ENDBLK
  5
363
330
357
100
AcDbEntity
  8
0
100
AcDbBlockEnd
  0
BLOCK
  5
370
330
365
100
AcDbEntity
  8
0
100
AcDbBlockBegin
  2
*D1
 70
     1
 10
0.0
 20
0.0
 30
0.0
  3
*D1
  1

  0
LINE
  5
7C0
330
365
100
AcDbEntity
  8
DIM
 62
     0
370
    -2
100
AcDbLine
 10
27.60877527086842
 20
13.14288594320393
 30
0.0
 11
28.91372027086842
 21
13.14288594320392
 31
0.0
  0
LINE
  5
7C1
330
365
100
AcDbEntity
  8
DIM
 62
     0
370
    -2
100
AcDbLine
 10
27.60877527086842
 20
12.70488594320392
 30
0.0
 11
28.91372027086842
 21
12.70488594320392
 31
0.0
  0
LINE
  5
7C2
330
365
100
AcDbEntity
  8
DIM
 62
     0
370
    -2
100
AcDbLine
 10
28.63472027086842
 20
13.68288594320392
 30
0.0
 11
28.63472027086842
 21
14.22288594320392
 31
0.0
  0
LINE
  5
7C3
330
365
100
AcDbEntity
  8
DIM
 62
     0
370
    -2
100
AcDbLine
 10
28.63472027086842
 20
12.16488594320392
 30
0.0
 11
28.63472027086842
 21
11.62488594320392
 31
0.0
  0
LINE
  5
7C4
330
365
100
AcDbEntity
  8
DIM
 62
     0
370
    -2
100
AcDbLine
 10
28.63472027086842
 20
11.62488594320392
 30
0.0
 11
28.09472027086842
 21
11.62488594320392
 31
0.0
  0
SOLID
  5
7C5
330
365
100
AcDbEntity
  8
DIM
 62
     0
100
AcDbTrace
 10
28.54472027086842
 20
13.68288594320392
 30
0.0
 11
28.72472027086842
 21
13.68288594320392
 31
0.0
 12
28.63472027086842
 22
13.14288594320392
 32
0.0
 13
28.63472027086842
 23
13.14288594320392
 33
0.0
  0
SOLID
  5
7C6
330
365
100
AcDbEntity
  8
DIM
 62
     0
100
AcDbTrace
 10
28.54472027086842
 20
12.16488594320392
 30
0.0
 11
28.72472027086842
 21
12.16488594320392
 31
0.0
 12
28.63472027086842
 22
12.70488594320392
 32
0.0
 13
28.63472027086842
 23
12.70488594320392
 33
0.0
  0
MTEXT
  5
7C7
330
365
100
AcDbEntity
  8
DIM
 62
     0
100
AcDbMText
 10
26.77003277086841
 20
11.62488594320393
 30
0.0
 40
0.375
 41
0.0
 71
     5
 72
     1
  1
\A1;0.44 [11.1]
  7
TXT
 73
     1
 44
1.0
  0
POINT
  5
7C8
330
365
100
AcDbEntity
  8
DEFPOINTS
 62
     0
100
AcDbPoint
 10
27.41977527086842
 20
13.14288594320393
 30
0.0
  0
POINT
  5
7C9
330
365
100
AcDbEntity
  8
DEFPOINTS
 62
     0
100
AcDbPoint
 10
27.41977527086842
 20
12.70488594320392
 30
0.0
  0
POINT
  5
7CA
330
365
100
AcDbEntity
  8
DEFPOINTS
 62
     0
100
AcDbPoint
 10
28.63472027086842
 20
12.70488594320392
 30
0.0
  0
ENDBLK
  5
371
330
365
100
AcDbEntity
  8
0
100
AcDbBlockEnd
  0
BLOCK
  5
37E
330
373
100
AcDbEntity
  8
0
100
AcDbBlockBegin
  2
*D2
 70
     1
 10
0.0
 20
0.0
 30
0.0
  3
*D2
  1

  0
LINE
  5
7D6
330
373
100
AcDbEntity
  8
DIM
 62
     0
370
    -2
100
AcDbLine
 10
27.41977527086842
 20
7.632845943203925
 30
0.0
 11
27.41977527086842
 21
5.217586393717667
 31
0.0
  0
LINE
  5
7D7
330
373
100
AcDbEntity
  8
DIM
 62
     0
370
    -2
100
AcDbLine
 10
17.41977527086842
 20
7.632845943203925
 30
0.0
 11
17.41977527086842
 21
5.217586393717667
 31
0.0
  0
LINE
  5
7D8
330
373
100
AcDbEntity
  8
DIM
 62
     0
370
    -2
100
AcDbLine
 10
26.87977527086842
 20
5.496586393717667
 30
0.0
 11
24.04915027086842
 21
5.496586393717667
 31
0.0
  0
LINE
  5
7D9
330
373
100
AcDbEntity
  8
DIM
 62
     0
370
    -2
100
AcDbLine
 10
17.95977527086842
 20
5.496586393717667
 30
0.0
 11
20.79040027086842
 21
5.496586393717667
 31
0.0
  0
SOLID
  5
7DA
330
373
100
AcDbEntity
  8
DIM
 62
     0
100
AcDbTrace
 10
26.87977527086842
 20
5.586586393717666
 30
0.0
 11
26.87977527086842
 21
5.406586393717667
 31
0.0
 12
27.41977527086842
 22
5.496586393717667
 32
0.0
 13
27.41977527086842
 23
5.496586393717667
 33
0.0
  0
SOLID
  5
7DB
330
373
100
AcDbEntity
  8
DIM
 62
     0
100
AcDbTrace
 10
17.95977527086842
 20
5.586586393717666
 30
0.0
 11
17.95977527086842
 21
5.406586393717667
 31
0.0
 12
17.41977527086842
 22
5.496586393717667
 32
0.0
 13
17.41977527086842
 23
5.496586393717667
 33
0.0
  0
MTEXT
  5
7DC
330
373
100
AcDbEntity
  8
DIM
 62
     0
100
AcDbMText
 10
22.41977527086842
 20
5.496586393717667
 30
0.0
 40
0.375
 41
0.0
 71
     5
 72
     1
  1
\A1;10.00 [254.0]
  7
TXT
 73
     1
 44
1.0
  0
POINT
  5
7DD
330
373
100
AcDbEntity
  8
DEFPOINTS
 62
     0
100
AcDbPoint
 10
27.41977527086842
 20
7.821845943203925
 30
0.0
  0
POINT
  5
7DE
330
373
100
AcDbEntity
  8
DEFPOINTS
 62
     0
100
AcDbPoint
 10
17.41977527086842
 20
7.821845943203925
 30
0.0
  0
POINT
  5
7DF
330
373
100
AcDbEntity
  8
DEFPOINTS
 62
     0
100
AcDbPoint
 10
17.41977527086842
 20
5.496586393717667
 30
0.0
  0
ENDBLK
  5
37F
330
373
100
AcDbEntity
  8
0
100
AcDbBlockEnd
  0
BLOCK
  5
393
330
388
100
AcDbEntity
  8
0
100
AcDbBlockBegin
  2
*D3
 70
     1
 10
0.0
 20
0.0
 30
0.0
  3
*D3
  1

  0
LINE
  5
7CB
330
388
100
AcDbEntity
  8
DIM
 62
     0
370
    -2
100
AcDbLine
 10
23.73909427086842
 20
12.83038594320393
 30
0.0
 11
23.25165627086842
 21
12.83038594320393
 31
0.0
  0
LINE
  5
7CC
330
388
100
AcDbEntity
  8
DIM
 62
     0
370
    -2
100
AcDbLine
 10
23.73909427086842
 20
13.01738594320392
 30
0.0
 11
23.25165627086842
 21
13.01738594320392
 31
0.0
  0
LINE
  5
7CD
330
388
100
AcDbEntity
  8
DIM
 62
     0
370
    -2
100
AcDbLine
 10
23.53065627086842
 20
12.29038594320392
 30
0.0
 11
23.53065627086842
 21
11.75038594320392
 31
0.0
  0
LINE
  5
7CE
330
388
100
AcDbEntity
  8
DIM
 62
     0
370
    -2
100
AcDbLine
 10
23.53065627086842
 20
13.55738594320392
 30
0.0
 11
23.53065627086842
 21
14.09738594320392
 31
0.0
  0
LINE
  5
7CF
330
388
100
AcDbEntity
  8
DIM
 62
     0
370
    -2
100
AcDbLine
 10
23.53065627086842
 20
14.09738594320392
 30
0.0
 11
24.07065627086842
 21
14.09738594320392
 31
0.0
  0
SOLID
  5
7D0
330
388
100
AcDbEntity
  8
DIM
 62
     0
100
AcDbTrace
 10
23.44065627086842
 20
12.29038594320392
 30
0.0
 11
23.62065627086842
 21
12.29038594320392
 31
0.0
 12
23.53065627086842
 22
12.83038594320393
 32
0.0
 13
23.53065627086842
 23
12.83038594320393
 33
0.0
  0
SOLID
  5
7D1
330
388
100
AcDbEntity
  8
DIM
 62
     0
100
AcDbTrace
 10
23.44065627086842
 20
13.55738594320392
 30
0.0
 11
23.62065627086842
 21
13.55738594320392
 31
0.0
 12
23.53065627086842
 22
13.01738594320392
 32
0.0
 13
23.53065627086842
 23
13.01738594320392
 33
0.0
  0
MTEXT
  5
7D2
330
388
100
AcDbEntity
  8
DIM
 62
     0
100
AcDbMText
 10
25.91096877086842
 20
14.09738594320393
 30
0.0
 40
0.375
 41
0.0
 71
     5
 72
     1
  1
\A1;0.19 [4.7] DIA.
  7
TXT
 73
     1
 44
1.0
  0
POINT
  5
7D3
330
388
100
AcDbEntity
  8
DEFPOINTS
 62
     0
100
AcDbPoint
 10
23.92809427086842
 20
12.83038594320393
 30
0.0
  0
POINT
  5
7D4
330
388
100
AcDbEntity
  8
DEFPOINTS
 62
     0
100
AcDbPoint
 10
23.92809427086842
 20
13.01738594320392
 30
0.0
  0
POINT
  5
7D5
330
388
100
AcDbEntity
  8
DEFPOINTS
 62
     0
100
AcDbPoint
 10
23.53065627086842
 20
13.01738594320392
 30
0.0
  0
ENDBLK
  5
394
330
388
100
AcDbEntity
  8
0
100
AcDbBlockEnd
  0
BLOCK
  5
3A1
330
396
100
AcDbEntity
  8
0
100
AcDbBlockBegin
  2
*D4
 70
     1
 10
0.0
 20
0.0
 30
0.0
  3
*D4
  1

  0
LINE
  5
7F5
330
396
100
AcDbEntity
  8
DIM
 62
     0
370
    -2
100
AcDbLine
 10
6.012823199452233
 20
9.040408943203924
 30
0.0
 11
6.012823199452233
 21
10.33486394320392
 31
0.0
  0
LINE
  5
7F6
330
396
100
AcDbEntity
  8
DIM
 62
     0
370
    -2
100
AcDbLine
 10
6.824823199452234
 20
9.040408943203924
 30
0.0
 11
6.824823199452234
 21
10.33486394320392
 31
0.0
  0
LINE
  5
7F7
330
396
100
AcDbEntity
  8
DIM
 62
     0
370
    -2
100
AcDbLine
 10
5.472823199452233
 20
10.05586394320392
 30
0.0
 11
4.932823199452233
 21
10.05586394320392
 31
0.0
  0
LINE
  5
7F8
330
396
100
AcDbEntity
  8
DIM
 62
     0
370
    -2
100
AcDbLine
 10
7.364823199452234
 20
10.05586394320392
 30
0.0
 11
7.904823199452234
 21
10.05586394320392
 31
0.0
  0
SOLID
  5
7F9
330
396
100
AcDbEntity
  8
DIM
 62
     0
100
AcDbTrace
 10
5.472823199452233
 20
10.14586394320392
 30
0.0
 11
5.472823199452233
 21
9.965863943203927
 31
0.0
 12
6.012823199452233
 22
10.05586394320392
 32
0.0
 13
6.012823199452233
 23
10.05586394320392
 33
0.0
  0
SOLID
  5
7FA
330
396
100
AcDbEntity
  8
DIM
 62
     0
100
AcDbTrace
 10
7.364823199452234
 20
10.14586394320392
 30
0.0
 11
7.364823199452234
 21
9.965863943203927
 31
0.0
 12
6.824823199452234
 22
10.05586394320392
 32
0.0
 13
6.824823199452234
 23
10.05586394320392
 33
0.0
  0
MTEXT
  5
7FB
330
396
100
AcDbEntity
  8
DIM
 62
     0
100
AcDbMText
 10
9.862323199452234
 20
10.05586394320392
 30
0.0
 40
0.375
 41
0.0
 71
     5
 72
     1
  1
\A1;0.81 [20.6] DIA.
  7
TXT
 73
     1
 44
1.0
  0
POINT
  5
7FC
330
396
100
AcDbEntity
  8
DEFPOINTS
 62
     0
100
AcDbPoint
 10
6.012823199452233
 20
8.851408943203924
 30
0.0
  0
POINT
  5
7FD
330
396
100
AcDbEntity
  8
DEFPOINTS
 62
     0
100
AcDbPoint
 10
6.824823199452234
 20
8.851408943203924
 30
0.0
  0
POINT
  5
7FE
330
396
100
AcDbEntity
  8
DEFPOINTS
 62
     0
100
AcDbPoint
 10
6.824823199452234
 20
10.05586394320392
 30
0.0
  0
ENDBLK
  5
3A2
330
396
100
AcDbEntity
  8
0
100
AcDbBlockEnd
  0
BLOCK
  5
3AF
330
3A4
100
AcDbEntity
  8
0
100
AcDbBlockBegin
  2
*D5
 70
     1
 10
0.0
 20
0.0
 30
0.0
  3
*D5
  1

  0
LINE
  5
7FF
330
3A4
100
AcDbEntity
  8
DIM
 62
     0
370
    -2
100
AcDbLine
 10
5.823823199452233
 20
8.851408943203924
 30
0.0
 11
4.005549559352999
 21
8.851408943203924
 31
0.0
  0
LINE
  5
800
330
3A4
100
AcDbEntity
  8
DIM
 62
     0
370
    -2
100
AcDbLine
 10
5.917323199452233
 20
8.258408943203924
 30
0.0
 11
4.005549559352999
 21
8.258408943203924
 31
0.0
  0
LINE
  5
801
330
3A4
100
AcDbEntity
  8
DIM
 62
     0
370
    -2
100
AcDbLine
 10
4.284549559352999
 20
9.391408943203925
 30
0.0
 11
4.284549559352999
 21
9.931408943203924
 31
0.0
  0
LINE
  5
802
330
3A4
100
AcDbEntity
  8
DIM
 62
     0
370
    -2
100
AcDbLine
 10
4.284549559352999
 20
7.718408943203925
 30
0.0
 11
4.284549559352999
 21
7.178408943203925
 31
0.0
  0
LINE
  5
803
330
3A4
100
AcDbEntity
  8
DIM
 62
     0
370
    -2
100
AcDbLine
 10
4.284549559352999
 20
7.178408943203925
 30
0.0
 11
3.744549559352999
 21
7.178408943203925
 31
0.0
  0
SOLID
  5
804
330
3A4
100
AcDbEntity
  8
DIM
 62
     0
100
AcDbTrace
 10
4.194549559352999
 20
9.391408943203925
 30
0.0
 11
4.374549559352999
 21
9.391408943203925
 31
0.0
 12
4.284549559352999
 22
8.851408943203924
 32
0.0
 13
4.284549559352999
 23
8.851408943203924
 33
0.0
  0
SOLID
  5
805
330
3A4
100
AcDbEntity
  8
DIM
 62
     0
100
AcDbTrace
 10
4.194549559352999
 20
7.718408943203925
 30
0.0
 11
4.374549559352999
 21
7.718408943203925
 31
0.0
 12
4.284549559352999
 22
8.258408943203924
 32
0.0
 13
4.284549559352999
 23
8.258408943203924
 33
0.0
  0
MTEXT
  5
806
330
3A4
100
AcDbEntity
  8
DIM
 62
     0
100
AcDbMText
 10
2.372987059352998
 20
7.178408943203926
 30
0.0
 40
0.375
 41
0.0
 71
     5
 72
     1
  1
\A1;0.59 [15.1]
  7
TXT
 73
     1
 44
1.0
  0
POINT
  5
807
330
3A4
100
AcDbEntity
  8
DEFPOINTS
 62
     0
100
AcDbPoint
 10
6.012823199452233
 20
8.851408943203924
 30
0.0
  0
POINT
  5
808
330
3A4
100
AcDbEntity
  8
DEFPOINTS
 62
     0
100
AcDbPoint
 10
6.106323199452234
 20
8.258408943203924
 30
0.0
  0
POINT
  5
809
330
3A4
100
AcDbEntity
  8
DEFPOINTS
 62
     0
100
AcDbPoint
 10
4.284549559352999
 20
8.258408943203924
 30
0.0
  0
ENDBLK
  5
3B0
330
3A4
100
AcDbEntity
  8
0
100
AcDbBlockEnd
  0
BLOCK
  5
3BD
330
3B2
100
AcDbEntity
  8
0
100
AcDbBlockBegin
  2
*D6
 70
     1
 10
0.0
 20
0.0
 30
0.0
  3
*D6
  1

  0
LINE
  5
7EA
330
3B2
100
AcDbEntity
  8
DIM
 62
     0
370
    -2
100
AcDbLine
 10
16.82477527086841
 20
9.177886943203926
 30
0.0
 11
15.70147227086842
 21
9.177886943203926
 31
0.0
  0
LINE
  5
7EB
330
3B2
100
AcDbEntity
  8
DIM
 62
     0
370
    -2
100
AcDbLine
 10
16.88677527086841
 20
8.568886943203924
 30
0.0
 11
15.70147227086842
 21
8.568886943203924
 31
0.0
  0
LINE
  5
7EC
330
3B2
100
AcDbEntity
  8
DIM
 62
     0
370
    -2
100
AcDbLine
 10
15.98047227086841
 20
9.717886943203925
 30
0.0
 11
15.98047227086841
 21
10.25788694320392
 31
0.0
  0
LINE
  5
7ED
330
3B2
100
AcDbEntity
  8
DIM
 62
     0
370
    -2
100
AcDbLine
 10
15.98047227086841
 20
8.028886943203925
 30
0.0
 11
15.98047227086841
 21
7.488886943203924
 31
0.0
  0
LINE
  5
7EE
330
3B2
100
AcDbEntity
  8
DIM
 62
     0
370
    -2
100
AcDbLine
 10
15.98047227086841
 20
7.488886943203924
 30
0.0
 11
15.44047227086841
 21
7.488886943203924
 31
0.0
  0
SOLID
  5
7EF
330
3B2
100
AcDbEntity
  8
DIM
 62
     0
100
AcDbTrace
 10
15.89047227086841
 20
9.717886943203925
 30
0.0
 11
16.07047227086842
 21
9.717886943203925
 31
0.0
 12
15.98047227086841
 22
9.177886943203926
 32
0.0
 13
15.98047227086841
 23
9.177886943203926
 33
0.0
  0
SOLID
  5
7F0
330
3B2
100
AcDbEntity
  8
DIM
 62
     0
100
AcDbTrace
 10
15.89047227086841
 20
8.028886943203925
 30
0.0
 11
16.07047227086842
 21
8.028886943203925
 31
0.0
 12
15.98047227086841
 22
8.568886943203924
 32
0.0
 13
15.98047227086841
 23
8.568886943203924
 33
0.0
  0
MTEXT
  5
7F1
330
3B2
100
AcDbEntity
  8
DIM
 62
     0
100
AcDbMText
 10
14.06890977086841
 20
7.488886943203927
 30
0.0
 40
0.375
 41
0.0
 71
     5
 72
     1
  1
\A1;0.61 [15.5]
  7
TXT
 73
     1
 44
1.0
  0
POINT
  5
7F2
330
3B2
100
AcDbEntity
  8
DEFPOINTS
 62
     0
100
AcDbPoint
 10
17.01377527086841
 20
9.177886943203926
 30
0.0
  0
POINT
  5
7F3
330
3B2
100
AcDbEntity
  8
DEFPOINTS
 62
     0
100
AcDbPoint
 10
17.07577527086842
 20
8.568886943203924
 30
0.0
  0
POINT
  5
7F4
330
3B2
100
AcDbEntity
  8
DEFPOINTS
 62
     0
100
AcDbPoint
 10
15.98047227086841
 20
8.568886943203924
 30
0.0
  0
ENDBLK
  5
3BE
330
3B2
100
AcDbEntity
  8
0
100
AcDbBlockEnd
  0
BLOCK
  5
3CB
330
3C0
100
AcDbEntity
  8
0
100
AcDbBlockBegin
  2
*D7
 70
     1
 10
0.0
 20
0.0
 30
0.0
  3
*D7
  1

  0
LINE
  5
7AC
330
3C0
100
AcDbEntity
  8
DIM
 62
     0
370
    -2
100
AcDbLine
 10
17.24677527086841
 20
13.42388594320392
 30
0.0
 11
14.81161127086842
 21
13.42388594320392
 31
0.0
  0
LINE
  5
7AD
330
3C0
100
AcDbEntity
  8
DIM
 62
     0
370
    -2
100
AcDbLine
 10
17.24677527086841
 20
12.42388594320392
 30
0.0
 11
14.81161127086842
 21
12.42388594320392
 31
0.0
  0
LINE
  5
7AE
330
3C0
100
AcDbEntity
  8
DIM
 62
     0
370
    -2
100
AcDbLine
 10
15.09061127086842
 20
13.96388594320392
 30
0.0
 11
15.09061127086842
 21
14.50388594320392
 31
0.0
  0
LINE
  5
7AF
330
3C0
100
AcDbEntity
  8
DIM
 62
     0
370
    -2
100
AcDbLine
 10
15.09061127086842
 20
11.88388594320392
 30
0.0
 11
15.09061127086842
 21
11.34388594320392
 31
0.0
  0
SOLID
  5
7B0
330
3C0
100
AcDbEntity
  8
DIM
 62
     0
100
AcDbTrace
 10
15.00061127086842
 20
13.96388594320392
 30
0.0
 11
15.18061127086842
 21
13.96388594320392
 31
0.0
 12
15.09061127086842
 22
13.42388594320392
 32
0.0
 13
15.09061127086842
 23
13.42388594320392
 33
0.0
  0
SOLID
  5
7B1
330
3C0
100
AcDbEntity
  8
DIM
 62
     0
100
AcDbTrace
 10
15.00061127086842
 20
11.88388594320392
 30
0.0
 11
15.18061127086841
 21
11.88388594320392
 31
0.0
 12
15.09061127086842
 22
12.42388594320392
 32
0.0
 13
15.09061127086842
 23
12.42388594320392
 33
0.0
  0
MTEXT
  5
7B2
330
3C0
100
AcDbEntity
  8
DIM
 62
     0
100
AcDbMText
 10
15.09061127086841
 20
12.92388594320392
 30
0.0
 40
0.375
 41
0.0
 71
     5
 72
     1
  1
\A1;1.00 [25.4]
  7
TXT
 73
     1
 44
1.0
  0
POINT
  5
7B3
330
3C0
100
AcDbEntity
  8
DEFPOINTS
 62
     0
100
AcDbPoint
 10
17.43577527086841
 20
13.42388594320392
 30
0.0
  0
POINT
  5
7B4
330
3C0
100
AcDbEntity
  8
DEFPOINTS
 62
     0
100
AcDbPoint
 10
17.43577527086841
 20
12.42388594320392
 30
0.0
  0
POINT
  5
7B5
330
3C0
100
AcDbEntity
  8
DEFPOINTS
 62
     0
100
AcDbPoint
 10
15.09061127086842
 20
12.42388594320392
 30
0.0
  0
ENDBLK
  5
3CC
330
3C0
100
AcDbEntity
  8
0
100
AcDbBlockEnd
  0
BLOCK
  5
3D9
330
3CE
100
AcDbEntity
  8
0
100
AcDbBlockBegin
  2
*D8
 70
     1
 10
0.0
 20
0.0
 30
0.0
  3
*D8
  1

  0
LINE
  5
7B6
330
3CE
100
AcDbEntity
  8
DIM
 62
     0
370
    -2
100
AcDbLine
 10
17.01377527086841
 20
12.65688594320392
 30
0.0
 11
17.01377527086841
 21
10.98588594320393
 31
0.0
  0
LINE
  5
7B7
330
3CE
100
AcDbEntity
  8
DIM
 62
     0
370
    -2
100
AcDbLine
 10
17.85747127086842
 20
12.64088594320392
 30
0.0
 11
17.85747127086842
 21
10.98588594320393
 31
0.0
  0
LINE
  5
7B8
330
3CE
100
AcDbEntity
  8
DIM
 62
     0
370
    -2
100
AcDbLine
 10
16.47377527086842
 20
11.26488594320392
 30
0.0
 11
15.93377527086841
 21
11.26488594320392
 31
0.0
  0
LINE
  5
7B9
330
3CE
100
AcDbEntity
  8
DIM
 62
     0
370
    -2
100
AcDbLine
 10
18.39747127086841
 20
11.26488594320392
 30
0.0
 11
18.93747127086842
 21
11.26488594320392
 31
0.0
  0
SOLID
  5
7BA
330
3CE
100
AcDbEntity
  8
DIM
 62
     0
100
AcDbTrace
 10
16.47377527086842
 20
11.35488594320392
 30
0.0
 11
16.47377527086842
 21
11.17488594320392
 31
0.0
 12
17.01377527086841
 22
11.26488594320392
 32
0.0
 13
17.01377527086841
 23
11.26488594320392
 33
0.0
  0
SOLID
  5
7BB
330
3CE
100
AcDbEntity
  8
DIM
 62
     0
100
AcDbTrace
 10
18.39747127086841
 20
11.35488594320392
 30
0.0
 11
18.39747127086841
 21
11.17488594320392
 31
0.0
 12
17.85747127086842
 22
11.26488594320392
 32
0.0
 13
17.85747127086842
 23
11.26488594320392
 33
0.0
  0
MTEXT
  5
7BC
330
3CE
100
AcDbEntity
  8
DIM
 62
     0
100
AcDbMText
 10
20.35590877086842
 20
11.26488594320392
 30
0.0
 40
0.375
 41
0.0
 71
     5
 72
     1
  1
\A1;0.84 [21.4]
  7
TXT
 73
     1
 44
1.0
  0
POINT
  5
7BD
330
3CE
100
AcDbEntity
  8
DEFPOINTS
 62
     0
100
AcDbPoint
 10
17.01377527086841
 20
12.84588594320392
 30
0.0
  0
POINT
  5
7BE
330
3CE
100
AcDbEntity
  8
DEFPOINTS
 62
     0
100
AcDbPoint
 10
17.85747127086842
 20
12.82988594320392
 30
0.0
  0
POINT
  5
7BF
330
3CE
100
AcDbEntity
  8
DEFPOINTS
 62
     0
100
AcDbPoint
 10
17.85747127086842
 20
11.26488594320392
 30
0.0
  0
ENDBLK
  5
3DA
330
3CE
100
AcDbEntity
  8
0
100
AcDbBlockEnd
  0
BLOCK
  5
64C
330
635
100
AcDbEntity
  8
0
100
AcDbBlockBegin
  2
HBA
 70
     0
 10
0.0
 20
0.0
 30
0.0
  3
HBA
  1

  0
TEXT
  5
848
330
635
100
AcDbEntity
  8
TEXT
100
AcDbText
 10
4.952214828059639
 20
7.500079195640082
 30
0.0
 40
0.125
  1
No.
  7
TXT
 72
     1
 11
5.077214828059639
 21
7.500079195640082
 31
0.0
100
AcDbText
  0
TEXT
  5
849
330
635
100
AcDbEntity
  8
TEXT
100
AcDbText
 10
4.848048161392972
 20
7.708412528973415
 30
0.0
 40
0.125
  1
PART
  7
TXT
 72
     1
 11
5.077214828059639
 21
7.708412528973415
 31
0.0
100
AcDbText
  0
LINE
  5
84A
330
635
100
AcDbEntity
  8
TITLE
100
AcDbLine
 10
0.0619999999999976
 20
7.459999999999999
 30
0.0
 11
10.538
 21
7.459999999999999
 31
0.0
  0
LINE
  5
84B
330
635
100
AcDbEntity
  8
TITLE
100
AcDbLine
 10
0.0619999999999976
 20
7.877999999999999
 30
0.0
 11
10.538
 21
7.877999999999999
 31
0.0
  0
LINE
  5
84C
330
635
100
AcDbEntity
  8
TITLE
100
AcDbLine
 10
0.0
 20
7.940000000000001
 30
0.0
 11
10.6
 21
7.939999999999997
 31
0.0
  0
LINE
  5
84D
330
635
100
AcDbEntity
  8
TITLE
100
AcDbLine
 10
0.0
 20
0.0
 30
0.0
 11
-0.0000000000000036
 21
7.940000000000001
 31
0.0
  0
LINE
  5
84E
330
635
100
AcDbEntity
  8
TITLE
100
AcDbLine
 10
0.0619999999999976
 20
0.0620000000000012
 30
0.0
 11
0.0619999999999976
 21
7.877999999999999
 31
0.0
  0
LINE
  5
84F
330
635
100
AcDbEntity
  8
TITLE
100
AcDbLine
 10
0.7127313167680143
 20
7.459999999999999
 30
0.0
 11
0.7127313167680072
 21
7.877999999999999
 31
0.0
  0
LINE
  5
850
330
635
100
AcDbEntity
  8
TITLE
100
AcDbLine
 10
4.779867481422557
 20
7.877999999999999
 30
0.0
 11
4.779867481422557
 21
7.459999999999999
 31
0.0
  0
LINE
  5
851
330
635
100
AcDbEntity
  8
TITLE
100
AcDbLine
 10
4.717867481422553
 20
7.877999999999999
 30
0.0
 11
4.717867481422553
 21
7.459999999999999
 31
0.0
  0
LINE
  5
852
330
635
100
AcDbEntity
  8
TITLE
100
AcDbLine
 10
10.6
 20
-0.0000000000000018
 30
0.0
 11
10.59999999999999
 21
7.939999999999997
 31
0.0
  0
LINE
  5
853
330
635
100
AcDbEntity
  8
TITLE
100
AcDbLine
 10
10.538
 20
0.0619999999999994
 30
0.0
 11
10.538
 21
7.877999999999999
 31
0.0
  0
LINE
  5
854
330
635
100
AcDbEntity
  8
TITLE
100
AcDbLine
 10
5.388265533659173
 20
7.877999999999999
 30
0.0
 11
5.388265533659173
 21
7.459999999999999
 31
0.0
  0
LINE
  5
855
330
635
100
AcDbEntity
  8
TITLE
100
AcDbLine
 10
10.538
 20
0.0619999999999994
 30
0.0
 11
0.0619999999999976
 21
0.0620000000000012
 31
0.0
  0
LINE
  5
856
330
635
100
AcDbEntity
  8
TITLE
100
AcDbLine
 10
10.6
 20
-0.0000000000000018
 30
0.0
 11
0.0
 21
0.0
 31
0.0
  0
LINE
  5
857
330
635
100
AcDbEntity
  8
TITLE
100
AcDbLine
 10
8.740147825219402
 20
7.877999999999999
 30
0.0
 11
8.740147825219402
 21
7.459999999999999
 31
0.0
  0
LINE
  5
858
330
635
100
AcDbEntity
  8
TITLE
100
AcDbLine
 10
8.802147825219407
 20
7.877999999999999
 30
0.0
 11
8.802147825219407
 21
7.459999999999999
 31
0.0
  0
TEXT
  5
859
330
635
100
AcDbEntity
  8
TEXT
100
AcDbText
 10
8.875828626283714
 20
7.708412528973415
 30
0.0
 40
0.125
  1
REV.
  7
TXT
 72
     1
 11
9.084161959617048
 21
7.708412528973415
 31
0.0
100
AcDbText
  0
TEXT
  5
85A
330
635
100
AcDbEntity
  8
TEXT
100
AcDbText
 10
8.854995292950382
 20
7.500079195640082
 30
0.0
 40
0.125
  1
DATE
  7
TXT
 72
     1
 11
9.084161959617048
 21
7.500079195640082
 31
0.0
100
AcDbText
  0
LINE
  5
85B
330
635
100
AcDbEntity
  8
TITLE
100
AcDbLine
 10
9.381254870049488
 20
7.877999999999999
 30
0.0
 11
9.381254870049488
 21
7.459999999999999
 31
0.0
  0
TEXT
  5
85C
330
635
100
AcDbEntity
  8
TEXT
100
AcDbText
 10
0.817689281692464
 20
7.708412528973415
 30
0.0
 40
0.125
  1
PART
  7
TXT
 72
     1
 11
1.04685594835913
 21
7.708412528973415
 31
0.0
100
AcDbText
  0
TEXT
  5
85D
330
635
100
AcDbEntity
  8
TEXT
100
AcDbText
 10
0.817689281692464
 20
7.500079195640082
 30
0.0
 40
0.125
  1
NAME
  7
TXT
 72
     1
 11
1.04685594835913
 21
7.500079195640082
 31
0.0
100
AcDbText
  0
LINE
  5
85E
330
635
100
AcDbEntity
  8
TITLE
100
AcDbLine
 10
1.366382268399007
 20
7.459999999999999
 30
0.0
 11
1.366382268399
 21
7.877999999999999
 31
0.0
  0
LINE
  5
85F
330
635
100
AcDbEntity
  8
TITLE
100
AcDbLine
 10
0.1437459471222873
 20
7.540757209359838
 30
0.0
 11
0.1437459471222873
 21
7.80629196345911
 31
0.0
  0
ARC
  5
860
330
635
100
AcDbEntity
  8
TITLE
100
AcDbCircle
 10
0.2292646146754151
 20
7.743227459360534
 30
0.0
 40
0.063064504098577
100
AcDbArc
 50
270.0
 51
90.0
  0
LINE
  5
861
330
635
100
AcDbEntity
  8
TITLE
100
AcDbLine
 10
0.3286511742641771
 20
7.557353131491043
 30
0.0
 11
0.3286511742641771
 21
7.80629196345911
 31
0.0
  0
LINE
  5
862
330
635
100
AcDbEntity
  8
TITLE
100
AcDbLine
 10
0.4003019497816603
 20
7.584081046475359
 30
0.0
 11
0.4003019497816603
 21
7.80629196345911
 31
0.0
  0
LINE
  5
863
330
635
100
AcDbEntity
  8
TITLE
100
AcDbLine
 10
0.3771887963889284
 20
7.584081046475359
 30
0.0
 11
0.3771887963889284
 21
7.80629196345911
 31
0.0
  0
LINE
  5
864
330
635
100
AcDbEntity
  8
TITLE
100
AcDbLine
 10
0.5031501514592876
 20
7.540757209359838
 30
0.0
 11
0.5031501514592876
 21
7.80629196345911
 31
0.0
  0
ARC
  5
865
330
635
100
AcDbEntity
  8
TITLE
100
AcDbCircle
 10
0.5361796735149547
 20
7.713354799524364
 30
0.0
 40
0.0929371639347451
100
AcDbArc
 50
0.0
 51
90.0
  0
LINE
  5
866
330
635
100
AcDbEntity
  8
TITLE
100
AcDbLine
 10
0.448839571906408
 20
7.557353131491043
 30
0.0
 11
0.448839571906408
 21
7.80629196345911
 31
0.0
  0
LINE
  5
867
330
635
100
AcDbEntity
  8
TITLE
100
AcDbLine
 10
0.3452470963953864
 20
7.540757209359838
 30
0.0
 11
0.4322436497752094
 21
7.540757209359838
 31
0.0
  0
LINE
  5
868
330
635
100
AcDbEntity
  8
TITLE
100
AcDbLine
 10
0.1437459471222873
 20
7.540757209359838
 30
0.0
 11
0.2292646146754151
 21
7.540757209359838
 31
0.0
  0
LINE
  5
869
330
635
100
AcDbEntity
  8
TITLE
100
AcDbLine
 10
0.2292646146754151
 20
7.666886217556992
 30
0.0
 11
0.1564581814882899
 21
7.666886217556992
 31
0.0
  0
LINE
  5
86A
330
635
100
AcDbEntity
  8
TITLE
100
AcDbLine
 10
0.2292646146754151
 20
7.680162955261957
 30
0.0
 11
0.1564581814882899
 21
7.680162955261957
 31
0.0
  0
LINE
  5
86B
330
635
100
AcDbEntity
  8
TITLE
100
AcDbLine
 10
0.1564581814882899
 20
7.680162955261957
 30
0.0
 11
0.1564581814882899
 21
7.673524586409476
 31
0.0
  0
LINE
  5
86C
330
635
100
AcDbEntity
  8
TITLE
100
AcDbLine
 10
0.1564581814882899
 20
7.666886217556992
 30
0.0
 11
0.1564581814882899
 21
7.673524586409476
 31
0.0
  0
ARC
  5
86D
330
635
100
AcDbEntity
  8
TITLE
100
AcDbCircle
 10
0.2292646146754151
 20
7.603821713458416
 30
0.0
 40
0.063064504098577
100
AcDbArc
 50
270.0
 51
90.0
  0
ARC
  5
86E
330
635
100
AcDbEntity
  8
TITLE
100
AcDbCircle
 10
0.3452470963953864
 20
7.557353131491043
 30
0.0
 40
0.0165959221312045
100
AcDbArc
 50
180.0
 51
270.0
  0
ARC
  5
86F
330
635
100
AcDbEntity
  8
TITLE
100
AcDbCircle
 10
0.3870252120767006
 20
7.584081046475359
 30
0.0
 40
0.0132767377049636
100
AcDbArc
 50
277.4442840977136
 51
0.0
  0
ARC
  5
870
330
635
100
AcDbEntity
  8
TITLE
100
AcDbCircle
 10
0.3904655340938987
 20
7.584081046475359
 30
0.0
 40
0.0132767377049636
100
AcDbArc
 50
180.0
 51
262.5557159022863
  0
ARC
  5
871
330
635
100
AcDbEntity
  8
TITLE
100
AcDbCircle
 10
0.5361796735149547
 20
7.633694373294584
 30
0.0
 40
0.0929371639347451
100
AcDbArc
 50
270.0
 51
0.0
  0
ARC
  5
872
330
635
100
AcDbEntity
  8
TITLE
100
AcDbCircle
 10
0.4322436497752094
 20
7.557353131491043
 30
0.0
 40
0.0165959221312045
100
AcDbArc
 50
270.0
 51
0.0
  0
LINE
  5
873
330
635
100
AcDbEntity
  8
TITLE
100
AcDbLine
 10
0.5031501514592876
 20
7.540757209359838
 30
0.0
 11
0.5361796735149547
 21
7.540757209359838
 31
0.0
  0
LINE
  5
874
330
635
100
AcDbEntity
  8
TITLE
100
AcDbLine
 10
0.6291168374497041
 20
7.633694373294584
 30
0.0
 11
0.6291168374497041
 21
7.713354799524364
 31
0.0
  0
LINE
  5
875
330
635
100
AcDbEntity
  8
TITLE
100
AcDbLine
 10
0.5802784596463831
 20
7.666886217556992
 30
0.0
 11
0.5802784596463831
 21
7.680162955261957
 31
0.0
  0
LINE
  5
876
330
635
100
AcDbEntity
  8
TITLE
100
AcDbLine
 10
0.5389808701380901
 20
7.666886217556992
 30
0.0
 11
0.5389808701380901
 21
7.680162955261957
 31
0.0
  0
LINE
  5
877
330
635
100
AcDbEntity
  8
TITLE
100
AcDbLine
 10
0.5802784596463831
 20
7.666886217556992
 30
0.0
 11
0.5389808701380901
 21
7.666886217556992
 31
0.0
  0
LINE
  5
878
330
635
100
AcDbEntity
  8
TITLE
100
AcDbLine
 10
0.5802784596463831
 20
7.680162955261957
 30
0.0
 11
0.5389808701380901
 21
7.680162955261957
 31
0.0
  0
LINE
  5
879
330
635
100
AcDbEntity
  8
TITLE
100
AcDbLine
 10
0.4003019497816603
 20
7.80629196345911
 30
0.0
 11
0.448839571906408
 21
7.80629196345911
 31
0.0
  0
LINE
  5
87A
330
635
100
AcDbEntity
  8
TITLE
100
AcDbLine
 10
0.1437459471222873
 20
7.80629196345911
 30
0.0
 11
0.2292646146754151
 21
7.80629196345911
 31
0.0
  0
LINE
  5
87B
330
635
100
AcDbEntity
  8
TITLE
100
AcDbLine
 10
0.3286511742641771
 20
7.80629196345911
 30
0.0
 11
0.3771887963889284
 21
7.80629196345911
 31
0.0
  0
LINE
  5
87C
330
635
100
AcDbEntity
  8
TITLE
100
AcDbLine
 10
0.5031501514592876
 20
7.80629196345911
 30
0.0
 11
0.5361796735149547
 21
7.80629196345911
 31
0.0
  0
ENDBLK
  5
64D
330
635
100
AcDbEntity
  8
0
100
AcDbBlockEnd
  0
ENDSEC
  0
SECTION
  2
ENTITIES
  0
LINE
  5
174
330
1E
100
AcDbEntity
  8
OBJECT
100
AcDbLine
 10
17.85777527086842
 20
9.177886943203926
 30
0.0
 11
17.01377527086841
 21
9.177886943203926
 31
0.0
  0
LINE
  5
175
330
1E
100
AcDbEntity
  8
OBJECT
100
AcDbLine
 10
17.79577527086841
 20
8.568886943203924
 30
0.0
 11
17.07577527086842
 21
8.568886943203924
 31
0.0
  0
LINE
  5
176
330
1E
100
AcDbEntity
  8
OBJECT
100
AcDbLine
 10
17.01377527086841
 20
12.84588594320392
 30
0.0
 11
17.01377527086841
 21
13.00188594320392
 31
0.0
  0
ARC
  5
177
330
1E
100
AcDbEntity
  8
OBJECT
100
AcDbCircle
 10
17.43577527086841
 20
12.84588594320392
 30
0.0
 40
0.4220000000000001
100
AcDbArc
 50
180.0
 51
357.827127
  0
ARC
  5
178
330
1E
100
AcDbEntity
  8
OBJECT
100
AcDbCircle
 10
17.43577527086841
 20
13.00188594320392
 30
0.0
 40
0.4220000000000001
100
AcDbArc
 50
45.268009
 51
180.0
  0
LINE
  5
179
330
1E
100
AcDbEntity
  8
OBJECT
100
AcDbLine
 10
17.73277527086841
 20
13.01788594320393
 30
0.0
 11
17.73277527086841
 21
13.30167694320392
 31
0.0
  0
LINE
  5
17A
330
1E
100
AcDbEntity
  8
OBJECT
100
AcDbLine
 10
17.09177527086841
 20
13.01788594320393
 30
0.0
 11
17.73277527086841
 21
13.01788594320393
 31
0.0
  0
LINE
  5
17B
330
1E
100
AcDbEntity
  8
OBJECT
100
AcDbLine
 10
17.09177527086841
 20
12.82988594320392
 30
0.0
 11
17.85747127086842
 21
12.82988594320392
 31
0.0
  0
LINE
  5
17C
330
1E
100
AcDbEntity
  8
OBJECT
100
AcDbLine
 10
17.09177527086841
 20
12.82988594320392
 30
0.0
 11
17.09177527086841
 21
13.01788594320393
 31
0.0
  0
ARC
  5
17D
330
1E
100
AcDbEntity
  8
OBJECT
100
AcDbCircle
 10
17.70177527086842
 20
12.92388594320392
 30
0.0
 40
0.094
100
AcDbArc
 50
90.0
 51
270.0
  0
ARC
  5
17E
330
1E
100
AcDbEntity
  8
OBJECT
100
AcDbCircle
 10
27.40377527086842
 20
12.84588594320392
 30
0.0
 40
0.4220000000000001
100
AcDbArc
 50
182.172873
 51
0.0
  0
LINE
  5
17F
330
1E
100
AcDbEntity
  8
OBJECT
100
AcDbLine
 10
27.74777527086842
 20
12.82988594320392
 30
0.0
 11
26.98207827086842
 21
12.82988594320392
 31
0.0
  0
LINE
  5
180
330
1E
100
AcDbEntity
  8
OBJECT
100
AcDbLine
 10
27.10677527086842
 20
13.01788594320393
 30
0.0
 11
27.10677527086842
 21
13.30167694320392
 31
0.0
  0
ARC
  5
181
330
1E
100
AcDbEntity
  8
OBJECT
100
AcDbCircle
 10
27.40377527086842
 20
13.00188594320392
 30
0.0
 40
0.4220000000000001
100
AcDbArc
 50
0.0
 51
134.7319909999999
  0
LINE
  5
182
330
1E
100
AcDbEntity
  8
OBJECT
100
AcDbLine
 10
27.74777527086842
 20
13.01788594320393
 30
0.0
 11
27.10677527086842
 21
13.01788594320393
 31
0.0
  0
LINE
  5
183
330
1E
100
AcDbEntity
  8
OBJECT
100
AcDbLine
 10
27.82577527086842
 20
12.84588594320392
 30
0.0
 11
27.82577527086842
 21
13.00188594320392
 31
0.0
  0
LINE
  5
184
330
1E
100
AcDbEntity
  8
OBJECT
100
AcDbLine
 10
27.74777527086842
 20
12.82988594320392
 30
0.0
 11
27.74777527086842
 21
13.01788594320393
 31
0.0
  0
ARC
  5
185
330
1E
100
AcDbEntity
  8
OBJECT
100
AcDbCircle
 10
27.13777527086842
 20
12.92388594320392
 30
0.0
 40
0.094
100
AcDbArc
 50
270.0
 51
90.0
  0
LINE
  5
186
330
1E
100
AcDbEntity
  8
OBJECT
100
AcDbLine
 10
17.07577527086842
 20
8.568886943203924
 30
0.0
 11
17.01377527086841
 21
9.177886943203926
 31
0.0
  0
LINE
  5
187
330
1E
100
AcDbEntity
  8
OBJECT
100
AcDbLine
 10
17.79577527086841
 20
8.568886943203924
 30
0.0
 11
17.85777527086842
 21
9.177886943203926
 31
0.0
  0
LWPOLYLINE
  5
188
330
1E
100
AcDbEntity
  8
HIDDEN
100
AcDbPolyline
 90
        8
 70
     0
 43
0.0
 10
17.79427527086841
 20
8.599886943203927
 10
17.79427527086841
 20
8.927886943203926
 42
0.4142140000000001
 10
17.54427527086841
 20
9.177886943203926
 10
17.16927527086841
 20
9.177886943203926
 10
17.16927527086841
 20
8.990886943203925
 10
17.54427527086841
 20
8.990886943203925
 42
-0.4142140000000001
 10
17.60727527086842
 20
8.927886943203926
 10
17.60727527086842
 20
8.599886943203927
 42
0.4403310000000001
  0
LINE
  5
192
330
1E
100
AcDbEntity
  8
OBJECT
100
AcDbLine
 10
27.04527527086842
 20
8.568886943203924
 30
0.0
 11
27.04527527086842
 21
7.239886943203924
 31
0.0
  0
ARC
  5
193
330
1E
100
AcDbEntity
  8
OBJECT
100
AcDbCircle
 10
26.67027527086842
 20
7.239886943203924
 30
0.0
 40
0.375
100
AcDbArc
 50
264.938504
 51
0.0
  0
LINE
  5
194
330
1E
100
AcDbEntity
  8
OBJECT
100
AcDbLine
 10
26.63719027086841
 20
6.866348943203924
 30
0.0
 11
22.41977527086842
 21
7.239886943203924
 31
0.0
  0
LINE
  5
195
330
1E
100
AcDbEntity
  8
OBJECT
100
AcDbLine
 10
22.41977527086842
 20
7.239886943203924
 30
0.0
 11
18.20235927086841
 21
6.866348943203924
 31
0.0
  0
ARC
  5
196
330
1E
100
AcDbEntity
  8
OBJECT
100
AcDbCircle
 10
18.16927527086841
 20
7.239886943203924
 30
0.0
 40
0.375
100
AcDbArc
 50
180.0
 51
275.0614959999999
  0
LINE
  5
197
330
1E
100
AcDbEntity
  8
OBJECT
100
AcDbLine
 10
17.79427527086841
 20
7.239886943203924
 30
0.0
 11
17.79427527086841
 21
8.568886943203924
 31
0.0
  0
LINE
  5
198
330
1E
100
AcDbEntity
  8
OBJECT
100
AcDbLine
 10
17.60727527086842
 20
8.568886943203924
 30
0.0
 11
17.60727527086842
 21
7.239886943203924
 31
0.0
  0
ARC
  5
199
330
1E
100
AcDbEntity
  8
OBJECT
100
AcDbCircle
 10
18.16927527086841
 20
7.239886943203924
 30
0.0
 40
0.5620000000000001
100
AcDbArc
 50
180.0
 51
275.0614959999999
  0
LINE
  5
19A
330
1E
100
AcDbEntity
  8
OBJECT
100
AcDbLine
 10
18.21885727086842
 20
6.680078943203927
 30
0.0
 11
22.41977527086842
 21
7.052154943203923
 31
0.0
  0
LINE
  5
19B
330
1E
100
AcDbEntity
  8
OBJECT
100
AcDbLine
 10
22.41977527086842
 20
7.052154943203923
 30
0.0
 11
26.62069227086842
 21
6.680078943203927
 31
0.0
  0
ARC
  5
19C
330
1E
100
AcDbEntity
  8
OBJECT
100
AcDbCircle
 10
26.67027527086842
 20
7.239886943203924
 30
0.0
 40
0.5620000000000001
100
AcDbArc
 50
264.938504
 51
0.0
  0
LINE
  5
19D
330
1E
100
AcDbEntity
  8
OBJECT
100
AcDbLine
 10
27.23227527086842
 20
7.239886943203924
 30
0.0
 11
27.23227527086842
 21
8.568886943203924
 31
0.0
  0
LINE
  5
19E
330
1E
100
AcDbEntity
  8
HIDDEN
100
AcDbLine
 10
17.54477527086842
 20
9.021886943203924
 30
0.0
 11
17.29477527086842
 21
9.021886943203924
 31
0.0
  0
LINE
  5
19F
330
1E
100
AcDbEntity
  8
HIDDEN
100
AcDbLine
 10
17.29477527086842
 20
8.568886943203924
 30
0.0
 11
17.29477527086842
 21
9.021886943203924
 31
0.0
  0
LINE
  5
1A0
330
1E
100
AcDbEntity
  8
HIDDEN
100
AcDbLine
 10
17.54477527086842
 20
8.568886943203924
 30
0.0
 11
17.54477527086842
 21
9.021886943203924
 31
0.0
  0
LINE
  5
1A1
330
1E
100
AcDbEntity
  8
HIDDEN
100
AcDbLine
 10
17.34177527086841
 20
9.021886943203924
 30
0.0
 11
17.34177527086841
 21
9.177886943203926
 31
0.0
  0
LINE
  5
1A2
330
1E
100
AcDbEntity
  8
HIDDEN
100
AcDbLine
 10
17.49777527086842
 20
9.021886943203924
 30
0.0
 11
17.49777527086842
 21
9.177886943203926
 31
0.0
  0
LINE
  5
1A3
330
1E
100
AcDbEntity
  8
OBJECT
100
AcDbLine
 10
27.04377527086842
 20
8.568886943203924
 30
0.0
 11
26.98177527086842
 21
9.177886943203926
 31
0.0
  0
LWPOLYLINE
  5
1A4
330
1E
100
AcDbEntity
  8
HIDDEN
100
AcDbPolyline
 90
        8
 70
     0
 43
0.0
 10
27.04527527086842
 20
8.599886943203927
 10
27.04527527086842
 20
8.927886943203926
 42
-0.4142140000000001
 10
27.29527527086842
 20
9.177886943203926
 10
27.67027527086842
 20
9.177886943203926
 10
27.67027527086842
 20
8.990886943203925
 10
27.29527527086842
 20
8.990886943203925
 42
0.4142140000000001
 10
27.23227527086842
 20
8.927886943203926
 10
27.23227527086842
 20
8.599886943203927
 42
-0.4403310000000001
  0
LINE
  5
1AE
330
1E
100
AcDbEntity
  8
OBJECT
100
AcDbLine
 10
26.98177527086842
 20
9.177886943203926
 30
0.0
 11
27.82577527086842
 21
9.177886943203926
 31
0.0
  0
LINE
  5
1AF
330
1E
100
AcDbEntity
  8
HIDDEN
100
AcDbLine
 10
27.49777527086842
 20
9.021886943203924
 30
0.0
 11
27.49777527086842
 21
9.177886943203926
 31
0.0
  0
LINE
  5
1B0
330
1E
100
AcDbEntity
  8
HIDDEN
100
AcDbLine
 10
27.34177527086842
 20
9.021886943203924
 30
0.0
 11
27.34177527086842
 21
9.177886943203926
 31
0.0
  0
LINE
  5
1B1
330
1E
100
AcDbEntity
  8
OBJECT
100
AcDbLine
 10
27.76377527086842
 20
8.568886943203924
 30
0.0
 11
27.82577527086842
 21
9.177886943203926
 31
0.0
  0
LINE
  5
1B2
330
1E
100
AcDbEntity
  8
OBJECT
100
AcDbLine
 10
27.04377527086842
 20
8.568886943203924
 30
0.0
 11
27.76377527086842
 21
8.568886943203924
 31
0.0
  0
LINE
  5
1B3
330
1E
100
AcDbEntity
  8
HIDDEN
100
AcDbLine
 10
27.29477527086842
 20
8.568886943203924
 30
0.0
 11
27.29477527086842
 21
9.021886943203924
 31
0.0
  0
LINE
  5
1B4
330
1E
100
AcDbEntity
  8
HIDDEN
100
AcDbLine
 10
27.54477527086842
 20
8.568886943203924
 30
0.0
 11
27.54477527086842
 21
9.021886943203924
 31
0.0
  0
LINE
  5
1B5
330
1E
100
AcDbEntity
  8
HIDDEN
100
AcDbLine
 10
27.29477527086842
 20
9.021886943203924
 30
0.0
 11
27.54477527086842
 21
9.021886943203924
 31
0.0
  0
LINE
  5
1B6
330
1E
100
AcDbEntity
  8
OBJECT
100
AcDbLine
 10
17.16927527086841
 20
12.83038594320393
 30
0.0
 11
17.16927527086841
 21
13.01738594320392
 31
0.0
  0
LINE
  5
1B7
330
1E
100
AcDbEntity
  8
OBJECT
100
AcDbLine
 10
27.67027527086842
 20
13.01738594320392
 30
0.0
 11
17.16927527086841
 21
13.01738594320392
 31
0.0
  0
LINE
  5
1B8
330
1E
100
AcDbEntity
  8
OBJECT
100
AcDbLine
 10
17.16927527086841
 20
12.83038594320393
 30
0.0
 11
27.67027527086842
 21
12.83038594320393
 31
0.0
  0
LINE
  5
1B9
330
1E
100
AcDbEntity
  8
OBJECT
100
AcDbLine
 10
27.67027527086842
 20
12.83038594320393
 30
0.0
 11
27.67027527086842
 21
13.01738594320392
 31
0.0
  0
LINE
  5
1BA
330
1E
100
AcDbEntity
  8
OBJECT
100
AcDbLine
 10
17.79427527086841
 20
12.83038594320393
 30
0.0
 11
17.79427527086841
 21
13.01738594320392
 31
0.0
  0
LINE
  5
1BB
330
1E
100
AcDbEntity
  8
OBJECT
100
AcDbLine
 10
27.04527527086842
 20
12.83038594320393
 30
0.0
 11
27.04527527086842
 21
13.01738594320392
 31
0.0
  0
CIRCLE
  5
1BC
330
1E
100
AcDbEntity
  8
OBJECT
100
AcDbCircle
 10
6.418823199452234
 20
6.392570943203924
 30
0.0
 40
0.4060000000000001
  0
CIRCLE
  5
1BD
330
1E
100
AcDbEntity
  8
OBJECT
100
AcDbCircle
 10
6.418823199452234
 20
6.392570943203924
 30
0.0
 40
0.3125
  0
LINE
  5
1BE
330
1E
100
AcDbEntity
  8
OBJECT
100
AcDbLine
 10
6.012823199452233
 20
8.851408943203924
 30
0.0
 11
6.106323199452234
 21
8.258408943203924
 31
0.0
  0
LINE
  5
1BF
330
1E
100
AcDbEntity
  8
OBJECT
100
AcDbLine
 10
6.106323199452234
 20
8.258408943203924
 30
0.0
 11
6.731323199452234
 21
8.258408943203924
 31
0.0
  0
LINE
  5
1C0
330
1E
100
AcDbEntity
  8
OBJECT
100
AcDbLine
 10
6.824823199452234
 20
8.851408943203924
 30
0.0
 11
6.731323199452234
 21
8.258408943203924
 31
0.0
  0
LINE
  5
1C1
330
1E
100
AcDbEntity
  8
OBJECT
100
AcDbLine
 10
6.012823199452233
 20
8.851408943203924
 30
0.0
 11
6.824823199452234
 21
8.851408943203924
 31
0.0
  0
LINE
  5
1C2
330
1E
100
AcDbEntity
  8
HIDDEN
100
AcDbLine
 10
6.340823199452234
 20
8.695408943203926
 30
0.0
 11
6.340823199452234
 21
8.851408943203924
 31
0.0
  0
LINE
  5
1C3
330
1E
100
AcDbEntity
  8
HIDDEN
100
AcDbLine
 10
6.496823199452233
 20
8.695408943203926
 30
0.0
 11
6.496823199452233
 21
8.851408943203924
 31
0.0
  0
LINE
  5
1C4
330
1E
100
AcDbEntity
  8
HIDDEN
100
AcDbLine
 10
6.543823199452234
 20
8.258408943203924
 30
0.0
 11
6.543823199452234
 21
8.695408943203926
 31
0.0
  0
LINE
  5
1C5
330
1E
100
AcDbEntity
  8
HIDDEN
100
AcDbLine
 10
6.293823199452234
 20
8.258408943203924
 30
0.0
 11
6.293823199452234
 21
8.695408943203926
 31
0.0
  0
LINE
  5
1C6
330
1E
100
AcDbEntity
  8
HIDDEN
100
AcDbLine
 10
6.543823199452234
 20
8.695408943203926
 30
0.0
 11
6.293823199452234
 21
8.695408943203926
 31
0.0
  0
CIRCLE
  5
1C7
330
1E
100
AcDbEntity
  8
OBJECT
100
AcDbCircle
 10
6.418823199452234
 20
6.392570943203924
 30
0.0
 40
0.078
  0
CIRCLE
  5
1C8
330
1E
100
AcDbEntity
  8
OBJECT
100
AcDbCircle
 10
17.41977527086842
 20
13.14288594320393
 30
0.0
 40
0.078
  0
CIRCLE
  5
1C9
330
1E
100
AcDbEntity
  8
OBJECT
100
AcDbCircle
 10
17.41977527086842
 20
12.70488594320392
 30
0.0
 40
0.078
  0
CIRCLE
  5
1CA
330
1E
100
AcDbEntity
  8
OBJECT
100
AcDbCircle
 10
27.41977527086842
 20
13.14288594320393
 30
0.0
 40
0.078
  0
CIRCLE
  5
1CB
330
1E
100
AcDbEntity
  8
OBJECT
100
AcDbCircle
 10
27.41977527086842
 20
12.70488594320392
 30
0.0
 40
0.078
  0
CIRCLE
  5
1CC
330
1E
100
AcDbEntity
  8
OBJECT
100
AcDbCircle
 10
6.418823199452234
 20
6.392570943203924
 30
0.0
 40
0.125
  0
TEXT
  5
34D
330
1E
100
AcDbEntity
  8
TEXT
100
AcDbText
 10
5.982111444191176
 20
22.73850143686478
 30
0.0
 40
0.5620000000000001
  1
BAIL
 41
0.75
  7
TXT
 72
     4
 11
6.684611444191176
 21
23.01950143686477
 31
0.0
100
AcDbText
  0
TEXT
  5
352
330
1E
100
AcDbEntity
  8
TEXT
100
AcDbText
 10
18.61477114958475
 20
22.73850143686478
 30
0.0
 40
0.5620000000000001
  1
BC-14210
 41
0.75
  7
TXT
 72
     4
 11
20.05489614958475
 21
23.01950143686477
 31
0.0
100
AcDbText
  0
LINE
  5
354
330
1E
100
AcDbEntity
  8
CENTER
100
AcDbLine
 10
17.41977527086842
 20
9.829099943203924
 30
0.0
 11
17.41977527086842
 21
7.821845943203925
 31
0.0
  0
LINE
  5
355
330
1E
100
AcDbEntity
  8
CENTER
100
AcDbLine
 10
27.41977527086842
 20
9.829099943203924
 30
0.0
 11
27.41977527086842
 21
7.821845943203925
 31
0.0
  0
DIMENSION
  5
356
330
1E
100
AcDbEntity
  8
DIM
100
AcDbDimension
  2
*D0
 10
29.21360427086842
 20
9.177886943203924
 30
0.0
 11
29.21360427086842
 21
7.92788694320393
 31
0.0
 70
   160
 71
     5
 42
2.499999999999999
  3
23NSTD
100
AcDbAlignedDimension
 13
26.67027527086842
 23
6.677886943203926
 33
0.0
 14
27.82577527086842
 24
9.177886943203926
 34
0.0
 50
90.0
100
AcDbRotatedDimension
  0
DIMENSION
  5
364
330
1E
100
AcDbEntity
  8
DIM
100
AcDbDimension
  2
*D1
 10
28.63472027086842
 20
12.70488594320392
 30
0.0
 11
26.77003277086841
 21
11.62488594320393
 31
0.0
 70
    32
 71
     5
 42
0.4380000000000024
  3
23NSTD
100
AcDbAlignedDimension
 13
27.41977527086842
 23
13.14288594320393
 33
0.0
 14
27.41977527086842
 24
12.70488594320392
 34
0.0
 50
90.0
100
AcDbRotatedDimension
  0
DIMENSION
  5
372
330
1E
100
AcDbEntity
  8
DIM
100
AcDbDimension
  2
*D2
 10
17.41977527086842
 20
5.496586393717667
 30
0.0
 11
22.41977527086842
 21
5.496586393717667
 31
0.0
 70
    32
 71
     5
 42
10.0
  3
23NSTD
100
AcDbAlignedDimension
 13
27.41977527086842
 23
7.821845943203925
 33
0.0
 14
17.41977527086842
 24
7.821845943203925
 34
0.0
 50
180.0
100
AcDbRotatedDimension
  0
LWPOLYLINE
  5
380
330
1E
100
AcDbEntity
  8
DIM
100
AcDbPolyline
 90
        4
 70
     0
 10
17.50179248642622
 20
13.25065329673105
 40
0.0
 41
0.2025
 10
17.82663848642622
 20
13.68201729673105
 40
0.0
 41
0.0
 10
18.37010646567669
 20
14.49680719841059
 40
0.0
 41
0.0
 10
18.91010646567669
 20
14.49680719841059
 40
0.0
 41
0.0
  0
TEXT
  5
386
330
1E
100
AcDbEntity
  8
DIM
100
AcDbText
 10
19.1801064656767
 20
14.30930719841059
 30
0.0
 40
0.375
  1
0.156 DIA.
 41
0.75
  7
TXT
 11
19.1801064656767
 21
14.49680719841059
 31
0.0
100
AcDbText
 73
     2
  0
DIMENSION
  5
387
330
1E
100
AcDbEntity
  8
DIM
100
AcDbDimension
  2
*D3
 10
23.53065627086842
 20
13.01738594320392
 30
0.0
 11
25.91096877086842
 21
14.09738594320393
 31
0.0
 70
    32
  1
<> DIA.
 71
     5
 42
0.1869999999999976
  3
23NSTD
100
AcDbAlignedDimension
 13
23.92809427086842
 23
12.83038594320393
 33
0.0
 14
23.92809427086842
 24
13.01738594320392
 34
0.0
 50
90.0
100
AcDbRotatedDimension
  0
DIMENSION
  5
395
330
1E
100
AcDbEntity
  8
DIM
100
AcDbDimension
  2
*D4
 10
6.824823199452234
 20
10.05586394320392
 30
0.0
 11
9.862323199452234
 21
10.05586394320392
 31
0.0
 70
    32
  1
<> DIA.
 71
     5
 42
0.8120000000000011
  3
23NSTD
100
AcDbAlignedDimension
 13
6.012823199452233
 23
8.851408943203924
 33
0.0
 14
6.824823199452234
 24
8.851408943203924
 34
0.0
100
AcDbRotatedDimension
  0
DIMENSION
  5
3A3
330
1E
100
AcDbEntity
  8
DIM
100
AcDbDimension
  2
*D5
 10
4.284549559352999
 20
8.258408943203924
 30
0.0
 11
2.372987059352998
 21
7.178408943203926
 31
0.0
 70
    32
 71
     5
 42
0.593
  3
23NSTD
100
AcDbAlignedDimension
 13
6.012823199452233
 23
8.851408943203924
 33
0.0
 14
6.106323199452234
 24
8.258408943203924
 34
0.0
 50
90.0
100
AcDbRotatedDimension
  0
DIMENSION
  5
3B1
330
1E
100
AcDbEntity
  8
DIM
100
AcDbDimension
  2
*D6
 10
15.98047227086841
 20
8.568886943203924
 30
0.0
 11
14.06890977086841
 21
7.488886943203927
 31
0.0
 70
    32
 71
     5
 42
0.6090000000000018
  3
23NSTD
100
AcDbAlignedDimension
 13
17.01377527086841
 23
9.177886943203926
 33
0.0
 14
17.07577527086842
 24
8.568886943203924
 34
0.0
 50
90.0
100
AcDbRotatedDimension
  0
DIMENSION
  5
3BF
330
1E
100
AcDbEntity
  8
DIM
100
AcDbDimension
  2
*D7
 10
15.09061127086842
 20
12.42388594320392
 30
0.0
 11
15.09061127086841
 21
12.92388594320392
 31
0.0
 70
    32
 71
     5
  3
23NSTD
100
AcDbAlignedDimension
 13
17.43577527086841
 23
13.42388594320392
 33
0.0
 14
17.43577527086841
 24
12.42388594320392
 34
0.0
 50
90.0
100
AcDbRotatedDimension
  0
DIMENSION
  5
3CD
330
1E
100
AcDbEntity
  8
DIM
100
AcDbDimension
  2
*D8
 10
17.85747127086842
 20
11.26488594320392
 30
0.0
 11
20.35590877086842
 21
11.26488594320392
 31
0.0
 70
    32
 71
     5
 42
0.8436960000000013
  3
23NSTD
100
AcDbAlignedDimension
 13
17.01377527086841
 23
12.84588594320392
 33
0.0
 14
17.85747127086842
 24
12.82988594320392
 34
0.0
100
AcDbRotatedDimension
  0
TEXT
  5
3DB
330
1E
100
AcDbEntity
  8
DIM
100
AcDbText
 10
7.953138949452235
 20
7.162461943203925
 30
0.0
 40
0.375
  1
0.156 DIA.
 41
0.75
  7
TXT
 11
7.953138949452235
 21
7.349961943203925
 31
0.0
100
AcDbText
 73
     2
  0
LWPOLYLINE
  5
3DC
330
1E
100
AcDbEntity
  8
DIM
100
AcDbPolyline
 90
        4
 70
     0
 10
6.496131199452234
 20
6.490797943203926
 40
0.0
 41
0.2025
 10
6.820977199452235
 20
6.922161943203925
 40
0.0
 41
0.0
 10
7.143138949452234
 20
7.349961943203925
 40
0.0
 41
0.0
 10
7.683138949452235
 20
7.349961943203925
 40
0.0
 41
0.0
  0
TEXT
  5
3E2
330
1E
100
AcDbEntity
  8
TEXT
100
AcDbText
 10
1.529578622126798
 20
18.42206861175474
 30
0.0
 40
0.375
  1
%%uMATERIAL:
 41
0.75
  7
TXT
100
AcDbText
  0
TEXT
  5
3E3
330
1E
100
AcDbEntity
  8
TEXT
100
AcDbText
 10
1.8579683721268
 20
17.79706886175474
 30
0.0
 40
0.375
  1
BAIL
 41
0.75
  7
TXT
100
AcDbText
  0
TEXT
  5
3E4
330
1E
100
AcDbEntity
  8
TEXT
100
AcDbText
 10
1.8579683721268
 20
17.17206911175474
 30
0.0
 40
0.375
  1
FEET
 41
0.75
  7
TXT
100
AcDbText
  0
TEXT
  5
3E5
330
1E
100
AcDbEntity
  8
TEXT
100
AcDbText
 10
1.529578622126798
 20
15.92206886175474
 30
0.0
 40
0.375
  1
%%uFINISH:
 41
0.75
  7
TXT
100
AcDbText
  0
TEXT
  5
3E6
330
1E
100
AcDbEntity
  8
TEXT
100
AcDbText
 10
1.8579683721268
 20
15.29706911175474
 30
0.0
 40
0.375
  1
BAIL
 41
0.75
  7
TXT
100
AcDbText
  0
TEXT
  5
3E7
330
1E
100
AcDbEntity
  8
TEXT
100
AcDbText
 10
1.8579683721268
 20
14.67206861175474
 30
0.0
 40
0.375
  1
FEET
 41
0.75
  7
TXT
100
AcDbText
  0
TEXT
  5
3E8
330
1E
100
AcDbEntity
  8
TEXT
100
AcDbText
 10
4.8978038721268
 20
17.79706886175474
 30
0.0
 40
0.375
  1
3/16 [4.8] DIA. STEEL
 41
0.75
  7
TXT
100
AcDbText
  0
TEXT
  5
3E9
330
1E
100
AcDbEntity
  8
TEXT
100
AcDbText
 10
4.8978038721268
 20
17.17206911175474
 30
0.0
 40
0.375
  1
NYLON
 41
0.75
  7
TXT
100
AcDbText
  0
TEXT
  5
3EA
330
1E
100
AcDbEntity
  8
TEXT
100
AcDbText
 10
4.8978038721268
 20
15.29706911175474
 30
0.0
 40
0.375
  1
CHROME PLATED
 41
0.75
  7
TXT
100
AcDbText
  0
TEXT
  5
3EB
330
1E
100
AcDbEntity
  8
TEXT
100
AcDbText
 10
4.8978038721268
 20
14.67206861175474
 30
0.0
 40
0.375
  1
BLACK
 41
0.75
  7
TXT
100
AcDbText
  0
LINE
  5
3EC
330
1E
100
AcDbEntity
  8
TEXT
100
AcDbLine
 10
4.712223872126799
 20
17.79706886175474
 30
0.0
 11
3.0112786221268
 21
17.79706886175474
 31
0.0
  0
LINE
  5
3ED
330
1E
100
AcDbEntity
  8
TEXT
100
AcDbLine
 10
4.712223872126799
 20
17.17206911175474
 30
0.0
 11
3.0205576221268
 21
17.17206911175474
 31
0.0
  0
LINE
  5
3EE
330
1E
100
AcDbEntity
  8
TEXT
100
AcDbLine
 10
4.712223872126799
 20
14.67206861175474
 30
0.0
 11
3.0205576221268
 21
14.67206861175474
 31
0.0
  0
LINE
  5
3EF
330
1E
100
AcDbEntity
  8
TEXT
100
AcDbLine
 10
4.712223872126799
 20
15.29706911175474
 30
0.0
 11
3.0112786221268
 21
15.29706911175474
 31
0.0
  0
TEXT
  5
3F0
330
1E
100
AcDbEntity
  8
TEXT
100
AcDbText
 10
12.17822509356026
 20
18.38168941948811
 30
0.0
 40
0.375
  1
ASSEMBLED WITH QTY. (6) SHEET METAL SCREWS #6 x 1/2 [12.7] LG. (SUPPLIED)
 41
0.75
  7
TXT
100
AcDbText
  0
TEXT
  5
3F1
330
1E
100
AcDbEntity
  8
TEXT
100
AcDbText
 10
19.75712051490079
 20
3.741240987209206
 30
0.0
 40
0.46875
  1
%%uBAIL & FRONT FEET
 41
0.75
  7
TXT
 72
     4
 11
22.63407363990079
 21
3.928740987209206
 31
0.0
100
AcDbText
  0
TEXT
  5
3F2
330
1E
100
AcDbEntity
  8
TEXT
100
AcDbText
 10
4.689756625853298
 20
4.59082091407637
 30
0.0
 40
0.46875
  1
%%uREAR FEET
 41
0.75
  7
TXT
 72
     4
 11
6.219053500853298
 21
4.77832091407637
 31
0.0
100
AcDbText
  0
TEXT
  5
3F3
330
1E
100
AcDbEntity
  8
TEXT
100
AcDbText
 10
4.109678500853298
 20
3.78458291407637
 30
0.0
 40
0.375
  1
QTY. (2) SUPPLIED
 41
0.75
  7
TXT
 72
     4
 11
6.219053500853298
 21
3.97208291407637
 31
0.0
100
AcDbText
  0
INSERT
  5
64F
330
1E
100
AcDbEntity
  8
TEXT
100
AcDbBlockReference
  2
HBA
 10
0.0
 20
0.0
 30
0.0
 41
3.0
 42
3.0
 43
3.0
  0
TEXT
  5
780
330
1E
100
AcDbEntity
  8
TEXT
100
AcDbText
 10
28.56963793331043
 20
22.73850143686478
 30
0.0
 40
0.5620000000000001
  1
7-17-13
 41
0.75
  7
TXT
 72
     4
 11
29.83413793331044
 21
23.01950143686477
 31
0.0
100
AcDbText
  0
INSERT
  5
847
330
1E
100
AcDbEntity
  8
TEXT
100
AcDbBlockReference
  2
HBA
 10
0.0
 20
0.0
 30
0.0
 41
3.0
 42
3.0
 43
3.0
  0
INSERT
  5
87D
330
1E
100
AcDbEntity
  8
TEXT
100
AcDbBlockReference
  2
HBA
 10
0.0
 20
0.0
 30
0.0
 41
3.0
 42
3.0
 43
3.0
  0
ENDSEC
  0
SECTION
  2
OBJECTS
  0
DICTIONARY
  5
C
330
0
100
AcDbDictionary
281
     1
  3
ACAD_GROUP
350
D
  3
ACAD_LAYOUT
350
19
  3
ACAD_MLINESTYLE
350
16
  3
ACAD_PLOTSETTINGS
350
18
  3
ACAD_PLOTSTYLENAME
350
E
  0
DICTIONARY
  5
D
102
{ACAD_REACTORS
330
C
102
}
330
C
100
AcDbDictionary
281
     1
  0
DICTIONARY
  5
19
102
{ACAD_REACTORS
330
C
102
}
330
C
100
AcDbDictionary
281
     1
  3
Layout1
350
1D
  3
Model
350
21
  0
DICTIONARY
  5
16
102
{ACAD_REACTORS
330
C
102
}
330
C
100
AcDbDictionary
281
     1
  3
Standard
350
17
  0
DICTIONARY
  5
18
102
{ACAD_REACTORS
330
C
102
}
330
C
100
AcDbDictionary
281
     1
  0
ACDBDICTIONARYWDFLT
  5
E
102
{ACAD_REACTORS
330
C
102
}
330
C
100
AcDbDictionary
281
     1
  3
Normal
350
F
100
AcDbDictionaryWithDefault
340
F
  0
LAYOUT
  5
1D
102
{ACAD_REACTORS
330
19
102
}
330
19
100
AcDbPlotSettings
  1

  2
None
  4

  6

 40
0.0
 41
0.0
 42
0.0
 43
0.0
 44
0.0
 45
0.0
 46
0.0
 47
0.0
 48
0.0
 49
0.0
140
0.0
141
0.0
142
1.0
143
1.0
 70
   688
 72
     0
 73
     0
 74
     5
  7
monochrome.ctb
 75
    16
147
1.0
148
0.0
149
0.0
100
AcDbLayout
  1
Layout1
 70
     1
 71
     1
 10
0.0
 20
0.0
 11
12.0
 21
9.0
 12
0.0
 22
0.0
 32
0.0
 14
1.000000000000000E+20
 24
1.000000000000000E+20
 34
1.000000000000000E+20
 15
-1.000000000000000E+20
 25
-1.000000000000000E+20
 35
-1.000000000000000E+20
146
0.0
 13
0.0
 23
0.0
 33
0.0
 16
1.0
 26
0.0
 36
0.0
 17
0.0
 27
1.0
 37
0.0
 76
     0
330
1A
  0
LAYOUT
  5
21
102
{ACAD_REACTORS
330
19
102
}
330
19
100
AcDbPlotSettings
  1

  2
RICOH Aficio MP 7001 PCL 5e
  4
Letter
  6

 40
3.174999952316284
 41
3.174999952316284
 42
3.175003051757812
 43
3.17498779296875
 44
215.9000091552734
 45
279.3999938964843
 46
2.54
 47
0.0
 48
0.0
 49
0.0
140
0.0
141
0.0
142
1.0
143
2.958523279068594
 70
 11956
 72
     0
 73
     1
 74
     1
  7
monochrome.ctb
 75
     0
147
0.338006466629805
148
0.0313755357779627
149
0.0480554154702219
100
AcDbLayout
  1
Model
 70
     1
 71
     0
 10
0.0
 20
0.0
 11
12.0
 21
9.0
 12
0.0
 22
0.0
 32
0.0
 14
0.0
 24
0.0
 34
0.0
 15
0.0
 25
0.0
 35
0.0
146
0.0
 13
0.0
 23
0.0
 33
0.0
 16
1.0
 26
0.0
 36
0.0
 17
0.0
 27
1.0
 37
0.0
 76
     0
330
1E
  0
MLINESTYLE
  5
17
102
{ACAD_REACTORS
330
16
102
}
330
16
100
AcDbMlineStyle
  2
STANDARD
 70
     0
  3

 62
   256
 51
90.0
 52
90.0
 71
     2
 49
0.5
 62
   256
  6
BYLAYER
 49
-0.5
 62
   256
  6
BYLAYER
  0
ACDBPLACEHOLDER
  5
F
102
{ACAD_REACTORS
330
E
102
}
330
E
  0
ENDSEC
  0
EOF
