  0
SECTION
  2
HEADER
  9
$ACADVER
  1
AC1009
  9
$DWGCODEPAGE
  3
ansi_1252
  9
$INSBASE
 10
0.0
 20
0.0
 30
0.0
  9
$EXTMIN
 10
0.0
 20
0.0
 30
0.0
  9
$EXTMAX
 10
11.0
 20
8.5
 30
0.0
  9
$LIMMIN
 10
0.0
 20
0.0
  9
$LIMMAX
 10
11.0
 20
8.5
  9
$ORTHOMODE
 70
     0
  9
$REGENMODE
 70
     1
  9
$FILLMODE
 70
     1
  9
$QTEXTMODE
 70
     0
  9
$MIRRTEXT
 70
     1
  9
$DRAGMODE
 70
     2
  9
$LTSCALE
 40
1.0
  9
$OSMODE
 70
    37
  9
$ATTMODE
 70
     1
  9
$TEXTSIZE
 40
0.125
  9
$TRACEWID
 40
0.05
  9
$TEXTSTYLE
  7
STANDARD
  9
$CLAYER
  8
0
  9
$CELTYPE
  6
BYLAYER
  9
$CECOLOR
 62
   256
  9
$DIMSCALE
 40
1.0
  9
$DIMASZ
 40
0.13
  9
$DIMEXO
 40
0.05
  9
$DIMDLI
 40
0.38
  9
$DIMRND
 40
0.0
  9
$DIMDLE
 40
0.0
  9
$DIMEXE
 40
0.125
  9
$DIMTP
 40
0.0
  9
$DIMTM
 40
0.0
  9
$DIMTXT
 40
0.125
  9
$DIMCEN
 40
0.09
  9
$DIMTSZ
 40
0.0
  9
$DIMTOL
 70
     0
  9
$DIMLIM
 70
     0
  9
$DIMTIH
 70
     1
  9
$DIMTOH
 70
     1
  9
$DIMSE1
 70
     0
  9
$DIMSE2
 70
     0
  9
$DIMTAD
 70
     1
  9
$DIMZIN
 70
     0
  9
$DIMBLK
  1

  9
$DIMASO
 70
     1
  9
$DIMSHO
 70
     1
  9
$DIMPOST
  1

  9
$DIMAPOST
  1

  9
$DIMALT
 70
     0
  9
$DIMALTD
 70
     2
  9
$DIMALTF
 40
25.4
  9
$DIMLFAC
 40
1.0
  9
$DIMTOFL
 70
     0
  9
$DIMTVP
 40
0.0
  9
$DIMTIX
 70
     0
  9
$DIMSOXD
 70
     0
  9
$DIMSAH
 70
     0
  9
$DIMBLK1
  1

  9
$DIMBLK2
  1

  9
$DIMSTYLE
  2
STANDARD
  9
$DIMCLRD
 70
     0
  9
$DIMCLRE
 70
     0
  9
$DIMCLRT
 70
     0
  9
$DIMTFAC
 40
1.0
  9
$DIMGAP
 40
0.06
  9
$LUNITS
 70
     2
  9
$LUPREC
 70
     3
  9
$SKETCHINC
 40
0.1
  9
$FILLETRAD
 40
0.5
  9
$AUNITS
 70
     0
  9
$AUPREC
 70
     2
  9
$MENU
  1
.
  9
$ELEVATION
 40
0.0
  9
$PELEVATION
 40
0.0
  9
$THICKNESS
 40
0.0
  9
$LIMCHECK
 70
     0
  9
$CHAMFERA
 40
0.5
  9
$CHAMFERB
 40
0.5
  9
$SKPOLY
 70
     0
  9
$TDCREATE
 40
2456498.580845486
  9
$TDUPDATE
 40
2456498.580845498
  9
$TDINDWG
 40
0.0000000116
  9
$TDUSRTIMER
 40
0.0000000116
  9
$USRTIMER
 70
     1
  9
$ANGBASE
 50
0.0
  9
$ANGDIR
 70
     0
  9
$PDMODE
 70
     0
  9
$PDSIZE
 40
-1.0
  9
$PLINEWID
 40
0.0
  9
$COORDS
 70
     1
  9
$SPLFRAME
 70
     0
  9
$SPLINETYPE
 70
     6
  9
$SPLINESEGS
 70
     8
  9
$ATTDIA
 70
     0
  9
$ATTREQ
 70
     1
  9
$HANDLING
 70
     1
  9
$HANDSEED
  5
37E
  9
$SURFTAB1
 70
     6
  9
$SURFTAB2
 70
     6
  9
$SURFTYPE
 70
     6
  9
$SURFU
 70
     6
  9
$SURFV
 70
     6
  9
$UCSNAME
  2

  9
$UCSORG
 10
0.0
 20
0.0
 30
0.0
  9
$UCSXDIR
 10
1.0
 20
0.0
 30
0.0
  9
$UCSYDIR
 10
0.0
 20
1.0
 30
0.0
  9
$PUCSNAME
  2

  9
$PUCSORG
 10
0.0
 20
0.0
 30
0.0
  9
$PUCSXDIR
 10
1.0
 20
0.0
 30
0.0
  9
$PUCSYDIR
 10
0.0
 20
1.0
 30
0.0
  9
$USERI1
 70
     0
  9
$USERI2
 70
     0
  9
$USERI3
 70
     0
  9
$USERI4
 70
     0
  9
$USERI5
 70
     0
  9
$USERR1
 40
0.0
  9
$USERR2
 40
0.0
  9
$USERR3
 40
0.0
  9
$USERR4
 40
0.0
  9
$USERR5
 40
0.0
  9
$WORLDVIEW
 70
     1
  9
$SHADEDGE
 70
     3
  9
$SHADEDIF
 70
    70
  9
$TILEMODE
 70
     1
  9
$MAXACTVP
 70
    64
  9
$PLIMCHECK
 70
     0
  9
$PEXTMIN
 10
1.0000000000E+20
 20
1.0000000000E+20
 30
1.0000000000E+20
  9
$PEXTMAX
 10
-1.0000000000E+20
 20
-1.0000000000E+20
 30
-1.0000000000E+20
  9
$PLIMMIN
 10
0.0
 20
0.0
  9
$PLIMMAX
 10
12.0
 20
9.0
  9
$UNITMODE
 70
     0
  9
$VISRETAIN
 70
     1
  9
$PLINEGEN
 70
     0
  9
$PSLTSCALE
 70
     1
  0
ENDSEC
  0
SECTION
  2
TABLES
  0
TABLE
  2
VPORT
 70
     1
  0
VPORT
  2
*ACTIVE
 70
     0
 10
0.0
 20
0.0
 11
1.0
 21
1.0
 12
5.5
 22
4.25
 13
0.0
 23
0.0
 14
0.5
 24
0.5
 15
0.5
 25
0.5
 16
0.0
 26
0.0
 36
1.0
 17
0.0
 27
0.0
 37
0.0
 40
8.5
 41
1.2941176471
 42
50.0
 43
0.0
 44
0.0
 50
0.0
 51
0.0
 71
     0
 72
  2000
 73
     1
 74
     3
 75
     0
 76
     0
 77
     0
 78
     0
  0
ENDTAB
  0
TABLE
  2
LTYPE
 70
     6
  0
LTYPE
  2
CONTINUOUS
 70
     0
  3
Solid line
 72
    65
 73
     0
 40
0.0
  0
LTYPE
  2
HIDDEN
 70
     0
  3
Hidden __ __ __ __ __ __ __ __ __ __ __ __ __ __
 72
    65
 73
     2
 40
0.075
 49
0.05
 49
-0.025
  0
LTYPE
  2
PHANTOM
 70
     0
  3
Phantom ______  __  __  ______  __  __  ______
 72
    65
 73
     6
 40
0.5
 49
0.25
 49
-0.05
 49
0.05
 49
-0.05
 49
0.05
 49
-0.05
  0
LTYPE
  2
CENTER
 70
     0
  3
Center ____ _ ____ _ ____ _ ____ _ ____ _ ____
 72
    65
 73
     4
 40
0.4
 49
0.25
 49
-0.05
 49
0.05
 49
-0.05
  0
LTYPE
  2
CENTERX2
 70
     0
  3
Center (2x) ________  __  ________  __  _____
 72
    65
 73
     4
 40
0.8
 49
0.5
 49
-0.1
 49
0.1
 49
-0.1
  0
LTYPE
  2
DOT2
 70
     0
  3
Dot (.5x) ........................................
 72
    65
 73
     2
 40
0.025
 49
0.0
 49
-0.025
  0
ENDTAB
  0
TABLE
  2
LAYER
 70
     1
  0
LAYER
  2
0
 70
     0
 62
     7
  6
CONTINUOUS
  0
ENDTAB
  0
TABLE
  2
STYLE
 70
     1
  0
STYLE
  2
STANDARD
 70
     0
 40
0.0
 41
1.0
 50
0.0
 71
     0
 42
0.2
  3
txt
  4

  0
ENDTAB
  0
TABLE
  2
VIEW
 70
     0
  0
ENDTAB
  0
TABLE
  2
UCS
 70
     0
  0
ENDTAB
  0
TABLE
  2
APPID
 70
     1
  0
APPID
  2
ACAD
 70
     0
  0
ENDTAB
  0
TABLE
  2
DIMSTYLE
 70
     2
  0
DIMSTYLE
  2
STANDARD
 70
     0
  3

  4

  5

  6

  7

 40
1.0
 41
0.18
 42
0.0625
 43
0.38
 44
0.18
 45
0.0
 46
0.0
 47
0.0
 48
0.0
140
0.18
141
0.09
142
0.0
143
25.4
144
1.0
145
0.0
146
1.0
147
0.09
 71
     0
 72
     0
 73
     1
 74
     1
 75
     0
 76
     0
 77
     0
 78
     0
170
     0
171
     2
172
     0
173
     0
174
     0
175
     0
176
     0
177
     0
178
     0
  0
DIMSTYLE
  2
SLDDIMSTYLE0
 70
     0
  3

  4

  5

  6

  7

 40
1.0
 41
0.13
 42
0.0625
 43
0.38
 44
0.0
 45
0.000000001
 46
0.0
 47
0.0
 48
0.0
140
0.125
141
0.09
142
0.0
143
25.4
144
1.0
145
0.0
146
1.0
147
0.03125
 71
     0
 72
     0
 73
     1
 74
     1
 75
     0
 76
     0
 77
     0
 78
     4
170
     1
171
     2
172
     0
173
     1
174
     0
175
     0
176
     0
177
     0
178
     0
  0
ENDTAB
  0
ENDSEC
  0
SECTION
  2
BLOCKS
  0
BLOCK
  8
0
  2
$MODEL_SPACE
 70
     0
 10
0.0
 20
0.0
 30
0.0
  3
$MODEL_SPACE
  1

  0
ENDBLK
  5
21
  8
0
  0
BLOCK
 67
     1
  8
0
  2
$PAPER_SPACE
 70
     0
 10
0.0
 20
0.0
 30
0.0
  3
$PAPER_SPACE
  1

  0
ENDBLK
  5
1D
 67
     1
  8
0
  0
BLOCK
  8
0
  2
SW_NOTE_0
 70
     0
 10
0.0
 20
0.0
 30
0.0
  3
SW_NOTE_0
  1

  0
TEXT
  5
55
  8
0
  6
CONTINUOUS
 62
     0
 10
0.0
 20
0.0441575077
 30
0.0
 40
0.125
  1
MATERIAL:
 41
0.7
 11
0.0
 21
0.0
 31
0.0
 73
     1
  0
TEXT
  5
56
  8
0
  6
CONTINUOUS
 62
     0
 10
0.0
 20
-0.1202125668
 30
0.0
 40
0.125
  1
  STEM & CAP, HEX NUTS - STEEL
 41
0.6066666667
 11
0.0
 21
-0.1643700745
 31
0.0
 73
     1
  0
TEXT
  5
57
  8
0
  6
CONTINUOUS
 62
     0
 10
0.0
 20
-0.2845826413
 30
0.0
 40
0.125
  1
  PAD - RUBBER
 41
0.6
 11
0.0
 21
-0.328740149
 31
0.0
 73
     1
  0
TEXT
  5
58
  8
0
  6
CONTINUOUS
 62
     0
 10
0.0
 20
-0.6133227903
 30
0.0
 40
0.125
  1
FINISH:
 41
0.7
 11
0.0
 21
-0.6574802981
 31
0.0
 73
     1
  0
TEXT
  5
59
  8
0
  6
CONTINUOUS
 62
     0
 10
0.0
 20
-0.7776928648
 30
0.0
 40
0.125
  1
  STEM & CAP - ZINC PLATE WITH
 41
0.6066666667
 11
0.0
 21
-0.8218503726
 31
0.0
 73
     1
  0
TEXT
  5
5A
  8
0
  6
CONTINUOUS
 62
     0
 10
0.0
 20
-0.9420629394
 30
0.0
 40
0.125
  1
     CLEAR CHROMATE
 41
0.5894736842
 11
0.0
 21
-0.9862204471
 31
0.0
 73
     1
  0
TEXT
  5
5B
  8
0
  6
CONTINUOUS
 62
     0
 10
0.0
 20
-1.1064330139
 30
0.0
 40
0.125
  1
  HEX NUTS - ZINC PLATE
 41
0.6086956522
 11
0.0
 21
-1.1505905216
 31
0.0
 73
     1
  0
TEXT
  5
5C
  8
0
  6
CONTINUOUS
 62
     0
 10
0.0
 20
-1.2708030884
 30
0.0
 40
0.125
  1
  PAD - GREY
 41
0.5833333333
 11
0.0
 21
-1.3149605961
 31
0.0
 73
     1
  0
ENDBLK
  5
54
  8
0
  0
BLOCK
  8
0
  2
SW_NOTE_1
 70
     0
 10
0.0
 20
0.0
 30
0.0
  3
SW_NOTE_1
  1

  0
TEXT
  5
62
  8
0
  6
CONTINUOUS
 62
     0
 10
0.0
 20
0.0441575077
 30
0.0
 40
0.125
  1
PART
 41
0.7
 11
0.0
 21
0.0
 31
0.0
 73
     1
  0
TEXT
  5
63
  8
0
  6
CONTINUOUS
 62
     0
 10
-0.0474826381
 20
-0.1202125668
 30
0.0
 40
0.125
  1
NAME
 41
0.7
 11
-0.0474826381
 21
-0.1643700745
 31
0.0
 73
     1
  0
ENDBLK
  5
61
  8
0
  0
BLOCK
  8
0
  2
SW_NOTE_2
 70
     0
 10
0.0
 20
0.0
 30
0.0
  3
SW_NOTE_2
  1

  0
TEXT
  5
68
  8
0
  6
CONTINUOUS
 62
     0
 10
0.0
 20
0.0441575077
 30
0.0
 40
0.125
  1
PART
 41
0.7
 11
0.0
 21
0.0
 31
0.0
 73
     1
  0
TEXT
  5
69
  8
0
  6
CONTINUOUS
 62
     0
 10
0.0577256831
 20
-0.1202125668
 30
0.0
 40
0.125
  1
No.
 41
0.7
 11
0.0577256831
 21
-0.1643700745
 31
0.0
 73
     1
  0
ENDBLK
  5
67
  8
0
  0
BLOCK
  8
0
  2
SW_NOTE_3
 70
     0
 10
0.0
 20
0.0
 30
0.0
  3
SW_NOTE_3
  1

  0
TEXT
  5
6E
  8
0
  6
CONTINUOUS
 62
     0
 10
0.0
 20
0.0441575077
 30
0.0
 40
0.125
  1
REV.
 41
0.7
 11
0.0
 21
0.0
 31
0.0
 73
     1
  0
TEXT
  5
6F
  8
0
  6
CONTINUOUS
 62
     0
 10
-0.0269097225
 20
-0.1202125668
 30
0.0
 40
0.125
  1
DATE
 41
0.7
 11
-0.0269097225
 21
-0.1643700745
 31
0.0
 73
     1
  0
ENDBLK
  5
6D
  8
0
  0
BLOCK
  8
0
  2
*D5
 70
     1
 10
0.0
 20
0.0
 30
0.0
  3
*D5
  1

  0
SOLID
  5
BD
  8
0
  6
CONTINUOUS
 62
     7
 10
3.0451682135
 20
1.4840487239
 30
0.0
 11
3.1751682135
 21
1.4640487239
 31
0.0
 12
3.1751682135
 22
1.5040487239
 32
0.0
 13
3.1751682135
 23
1.5040487239
 33
0.0
  0
SOLID
  5
BE
  8
0
  6
CONTINUOUS
 62
     7
 10
4.5451682135
 20
1.4840487239
 30
0.0
 11
4.4151682135
 21
1.5040487239
 31
0.0
 12
4.4151682135
 22
1.4640487239
 32
0.0
 13
4.4151682135
 23
1.4640487239
 33
0.0
  0
LINE
  5
BF
  8
0
  6
CONTINUOUS
 62
     7
 10
3.6017979766
 20
1.5024515021
 30
0.0
 11
3.5764073503
 21
1.5024515021
 31
0.0
  0
LINE
  5
C0
  8
0
  6
CONTINUOUS
 62
     7
 10
3.5764073503
 20
1.5024515021
 30
0.0
 11
3.5764073503
 21
1.3040139962
 31
0.0
  0
LINE
  5
C1
  8
0
  6
CONTINUOUS
 62
     7
 10
3.5764073503
 20
1.3040139962
 30
0.0
 11
3.6017979766
 21
1.3040139962
 31
0.0
  0
LINE
  5
C2
  8
0
  6
CONTINUOUS
 62
     7
 10
3.9885384412
 20
1.5024515021
 30
0.0
 11
4.0139290675
 21
1.5024515021
 31
0.0
  0
LINE
  5
C3
  8
0
  6
CONTINUOUS
 62
     7
 10
4.0139290675
 20
1.5024515021
 30
0.0
 11
4.0139290675
 21
1.3040139962
 31
0.0
  0
LINE
  5
C4
  8
0
  6
CONTINUOUS
 62
     7
 10
4.0139290675
 20
1.3040139962
 30
0.0
 11
3.9885384412
 21
1.3040139962
 31
0.0
  0
LINE
  5
C5
  8
0
  6
CONTINUOUS
 62
     7
 10
3.0451682135
 20
2.3876078886
 30
0.0
 11
3.0451682135
 21
1.3590487239
 31
0.0
  0
LINE
  5
C6
  8
0
  6
CONTINUOUS
 62
     7
 10
4.5451682135
 20
2.3876078886
 30
0.0
 11
4.5451682135
 21
1.3590487239
 31
0.0
  0
LINE
  5
C7
  8
0
  6
CONTINUOUS
 62
     7
 10
3.0451682135
 20
1.4840487239
 30
0.0
 11
3.4631510478
 21
1.4840487239
 31
0.0
  0
LINE
  5
C8
  8
0
  6
CONTINUOUS
 62
     7
 10
4.5451682135
 20
1.4840487239
 30
0.0
 11
4.1271853791
 21
1.4840487239
 31
0.0
  0
TEXT
  5
C9
  8
0
  6
CONTINUOUS
 62
     7
 10
3.4884972195
 20
1.5719996361
 30
0.0039370079
 40
0.125
  1
%%c
 41
0.7
 11
3.4884972195
 21
1.5278421284
 31
0.0039370079
 73
     1
  0
TEXT
  5
CA
  8
0
  6
CONTINUOUS
 62
     7
 10
3.6770128401
 20
1.5719996361
 30
0.0039370079
 40
0.125
  1
1.50
 41
0.7
 11
3.6770128401
 21
1.5278421284
 31
0.0039370079
 73
     1
  0
TEXT
  5
CB
  8
0
  6
CONTINUOUS
 62
     7
 10
3.6335362594
 20
1.348171497
 30
0.0039370079
 40
0.125
  1
38.1
 41
0.7
 11
3.6335362594
 21
1.3040139893
 31
0.0039370079
 73
     1
  0
ENDBLK
  5
BC
  8
0
  0
BLOCK
  8
0
  2
*D6
 70
     1
 10
0.0
 20
0.0
 30
0.0
  3
*D6
  1

  0
SOLID
  5
D0
  8
0
  6
CONTINUOUS
 62
     7
 10
5.1750894733
 20
2.0086078886
 30
0.0
 11
5.1950894733
 21
2.1386078886
 31
0.0
 12
5.1550894733
 22
2.1386078886
 32
0.0
 13
5.1550894733
 23
2.1386078886
 33
0.0
  0
SOLID
  5
D1
  8
0
  6
CONTINUOUS
 62
     7
 10
5.1750894733
 20
3.0086078886
 30
0.0
 11
5.1550894733
 21
2.8786078886
 31
0.0
 12
5.1950894733
 22
2.8786078886
 32
0.0
 13
5.1950894733
 23
2.8786078886
 33
0.0
  0
LINE
  5
D2
  8
0
  6
CONTINUOUS
 62
     7
 10
4.9817192456
 20
2.5076530263
 30
0.0
 11
4.9563286193
 21
2.5076530263
 31
0.0
  0
LINE
  5
D3
  8
0
  6
CONTINUOUS
 62
     7
 10
4.9563286193
 20
2.5076530263
 30
0.0
 11
4.9563286193
 21
2.3092155204
 31
0.0
  0
LINE
  5
D4
  8
0
  6
CONTINUOUS
 62
     7
 10
4.9563286193
 20
2.3092155204
 30
0.0
 11
4.9817192456
 21
2.3092155204
 31
0.0
  0
LINE
  5
D5
  8
0
  6
CONTINUOUS
 62
     7
 10
5.3684597102
 20
2.5076530263
 30
0.0
 11
5.3938503365
 21
2.5076530263
 31
0.0
  0
LINE
  5
D6
  8
0
  6
CONTINUOUS
 62
     7
 10
5.3938503365
 20
2.5076530263
 30
0.0
 11
5.3938503365
 21
2.3092155204
 31
0.0
  0
LINE
  5
D7
  8
0
  6
CONTINUOUS
 62
     7
 10
5.3938503365
 20
2.3092155204
 30
0.0
 11
5.3684597102
 21
2.3092155204
 31
0.0
  0
LINE
  5
D8
  8
0
  6
CONTINUOUS
 62
     7
 10
4.4491682135
 20
2.0086078886
 30
0.0
 11
5.3000894733
 21
2.0086078886
 31
0.0
  0
LINE
  5
D9
  8
0
  6
CONTINUOUS
 62
     7
 10
4.1540529567
 20
3.0086078886
 30
0.0
 11
5.3000894733
 21
3.0086078886
 31
0.0
  0
LINE
  5
DA
  8
0
  6
CONTINUOUS
 62
     7
 10
5.1750894733
 20
2.0086078886
 30
0.0
 11
5.1750894733
 21
2.2838248803
 31
0.0
  0
LINE
  5
DB
  8
0
  6
CONTINUOUS
 62
     7
 10
5.1750894733
 20
3.0086078886
 30
0.0
 11
5.1750894733
 21
2.7333908969
 31
0.0
  0
TEXT
  5
DC
  8
0
  6
CONTINUOUS
 62
     7
 10
4.8911050939
 20
2.5791108918
 30
0.0039370079
 40
0.125
  1
 
 41
0.7
 11
4.8911050939
 21
2.5349533841
 31
0.0039370079
 73
     1
  0
TEXT
  5
DD
  8
0
  6
CONTINUOUS
 62
     7
 10
4.9626762896
 20
2.5772011603
 30
0.0039370079
 40
0.125
  1
1.00
 41
0.7
 11
4.9626762896
 21
2.5330436526
 31
0.0039370079
 73
     1
  0
TEXT
  5
DE
  8
0
  6
CONTINUOUS
 62
     7
 10
5.0134575284
 20
2.3533730212
 30
0.0039370079
 40
0.125
  1
25.4
 41
0.7
 11
5.0134575284
 21
2.3092155135
 31
0.0039370079
 73
     1
  0
TEXT
  5
DF
  8
0
  6
CONTINUOUS
 62
     7
 10
5.4128933062
 20
2.5791108918
 30
0.0039370079
 40
0.125
  1
 
 41
0.7
 11
5.4128933062
 21
2.5349533841
 31
0.0039370079
 73
     1
  0
ENDBLK
  5
CF
  8
0
  0
BLOCK
  8
0
  2
*D7
 70
     1
 10
0.0
 20
0.0
 30
0.0
  3
*D7
  1

  0
SOLID
  5
E4
  8
0
  6
CONTINUOUS
 62
     7
 10
5.1750894733
 20
6.0086078886
 30
0.0
 11
5.1550894733
 21
5.8786078886
 31
0.0
 12
5.1950894733
 22
5.8786078886
 32
0.0
 13
5.1950894733
 23
5.8786078886
 33
0.0
  0
SOLID
  5
E5
  8
0
  6
CONTINUOUS
 62
     7
 10
5.1750894733
 20
3.0086078886
 30
0.0
 11
5.1950894733
 21
3.1386078886
 31
0.0
 12
5.1550894733
 22
3.1386078886
 32
0.0
 13
5.1550894733
 23
3.1386078886
 33
0.0
  0
LINE
  5
E6
  8
0
  6
CONTINUOUS
 62
     7
 10
4.9817192456
 20
4.5076530263
 30
0.0
 11
4.9563286193
 21
4.5076530263
 31
0.0
  0
LINE
  5
E7
  8
0
  6
CONTINUOUS
 62
     7
 10
4.9563286193
 20
4.5076530263
 30
0.0
 11
4.9563286193
 21
4.3092155204
 31
0.0
  0
LINE
  5
E8
  8
0
  6
CONTINUOUS
 62
     7
 10
4.9563286193
 20
4.3092155204
 30
0.0
 11
4.9817192456
 21
4.3092155204
 31
0.0
  0
LINE
  5
E9
  8
0
  6
CONTINUOUS
 62
     7
 10
5.3684597102
 20
4.5076530263
 30
0.0
 11
5.3938503365
 21
4.5076530263
 31
0.0
  0
LINE
  5
EA
  8
0
  6
CONTINUOUS
 62
     7
 10
5.3938503365
 20
4.5076530263
 30
0.0
 11
5.3938503365
 21
4.3092155204
 31
0.0
  0
LINE
  5
EB
  8
0
  6
CONTINUOUS
 62
     7
 10
5.3938503365
 20
4.3092155204
 30
0.0
 11
5.3684597102
 21
4.3092155204
 31
0.0
  0
LINE
  5
EC
  8
0
  6
CONTINUOUS
 62
     7
 10
3.9726682135
 20
6.0086078886
 30
0.0
 11
5.3000894733
 21
6.0086078886
 31
0.0
  0
LINE
  5
ED
  8
0
  6
CONTINUOUS
 62
     7
 10
4.1540529567
 20
3.0086078886
 30
0.0
 11
5.3000894733
 21
3.0086078886
 31
0.0
  0
LINE
  5
EE
  8
0
  6
CONTINUOUS
 62
     7
 10
5.1750894733
 20
6.0086078886
 30
0.0
 11
5.1750894733
 21
4.7333908969
 31
0.0
  0
LINE
  5
EF
  8
0
  6
CONTINUOUS
 62
     7
 10
5.1750894733
 20
3.0086078886
 30
0.0
 11
5.1750894733
 21
4.2838248803
 31
0.0
  0
TEXT
  5
F0
  8
0
  6
CONTINUOUS
 62
     7
 10
4.8911050939
 20
4.5791108918
 30
0.0039370079
 40
0.125
  1
 
 41
0.7
 11
4.8911050939
 21
4.5349533841
 31
0.0039370079
 73
     1
  0
TEXT
  5
F1
  8
0
  6
CONTINUOUS
 62
     7
 10
4.9626762896
 20
4.5772011603
 30
0.0039370079
 40
0.125
  1
3.00
 41
0.7
 11
4.9626762896
 21
4.5330436526
 31
0.0039370079
 73
     1
  0
TEXT
  5
F2
  8
0
  6
CONTINUOUS
 62
     7
 10
5.0134575284
 20
4.3533730212
 30
0.0039370079
 40
0.125
  1
76.2
 41
0.7
 11
5.0134575284
 21
4.3092155135
 31
0.0039370079
 73
     1
  0
TEXT
  5
F3
  8
0
  6
CONTINUOUS
 62
     7
 10
5.4128933062
 20
4.5791108918
 30
0.0039370079
 40
0.125
  1
 
 41
0.7
 11
5.4128933062
 21
4.5349533841
 31
0.0039370079
 73
     1
  0
ENDBLK
  5
E3
  8
0
  0
BLOCK
  8
0
  2
SW_NOTE_4
 70
     0
 10
0.0
 20
0.0
 30
0.0
  3
SW_NOTE_4
  1

  0
TEXT
  5
F7
  8
0
  6
CONTINUOUS
 62
     0
 10
0.9792285383
 20
0.9660519298
 30
0.0
 40
0.125
  1
3/8-16 THREAD
 41
0.7
 11
0.9792285383
 21
0.9218944221
 31
0.0
 73
     1
  0
POLYLINE
  5
F8
  8
0
  6
CONTINUOUS
 62
     0
 66
     1
 10
0.0
 20
0.0
 30
0.0
  0
VERTEX
  5
376
  8
0
  6
CONTINUOUS
 62
     0
 10
0.9595227913
 20
1.0223961717
 30
0.0
  0
VERTEX
  5
377
  8
0
  6
CONTINUOUS
 62
     0
 10
0.7095227913
 20
1.0223961717
 30
0.0
  0
VERTEX
  5
378
  8
0
  6
CONTINUOUS
 62
     0
 10
0.0
 20
0.0
 30
0.0
  0
SEQEND
  5
379
  8
0
  6
CONTINUOUS
 62
     0
  0
SOLID
  5
F9
  8
0
  6
CONTINUOUS
 62
     0
 10
0.0
 20
0.0
 30
0.0
 11
0.0905489793
 21
0.0953985448
 31
0.0
 12
0.0576870361
 22
0.1182040857
 32
0.0
 13
0.0576870361
 23
0.1182040857
 33
0.0
  0
ENDBLK
  5
F6
  8
0
  0
BLOCK
  8
0
  2
SW_NOTE_5
 70
     0
 10
0.0
 20
0.0
 30
0.0
  3
SW_NOTE_5
  1

  0
TEXT
  5
FE
  8
0
  6
CONTINUOUS
 62
     0
 10
-2.2081433148
 20
0.4933257117
 30
0.0
 40
0.125
  1
QTY. (2) HEX NUTS
 41
0.6382352941
 11
-2.2081433148
 21
0.449168204
 31
0.0
 73
     1
  0
TEXT
  5
FF
  8
0
  6
CONTINUOUS
 62
     0
 10
-1.5194279242
 20
0.3289556372
 30
0.0
 40
0.125
  1
SUPPLIED
 41
0.7
 11
-1.5194279242
 21
0.2847981294
 31
0.0
 73
     1
  0
POLYLINE
  5
100
  8
0
  6
CONTINUOUS
 62
     0
 66
     1
 10
0.0
 20
0.0
 30
0.0
  0
VERTEX
  5
37A
  8
0
  6
CONTINUOUS
 62
     0
 10
-0.7824024795
 20
0.5129582367
 30
0.0
  0
VERTEX
  5
37B
  8
0
  6
CONTINUOUS
 62
     0
 10
-0.5324024795
 20
0.5129582367
 30
0.0
  0
VERTEX
  5
37C
  8
0
  6
CONTINUOUS
 62
     0
 10
0.0
 20
0.0
 30
0.0
  0
SEQEND
  5
37D
  8
0
  6
CONTINUOUS
 62
     0
  0
SOLID
  5
101
  8
0
  6
CONTINUOUS
 62
     0
 10
0.0
 20
0.0
 30
0.0
 11
-0.0797408349
 21
0.1046011437
 31
0.0
 12
-0.1074942036
 22
0.0757957531
 32
0.0
 13
-0.1074942036
 23
0.0757957531
 33
0.0
  0
ENDBLK
  5
FD
  8
0
  0
ENDSEC
  0
SECTION
  2
ENTITIES
  0
LINE
  5
44
  8
0
  6
CONTINUOUS
 62
     7
 10
0.391927
 20
8.1300731707
 30
0.0
 11
0.391927
 21
0.4540731707
 31
0.0
  0
LINE
  5
45
  8
0
  6
CONTINUOUS
 62
     7
 10
0.329927
 20
8.1920731707
 30
0.0
 11
0.329927
 21
0.3920731707
 31
0.0
  0
LINE
  5
46
  8
0
  6
CONTINUOUS
 62
     7
 10
10.629927
 20
0.3920731707
 30
0.0
 11
0.329927
 21
0.3920731707
 31
0.0
  0
LINE
  5
47
  8
0
  6
CONTINUOUS
 62
     7
 10
10.629927
 20
0.3920731707
 30
0.0
 11
10.629927
 21
8.1920731707
 31
0.0
  0
LINE
  5
48
  8
0
  6
CONTINUOUS
 62
     7
 10
10.567927
 20
0.4540731707
 30
0.0
 11
0.391927
 21
0.4540731707
 31
0.0
  0
LINE
  5
49
  8
0
  6
CONTINUOUS
 62
     7
 10
10.567927
 20
0.4540731707
 30
0.0
 11
10.567927
 21
8.1300731707
 31
0.0
  0
LINE
  5
4A
  8
0
  6
CONTINUOUS
 62
     7
 10
0.391927
 20
8.1300731707
 30
0.0
 11
10.567927
 21
8.1300731707
 31
0.0
  0
LINE
  5
4B
  8
0
  6
CONTINUOUS
 62
     7
 10
0.391927
 20
7.7240731707
 30
0.0
 11
10.567927
 21
7.7240731707
 31
0.0
  0
LINE
  5
4C
  8
0
  6
CONTINUOUS
 62
     7
 10
0.953927
 20
8.1300731707
 30
0.0
 11
0.953927
 21
7.7240731707
 31
0.0
  0
LINE
  5
4D
  8
0
  6
CONTINUOUS
 62
     7
 10
9.0209161631
 20
8.1300731707
 30
0.0
 11
9.0209161631
 21
7.7240731707
 31
0.0
  0
LINE
  5
4E
  8
0
  6
CONTINUOUS
 62
     7
 10
9.5829161631
 20
8.1300731707
 30
0.0
 11
9.5829161631
 21
7.7240731707
 31
0.0
  0
LINE
  5
4F
  8
0
  6
CONTINUOUS
 62
     7
 10
5.453927
 20
8.1300731707
 30
0.0
 11
5.453927
 21
7.7240731707
 31
0.0
  0
LINE
  5
50
  8
0
  6
CONTINUOUS
 62
     7
 10
6.015927
 20
8.1300731707
 30
0.0
 11
6.015927
 21
7.7240731707
 31
0.0
  0
LINE
  5
51
  8
0
  6
CONTINUOUS
 62
     7
 10
0.329927
 20
8.1920731707
 30
0.0
 11
10.629927
 21
8.1920731707
 31
0.0
  0
INSERT
  5
5D
  8
0
  6
CONTINUOUS
 62
     7
  2
SW_NOTE_0
 10
7.0941937355
 20
6.8113491784
 30
0.0
  0
TEXT
  5
5E
  8
0
  6
CONTINUOUS
 62
     7
 10
7.0941937355
 20
4.9545438092
 30
0.0
 40
0.125
  1
LOAD RATING:  200 LBS. [90 KG.]
 41
0.6322580645
 11
7.0941937355
 21
4.9103863014
 31
0.0
 73
     1
  0
INSERT
  5
64
  8
0
  6
CONTINUOUS
 62
     7
  2
SW_NOTE_1
 10
0.4700130874
 20
7.9140318903
 30
0.0
  0
INSERT
  5
6A
  8
0
  6
CONTINUOUS
 62
     7
  2
SW_NOTE_2
 10
5.5393881545
 20
7.9135712069
 30
0.0
  0
INSERT
  5
70
  8
0
  6
CONTINUOUS
 62
     7
  2
SW_NOTE_3
 10
9.1290491867
 20
7.9199729233
 30
0.0
  0
TEXT
  5
71
  8
0
  6
CONTINUOUS
 62
     7
 10
2.2445673476
 20
7.8597806339
 30
0.0
 40
0.1875
  1
STEM LEVELER
 41
0.7
 11
2.2445673476
 21
7.7935443723
 31
0.0
 73
     1
  0
TEXT
  5
72
  8
0
  6
CONTINUOUS
 62
     7
 10
7.1096099171
 20
7.8503559766
 30
0.0
 40
0.1875
  1
RL-7766
 41
0.7
 11
7.1096099171
 21
7.784119715
 31
0.0
 73
     1
  0
TEXT
  5
73
  8
0
  6
CONTINUOUS
 62
     7
 10
9.634215585
 20
7.8474386566
 30
0.0
 40
0.1875
  1
7-24-13
 41
0.7
 11
9.634215585
 21
7.781202395
 31
0.0
 73
     1
  0
LINE
  5
74
  8
0
  6
CONTINUOUS
 62
     7
 10
4.1126816355
 20
4.6608655695
 30
0.0
 11
4.0677234865
 21
4.6818298607
 31
0.0
  0
LINE
  5
75
  8
0
  6
CONTINUOUS
 62
     7
 10
3.5226129404
 20
4.6818298607
 30
0.0
 11
3.4776548647
 21
4.6608655695
 31
0.0
  0
LINE
  5
76
  8
0
  6
CONTINUOUS
 62
     7
 10
4.0480679969
 20
4.3448302737
 30
0.0
 11
4.0480679969
 21
4.3608302489
 31
0.0
  0
LINE
  5
77
  8
0
  6
CONTINUOUS
 62
     7
 10
3.54226843
 20
4.3608302489
 30
0.0
 11
3.54226843
 21
4.3448302737
 31
0.0
  0
LINE
  5
78
  8
0
  6
CONTINUOUS
 62
     7
 10
4.1167805182
 20
5.000531379
 30
0.0
 11
4.0677234865
 21
5.0234070081
 31
0.0
  0
LINE
  5
79
  8
0
  6
CONTINUOUS
 62
     7
 10
3.5226129404
 20
5.0234070081
 30
0.0
 11
3.4735208558
 21
5.0005149525
 31
0.0
  0
LINE
  5
7A
  8
0
  6
CONTINUOUS
 62
     7
 10
4.0480679969
 20
4.6864072745
 30
0.0
 11
4.0480679969
 21
4.702407543
 31
0.0
  0
LINE
  5
7B
  8
0
  6
CONTINUOUS
 62
     7
 10
3.54226843
 20
4.702407543
 30
0.0
 11
3.54226843
 21
4.6864072745
 31
0.0
  0
LINE
  5
7C
  8
0
  6
CONTINUOUS
 62
     7
 10
4.5451682227
 20
2.4376078828
 30
0.0
 11
4.5451682227
 21
2.6246078859
 31
0.0
  0
LINE
  5
7D
  8
0
  6
CONTINUOUS
 62
     7
 10
3.0451682042
 20
2.6246078859
 30
0.0
 11
3.0451682042
 21
2.4376078828
 31
0.0
  0
ARC
  5
7E
  8
0
  6
CONTINUOUS
 62
     7
 10
4.4821682135
 20
2.6246078886
 30
0.0
 40
0.0629999999999997
 50
0.0
 51
90.0
  0
ARC
  5
7F
  8
0
  6
CONTINUOUS
 62
     7
 10
3.1081682135
 20
2.6246078886
 30
0.0
 40
0.0630000000000002
 50
90.0
 51
180.0
  0
LINE
  5
80
  8
0
  6
CONTINUOUS
 62
     7
 10
4.5241682187
 20
2.1336078871
 30
0.0
 11
4.5241682187
 21
2.4376078828
 31
0.0
  0
LINE
  5
81
  8
0
  6
CONTINUOUS
 62
     7
 10
3.0661682083
 20
2.4376078828
 30
0.0
 11
3.0661682083
 21
2.1336078871
 31
0.0
  0
ARC
  5
82
  8
0
  6
CONTINUOUS
 62
     7
 10
4.3991682135
 20
2.1336078886
 30
0.0
 40
0.125
 50
270.0
 51
0.0
  0
ARC
  5
83
  8
0
  6
CONTINUOUS
 62
     7
 10
3.1911682135
 20
2.1336078886
 30
0.0
 40
0.125
 50
180.0
 51
270.0
  0
LINE
  5
84
  8
0
  6
CONTINUOUS
 62
     7
 10
4.161668213
 20
2.6876078981
 30
0.0
 11
4.161668213
 21
2.7726078762
 31
0.0
  0
LINE
  5
85
  8
0
  6
CONTINUOUS
 62
     7
 10
3.428668214
 20
2.7726078762
 30
0.0
 11
3.428668214
 21
2.6876078981
 31
0.0
  0
LINE
  5
86
  8
0
  6
CONTINUOUS
 62
     7
 10
4.156012115
 20
2.9786092431
 30
0.0
 11
4.1040529685
 21
3.0086078765
 31
0.0
  0
LINE
  5
87
  8
0
  6
CONTINUOUS
 62
     7
 10
3.4862834584
 20
3.0086078765
 30
0.0
 11
3.434324312
 21
2.9786092431
 31
0.0
  0
LINE
  5
88
  8
0
  6
CONTINUOUS
 62
     7
 10
3.9826682158
 20
3.0086078765
 30
0.0
 11
3.9826682158
 21
4.3448302737
 31
0.0
  0
LINE
  5
89
  8
0
  6
CONTINUOUS
 62
     7
 10
3.9826682158
 20
4.6818298607
 30
0.0
 11
3.9826682158
 21
4.6864072745
 31
0.0
  0
LINE
  5
8A
  8
0
  6
CONTINUOUS
 62
     7
 10
3.9826682158
 20
5.0234070081
 30
0.0
 11
3.9826682158
 21
5.9486077867
 31
0.0
  0
LINE
  5
8B
  8
0
  6
CONTINUOUS
 62
     7
 10
3.6076682111
 20
5.9486077867
 30
0.0
 11
3.6076682111
 21
5.0234070081
 31
0.0
  0
LINE
  5
8C
  8
0
  6
CONTINUOUS
 62
     7
 10
3.6076682111
 20
4.6864072745
 30
0.0
 11
3.6076682111
 21
4.6818298607
 31
0.0
  0
LINE
  5
8D
  8
0
  6
CONTINUOUS
 62
     7
 10
3.6076682111
 20
4.3448302737
 30
0.0
 11
3.6076682111
 21
3.0086078765
 31
0.0
  0
LINE
  5
8E
  8
0
  6
CONTINUOUS
 62
     7
 10
3.9826682158
 20
5.9486077867
 30
0.0
 11
3.9226682172
 21
6.0086078403
 31
0.0
  0
LINE
  5
8F
  8
0
  6
CONTINUOUS
 62
     7
 10
3.6676682097
 20
6.0086078403
 30
0.0
 11
3.6076682111
 21
5.9486077867
 31
0.0
  0
LINE
  5
90
  8
0
  6
CONTINUOUS
 62
     7
 10
4.0677234865
 20
4.6818298607
 30
0.0
 11
3.5226129404
 21
4.6818298607
 31
0.0
  0
ARC
  5
91
  8
0
  6
CONTINUOUS
 62
     7
 10
3.806660679
 20
4.0062313526
 30
0.0
 40
0.6712566959596598
 50
76.0257009116
 51
103.9742990884
  0
ARC
  5
92
  8
0
  6
CONTINUOUS
 62
     7
 10
3.5577651518
 20
4.4743990937
 30
0.0
 40
0.2027413289835912
 50
64.6521931624
 51
115.3478068376
  0
LINE
  5
93
  8
0
  6
CONTINUOUS
 62
     7
 10
3.4779114551
 20
4.6603155759
 30
0.0
 11
3.470969142
 21
4.6576216337
 31
0.0
  0
ARC
  5
94
  8
0
  6
CONTINUOUS
 62
     7
 10
4.0440637407
 20
4.5232120318
 30
0.0
 40
0.1540667544862062
 50
60.7400872269
 51
119.2599127731
  0
LINE
  5
95
  8
0
  6
CONTINUOUS
 62
     7
 10
3.9687601964
 20
4.6576216337
 30
0.0
 11
3.9687601964
 21
4.3608302489
 31
0.0
  0
LINE
  5
96
  8
0
  6
CONTINUOUS
 62
     7
 10
3.9687601964
 20
4.3608302489
 30
0.0
 11
3.6445611616
 21
4.3608302489
 31
0.0
  0
LINE
  5
97
  8
0
  6
CONTINUOUS
 62
     7
 10
3.6445611616
 20
4.6576216337
 30
0.0
 11
3.6445611616
 21
4.3608302489
 31
0.0
  0
LINE
  5
98
  8
0
  6
CONTINUOUS
 62
     7
 10
4.0480679969
 20
4.3448302737
 30
0.0
 11
3.54226843
 21
4.3448302737
 31
0.0
  0
LINE
  5
99
  8
0
  6
CONTINUOUS
 62
     7
 10
3.470969142
 20
4.6576216337
 30
0.0
 11
3.470969142
 21
4.3608302489
 31
0.0
  0
LINE
  5
9A
  8
0
  6
CONTINUOUS
 62
     7
 10
3.6445611616
 20
4.3608302489
 30
0.0
 11
3.470969142
 21
4.3608302489
 31
0.0
  0
LINE
  5
9B
  8
0
  6
CONTINUOUS
 62
     7
 10
4.1193672849
 20
4.6576216337
 30
0.0
 11
4.1193672849
 21
4.3608302489
 31
0.0
  0
LINE
  5
9C
  8
0
  6
CONTINUOUS
 62
     7
 10
4.1193672849
 20
4.3608302489
 30
0.0
 11
3.9687601964
 21
4.3608302489
 31
0.0
  0
LINE
  5
9D
  8
0
  6
CONTINUOUS
 62
     7
 10
4.0677234865
 20
5.0234070081
 30
0.0
 11
3.5226129404
 21
5.0234070081
 31
0.0
  0
ARC
  5
9E
  8
0
  6
CONTINUOUS
 62
     7
 10
3.5540752353
 20
4.8328190116
 30
0.0
 40
0.1860836898657288
 50
63.3944693353
 51
116.6055306647
  0
LINE
  5
9F
  8
0
  6
CONTINUOUS
 62
     7
 10
3.4735995782
 20
5.0003462878
 30
0.0
 11
3.4707385113
 21
4.9991984877
 31
0.0
  0
ARC
  5
A0
  8
0
  6
CONTINUOUS
 62
     7
 10
4.0407197702
 20
4.8491040823
 30
0.0
 40
0.1695585219551851
 50
62.2770163598
 51
117.7229836402
  0
ARC
  5
A1
  8
0
  6
CONTINUOUS
 62
     7
 10
3.799626792
 20
4.3468830286
 30
0.0
 40
0.6721823489638575
 50
76.0352063331
 51
103.9647936669
  0
LINE
  5
A2
  8
0
  6
CONTINUOUS
 62
     7
 10
3.9618416247
 20
4.9991984877
 30
0.0
 11
3.9618416247
 21
4.702407543
 31
0.0
  0
LINE
  5
A3
  8
0
  6
CONTINUOUS
 62
     7
 10
3.6374119592
 20
4.9991984877
 30
0.0
 11
3.6374119592
 21
4.702407543
 31
0.0
  0
LINE
  5
A4
  8
0
  6
CONTINUOUS
 62
     7
 10
3.9618416247
 20
4.702407543
 30
0.0
 11
3.6374119592
 21
4.702407543
 31
0.0
  0
LINE
  5
A5
  8
0
  6
CONTINUOUS
 62
     7
 10
4.0480679969
 20
4.6864072745
 30
0.0
 11
3.54226843
 21
4.6864072745
 31
0.0
  0
LINE
  5
A6
  8
0
  6
CONTINUOUS
 62
     7
 10
4.1195979156
 20
4.9991984877
 30
0.0
 11
4.1195979156
 21
4.702407543
 31
0.0
  0
LINE
  5
A7
  8
0
  6
CONTINUOUS
 62
     7
 10
4.1195979156
 20
4.702407543
 30
0.0
 11
3.9618416247
 21
4.702407543
 31
0.0
  0
LINE
  5
A8
  8
0
  6
CONTINUOUS
 62
     7
 10
3.4707385113
 20
4.9991984877
 30
0.0
 11
3.4707385113
 21
4.702407543
 31
0.0
  0
LINE
  5
A9
  8
0
  6
CONTINUOUS
 62
     7
 10
3.6374119592
 20
4.702407543
 30
0.0
 11
3.4707385113
 21
4.702407543
 31
0.0
  0
LINE
  5
AA
  8
0
  6
CONTINUOUS
 62
     7
 10
4.5451682227
 20
2.4376078828
 30
0.0
 11
3.0451682042
 21
2.4376078828
 31
0.0
  0
LINE
  5
AB
  8
0
  6
CONTINUOUS
 62
     7
 10
4.4821682105
 20
2.6876078981
 30
0.0
 11
3.1081682164
 21
2.6876078981
 31
0.0
  0
LINE
  5
AC
  8
0
  6
CONTINUOUS
 62
     7
 10
4.3991682293
 20
2.0086078886
 30
0.0
 11
3.1911681976
 21
2.0086078886
 31
0.0
  0
LINE
  5
AD
  8
0
  6
CONTINUOUS
 62
     7
 10
4.161668213
 20
2.7726078762
 30
0.0
 11
3.428668214
 21
2.7726078762
 31
0.0
  0
ARC
  5
AE
  8
0
  6
CONTINUOUS
 62
     7
 10
3.7951682135
 20
2.3964614795
 30
0.0
 40
0.6094654206074931
 50
72.7805018205
 51
107.2194981795
  0
ARC
  5
AF
  8
0
  6
CONTINUOUS
 62
     7
 10
3.5245352873
 20
2.8423201868
 30
0.0
 40
0.1634402855828036
 50
56.4990596264
 51
123.5009403736
  0
ARC
  5
B0
  8
0
  6
CONTINUOUS
 62
     7
 10
4.0658011396
 20
2.8423202062
 30
0.0
 40
0.1634402693865907
 50
56.4990558683
 51
123.5009441317
  0
LINE
  5
B1
  8
0
  6
CONTINUOUS
 62
     7
 10
4.1040529685
 20
3.0086078765
 30
0.0
 11
3.4862834584
 21
3.0086078765
 31
0.0
  0
LINE
  5
B2
  8
0
  6
CONTINUOUS
 62
     7
 10
4.156012115
 20
2.7726078762
 30
0.0
 11
4.156012115
 21
2.9786092431
 31
0.0
  0
LINE
  5
B3
  8
0
  6
CONTINUOUS
 62
     7
 10
3.9755901642
 20
2.7726078762
 30
0.0
 11
3.9755901642
 21
2.9786092431
 31
0.0
  0
LINE
  5
B4
  8
0
  6
CONTINUOUS
 62
     7
 10
3.6147462627
 20
2.7726078762
 30
0.0
 11
3.6147462627
 21
2.9786092431
 31
0.0
  0
LINE
  5
B5
  8
0
  6
CONTINUOUS
 62
     7
 10
3.434324312
 20
2.7726078762
 30
0.0
 11
3.434324312
 21
2.9786092431
 31
0.0
  0
LINE
  5
B6
  8
0
  6
CONTINUOUS
 62
     7
 10
3.9826682158
 20
5.9486077867
 30
0.0
 11
3.6076682111
 21
5.9486077867
 31
0.0
  0
LINE
  5
B7
  8
0
  6
CONTINUOUS
 62
     7
 10
3.9226682172
 20
6.0086078403
 30
0.0
 11
3.6676682097
 21
6.0086078403
 31
0.0
  0
DIMENSION
  5
B8
  8
0
  6
CONTINUOUS
 62
     7
  2
*D5
 10
4.5451682135
 20
1.4840487239
 30
0.0
 11
3.7951682135
 21
1.4840487239
 31
0.0
 70
   160
  1
%%c<>
  3
SLDDIMSTYLE0
 13
3.0451682135
 23
2.4376078886
 33
0.0
 14
4.5451682135
 24
2.4376078886
 34
0.0
  0
DIMENSION
  5
CC
  8
0
  6
CONTINUOUS
 62
     7
  2
*D6
 10
5.1750894733
 20
3.0086078886
 30
0.0
 11
5.1750894733
 21
2.5086078886
 31
0.0
 70
   160
  3
SLDDIMSTYLE0
 13
4.3991682135
 23
2.0086078886
 33
0.0
 14
4.1040529567
 24
3.0086078886
 34
0.0
 50
90.0
  0
DIMENSION
  5
E0
  8
0
  6
CONTINUOUS
 62
     7
  2
*D7
 10
5.1750894733
 20
3.0086078886
 30
0.0
 11
5.1750894733
 21
4.5086078886
 31
0.0
 70
   160
  3
SLDDIMSTYLE0
 13
3.9226682135
 23
6.0086078886
 33
0.0
 14
4.1040529567
 24
3.0086078886
 34
0.0
 50
90.0
  0
INSERT
  5
FA
  8
0
  6
CONTINUOUS
 62
     7
  2
SW_NOTE_4
 10
3.9826682135
 20
5.5474825986
 30
0.0
  0
INSERT
  5
102
  8
0
  6
CONTINUOUS
 62
     7
  2
SW_NOTE_5
 10
3.470738505
 20
4.8635382831
 30
0.0
  0
LINE
  5
103
  8
0
  6
CONTINUOUS
 62
     7
 10
8.6208911111
 20
4.0595940119
 30
0.0
 11
8.5926022399
 21
4.0759301625
 31
0.0
  0
LINE
  5
104
  8
0
  6
CONTINUOUS
 62
     7
 10
8.4723745582
 20
4.0759301625
 30
0.0
 11
8.4440856871
 21
4.0595940119
 31
0.0
  0
LINE
  5
105
  8
0
  6
CONTINUOUS
 62
     7
 10
8.6574884001
 20
2.4081568536
 30
0.0
 11
8.6574884001
 21
3.0534932876
 31
0.0
  0
LINE
  5
106
  8
0
  6
CONTINUOUS
 62
     7
 10
8.6574884001
 20
3.5049339993
 30
0.0
 11
8.6574884001
 21
4.008576796
 31
0.0
  0
LINE
  5
107
  8
0
  6
CONTINUOUS
 62
     7
 10
8.407488398
 20
4.008576796
 30
0.0
 11
8.407488398
 21
3.5049339993
 31
0.0
  0
LINE
  5
108
  8
0
  6
CONTINUOUS
 62
     7
 10
8.407488398
 20
3.0636898775
 30
0.0
 11
8.407488398
 21
2.4081568536
 31
0.0
  0
POLYLINE
  5
109
  8
0
  6
CONTINUOUS
 62
     7
 66
     1
 10
0.0
 20
0.0
 30
0.0
  0
VERTEX
  5
14A
  8
0
  6
CONTINUOUS
 62
     7
 10
9.0322126787
 20
2.2003544684
 30
0.0
  0
VERTEX
  5
14B
  8
0
  6
CONTINUOUS
 62
     7
 10
9.0317200494
 20
2.216408769
 30
0.0
  0
VERTEX
  5
14C
  8
0
  6
CONTINUOUS
 62
     7
 10
9.0284138448
 20
2.2388489729
 30
0.0
  0
VERTEX
  5
14D
  8
0
  6
CONTINUOUS
 62
     7
 10
9.0225373808
 20
2.2609830403
 30
0.0
  0
VERTEX
  5
14E
  8
0
  6
CONTINUOUS
 62
     7
 10
9.0141180362
 20
2.2827419329
 30
0.0
  0
VERTEX
  5
14F
  8
0
  6
CONTINUOUS
 62
     7
 10
9.0031728709
 20
2.3040531529
 30
0.0
  0
VERTEX
  5
150
  8
0
  6
CONTINUOUS
 62
     7
 10
8.9897192215
 20
2.3248306148
 30
0.0
  0
VERTEX
  5
151
  8
0
  6
CONTINUOUS
 62
     7
 10
8.9737893928
 20
2.3449705741
 30
0.0
  0
VERTEX
  5
152
  8
0
  6
CONTINUOUS
 62
     7
 10
8.9554430255
 20
2.3643538274
 30
0.0
  0
VERTEX
  5
153
  8
0
  6
CONTINUOUS
 62
     7
 10
8.9347734006
 20
2.3828543252
 30
0.0
  0
VERTEX
  5
154
  8
0
  6
CONTINUOUS
 62
     7
 10
8.9119051854
 20
2.4003499318
 30
0.0
  0
VERTEX
  5
155
  8
0
  6
CONTINUOUS
 62
     7
 10
8.8869864554
 20
2.4167308625
 30
0.0
  0
VERTEX
  5
156
  8
0
  6
CONTINUOUS
 62
     7
 10
8.8773416087
 20
2.4224539111
 30
0.0
  0
VERTEX
  5
157
  8
0
  6
CONTINUOUS
 62
     7
 10
8.8629408737
 20
2.4304427422
 30
0.0
  0
VERTEX
  5
158
  8
0
  6
CONTINUOUS
 62
     7
 10
8.8345709967
 20
2.4444653493
 30
0.0
  0
VERTEX
  5
159
  8
0
  6
CONTINUOUS
 62
     7
 10
8.8046519067
 20
2.457138258
 30
0.0
  0
VERTEX
  5
15A
  8
0
  6
CONTINUOUS
 62
     7
 10
8.7733419871
 20
2.4684164174
 30
0.0
  0
VERTEX
  5
15B
  8
0
  6
CONTINUOUS
 62
     7
 10
8.7408104069
 20
2.4782574501
 30
0.0
  0
VERTEX
  5
15C
  8
0
  6
CONTINUOUS
 62
     7
 10
8.7072280767
 20
2.4866256362
 30
0.0
  0
VERTEX
  5
15D
  8
0
  6
CONTINUOUS
 62
     7
 10
8.6794864744
 20
2.4921524634
 30
0.0
  0
SEQEND
  5
15E
  8
0
  6
CONTINUOUS
 62
     7
  0
POLYLINE
  5
10A
  8
0
  6
CONTINUOUS
 62
     7
 66
     1
 10
0.0
 20
0.0
 30
0.0
  0
VERTEX
  5
15F
  8
0
  6
CONTINUOUS
 62
     7
 10
8.3603270442
 20
2.4870493183
 30
0.0
  0
VERTEX
  5
160
  8
0
  6
CONTINUOUS
 62
     7
 10
8.3525272068
 20
2.4854368453
 30
0.0
  0
VERTEX
  5
161
  8
0
  6
CONTINUOUS
 62
     7
 10
8.3191076027
 20
2.4768438134
 30
0.0
  0
VERTEX
  5
162
  8
0
  6
CONTINUOUS
 62
     7
 10
8.2867578223
 20
2.4667818809
 30
0.0
  0
VERTEX
  5
163
  8
0
  6
CONTINUOUS
 62
     7
 10
8.255641685
 20
2.4552840312
 30
0.0
  0
VERTEX
  5
164
  8
0
  6
CONTINUOUS
 62
     7
 10
8.2259196031
 20
2.4423867881
 30
0.0
  0
VERTEX
  5
165
  8
0
  6
CONTINUOUS
 62
     7
 10
8.1977492048
 20
2.428130775
 30
0.0
  0
VERTEX
  5
166
  8
0
  6
CONTINUOUS
 62
     7
 10
8.1712865217
 20
2.4125613608
 30
0.0
  0
VERTEX
  5
167
  8
0
  6
CONTINUOUS
 62
     7
 10
8.1466876827
 20
2.3957309943
 30
0.0
  0
VERTEX
  5
168
  8
0
  6
CONTINUOUS
 62
     7
 10
8.1241177333
 20
2.3777092853
 30
0.0
  0
VERTEX
  5
169
  8
0
  6
CONTINUOUS
 62
     7
 10
8.1037387192
 20
2.3585825513
 30
0.0
  0
VERTEX
  5
16A
  8
0
  6
CONTINUOUS
 62
     7
 10
8.0857067076
 20
2.3384593632
 30
0.0
  0
VERTEX
  5
16B
  8
0
  6
CONTINUOUS
 62
     7
 10
8.0701651782
 20
2.3174758706
 30
0.0
  0
VERTEX
  5
16C
  8
0
  6
CONTINUOUS
 62
     7
 10
8.0572327122
 20
2.2957942839
 30
0.0
  0
VERTEX
  5
16D
  8
0
  6
CONTINUOUS
 62
     7
 10
8.0469904957
 20
2.2735937452
 30
0.0
  0
VERTEX
  5
16E
  8
0
  6
CONTINUOUS
 62
     7
 10
8.0394763127
 20
2.2510550069
 30
0.0
  0
VERTEX
  5
16F
  8
0
  6
CONTINUOUS
 62
     7
 10
8.034688141
 20
2.2283453044
 30
0.0
  0
VERTEX
  5
170
  8
0
  6
CONTINUOUS
 62
     7
 10
8.0325964585
 20
2.2056081369
 30
0.0
  0
VERTEX
  5
171
  8
0
  6
CONTINUOUS
 62
     7
 10
8.0327406123
 20
2.1998153736
 30
0.0
  0
SEQEND
  5
172
  8
0
  6
CONTINUOUS
 62
     7
  0
LINE
  5
10B
  8
0
  6
CONTINUOUS
 62
     7
 10
9.0324884032
 20
2.0973269879
 30
0.0
 11
9.0324884032
 21
2.1991224108
 31
0.0
  0
LINE
  5
10C
  8
0
  6
CONTINUOUS
 62
     7
 10
8.032488395
 20
2.1991224108
 30
0.0
 11
8.032488395
 21
2.0973269879
 31
0.0
  0
LINE
  5
10D
  8
0
  6
CONTINUOUS
 62
     7
 10
9.0184884038
 20
1.9318413857
 30
0.0
 11
9.0184884038
 21
2.0295012128
 31
0.0
  0
LINE
  5
10E
  8
0
  6
CONTINUOUS
 62
     7
 10
8.0464883944
 20
2.0295012128
 30
0.0
 11
8.0464883944
 21
1.9318413857
 31
0.0
  0
POLYLINE
  5
10F
  8
0
  6
CONTINUOUS
 62
     7
 66
     1
 10
0.0
 20
0.0
 30
0.0
  0
VERTEX
  5
173
  8
0
  6
CONTINUOUS
 62
     7
 10
8.0467322287
 20
1.9311722995
 30
0.0
  0
VERTEX
  5
174
  8
0
  6
CONTINUOUS
 62
     7
 10
8.04730034
 20
1.9130570034
 30
0.0
  0
VERTEX
  5
175
  8
0
  6
CONTINUOUS
 62
     7
 10
8.0506530748
 20
1.8893952125
 30
0.0
  0
VERTEX
  5
176
  8
0
  6
CONTINUOUS
 62
     7
 10
8.0565470654
 20
1.8661376899
 30
0.0
  0
VERTEX
  5
177
  8
0
  6
CONTINUOUS
 62
     7
 10
8.0649384262
 20
1.8433581082
 30
0.0
  0
VERTEX
  5
178
  8
0
  6
CONTINUOUS
 62
     7
 10
8.0758020772
 20
1.8211221072
 30
0.0
  0
VERTEX
  5
179
  8
0
  6
CONTINUOUS
 62
     7
 10
8.0891275784
 20
1.7994973635
 30
0.0
  0
VERTEX
  5
17A
  8
0
  6
CONTINUOUS
 62
     7
 10
8.1049077394
 20
1.7785640413
 30
0.0
  0
VERTEX
  5
17B
  8
0
  6
CONTINUOUS
 62
     7
 10
8.1231214644
 20
1.7584230786
 30
0.0
  0
VERTEX
  5
17C
  8
0
  6
CONTINUOUS
 62
     7
 10
8.1437141814
 20
1.7391975252
 30
0.0
  0
VERTEX
  5
17D
  8
0
  6
CONTINUOUS
 62
     7
 10
8.1665843519
 20
1.7210251864
 30
0.0
  0
VERTEX
  5
17E
  8
0
  6
CONTINUOUS
 62
     7
 10
8.1915820932
 20
1.7040440147
 30
0.0
  0
VERTEX
  5
17F
  8
0
  6
CONTINUOUS
 62
     7
 10
8.2185208005
 20
1.688376891
 30
0.0
  0
VERTEX
  5
180
  8
0
  6
CONTINUOUS
 62
     7
 10
8.247195156
 20
1.6741220898
 30
0.0
  0
VERTEX
  5
181
  8
0
  6
CONTINUOUS
 62
     7
 10
8.2773811381
 20
1.6613577408
 30
0.0
  0
VERTEX
  5
182
  8
0
  6
CONTINUOUS
 62
     7
 10
8.3088790756
 20
1.6501300534
 30
0.0
  0
VERTEX
  5
183
  8
0
  6
CONTINUOUS
 62
     7
 10
8.3415023421
 20
1.6404691327
 30
0.0
  0
VERTEX
  5
184
  8
0
  6
CONTINUOUS
 62
     7
 10
8.375071173
 20
1.6323962687
 30
0.0
  0
VERTEX
  5
185
  8
0
  6
CONTINUOUS
 62
     7
 10
8.4094101467
 20
1.6259270814
 30
0.0
  0
VERTEX
  5
186
  8
0
  6
CONTINUOUS
 62
     7
 10
8.4443461403
 20
1.621073215
 30
0.0
  0
VERTEX
  5
187
  8
0
  6
CONTINUOUS
 62
     7
 10
8.4797069901
 20
1.6178431304
 30
0.0
  0
VERTEX
  5
188
  8
0
  6
CONTINUOUS
 62
     7
 10
8.5153208006
 20
1.6162423144
 30
0.0
  0
VERTEX
  5
189
  8
0
  6
CONTINUOUS
 62
     7
 10
8.5510158833
 20
1.6162734268
 30
0.0
  0
VERTEX
  5
18A
  8
0
  6
CONTINUOUS
 62
     7
 10
8.5866208095
 20
1.6179362307
 30
0.0
  0
VERTEX
  5
18B
  8
0
  6
CONTINUOUS
 62
     7
 10
8.6219579794
 20
1.6212269735
 30
0.0
  0
VERTEX
  5
18C
  8
0
  6
CONTINUOUS
 62
     7
 10
8.656858816
 20
1.6261393678
 30
0.0
  0
VERTEX
  5
18D
  8
0
  6
CONTINUOUS
 62
     7
 10
8.6911568251
 20
1.6326652709
 30
0.0
  0
VERTEX
  5
18E
  8
0
  6
CONTINUOUS
 62
     7
 10
8.724687604
 20
1.6407952224
 30
0.0
  0
VERTEX
  5
18F
  8
0
  6
CONTINUOUS
 62
     7
 10
8.7572885128
 20
1.6505190694
 30
0.0
  0
VERTEX
  5
190
  8
0
  6
CONTINUOUS
 62
     7
 10
8.7887972748
 20
1.6618264095
 30
0.0
  0
VERTEX
  5
191
  8
0
  6
CONTINUOUS
 62
     7
 10
8.8190501332
 20
1.6747061254
 30
0.0
  0
VERTEX
  5
192
  8
0
  6
CONTINUOUS
 62
     7
 10
8.8478782399
 20
1.6891449604
 30
0.0
  0
VERTEX
  5
193
  8
0
  6
CONTINUOUS
 62
     7
 10
8.8751034119
 20
1.7051235292
 30
0.0
  0
VERTEX
  5
194
  8
0
  6
CONTINUOUS
 62
     7
 10
8.900528533
 20
1.7226050519
 30
0.0
  0
VERTEX
  5
195
  8
0
  6
CONTINUOUS
 62
     7
 10
8.9239275398
 20
1.7415141713
 30
0.0
  0
VERTEX
  5
196
  8
0
  6
CONTINUOUS
 62
     7
 10
8.9450806203
 20
1.7617433292
 30
0.0
  0
VERTEX
  5
197
  8
0
  6
CONTINUOUS
 62
     7
 10
8.9637771051
 20
1.783138652
 30
0.0
  0
VERTEX
  5
198
  8
0
  6
CONTINUOUS
 62
     7
 10
8.9798398007
 20
1.8055043804
 30
0.0
  0
VERTEX
  5
199
  8
0
  6
CONTINUOUS
 62
     7
 10
8.9931464876
 20
1.8286204699
 30
0.0
  0
VERTEX
  5
19A
  8
0
  6
CONTINUOUS
 62
     7
 10
9.0036382942
 20
1.8522656154
 30
0.0
  0
VERTEX
  5
19B
  8
0
  6
CONTINUOUS
 62
     7
 10
9.0113118242
 20
1.8762351756
 30
0.0
  0
VERTEX
  5
19C
  8
0
  6
CONTINUOUS
 62
     7
 10
9.016201716
 20
1.90034916
 30
0.0
  0
VERTEX
  5
19D
  8
0
  6
CONTINUOUS
 62
     7
 10
9.0183629
 20
1.9244525517
 30
0.0
  0
VERTEX
  5
19E
  8
0
  6
CONTINUOUS
 62
     7
 10
9.0182045901
 20
1.9319453078
 30
0.0
  0
SEQEND
  5
19F
  8
0
  6
CONTINUOUS
 62
     7
  0
LINE
  5
110
  8
0
  6
CONTINUOUS
 62
     7
 10
8.776821738
 20
2.2334171315
 30
0.0
 11
8.776821738
 21
2.2796877656
 31
0.0
  0
LINE
  5
111
  8
0
  6
CONTINUOUS
 62
     7
 10
8.2881550602
 20
2.2796877656
 30
0.0
 11
8.2881550602
 21
2.2334171315
 31
0.0
  0
ARC
  5
112
  8
0
  6
CONTINUOUS
 62
     7
 10
8.53369161
 20
3.4990274519
 30
0.0
 40
0.2850689395890072
 50
265.9870211412
 51
292.7009321921
  0
ARC
  5
113
  8
0
  6
CONTINUOUS
 62
     7
 10
8.4924059492
 20
3.3911589132
 30
0.0
 40
0.1710037454774267
 50
225.6327069338
 51
255.9349017591
  0
ARC
  5
114
  8
0
  6
CONTINUOUS
 62
     7
 10
8.2058736169
 20
2.850865036
 30
0.0
 40
0.4346558968202409
 50
50.0293270514
 51
73.9548843436
  0
POLYLINE
  5
115
  8
0
  6
CONTINUOUS
 62
     7
 66
     1
 10
0.0
 20
0.0
 30
0.0
  0
VERTEX
  5
1A0
  8
0
  6
CONTINUOUS
 62
     7
 10
8.3328338222
 20
3.2912814618
 30
0.0
  0
VERTEX
  5
1A1
  8
0
  6
CONTINUOUS
 62
     7
 10
8.3306935784
 20
3.2843822383
 30
0.0
  0
VERTEX
  5
1A2
  8
0
  6
CONTINUOUS
 62
     7
 10
8.3260099788
 20
3.2685886326
 30
0.0
  0
SEQEND
  5
1A3
  8
0
  6
CONTINUOUS
 62
     7
  0
LINE
  5
116
  8
0
  6
CONTINUOUS
 62
     7
 10
8.7389667934
 20
3.3430411721
 30
0.0
 11
8.7331303131
 21
3.3474368192
 31
0.0
  0
ARC
  5
117
  8
0
  6
CONTINUOUS
 62
     7
 10
9.2041147158
 20
3.0919696277
 30
0.0
 40
0.528582548010211
 50
151.6412863009
 51
165.8486200099
  0
ARC
  5
118
  8
0
  6
CONTINUOUS
 62
     7
 10
8.679008313
 20
2.6996526703
 30
0.0
 40
0.5216986013128639
 50
88.6199469099
 51
111.8203058015
  0
LINE
  5
119
  8
0
  6
CONTINUOUS
 62
     7
 10
8.6915729759
 20
3.2211999451
 30
0.0
 11
8.6915729759
 21
3.0596384262
 31
0.0
  0
LINE
  5
11A
  8
0
  6
CONTINUOUS
 62
     7
 10
8.6915729759
 20
3.0596384262
 30
0.0
 11
8.4850945756
 21
3.0224122154
 31
0.0
  0
LINE
  5
11B
  8
0
  6
CONTINUOUS
 62
     7
 10
8.4850945756
 20
3.1839737343
 30
0.0
 11
8.4850945756
 21
3.0224122154
 31
0.0
  0
LINE
  5
11C
  8
0
  6
CONTINUOUS
 62
     7
 10
8.4850945756
 20
3.0224122154
 30
0.0
 11
8.3260099788
 21
3.1070271138
 31
0.0
  0
LINE
  5
11D
  8
0
  6
CONTINUOUS
 62
     7
 10
8.3260099788
 20
3.2685886326
 30
0.0
 11
8.3260099788
 21
3.1070271138
 31
0.0
  0
LINE
  5
11E
  8
0
  6
CONTINUOUS
 62
     7
 10
8.7389667934
 20
3.3430411721
 30
0.0
 11
8.7389667934
 21
3.1814796532
 31
0.0
  0
LINE
  5
11F
  8
0
  6
CONTINUOUS
 62
     7
 10
8.7389667934
 20
3.1814796532
 30
0.0
 11
8.6915729759
 21
3.0596384262
 31
0.0
  0
POLYLINE
  5
120
  8
0
  6
CONTINUOUS
 62
     7
 66
     1
 10
0.0
 20
0.0
 30
0.0
  0
VERTEX
  5
1A4
  8
0
  6
CONTINUOUS
 62
     7
 10
8.7072321947
 20
3.5336871806
 30
0.0
  0
VERTEX
  5
1A5
  8
0
  6
CONTINUOUS
 62
     7
 10
8.7121667716
 20
3.520551199
 30
0.0
  0
VERTEX
  5
1A6
  8
0
  6
CONTINUOUS
 62
     7
 10
8.7141510388
 20
3.5071587751
 30
0.0
  0
VERTEX
  5
1A7
  8
0
  6
CONTINUOUS
 62
     7
 10
8.7131524105
 20
3.4937298309
 30
0.0
  0
VERTEX
  5
1A8
  8
0
  6
CONTINUOUS
 62
     7
 10
8.7091872811
 20
3.4804848499
 30
0.0
  0
VERTEX
  5
1A9
  8
0
  6
CONTINUOUS
 62
     7
 10
8.702320762
 20
3.4676413271
 30
0.0
  0
VERTEX
  5
1AA
  8
0
  6
CONTINUOUS
 62
     7
 10
8.6926656007
 20
3.4554101519
 30
0.0
  0
VERTEX
  5
1AB
  8
0
  6
CONTINUOUS
 62
     7
 10
8.6803803406
 20
3.4439921505
 30
0.0
  0
VERTEX
  5
1AC
  8
0
  6
CONTINUOUS
 62
     7
 10
8.6656666878
 20
3.4335748204
 30
0.0
  0
VERTEX
  5
1AD
  8
0
  6
CONTINUOUS
 62
     7
 10
8.6487662557
 20
3.4243292029
 30
0.0
  0
VERTEX
  5
1AE
  8
0
  6
CONTINUOUS
 62
     7
 10
8.6299565534
 20
3.4164071091
 30
0.0
  0
VERTEX
  5
1AF
  8
0
  6
CONTINUOUS
 62
     7
 10
8.6095464161
 20
3.409938631
 30
0.0
  0
VERTEX
  5
1B0
  8
0
  6
CONTINUOUS
 62
     7
 10
8.5878709854
 20
3.4050299722
 30
0.0
  0
VERTEX
  5
1B1
  8
0
  6
CONTINUOUS
 62
     7
 10
8.5652861799
 20
3.4017617331
 30
0.0
  0
VERTEX
  5
1B2
  8
0
  6
CONTINUOUS
 62
     7
 10
8.5421628414
 20
3.4001875763
 30
0.0
  0
VERTEX
  5
1B3
  8
0
  6
CONTINUOUS
 62
     7
 10
8.5188806398
 20
3.4003333628
 30
0.0
  0
VERTEX
  5
1B4
  8
0
  6
CONTINUOUS
 62
     7
 10
8.4958218854
 20
3.4021966831
 30
0.0
  0
VERTEX
  5
1B5
  8
0
  6
CONTINUOUS
 62
     7
 10
8.4733651806
 20
3.4057469438
 30
0.0
  0
VERTEX
  5
1B6
  8
0
  6
CONTINUOUS
 62
     7
 10
8.4518792931
 20
3.4109258622
 30
0.0
  0
VERTEX
  5
1B7
  8
0
  6
CONTINUOUS
 62
     7
 10
8.4317169916
 20
3.4176483805
 30
0.0
  0
VERTEX
  5
1B8
  8
0
  6
CONTINUOUS
 62
     7
 10
8.4132093673
 20
3.4258041371
 30
0.0
  0
VERTEX
  5
1B9
  8
0
  6
CONTINUOUS
 62
     7
 10
8.396660294
 20
3.4352591989
 30
0.0
  0
VERTEX
  5
1BA
  8
0
  6
CONTINUOUS
 62
     7
 10
8.3823415152
 20
3.4458583182
 30
0.0
  0
VERTEX
  5
1BB
  8
0
  6
CONTINUOUS
 62
     7
 10
8.3704881354
 20
3.4574274558
 30
0.0
  0
VERTEX
  5
1BC
  8
0
  6
CONTINUOUS
 62
     7
 10
8.3612948108
 20
3.4697766582
 30
0.0
  0
VERTEX
  5
1BD
  8
0
  6
CONTINUOUS
 62
     7
 10
8.3549124731
 20
3.4827031374
 30
0.0
  0
VERTEX
  5
1BE
  8
0
  6
CONTINUOUS
 62
     7
 10
8.3514459234
 20
3.4959946442
 30
0.0
  0
VERTEX
  5
1BF
  8
0
  6
CONTINUOUS
 62
     7
 10
8.3509520928
 20
3.509432938
 30
0.0
  0
VERTEX
  5
1C0
  8
0
  6
CONTINUOUS
 62
     7
 10
8.3534390749
 20
3.5227973581
 30
0.0
  0
VERTEX
  5
1C1
  8
0
  6
CONTINUOUS
 62
     7
 10
8.3588660477
 20
3.5358684663
 30
0.0
  0
VERTEX
  5
1C2
  8
0
  6
CONTINUOUS
 62
     7
 10
8.3671439003
 20
3.5484316265
 30
0.0
  0
VERTEX
  5
1C3
  8
0
  6
CONTINUOUS
 62
     7
 10
8.3781366955
 20
3.5602805629
 30
0.0
  0
VERTEX
  5
1C4
  8
0
  6
CONTINUOUS
 62
     7
 10
8.3916639419
 20
3.5712207073
 30
0.0
  0
VERTEX
  5
1C5
  8
0
  6
CONTINUOUS
 62
     7
 10
8.4074883994
 20
3.5810641454
 30
0.0
  0
SEQEND
  5
1C6
  8
0
  6
CONTINUOUS
 62
     7
  0
ARC
  5
121
  8
0
  6
CONTINUOUS
 62
     7
 10
8.6046625907
 20
3.4757963798
 30
0.0
 40
0.1177788965943326
 50
29.4406014738
 51
63.351440012
  0
ARC
  5
122
  8
0
  6
CONTINUOUS
 62
     7
 10
8.8158991062
 20
3.3158496428
 30
0.0
 40
0.5114533580511897
 50
149.081492731
 51
163.9183300928
  0
POLYLINE
  5
123
  8
0
  6
CONTINUOUS
 62
     7
 66
     1
 10
0.0
 20
0.0
 30
0.0
  0
VERTEX
  5
1C7
  8
0
  6
CONTINUOUS
 62
     7
 10
8.4074884024
 20
3.5888515008
 30
0.0
  0
VERTEX
  5
1C8
  8
0
  6
CONTINUOUS
 62
     7
 10
8.3976817791
 20
3.5857795448
 30
0.0
  0
VERTEX
  5
1C9
  8
0
  6
CONTINUOUS
 62
     7
 10
8.3771237918
 20
3.5786437844
 30
0.0
  0
SEQEND
  5
1CA
  8
0
  6
CONTINUOUS
 62
     7
  0
ARC
  5
124
  8
0
  6
CONTINUOUS
 62
     7
 10
8.412514498
 20
3.1397024977
 30
0.0
 40
0.5067546172291205
 50
49.6646295219
 51
61.0911756659
  0
ARC
  5
125
  8
0
  6
CONTINUOUS
 62
     7
 10
9.1626919068
 20
3.2704100365
 30
0.0
 40
0.4935087030760442
 50
148.8101916157
 51
164.1897173397
  0
ARC
  5
126
  8
0
  6
CONTINUOUS
 62
     7
 10
8.6677789594
 20
2.8776166423
 30
0.0
 40
0.5276332895263025
 50
87.8196224162
 51
110.8683308492
  0
ARC
  5
127
  8
0
  6
CONTINUOUS
 62
     7
 10
8.201292359
 20
3.054941666
 30
0.0
 40
0.4210040054935604
 50
48.5787162211
 51
72.9888974644
  0
LINE
  5
128
  8
0
  6
CONTINUOUS
 62
     7
 10
8.4798245948
 20
3.3706379857
 30
0.0
 11
8.4798245948
 21
3.2090767063
 31
0.0
  0
LINE
  5
129
  8
0
  6
CONTINUOUS
 62
     7
 10
8.4798245948
 20
3.2090767063
 30
0.0
 11
8.3244600312
 21
3.29596466
 31
0.0
  0
LINE
  5
12A
  8
0
  6
CONTINUOUS
 62
     7
 10
8.3244600312
 20
3.4575259393
 30
0.0
 11
8.3244600312
 21
3.29596466
 31
0.0
  0
LINE
  5
12B
  8
0
  6
CONTINUOUS
 62
     7
 10
8.6878530758
 20
3.4048679278
 30
0.0
 11
8.6878530758
 21
3.2433066485
 31
0.0
  0
LINE
  5
12C
  8
0
  6
CONTINUOUS
 62
     7
 10
8.6878530758
 20
3.2433066485
 30
0.0
 11
8.4798245948
 21
3.2090767063
 31
0.0
  0
POLYLINE
  5
12D
  8
0
  6
CONTINUOUS
 62
     7
 66
     1
 10
0.0
 20
0.0
 30
0.0
  0
VERTEX
  5
1CB
  8
0
  6
CONTINUOUS
 62
     7
 10
8.6574882877
 20
3.5049339993
 30
0.0
  0
VERTEX
  5
1CC
  8
0
  6
CONTINUOUS
 62
     7
 10
8.6574363474
 20
3.5028539475
 30
0.0
  0
VERTEX
  5
1CD
  8
0
  6
CONTINUOUS
 62
     7
 10
8.6554220006
 20
3.4918675908
 30
0.0
  0
VERTEX
  5
1CE
  8
0
  6
CONTINUOUS
 62
     7
 10
8.6505261846
 20
3.4811875002
 30
0.0
  0
VERTEX
  5
1CF
  8
0
  6
CONTINUOUS
 62
     7
 10
8.6428636627
 20
3.4710640102
 30
0.0
  0
VERTEX
  5
1D0
  8
0
  6
CONTINUOUS
 62
     7
 10
8.6326140386
 20
3.4617344019
 30
0.0
  0
VERTEX
  5
1D1
  8
0
  6
CONTINUOUS
 62
     7
 10
8.6200175612
 20
3.4534173532
 30
0.0
  0
VERTEX
  5
1D2
  8
0
  6
CONTINUOUS
 62
     7
 10
8.6053694647
 20
3.4463078158
 30
0.0
  0
VERTEX
  5
1D3
  8
0
  6
CONTINUOUS
 62
     7
 10
8.5890131042
 20
3.4405724234
 30
0.0
  0
VERTEX
  5
1D4
  8
0
  6
CONTINUOUS
 62
     7
 10
8.5713318518
 20
3.4363456117
 30
0.0
  0
VERTEX
  5
1D5
  8
0
  6
CONTINUOUS
 62
     7
 10
8.5527401421
 20
3.4337264548
 30
0.0
  0
VERTEX
  5
1D6
  8
0
  6
CONTINUOUS
 62
     7
 10
8.5336737446
 20
3.4327763425
 30
0.0
  0
VERTEX
  5
1D7
  8
0
  6
CONTINUOUS
 62
     7
 10
8.5145795664
 20
3.4335175436
 30
0.0
  0
VERTEX
  5
1D8
  8
0
  6
CONTINUOUS
 62
     7
 10
8.4959051541
 20
3.4359326836
 30
0.0
  0
VERTEX
  5
1D9
  8
0
  6
CONTINUOUS
 62
     7
 10
8.4780882303
 20
3.4399651623
 30
0.0
  0
VERTEX
  5
1DA
  8
0
  6
CONTINUOUS
 62
     7
 10
8.4615463884
 20
3.4455204481
 30
0.0
  0
VERTEX
  5
1DB
  8
0
  6
CONTINUOUS
 62
     7
 10
8.4466673776
 20
3.4524683436
 30
0.0
  0
VERTEX
  5
1DC
  8
0
  6
CONTINUOUS
 62
     7
 10
8.4337999313
 20
3.4606459854
 30
0.0
  0
VERTEX
  5
1DD
  8
0
  6
CONTINUOUS
 62
     7
 10
8.4232456634
 20
3.4698617037
 30
0.0
  0
VERTEX
  5
1DE
  8
0
  6
CONTINUOUS
 62
     7
 10
8.4152519464
 20
3.4798994835
 30
0.0
  0
VERTEX
  5
1DF
  8
0
  6
CONTINUOUS
 62
     7
 10
8.4100061598
 20
3.4905240503
 30
0.0
  0
VERTEX
  5
1E0
  8
0
  6
CONTINUOUS
 62
     7
 10
8.4076312555
 20
3.5014863794
 30
0.0
  0
VERTEX
  5
1E1
  8
0
  6
CONTINUOUS
 62
     7
 10
8.4074885104
 20
3.5049339993
 30
0.0
  0
SEQEND
  5
1E2
  8
0
  6
CONTINUOUS
 62
     7
  0
LINE
  5
12E
  8
0
  6
CONTINUOUS
 62
     7
 10
8.7405167324
 20
3.5259857827
 30
0.0
 11
8.7405167324
 21
3.3644245034
 31
0.0
  0
LINE
  5
12F
  8
0
  6
CONTINUOUS
 62
     7
 10
8.7405167324
 20
3.3644245034
 30
0.0
 11
8.6878530758
 21
3.2433066485
 31
0.0
  0
POLYLINE
  5
130
  8
0
  6
CONTINUOUS
 62
     7
 66
     1
 10
0.0
 20
0.0
 30
0.0
  0
VERTEX
  5
1E3
  8
0
  6
CONTINUOUS
 62
     7
 10
8.6208767478
 20
4.0596023036
 30
0.0
  0
VERTEX
  5
1E4
  8
0
  6
CONTINUOUS
 62
     7
 10
8.6333332889
 20
4.0512152977
 30
0.0
  0
VERTEX
  5
1E5
  8
0
  6
CONTINUOUS
 62
     7
 10
8.6434261198
 20
4.0418288859
 30
0.0
  0
VERTEX
  5
1E6
  8
0
  6
CONTINUOUS
 62
     7
 10
8.6509186495
 20
4.0316630671
 30
0.0
  0
VERTEX
  5
1E7
  8
0
  6
CONTINUOUS
 62
     7
 10
8.655635293
 20
4.0209561301
 30
0.0
  0
VERTEX
  5
1E8
  8
0
  6
CONTINUOUS
 62
     7
 10
8.6574654634
 20
4.009959032
 30
0.0
  0
VERTEX
  5
1E9
  8
0
  6
CONTINUOUS
 62
     7
 10
8.6563662817
 20
3.998929532
 30
0.0
  0
VERTEX
  5
1EA
  8
0
  6
CONTINUOUS
 62
     7
 10
8.6523635108
 20
3.9881261607
 30
0.0
  0
VERTEX
  5
1EB
  8
0
  6
CONTINUOUS
 62
     7
 10
8.6455509651
 20
3.9778021312
 30
0.0
  0
VERTEX
  5
1EC
  8
0
  6
CONTINUOUS
 62
     7
 10
8.636088333
 20
3.9681994325
 30
0.0
  0
VERTEX
  5
1ED
  8
0
  6
CONTINUOUS
 62
     7
 10
8.6241974026
 20
3.959543148
 30
0.0
  0
VERTEX
  5
1EE
  8
0
  6
CONTINUOUS
 62
     7
 10
8.6101568856
 20
3.9520361729
 30
0.0
  0
VERTEX
  5
1EF
  8
0
  6
CONTINUOUS
 62
     7
 10
8.5942958908
 20
3.9458544585
 30
0.0
  0
VERTEX
  5
1F0
  8
0
  6
CONTINUOUS
 62
     7
 10
8.5769861845
 20
3.941142903
 30
0.0
  0
VERTEX
  5
1F1
  8
0
  6
CONTINUOUS
 62
     7
 10
8.5586334803
 20
3.9380119402
 30
0.0
  0
VERTEX
  5
1F2
  8
0
  6
CONTINUOUS
 62
     7
 10
8.5396679645
 20
3.9365349587
 30
0.0
  0
VERTEX
  5
1F3
  8
0
  6
CONTINUOUS
 62
     7
 10
8.5205341612
 20
3.9367465765
 30
0.0
  0
VERTEX
  5
1F4
  8
0
  6
CONTINUOUS
 62
     7
 10
8.5016805635
 20
3.9386418344
 30
0.0
  0
VERTEX
  5
1F5
  8
0
  6
CONTINUOUS
 62
     7
 10
8.4835490637
 20
3.9421763084
 30
0.0
  0
VERTEX
  5
1F6
  8
0
  6
CONTINUOUS
 62
     7
 10
8.4665646628
 20
3.9472671505
 30
0.0
  0
VERTEX
  5
1F7
  8
0
  6
CONTINUOUS
 62
     7
 10
8.4511254595
 20
3.9537950419
 30
0.0
  0
VERTEX
  5
1F8
  8
0
  6
CONTINUOUS
 62
     7
 10
8.4375933357
 20
3.9616069708
 30
0.0
  0
VERTEX
  5
1F9
  8
0
  6
CONTINUOUS
 62
     7
 10
8.4262854707
 20
3.9705198331
 30
0.0
  0
VERTEX
  5
1FA
  8
0
  6
CONTINUOUS
 62
     7
 10
8.4174669181
 20
3.980324719
 30
0.0
  0
VERTEX
  5
1FB
  8
0
  6
CONTINUOUS
 62
     7
 10
8.4113443663
 20
3.9907918111
 30
0.0
  0
VERTEX
  5
1FC
  8
0
  6
CONTINUOUS
 62
     7
 10
8.4080613274
 20
4.0016757614
 30
0.0
  0
VERTEX
  5
1FD
  8
0
  6
CONTINUOUS
 62
     7
 10
8.407694755
 20
4.0127214709
 30
0.0
  0
VERTEX
  5
1FE
  8
0
  6
CONTINUOUS
 62
     7
 10
8.4102532393
 20
4.0236700301
 30
0.0
  0
VERTEX
  5
1FF
  8
0
  6
CONTINUOUS
 62
     7
 10
8.4156768135
 20
4.0342648207
 30
0.0
  0
VERTEX
  5
200
  8
0
  6
CONTINUOUS
 62
     7
 10
8.4238383513
 20
4.0442575014
 30
0.0
  0
VERTEX
  5
201
  8
0
  6
CONTINUOUS
 62
     7
 10
8.4345465551
 20
4.0534138588
 30
0.0
  0
VERTEX
  5
202
  8
0
  6
CONTINUOUS
 62
     7
 10
8.4440856871
 20
4.0595940119
 30
0.0
  0
SEQEND
  5
203
  8
0
  6
CONTINUOUS
 62
     7
  0
POLYLINE
  5
131
  8
0
  6
CONTINUOUS
 62
     7
 66
     1
 10
0.0
 20
0.0
 30
0.0
  0
VERTEX
  5
204
  8
0
  6
CONTINUOUS
 62
     7
 10
8.5925924773
 20
4.0759358034
 30
0.0
  0
VERTEX
  5
205
  8
0
  6
CONTINUOUS
 62
     7
 10
8.6028810868
 20
4.0687422595
 30
0.0
  0
VERTEX
  5
206
  8
0
  6
CONTINUOUS
 62
     7
 10
8.6106255238
 20
4.0605546594
 30
0.0
  0
VERTEX
  5
207
  8
0
  6
CONTINUOUS
 62
     7
 10
8.6155458819
 20
4.0516689209
 30
0.0
  0
VERTEX
  5
208
  8
0
  6
CONTINUOUS
 62
     7
 10
8.6174643292
 20
4.0424061971
 30
0.0
  0
VERTEX
  5
209
  8
0
  6
CONTINUOUS
 62
     7
 10
8.6163115198
 20
4.0331012692
 30
0.0
  0
VERTEX
  5
20A
  8
0
  6
CONTINUOUS
 62
     7
 10
8.6121291248
 20
4.0240904414
 30
0.0
  0
VERTEX
  5
20B
  8
0
  6
CONTINUOUS
 62
     7
 10
8.6050683102
 20
4.0156993844
 30
0.0
  0
VERTEX
  5
20C
  8
0
  6
CONTINUOUS
 62
     7
 10
8.5953842644
 20
4.0082313795
 30
0.0
  0
VERTEX
  5
20D
  8
0
  6
CONTINUOUS
 62
     7
 10
8.5834269988
 20
4.001956336
 30
0.0
  0
VERTEX
  5
20E
  8
0
  6
CONTINUOUS
 62
     7
 10
8.5696286824
 20
3.9971010491
 30
0.0
  0
VERTEX
  5
20F
  8
0
  6
CONTINUOUS
 62
     7
 10
8.5544880161
 20
3.9938410033
 30
0.0
  0
VERTEX
  5
210
  8
0
  6
CONTINUOUS
 62
     7
 10
8.5385522285
 20
3.9922940246
 30
0.0
  0
VERTEX
  5
211
  8
0
  6
CONTINUOUS
 62
     7
 10
8.5223972805
 20
3.9925160272
 30
0.0
  0
VERTEX
  5
212
  8
0
  6
CONTINUOUS
 62
     7
 10
8.5066070468
 20
3.9944989836
 30
0.0
  0
VERTEX
  5
213
  8
0
  6
CONTINUOUS
 62
     7
 10
8.4917522359
 20
3.9981712279
 30
0.0
  0
VERTEX
  5
214
  8
0
  6
CONTINUOUS
 62
     7
 10
8.4783697359
 20
4.003400034
 30
0.0
  0
VERTEX
  5
215
  8
0
  6
CONTINUOUS
 62
     7
 10
8.4669432249
 20
4.0099964183
 30
0.0
  0
VERTEX
  5
216
  8
0
  6
CONTINUOUS
 62
     7
 10
8.4578856857
 20
4.0177219711
 30
0.0
  0
VERTEX
  5
217
  8
0
  6
CONTINUOUS
 62
     7
 10
8.4515244828
 20
4.026297471
 30
0.0
  0
VERTEX
  5
218
  8
0
  6
CONTINUOUS
 62
     7
 10
8.4480895294
 20
4.0354129788
 30
0.0
  0
VERTEX
  5
219
  8
0
  6
CONTINUOUS
 62
     7
 10
8.4477049679
 20
4.0447390318
 30
0.0
  0
VERTEX
  5
21A
  8
0
  6
CONTINUOUS
 62
     7
 10
8.4503847039
 20
4.0539385661
 30
0.0
  0
VERTEX
  5
21B
  8
0
  6
CONTINUOUS
 62
     7
 10
8.4560318808
 20
4.0626790868
 30
0.0
  0
VERTEX
  5
21C
  8
0
  6
CONTINUOUS
 62
     7
 10
8.4644423957
 20
4.0706446853
 30
0.0
  0
VERTEX
  5
21D
  8
0
  6
CONTINUOUS
 62
     7
 10
8.4753122677
 20
4.0775474678
 30
0.0
  0
VERTEX
  5
21E
  8
0
  6
CONTINUOUS
 62
     7
 10
8.4882486332
 20
4.0831379484
 30
0.0
  0
VERTEX
  5
21F
  8
0
  6
CONTINUOUS
 62
     7
 10
8.5027839453
 20
4.0872140699
 30
0.0
  0
VERTEX
  5
220
  8
0
  6
CONTINUOUS
 62
     7
 10
8.518392848
 20
4.0896285152
 30
0.0
  0
VERTEX
  5
221
  8
0
  6
CONTINUOUS
 62
     7
 10
8.5345112024
 20
4.0902940179
 30
0.0
  0
VERTEX
  5
222
  8
0
  6
CONTINUOUS
 62
     7
 10
8.5505564492
 20
4.0891865218
 30
0.0
  0
VERTEX
  5
223
  8
0
  6
CONTINUOUS
 62
     7
 10
8.5659486674
 20
4.0863460596
 30
0.0
  0
VERTEX
  5
224
  8
0
  6
CONTINUOUS
 62
     7
 10
8.5801315437
 20
4.0818752913
 30
0.0
  0
VERTEX
  5
225
  8
0
  6
CONTINUOUS
 62
     7
 10
8.5925924773
 20
4.0759358034
 30
0.0
  0
SEQEND
  5
226
  8
0
  6
CONTINUOUS
 62
     7
  0
POLYLINE
  5
132
  8
0
  6
CONTINUOUS
 62
     7
 66
     1
 10
0.0
 20
0.0
 30
0.0
  0
VERTEX
  5
227
  8
0
  6
CONTINUOUS
 62
     7
 10
8.6574884001
 20
2.4081568536
 30
0.0
  0
VERTEX
  5
228
  8
0
  6
CONTINUOUS
 62
     7
 10
8.6563662817
 20
2.3985095896
 30
0.0
  0
VERTEX
  5
229
  8
0
  6
CONTINUOUS
 62
     7
 10
8.6523635108
 20
2.3877062183
 30
0.0
  0
VERTEX
  5
22A
  8
0
  6
CONTINUOUS
 62
     7
 10
8.6455509651
 20
2.3773821888
 30
0.0
  0
VERTEX
  5
22B
  8
0
  6
CONTINUOUS
 62
     7
 10
8.636088333
 20
2.36777949
 30
0.0
  0
VERTEX
  5
22C
  8
0
  6
CONTINUOUS
 62
     7
 10
8.6241974026
 20
2.3591232056
 30
0.0
  0
VERTEX
  5
22D
  8
0
  6
CONTINUOUS
 62
     7
 10
8.6101568856
 20
2.3516162305
 30
0.0
  0
VERTEX
  5
22E
  8
0
  6
CONTINUOUS
 62
     7
 10
8.5942958908
 20
2.3454345161
 30
0.0
  0
VERTEX
  5
22F
  8
0
  6
CONTINUOUS
 62
     7
 10
8.5769861845
 20
2.3407229606
 30
0.0
  0
VERTEX
  5
230
  8
0
  6
CONTINUOUS
 62
     7
 10
8.5586334803
 20
2.3375919978
 30
0.0
  0
VERTEX
  5
231
  8
0
  6
CONTINUOUS
 62
     7
 10
8.5396679645
 20
2.3361150163
 30
0.0
  0
VERTEX
  5
232
  8
0
  6
CONTINUOUS
 62
     7
 10
8.5205341612
 20
2.3363266341
 30
0.0
  0
VERTEX
  5
233
  8
0
  6
CONTINUOUS
 62
     7
 10
8.5016805635
 20
2.338221892
 30
0.0
  0
VERTEX
  5
234
  8
0
  6
CONTINUOUS
 62
     7
 10
8.4835490637
 20
2.341756366
 30
0.0
  0
VERTEX
  5
235
  8
0
  6
CONTINUOUS
 62
     7
 10
8.4665646628
 20
2.346847208
 30
0.0
  0
VERTEX
  5
236
  8
0
  6
CONTINUOUS
 62
     7
 10
8.4511254595
 20
2.3533750995
 30
0.0
  0
VERTEX
  5
237
  8
0
  6
CONTINUOUS
 62
     7
 10
8.4375933357
 20
2.3611870283
 30
0.0
  0
VERTEX
  5
238
  8
0
  6
CONTINUOUS
 62
     7
 10
8.4262854707
 20
2.3700998907
 30
0.0
  0
VERTEX
  5
239
  8
0
  6
CONTINUOUS
 62
     7
 10
8.4174669181
 20
2.3799047766
 30
0.0
  0
VERTEX
  5
23A
  8
0
  6
CONTINUOUS
 62
     7
 10
8.4113443663
 20
2.3903718686
 30
0.0
  0
VERTEX
  5
23B
  8
0
  6
CONTINUOUS
 62
     7
 10
8.4080613274
 20
2.401255819
 30
0.0
  0
VERTEX
  5
23C
  8
0
  6
CONTINUOUS
 62
     7
 10
8.407488398
 20
2.4081568536
 30
0.0
  0
SEQEND
  5
23D
  8
0
  6
CONTINUOUS
 62
     7
  0
LINE
  5
133
  8
0
  6
CONTINUOUS
 62
     7
 10
9.0324850672
 20
2.2001768777
 30
0.0
 11
9.0324884032
 21
2.1991224108
 31
0.0
  0
POLYLINE
  5
134
  8
0
  6
CONTINUOUS
 62
     7
 66
     1
 10
0.0
 20
0.0
 30
0.0
  0
VERTEX
  5
23E
  8
0
  6
CONTINUOUS
 62
     7
 10
9.0324884032
 20
2.0973269879
 30
0.0
  0
VERTEX
  5
23F
  8
0
  6
CONTINUOUS
 62
     7
 10
9.0316629755
 20
2.0807482883
 30
0.0
  0
VERTEX
  5
240
  8
0
  6
CONTINUOUS
 62
     7
 10
9.0279999297
 20
2.0587379322
 30
0.0
  0
VERTEX
  5
241
  8
0
  6
CONTINUOUS
 62
     7
 10
9.0214290383
 20
2.0369540515
 30
0.0
  0
VERTEX
  5
242
  8
0
  6
CONTINUOUS
 62
     7
 10
9.011988846
 20
2.0155244469
 30
0.0
  0
VERTEX
  5
243
  8
0
  6
CONTINUOUS
 62
     7
 10
8.9997347414
 20
1.9945748889
 30
0.0
  0
VERTEX
  5
244
  8
0
  6
CONTINUOUS
 62
     7
 10
8.9847386632
 20
1.9742283289
 30
0.0
  0
VERTEX
  5
245
  8
0
  6
CONTINUOUS
 62
     7
 10
8.9670885901
 20
1.954604166
 30
0.0
  0
VERTEX
  5
246
  8
0
  6
CONTINUOUS
 62
     7
 10
8.9468881348
 20
1.9358175338
 30
0.0
  0
VERTEX
  5
247
  8
0
  6
CONTINUOUS
 62
     7
 10
8.924255775
 20
1.9179787364
 30
0.0
  0
VERTEX
  5
248
  8
0
  6
CONTINUOUS
 62
     7
 10
8.8993244131
 20
1.901192396
 30
0.0
  0
VERTEX
  5
249
  8
0
  6
CONTINUOUS
 62
     7
 10
8.8722402903
 20
1.8855570646
 30
0.0
  0
VERTEX
  5
24A
  8
0
  6
CONTINUOUS
 62
     7
 10
8.843162345
 20
1.8711644958
 30
0.0
  0
VERTEX
  5
24B
  8
0
  6
CONTINUOUS
 62
     7
 10
8.8122612934
 20
1.8580991125
 30
0.0
  0
VERTEX
  5
24C
  8
0
  6
CONTINUOUS
 62
     7
 10
8.7797183659
 20
1.846437638
 30
0.0
  0
VERTEX
  5
24D
  8
0
  6
CONTINUOUS
 62
     7
 10
8.7457246354
 20
1.8362484676
 30
0.0
  0
VERTEX
  5
24E
  8
0
  6
CONTINUOUS
 62
     7
 10
8.7104795408
 20
1.8275914159
 30
0.0
  0
VERTEX
  5
24F
  8
0
  6
CONTINUOUS
 62
     7
 10
8.6741899098
 20
1.8205172719
 30
0.0
  0
VERTEX
  5
250
  8
0
  6
CONTINUOUS
 62
     7
 10
8.6370687239
 20
1.8150675649
 30
0.0
  0
VERTEX
  5
251
  8
0
  6
CONTINUOUS
 62
     7
 10
8.599333847
 20
1.81127427
 30
0.0
  0
VERTEX
  5
252
  8
0
  6
CONTINUOUS
 62
     7
 10
8.5612066608
 20
1.8091596387
 30
0.0
  0
VERTEX
  5
253
  8
0
  6
CONTINUOUS
 62
     7
 10
8.5229109495
 20
1.8087360938
 30
0.0
  0
VERTEX
  5
254
  8
0
  6
CONTINUOUS
 62
     7
 10
8.4846714478
 20
1.8100061099
 30
0.0
  0
VERTEX
  5
255
  8
0
  6
CONTINUOUS
 62
     7
 10
8.4467125621
 20
1.8129622333
 30
0.0
  0
VERTEX
  5
256
  8
0
  6
CONTINUOUS
 62
     7
 10
8.4092570567
 20
1.8175871418
 30
0.0
  0
VERTEX
  5
257
  8
0
  6
CONTINUOUS
 62
     7
 10
8.3725246886
 20
1.8238536747
 30
0.0
  0
VERTEX
  5
258
  8
0
  6
CONTINUOUS
 62
     7
 10
8.3367310575
 20
1.8317250375
 30
0.0
  0
VERTEX
  5
259
  8
0
  6
CONTINUOUS
 62
     7
 10
8.3020861976
 20
1.8411550559
 30
0.0
  0
VERTEX
  5
25A
  8
0
  6
CONTINUOUS
 62
     7
 10
8.2687934541
 20
1.8520884058
 30
0.0
  0
VERTEX
  5
25B
  8
0
  6
CONTINUOUS
 62
     7
 10
8.2370481821
 20
1.8644609249
 30
0.0
  0
VERTEX
  5
25C
  8
0
  6
CONTINUOUS
 62
     7
 10
8.2070366409
 20
1.8781999717
 30
0.0
  0
VERTEX
  5
25D
  8
0
  6
CONTINUOUS
 62
     7
 10
8.1789350041
 20
1.8932249574
 30
0.0
  0
VERTEX
  5
25E
  8
0
  6
CONTINUOUS
 62
     7
 10
8.1529081455
 20
1.909447687
 30
0.0
  0
VERTEX
  5
25F
  8
0
  6
CONTINUOUS
 62
     7
 10
8.1291088396
 20
1.926772981
 30
0.0
  0
VERTEX
  5
260
  8
0
  6
CONTINUOUS
 62
     7
 10
8.1076766857
 20
1.9450991364
 30
0.0
  0
VERTEX
  5
261
  8
0
  6
CONTINUOUS
 62
     7
 10
8.0887375161
 20
1.9643186282
 30
0.0
  0
VERTEX
  5
262
  8
0
  6
CONTINUOUS
 62
     7
 10
8.0724024751
 20
1.98431868
 30
0.0
  0
VERTEX
  5
263
  8
0
  6
CONTINUOUS
 62
     7
 10
8.0587673975
 20
2.0049819034
 30
0.0
  0
VERTEX
  5
264
  8
0
  6
CONTINUOUS
 62
     7
 10
8.0479122679
 20
2.0261870482
 30
0.0
  0
VERTEX
  5
265
  8
0
  6
CONTINUOUS
 62
     7
 10
8.0399008233
 20
2.0478096512
 30
0.0
  0
VERTEX
  5
266
  8
0
  6
CONTINUOUS
 62
     7
 10
8.0347801126
 20
2.0697228495
 30
0.0
  0
VERTEX
  5
267
  8
0
  6
CONTINUOUS
 62
     7
 10
8.0325801418
 20
2.0917980439
 30
0.0
  0
VERTEX
  5
268
  8
0
  6
CONTINUOUS
 62
     7
 10
8.032488395
 20
2.0973269879
 30
0.0
  0
SEQEND
  5
269
  8
0
  6
CONTINUOUS
 62
     7
  0
POLYLINE
  5
135
  8
0
  6
CONTINUOUS
 62
     7
 66
     1
 10
0.0
 20
0.0
 30
0.0
  0
VERTEX
  5
26A
  8
0
  6
CONTINUOUS
 62
     7
 10
8.776821738
 20
2.2334171315
 30
0.0
  0
VERTEX
  5
26B
  8
0
  6
CONTINUOUS
 62
     7
 10
8.7756860858
 20
2.2198335402
 30
0.0
  0
VERTEX
  5
26C
  8
0
  6
CONTINUOUS
 62
     7
 10
8.7716215439
 20
2.2044713784
 30
0.0
  0
VERTEX
  5
26D
  8
0
  6
CONTINUOUS
 62
     7
 10
8.764654264
 20
2.1894605743
 30
0.0
  0
VERTEX
  5
26E
  8
0
  6
CONTINUOUS
 62
     7
 10
8.7548687895
 20
2.1749833422
 30
0.0
  0
VERTEX
  5
26F
  8
0
  6
CONTINUOUS
 62
     7
 10
8.7423839091
 20
2.1612154234
 30
0.0
  0
VERTEX
  5
270
  8
0
  6
CONTINUOUS
 62
     7
 10
8.7273512026
 20
2.1483239291
 30
0.0
  0
VERTEX
  5
271
  8
0
  6
CONTINUOUS
 62
     7
 10
8.7099531173
 20
2.1364653522
 30
0.0
  0
VERTEX
  5
272
  8
0
  6
CONTINUOUS
 62
     7
 10
8.690400845
 20
2.125783643
 30
0.0
  0
VERTEX
  5
273
  8
0
  6
CONTINUOUS
 62
     7
 10
8.6689317344
 20
2.1164084561
 30
0.0
  0
VERTEX
  5
274
  8
0
  6
CONTINUOUS
 62
     7
 10
8.6458063866
 20
2.1084535932
 30
0.0
  0
VERTEX
  5
275
  8
0
  6
CONTINUOUS
 62
     7
 10
8.6213055061
 20
2.1020156247
 30
0.0
  0
VERTEX
  5
276
  8
0
  6
CONTINUOUS
 62
     7
 10
8.5957265269
 20
2.0971726799
 30
0.0
  0
VERTEX
  5
277
  8
0
  6
CONTINUOUS
 62
     7
 10
8.5693798982
 20
2.0939835704
 30
0.0
  0
VERTEX
  5
278
  8
0
  6
CONTINUOUS
 62
     7
 10
8.5425854679
 20
2.0924869892
 30
0.0
  0
VERTEX
  5
279
  8
0
  6
CONTINUOUS
 62
     7
 10
8.5156684723
 20
2.0927011115
 30
0.0
  0
VERTEX
  5
27A
  8
0
  6
CONTINUOUS
 62
     7
 10
8.4889556514
 20
2.0946233381
 30
0.0
  0
VERTEX
  5
27B
  8
0
  6
CONTINUOUS
 62
     7
 10
8.4627712563
 20
2.0982303348
 30
0.0
  0
VERTEX
  5
27C
  8
0
  6
CONTINUOUS
 62
     7
 10
8.4374331298
 20
2.10347831
 30
0.0
  0
VERTEX
  5
27D
  8
0
  6
CONTINUOUS
 62
     7
 10
8.4132488433
 20
2.1103035676
 30
0.0
  0
VERTEX
  5
27E
  8
0
  6
CONTINUOUS
 62
     7
 10
8.3905119719
 20
2.1186232611
 30
0.0
  0
VERTEX
  5
27F
  8
0
  6
CONTINUOUS
 62
     7
 10
8.3694984875
 20
2.1283363881
 30
0.0
  0
VERTEX
  5
280
  8
0
  6
CONTINUOUS
 62
     7
 10
8.3504634897
 20
2.1393250584
 30
0.0
  0
VERTEX
  5
281
  8
0
  6
CONTINUOUS
 62
     7
 10
8.3336380372
 20
2.1514558847
 30
0.0
  0
VERTEX
  5
282
  8
0
  6
CONTINUOUS
 62
     7
 10
8.3192263438
 20
2.1645816012
 30
0.0
  0
VERTEX
  5
283
  8
0
  6
CONTINUOUS
 62
     7
 10
8.3074033698
 20
2.1785428926
 30
0.0
  0
VERTEX
  5
284
  8
0
  6
CONTINUOUS
 62
     7
 10
8.2983126252
 20
2.1931702817
 30
0.0
  0
VERTEX
  5
285
  8
0
  6
CONTINUOUS
 62
     7
 10
8.2920644465
 20
2.2082862113
 30
0.0
  0
VERTEX
  5
286
  8
0
  6
CONTINUOUS
 62
     7
 10
8.2887346917
 20
2.2237071945
 30
0.0
  0
VERTEX
  5
287
  8
0
  6
CONTINUOUS
 62
     7
 10
8.2881550602
 20
2.2334171315
 30
0.0
  0
SEQEND
  5
288
  8
0
  6
CONTINUOUS
 62
     7
  0
ARC
  5
136
  8
0
  6
CONTINUOUS
 62
     7
 10
8.2008777905
 20
1.9875384432
 30
0.0
 40
0.3814809360959577
 50
45.0847596804
 51
74.9206168523
  0
ARC
  5
137
  8
0
  6
CONTINUOUS
 62
     7
 10
8.7169331957
 20
2.2439406706
 30
0.0
 40
0.4315809958865384
 50
145.2362698635
 51
164.9668013118
  0
LINE
  5
138
  8
0
  6
CONTINUOUS
 62
     7
 10
8.407488398
 20
2.5058710608
 30
0.0
 11
8.3623849526
 21
2.4900254106
 31
0.0
  0
ARC
  5
139
  8
0
  6
CONTINUOUS
 62
     7
 10
8.4825400467
 20
2.1425429537
 30
0.0
 40
0.4013173902166118
 50
45.2940811136
 51
64.1551859786
  0
ARC
  5
13A
  8
0
  6
CONTINUOUS
 62
     7
 10
9.1067631598
 20
2.1875517146
 30
0.0
 40
0.4178596197566294
 50
144.9089171698
 51
165.2941540054
  0
ARC
  5
13B
  8
0
  6
CONTINUOUS
 62
     7
 10
8.6566055763
 20
1.821849803
 30
0.0
 40
0.4740142902226575
 50
84.4327209718
 51
113.1533592422
  0
POLYLINE
  5
13C
  8
0
  6
CONTINUOUS
 62
     7
 66
     1
 10
0.0
 20
0.0
 30
0.0
  0
VERTEX
  5
289
  8
0
  6
CONTINUOUS
 62
     7
 10
8.678098069
 20
2.4922155268
 30
0.0
  0
VERTEX
  5
28A
  8
0
  6
CONTINUOUS
 62
     7
 10
8.6945877091
 20
2.4814704874
 30
0.0
  0
VERTEX
  5
28B
  8
0
  6
CONTINUOUS
 62
     7
 10
8.708713585
 20
2.4696563756
 30
0.0
  0
VERTEX
  5
28C
  8
0
  6
CONTINUOUS
 62
     7
 10
8.7202697037
 20
2.4569454619
 30
0.0
  0
VERTEX
  5
28D
  8
0
  6
CONTINUOUS
 62
     7
 10
8.7290875412
 20
2.4435231009
 30
0.0
  0
VERTEX
  5
28E
  8
0
  6
CONTINUOUS
 62
     7
 10
8.7350385149
 20
2.4295850162
 30
0.0
  0
VERTEX
  5
28F
  8
0
  6
CONTINUOUS
 62
     7
 10
8.7380358604
 20
2.4153344616
 30
0.0
  0
VERTEX
  5
290
  8
0
  6
CONTINUOUS
 62
     7
 10
8.7380358604
 20
2.4009792455
 30
0.0
  0
VERTEX
  5
291
  8
0
  6
CONTINUOUS
 62
     7
 10
8.7350385149
 20
2.3867286909
 30
0.0
  0
VERTEX
  5
292
  8
0
  6
CONTINUOUS
 62
     7
 10
8.7290875412
 20
2.3727906063
 30
0.0
  0
VERTEX
  5
293
  8
0
  6
CONTINUOUS
 62
     7
 10
8.7202697037
 20
2.3593682452
 30
0.0
  0
VERTEX
  5
294
  8
0
  6
CONTINUOUS
 62
     7
 10
8.708713585
 20
2.3466573315
 30
0.0
  0
VERTEX
  5
295
  8
0
  6
CONTINUOUS
 62
     7
 10
8.6945877091
 20
2.3348432197
 30
0.0
  0
VERTEX
  5
296
  8
0
  6
CONTINUOUS
 62
     7
 10
8.678098069
 20
2.3240981803
 30
0.0
  0
VERTEX
  5
297
  8
0
  6
CONTINUOUS
 62
     7
 10
8.6594850982
 20
2.3145789137
 30
0.0
  0
VERTEX
  5
298
  8
0
  6
CONTINUOUS
 62
     7
 10
8.6390202388
 20
2.3064242192
 30
0.0
  0
VERTEX
  5
299
  8
0
  6
CONTINUOUS
 62
     7
 10
8.6170019048
 20
2.2997530138
 30
0.0
  0
VERTEX
  5
29A
  8
0
  6
CONTINUOUS
 62
     7
 10
8.5937511742
 20
2.2946625846
 30
0.0
  0
VERTEX
  5
29B
  8
0
  6
CONTINUOUS
 62
     7
 10
8.5696070874
 20
2.2912271606
 30
0.0
  0
VERTEX
  5
29C
  8
0
  6
CONTINUOUS
 62
     7
 10
8.544921728
 20
2.2894968299
 30
0.0
  0
VERTEX
  5
29D
  8
0
  6
CONTINUOUS
 62
     7
 10
8.5200550701
 20
2.2894968299
 30
0.0
  0
VERTEX
  5
29E
  8
0
  6
CONTINUOUS
 62
     7
 10
8.4953697107
 20
2.2912271606
 30
0.0
  0
VERTEX
  5
29F
  8
0
  6
CONTINUOUS
 62
     7
 10
8.4712256239
 20
2.2946625846
 30
0.0
  0
VERTEX
  5
2A0
  8
0
  6
CONTINUOUS
 62
     7
 10
8.4479748934
 20
2.2997530138
 30
0.0
  0
VERTEX
  5
2A1
  8
0
  6
CONTINUOUS
 62
     7
 10
8.4259565593
 20
2.3064242192
 30
0.0
  0
VERTEX
  5
2A2
  8
0
  6
CONTINUOUS
 62
     7
 10
8.4054917
 20
2.3145789137
 30
0.0
  0
VERTEX
  5
2A3
  8
0
  6
CONTINUOUS
 62
     7
 10
8.3868787291
 20
2.3240981803
 30
0.0
  0
VERTEX
  5
2A4
  8
0
  6
CONTINUOUS
 62
     7
 10
8.370389089
 20
2.3348432197
 30
0.0
  0
VERTEX
  5
2A5
  8
0
  6
CONTINUOUS
 62
     7
 10
8.3562632132
 20
2.3466573315
 30
0.0
  0
VERTEX
  5
2A6
  8
0
  6
CONTINUOUS
 62
     7
 10
8.3447070945
 20
2.3593682452
 30
0.0
  0
VERTEX
  5
2A7
  8
0
  6
CONTINUOUS
 62
     7
 10
8.335889257
 20
2.3727906063
 30
0.0
  0
VERTEX
  5
2A8
  8
0
  6
CONTINUOUS
 62
     7
 10
8.3299382832
 20
2.3867286909
 30
0.0
  0
VERTEX
  5
2A9
  8
0
  6
CONTINUOUS
 62
     7
 10
8.3269409378
 20
2.4009792455
 30
0.0
  0
VERTEX
  5
2AA
  8
0
  6
CONTINUOUS
 62
     7
 10
8.3269409378
 20
2.4153344616
 30
0.0
  0
VERTEX
  5
2AB
  8
0
  6
CONTINUOUS
 62
     7
 10
8.3299382832
 20
2.4295850162
 30
0.0
  0
VERTEX
  5
2AC
  8
0
  6
CONTINUOUS
 62
     7
 10
8.335889257
 20
2.4435231009
 30
0.0
  0
VERTEX
  5
2AD
  8
0
  6
CONTINUOUS
 62
     7
 10
8.3447070945
 20
2.4569454619
 30
0.0
  0
VERTEX
  5
2AE
  8
0
  6
CONTINUOUS
 62
     7
 10
8.3562632132
 20
2.4696563756
 30
0.0
  0
VERTEX
  5
2AF
  8
0
  6
CONTINUOUS
 62
     7
 10
8.370389089
 20
2.4814704874
 30
0.0
  0
VERTEX
  5
2B0
  8
0
  6
CONTINUOUS
 62
     7
 10
8.3868787291
 20
2.4922155268
 30
0.0
  0
VERTEX
  5
2B1
  8
0
  6
CONTINUOUS
 62
     7
 10
8.4054917
 20
2.5017347934
 30
0.0
  0
VERTEX
  5
2B2
  8
0
  6
CONTINUOUS
 62
     7
 10
8.4074884024
 20
2.5026265051
 30
0.0
  0
SEQEND
  5
2B3
  8
0
  6
CONTINUOUS
 62
     7
  0
POLYLINE
  5
13D
  8
0
  6
CONTINUOUS
 62
     7
 66
     1
 10
0.0
 20
0.0
 30
0.0
  0
VERTEX
  5
2B4
  8
0
  6
CONTINUOUS
 62
     7
 10
8.6574883958
 20
2.5026265051
 30
0.0
  0
VERTEX
  5
2B5
  8
0
  6
CONTINUOUS
 62
     7
 10
8.6594850982
 20
2.5017347934
 30
0.0
  0
VERTEX
  5
2B6
  8
0
  6
CONTINUOUS
 62
     7
 10
8.678098069
 20
2.4922155268
 30
0.0
  0
SEQEND
  5
2B7
  8
0
  6
CONTINUOUS
 62
     7
  0
LINE
  5
13E
  8
0
  6
CONTINUOUS
 62
     7
 10
8.7025918455
 20
2.1814891362
 30
0.0
 11
8.7025918455
 21
2.2936281518
 31
0.0
  0
LINE
  5
13F
  8
0
  6
CONTINUOUS
 62
     7
 10
8.7025918455
 20
2.1814891362
 30
0.0
 11
8.4702262049
 21
2.1455459365
 31
0.0
  0
LINE
  5
140
  8
0
  6
CONTINUOUS
 62
     7
 10
8.4702262049
 20
2.1455459365
 30
0.0
 11
8.4702262049
 21
2.2576849521
 31
0.0
  0
LINE
  5
141
  8
0
  6
CONTINUOUS
 62
     7
 10
8.4702262049
 20
2.1455459365
 30
0.0
 11
8.3001227584
 21
2.243744566
 31
0.0
  0
LINE
  5
142
  8
0
  6
CONTINUOUS
 62
     7
 10
8.7648540398
 20
2.3156309653
 30
0.0
 11
8.7025918455
 21
2.1814891362
 31
0.0
  0
POLYLINE
  5
143
  8
0
  6
CONTINUOUS
 62
     7
 66
     1
 10
0.0
 20
0.0
 30
0.0
  0
VERTEX
  5
2B8
  8
0
  6
CONTINUOUS
 62
     7
 10
8.7648540398
 20
2.3232910944
 30
0.0
  0
VERTEX
  5
2B9
  8
0
  6
CONTINUOUS
 62
     7
 10
8.7701491524
 20
2.3124263646
 30
0.0
  0
VERTEX
  5
2BA
  8
0
  6
CONTINUOUS
 62
     7
 10
8.7749453874
 20
2.2971346889
 30
0.0
  0
VERTEX
  5
2BB
  8
0
  6
CONTINUOUS
 62
     7
 10
8.776798542
 20
2.2816312308
 30
0.0
  0
VERTEX
  5
2BC
  8
0
  6
CONTINUOUS
 62
     7
 10
8.7756860858
 20
2.2661041742
 30
0.0
  0
VERTEX
  5
2BD
  8
0
  6
CONTINUOUS
 62
     7
 10
8.7716215439
 20
2.2507420125
 30
0.0
  0
VERTEX
  5
2BE
  8
0
  6
CONTINUOUS
 62
     7
 10
8.764654264
 20
2.2357312083
 30
0.0
  0
VERTEX
  5
2BF
  8
0
  6
CONTINUOUS
 62
     7
 10
8.7548687895
 20
2.2212539763
 30
0.0
  0
VERTEX
  5
2C0
  8
0
  6
CONTINUOUS
 62
     7
 10
8.7423839091
 20
2.2074860575
 30
0.0
  0
VERTEX
  5
2C1
  8
0
  6
CONTINUOUS
 62
     7
 10
8.7273512026
 20
2.1945945632
 30
0.0
  0
VERTEX
  5
2C2
  8
0
  6
CONTINUOUS
 62
     7
 10
8.7099531173
 20
2.1827359863
 30
0.0
  0
VERTEX
  5
2C3
  8
0
  6
CONTINUOUS
 62
     7
 10
8.690400845
 20
2.1720542771
 30
0.0
  0
VERTEX
  5
2C4
  8
0
  6
CONTINUOUS
 62
     7
 10
8.6689317344
 20
2.1626790902
 30
0.0
  0
VERTEX
  5
2C5
  8
0
  6
CONTINUOUS
 62
     7
 10
8.6458063866
 20
2.1547242273
 30
0.0
  0
VERTEX
  5
2C6
  8
0
  6
CONTINUOUS
 62
     7
 10
8.6213055061
 20
2.1482862588
 30
0.0
  0
VERTEX
  5
2C7
  8
0
  6
CONTINUOUS
 62
     7
 10
8.5957265269
 20
2.143443314
 30
0.0
  0
VERTEX
  5
2C8
  8
0
  6
CONTINUOUS
 62
     7
 10
8.5693798982
 20
2.1402542045
 30
0.0
  0
VERTEX
  5
2C9
  8
0
  6
CONTINUOUS
 62
     7
 10
8.5425854679
 20
2.1387576232
 30
0.0
  0
VERTEX
  5
2CA
  8
0
  6
CONTINUOUS
 62
     7
 10
8.5156684723
 20
2.1389717456
 30
0.0
  0
VERTEX
  5
2CB
  8
0
  6
CONTINUOUS
 62
     7
 10
8.4889556514
 20
2.1408939721
 30
0.0
  0
VERTEX
  5
2CC
  8
0
  6
CONTINUOUS
 62
     7
 10
8.4627712563
 20
2.1445009689
 30
0.0
  0
VERTEX
  5
2CD
  8
0
  6
CONTINUOUS
 62
     7
 10
8.4374331298
 20
2.149748944
 30
0.0
  0
VERTEX
  5
2CE
  8
0
  6
CONTINUOUS
 62
     7
 10
8.4132488433
 20
2.1565742016
 30
0.0
  0
VERTEX
  5
2CF
  8
0
  6
CONTINUOUS
 62
     7
 10
8.3905119719
 20
2.1648938952
 30
0.0
  0
VERTEX
  5
2D0
  8
0
  6
CONTINUOUS
 62
     7
 10
8.3694984875
 20
2.1746070221
 30
0.0
  0
VERTEX
  5
2D1
  8
0
  6
CONTINUOUS
 62
     7
 10
8.3504634897
 20
2.1855956925
 30
0.0
  0
VERTEX
  5
2D2
  8
0
  6
CONTINUOUS
 62
     7
 10
8.3336380372
 20
2.1977265188
 30
0.0
  0
VERTEX
  5
2D3
  8
0
  6
CONTINUOUS
 62
     7
 10
8.3192263438
 20
2.2108522353
 30
0.0
  0
VERTEX
  5
2D4
  8
0
  6
CONTINUOUS
 62
     7
 10
8.3074033698
 20
2.2248135267
 30
0.0
  0
VERTEX
  5
2D5
  8
0
  6
CONTINUOUS
 62
     7
 10
8.2983126252
 20
2.2394409158
 30
0.0
  0
VERTEX
  5
2D6
  8
0
  6
CONTINUOUS
 62
     7
 10
8.2920644465
 20
2.2545568453
 30
0.0
  0
VERTEX
  5
2D7
  8
0
  6
CONTINUOUS
 62
     7
 10
8.2887346917
 20
2.2699778286
 30
0.0
  0
VERTEX
  5
2D8
  8
0
  6
CONTINUOUS
 62
     7
 10
8.2883637807
 20
2.2855166794
 30
0.0
  0
VERTEX
  5
2D9
  8
0
  6
CONTINUOUS
 62
     7
 10
8.2909562164
 20
2.3009847747
 30
0.0
  0
VERTEX
  5
2DA
  8
0
  6
CONTINUOUS
 62
     7
 10
8.2964805146
 20
2.3161943597
 30
0.0
  0
VERTEX
  5
2DB
  8
0
  6
CONTINUOUS
 62
     7
 10
8.3001227584
 20
2.3232910944
 30
0.0
  0
SEQEND
  5
2DC
  8
0
  6
CONTINUOUS
 62
     7
  0
LINE
  5
144
  8
0
  6
CONTINUOUS
 62
     7
 10
8.3001227584
 20
2.243744566
 30
0.0
 11
8.3001227584
 21
2.3558835816
 31
0.0
  0
LINE
  5
145
  8
0
  6
CONTINUOUS
 62
     7
 10
8.7648540398
 20
2.3156309653
 30
0.0
 11
8.7648540398
 21
2.4277699809
 31
0.0
  0
POLYLINE
  5
146
  8
0
  6
CONTINUOUS
 62
     8
 66
     1
 10
0.0
 20
0.0
 30
0.0
  0
VERTEX
  5
2DD
  8
0
  6
CONTINUOUS
 62
     8
 10
9.0324884032
 20
2.1991224108
 30
0.0
  0
VERTEX
  5
2DE
  8
0
  6
CONTINUOUS
 62
     8
 10
9.0316629755
 20
2.1825437112
 30
0.0
  0
VERTEX
  5
2DF
  8
0
  6
CONTINUOUS
 62
     8
 10
9.0279999297
 20
2.1605333551
 30
0.0
  0
VERTEX
  5
2E0
  8
0
  6
CONTINUOUS
 62
     8
 10
9.0214290383
 20
2.1387494744
 30
0.0
  0
VERTEX
  5
2E1
  8
0
  6
CONTINUOUS
 62
     8
 10
9.011988846
 20
2.1173198698
 30
0.0
  0
VERTEX
  5
2E2
  8
0
  6
CONTINUOUS
 62
     8
 10
8.9997347414
 20
2.0963703118
 30
0.0
  0
VERTEX
  5
2E3
  8
0
  6
CONTINUOUS
 62
     8
 10
8.9847386632
 20
2.0760237518
 30
0.0
  0
VERTEX
  5
2E4
  8
0
  6
CONTINUOUS
 62
     8
 10
8.9670885901
 20
2.0563995889
 30
0.0
  0
VERTEX
  5
2E5
  8
0
  6
CONTINUOUS
 62
     8
 10
8.9468881348
 20
2.0376129567
 30
0.0
  0
VERTEX
  5
2E6
  8
0
  6
CONTINUOUS
 62
     8
 10
8.924255775
 20
2.0197741593
 30
0.0
  0
VERTEX
  5
2E7
  8
0
  6
CONTINUOUS
 62
     8
 10
8.8993244131
 20
2.0029878189
 30
0.0
  0
VERTEX
  5
2E8
  8
0
  6
CONTINUOUS
 62
     8
 10
8.8722402903
 20
1.9873524875
 30
0.0
  0
VERTEX
  5
2E9
  8
0
  6
CONTINUOUS
 62
     8
 10
8.843162345
 20
1.9729599187
 30
0.0
  0
VERTEX
  5
2EA
  8
0
  6
CONTINUOUS
 62
     8
 10
8.8122612934
 20
1.9598945354
 30
0.0
  0
VERTEX
  5
2EB
  8
0
  6
CONTINUOUS
 62
     8
 10
8.7797183659
 20
1.9482330609
 30
0.0
  0
VERTEX
  5
2EC
  8
0
  6
CONTINUOUS
 62
     8
 10
8.7457246354
 20
1.9380438905
 30
0.0
  0
VERTEX
  5
2ED
  8
0
  6
CONTINUOUS
 62
     8
 10
8.7104795408
 20
1.9293868388
 30
0.0
  0
VERTEX
  5
2EE
  8
0
  6
CONTINUOUS
 62
     8
 10
8.6741899098
 20
1.9223126948
 30
0.0
  0
VERTEX
  5
2EF
  8
0
  6
CONTINUOUS
 62
     8
 10
8.6370687239
 20
1.9168629878
 30
0.0
  0
VERTEX
  5
2F0
  8
0
  6
CONTINUOUS
 62
     8
 10
8.599333847
 20
1.9130696929
 30
0.0
  0
VERTEX
  5
2F1
  8
0
  6
CONTINUOUS
 62
     8
 10
8.5612066608
 20
1.9109550616
 30
0.0
  0
VERTEX
  5
2F2
  8
0
  6
CONTINUOUS
 62
     8
 10
8.5229109495
 20
1.9105315167
 30
0.0
  0
VERTEX
  5
2F3
  8
0
  6
CONTINUOUS
 62
     8
 10
8.4846714478
 20
1.9118015328
 30
0.0
  0
VERTEX
  5
2F4
  8
0
  6
CONTINUOUS
 62
     8
 10
8.4467125621
 20
1.9147576562
 30
0.0
  0
VERTEX
  5
2F5
  8
0
  6
CONTINUOUS
 62
     8
 10
8.4092570567
 20
1.9193825647
 30
0.0
  0
VERTEX
  5
2F6
  8
0
  6
CONTINUOUS
 62
     8
 10
8.3725246886
 20
1.9256490976
 30
0.0
  0
VERTEX
  5
2F7
  8
0
  6
CONTINUOUS
 62
     8
 10
8.3367310575
 20
1.9335204604
 30
0.0
  0
VERTEX
  5
2F8
  8
0
  6
CONTINUOUS
 62
     8
 10
8.3020861976
 20
1.9429504788
 30
0.0
  0
VERTEX
  5
2F9
  8
0
  6
CONTINUOUS
 62
     8
 10
8.2687934541
 20
1.9538838287
 30
0.0
  0
VERTEX
  5
2FA
  8
0
  6
CONTINUOUS
 62
     8
 10
8.2370481821
 20
1.9662563478
 30
0.0
  0
VERTEX
  5
2FB
  8
0
  6
CONTINUOUS
 62
     8
 10
8.2070366409
 20
1.9799953946
 30
0.0
  0
VERTEX
  5
2FC
  8
0
  6
CONTINUOUS
 62
     8
 10
8.1789350041
 20
1.9950203803
 30
0.0
  0
VERTEX
  5
2FD
  8
0
  6
CONTINUOUS
 62
     8
 10
8.1529081455
 20
2.0112431099
 30
0.0
  0
VERTEX
  5
2FE
  8
0
  6
CONTINUOUS
 62
     8
 10
8.1291088396
 20
2.0285684039
 30
0.0
  0
VERTEX
  5
2FF
  8
0
  6
CONTINUOUS
 62
     8
 10
8.1076766857
 20
2.0468945593
 30
0.0
  0
VERTEX
  5
300
  8
0
  6
CONTINUOUS
 62
     8
 10
8.0887375161
 20
2.0661140511
 30
0.0
  0
VERTEX
  5
301
  8
0
  6
CONTINUOUS
 62
     8
 10
8.0724024751
 20
2.0861141029
 30
0.0
  0
VERTEX
  5
302
  8
0
  6
CONTINUOUS
 62
     8
 10
8.0587673975
 20
2.1067773263
 30
0.0
  0
VERTEX
  5
303
  8
0
  6
CONTINUOUS
 62
     8
 10
8.0479122679
 20
2.1279824711
 30
0.0
  0
VERTEX
  5
304
  8
0
  6
CONTINUOUS
 62
     8
 10
8.0399008233
 20
2.1496050741
 30
0.0
  0
VERTEX
  5
305
  8
0
  6
CONTINUOUS
 62
     8
 10
8.0347801126
 20
2.1715182724
 30
0.0
  0
VERTEX
  5
306
  8
0
  6
CONTINUOUS
 62
     8
 10
8.0325801418
 20
2.1935934668
 30
0.0
  0
VERTEX
  5
307
  8
0
  6
CONTINUOUS
 62
     8
 10
8.0324894666
 20
2.1997177904
 30
0.0
  0
SEQEND
  5
308
  8
0
  6
CONTINUOUS
 62
     8
  0
POLYLINE
  5
147
  8
0
  6
CONTINUOUS
 62
     8
 66
     1
 10
0.0
 20
0.0
 30
0.0
  0
VERTEX
  5
309
  8
0
  6
CONTINUOUS
 62
     8
 10
8.8563433035
 20
2.4203745883
 30
0.0
  0
VERTEX
  5
30A
  8
0
  6
CONTINUOUS
 62
     8
 10
8.8813526503
 20
2.4047245279
 30
0.0
  0
VERTEX
  5
30B
  8
0
  6
CONTINUOUS
 62
     8
 10
8.9040994431
 20
2.3879634516
 30
0.0
  0
VERTEX
  5
30C
  8
0
  6
CONTINUOUS
 62
     8
 10
8.9244362352
 20
2.370200107
 30
0.0
  0
VERTEX
  5
30D
  8
0
  6
CONTINUOUS
 62
     8
 10
8.9422310757
 20
2.3515496623
 30
0.0
  0
VERTEX
  5
30E
  8
0
  6
CONTINUOUS
 62
     8
 10
8.9573685596
 20
2.3321330611
 30
0.0
  0
VERTEX
  5
30F
  8
0
  6
CONTINUOUS
 62
     8
 10
8.9697505618
 20
2.3120762781
 30
0.0
  0
VERTEX
  5
310
  8
0
  6
CONTINUOUS
 62
     8
 10
8.9792967435
 20
2.2915093494
 30
0.0
  0
VERTEX
  5
311
  8
0
  6
CONTINUOUS
 62
     8
 10
8.985945191
 20
2.2705656636
 30
0.0
  0
VERTEX
  5
312
  8
0
  6
CONTINUOUS
 62
     8
 10
8.9896528139
 20
2.2493810739
 30
0.0
  0
VERTEX
  5
313
  8
0
  6
CONTINUOUS
 62
     8
 10
8.9903955173
 20
2.2280929404
 30
0.0
  0
VERTEX
  5
314
  8
0
  6
CONTINUOUS
 62
     8
 10
8.9881685479
 20
2.2068393315
 30
0.0
  0
VERTEX
  5
315
  8
0
  6
CONTINUOUS
 62
     8
 10
8.9829863212
 20
2.185758106
 30
0.0
  0
VERTEX
  5
316
  8
0
  6
CONTINUOUS
 62
     8
 10
8.9748824211
 20
2.1649859555
 30
0.0
  0
VERTEX
  5
317
  8
0
  6
CONTINUOUS
 62
     8
 10
8.9639094535
 20
2.1446576007
 30
0.0
  0
VERTEX
  5
318
  8
0
  6
CONTINUOUS
 62
     8
 10
8.9501385187
 20
2.1249049086
 30
0.0
  0
VERTEX
  5
319
  8
0
  6
CONTINUOUS
 62
     8
 10
8.9336589868
 20
2.1058559444
 30
0.0
  0
VERTEX
  5
31A
  8
0
  6
CONTINUOUS
 62
     8
 10
8.9145777116
 20
2.0876342583
 30
0.0
  0
VERTEX
  5
31B
  8
0
  6
CONTINUOUS
 62
     8
 10
8.8930184465
 20
2.0703580296
 30
0.0
  0
VERTEX
  5
31C
  8
0
  6
CONTINUOUS
 62
     8
 10
8.8691209682
 20
2.0541393212
 30
0.0
  0
VERTEX
  5
31D
  8
0
  6
CONTINUOUS
 62
     8
 10
8.8430403241
 20
2.0390832859
 30
0.0
  0
VERTEX
  5
31E
  8
0
  6
CONTINUOUS
 62
     8
 10
8.814945653
 20
2.0252875653
 30
0.0
  0
VERTEX
  5
31F
  8
0
  6
CONTINUOUS
 62
     8
 10
8.7850191047
 20
2.0128416665
 30
0.0
  0
VERTEX
  5
320
  8
0
  6
CONTINUOUS
 62
     8
 10
8.7534547985
 20
2.0018262808
 30
0.0
  0
VERTEX
  5
321
  8
0
  6
CONTINUOUS
 62
     8
 10
8.7204574494
 20
1.9923128495
 30
0.0
  0
VERTEX
  5
322
  8
0
  6
CONTINUOUS
 62
     8
 10
8.6862410756
 20
1.9843630581
 30
0.0
  0
VERTEX
  5
323
  8
0
  6
CONTINUOUS
 62
     8
 10
8.6510275167
 20
1.9780284987
 30
0.0
  0
VERTEX
  5
324
  8
0
  6
CONTINUOUS
 62
     8
 10
8.6150451979
 20
1.9733502168
 30
0.0
  0
VERTEX
  5
325
  8
0
  6
CONTINUOUS
 62
     8
 10
8.5785274876
 20
1.970358581
 30
0.0
  0
VERTEX
  5
326
  8
0
  6
CONTINUOUS
 62
     8
 10
8.541711168
 20
1.9690729789
 30
0.0
  0
VERTEX
  5
327
  8
0
  6
CONTINUOUS
 62
     8
 10
8.5048350435
 20
1.9695017325
 30
0.0
  0
VERTEX
  5
328
  8
0
  6
CONTINUOUS
 62
     8
 10
8.4681382817
 20
1.9716420976
 30
0.0
  0
VERTEX
  5
329
  8
0
  6
CONTINUOUS
 62
     8
 10
8.4318588228
 20
1.9754801647
 30
0.0
  0
VERTEX
  5
32A
  8
0
  6
CONTINUOUS
 62
     8
 10
8.396231997
 20
1.980991058
 30
0.0
  0
VERTEX
  5
32B
  8
0
  6
CONTINUOUS
 62
     8
 10
8.3614888654
 20
1.9881390358
 30
0.0
  0
VERTEX
  5
32C
  8
0
  6
CONTINUOUS
 62
     8
 10
8.3278546812
 20
1.9968777192
 30
0.0
  0
VERTEX
  5
32D
  8
0
  6
CONTINUOUS
 62
     8
 10
8.295547663
 20
2.007150462
 30
0.0
  0
VERTEX
  5
32E
  8
0
  6
CONTINUOUS
 62
     8
 10
8.2647773135
 20
2.0188906422
 30
0.0
  0
VERTEX
  5
32F
  8
0
  6
CONTINUOUS
 62
     8
 10
8.2357431318
 20
2.0320220861
 30
0.0
  0
VERTEX
  5
330
  8
0
  6
CONTINUOUS
 62
     8
 10
8.2086334947
 20
2.0464596747
 30
0.0
  0
VERTEX
  5
331
  8
0
  6
CONTINUOUS
 62
     8
 10
8.1836241478
 20
2.0621097352
 30
0.0
  0
VERTEX
  5
332
  8
0
  6
CONTINUOUS
 62
     8
 10
8.160877355
 20
2.0788708114
 30
0.0
  0
VERTEX
  5
333
  8
0
  6
CONTINUOUS
 62
     8
 10
8.1405405629
 20
2.0966341561
 30
0.0
  0
VERTEX
  5
334
  8
0
  6
CONTINUOUS
 62
     8
 10
8.1227457224
 20
2.1152846008
 30
0.0
  0
VERTEX
  5
335
  8
0
  6
CONTINUOUS
 62
     8
 10
8.1076082386
 20
2.134701202
 30
0.0
  0
VERTEX
  5
336
  8
0
  6
CONTINUOUS
 62
     8
 10
8.0952262363
 20
2.1547579849
 30
0.0
  0
VERTEX
  5
337
  8
0
  6
CONTINUOUS
 62
     8
 10
8.0856800547
 20
2.1753249137
 30
0.0
  0
VERTEX
  5
338
  8
0
  6
CONTINUOUS
 62
     8
 10
8.0790316071
 20
2.1962685995
 30
0.0
  0
VERTEX
  5
339
  8
0
  6
CONTINUOUS
 62
     8
 10
8.0753239842
 20
2.2174531892
 30
0.0
  0
VERTEX
  5
33A
  8
0
  6
CONTINUOUS
 62
     8
 10
8.0745812809
 20
2.2387413227
 30
0.0
  0
VERTEX
  5
33B
  8
0
  6
CONTINUOUS
 62
     8
 10
8.0768082502
 20
2.2599949316
 30
0.0
  0
VERTEX
  5
33C
  8
0
  6
CONTINUOUS
 62
     8
 10
8.081990477
 20
2.2810761571
 30
0.0
  0
VERTEX
  5
33D
  8
0
  6
CONTINUOUS
 62
     8
 10
8.090094377
 20
2.3018483076
 30
0.0
  0
VERTEX
  5
33E
  8
0
  6
CONTINUOUS
 62
     8
 10
8.1010673446
 20
2.3221766624
 30
0.0
  0
VERTEX
  5
33F
  8
0
  6
CONTINUOUS
 62
     8
 10
8.1148382795
 20
2.3419293545
 30
0.0
  0
VERTEX
  5
340
  8
0
  6
CONTINUOUS
 62
     8
 10
8.1313178113
 20
2.3609783187
 30
0.0
  0
VERTEX
  5
341
  8
0
  6
CONTINUOUS
 62
     8
 10
8.1503990866
 20
2.3792000048
 30
0.0
  0
VERTEX
  5
342
  8
0
  6
CONTINUOUS
 62
     8
 10
8.1719583516
 20
2.3964762335
 30
0.0
  0
VERTEX
  5
343
  8
0
  6
CONTINUOUS
 62
     8
 10
8.1958558299
 20
2.4126949419
 30
0.0
  0
VERTEX
  5
344
  8
0
  6
CONTINUOUS
 62
     8
 10
8.221936474
 20
2.4277509772
 30
0.0
  0
VERTEX
  5
345
  8
0
  6
CONTINUOUS
 62
     8
 10
8.2500311451
 20
2.4415466978
 30
0.0
  0
VERTEX
  5
346
  8
0
  6
CONTINUOUS
 62
     8
 10
8.2799576934
 20
2.4539925966
 30
0.0
  0
VERTEX
  5
347
  8
0
  6
CONTINUOUS
 62
     8
 10
8.3115219996
 20
2.4650079823
 30
0.0
  0
VERTEX
  5
348
  8
0
  6
CONTINUOUS
 62
     8
 10
8.3445193488
 20
2.4745214135
 30
0.0
  0
VERTEX
  5
349
  8
0
  6
CONTINUOUS
 62
     8
 10
8.3528160071
 20
2.4766203292
 30
0.0
  0
SEQEND
  5
34A
  8
0
  6
CONTINUOUS
 62
     8
  0
ARC
  5
148
  8
0
  6
CONTINUOUS
 62
     8
 10
8.5787660554
 20
1.9225122998
 30
0.0
 40
0.5700140235005353
 50
60.8586632586
 51
77.5910616092
  0
POLYLINE
  5
149
  8
0
  6
CONTINUOUS
 62
     8
 66
     1
 10
0.0
 20
0.0
 30
0.0
  0
VERTEX
  5
34B
  8
0
  6
CONTINUOUS
 62
     8
 10
9.0184884038
 20
1.9318413857
 30
0.0
  0
VERTEX
  5
34C
  8
0
  6
CONTINUOUS
 62
     8
 10
9.0173693621
 20
1.9128131662
 30
0.0
  0
VERTEX
  5
34D
  8
0
  6
CONTINUOUS
 62
     8
 10
9.0133570457
 20
1.8911790384
 30
0.0
  0
VERTEX
  5
34E
  8
0
  6
CONTINUOUS
 62
     8
 10
9.0064526991
 20
1.8697894565
 30
0.0
  0
VERTEX
  5
34F
  8
0
  6
CONTINUOUS
 62
     8
 10
8.9966979092
 20
1.8487730594
 30
0.0
  0
VERTEX
  5
350
  8
0
  6
CONTINUOUS
 62
     8
 10
8.9841512881
 20
1.8282562412
 30
0.0
  0
VERTEX
  5
351
  8
0
  6
CONTINUOUS
 62
     8
 10
8.9688883093
 20
1.8083623974
 30
0.0
  0
VERTEX
  5
352
  8
0
  6
CONTINUOUS
 62
     8
 10
8.9510008144
 20
1.7892111616
 30
0.0
  0
VERTEX
  5
353
  8
0
  6
CONTINUOUS
 62
     8
 10
8.9305962795
 20
1.7709177421
 30
0.0
  0
VERTEX
  5
354
  8
0
  6
CONTINUOUS
 62
     8
 10
8.9077975184
 20
1.7535921127
 30
0.0
  0
VERTEX
  5
355
  8
0
  6
CONTINUOUS
 62
     8
 10
8.8827415937
 20
1.737338503
 30
0.0
  0
VERTEX
  5
356
  8
0
  6
CONTINUOUS
 62
     8
 10
8.8555791801
 20
1.7222546721
 30
0.0
  0
VERTEX
  5
357
  8
0
  6
CONTINUOUS
 62
     8
 10
8.8264737037
 20
1.7084312919
 30
0.0
  0
VERTEX
  5
358
  8
0
  6
CONTINUOUS
 62
     8
 10
8.7956001173
 20
1.6959515596
 30
0.0
  0
VERTEX
  5
359
  8
0
  6
CONTINUOUS
 62
     8
 10
8.763144192
 20
1.6848904686
 30
0.0
  0
VERTEX
  5
35A
  8
0
  6
CONTINUOUS
 62
     8
 10
8.729301028
 20
1.6753145888
 30
0.0
  0
VERTEX
  5
35B
  8
0
  6
CONTINUOUS
 62
     8
 10
8.6942742556
 20
1.6672814843
 30
0.0
  0
VERTEX
  5
35C
  8
0
  6
CONTINUOUS
 62
     8
 10
8.6582744447
 20
1.6608394746
 30
0.0
  0
VERTEX
  5
35D
  8
0
  6
CONTINUOUS
 62
     8
 10
8.6215181719
 20
1.6560272952
 30
0.0
  0
VERTEX
  5
35E
  8
0
  6
CONTINUOUS
 62
     8
 10
8.5842264384
 20
1.6528739026
 30
0.0
  0
VERTEX
  5
35F
  8
0
  6
CONTINUOUS
 62
     8
 10
8.5466235816
 20
1.6513982457
 30
0.0
  0
VERTEX
  5
360
  8
0
  6
CONTINUOUS
 62
     8
 10
8.5089356671
 20
1.6516092149
 30
0.0
  0
VERTEX
  5
361
  8
0
  6
CONTINUOUS
 62
     8
 10
8.4713894347
 20
1.6535055331
 30
0.0
  0
VERTEX
  5
362
  8
0
  6
CONTINUOUS
 62
     8
 10
8.4342106563
 20
1.6570757851
 30
0.0
  0
VERTEX
  5
363
  8
0
  6
CONTINUOUS
 62
     8
 10
8.3976229433
 20
1.6622985278
 30
0.0
  0
VERTEX
  5
364
  8
0
  6
CONTINUOUS
 62
     8
 10
8.3618462857
 20
1.669142315
 30
0.0
  0
VERTEX
  5
365
  8
0
  6
CONTINUOUS
 62
     8
 10
8.3270959204
 20
1.6775660114
 30
0.0
  0
VERTEX
  5
366
  8
0
  6
CONTINUOUS
 62
     8
 10
8.2935808014
 20
1.6875189576
 30
0.0
  0
VERTEX
  5
367
  8
0
  6
CONTINUOUS
 62
     8
 10
8.2615024935
 20
1.6989412696
 30
0.0
  0
VERTEX
  5
368
  8
0
  6
CONTINUOUS
 62
     8
 10
8.2310539579
 20
1.7117642997
 30
0.0
  0
VERTEX
  5
369
  8
0
  6
CONTINUOUS
 62
     8
 10
8.2024182486
 20
1.7259108708
 30
0.0
  0
VERTEX
  5
36A
  8
0
  6
CONTINUOUS
 62
     8
 10
8.175767633
 20
1.7412959437
 30
0.0
  0
VERTEX
  5
36B
  8
0
  6
CONTINUOUS
 62
     8
 10
8.1512623978
 20
1.7578269868
 30
0.0
  0
VERTEX
  5
36C
  8
0
  6
CONTINUOUS
 62
     8
 10
8.1290498514
 20
1.7754045523
 30
0.0
  0
VERTEX
  5
36D
  8
0
  6
CONTINUOUS
 62
     8
 10
8.1092636829
 20
1.7939229653
 30
0.0
  0
VERTEX
  5
36E
  8
0
  6
CONTINUOUS
 62
     8
 10
8.0920228062
 20
1.8132708316
 30
0.0
  0
VERTEX
  5
36F
  8
0
  6
CONTINUOUS
 62
     8
 10
8.077430955
 20
1.8333317905
 30
0.0
  0
VERTEX
  5
370
  8
0
  6
CONTINUOUS
 62
     8
 10
8.0655758835
 20
1.8539852153
 30
0.0
  0
VERTEX
  5
371
  8
0
  6
CONTINUOUS
 62
     8
 10
8.0565288474
 20
1.8751068525
 30
0.0
  0
VERTEX
  5
372
  8
0
  6
CONTINUOUS
 62
     8
 10
8.0503443194
 20
1.8965697044
 30
0.0
  0
VERTEX
  5
373
  8
0
  6
CONTINUOUS
 62
     8
 10
8.0470594441
 20
1.918244683
 30
0.0
  0
VERTEX
  5
374
  8
0
  6
CONTINUOUS
 62
     8
 10
8.0464883944
 20
1.9318413857
 30
0.0
  0
SEQEND
  5
375
  8
0
  6
CONTINUOUS
 62
     8
  0
ENDSEC
  0
EOF
