  0
SECTION
  2
HEADER
  9
$ACADVER
  1
AC1009
  9
$DWGCODEPAGE
  3
ansi_1252
  9
$INSBASE
 10
0.0
 20
0.0
 30
0.0
  9
$EXTMIN
 10
0.0
 20
0.0
 30
0.0
  9
$EXTMAX
 10
11.0
 20
8.5
 30
0.0
  9
$LIMMIN
 10
0.0
 20
0.0
  9
$LIMMAX
 10
11.0
 20
8.5
  9
$ORTHOMODE
 70
     0
  9
$REGENMODE
 70
     1
  9
$FILLMODE
 70
     1
  9
$QTEXTMODE
 70
     0
  9
$MIRRTEXT
 70
     1
  9
$DRAGMODE
 70
     2
  9
$LTSCALE
 40
1.0
  9
$OSMODE
 70
    37
  9
$ATTMODE
 70
     1
  9
$TEXTSIZE
 40
0.125
  9
$TRACEWID
 40
0.05
  9
$TEXTSTYLE
  7
STANDARD
  9
$CLAYER
  8
0
  9
$CELTYPE
  6
BYLAYER
  9
$CECOLOR
 62
   256
  9
$DIMSCALE
 40
1.0
  9
$DIMASZ
 40
0.13
  9
$DIMEXO
 40
0.05
  9
$DIMDLI
 40
0.38
  9
$DIMRND
 40
0.0
  9
$DIMDLE
 40
0.0
  9
$DIMEXE
 40
0.125
  9
$DIMTP
 40
0.0
  9
$DIMTM
 40
0.0
  9
$DIMTXT
 40
0.125
  9
$DIMCEN
 40
0.09
  9
$DIMTSZ
 40
0.0
  9
$DIMTOL
 70
     0
  9
$DIMLIM
 70
     0
  9
$DIMTIH
 70
     1
  9
$DIMTOH
 70
     1
  9
$DIMSE1
 70
     0
  9
$DIMSE2
 70
     0
  9
$DIMTAD
 70
     1
  9
$DIMZIN
 70
     0
  9
$DIMBLK
  1

  9
$DIMASO
 70
     1
  9
$DIMSHO
 70
     1
  9
$DIMPOST
  1

  9
$DIMAPOST
  1

  9
$DIMALT
 70
     0
  9
$DIMALTD
 70
     2
  9
$DIMALTF
 40
25.4
  9
$DIMLFAC
 40
1.0
  9
$DIMTOFL
 70
     0
  9
$DIMTVP
 40
0.0
  9
$DIMTIX
 70
     0
  9
$DIMSOXD
 70
     0
  9
$DIMSAH
 70
     0
  9
$DIMBLK1
  1

  9
$DIMBLK2
  1

  9
$DIMSTYLE
  2
STANDARD
  9
$DIMCLRD
 70
     0
  9
$DIMCLRE
 70
     0
  9
$DIMCLRT
 70
     0
  9
$DIMTFAC
 40
1.0
  9
$DIMGAP
 40
0.06
  9
$LUNITS
 70
     2
  9
$LUPREC
 70
     3
  9
$SKETCHINC
 40
0.1
  9
$FILLETRAD
 40
0.5
  9
$AUNITS
 70
     0
  9
$AUPREC
 70
     2
  9
$MENU
  1
.
  9
$ELEVATION
 40
0.0
  9
$PELEVATION
 40
0.0
  9
$THICKNESS
 40
0.0
  9
$LIMCHECK
 70
     0
  9
$CHAMFERA
 40
0.5
  9
$CHAMFERB
 40
0.5
  9
$SKPOLY
 70
     0
  9
$TDCREATE
 40
2456498.582019919
  9
$TDUPDATE
 40
2456498.582019931
  9
$TDINDWG
 40
0.0000000116
  9
$TDUSRTIMER
 40
0.0000000116
  9
$USRTIMER
 70
     1
  9
$ANGBASE
 50
0.0
  9
$ANGDIR
 70
     0
  9
$PDMODE
 70
     0
  9
$PDSIZE
 40
-1.0
  9
$PLINEWID
 40
0.0
  9
$COORDS
 70
     1
  9
$SPLFRAME
 70
     0
  9
$SPLINETYPE
 70
     6
  9
$SPLINESEGS
 70
     8
  9
$ATTDIA
 70
     0
  9
$ATTREQ
 70
     1
  9
$HANDLING
 70
     1
  9
$HANDSEED
  5
37E
  9
$SURFTAB1
 70
     6
  9
$SURFTAB2
 70
     6
  9
$SURFTYPE
 70
     6
  9
$SURFU
 70
     6
  9
$SURFV
 70
     6
  9
$UCSNAME
  2

  9
$UCSORG
 10
0.0
 20
0.0
 30
0.0
  9
$UCSXDIR
 10
1.0
 20
0.0
 30
0.0
  9
$UCSYDIR
 10
0.0
 20
1.0
 30
0.0
  9
$PUCSNAME
  2

  9
$PUCSORG
 10
0.0
 20
0.0
 30
0.0
  9
$PUCSXDIR
 10
1.0
 20
0.0
 30
0.0
  9
$PUCSYDIR
 10
0.0
 20
1.0
 30
0.0
  9
$USERI1
 70
     0
  9
$USERI2
 70
     0
  9
$USERI3
 70
     0
  9
$USERI4
 70
     0
  9
$USERI5
 70
     0
  9
$USERR1
 40
0.0
  9
$USERR2
 40
0.0
  9
$USERR3
 40
0.0
  9
$USERR4
 40
0.0
  9
$USERR5
 40
0.0
  9
$WORLDVIEW
 70
     1
  9
$SHADEDGE
 70
     3
  9
$SHADEDIF
 70
    70
  9
$TILEMODE
 70
     1
  9
$MAXACTVP
 70
    64
  9
$PLIMCHECK
 70
     0
  9
$PEXTMIN
 10
1.0000000000E+20
 20
1.0000000000E+20
 30
1.0000000000E+20
  9
$PEXTMAX
 10
-1.0000000000E+20
 20
-1.0000000000E+20
 30
-1.0000000000E+20
  9
$PLIMMIN
 10
0.0
 20
0.0
  9
$PLIMMAX
 10
12.0
 20
9.0
  9
$UNITMODE
 70
     0
  9
$VISRETAIN
 70
     1
  9
$PLINEGEN
 70
     0
  9
$PSLTSCALE
 70
     1
  0
ENDSEC
  0
SECTION
  2
TABLES
  0
TABLE
  2
VPORT
 70
     1
  0
VPORT
  2
*ACTIVE
 70
     0
 10
0.0
 20
0.0
 11
1.0
 21
1.0
 12
5.5
 22
4.25
 13
0.0
 23
0.0
 14
0.5
 24
0.5
 15
0.5
 25
0.5
 16
0.0
 26
0.0
 36
1.0
 17
0.0
 27
0.0
 37
0.0
 40
8.5
 41
1.2941176471
 42
50.0
 43
0.0
 44
0.0
 50
0.0
 51
0.0
 71
     0
 72
  2000
 73
     1
 74
     3
 75
     0
 76
     0
 77
     0
 78
     0
  0
ENDTAB
  0
TABLE
  2
LTYPE
 70
     6
  0
LTYPE
  2
CONTINUOUS
 70
     0
  3
Solid line
 72
    65
 73
     0
 40
0.0
  0
LTYPE
  2
HIDDEN
 70
     0
  3
Hidden __ __ __ __ __ __ __ __ __ __ __ __ __ __
 72
    65
 73
     2
 40
0.075
 49
0.05
 49
-0.025
  0
LTYPE
  2
PHANTOM
 70
     0
  3
Phantom ______  __  __  ______  __  __  ______
 72
    65
 73
     6
 40
0.5
 49
0.25
 49
-0.05
 49
0.05
 49
-0.05
 49
0.05
 49
-0.05
  0
LTYPE
  2
CENTER
 70
     0
  3
Center ____ _ ____ _ ____ _ ____ _ ____ _ ____
 72
    65
 73
     4
 40
0.4
 49
0.25
 49
-0.05
 49
0.05
 49
-0.05
  0
LTYPE
  2
CENTERX2
 70
     0
  3
Center (2x) ________  __  ________  __  _____
 72
    65
 73
     4
 40
0.8
 49
0.5
 49
-0.1
 49
0.1
 49
-0.1
  0
LTYPE
  2
DOT2
 70
     0
  3
Dot (.5x) ........................................
 72
    65
 73
     2
 40
0.025
 49
0.0
 49
-0.025
  0
ENDTAB
  0
TABLE
  2
LAYER
 70
     1
  0
LAYER
  2
0
 70
     0
 62
     7
  6
CONTINUOUS
  0
ENDTAB
  0
TABLE
  2
STYLE
 70
     1
  0
STYLE
  2
STANDARD
 70
     0
 40
0.0
 41
1.0
 50
0.0
 71
     0
 42
0.2
  3
txt
  4

  0
ENDTAB
  0
TABLE
  2
VIEW
 70
     0
  0
ENDTAB
  0
TABLE
  2
UCS
 70
     0
  0
ENDTAB
  0
TABLE
  2
APPID
 70
     1
  0
APPID
  2
ACAD
 70
     0
  0
ENDTAB
  0
TABLE
  2
DIMSTYLE
 70
     4
  0
DIMSTYLE
  2
STANDARD
 70
     0
  3

  4

  5

  6

  7

 40
1.0
 41
0.18
 42
0.0625
 43
0.38
 44
0.18
 45
0.0
 46
0.0
 47
0.0
 48
0.0
140
0.18
141
0.09
142
0.0
143
25.4
144
1.0
145
0.0
146
1.0
147
0.09
 71
     0
 72
     0
 73
     1
 74
     1
 75
     0
 76
     0
 77
     0
 78
     0
170
     0
171
     2
172
     0
173
     0
174
     0
175
     0
176
     0
177
     0
178
     0
  0
DIMSTYLE
  2
SLDDIMSTYLE0
 70
     0
  3

  4

  5

  6

  7

 40
1.0
 41
0.13
 42
0.0625
 43
0.38
 44
0.0
 45
0.000000001
 46
0.0
 47
0.0
 48
0.0
140
0.125
141
0.09
142
0.0
143
25.4
144
1.0
145
0.0
146
1.0
147
0.03125
 71
     0
 72
     0
 73
     1
 74
     1
 75
     0
 76
     0
 77
     0
 78
    12
170
     1
171
     2
172
     0
173
     1
174
     0
175
     0
176
     0
177
     0
178
     0
  0
DIMSTYLE
  2
SLDDIMSTYLE1
 70
     0
  3

  4

  5

  6

  7

 40
1.0
 41
0.13
 42
0.0625
 43
0.38
 44
0.0
 45
0.000000001
 46
0.0
 47
0.0
 48
0.0
140
0.125
141
0.09
142
0.0
143
25.4
144
1.0
145
0.0
146
1.0
147
0.03125
 71
     0
 72
     0
 73
     1
 74
     1
 75
     0
 76
     0
 77
     0
 78
    12
170
     1
171
     2
172
     1
173
     1
174
     0
175
     0
176
     0
177
     0
178
     0
  0
DIMSTYLE
  2
SLDDIMSTYLE2
 70
     0
  3

  4

  5

  6

  7

 40
1.0
 41
0.13
 42
0.0625
 43
0.38
 44
0.0
 45
0.000000001
 46
0.0
 47
0.0
 48
0.0
140
0.125
141
0.09
142
0.0
143
25.4
144
1.0
145
0.0
146
1.0
147
0.03125
 71
     0
 72
     0
 73
     1
 74
     1
 75
     0
 76
     0
 77
     0
 78
     4
170
     1
171
     2
172
     0
173
     1
174
     0
175
     0
176
     0
177
     0
178
     0
  0
ENDTAB
  0
ENDSEC
  0
SECTION
  2
BLOCKS
  0
BLOCK
  8
0
  2
$MODEL_SPACE
 70
     0
 10
0.0
 20
0.0
 30
0.0
  3
$MODEL_SPACE
  1

  0
ENDBLK
  5
21
  8
0
  0
BLOCK
 67
     1
  8
0
  2
$PAPER_SPACE
 70
     0
 10
0.0
 20
0.0
 30
0.0
  3
$PAPER_SPACE
  1

  0
ENDBLK
  5
1D
 67
     1
  8
0
  0
BLOCK
  8
0
  2
SW_NOTE_0
 70
     0
 10
0.0
 20
0.0
 30
0.0
  3
SW_NOTE_0
  1

  0
TEXT
  5
55
  8
0
  6
CONTINUOUS
 62
     0
 10
0.0
 20
0.0441575077
 30
0.0
 40
0.125
  1
MATERIAL:
 41
0.7
 11
0.0
 21
0.0
 31
0.0
 73
     1
  0
TEXT
  5
56
  8
0
  6
CONTINUOUS
 62
     0
 10
0.0
 20
-0.1202125668
 30
0.0
 40
0.125
  1
  STEM & CAP, HEX NUTS - STEEL
 41
0.6066666667
 11
0.0
 21
-0.1643700745
 31
0.0
 73
     1
  0
TEXT
  5
57
  8
0
  6
CONTINUOUS
 62
     0
 10
0.0
 20
-0.2845826413
 30
0.0
 40
0.125
  1
  PAD - NYLON
 41
0.5923076923
 11
0.0
 21
-0.328740149
 31
0.0
 73
     1
  0
TEXT
  5
58
  8
0
  6
CONTINUOUS
 62
     0
 10
0.0
 20
-0.6133227903
 30
0.0
 40
0.125
  1
FINISH:
 41
0.7
 11
0.0
 21
-0.6574802981
 31
0.0
 73
     1
  0
TEXT
  5
59
  8
0
  6
CONTINUOUS
 62
     0
 10
0.0
 20
-0.7776928648
 30
0.0
 40
0.125
  1
  STEM & CAP - ZINC PLATE WITH
 41
0.6066666667
 11
0.0
 21
-0.8218503726
 31
0.0
 73
     1
  0
TEXT
  5
5A
  8
0
  6
CONTINUOUS
 62
     0
 10
0.0
 20
-0.9420629394
 30
0.0
 40
0.125
  1
     CLEAR CHROMATE
 41
0.5894736842
 11
0.0
 21
-0.9862204471
 31
0.0
 73
     1
  0
TEXT
  5
5B
  8
0
  6
CONTINUOUS
 62
     0
 10
0.0
 20
-1.1064330139
 30
0.0
 40
0.125
  1
  HEX NUTS - ZINC PLATE
 41
0.6086956522
 11
0.0
 21
-1.1505905216
 31
0.0
 73
     1
  0
TEXT
  5
5C
  8
0
  6
CONTINUOUS
 62
     0
 10
0.0
 20
-1.2708030884
 30
0.0
 40
0.125
  1
  PAD - WHITE
 41
0.5923076923
 11
0.0
 21
-1.3149605961
 31
0.0
 73
     1
  0
ENDBLK
  5
54
  8
0
  0
BLOCK
  8
0
  2
SW_NOTE_1
 70
     0
 10
0.0
 20
0.0
 30
0.0
  3
SW_NOTE_1
  1

  0
TEXT
  5
62
  8
0
  6
CONTINUOUS
 62
     0
 10
0.0
 20
0.0441575077
 30
0.0
 40
0.125
  1
PART
 41
0.7
 11
0.0
 21
0.0
 31
0.0
 73
     1
  0
TEXT
  5
63
  8
0
  6
CONTINUOUS
 62
     0
 10
-0.0474826381
 20
-0.1202125668
 30
0.0
 40
0.125
  1
NAME
 41
0.7
 11
-0.0474826381
 21
-0.1643700745
 31
0.0
 73
     1
  0
ENDBLK
  5
61
  8
0
  0
BLOCK
  8
0
  2
SW_NOTE_2
 70
     0
 10
0.0
 20
0.0
 30
0.0
  3
SW_NOTE_2
  1

  0
TEXT
  5
68
  8
0
  6
CONTINUOUS
 62
     0
 10
0.0
 20
0.0441575077
 30
0.0
 40
0.125
  1
PART
 41
0.7
 11
0.0
 21
0.0
 31
0.0
 73
     1
  0
TEXT
  5
69
  8
0
  6
CONTINUOUS
 62
     0
 10
0.0577256831
 20
-0.1202125668
 30
0.0
 40
0.125
  1
No.
 41
0.7
 11
0.0577256831
 21
-0.1643700745
 31
0.0
 73
     1
  0
ENDBLK
  5
67
  8
0
  0
BLOCK
  8
0
  2
SW_NOTE_3
 70
     0
 10
0.0
 20
0.0
 30
0.0
  3
SW_NOTE_3
  1

  0
TEXT
  5
6E
  8
0
  6
CONTINUOUS
 62
     0
 10
0.0
 20
0.0441575077
 30
0.0
 40
0.125
  1
REV.
 41
0.7
 11
0.0
 21
0.0
 31
0.0
 73
     1
  0
TEXT
  5
6F
  8
0
  6
CONTINUOUS
 62
     0
 10
-0.0269097225
 20
-0.1202125668
 30
0.0
 40
0.125
  1
DATE
 41
0.7
 11
-0.0269097225
 21
-0.1643700745
 31
0.0
 73
     1
  0
ENDBLK
  5
6D
  8
0
  0
BLOCK
  8
0
  2
*D5
 70
     1
 10
0.0
 20
0.0
 30
0.0
  3
*D5
  1

  0
SOLID
  5
BD
  8
0
  6
CONTINUOUS
 62
     7
 10
2.9826682135
 20
1.2340487239
 30
0.0
 11
3.1126682135
 21
1.2140487239
 31
0.0
 12
3.1126682135
 22
1.2540487239
 32
0.0
 13
3.1126682135
 23
1.2540487239
 33
0.0
  0
SOLID
  5
BE
  8
0
  6
CONTINUOUS
 62
     7
 10
4.6076682135
 20
1.2340487239
 30
0.0
 11
4.4776682135
 21
1.2540487239
 31
0.0
 12
4.4776682135
 22
1.2140487239
 32
0.0
 13
4.4776682135
 23
1.2140487239
 33
0.0
  0
LINE
  5
BF
  8
0
  6
CONTINUOUS
 62
     7
 10
3.6017979766
 20
1.2524515021
 30
0.0
 11
3.5764073503
 21
1.2524515021
 31
0.0
  0
LINE
  5
C0
  8
0
  6
CONTINUOUS
 62
     7
 10
3.5764073503
 20
1.2524515021
 30
0.0
 11
3.5764073503
 21
1.0540139962
 31
0.0
  0
LINE
  5
C1
  8
0
  6
CONTINUOUS
 62
     7
 10
3.5764073503
 20
1.0540139962
 30
0.0
 11
3.6017979766
 21
1.0540139962
 31
0.0
  0
LINE
  5
C2
  8
0
  6
CONTINUOUS
 62
     7
 10
3.9885384412
 20
1.2524515021
 30
0.0
 11
4.0139290675
 21
1.2524515021
 31
0.0
  0
LINE
  5
C3
  8
0
  6
CONTINUOUS
 62
     7
 10
4.0139290675
 20
1.2524515021
 30
0.0
 11
4.0139290675
 21
1.0540139962
 31
0.0
  0
LINE
  5
C4
  8
0
  6
CONTINUOUS
 62
     7
 10
4.0139290675
 20
1.0540139962
 30
0.0
 11
3.9885384412
 21
1.0540139962
 31
0.0
  0
LINE
  5
C5
  8
0
  6
CONTINUOUS
 62
     7
 10
2.9826682135
 20
2.1376078886
 30
0.0
 11
2.9826682135
 21
1.1090487239
 31
0.0
  0
LINE
  5
C6
  8
0
  6
CONTINUOUS
 62
     7
 10
4.6076682135
 20
2.1376078886
 30
0.0
 11
4.6076682135
 21
1.1090487239
 31
0.0
  0
LINE
  5
C7
  8
0
  6
CONTINUOUS
 62
     7
 10
2.9826682135
 20
1.2340487239
 30
0.0
 11
3.4631510478
 21
1.2340487239
 31
0.0
  0
LINE
  5
C8
  8
0
  6
CONTINUOUS
 62
     7
 10
4.6076682135
 20
1.2340487239
 30
0.0
 11
4.1271853791
 21
1.2340487239
 31
0.0
  0
TEXT
  5
C9
  8
0
  6
CONTINUOUS
 62
     7
 10
3.4884972195
 20
1.3219996361
 30
0.0039370079
 40
0.125
  1
%%c
 41
0.7
 11
3.4884972195
 21
1.2778421284
 31
0.0039370079
 73
     1
  0
TEXT
  5
CA
  8
0
  6
CONTINUOUS
 62
     7
 10
3.6770128401
 20
1.3219996361
 30
0.0039370079
 40
0.125
  1
1.63
 41
0.7
 11
3.6770128401
 21
1.2778421284
 31
0.0039370079
 73
     1
  0
TEXT
  5
CB
  8
0
  6
CONTINUOUS
 62
     7
 10
3.6335362594
 20
1.098171497
 30
0.0039370079
 40
0.125
  1
41.3
 41
0.7
 11
3.6335362594
 21
1.0540139893
 31
0.0039370079
 73
     1
  0
ENDBLK
  5
BC
  8
0
  0
BLOCK
  8
0
  2
*D6
 70
     1
 10
0.0
 20
0.0
 30
0.0
  3
*D6
  1

  0
SOLID
  5
D1
  8
0
  6
CONTINUOUS
 62
     7
 10
5.2375894733
 20
2.0086078886
 30
0.0
 11
5.2175894733
 21
1.8786078886
 31
0.0
 12
5.2575894733
 22
1.8786078886
 32
0.0
 13
5.2575894733
 23
1.8786078886
 33
0.0
  0
SOLID
  5
D2
  8
0
  6
CONTINUOUS
 62
     7
 10
5.2375894733
 20
2.7586078886
 30
0.0
 11
5.2575894733
 21
2.8886078886
 31
0.0
 12
5.2175894733
 22
2.8886078886
 32
0.0
 13
5.2175894733
 23
2.8886078886
 33
0.0
  0
LINE
  5
D3
  8
0
  6
CONTINUOUS
 62
     7
 10
5.0442192456
 20
2.3826530263
 30
0.0
 11
5.0188286193
 21
2.3826530263
 31
0.0
  0
LINE
  5
D4
  8
0
  6
CONTINUOUS
 62
     7
 10
5.0188286193
 20
2.3826530263
 30
0.0
 11
5.0188286193
 21
2.1842155204
 31
0.0
  0
LINE
  5
D5
  8
0
  6
CONTINUOUS
 62
     7
 10
5.0188286193
 20
2.1842155204
 30
0.0
 11
5.0442192456
 21
2.1842155204
 31
0.0
  0
LINE
  5
D6
  8
0
  6
CONTINUOUS
 62
     7
 10
5.4309597102
 20
2.3826530263
 30
0.0
 11
5.4563503365
 21
2.3826530263
 31
0.0
  0
LINE
  5
D7
  8
0
  6
CONTINUOUS
 62
     7
 10
5.4563503365
 20
2.3826530263
 30
0.0
 11
5.4563503365
 21
2.1842155204
 31
0.0
  0
LINE
  5
D8
  8
0
  6
CONTINUOUS
 62
     7
 10
5.4563503365
 20
2.1842155204
 30
0.0
 11
5.4309597102
 21
2.1842155204
 31
0.0
  0
LINE
  5
D9
  8
0
  6
CONTINUOUS
 62
     7
 10
4.5116682135
 20
2.0086078886
 30
0.0
 11
5.3625894733
 21
2.0086078886
 31
0.0
  0
LINE
  5
DA
  8
0
  6
CONTINUOUS
 62
     7
 10
4.1540529567
 20
2.7586078886
 30
0.0
 11
5.3625894733
 21
2.7586078886
 31
0.0
  0
LINE
  5
DB
  8
0
  6
CONTINUOUS
 62
     7
 10
5.2375894733
 20
2.0086078886
 30
0.0
 11
5.2375894733
 21
1.7586078886
 31
0.0
  0
LINE
  5
DC
  8
0
  6
CONTINUOUS
 62
     7
 10
5.2375894733
 20
2.7586078886
 30
0.0
 11
5.2375894733
 21
3.0086078886
 31
0.0
  0
TEXT
  5
DD
  8
0
  6
CONTINUOUS
 62
     7
 10
4.9536050939
 20
2.4541108918
 30
0.0039370079
 40
0.125
  1
 
 41
0.7
 11
4.9536050939
 21
2.4099533841
 31
0.0039370079
 73
     1
  0
TEXT
  5
DE
  8
0
  6
CONTINUOUS
 62
     7
 10
5.0713568361
 20
2.4522011603
 30
0.0039370079
 40
0.125
  1
.75
 41
0.7
 11
5.0713568361
 21
2.4080436526
 31
0.0039370079
 73
     1
  0
TEXT
  5
DF
  8
0
  6
CONTINUOUS
 62
     7
 10
5.0759575284
 20
2.2283730212
 30
0.0039370079
 40
0.125
  1
19.1
 41
0.7
 11
5.0759575284
 21
2.1842155135
 31
0.0039370079
 73
     1
  0
TEXT
  5
E0
  8
0
  6
CONTINUOUS
 62
     7
 10
5.4753933062
 20
2.4541108918
 30
0.0039370079
 40
0.125
  1
 
 41
0.7
 11
5.4753933062
 21
2.4099533841
 31
0.0039370079
 73
     1
  0
ENDBLK
  5
D0
  8
0
  0
BLOCK
  8
0
  2
*D7
 70
     1
 10
0.0
 20
0.0
 30
0.0
  3
*D7
  1

  0
SOLID
  5
E6
  8
0
  6
CONTINUOUS
 62
     7
 10
5.2375894733
 20
5.7586078886
 30
0.0
 11
5.2175894733
 21
5.6286078886
 31
0.0
 12
5.2575894733
 22
5.6286078886
 32
0.0
 13
5.2575894733
 23
5.6286078886
 33
0.0
  0
SOLID
  5
E7
  8
0
  6
CONTINUOUS
 62
     7
 10
5.2375894733
 20
2.7586078886
 30
0.0
 11
5.2575894733
 21
2.8886078886
 31
0.0
 12
5.2175894733
 22
2.8886078886
 32
0.0
 13
5.2175894733
 23
2.8886078886
 33
0.0
  0
LINE
  5
E8
  8
0
  6
CONTINUOUS
 62
     7
 10
5.0442192456
 20
4.2576530263
 30
0.0
 11
5.0188286193
 21
4.2576530263
 31
0.0
  0
LINE
  5
E9
  8
0
  6
CONTINUOUS
 62
     7
 10
5.0188286193
 20
4.2576530263
 30
0.0
 11
5.0188286193
 21
4.0592155204
 31
0.0
  0
LINE
  5
EA
  8
0
  6
CONTINUOUS
 62
     7
 10
5.0188286193
 20
4.0592155204
 30
0.0
 11
5.0442192456
 21
4.0592155204
 31
0.0
  0
LINE
  5
EB
  8
0
  6
CONTINUOUS
 62
     7
 10
5.4309597102
 20
4.2576530263
 30
0.0
 11
5.4563503365
 21
4.2576530263
 31
0.0
  0
LINE
  5
EC
  8
0
  6
CONTINUOUS
 62
     7
 10
5.4563503365
 20
4.2576530263
 30
0.0
 11
5.4563503365
 21
4.0592155204
 31
0.0
  0
LINE
  5
ED
  8
0
  6
CONTINUOUS
 62
     7
 10
5.4563503365
 20
4.0592155204
 30
0.0
 11
5.4309597102
 21
4.0592155204
 31
0.0
  0
LINE
  5
EE
  8
0
  6
CONTINUOUS
 62
     7
 10
3.9726682135
 20
5.7586078886
 30
0.0
 11
5.3625894733
 21
5.7586078886
 31
0.0
  0
LINE
  5
EF
  8
0
  6
CONTINUOUS
 62
     7
 10
4.1540529567
 20
2.7586078886
 30
0.0
 11
5.3625894733
 21
2.7586078886
 31
0.0
  0
LINE
  5
F0
  8
0
  6
CONTINUOUS
 62
     7
 10
5.2375894733
 20
5.7586078886
 30
0.0
 11
5.2375894733
 21
4.4833908969
 31
0.0
  0
LINE
  5
F1
  8
0
  6
CONTINUOUS
 62
     7
 10
5.2375894733
 20
2.7586078886
 30
0.0
 11
5.2375894733
 21
4.0338248803
 31
0.0
  0
TEXT
  5
F2
  8
0
  6
CONTINUOUS
 62
     7
 10
4.9536050939
 20
4.3291108918
 30
0.0039370079
 40
0.125
  1
 
 41
0.7
 11
4.9536050939
 21
4.2849533841
 31
0.0039370079
 73
     1
  0
TEXT
  5
F3
  8
0
  6
CONTINUOUS
 62
     7
 10
5.0251762896
 20
4.3272011603
 30
0.0039370079
 40
0.125
  1
3.00
 41
0.7
 11
5.0251762896
 21
4.2830436526
 31
0.0039370079
 73
     1
  0
TEXT
  5
F4
  8
0
  6
CONTINUOUS
 62
     7
 10
5.0759575284
 20
4.1033730212
 30
0.0039370079
 40
0.125
  1
76.2
 41
0.7
 11
5.0759575284
 21
4.0592155135
 31
0.0039370079
 73
     1
  0
TEXT
  5
F5
  8
0
  6
CONTINUOUS
 62
     7
 10
5.4753933062
 20
4.3291108918
 30
0.0039370079
 40
0.125
  1
 
 41
0.7
 11
5.4753933062
 21
4.2849533841
 31
0.0039370079
 73
     1
  0
ENDBLK
  5
E5
  8
0
  0
BLOCK
  8
0
  2
SW_NOTE_4
 70
     0
 10
0.0
 20
0.0
 30
0.0
  3
SW_NOTE_4
  1

  0
TEXT
  5
F9
  8
0
  6
CONTINUOUS
 62
     0
 10
0.9792285383
 20
0.9660519298
 30
0.0
 40
0.125
  1
3/8-16 THREAD
 41
0.7
 11
0.9792285383
 21
0.9218944221
 31
0.0
 73
     1
  0
POLYLINE
  5
FA
  8
0
  6
CONTINUOUS
 62
     0
 66
     1
 10
0.0
 20
0.0
 30
0.0
  0
VERTEX
  5
376
  8
0
  6
CONTINUOUS
 62
     0
 10
0.9595227913
 20
1.0224547564
 30
0.0
  0
VERTEX
  5
377
  8
0
  6
CONTINUOUS
 62
     0
 10
0.7095227913
 20
1.0224547564
 30
0.0
  0
VERTEX
  5
378
  8
0
  6
CONTINUOUS
 62
     0
 10
0.0
 20
0.0
 30
0.0
  0
SEQEND
  5
379
  8
0
  6
CONTINUOUS
 62
     0
  0
SOLID
  5
FB
  8
0
  6
CONTINUOUS
 62
     0
 10
0.0
 20
0.0
 30
0.0
 11
0.0905464188
 21
0.095400975
 31
0.0
 12
0.0576838636
 22
0.1182056339
 32
0.0
 13
0.0576838636
 23
0.1182056339
 33
0.0
  0
ENDBLK
  5
F8
  8
0
  0
BLOCK
  8
0
  2
SW_NOTE_5
 70
     0
 10
0.0
 20
0.0
 30
0.0
  3
SW_NOTE_5
  1

  0
TEXT
  5
100
  8
0
  6
CONTINUOUS
 62
     0
 10
-2.2081433148
 20
0.4933257117
 30
0.0
 40
0.125
  1
QTY. (2) HEX NUTS
 41
0.6382352941
 11
-2.2081433148
 21
0.449168204
 31
0.0
 73
     1
  0
TEXT
  5
101
  8
0
  6
CONTINUOUS
 62
     0
 10
-1.5194279242
 20
0.3289556372
 30
0.0
 40
0.125
  1
SUPPLIED
 41
0.7
 11
-1.5194279242
 21
0.2847981294
 31
0.0
 73
     1
  0
POLYLINE
  5
102
  8
0
  6
CONTINUOUS
 62
     0
 66
     1
 10
0.0
 20
0.0
 30
0.0
  0
VERTEX
  5
37A
  8
0
  6
CONTINUOUS
 62
     0
 10
-0.7824024795
 20
0.5129582367
 30
0.0
  0
VERTEX
  5
37B
  8
0
  6
CONTINUOUS
 62
     0
 10
-0.5324024795
 20
0.5129582367
 30
0.0
  0
VERTEX
  5
37C
  8
0
  6
CONTINUOUS
 62
     0
 10
0.0
 20
0.0
 30
0.0
  0
SEQEND
  5
37D
  8
0
  6
CONTINUOUS
 62
     0
  0
SOLID
  5
103
  8
0
  6
CONTINUOUS
 62
     0
 10
0.0
 20
0.0
 30
0.0
 11
-0.0797408349
 21
0.1046011437
 31
0.0
 12
-0.1074942036
 22
0.0757957531
 32
0.0
 13
-0.1074942036
 23
0.0757957531
 33
0.0
  0
ENDBLK
  5
FF
  8
0
  0
ENDSEC
  0
SECTION
  2
ENTITIES
  0
LINE
  5
44
  8
0
  6
CONTINUOUS
 62
     7
 10
0.391927
 20
8.1300731707
 30
0.0
 11
0.391927
 21
0.4540731707
 31
0.0
  0
LINE
  5
45
  8
0
  6
CONTINUOUS
 62
     7
 10
0.329927
 20
8.1920731707
 30
0.0
 11
0.329927
 21
0.3920731707
 31
0.0
  0
LINE
  5
46
  8
0
  6
CONTINUOUS
 62
     7
 10
10.629927
 20
0.3920731707
 30
0.0
 11
0.329927
 21
0.3920731707
 31
0.0
  0
LINE
  5
47
  8
0
  6
CONTINUOUS
 62
     7
 10
10.629927
 20
0.3920731707
 30
0.0
 11
10.629927
 21
8.1920731707
 31
0.0
  0
LINE
  5
48
  8
0
  6
CONTINUOUS
 62
     7
 10
10.567927
 20
0.4540731707
 30
0.0
 11
0.391927
 21
0.4540731707
 31
0.0
  0
LINE
  5
49
  8
0
  6
CONTINUOUS
 62
     7
 10
10.567927
 20
0.4540731707
 30
0.0
 11
10.567927
 21
8.1300731707
 31
0.0
  0
LINE
  5
4A
  8
0
  6
CONTINUOUS
 62
     7
 10
0.391927
 20
8.1300731707
 30
0.0
 11
10.567927
 21
8.1300731707
 31
0.0
  0
LINE
  5
4B
  8
0
  6
CONTINUOUS
 62
     7
 10
0.391927
 20
7.7240731707
 30
0.0
 11
10.567927
 21
7.7240731707
 31
0.0
  0
LINE
  5
4C
  8
0
  6
CONTINUOUS
 62
     7
 10
0.953927
 20
8.1300731707
 30
0.0
 11
0.953927
 21
7.7240731707
 31
0.0
  0
LINE
  5
4D
  8
0
  6
CONTINUOUS
 62
     7
 10
9.0209161631
 20
8.1300731707
 30
0.0
 11
9.0209161631
 21
7.7240731707
 31
0.0
  0
LINE
  5
4E
  8
0
  6
CONTINUOUS
 62
     7
 10
9.5829161631
 20
8.1300731707
 30
0.0
 11
9.5829161631
 21
7.7240731707
 31
0.0
  0
LINE
  5
4F
  8
0
  6
CONTINUOUS
 62
     7
 10
5.453927
 20
8.1300731707
 30
0.0
 11
5.453927
 21
7.7240731707
 31
0.0
  0
LINE
  5
50
  8
0
  6
CONTINUOUS
 62
     7
 10
6.015927
 20
8.1300731707
 30
0.0
 11
6.015927
 21
7.7240731707
 31
0.0
  0
LINE
  5
51
  8
0
  6
CONTINUOUS
 62
     7
 10
0.329927
 20
8.1920731707
 30
0.0
 11
10.629927
 21
8.1920731707
 31
0.0
  0
INSERT
  5
5D
  8
0
  6
CONTINUOUS
 62
     7
  2
SW_NOTE_0
 10
7.0941937355
 20
6.8113491784
 30
0.0
  0
TEXT
  5
5E
  8
0
  6
CONTINUOUS
 62
     7
 10
7.0941937355
 20
4.9545438092
 30
0.0
 40
0.125
  1
LOAD RATING:  200 LBS. [90 KG.]
 41
0.6322580645
 11
7.0941937355
 21
4.9103863014
 31
0.0
 73
     1
  0
INSERT
  5
64
  8
0
  6
CONTINUOUS
 62
     7
  2
SW_NOTE_1
 10
0.4700130874
 20
7.9140318903
 30
0.0
  0
INSERT
  5
6A
  8
0
  6
CONTINUOUS
 62
     7
  2
SW_NOTE_2
 10
5.5393881545
 20
7.9135712069
 30
0.0
  0
INSERT
  5
70
  8
0
  6
CONTINUOUS
 62
     7
  2
SW_NOTE_3
 10
9.1290491867
 20
7.9199729233
 30
0.0
  0
TEXT
  5
71
  8
0
  6
CONTINUOUS
 62
     7
 10
2.2445673476
 20
7.8597806339
 30
0.0
 40
0.1875
  1
STEM LEVELER
 41
0.7
 11
2.2445673476
 21
7.7935443723
 31
0.0
 73
     1
  0
TEXT
  5
72
  8
0
  6
CONTINUOUS
 62
     7
 10
7.1096099171
 20
7.8503559766
 30
0.0
 40
0.1875
  1
RL-7767
 41
0.7
 11
7.1096099171
 21
7.784119715
 31
0.0
 73
     1
  0
TEXT
  5
73
  8
0
  6
CONTINUOUS
 62
     7
 10
9.634215585
 20
7.8474386566
 30
0.0
 40
0.1875
  1
7-24-13
 41
0.7
 11
9.634215585
 21
7.781202395
 31
0.0
 73
     1
  0
LINE
  5
74
  8
0
  6
CONTINUOUS
 62
     7
 10
4.1126816355
 20
4.6608655695
 30
0.0
 11
4.0677234865
 21
4.6818298607
 31
0.0
  0
LINE
  5
75
  8
0
  6
CONTINUOUS
 62
     7
 10
3.5226129404
 20
4.6818298607
 30
0.0
 11
3.4776548647
 21
4.6608655695
 31
0.0
  0
LINE
  5
76
  8
0
  6
CONTINUOUS
 62
     7
 10
4.0480679969
 20
4.3448302737
 30
0.0
 11
4.0480679969
 21
4.3608302489
 31
0.0
  0
LINE
  5
77
  8
0
  6
CONTINUOUS
 62
     7
 10
3.54226843
 20
4.3608302489
 30
0.0
 11
3.54226843
 21
4.3448302737
 31
0.0
  0
LINE
  5
78
  8
0
  6
CONTINUOUS
 62
     7
 10
4.1167805182
 20
5.000531379
 30
0.0
 11
4.0677234865
 21
5.0234070081
 31
0.0
  0
LINE
  5
79
  8
0
  6
CONTINUOUS
 62
     7
 10
3.5226129404
 20
5.0234070081
 30
0.0
 11
3.4735208558
 21
5.0005149525
 31
0.0
  0
LINE
  5
7A
  8
0
  6
CONTINUOUS
 62
     7
 10
4.0480679969
 20
4.6864072745
 30
0.0
 11
4.0480679969
 21
4.702407543
 31
0.0
  0
LINE
  5
7B
  8
0
  6
CONTINUOUS
 62
     7
 10
3.54226843
 20
4.702407543
 30
0.0
 11
3.54226843
 21
4.6864072745
 31
0.0
  0
LINE
  5
7C
  8
0
  6
CONTINUOUS
 62
     7
 10
4.6076681807
 20
2.1876078858
 30
0.0
 11
4.6076681807
 21
2.3746078706
 31
0.0
  0
LINE
  5
7D
  8
0
  6
CONTINUOUS
 62
     7
 10
2.9826682462
 20
2.3746078706
 30
0.0
 11
2.9826682462
 21
2.1876078858
 31
0.0
  0
ARC
  5
7E
  8
0
  6
CONTINUOUS
 62
     7
 10
4.5446682135
 20
2.3746078886
 30
0.0
 40
0.0630000000000002
 50
0.0
 51
90.0
  0
ARC
  5
7F
  8
0
  6
CONTINUOUS
 62
     7
 10
3.0456682135
 20
2.3746078886
 30
0.0
 40
0.0630000000000002
 50
90.0
 51
180.0
  0
LINE
  5
80
  8
0
  6
CONTINUOUS
 62
     7
 10
4.58666825
 20
2.1336078871
 30
0.0
 11
4.58666825
 21
2.1876078858
 31
0.0
  0
LINE
  5
81
  8
0
  6
CONTINUOUS
 62
     7
 10
3.0036681769
 20
2.1876078858
 30
0.0
 11
3.0036681769
 21
2.1336078871
 31
0.0
  0
ARC
  5
82
  8
0
  6
CONTINUOUS
 62
     7
 10
4.4616682135
 20
2.1336078886
 30
0.0
 40
0.125
 50
270.0
 51
0.0
  0
ARC
  5
83
  8
0
  6
CONTINUOUS
 62
     7
 10
3.1286682135
 20
2.1336078886
 30
0.0
 40
0.125
 50
180.0
 51
270.0
  0
LINE
  5
84
  8
0
  6
CONTINUOUS
 62
     7
 10
4.161668213
 20
2.4376078828
 30
0.0
 11
4.161668213
 21
2.5226078975
 31
0.0
  0
LINE
  5
85
  8
0
  6
CONTINUOUS
 62
     7
 10
3.428668214
 20
2.5226078975
 30
0.0
 11
3.428668214
 21
2.4376078828
 31
0.0
  0
LINE
  5
86
  8
0
  6
CONTINUOUS
 62
     7
 10
4.156012115
 20
2.7286092644
 30
0.0
 11
4.1040529685
 21
2.7586078979
 31
0.0
  0
LINE
  5
87
  8
0
  6
CONTINUOUS
 62
     7
 10
3.4862834584
 20
2.7586078979
 30
0.0
 11
3.434324312
 21
2.7286092644
 31
0.0
  0
LINE
  5
88
  8
0
  6
CONTINUOUS
 62
     7
 10
3.9826682158
 20
2.7586078979
 30
0.0
 11
3.9826682158
 21
4.3448302737
 31
0.0
  0
LINE
  5
89
  8
0
  6
CONTINUOUS
 62
     7
 10
3.9826682158
 20
4.6818298607
 30
0.0
 11
3.9826682158
 21
4.6864072745
 31
0.0
  0
LINE
  5
8A
  8
0
  6
CONTINUOUS
 62
     7
 10
3.9826682158
 20
5.0234070081
 30
0.0
 11
3.9826682158
 21
5.6986079548
 31
0.0
  0
LINE
  5
8B
  8
0
  6
CONTINUOUS
 62
     7
 10
3.6076682111
 20
5.6986079548
 30
0.0
 11
3.6076682111
 21
5.0234070081
 31
0.0
  0
LINE
  5
8C
  8
0
  6
CONTINUOUS
 62
     7
 10
3.6076682111
 20
4.6864072745
 30
0.0
 11
3.6076682111
 21
4.6818298607
 31
0.0
  0
LINE
  5
8D
  8
0
  6
CONTINUOUS
 62
     7
 10
3.6076682111
 20
4.3448302737
 30
0.0
 11
3.6076682111
 21
2.7586078979
 31
0.0
  0
LINE
  5
8E
  8
0
  6
CONTINUOUS
 62
     7
 10
3.9826682158
 20
5.6986079548
 30
0.0
 11
3.9226682172
 21
5.7586080083
 31
0.0
  0
LINE
  5
8F
  8
0
  6
CONTINUOUS
 62
     7
 10
3.6676682097
 20
5.7586080083
 30
0.0
 11
3.6076682111
 21
5.6986079548
 31
0.0
  0
LINE
  5
90
  8
0
  6
CONTINUOUS
 62
     7
 10
4.0677234865
 20
4.6818298607
 30
0.0
 11
3.5226129404
 21
4.6818298607
 31
0.0
  0
ARC
  5
91
  8
0
  6
CONTINUOUS
 62
     7
 10
3.806660679
 20
4.0062313526
 30
0.0
 40
0.6712566959596598
 50
76.0257009116
 51
103.9742990884
  0
ARC
  5
92
  8
0
  6
CONTINUOUS
 62
     7
 10
3.5577651518
 20
4.4743990937
 30
0.0
 40
0.2027413289835912
 50
64.6521931624
 51
115.3478068376
  0
LINE
  5
93
  8
0
  6
CONTINUOUS
 62
     7
 10
3.4779114551
 20
4.6603155759
 30
0.0
 11
3.470969142
 21
4.6576216337
 31
0.0
  0
ARC
  5
94
  8
0
  6
CONTINUOUS
 62
     7
 10
4.0440637407
 20
4.5232120318
 30
0.0
 40
0.1540667544862062
 50
60.7400872269
 51
119.2599127731
  0
LINE
  5
95
  8
0
  6
CONTINUOUS
 62
     7
 10
3.9687601964
 20
4.6576216337
 30
0.0
 11
3.9687601964
 21
4.3608302489
 31
0.0
  0
LINE
  5
96
  8
0
  6
CONTINUOUS
 62
     7
 10
3.9687601964
 20
4.3608302489
 30
0.0
 11
3.6445611616
 21
4.3608302489
 31
0.0
  0
LINE
  5
97
  8
0
  6
CONTINUOUS
 62
     7
 10
3.6445611616
 20
4.6576216337
 30
0.0
 11
3.6445611616
 21
4.3608302489
 31
0.0
  0
LINE
  5
98
  8
0
  6
CONTINUOUS
 62
     7
 10
4.0480679969
 20
4.3448302737
 30
0.0
 11
3.54226843
 21
4.3448302737
 31
0.0
  0
LINE
  5
99
  8
0
  6
CONTINUOUS
 62
     7
 10
3.470969142
 20
4.6576216337
 30
0.0
 11
3.470969142
 21
4.3608302489
 31
0.0
  0
LINE
  5
9A
  8
0
  6
CONTINUOUS
 62
     7
 10
3.6445611616
 20
4.3608302489
 30
0.0
 11
3.470969142
 21
4.3608302489
 31
0.0
  0
LINE
  5
9B
  8
0
  6
CONTINUOUS
 62
     7
 10
4.1193672849
 20
4.6576216337
 30
0.0
 11
4.1193672849
 21
4.3608302489
 31
0.0
  0
LINE
  5
9C
  8
0
  6
CONTINUOUS
 62
     7
 10
4.1193672849
 20
4.3608302489
 30
0.0
 11
3.9687601964
 21
4.3608302489
 31
0.0
  0
LINE
  5
9D
  8
0
  6
CONTINUOUS
 62
     7
 10
4.0677234865
 20
5.0234070081
 30
0.0
 11
3.5226129404
 21
5.0234070081
 31
0.0
  0
ARC
  5
9E
  8
0
  6
CONTINUOUS
 62
     7
 10
3.5540752353
 20
4.8328190116
 30
0.0
 40
0.1860836898657288
 50
63.3944693353
 51
116.6055306647
  0
LINE
  5
9F
  8
0
  6
CONTINUOUS
 62
     7
 10
3.4735995782
 20
5.0003462878
 30
0.0
 11
3.4707385113
 21
4.9991984877
 31
0.0
  0
ARC
  5
A0
  8
0
  6
CONTINUOUS
 62
     7
 10
4.0407197702
 20
4.8491040823
 30
0.0
 40
0.1695585219551851
 50
62.2770163598
 51
117.7229836402
  0
ARC
  5
A1
  8
0
  6
CONTINUOUS
 62
     7
 10
3.799626792
 20
4.3468830286
 30
0.0
 40
0.6721823489638575
 50
76.0352063331
 51
103.9647936669
  0
LINE
  5
A2
  8
0
  6
CONTINUOUS
 62
     7
 10
3.9618416247
 20
4.9991984877
 30
0.0
 11
3.9618416247
 21
4.702407543
 31
0.0
  0
LINE
  5
A3
  8
0
  6
CONTINUOUS
 62
     7
 10
3.6374119592
 20
4.9991984877
 30
0.0
 11
3.6374119592
 21
4.702407543
 31
0.0
  0
LINE
  5
A4
  8
0
  6
CONTINUOUS
 62
     7
 10
3.9618416247
 20
4.702407543
 30
0.0
 11
3.6374119592
 21
4.702407543
 31
0.0
  0
LINE
  5
A5
  8
0
  6
CONTINUOUS
 62
     7
 10
4.0480679969
 20
4.6864072745
 30
0.0
 11
3.54226843
 21
4.6864072745
 31
0.0
  0
LINE
  5
A6
  8
0
  6
CONTINUOUS
 62
     7
 10
4.1195979156
 20
4.9991984877
 30
0.0
 11
4.1195979156
 21
4.702407543
 31
0.0
  0
LINE
  5
A7
  8
0
  6
CONTINUOUS
 62
     7
 10
4.1195979156
 20
4.702407543
 30
0.0
 11
3.9618416247
 21
4.702407543
 31
0.0
  0
LINE
  5
A8
  8
0
  6
CONTINUOUS
 62
     7
 10
3.4707385113
 20
4.9991984877
 30
0.0
 11
3.4707385113
 21
4.702407543
 31
0.0
  0
LINE
  5
A9
  8
0
  6
CONTINUOUS
 62
     7
 10
3.6374119592
 20
4.702407543
 30
0.0
 11
3.4707385113
 21
4.702407543
 31
0.0
  0
LINE
  5
AA
  8
0
  6
CONTINUOUS
 62
     7
 10
4.6076681807
 20
2.1876078858
 30
0.0
 11
2.9826682462
 21
2.1876078858
 31
0.0
  0
LINE
  5
AB
  8
0
  6
CONTINUOUS
 62
     7
 10
4.5446682418
 20
2.4376078828
 30
0.0
 11
3.0456681851
 21
2.4376078828
 31
0.0
  0
LINE
  5
AC
  8
0
  6
CONTINUOUS
 62
     7
 10
4.4616681873
 20
2.0086078886
 30
0.0
 11
3.1286682396
 21
2.0086078886
 31
0.0
  0
LINE
  5
AD
  8
0
  6
CONTINUOUS
 62
     7
 10
4.161668213
 20
2.5226078975
 30
0.0
 11
3.428668214
 21
2.5226078975
 31
0.0
  0
ARC
  5
AE
  8
0
  6
CONTINUOUS
 62
     7
 10
3.7951682135
 20
2.1464615009
 30
0.0
 40
0.6094654206074935
 50
72.7805018205
 51
107.2194981795
  0
ARC
  5
AF
  8
0
  6
CONTINUOUS
 62
     7
 10
3.5245352873
 20
2.5923198682
 30
0.0
 40
0.1634405690680988
 50
56.4991254061
 51
123.5008745939
  0
ARC
  5
B0
  8
0
  6
CONTINUOUS
 62
     7
 10
4.0658011396
 20
2.5923198876
 30
0.0
 40
0.1634405528717754
 50
56.4991216479
 51
123.5008783521
  0
LINE
  5
B1
  8
0
  6
CONTINUOUS
 62
     7
 10
4.1040529685
 20
2.7586078979
 30
0.0
 11
3.4862834584
 21
2.7586078979
 31
0.0
  0
LINE
  5
B2
  8
0
  6
CONTINUOUS
 62
     7
 10
4.156012115
 20
2.5226078975
 30
0.0
 11
4.156012115
 21
2.7286092644
 31
0.0
  0
LINE
  5
B3
  8
0
  6
CONTINUOUS
 62
     7
 10
3.9755901642
 20
2.5226078975
 30
0.0
 11
3.9755901642
 21
2.7286092644
 31
0.0
  0
LINE
  5
B4
  8
0
  6
CONTINUOUS
 62
     7
 10
3.6147462627
 20
2.5226078975
 30
0.0
 11
3.6147462627
 21
2.7286092644
 31
0.0
  0
LINE
  5
B5
  8
0
  6
CONTINUOUS
 62
     7
 10
3.434324312
 20
2.5226078975
 30
0.0
 11
3.434324312
 21
2.7286092644
 31
0.0
  0
LINE
  5
B6
  8
0
  6
CONTINUOUS
 62
     7
 10
3.9826682158
 20
5.6986079548
 30
0.0
 11
3.6076682111
 21
5.6986079548
 31
0.0
  0
LINE
  5
B7
  8
0
  6
CONTINUOUS
 62
     7
 10
3.9226682172
 20
5.7586080083
 30
0.0
 11
3.6676682097
 21
5.7586080083
 31
0.0
  0
DIMENSION
  5
B8
  8
0
  6
CONTINUOUS
 62
     7
  2
*D5
 10
4.6076682135
 20
1.2340487239
 30
0.0
 11
3.7951682135
 21
1.2340487239
 31
0.0
 70
   160
  1
%%c<>
  3
SLDDIMSTYLE0
 13
2.9826682135
 23
2.1876078886
 33
0.0
 14
4.6076682135
 24
2.1876078886
 34
0.0
  0
DIMENSION
  5
CC
  8
0
  6
CONTINUOUS
 62
     7
  2
*D6
 10
5.2375894733
 20
2.7586078886
 30
0.0
 11
5.2375894733
 21
2.3836078886
 31
0.0
 70
   160
  3
SLDDIMSTYLE1
 13
4.4616682135
 23
2.0086078886
 33
0.0
 14
4.1040529567
 24
2.7586078886
 34
0.0
 50
90.0
  0
DIMENSION
  5
E1
  8
0
  6
CONTINUOUS
 62
     7
  2
*D7
 10
5.2375894733
 20
2.7586078886
 30
0.0
 11
5.2375894733
 21
4.2586078886
 31
0.0
 70
   160
  3
SLDDIMSTYLE2
 13
3.9226682135
 23
5.7586078886
 33
0.0
 14
4.1040529567
 24
2.7586078886
 34
0.0
 50
90.0
  0
INSERT
  5
FC
  8
0
  6
CONTINUOUS
 62
     7
  2
SW_NOTE_4
 10
3.9826682135
 20
5.2974825986
 30
0.0
  0
INSERT
  5
104
  8
0
  6
CONTINUOUS
 62
     7
  2
SW_NOTE_5
 10
3.470738505
 20
4.8635382831
 30
0.0
  0
LINE
  5
105
  8
0
  6
CONTINUOUS
 62
     7
 10
8.6208911111
 20
3.923503968
 30
0.0
 11
8.5926022399
 21
3.9398401186
 31
0.0
  0
LINE
  5
106
  8
0
  6
CONTINUOUS
 62
     7
 10
8.4723745582
 20
3.9398401186
 30
0.0
 11
8.4440856871
 21
3.923503968
 31
0.0
  0
LINE
  5
107
  8
0
  6
CONTINUOUS
 62
     7
 10
8.6574884001
 20
2.2720667299
 30
0.0
 11
8.6574884001
 21
3.0534932876
 31
0.0
  0
LINE
  5
108
  8
0
  6
CONTINUOUS
 62
     7
 10
8.6574884001
 20
3.5049339993
 30
0.0
 11
8.6574884001
 21
3.8724867521
 31
0.0
  0
LINE
  5
109
  8
0
  6
CONTINUOUS
 62
     7
 10
8.407488398
 20
3.8724867521
 30
0.0
 11
8.407488398
 21
3.5049339993
 31
0.0
  0
LINE
  5
10A
  8
0
  6
CONTINUOUS
 62
     7
 10
8.407488398
 20
3.0636898775
 30
0.0
 11
8.407488398
 21
2.2720667299
 31
0.0
  0
POLYLINE
  5
10B
  8
0
  6
CONTINUOUS
 62
     7
 66
     1
 10
0.0
 20
0.0
 30
0.0
  0
VERTEX
  5
14B
  8
0
  6
CONTINUOUS
 62
     7
 10
9.0738211109
 20
2.0644329384
 30
0.0
  0
VERTEX
  5
14C
  8
0
  6
CONTINUOUS
 62
     7
 10
9.0737245762
 20
2.0764280913
 30
0.0
  0
VERTEX
  5
14D
  8
0
  6
CONTINUOUS
 62
     7
 10
9.0709188309
 20
2.0997031579
 30
0.0
  0
VERTEX
  5
14E
  8
0
  6
CONTINUOUS
 62
     7
 10
9.0655339765
 20
2.122704701
 30
0.0
  0
VERTEX
  5
14F
  8
0
  6
CONTINUOUS
 62
     7
 10
9.0575974262
 20
2.1453638021
 30
0.0
  0
VERTEX
  5
150
  8
0
  6
CONTINUOUS
 62
     7
 10
9.0471268451
 20
2.1676101285
 30
0.0
  0
VERTEX
  5
151
  8
0
  6
CONTINUOUS
 62
     7
 10
9.0341384806
 20
2.1893627528
 30
0.0
  0
VERTEX
  5
152
  8
0
  6
CONTINUOUS
 62
     7
 10
9.0186591932
 20
2.2105254038
 30
0.0
  0
VERTEX
  5
153
  8
0
  6
CONTINUOUS
 62
     7
 10
9.0007379329
 20
2.2309870842
 30
0.0
  0
VERTEX
  5
154
  8
0
  6
CONTINUOUS
 62
     7
 10
8.9804527397
 20
2.2506284467
 30
0.0
  0
VERTEX
  5
155
  8
0
  6
CONTINUOUS
 62
     7
 10
8.9579108649
 20
2.2693307638
 30
0.0
  0
VERTEX
  5
156
  8
0
  6
CONTINUOUS
 62
     7
 10
8.9332433238
 20
2.2869840207
 30
0.0
  0
VERTEX
  5
157
  8
0
  6
CONTINUOUS
 62
     7
 10
8.9068043715
 20
2.3033722783
 30
0.0
  0
VERTEX
  5
158
  8
0
  6
CONTINUOUS
 62
     7
 10
8.8918922393
 20
2.3116590238
 30
0.0
  0
VERTEX
  5
159
  8
0
  6
CONTINUOUS
 62
     7
 10
8.8625257962
 20
2.3262717396
 30
0.0
  0
VERTEX
  5
15A
  8
0
  6
CONTINUOUS
 62
     7
 10
8.831595983
 20
2.3395521713
 30
0.0
  0
VERTEX
  5
15B
  8
0
  6
CONTINUOUS
 62
     7
 10
8.7992537949
 20
2.3514553216
 30
0.0
  0
VERTEX
  5
15C
  8
0
  6
CONTINUOUS
 62
     7
 10
8.7656603765
 20
2.3619388955
 30
0.0
  0
VERTEX
  5
15D
  8
0
  6
CONTINUOUS
 62
     7
 10
8.7309786831
 20
2.3709665566
 30
0.0
  0
VERTEX
  5
15E
  8
0
  6
CONTINUOUS
 62
     7
 10
8.6953738866
 20
2.3785073939
 30
0.0
  0
VERTEX
  5
15F
  8
0
  6
CONTINUOUS
 62
     7
 10
8.6590136393
 20
2.3845357099
 30
0.0
  0
VERTEX
  5
160
  8
0
  6
CONTINUOUS
 62
     7
 10
8.6574884087
 20
2.3847213055
 30
0.0
  0
SEQEND
  5
161
  8
0
  6
CONTINUOUS
 62
     7
  0
POLYLINE
  5
10C
  8
0
  6
CONTINUOUS
 62
     7
 66
     1
 10
0.0
 20
0.0
 30
0.0
  0
VERTEX
  5
162
  8
0
  6
CONTINUOUS
 62
     7
 10
8.4074883894
 20
2.384596637
 30
0.0
  0
VERTEX
  5
163
  8
0
  6
CONTINUOUS
 62
     7
 10
8.3977882535
 20
2.3833220742
 30
0.0
  0
VERTEX
  5
164
  8
0
  6
CONTINUOUS
 62
     7
 10
8.3615954943
 20
2.3769567522
 30
0.0
  0
VERTEX
  5
165
  8
0
  6
CONTINUOUS
 62
     7
 10
8.326195875
 20
2.3690855191
 30
0.0
  0
VERTEX
  5
166
  8
0
  6
CONTINUOUS
 62
     7
 10
8.2917532194
 20
2.3597343769
 30
0.0
  0
VERTEX
  5
167
  8
0
  6
CONTINUOUS
 62
     7
 10
8.258427782
 20
2.348933493
 30
0.0
  0
VERTEX
  5
168
  8
0
  6
CONTINUOUS
 62
     7
 10
8.2263761313
 20
2.3367168139
 30
0.0
  0
VERTEX
  5
169
  8
0
  6
CONTINUOUS
 62
     7
 10
8.1957514502
 20
2.3231220184
 30
0.0
  0
VERTEX
  5
16A
  8
0
  6
CONTINUOUS
 62
     7
 10
8.1667041598
 20
2.3081906187
 30
0.0
  0
VERTEX
  5
16B
  8
0
  6
CONTINUOUS
 62
     7
 10
8.1393827669
 20
2.2919689088
 30
0.0
  0
VERTEX
  5
16C
  8
0
  6
CONTINUOUS
 62
     7
 10
8.1139350926
 20
2.2745097304
 30
0.0
  0
VERTEX
  5
16D
  8
0
  6
CONTINUOUS
 62
     7
 10
8.0905162387
 20
2.2558812044
 30
0.0
  0
VERTEX
  5
16E
  8
0
  6
CONTINUOUS
 62
     7
 10
8.0692773789
 20
2.2361655278
 30
0.0
  0
VERTEX
  5
16F
  8
0
  6
CONTINUOUS
 62
     7
 10
8.0503642399
 20
2.2154636861
 30
0.0
  0
VERTEX
  5
170
  8
0
  6
CONTINUOUS
 62
     7
 10
8.0339119055
 20
2.1939003163
 30
0.0
  0
VERTEX
  5
171
  8
0
  6
CONTINUOUS
 62
     7
 10
8.0200351109
 20
2.1716230952
 30
0.0
  0
VERTEX
  5
172
  8
0
  6
CONTINUOUS
 62
     7
 10
8.0088176954
 20
2.1487964109
 30
0.0
  0
VERTEX
  5
173
  8
0
  6
CONTINUOUS
 62
     7
 10
8.0003057397
 20
2.1255896388
 30
0.0
  0
VERTEX
  5
174
  8
0
  6
CONTINUOUS
 62
     7
 10
7.9945086813
 20
2.1021635365
 30
0.0
  0
VERTEX
  5
175
  8
0
  6
CONTINUOUS
 62
     7
 10
7.9914077317
 20
2.0786599552
 30
0.0
  0
VERTEX
  5
176
  8
0
  6
CONTINUOUS
 62
     7
 10
7.9911464572
 20
2.0646897031
 30
0.0
  0
SEQEND
  5
177
  8
0
  6
CONTINUOUS
 62
     7
  0
LINE
  5
10D
  8
0
  6
CONTINUOUS
 62
     7
 10
9.07415505
 20
1.9612368542
 30
0.0
 11
9.07415505
 21
2.0630322671
 31
0.0
  0
LINE
  5
10E
  8
0
  6
CONTINUOUS
 62
     7
 10
7.9908217481
 20
2.0630322671
 30
0.0
 11
7.9908217481
 21
1.9612368542
 31
0.0
  0
POLYLINE
  5
10F
  8
0
  6
CONTINUOUS
 62
     7
 66
     1
 10
0.0
 20
0.0
 30
0.0
  0
VERTEX
  5
178
  8
0
  6
CONTINUOUS
 62
     7
 10
8.0116366461
 20
1.8763823254
 30
0.0
  0
VERTEX
  5
179
  8
0
  6
CONTINUOUS
 62
     7
 10
8.0121000126
 20
1.8740627483
 30
0.0
  0
VERTEX
  5
17A
  8
0
  6
CONTINUOUS
 62
     7
 10
8.0194576313
 20
1.8502791884
 30
0.0
  0
VERTEX
  5
17B
  8
0
  6
CONTINUOUS
 62
     7
 10
8.0293087485
 20
1.8269813146
 30
0.0
  0
VERTEX
  5
17C
  8
0
  6
CONTINUOUS
 62
     7
 10
8.0416391388
 20
1.8042342156
 30
0.0
  0
VERTEX
  5
17D
  8
0
  6
CONTINUOUS
 62
     7
 10
8.0564417674
 20
1.7821112315
 30
0.0
  0
VERTEX
  5
17E
  8
0
  6
CONTINUOUS
 62
     7
 10
8.0737033166
 20
1.7607020141
 30
0.0
  0
VERTEX
  5
17F
  8
0
  6
CONTINUOUS
 62
     7
 10
8.0933877305
 20
1.7401164008
 30
0.0
  0
VERTEX
  5
180
  8
0
  6
CONTINUOUS
 62
     7
 10
8.1154217266
 20
1.7204812323
 30
0.0
  0
VERTEX
  5
181
  8
0
  6
CONTINUOUS
 62
     7
 10
8.139688275
 20
1.7019300401
 30
0.0
  0
VERTEX
  5
182
  8
0
  6
CONTINUOUS
 62
     7
 10
8.1660313841
 20
1.6845896366
 30
0.0
  0
VERTEX
  5
183
  8
0
  6
CONTINUOUS
 62
     7
 10
8.1942689969
 20
1.6685688687
 30
0.0
  0
VERTEX
  5
184
  8
0
  6
CONTINUOUS
 62
     7
 10
8.2242071173
 20
1.6539538493
 30
0.0
  0
VERTEX
  5
185
  8
0
  6
CONTINUOUS
 62
     7
 10
8.2556367805
 20
1.6408139941
 30
0.0
  0
VERTEX
  5
186
  8
0
  6
CONTINUOUS
 62
     7
 10
8.288376217
 20
1.6291899661
 30
0.0
  0
VERTEX
  5
187
  8
0
  6
CONTINUOUS
 62
     7
 10
8.3222500526
 20
1.6191113321
 30
0.0
  0
VERTEX
  5
188
  8
0
  6
CONTINUOUS
 62
     7
 10
8.3570877398
 20
1.6106002585
 30
0.0
  0
VERTEX
  5
189
  8
0
  6
CONTINUOUS
 62
     7
 10
8.392721661
 20
1.6036738372
 30
0.0
  0
VERTEX
  5
18A
  8
0
  6
CONTINUOUS
 62
     7
 10
8.4289854773
 20
1.5983453593
 30
0.0
  0
VERTEX
  5
18B
  8
0
  6
CONTINUOUS
 62
     7
 10
8.465713265
 20
1.5946247912
 30
0.0
  0
VERTEX
  5
18C
  8
0
  6
CONTINUOUS
 62
     7
 10
8.5027389534
 20
1.5925190754
 30
0.0
  0
VERTEX
  5
18D
  8
0
  6
CONTINUOUS
 62
     7
 10
8.539896368
 20
1.5920320414
 30
0.0
  0
VERTEX
  5
18E
  8
0
  6
CONTINUOUS
 62
     7
 10
8.5770194725
 20
1.5931644502
 30
0.0
  0
VERTEX
  5
18F
  8
0
  6
CONTINUOUS
 62
     7
 10
8.6139382728
 20
1.5959136202
 30
0.0
  0
VERTEX
  5
190
  8
0
  6
CONTINUOUS
 62
     7
 10
8.6504866806
 20
1.6002736216
 30
0.0
  0
VERTEX
  5
191
  8
0
  6
CONTINUOUS
 62
     7
 10
8.6865023933
 20
1.6062360567
 30
0.0
  0
VERTEX
  5
192
  8
0
  6
CONTINUOUS
 62
     7
 10
8.7218251478
 20
1.6137905626
 30
0.0
  0
VERTEX
  5
193
  8
0
  6
CONTINUOUS
 62
     7
 10
8.7562967033
 20
1.6229252293
 30
0.0
  0
VERTEX
  5
194
  8
0
  6
CONTINUOUS
 62
     7
 10
8.7897604437
 20
1.6336270714
 30
0.0
  0
VERTEX
  5
195
  8
0
  6
CONTINUOUS
 62
     7
 10
8.8220601246
 20
1.6458822472
 30
0.0
  0
VERTEX
  5
196
  8
0
  6
CONTINUOUS
 62
     7
 10
8.8530381468
 20
1.6596755381
 30
0.0
  0
VERTEX
  5
197
  8
0
  6
CONTINUOUS
 62
     7
 10
8.8825325026
 20
1.6749888024
 30
0.0
  0
VERTEX
  5
198
  8
0
  6
CONTINUOUS
 62
     7
 10
8.9103735271
 20
1.6917972689
 30
0.0
  0
VERTEX
  5
199
  8
0
  6
CONTINUOUS
 62
     7
 10
8.9363735557
 20
1.7100581379
 30
0.0
  0
VERTEX
  5
19A
  8
0
  6
CONTINUOUS
 62
     7
 10
8.9603255454
 20
1.729696723
 30
0.0
  0
VERTEX
  5
19B
  8
0
  6
CONTINUOUS
 62
     7
 10
8.9820278537
 20
1.7506099743
 30
0.0
  0
VERTEX
  5
19C
  8
0
  6
CONTINUOUS
 62
     7
 10
9.0012875064
 20
1.7726549493
 30
0.0
  0
VERTEX
  5
19D
  8
0
  6
CONTINUOUS
 62
     7
 10
9.0179396685
 20
1.7956519017
 30
0.0
  0
VERTEX
  5
19E
  8
0
  6
CONTINUOUS
 62
     7
 10
9.0318661391
 20
1.819397876
 30
0.0
  0
VERTEX
  5
19F
  8
0
  6
CONTINUOUS
 62
     7
 10
9.0430040972
 20
1.8436858179
 30
0.0
  0
VERTEX
  5
1A0
  8
0
  6
CONTINUOUS
 62
     7
 10
9.0513417028
 20
1.8683213536
 30
0.0
  0
VERTEX
  5
1A1
  8
0
  6
CONTINUOUS
 62
     7
 10
9.0534199033
 20
1.877590255
 30
0.0
  0
SEQEND
  5
1A2
  8
0
  6
CONTINUOUS
 62
     7
  0
LINE
  5
110
  8
0
  6
CONTINUOUS
 62
     7
 10
8.776821738
 20
2.0973269879
 30
0.0
 11
8.776821738
 21
2.1435976419
 31
0.0
  0
LINE
  5
111
  8
0
  6
CONTINUOUS
 62
     7
 10
8.2881550602
 20
2.1435976419
 30
0.0
 11
8.2881550602
 21
2.0973269879
 31
0.0
  0
ARC
  5
112
  8
0
  6
CONTINUOUS
 62
     7
 10
8.53369161
 20
3.4990274519
 30
0.0
 40
0.2850689395890072
 50
265.9870211412
 51
292.7009321921
  0
ARC
  5
113
  8
0
  6
CONTINUOUS
 62
     7
 10
8.4924059492
 20
3.3911589132
 30
0.0
 40
0.1710037454774267
 50
225.6327069338
 51
255.9349017591
  0
ARC
  5
114
  8
0
  6
CONTINUOUS
 62
     7
 10
8.2097337901
 20
2.8581225533
 30
0.0
 40
0.4266175738352662
 50
49.8004936174
 51
74.1837177777
  0
LINE
  5
115
  8
0
  6
CONTINUOUS
 62
     7
 10
8.3328832044
 20
3.291253837
 30
0.0
 11
8.3260099788
 21
3.2685886326
 31
0.0
  0
LINE
  5
116
  8
0
  6
CONTINUOUS
 62
     7
 10
8.7389667934
 20
3.3430411721
 30
0.0
 11
8.7331303131
 21
3.3474368192
 31
0.0
  0
ARC
  5
117
  8
0
  6
CONTINUOUS
 62
     7
 10
9.2041147158
 20
3.0919696277
 30
0.0
 40
0.528582548010211
 50
151.6412863009
 51
165.8486200099
  0
ARC
  5
118
  8
0
  6
CONTINUOUS
 62
     7
 10
8.679008313
 20
2.6996526703
 30
0.0
 40
0.5216986013128639
 50
88.6199469099
 51
111.8203058015
  0
LINE
  5
119
  8
0
  6
CONTINUOUS
 62
     7
 10
8.6915729759
 20
3.2211999451
 30
0.0
 11
8.6915729759
 21
3.0596384262
 31
0.0
  0
LINE
  5
11A
  8
0
  6
CONTINUOUS
 62
     7
 10
8.6915729759
 20
3.0596384262
 30
0.0
 11
8.4850945756
 21
3.0224122154
 31
0.0
  0
LINE
  5
11B
  8
0
  6
CONTINUOUS
 62
     7
 10
8.4850945756
 20
3.1839737343
 30
0.0
 11
8.4850945756
 21
3.0224122154
 31
0.0
  0
LINE
  5
11C
  8
0
  6
CONTINUOUS
 62
     7
 10
8.4850945756
 20
3.0224122154
 30
0.0
 11
8.3260099788
 21
3.1070271138
 31
0.0
  0
LINE
  5
11D
  8
0
  6
CONTINUOUS
 62
     7
 10
8.3260099788
 20
3.2685886326
 30
0.0
 11
8.3260099788
 21
3.1070271138
 31
0.0
  0
LINE
  5
11E
  8
0
  6
CONTINUOUS
 62
     7
 10
8.7389667934
 20
3.3430411721
 30
0.0
 11
8.7389667934
 21
3.1814796532
 31
0.0
  0
LINE
  5
11F
  8
0
  6
CONTINUOUS
 62
     7
 10
8.7389667934
 20
3.1814796532
 30
0.0
 11
8.6915729759
 21
3.0596384262
 31
0.0
  0
POLYLINE
  5
120
  8
0
  6
CONTINUOUS
 62
     7
 66
     1
 10
0.0
 20
0.0
 30
0.0
  0
VERTEX
  5
1A3
  8
0
  6
CONTINUOUS
 62
     7
 10
8.7072321947
 20
3.5336871806
 30
0.0
  0
VERTEX
  5
1A4
  8
0
  6
CONTINUOUS
 62
     7
 10
8.7121667716
 20
3.520551199
 30
0.0
  0
VERTEX
  5
1A5
  8
0
  6
CONTINUOUS
 62
     7
 10
8.7141510388
 20
3.5071587751
 30
0.0
  0
VERTEX
  5
1A6
  8
0
  6
CONTINUOUS
 62
     7
 10
8.7131524105
 20
3.4937298309
 30
0.0
  0
VERTEX
  5
1A7
  8
0
  6
CONTINUOUS
 62
     7
 10
8.7091872811
 20
3.4804848499
 30
0.0
  0
VERTEX
  5
1A8
  8
0
  6
CONTINUOUS
 62
     7
 10
8.702320762
 20
3.4676413271
 30
0.0
  0
VERTEX
  5
1A9
  8
0
  6
CONTINUOUS
 62
     7
 10
8.6926656007
 20
3.4554101519
 30
0.0
  0
VERTEX
  5
1AA
  8
0
  6
CONTINUOUS
 62
     7
 10
8.6803803406
 20
3.4439921505
 30
0.0
  0
VERTEX
  5
1AB
  8
0
  6
CONTINUOUS
 62
     7
 10
8.6656666878
 20
3.4335748204
 30
0.0
  0
VERTEX
  5
1AC
  8
0
  6
CONTINUOUS
 62
     7
 10
8.6487662557
 20
3.4243292029
 30
0.0
  0
VERTEX
  5
1AD
  8
0
  6
CONTINUOUS
 62
     7
 10
8.6299565534
 20
3.4164071091
 30
0.0
  0
VERTEX
  5
1AE
  8
0
  6
CONTINUOUS
 62
     7
 10
8.6095464161
 20
3.409938631
 30
0.0
  0
VERTEX
  5
1AF
  8
0
  6
CONTINUOUS
 62
     7
 10
8.5878709854
 20
3.4050299722
 30
0.0
  0
VERTEX
  5
1B0
  8
0
  6
CONTINUOUS
 62
     7
 10
8.5652861799
 20
3.4017617331
 30
0.0
  0
VERTEX
  5
1B1
  8
0
  6
CONTINUOUS
 62
     7
 10
8.5421628414
 20
3.4001875763
 30
0.0
  0
VERTEX
  5
1B2
  8
0
  6
CONTINUOUS
 62
     7
 10
8.5188806398
 20
3.4003333628
 30
0.0
  0
VERTEX
  5
1B3
  8
0
  6
CONTINUOUS
 62
     7
 10
8.4958218854
 20
3.4021966831
 30
0.0
  0
VERTEX
  5
1B4
  8
0
  6
CONTINUOUS
 62
     7
 10
8.4733651806
 20
3.4057469438
 30
0.0
  0
VERTEX
  5
1B5
  8
0
  6
CONTINUOUS
 62
     7
 10
8.4518792931
 20
3.4109258622
 30
0.0
  0
VERTEX
  5
1B6
  8
0
  6
CONTINUOUS
 62
     7
 10
8.4317169916
 20
3.4176483805
 30
0.0
  0
VERTEX
  5
1B7
  8
0
  6
CONTINUOUS
 62
     7
 10
8.4132093673
 20
3.4258041371
 30
0.0
  0
VERTEX
  5
1B8
  8
0
  6
CONTINUOUS
 62
     7
 10
8.396660294
 20
3.4352591989
 30
0.0
  0
VERTEX
  5
1B9
  8
0
  6
CONTINUOUS
 62
     7
 10
8.3823415152
 20
3.4458583182
 30
0.0
  0
VERTEX
  5
1BA
  8
0
  6
CONTINUOUS
 62
     7
 10
8.3704881354
 20
3.4574274558
 30
0.0
  0
VERTEX
  5
1BB
  8
0
  6
CONTINUOUS
 62
     7
 10
8.3612948108
 20
3.4697766582
 30
0.0
  0
VERTEX
  5
1BC
  8
0
  6
CONTINUOUS
 62
     7
 10
8.3549124731
 20
3.4827031374
 30
0.0
  0
VERTEX
  5
1BD
  8
0
  6
CONTINUOUS
 62
     7
 10
8.3514459234
 20
3.4959946442
 30
0.0
  0
VERTEX
  5
1BE
  8
0
  6
CONTINUOUS
 62
     7
 10
8.3509520928
 20
3.509432938
 30
0.0
  0
VERTEX
  5
1BF
  8
0
  6
CONTINUOUS
 62
     7
 10
8.3534390749
 20
3.5227973581
 30
0.0
  0
VERTEX
  5
1C0
  8
0
  6
CONTINUOUS
 62
     7
 10
8.3588660477
 20
3.5358684663
 30
0.0
  0
VERTEX
  5
1C1
  8
0
  6
CONTINUOUS
 62
     7
 10
8.3671439003
 20
3.5484316265
 30
0.0
  0
VERTEX
  5
1C2
  8
0
  6
CONTINUOUS
 62
     7
 10
8.3781366955
 20
3.5602805629
 30
0.0
  0
VERTEX
  5
1C3
  8
0
  6
CONTINUOUS
 62
     7
 10
8.3916639419
 20
3.5712207073
 30
0.0
  0
VERTEX
  5
1C4
  8
0
  6
CONTINUOUS
 62
     7
 10
8.4074883994
 20
3.5810641454
 30
0.0
  0
SEQEND
  5
1C5
  8
0
  6
CONTINUOUS
 62
     7
  0
ARC
  5
121
  8
0
  6
CONTINUOUS
 62
     7
 10
8.6046625907
 20
3.4757963798
 30
0.0
 40
0.1177788965943326
 50
29.4406014738
 51
63.351440012
  0
ARC
  5
122
  8
0
  6
CONTINUOUS
 62
     7
 10
8.7985154872
 20
3.3234082875
 30
0.0
 40
0.4926622776995472
 50
148.7968550306
 51
164.2029677931
  0
LINE
  5
123
  8
0
  6
CONTINUOUS
 62
     7
 10
8.4074884024
 20
3.5886680317
 30
0.0
 11
8.3771237918
 21
3.5786437844
 31
0.0
  0
ARC
  5
124
  8
0
  6
CONTINUOUS
 62
     7
 10
8.412514498
 20
3.1397024977
 30
0.0
 40
0.5067546172291205
 50
49.6646295219
 51
61.0911756659
  0
ARC
  5
125
  8
0
  6
CONTINUOUS
 62
     7
 10
9.1702157998
 20
3.2671385476
 30
0.0
 40
0.5016404884459337
 50
148.9355810925
 51
164.0643278629
  0
ARC
  5
126
  8
0
  6
CONTINUOUS
 62
     7
 10
8.6677789594
 20
2.8776166423
 30
0.0
 40
0.5276332895263025
 50
87.8196224162
 51
110.8683308492
  0
ARC
  5
127
  8
0
  6
CONTINUOUS
 62
     7
 10
8.201292359
 20
3.054941666
 30
0.0
 40
0.4210040054935604
 50
48.5787162211
 51
72.9888974644
  0
LINE
  5
128
  8
0
  6
CONTINUOUS
 62
     7
 10
8.4798245948
 20
3.3706379857
 30
0.0
 11
8.4798245948
 21
3.2090767063
 31
0.0
  0
LINE
  5
129
  8
0
  6
CONTINUOUS
 62
     7
 10
8.4798245948
 20
3.2090767063
 30
0.0
 11
8.3244600312
 21
3.29596466
 31
0.0
  0
LINE
  5
12A
  8
0
  6
CONTINUOUS
 62
     7
 10
8.3244600312
 20
3.4575259393
 30
0.0
 11
8.3244600312
 21
3.29596466
 31
0.0
  0
LINE
  5
12B
  8
0
  6
CONTINUOUS
 62
     7
 10
8.6878530758
 20
3.4048679278
 30
0.0
 11
8.6878530758
 21
3.2433066485
 31
0.0
  0
LINE
  5
12C
  8
0
  6
CONTINUOUS
 62
     7
 10
8.6878530758
 20
3.2433066485
 30
0.0
 11
8.4798245948
 21
3.2090767063
 31
0.0
  0
POLYLINE
  5
12D
  8
0
  6
CONTINUOUS
 62
     7
 66
     1
 10
0.0
 20
0.0
 30
0.0
  0
VERTEX
  5
1C6
  8
0
  6
CONTINUOUS
 62
     7
 10
8.6574882877
 20
3.5049339993
 30
0.0
  0
VERTEX
  5
1C7
  8
0
  6
CONTINUOUS
 62
     7
 10
8.6574363474
 20
3.5028539475
 30
0.0
  0
VERTEX
  5
1C8
  8
0
  6
CONTINUOUS
 62
     7
 10
8.6554220006
 20
3.4918675908
 30
0.0
  0
VERTEX
  5
1C9
  8
0
  6
CONTINUOUS
 62
     7
 10
8.6505261846
 20
3.4811875002
 30
0.0
  0
VERTEX
  5
1CA
  8
0
  6
CONTINUOUS
 62
     7
 10
8.6428636627
 20
3.4710640102
 30
0.0
  0
VERTEX
  5
1CB
  8
0
  6
CONTINUOUS
 62
     7
 10
8.6326140386
 20
3.4617344019
 30
0.0
  0
VERTEX
  5
1CC
  8
0
  6
CONTINUOUS
 62
     7
 10
8.6200175612
 20
3.4534173532
 30
0.0
  0
VERTEX
  5
1CD
  8
0
  6
CONTINUOUS
 62
     7
 10
8.6053694647
 20
3.4463078158
 30
0.0
  0
VERTEX
  5
1CE
  8
0
  6
CONTINUOUS
 62
     7
 10
8.5890131042
 20
3.4405724234
 30
0.0
  0
VERTEX
  5
1CF
  8
0
  6
CONTINUOUS
 62
     7
 10
8.5713318518
 20
3.4363456117
 30
0.0
  0
VERTEX
  5
1D0
  8
0
  6
CONTINUOUS
 62
     7
 10
8.5527401421
 20
3.4337264548
 30
0.0
  0
VERTEX
  5
1D1
  8
0
  6
CONTINUOUS
 62
     7
 10
8.5336737446
 20
3.4327763425
 30
0.0
  0
VERTEX
  5
1D2
  8
0
  6
CONTINUOUS
 62
     7
 10
8.5145795664
 20
3.4335175436
 30
0.0
  0
VERTEX
  5
1D3
  8
0
  6
CONTINUOUS
 62
     7
 10
8.4959051541
 20
3.4359326836
 30
0.0
  0
VERTEX
  5
1D4
  8
0
  6
CONTINUOUS
 62
     7
 10
8.4780882303
 20
3.4399651623
 30
0.0
  0
VERTEX
  5
1D5
  8
0
  6
CONTINUOUS
 62
     7
 10
8.4615463884
 20
3.4455204481
 30
0.0
  0
VERTEX
  5
1D6
  8
0
  6
CONTINUOUS
 62
     7
 10
8.4466673776
 20
3.4524683436
 30
0.0
  0
VERTEX
  5
1D7
  8
0
  6
CONTINUOUS
 62
     7
 10
8.4337999313
 20
3.4606459854
 30
0.0
  0
VERTEX
  5
1D8
  8
0
  6
CONTINUOUS
 62
     7
 10
8.4232456634
 20
3.4698617037
 30
0.0
  0
VERTEX
  5
1D9
  8
0
  6
CONTINUOUS
 62
     7
 10
8.4152519464
 20
3.4798994835
 30
0.0
  0
VERTEX
  5
1DA
  8
0
  6
CONTINUOUS
 62
     7
 10
8.4100061598
 20
3.4905240503
 30
0.0
  0
VERTEX
  5
1DB
  8
0
  6
CONTINUOUS
 62
     7
 10
8.4076312555
 20
3.5014863794
 30
0.0
  0
VERTEX
  5
1DC
  8
0
  6
CONTINUOUS
 62
     7
 10
8.4074885104
 20
3.5049339993
 30
0.0
  0
SEQEND
  5
1DD
  8
0
  6
CONTINUOUS
 62
     7
  0
LINE
  5
12E
  8
0
  6
CONTINUOUS
 62
     7
 10
8.7405167324
 20
3.5259857827
 30
0.0
 11
8.7405167324
 21
3.3644245034
 31
0.0
  0
LINE
  5
12F
  8
0
  6
CONTINUOUS
 62
     7
 10
8.7405167324
 20
3.3644245034
 30
0.0
 11
8.6878530758
 21
3.2433066485
 31
0.0
  0
POLYLINE
  5
130
  8
0
  6
CONTINUOUS
 62
     7
 66
     1
 10
0.0
 20
0.0
 30
0.0
  0
VERTEX
  5
1DE
  8
0
  6
CONTINUOUS
 62
     7
 10
8.6208767478
 20
3.9235122597
 30
0.0
  0
VERTEX
  5
1DF
  8
0
  6
CONTINUOUS
 62
     7
 10
8.6333332889
 20
3.9151252538
 30
0.0
  0
VERTEX
  5
1E0
  8
0
  6
CONTINUOUS
 62
     7
 10
8.6434261198
 20
3.9057388421
 30
0.0
  0
VERTEX
  5
1E1
  8
0
  6
CONTINUOUS
 62
     7
 10
8.6509186495
 20
3.8955730232
 30
0.0
  0
VERTEX
  5
1E2
  8
0
  6
CONTINUOUS
 62
     7
 10
8.655635293
 20
3.8848660863
 30
0.0
  0
VERTEX
  5
1E3
  8
0
  6
CONTINUOUS
 62
     7
 10
8.6574654634
 20
3.8738689881
 30
0.0
  0
VERTEX
  5
1E4
  8
0
  6
CONTINUOUS
 62
     7
 10
8.6563662817
 20
3.8628394882
 30
0.0
  0
VERTEX
  5
1E5
  8
0
  6
CONTINUOUS
 62
     7
 10
8.6523635108
 20
3.8520361169
 30
0.0
  0
VERTEX
  5
1E6
  8
0
  6
CONTINUOUS
 62
     7
 10
8.6455509651
 20
3.8417120874
 30
0.0
  0
VERTEX
  5
1E7
  8
0
  6
CONTINUOUS
 62
     7
 10
8.636088333
 20
3.8321093886
 30
0.0
  0
VERTEX
  5
1E8
  8
0
  6
CONTINUOUS
 62
     7
 10
8.6241974026
 20
3.8234531041
 30
0.0
  0
VERTEX
  5
1E9
  8
0
  6
CONTINUOUS
 62
     7
 10
8.6101568856
 20
3.8159461291
 30
0.0
  0
VERTEX
  5
1EA
  8
0
  6
CONTINUOUS
 62
     7
 10
8.5942958908
 20
3.8097644146
 30
0.0
  0
VERTEX
  5
1EB
  8
0
  6
CONTINUOUS
 62
     7
 10
8.5769861845
 20
3.8050528591
 30
0.0
  0
VERTEX
  5
1EC
  8
0
  6
CONTINUOUS
 62
     7
 10
8.5586334803
 20
3.8019218964
 30
0.0
  0
VERTEX
  5
1ED
  8
0
  6
CONTINUOUS
 62
     7
 10
8.5396679645
 20
3.8004449148
 30
0.0
  0
VERTEX
  5
1EE
  8
0
  6
CONTINUOUS
 62
     7
 10
8.5205341612
 20
3.8006565326
 30
0.0
  0
VERTEX
  5
1EF
  8
0
  6
CONTINUOUS
 62
     7
 10
8.5016805635
 20
3.8025517906
 30
0.0
  0
VERTEX
  5
1F0
  8
0
  6
CONTINUOUS
 62
     7
 10
8.4835490637
 20
3.8060862645
 30
0.0
  0
VERTEX
  5
1F1
  8
0
  6
CONTINUOUS
 62
     7
 10
8.4665646628
 20
3.8111771066
 30
0.0
  0
VERTEX
  5
1F2
  8
0
  6
CONTINUOUS
 62
     7
 10
8.4511254595
 20
3.8177049981
 30
0.0
  0
VERTEX
  5
1F3
  8
0
  6
CONTINUOUS
 62
     7
 10
8.4375933357
 20
3.8255169269
 30
0.0
  0
VERTEX
  5
1F4
  8
0
  6
CONTINUOUS
 62
     7
 10
8.4262854707
 20
3.8344297892
 30
0.0
  0
VERTEX
  5
1F5
  8
0
  6
CONTINUOUS
 62
     7
 10
8.4174669181
 20
3.8442346752
 30
0.0
  0
VERTEX
  5
1F6
  8
0
  6
CONTINUOUS
 62
     7
 10
8.4113443663
 20
3.8547017672
 30
0.0
  0
VERTEX
  5
1F7
  8
0
  6
CONTINUOUS
 62
     7
 10
8.4080613274
 20
3.8655857175
 30
0.0
  0
VERTEX
  5
1F8
  8
0
  6
CONTINUOUS
 62
     7
 10
8.407694755
 20
3.876631427
 30
0.0
  0
VERTEX
  5
1F9
  8
0
  6
CONTINUOUS
 62
     7
 10
8.4102532393
 20
3.8875799862
 30
0.0
  0
VERTEX
  5
1FA
  8
0
  6
CONTINUOUS
 62
     7
 10
8.4156768135
 20
3.8981747769
 30
0.0
  0
VERTEX
  5
1FB
  8
0
  6
CONTINUOUS
 62
     7
 10
8.4238383513
 20
3.9081674576
 30
0.0
  0
VERTEX
  5
1FC
  8
0
  6
CONTINUOUS
 62
     7
 10
8.4345465551
 20
3.917323815
 30
0.0
  0
VERTEX
  5
1FD
  8
0
  6
CONTINUOUS
 62
     7
 10
8.4440856871
 20
3.923503968
 30
0.0
  0
SEQEND
  5
1FE
  8
0
  6
CONTINUOUS
 62
     7
  0
POLYLINE
  5
131
  8
0
  6
CONTINUOUS
 62
     7
 66
     1
 10
0.0
 20
0.0
 30
0.0
  0
VERTEX
  5
1FF
  8
0
  6
CONTINUOUS
 62
     7
 10
8.5925924773
 20
3.9398457595
 30
0.0
  0
VERTEX
  5
200
  8
0
  6
CONTINUOUS
 62
     7
 10
8.6028810868
 20
3.9326522157
 30
0.0
  0
VERTEX
  5
201
  8
0
  6
CONTINUOUS
 62
     7
 10
8.6106255238
 20
3.9244646155
 30
0.0
  0
VERTEX
  5
202
  8
0
  6
CONTINUOUS
 62
     7
 10
8.6155458819
 20
3.915578877
 30
0.0
  0
VERTEX
  5
203
  8
0
  6
CONTINUOUS
 62
     7
 10
8.6174643292
 20
3.9063161532
 30
0.0
  0
VERTEX
  5
204
  8
0
  6
CONTINUOUS
 62
     7
 10
8.6163115198
 20
3.8970112253
 30
0.0
  0
VERTEX
  5
205
  8
0
  6
CONTINUOUS
 62
     7
 10
8.6121291248
 20
3.8880003976
 30
0.0
  0
VERTEX
  5
206
  8
0
  6
CONTINUOUS
 62
     7
 10
8.6050683102
 20
3.8796093405
 30
0.0
  0
VERTEX
  5
207
  8
0
  6
CONTINUOUS
 62
     7
 10
8.5953842644
 20
3.8721413357
 30
0.0
  0
VERTEX
  5
208
  8
0
  6
CONTINUOUS
 62
     7
 10
8.5834269988
 20
3.8658662921
 30
0.0
  0
VERTEX
  5
209
  8
0
  6
CONTINUOUS
 62
     7
 10
8.5696286824
 20
3.8610110052
 30
0.0
  0
VERTEX
  5
20A
  8
0
  6
CONTINUOUS
 62
     7
 10
8.5544880161
 20
3.8577509594
 30
0.0
  0
VERTEX
  5
20B
  8
0
  6
CONTINUOUS
 62
     7
 10
8.5385522285
 20
3.8562039807
 30
0.0
  0
VERTEX
  5
20C
  8
0
  6
CONTINUOUS
 62
     7
 10
8.5223972805
 20
3.8564259834
 30
0.0
  0
VERTEX
  5
20D
  8
0
  6
CONTINUOUS
 62
     7
 10
8.5066070468
 20
3.8584089398
 30
0.0
  0
VERTEX
  5
20E
  8
0
  6
CONTINUOUS
 62
     7
 10
8.4917522359
 20
3.862081184
 30
0.0
  0
VERTEX
  5
20F
  8
0
  6
CONTINUOUS
 62
     7
 10
8.4783697359
 20
3.8673099901
 30
0.0
  0
VERTEX
  5
210
  8
0
  6
CONTINUOUS
 62
     7
 10
8.4669432249
 20
3.8739063745
 30
0.0
  0
VERTEX
  5
211
  8
0
  6
CONTINUOUS
 62
     7
 10
8.4578856857
 20
3.8816319273
 30
0.0
  0
VERTEX
  5
212
  8
0
  6
CONTINUOUS
 62
     7
 10
8.4515244828
 20
3.8902074271
 30
0.0
  0
VERTEX
  5
213
  8
0
  6
CONTINUOUS
 62
     7
 10
8.4480895294
 20
3.899322935
 30
0.0
  0
VERTEX
  5
214
  8
0
  6
CONTINUOUS
 62
     7
 10
8.4477049679
 20
3.908648988
 30
0.0
  0
VERTEX
  5
215
  8
0
  6
CONTINUOUS
 62
     7
 10
8.4503847039
 20
3.9178485223
 30
0.0
  0
VERTEX
  5
216
  8
0
  6
CONTINUOUS
 62
     7
 10
8.4560318808
 20
3.9265890429
 30
0.0
  0
VERTEX
  5
217
  8
0
  6
CONTINUOUS
 62
     7
 10
8.4644423957
 20
3.9345546414
 30
0.0
  0
VERTEX
  5
218
  8
0
  6
CONTINUOUS
 62
     7
 10
8.4753122677
 20
3.9414574239
 30
0.0
  0
VERTEX
  5
219
  8
0
  6
CONTINUOUS
 62
     7
 10
8.4882486332
 20
3.9470479046
 30
0.0
  0
VERTEX
  5
21A
  8
0
  6
CONTINUOUS
 62
     7
 10
8.5027839453
 20
3.9511240261
 30
0.0
  0
VERTEX
  5
21B
  8
0
  6
CONTINUOUS
 62
     7
 10
8.518392848
 20
3.9535384713
 30
0.0
  0
VERTEX
  5
21C
  8
0
  6
CONTINUOUS
 62
     7
 10
8.5345112024
 20
3.954203974
 30
0.0
  0
VERTEX
  5
21D
  8
0
  6
CONTINUOUS
 62
     7
 10
8.5505564492
 20
3.953096478
 30
0.0
  0
VERTEX
  5
21E
  8
0
  6
CONTINUOUS
 62
     7
 10
8.5659486674
 20
3.9502560157
 30
0.0
  0
VERTEX
  5
21F
  8
0
  6
CONTINUOUS
 62
     7
 10
8.5801315437
 20
3.9457852474
 30
0.0
  0
VERTEX
  5
220
  8
0
  6
CONTINUOUS
 62
     7
 10
8.5925924773
 20
3.9398457595
 30
0.0
  0
SEQEND
  5
221
  8
0
  6
CONTINUOUS
 62
     7
  0
POLYLINE
  5
132
  8
0
  6
CONTINUOUS
 62
     7
 66
     1
 10
0.0
 20
0.0
 30
0.0
  0
VERTEX
  5
222
  8
0
  6
CONTINUOUS
 62
     7
 10
8.6574884001
 20
2.2720667299
 30
0.0
  0
VERTEX
  5
223
  8
0
  6
CONTINUOUS
 62
     7
 10
8.6563662817
 20
2.2624194659
 30
0.0
  0
VERTEX
  5
224
  8
0
  6
CONTINUOUS
 62
     7
 10
8.6523635108
 20
2.2516160946
 30
0.0
  0
VERTEX
  5
225
  8
0
  6
CONTINUOUS
 62
     7
 10
8.6455509651
 20
2.2412920651
 30
0.0
  0
VERTEX
  5
226
  8
0
  6
CONTINUOUS
 62
     7
 10
8.636088333
 20
2.2316893663
 30
0.0
  0
VERTEX
  5
227
  8
0
  6
CONTINUOUS
 62
     7
 10
8.6241974026
 20
2.2230330819
 30
0.0
  0
VERTEX
  5
228
  8
0
  6
CONTINUOUS
 62
     7
 10
8.6101568856
 20
2.2155261068
 30
0.0
  0
VERTEX
  5
229
  8
0
  6
CONTINUOUS
 62
     7
 10
8.5942958908
 20
2.2093443924
 30
0.0
  0
VERTEX
  5
22A
  8
0
  6
CONTINUOUS
 62
     7
 10
8.5769861845
 20
2.2046328369
 30
0.0
  0
VERTEX
  5
22B
  8
0
  6
CONTINUOUS
 62
     7
 10
8.5586334803
 20
2.2015018741
 30
0.0
  0
VERTEX
  5
22C
  8
0
  6
CONTINUOUS
 62
     7
 10
8.5396679645
 20
2.2000248926
 30
0.0
  0
VERTEX
  5
22D
  8
0
  6
CONTINUOUS
 62
     7
 10
8.5205341612
 20
2.2002365104
 30
0.0
  0
VERTEX
  5
22E
  8
0
  6
CONTINUOUS
 62
     7
 10
8.5016805635
 20
2.2021317683
 30
0.0
  0
VERTEX
  5
22F
  8
0
  6
CONTINUOUS
 62
     7
 10
8.4835490637
 20
2.2056662423
 30
0.0
  0
VERTEX
  5
230
  8
0
  6
CONTINUOUS
 62
     7
 10
8.4665646628
 20
2.2107570844
 30
0.0
  0
VERTEX
  5
231
  8
0
  6
CONTINUOUS
 62
     7
 10
8.4511254595
 20
2.2172849758
 30
0.0
  0
VERTEX
  5
232
  8
0
  6
CONTINUOUS
 62
     7
 10
8.4375933357
 20
2.2250969047
 30
0.0
  0
VERTEX
  5
233
  8
0
  6
CONTINUOUS
 62
     7
 10
8.4262854707
 20
2.234009767
 30
0.0
  0
VERTEX
  5
234
  8
0
  6
CONTINUOUS
 62
     7
 10
8.4174669181
 20
2.2438146529
 30
0.0
  0
VERTEX
  5
235
  8
0
  6
CONTINUOUS
 62
     7
 10
8.4113443663
 20
2.2542817449
 30
0.0
  0
VERTEX
  5
236
  8
0
  6
CONTINUOUS
 62
     7
 10
8.4080613274
 20
2.2651656953
 30
0.0
  0
VERTEX
  5
237
  8
0
  6
CONTINUOUS
 62
     7
 10
8.407488398
 20
2.2720667299
 30
0.0
  0
SEQEND
  5
238
  8
0
  6
CONTINUOUS
 62
     7
  0
LINE
  5
133
  8
0
  6
CONTINUOUS
 62
     7
 10
9.0741509709
 20
2.0642475328
 30
0.0
 11
9.07415505
 21
2.0630322671
 31
0.0
  0
LINE
  5
134
  8
0
  6
CONTINUOUS
 62
     7
 10
7.9908217481
 20
2.0630322671
 30
0.0
 11
7.990827452
 21
2.064468151
 31
0.0
  0
POLYLINE
  5
135
  8
0
  6
CONTINUOUS
 62
     7
 66
     1
 10
0.0
 20
0.0
 30
0.0
  0
VERTEX
  5
239
  8
0
  6
CONTINUOUS
 62
     7
 10
9.07415505
 20
1.9612368542
 30
0.0
  0
VERTEX
  5
23A
  8
0
  6
CONTINUOUS
 62
     7
 10
9.0739469776
 20
1.9525700039
 30
0.0
  0
VERTEX
  5
23B
  8
0
  6
CONTINUOUS
 62
     7
 10
9.0713595891
 20
1.9295090425
 30
0.0
  0
VERTEX
  5
23C
  8
0
  6
CONTINUOUS
 62
     7
 10
9.0658290943
 20
1.9066213726
 30
0.0
  0
VERTEX
  5
23D
  8
0
  6
CONTINUOUS
 62
     7
 10
9.0573856722
 20
1.8840319813
 30
0.0
  0
VERTEX
  5
23E
  8
0
  6
CONTINUOUS
 62
     7
 10
9.0460754209
 20
1.8618642689
 30
0.0
  0
VERTEX
  5
23F
  8
0
  6
CONTINUOUS
 62
     7
 10
9.0319601416
 20
1.8402392861
 30
0.0
  0
VERTEX
  5
240
  8
0
  6
CONTINUOUS
 62
     7
 10
9.0151169497
 20
1.8192751499
 30
0.0
  0
VERTEX
  5
241
  8
0
  6
CONTINUOUS
 62
     7
 10
8.9956377822
 20
1.7990863603
 30
0.0
  0
VERTEX
  5
242
  8
0
  6
CONTINUOUS
 62
     7
 10
8.9736290389
 20
1.7797831938
 30
0.0
  0
VERTEX
  5
243
  8
0
  6
CONTINUOUS
 62
     7
 10
8.9492109842
 20
1.7614710391
 30
0.0
  0
VERTEX
  5
244
  8
0
  6
CONTINUOUS
 62
     7
 10
8.9225169058
 20
1.7442499509
 30
0.0
  0
VERTEX
  5
245
  8
0
  6
CONTINUOUS
 62
     7
 10
8.8936926271
 20
1.72821397
 30
0.0
  0
VERTEX
  5
246
  8
0
  6
CONTINUOUS
 62
     7
 10
8.8628955534
 20
1.7134506915
 30
0.0
  0
VERTEX
  5
247
  8
0
  6
CONTINUOUS
 62
     7
 10
8.8302939359
 20
1.7000407209
 30
0.0
  0
VERTEX
  5
248
  8
0
  6
CONTINUOUS
 62
     7
 10
8.7960658258
 20
1.6880573094
 30
0.0
  0
VERTEX
  5
249
  8
0
  6
CONTINUOUS
 62
     7
 10
8.7603981133
 20
1.6775659192
 30
0.0
  0
VERTEX
  5
24A
  8
0
  6
CONTINUOUS
 62
     7
 10
8.7234856479
 20
1.6686238351
 30
0.0
  0
VERTEX
  5
24B
  8
0
  6
CONTINUOUS
 62
     7
 10
8.685530029
 20
1.6612799053
 30
0.0
  0
VERTEX
  5
24C
  8
0
  6
CONTINUOUS
 62
     7
 10
8.6467385771
 20
1.6555742274
 30
0.0
  0
VERTEX
  5
24D
  8
0
  6
CONTINUOUS
 62
     7
 10
8.6073230808
 20
1.6515379831
 30
0.0
  0
VERTEX
  5
24E
  8
0
  6
CONTINUOUS
 62
     7
 10
8.5674988894
 20
1.6491931945
 30
0.0
  0
VERTEX
  5
24F
  8
0
  6
CONTINUOUS
 62
     7
 10
8.5274834781
 20
1.6485526934
 30
0.0
  0
VERTEX
  5
250
  8
0
  6
CONTINUOUS
 62
     7
 10
8.4874953938
 20
1.6496199524
 30
0.0
  0
VERTEX
  5
251
  8
0
  6
CONTINUOUS
 62
     7
 10
8.4477530624
 20
1.652389174
 30
0.0
  0
VERTEX
  5
252
  8
0
  6
CONTINUOUS
 62
     7
 10
8.408473527
 20
1.6568452014
 30
0.0
  0
VERTEX
  5
253
  8
0
  6
CONTINUOUS
 62
     7
 10
8.36987129
 20
1.6629637076
 30
0.0
  0
VERTEX
  5
254
  8
0
  6
CONTINUOUS
 62
     7
 10
8.3321572239
 20
1.6707112857
 30
0.0
  0
VERTEX
  5
255
  8
0
  6
CONTINUOUS
 62
     7
 10
8.2955373182
 20
1.6800456132
 30
0.0
  0
VERTEX
  5
256
  8
0
  6
CONTINUOUS
 62
     7
 10
8.2602115475
 20
1.6909157063
 30
0.0
  0
VERTEX
  5
257
  8
0
  6
CONTINUOUS
 62
     7
 10
8.2263728386
 20
1.7032621972
 30
0.0
  0
VERTEX
  5
258
  8
0
  6
CONTINUOUS
 62
     7
 10
8.1942060333
 20
1.7170176532
 30
0.0
  0
VERTEX
  5
259
  8
0
  6
CONTINUOUS
 62
     7
 10
8.1638868138
 20
1.7321069577
 30
0.0
  0
VERTEX
  5
25A
  8
0
  6
CONTINUOUS
 62
     7
 10
8.1355807711
 20
1.7484476884
 30
0.0
  0
VERTEX
  5
25B
  8
0
  6
CONTINUOUS
 62
     7
 10
8.1094424968
 20
1.7659506013
 30
0.0
  0
VERTEX
  5
25C
  8
0
  6
CONTINUOUS
 62
     7
 10
8.0856147663
 20
1.7845201027
 30
0.0
  0
VERTEX
  5
25D
  8
0
  6
CONTINUOUS
 62
     7
 10
8.0642276994
 20
1.8040547735
 30
0.0
  0
VERTEX
  5
25E
  8
0
  6
CONTINUOUS
 62
     7
 10
8.0453981057
 20
1.8244479069
 30
0.0
  0
VERTEX
  5
25F
  8
0
  6
CONTINUOUS
 62
     7
 10
8.0292288243
 20
1.8455881284
 30
0.0
  0
VERTEX
  5
260
  8
0
  6
CONTINUOUS
 62
     7
 10
8.0158081712
 20
1.8673599954
 30
0.0
  0
VERTEX
  5
261
  8
0
  6
CONTINUOUS
 62
     7
 10
8.0052094591
 20
1.8896445925
 30
0.0
  0
VERTEX
  5
262
  8
0
  6
CONTINUOUS
 62
     7
 10
7.997490557
 20
1.9123201856
 30
0.0
  0
VERTEX
  5
263
  8
0
  6
CONTINUOUS
 62
     7
 10
7.9926936047
 20
1.9352629451
 30
0.0
  0
VERTEX
  5
264
  8
0
  6
CONTINUOUS
 62
     7
 10
7.9908448577
 20
1.9583475748
 30
0.0
  0
VERTEX
  5
265
  8
0
  6
CONTINUOUS
 62
     7
 10
7.9908217481
 20
1.9612368542
 30
0.0
  0
SEQEND
  5
266
  8
0
  6
CONTINUOUS
 62
     7
  0
POLYLINE
  5
136
  8
0
  6
CONTINUOUS
 62
     7
 66
     1
 10
0.0
 20
0.0
 30
0.0
  0
VERTEX
  5
267
  8
0
  6
CONTINUOUS
 62
     7
 10
8.776821738
 20
2.0973269879
 30
0.0
  0
VERTEX
  5
268
  8
0
  6
CONTINUOUS
 62
     7
 10
8.7756860858
 20
2.0837433965
 30
0.0
  0
VERTEX
  5
269
  8
0
  6
CONTINUOUS
 62
     7
 10
8.7716215439
 20
2.0683812348
 30
0.0
  0
VERTEX
  5
26A
  8
0
  6
CONTINUOUS
 62
     7
 10
8.764654264
 20
2.0533704306
 30
0.0
  0
VERTEX
  5
26B
  8
0
  6
CONTINUOUS
 62
     7
 10
8.7548687895
 20
2.0388931986
 30
0.0
  0
VERTEX
  5
26C
  8
0
  6
CONTINUOUS
 62
     7
 10
8.7423839091
 20
2.0251252798
 30
0.0
  0
VERTEX
  5
26D
  8
0
  6
CONTINUOUS
 62
     7
 10
8.7273512026
 20
2.0122337855
 30
0.0
  0
VERTEX
  5
26E
  8
0
  6
CONTINUOUS
 62
     7
 10
8.7099531173
 20
2.0003752086
 30
0.0
  0
VERTEX
  5
26F
  8
0
  6
CONTINUOUS
 62
     7
 10
8.690400845
 20
1.9896934994
 30
0.0
  0
VERTEX
  5
270
  8
0
  6
CONTINUOUS
 62
     7
 10
8.6689317344
 20
1.9803183124
 30
0.0
  0
VERTEX
  5
271
  8
0
  6
CONTINUOUS
 62
     7
 10
8.6458063866
 20
1.9723634496
 30
0.0
  0
VERTEX
  5
272
  8
0
  6
CONTINUOUS
 62
     7
 10
8.6213055061
 20
1.965925481
 30
0.0
  0
VERTEX
  5
273
  8
0
  6
CONTINUOUS
 62
     7
 10
8.5957265269
 20
1.9610825363
 30
0.0
  0
VERTEX
  5
274
  8
0
  6
CONTINUOUS
 62
     7
 10
8.5693798982
 20
1.9578934268
 30
0.0
  0
VERTEX
  5
275
  8
0
  6
CONTINUOUS
 62
     7
 10
8.5425854679
 20
1.9563968455
 30
0.0
  0
VERTEX
  5
276
  8
0
  6
CONTINUOUS
 62
     7
 10
8.5156684723
 20
1.9566109678
 30
0.0
  0
VERTEX
  5
277
  8
0
  6
CONTINUOUS
 62
     7
 10
8.4889556514
 20
1.9585331944
 30
0.0
  0
VERTEX
  5
278
  8
0
  6
CONTINUOUS
 62
     7
 10
8.4627712563
 20
1.9621401912
 30
0.0
  0
VERTEX
  5
279
  8
0
  6
CONTINUOUS
 62
     7
 10
8.4374331298
 20
1.9673881663
 30
0.0
  0
VERTEX
  5
27A
  8
0
  6
CONTINUOUS
 62
     7
 10
8.4132488433
 20
1.9742134239
 30
0.0
  0
VERTEX
  5
27B
  8
0
  6
CONTINUOUS
 62
     7
 10
8.3905119719
 20
1.9825331175
 30
0.0
  0
VERTEX
  5
27C
  8
0
  6
CONTINUOUS
 62
     7
 10
8.3694984875
 20
1.9922462444
 30
0.0
  0
VERTEX
  5
27D
  8
0
  6
CONTINUOUS
 62
     7
 10
8.3504634897
 20
2.0032349148
 30
0.0
  0
VERTEX
  5
27E
  8
0
  6
CONTINUOUS
 62
     7
 10
8.3336380372
 20
2.0153657411
 30
0.0
  0
VERTEX
  5
27F
  8
0
  6
CONTINUOUS
 62
     7
 10
8.3192263438
 20
2.0284914575
 30
0.0
  0
VERTEX
  5
280
  8
0
  6
CONTINUOUS
 62
     7
 10
8.3074033698
 20
2.042452749
 30
0.0
  0
VERTEX
  5
281
  8
0
  6
CONTINUOUS
 62
     7
 10
8.2983126252
 20
2.0570801381
 30
0.0
  0
VERTEX
  5
282
  8
0
  6
CONTINUOUS
 62
     7
 10
8.2920644465
 20
2.0721960676
 30
0.0
  0
VERTEX
  5
283
  8
0
  6
CONTINUOUS
 62
     7
 10
8.2887346917
 20
2.0876170509
 30
0.0
  0
VERTEX
  5
284
  8
0
  6
CONTINUOUS
 62
     7
 10
8.2881550602
 20
2.0973269879
 30
0.0
  0
SEQEND
  5
285
  8
0
  6
CONTINUOUS
 62
     7
  0
ARC
  5
137
  8
0
  6
CONTINUOUS
 62
     7
 10
8.1984699449
 20
1.8472773566
 30
0.0
 40
0.3861366859184804
 50
45.2687284608
 51
74.7366480719
  0
ARC
  5
138
  8
0
  6
CONTINUOUS
 62
     7
 10
8.7169340634
 20
2.1078501442
 30
0.0
 40
0.4315819383064794
 50
145.2362916211
 51
164.9667795541
  0
LINE
  5
139
  8
0
  6
CONTINUOUS
 62
     7
 10
8.407488398
 20
2.3697809371
 30
0.0
 11
8.3623849526
 21
2.353935287
 31
0.0
  0
ARC
  5
13A
  8
0
  6
CONTINUOUS
 62
     7
 10
8.4884883196
 20
2.0143489448
 30
0.0
 40
0.3915232384544503
 50
45.0998766865
 51
64.4278304827
  0
ARC
  5
13B
  8
0
  6
CONTINUOUS
 62
     7
 10
9.1067640275
 20
2.0514611882
 30
0.0
 40
0.4178605612295858
 50
144.9089403799
 51
165.2941307953
  0
ARC
  5
13C
  8
0
  6
CONTINUOUS
 62
     7
 10
8.6566057307
 20
1.6857586816
 30
0.0
 40
0.4740152682463912
 50
84.4327512374
 51
113.1533289765
  0
POLYLINE
  5
13D
  8
0
  6
CONTINUOUS
 62
     7
 66
     1
 10
0.0
 20
0.0
 30
0.0
  0
VERTEX
  5
286
  8
0
  6
CONTINUOUS
 62
     7
 10
8.678098069
 20
2.3561254031
 30
0.0
  0
VERTEX
  5
287
  8
0
  6
CONTINUOUS
 62
     7
 10
8.6945877091
 20
2.3453803637
 30
0.0
  0
VERTEX
  5
288
  8
0
  6
CONTINUOUS
 62
     7
 10
8.708713585
 20
2.3335662519
 30
0.0
  0
VERTEX
  5
289
  8
0
  6
CONTINUOUS
 62
     7
 10
8.7202697037
 20
2.3208553382
 30
0.0
  0
VERTEX
  5
28A
  8
0
  6
CONTINUOUS
 62
     7
 10
8.7290875412
 20
2.3074329772
 30
0.0
  0
VERTEX
  5
28B
  8
0
  6
CONTINUOUS
 62
     7
 10
8.7350385149
 20
2.2934948925
 30
0.0
  0
VERTEX
  5
28C
  8
0
  6
CONTINUOUS
 62
     7
 10
8.7380358604
 20
2.2792443379
 30
0.0
  0
VERTEX
  5
28D
  8
0
  6
CONTINUOUS
 62
     7
 10
8.7380358604
 20
2.2648891218
 30
0.0
  0
VERTEX
  5
28E
  8
0
  6
CONTINUOUS
 62
     7
 10
8.7350385149
 20
2.2506385672
 30
0.0
  0
VERTEX
  5
28F
  8
0
  6
CONTINUOUS
 62
     7
 10
8.7290875412
 20
2.2367004826
 30
0.0
  0
VERTEX
  5
290
  8
0
  6
CONTINUOUS
 62
     7
 10
8.7202697037
 20
2.2232781215
 30
0.0
  0
VERTEX
  5
291
  8
0
  6
CONTINUOUS
 62
     7
 10
8.708713585
 20
2.2105672078
 30
0.0
  0
VERTEX
  5
292
  8
0
  6
CONTINUOUS
 62
     7
 10
8.6945877091
 20
2.198753096
 30
0.0
  0
VERTEX
  5
293
  8
0
  6
CONTINUOUS
 62
     7
 10
8.678098069
 20
2.1880080566
 30
0.0
  0
VERTEX
  5
294
  8
0
  6
CONTINUOUS
 62
     7
 10
8.6594850982
 20
2.17848879
 30
0.0
  0
VERTEX
  5
295
  8
0
  6
CONTINUOUS
 62
     7
 10
8.6390202388
 20
2.1703340955
 30
0.0
  0
VERTEX
  5
296
  8
0
  6
CONTINUOUS
 62
     7
 10
8.6170019048
 20
2.1636628902
 30
0.0
  0
VERTEX
  5
297
  8
0
  6
CONTINUOUS
 62
     7
 10
8.5937511742
 20
2.1585724609
 30
0.0
  0
VERTEX
  5
298
  8
0
  6
CONTINUOUS
 62
     7
 10
8.5696070874
 20
2.1551370369
 30
0.0
  0
VERTEX
  5
299
  8
0
  6
CONTINUOUS
 62
     7
 10
8.544921728
 20
2.1534067062
 30
0.0
  0
VERTEX
  5
29A
  8
0
  6
CONTINUOUS
 62
     7
 10
8.5200550701
 20
2.1534067062
 30
0.0
  0
VERTEX
  5
29B
  8
0
  6
CONTINUOUS
 62
     7
 10
8.4953697107
 20
2.1551370369
 30
0.0
  0
VERTEX
  5
29C
  8
0
  6
CONTINUOUS
 62
     7
 10
8.4712256239
 20
2.1585724609
 30
0.0
  0
VERTEX
  5
29D
  8
0
  6
CONTINUOUS
 62
     7
 10
8.4479748934
 20
2.1636628902
 30
0.0
  0
VERTEX
  5
29E
  8
0
  6
CONTINUOUS
 62
     7
 10
8.4259565593
 20
2.1703340955
 30
0.0
  0
VERTEX
  5
29F
  8
0
  6
CONTINUOUS
 62
     7
 10
8.4054917
 20
2.17848879
 30
0.0
  0
VERTEX
  5
2A0
  8
0
  6
CONTINUOUS
 62
     7
 10
8.3868787291
 20
2.1880080566
 30
0.0
  0
VERTEX
  5
2A1
  8
0
  6
CONTINUOUS
 62
     7
 10
8.370389089
 20
2.198753096
 30
0.0
  0
VERTEX
  5
2A2
  8
0
  6
CONTINUOUS
 62
     7
 10
8.3562632132
 20
2.2105672078
 30
0.0
  0
VERTEX
  5
2A3
  8
0
  6
CONTINUOUS
 62
     7
 10
8.3447070945
 20
2.2232781215
 30
0.0
  0
VERTEX
  5
2A4
  8
0
  6
CONTINUOUS
 62
     7
 10
8.335889257
 20
2.2367004826
 30
0.0
  0
VERTEX
  5
2A5
  8
0
  6
CONTINUOUS
 62
     7
 10
8.3299382832
 20
2.2506385672
 30
0.0
  0
VERTEX
  5
2A6
  8
0
  6
CONTINUOUS
 62
     7
 10
8.3269409378
 20
2.2648891218
 30
0.0
  0
VERTEX
  5
2A7
  8
0
  6
CONTINUOUS
 62
     7
 10
8.3269409378
 20
2.2792443379
 30
0.0
  0
VERTEX
  5
2A8
  8
0
  6
CONTINUOUS
 62
     7
 10
8.3299382832
 20
2.2934948925
 30
0.0
  0
VERTEX
  5
2A9
  8
0
  6
CONTINUOUS
 62
     7
 10
8.335889257
 20
2.3074329772
 30
0.0
  0
VERTEX
  5
2AA
  8
0
  6
CONTINUOUS
 62
     7
 10
8.3447070945
 20
2.3208553382
 30
0.0
  0
VERTEX
  5
2AB
  8
0
  6
CONTINUOUS
 62
     7
 10
8.3562632132
 20
2.3335662519
 30
0.0
  0
VERTEX
  5
2AC
  8
0
  6
CONTINUOUS
 62
     7
 10
8.370389089
 20
2.3453803637
 30
0.0
  0
VERTEX
  5
2AD
  8
0
  6
CONTINUOUS
 62
     7
 10
8.3868787291
 20
2.3561254031
 30
0.0
  0
VERTEX
  5
2AE
  8
0
  6
CONTINUOUS
 62
     7
 10
8.4054917
 20
2.3656446697
 30
0.0
  0
VERTEX
  5
2AF
  8
0
  6
CONTINUOUS
 62
     7
 10
8.4074884024
 20
2.3665363814
 30
0.0
  0
SEQEND
  5
2B0
  8
0
  6
CONTINUOUS
 62
     7
  0
POLYLINE
  5
13E
  8
0
  6
CONTINUOUS
 62
     7
 66
     1
 10
0.0
 20
0.0
 30
0.0
  0
VERTEX
  5
2B1
  8
0
  6
CONTINUOUS
 62
     7
 10
8.6574883958
 20
2.3665363814
 30
0.0
  0
VERTEX
  5
2B2
  8
0
  6
CONTINUOUS
 62
     7
 10
8.6594850982
 20
2.3656446697
 30
0.0
  0
VERTEX
  5
2B3
  8
0
  6
CONTINUOUS
 62
     7
 10
8.678098069
 20
2.3561254031
 30
0.0
  0
SEQEND
  5
2B4
  8
0
  6
CONTINUOUS
 62
     7
  0
LINE
  5
13F
  8
0
  6
CONTINUOUS
 62
     7
 10
8.7025918455
 20
2.0453990125
 30
0.0
 11
8.7025918455
 21
2.1575380281
 31
0.0
  0
LINE
  5
140
  8
0
  6
CONTINUOUS
 62
     7
 10
8.7025918455
 20
2.0453990125
 30
0.0
 11
8.4702262049
 21
2.0094558128
 31
0.0
  0
LINE
  5
141
  8
0
  6
CONTINUOUS
 62
     7
 10
8.4702262049
 20
2.0094558128
 30
0.0
 11
8.4702262049
 21
2.1215948284
 31
0.0
  0
POLYLINE
  5
142
  8
0
  6
CONTINUOUS
 62
     7
 66
     1
 10
0.0
 20
0.0
 30
0.0
  0
VERTEX
  5
2B5
  8
0
  6
CONTINUOUS
 62
     7
 10
8.7648540398
 20
2.1872009707
 30
0.0
  0
VERTEX
  5
2B6
  8
0
  6
CONTINUOUS
 62
     7
 10
8.7701491524
 20
2.1763362409
 30
0.0
  0
VERTEX
  5
2B7
  8
0
  6
CONTINUOUS
 62
     7
 10
8.7749453874
 20
2.1610445652
 30
0.0
  0
VERTEX
  5
2B8
  8
0
  6
CONTINUOUS
 62
     7
 10
8.776798542
 20
2.1455411071
 30
0.0
  0
VERTEX
  5
2B9
  8
0
  6
CONTINUOUS
 62
     7
 10
8.7756860858
 20
2.1300140505
 30
0.0
  0
VERTEX
  5
2BA
  8
0
  6
CONTINUOUS
 62
     7
 10
8.7716215439
 20
2.1146518888
 30
0.0
  0
VERTEX
  5
2BB
  8
0
  6
CONTINUOUS
 62
     7
 10
8.764654264
 20
2.0996410847
 30
0.0
  0
VERTEX
  5
2BC
  8
0
  6
CONTINUOUS
 62
     7
 10
8.7548687895
 20
2.0851638526
 30
0.0
  0
VERTEX
  5
2BD
  8
0
  6
CONTINUOUS
 62
     7
 10
8.7423839091
 20
2.0713959338
 30
0.0
  0
VERTEX
  5
2BE
  8
0
  6
CONTINUOUS
 62
     7
 10
8.7273512026
 20
2.0585044395
 30
0.0
  0
VERTEX
  5
2BF
  8
0
  6
CONTINUOUS
 62
     7
 10
8.7099531173
 20
2.0466458626
 30
0.0
  0
VERTEX
  5
2C0
  8
0
  6
CONTINUOUS
 62
     7
 10
8.690400845
 20
2.0359641534
 30
0.0
  0
VERTEX
  5
2C1
  8
0
  6
CONTINUOUS
 62
     7
 10
8.6689317344
 20
2.0265889665
 30
0.0
  0
VERTEX
  5
2C2
  8
0
  6
CONTINUOUS
 62
     7
 10
8.6458063866
 20
2.0186341036
 30
0.0
  0
VERTEX
  5
2C3
  8
0
  6
CONTINUOUS
 62
     7
 10
8.6213055061
 20
2.0121961351
 30
0.0
  0
VERTEX
  5
2C4
  8
0
  6
CONTINUOUS
 62
     7
 10
8.5957265269
 20
2.0073531903
 30
0.0
  0
VERTEX
  5
2C5
  8
0
  6
CONTINUOUS
 62
     7
 10
8.5693798982
 20
2.0041640808
 30
0.0
  0
VERTEX
  5
2C6
  8
0
  6
CONTINUOUS
 62
     7
 10
8.5425854679
 20
2.0026674995
 30
0.0
  0
VERTEX
  5
2C7
  8
0
  6
CONTINUOUS
 62
     7
 10
8.5156684723
 20
2.0028816219
 30
0.0
  0
VERTEX
  5
2C8
  8
0
  6
CONTINUOUS
 62
     7
 10
8.4889556514
 20
2.0048038484
 30
0.0
  0
VERTEX
  5
2C9
  8
0
  6
CONTINUOUS
 62
     7
 10
8.4627712563
 20
2.0084108452
 30
0.0
  0
VERTEX
  5
2CA
  8
0
  6
CONTINUOUS
 62
     7
 10
8.4374331298
 20
2.0136588203
 30
0.0
  0
VERTEX
  5
2CB
  8
0
  6
CONTINUOUS
 62
     7
 10
8.4132488433
 20
2.020484078
 30
0.0
  0
VERTEX
  5
2CC
  8
0
  6
CONTINUOUS
 62
     7
 10
8.3905119719
 20
2.0288037715
 30
0.0
  0
VERTEX
  5
2CD
  8
0
  6
CONTINUOUS
 62
     7
 10
8.3694984875
 20
2.0385168984
 30
0.0
  0
VERTEX
  5
2CE
  8
0
  6
CONTINUOUS
 62
     7
 10
8.3504634897
 20
2.0495055688
 30
0.0
  0
VERTEX
  5
2CF
  8
0
  6
CONTINUOUS
 62
     7
 10
8.3336380372
 20
2.0616363951
 30
0.0
  0
VERTEX
  5
2D0
  8
0
  6
CONTINUOUS
 62
     7
 10
8.3192263438
 20
2.0747621116
 30
0.0
  0
VERTEX
  5
2D1
  8
0
  6
CONTINUOUS
 62
     7
 10
8.3074033698
 20
2.088723403
 30
0.0
  0
VERTEX
  5
2D2
  8
0
  6
CONTINUOUS
 62
     7
 10
8.2983126252
 20
2.1033507921
 30
0.0
  0
VERTEX
  5
2D3
  8
0
  6
CONTINUOUS
 62
     7
 10
8.2920644465
 20
2.1184667216
 30
0.0
  0
VERTEX
  5
2D4
  8
0
  6
CONTINUOUS
 62
     7
 10
8.2887346917
 20
2.1338877049
 30
0.0
  0
VERTEX
  5
2D5
  8
0
  6
CONTINUOUS
 62
     7
 10
8.2883637807
 20
2.1494265557
 30
0.0
  0
VERTEX
  5
2D6
  8
0
  6
CONTINUOUS
 62
     7
 10
8.2909562164
 20
2.1648946511
 30
0.0
  0
VERTEX
  5
2D7
  8
0
  6
CONTINUOUS
 62
     7
 10
8.2964805146
 20
2.180104236
 30
0.0
  0
VERTEX
  5
2D8
  8
0
  6
CONTINUOUS
 62
     7
 10
8.3001227584
 20
2.1872009707
 30
0.0
  0
SEQEND
  5
2D9
  8
0
  6
CONTINUOUS
 62
     7
  0
LINE
  5
143
  8
0
  6
CONTINUOUS
 62
     7
 10
8.4702262049
 20
2.0094558128
 30
0.0
 11
8.3001227584
 21
2.1076544423
 31
0.0
  0
LINE
  5
144
  8
0
  6
CONTINUOUS
 62
     7
 10
8.7648540398
 20
2.1795408416
 30
0.0
 11
8.7025918455
 21
2.0453990125
 31
0.0
  0
LINE
  5
145
  8
0
  6
CONTINUOUS
 62
     7
 10
8.3001227584
 20
2.1076544423
 30
0.0
 11
8.3001227584
 21
2.2197934579
 31
0.0
  0
LINE
  5
146
  8
0
  6
CONTINUOUS
 62
     7
 10
8.7648540398
 20
2.1795408416
 30
0.0
 11
8.7648540398
 21
2.2916798572
 31
0.0
  0
POLYLINE
  5
147
  8
0
  6
CONTINUOUS
 62
     8
 66
     1
 10
0.0
 20
0.0
 30
0.0
  0
VERTEX
  5
2DA
  8
0
  6
CONTINUOUS
 62
     8
 10
9.07415505
 20
2.0630322671
 30
0.0
  0
VERTEX
  5
2DB
  8
0
  6
CONTINUOUS
 62
     8
 10
9.0739469776
 20
2.0543654168
 30
0.0
  0
VERTEX
  5
2DC
  8
0
  6
CONTINUOUS
 62
     8
 10
9.0713595891
 20
2.0313044555
 30
0.0
  0
VERTEX
  5
2DD
  8
0
  6
CONTINUOUS
 62
     8
 10
9.0658290943
 20
2.0084167856
 30
0.0
  0
VERTEX
  5
2DE
  8
0
  6
CONTINUOUS
 62
     8
 10
9.0573856722
 20
1.9858273942
 30
0.0
  0
VERTEX
  5
2DF
  8
0
  6
CONTINUOUS
 62
     8
 10
9.0460754209
 20
1.9636596818
 30
0.0
  0
VERTEX
  5
2E0
  8
0
  6
CONTINUOUS
 62
     8
 10
9.0319601416
 20
1.942034699
 30
0.0
  0
VERTEX
  5
2E1
  8
0
  6
CONTINUOUS
 62
     8
 10
9.0151169497
 20
1.9210705629
 30
0.0
  0
VERTEX
  5
2E2
  8
0
  6
CONTINUOUS
 62
     8
 10
8.9956377822
 20
1.9008817732
 30
0.0
  0
VERTEX
  5
2E3
  8
0
  6
CONTINUOUS
 62
     8
 10
8.9736290389
 20
1.8815786067
 30
0.0
  0
VERTEX
  5
2E4
  8
0
  6
CONTINUOUS
 62
     8
 10
8.9492109842
 20
1.863266452
 30
0.0
  0
VERTEX
  5
2E5
  8
0
  6
CONTINUOUS
 62
     8
 10
8.9225169058
 20
1.8460453639
 30
0.0
  0
VERTEX
  5
2E6
  8
0
  6
CONTINUOUS
 62
     8
 10
8.8936926271
 20
1.8300093829
 30
0.0
  0
VERTEX
  5
2E7
  8
0
  6
CONTINUOUS
 62
     8
 10
8.8628955534
 20
1.8152461044
 30
0.0
  0
VERTEX
  5
2E8
  8
0
  6
CONTINUOUS
 62
     8
 10
8.8302939359
 20
1.8018361338
 30
0.0
  0
VERTEX
  5
2E9
  8
0
  6
CONTINUOUS
 62
     8
 10
8.7960658258
 20
1.7898527223
 30
0.0
  0
VERTEX
  5
2EA
  8
0
  6
CONTINUOUS
 62
     8
 10
8.7603981133
 20
1.7793613321
 30
0.0
  0
VERTEX
  5
2EB
  8
0
  6
CONTINUOUS
 62
     8
 10
8.7234856479
 20
1.770419248
 30
0.0
  0
VERTEX
  5
2EC
  8
0
  6
CONTINUOUS
 62
     8
 10
8.685530029
 20
1.7630753182
 30
0.0
  0
VERTEX
  5
2ED
  8
0
  6
CONTINUOUS
 62
     8
 10
8.6467385771
 20
1.7573696403
 30
0.0
  0
VERTEX
  5
2EE
  8
0
  6
CONTINUOUS
 62
     8
 10
8.6073230808
 20
1.753333396
 30
0.0
  0
VERTEX
  5
2EF
  8
0
  6
CONTINUOUS
 62
     8
 10
8.5674988894
 20
1.7509886074
 30
0.0
  0
VERTEX
  5
2F0
  8
0
  6
CONTINUOUS
 62
     8
 10
8.5274834781
 20
1.7503481064
 30
0.0
  0
VERTEX
  5
2F1
  8
0
  6
CONTINUOUS
 62
     8
 10
8.4874953938
 20
1.7514153653
 30
0.0
  0
VERTEX
  5
2F2
  8
0
  6
CONTINUOUS
 62
     8
 10
8.4477530624
 20
1.7541845869
 30
0.0
  0
VERTEX
  5
2F3
  8
0
  6
CONTINUOUS
 62
     8
 10
8.408473527
 20
1.7586406143
 30
0.0
  0
VERTEX
  5
2F4
  8
0
  6
CONTINUOUS
 62
     8
 10
8.36987129
 20
1.7647591205
 30
0.0
  0
VERTEX
  5
2F5
  8
0
  6
CONTINUOUS
 62
     8
 10
8.3321572239
 20
1.7725066987
 30
0.0
  0
VERTEX
  5
2F6
  8
0
  6
CONTINUOUS
 62
     8
 10
8.2955373182
 20
1.7818410261
 30
0.0
  0
VERTEX
  5
2F7
  8
0
  6
CONTINUOUS
 62
     8
 10
8.2602115475
 20
1.7927111192
 30
0.0
  0
VERTEX
  5
2F8
  8
0
  6
CONTINUOUS
 62
     8
 10
8.2263728386
 20
1.8050576101
 30
0.0
  0
VERTEX
  5
2F9
  8
0
  6
CONTINUOUS
 62
     8
 10
8.1942060333
 20
1.8188130661
 30
0.0
  0
VERTEX
  5
2FA
  8
0
  6
CONTINUOUS
 62
     8
 10
8.1638868138
 20
1.8339023707
 30
0.0
  0
VERTEX
  5
2FB
  8
0
  6
CONTINUOUS
 62
     8
 10
8.1355807711
 20
1.8502431013
 30
0.0
  0
VERTEX
  5
2FC
  8
0
  6
CONTINUOUS
 62
     8
 10
8.1094424968
 20
1.8677460142
 30
0.0
  0
VERTEX
  5
2FD
  8
0
  6
CONTINUOUS
 62
     8
 10
8.0856147663
 20
1.8863155156
 30
0.0
  0
VERTEX
  5
2FE
  8
0
  6
CONTINUOUS
 62
     8
 10
8.0642276994
 20
1.9058501864
 30
0.0
  0
VERTEX
  5
2FF
  8
0
  6
CONTINUOUS
 62
     8
 10
8.0453981057
 20
1.9262433198
 30
0.0
  0
VERTEX
  5
300
  8
0
  6
CONTINUOUS
 62
     8
 10
8.0292288243
 20
1.9473835414
 30
0.0
  0
VERTEX
  5
301
  8
0
  6
CONTINUOUS
 62
     8
 10
8.0158081712
 20
1.9691554083
 30
0.0
  0
VERTEX
  5
302
  8
0
  6
CONTINUOUS
 62
     8
 10
8.0052094591
 20
1.9914400054
 30
0.0
  0
VERTEX
  5
303
  8
0
  6
CONTINUOUS
 62
     8
 10
7.997490557
 20
2.0141155985
 30
0.0
  0
VERTEX
  5
304
  8
0
  6
CONTINUOUS
 62
     8
 10
7.9926936047
 20
2.0370583581
 30
0.0
  0
VERTEX
  5
305
  8
0
  6
CONTINUOUS
 62
     8
 10
7.9908448577
 20
2.0601429878
 30
0.0
  0
VERTEX
  5
306
  8
0
  6
CONTINUOUS
 62
     8
 10
7.9908217481
 20
2.0630322671
 30
0.0
  0
SEQEND
  5
307
  8
0
  6
CONTINUOUS
 62
     8
  0
POLYLINE
  5
148
  8
0
  6
CONTINUOUS
 62
     8
 66
     1
 10
0.0
 20
0.0
 30
0.0
  0
VERTEX
  5
308
  8
0
  6
CONTINUOUS
 62
     8
 10
8.8858061008
 20
2.3012929556
 30
0.0
  0
VERTEX
  5
309
  8
0
  6
CONTINUOUS
 62
     8
 10
8.9118155732
 20
2.2850810211
 30
0.0
  0
VERTEX
  5
30A
  8
0
  6
CONTINUOUS
 62
     8
 10
8.9355990529
 20
2.2677672981
 30
0.0
  0
VERTEX
  5
30B
  8
0
  6
CONTINUOUS
 62
     8
 10
8.9570168951
 20
2.249453356
 30
0.0
  0
VERTEX
  5
30C
  8
0
  6
CONTINUOUS
 62
     8
 10
8.9759434297
 20
2.2302466663
 30
0.0
  0
VERTEX
  5
30D
  8
0
  6
CONTINUOUS
 62
     8
 10
8.9922675986
 20
2.2102599553
 30
0.0
  0
VERTEX
  5
30E
  8
0
  6
CONTINUOUS
 62
     8
 10
9.0058936104
 20
2.1896105068
 30
0.0
  0
VERTEX
  5
30F
  8
0
  6
CONTINUOUS
 62
     8
 10
9.0167414978
 20
2.1684195211
 30
0.0
  0
VERTEX
  5
310
  8
0
  6
CONTINUOUS
 62
     8
 10
9.0247475668
 20
2.1468113167
 30
0.0
  0
VERTEX
  5
311
  8
0
  6
CONTINUOUS
 62
     8
 10
9.0298648725
 20
2.1249127165
 30
0.0
  0
VERTEX
  5
312
  8
0
  6
CONTINUOUS
 62
     8
 10
9.0320633913
 20
2.1028522499
 30
0.0
  0
VERTEX
  5
313
  8
0
  6
CONTINUOUS
 62
     8
 10
9.0313301945
 20
2.0807593341
 30
0.0
  0
VERTEX
  5
314
  8
0
  6
CONTINUOUS
 62
     8
 10
9.0276696031
 20
2.058763666
 30
0.0
  0
VERTEX
  5
315
  8
0
  6
CONTINUOUS
 62
     8
 10
9.0211030674
 20
2.0369942936
 30
0.0
  0
VERTEX
  5
316
  8
0
  6
CONTINUOUS
 62
     8
 10
9.0116691667
 20
2.0155789778
 30
0.0
  0
VERTEX
  5
317
  8
0
  6
CONTINUOUS
 62
     8
 10
8.9994232378
 20
1.9946433993
 30
0.0
  0
VERTEX
  5
318
  8
0
  6
CONTINUOUS
 62
     8
 10
8.9844371587
 20
1.9743103946
 30
0.0
  0
VERTEX
  5
319
  8
0
  6
CONTINUOUS
 62
     8
 10
8.9667988737
 20
1.9546993032
 30
0.0
  0
VERTEX
  5
31A
  8
0
  6
CONTINUOUS
 62
     8
 10
8.946611853
 20
1.9359252161
 30
0.0
  0
VERTEX
  5
31B
  8
0
  6
CONTINUOUS
 62
     8
 10
8.9239946042
 20
1.9180982953
 30
0.0
  0
VERTEX
  5
31C
  8
0
  6
CONTINUOUS
 62
     8
 10
8.8990798648
 20
1.9013231473
 30
0.0
  0
VERTEX
  5
31D
  8
0
  6
CONTINUOUS
 62
     8
 10
8.8720137978
 20
1.8856982394
 30
0.0
  0
VERTEX
  5
31E
  8
0
  6
CONTINUOUS
 62
     8
 10
8.8429552405
 20
1.8713152665
 30
0.0
  0
VERTEX
  5
31F
  8
0
  6
CONTINUOUS
 62
     8
 10
8.812074762
 20
1.8582586067
 30
0.0
  0
VERTEX
  5
320
  8
0
  6
CONTINUOUS
 62
     8
 10
8.7795535656
 20
1.8466048877
 30
0.0
  0
VERTEX
  5
321
  8
0
  6
CONTINUOUS
 62
     8
 10
8.745582478
 20
1.8364225225
 30
0.0
  0
VERTEX
  5
322
  8
0
  6
CONTINUOUS
 62
     8
 10
8.7103608645
 20
1.8277712432
 30
0.0
  0
VERTEX
  5
323
  8
0
  6
CONTINUOUS
 62
     8
 10
8.6740954493
 20
1.8207018189
 30
0.0
  0
VERTEX
  5
324
  8
0
  6
CONTINUOUS
 62
     8
 10
8.6369990149
 20
1.8152557439
 30
0.0
  0
VERTEX
  5
325
  8
0
  6
CONTINUOUS
 62
     8
 10
8.5992892699
 20
1.8114649635
 30
0.0
  0
VERTEX
  5
326
  8
0
  6
CONTINUOUS
 62
     8
 10
8.5611875267
 20
1.8093517491
 30
0.0
  0
VERTEX
  5
327
  8
0
  6
CONTINUOUS
 62
     8
 10
8.5229173275
 20
1.8089284836
 30
0.0
  0
VERTEX
  5
328
  8
0
  6
CONTINUOUS
 62
     8
 10
8.4847033379
 20
1.8101976615
 30
0.0
  0
VERTEX
  5
329
  8
0
  6
CONTINUOUS
 62
     8
 10
8.4467697396
 20
1.8131518192
 30
0.0
  0
VERTEX
  5
32A
  8
0
  6
CONTINUOUS
 62
     8
 10
8.409339176
 20
1.8177736245
 30
0.0
  0
VERTEX
  5
32B
  8
0
  6
CONTINUOUS
 62
     8
 10
8.3726313348
 20
1.8240359766
 30
0.0
  0
VERTEX
  5
32C
  8
0
  6
CONTINUOUS
 62
     8
 10
8.3368615651
 20
1.8319021057
 30
0.0
  0
VERTEX
  5
32D
  8
0
  6
CONTINUOUS
 62
     8
 10
8.3022398148
 20
1.8413258479
 30
0.0
  0
VERTEX
  5
32E
  8
0
  6
CONTINUOUS
 62
     8
 10
8.2689692474
 20
1.8522519037
 30
0.0
  0
VERTEX
  5
32F
  8
0
  6
CONTINUOUS
 62
     8
 10
8.2372451319
 20
1.8646161608
 30
0.0
  0
VERTEX
  5
330
  8
0
  6
CONTINUOUS
 62
     8
 10
8.2072536344
 20
1.8783460714
 30
0.0
  0
VERTEX
  5
331
  8
0
  6
CONTINUOUS
 62
     8
 10
8.1791706974
 20
1.8933610202
 30
0.0
  0
VERTEX
  5
332
  8
0
  6
CONTINUOUS
 62
     8
 10
8.1531612249
 20
1.9095729547
 30
0.0
  0
VERTEX
  5
333
  8
0
  6
CONTINUOUS
 62
     8
 10
8.1293777452
 20
1.9268866777
 30
0.0
  0
VERTEX
  5
334
  8
0
  6
CONTINUOUS
 62
     8
 10
8.1079599031
 20
1.9452006198
 30
0.0
  0
VERTEX
  5
335
  8
0
  6
CONTINUOUS
 62
     8
 10
8.0890333685
 20
1.9644073095
 30
0.0
  0
VERTEX
  5
336
  8
0
  6
CONTINUOUS
 62
     8
 10
8.0727091996
 20
1.9843940205
 30
0.0
  0
VERTEX
  5
337
  8
0
  6
CONTINUOUS
 62
     8
 10
8.0590831877
 20
2.005043469
 30
0.0
  0
VERTEX
  5
338
  8
0
  6
CONTINUOUS
 62
     8
 10
8.0482353004
 20
2.0262344547
 30
0.0
  0
VERTEX
  5
339
  8
0
  6
CONTINUOUS
 62
     8
 10
8.0402292313
 20
2.0478426591
 30
0.0
  0
VERTEX
  5
33A
  8
0
  6
CONTINUOUS
 62
     8
 10
8.0351119257
 20
2.0697412593
 30
0.0
  0
VERTEX
  5
33B
  8
0
  6
CONTINUOUS
 62
     8
 10
8.0329134068
 20
2.0918017259
 30
0.0
  0
VERTEX
  5
33C
  8
0
  6
CONTINUOUS
 62
     8
 10
8.0336466036
 20
2.1138946416
 30
0.0
  0
VERTEX
  5
33D
  8
0
  6
CONTINUOUS
 62
     8
 10
8.037307195
 20
2.1358903098
 30
0.0
  0
VERTEX
  5
33E
  8
0
  6
CONTINUOUS
 62
     8
 10
8.0438737307
 20
2.1576596822
 30
0.0
  0
VERTEX
  5
33F
  8
0
  6
CONTINUOUS
 62
     8
 10
8.0533076314
 20
2.179074998
 30
0.0
  0
VERTEX
  5
340
  8
0
  6
CONTINUOUS
 62
     8
 10
8.0655535604
 20
2.2000105765
 30
0.0
  0
VERTEX
  5
341
  8
0
  6
CONTINUOUS
 62
     8
 10
8.0805396395
 20
2.2203435812
 30
0.0
  0
VERTEX
  5
342
  8
0
  6
CONTINUOUS
 62
     8
 10
8.0981779244
 20
2.2399546726
 30
0.0
  0
VERTEX
  5
343
  8
0
  6
CONTINUOUS
 62
     8
 10
8.1183649452
 20
2.2587287597
 30
0.0
  0
VERTEX
  5
344
  8
0
  6
CONTINUOUS
 62
     8
 10
8.140982194
 20
2.2765556805
 30
0.0
  0
VERTEX
  5
345
  8
0
  6
CONTINUOUS
 62
     8
 10
8.1658969334
 20
2.2933308285
 30
0.0
  0
VERTEX
  5
346
  8
0
  6
CONTINUOUS
 62
     8
 10
8.1929630003
 20
2.3089557364
 30
0.0
  0
VERTEX
  5
347
  8
0
  6
CONTINUOUS
 62
     8
 10
8.2220215576
 20
2.3233387093
 30
0.0
  0
VERTEX
  5
348
  8
0
  6
CONTINUOUS
 62
     8
 10
8.2529020362
 20
2.3363953691
 30
0.0
  0
VERTEX
  5
349
  8
0
  6
CONTINUOUS
 62
     8
 10
8.2854232326
 20
2.3480490881
 30
0.0
  0
VERTEX
  5
34A
  8
0
  6
CONTINUOUS
 62
     8
 10
8.3193943202
 20
2.3582314533
 30
0.0
  0
VERTEX
  5
34B
  8
0
  6
CONTINUOUS
 62
     8
 10
8.3546159337
 20
2.3668827326
 30
0.0
  0
VERTEX
  5
34C
  8
0
  6
CONTINUOUS
 62
     8
 10
8.3908813488
 20
2.3739521569
 30
0.0
  0
VERTEX
  5
34D
  8
0
  6
CONTINUOUS
 62
     8
 10
8.4074883894
 20
2.3766064595
 30
0.0
  0
SEQEND
  5
34E
  8
0
  6
CONTINUOUS
 62
     8
  0
ARC
  5
149
  8
0
  6
CONTINUOUS
 62
     8
 10
8.5731834136
 20
1.7372939117
 30
0.0
 40
0.6448471648342126
 50
61.0005508024
 51
82.4878520374
  0
POLYLINE
  5
14A
  8
0
  6
CONTINUOUS
 62
     8
 66
     1
 10
0.0
 20
0.0
 30
0.0
  0
VERTEX
  5
34F
  8
0
  6
CONTINUOUS
 62
     8
 10
9.045966424
 20
1.8616767059
 30
0.0
  0
VERTEX
  5
350
  8
0
  6
CONTINUOUS
 62
     8
 10
9.0421752818
 20
1.8530010948
 30
0.0
  0
VERTEX
  5
351
  8
0
  6
CONTINUOUS
 62
     8
 10
9.0305441586
 20
1.831233269
 30
0.0
  0
VERTEX
  5
352
  8
0
  6
CONTINUOUS
 62
     8
 10
9.0161277637
 20
1.8100280793
 30
0.0
  0
VERTEX
  5
353
  8
0
  6
CONTINUOUS
 62
     8
 10
8.9990066176
 20
1.7895041317
 30
0.0
  0
VERTEX
  5
354
  8
0
  6
CONTINUOUS
 62
     8
 10
8.9792765464
 20
1.7697761755
 30
0.0
  0
VERTEX
  5
355
  8
0
  6
CONTINUOUS
 62
     8
 10
8.9570478216
 20
1.7509545672
 30
0.0
  0
VERTEX
  5
356
  8
0
  6
CONTINUOUS
 62
     8
 10
8.932444804
 20
1.7331445457
 30
0.0
  0
VERTEX
  5
357
  8
0
  6
CONTINUOUS
 62
     8
 10
8.9056050945
 20
1.7164457023
 30
0.0
  0
VERTEX
  5
358
  8
0
  6
CONTINUOUS
 62
     8
 10
8.876678715
 20
1.7009514678
 30
0.0
  0
VERTEX
  5
359
  8
0
  6
CONTINUOUS
 62
     8
 10
8.8458275101
 20
1.686748448
 30
0.0
  0
VERTEX
  5
35A
  8
0
  6
CONTINUOUS
 62
     8
 10
8.8132239956
 20
1.6739160784
 30
0.0
  0
VERTEX
  5
35B
  8
0
  6
CONTINUOUS
 62
     8
 10
8.7790504704
 20
1.6625261507
 30
0.0
  0
VERTEX
  5
35C
  8
0
  6
CONTINUOUS
 62
     8
 10
8.7434980982
 20
1.6526423234
 30
0.0
  0
VERTEX
  5
35D
  8
0
  6
CONTINUOUS
 62
     8
 10
8.7067656522
 20
1.6443199158
 30
0.0
  0
VERTEX
  5
35E
  8
0
  6
CONTINUOUS
 62
     8
 10
8.6690585863
 20
1.6376054113
 30
0.0
  0
VERTEX
  5
35F
  8
0
  6
CONTINUOUS
 62
     8
 10
8.6305877471
 20
1.6325364327
 30
0.0
  0
VERTEX
  5
360
  8
0
  6
CONTINUOUS
 62
     8
 10
8.5915683282
 20
1.6291412583
 30
0.0
  0
VERTEX
  5
361
  8
0
  6
CONTINUOUS
 62
     8
 10
8.552218479
 20
1.6274389165
 30
0.0
  0
VERTEX
  5
362
  8
0
  6
CONTINUOUS
 62
     8
 10
8.5127583192
 20
1.6274389165
 30
0.0
  0
VERTEX
  5
363
  8
0
  6
CONTINUOUS
 62
     8
 10
8.47340847
 20
1.6291412583
 30
0.0
  0
VERTEX
  5
364
  8
0
  6
CONTINUOUS
 62
     8
 10
8.434389051
 20
1.6325364327
 30
0.0
  0
VERTEX
  5
365
  8
0
  6
CONTINUOUS
 62
     8
 10
8.3959182118
 20
1.6376054113
 30
0.0
  0
VERTEX
  5
366
  8
0
  6
CONTINUOUS
 62
     8
 10
8.3582111459
 20
1.6443199158
 30
0.0
  0
VERTEX
  5
367
  8
0
  6
CONTINUOUS
 62
     8
 10
8.3214787
 20
1.6526423234
 30
0.0
  0
VERTEX
  5
368
  8
0
  6
CONTINUOUS
 62
     8
 10
8.2859263278
 20
1.6625261507
 30
0.0
  0
VERTEX
  5
369
  8
0
  6
CONTINUOUS
 62
     8
 10
8.2517528026
 20
1.6739160784
 30
0.0
  0
VERTEX
  5
36A
  8
0
  6
CONTINUOUS
 62
     8
 10
8.2191492881
 20
1.686748448
 30
0.0
  0
VERTEX
  5
36B
  8
0
  6
CONTINUOUS
 62
     8
 10
8.1882980832
 20
1.7009514678
 30
0.0
  0
VERTEX
  5
36C
  8
0
  6
CONTINUOUS
 62
     8
 10
8.1593717036
 20
1.7164457023
 30
0.0
  0
VERTEX
  5
36D
  8
0
  6
CONTINUOUS
 62
     8
 10
8.1325319941
 20
1.7331445457
 30
0.0
  0
VERTEX
  5
36E
  8
0
  6
CONTINUOUS
 62
     8
 10
8.1079289765
 20
1.7509545672
 30
0.0
  0
VERTEX
  5
36F
  8
0
  6
CONTINUOUS
 62
     8
 10
8.0857002518
 20
1.7697761755
 30
0.0
  0
VERTEX
  5
370
  8
0
  6
CONTINUOUS
 62
     8
 10
8.0659701805
 20
1.7895041317
 30
0.0
  0
VERTEX
  5
371
  8
0
  6
CONTINUOUS
 62
     8
 10
8.0488490345
 20
1.8100280793
 30
0.0
  0
VERTEX
  5
372
  8
0
  6
CONTINUOUS
 62
     8
 10
8.0344326396
 20
1.831233269
 30
0.0
  0
VERTEX
  5
373
  8
0
  6
CONTINUOUS
 62
     8
 10
8.0228015164
 20
1.8530010948
 30
0.0
  0
VERTEX
  5
374
  8
0
  6
CONTINUOUS
 62
     8
 10
8.0190103742
 20
1.8616767059
 30
0.0
  0
SEQEND
  5
375
  8
0
  6
CONTINUOUS
 62
     8
  0
ENDSEC
  0
EOF
