  0
SECTION
  2
HEADER
  9
$ACADVER
  1
AC1009
  9
$DWGCODEPAGE
  3
ansi_1252
  9
$INSBASE
 10
0.0
 20
0.0
 30
0.0
  9
$EXTMIN
 10
0.0
 20
0.0
 30
0.0
  9
$EXTMAX
 10
11.0
 20
8.5
 30
0.0
  9
$LIMMIN
 10
0.0
 20
0.0
  9
$LIMMAX
 10
11.0
 20
8.5
  9
$ORTHOMODE
 70
     0
  9
$REGENMODE
 70
     1
  9
$FILLMODE
 70
     1
  9
$QTEXTMODE
 70
     0
  9
$MIRRTEXT
 70
     1
  9
$DRAGMODE
 70
     2
  9
$LTSCALE
 40
1.0
  9
$OSMODE
 70
    37
  9
$ATTMODE
 70
     1
  9
$TEXTSIZE
 40
0.125
  9
$TRACEWID
 40
0.05
  9
$TEXTSTYLE
  7
STANDARD
  9
$CLAYER
  8
0
  9
$CELTYPE
  6
BYLAYER
  9
$CECOLOR
 62
   256
  9
$DIMSCALE
 40
1.0
  9
$DIMASZ
 40
0.13
  9
$DIMEXO
 40
0.05
  9
$DIMDLI
 40
0.38
  9
$DIMRND
 40
0.0
  9
$DIMDLE
 40
0.0
  9
$DIMEXE
 40
0.125
  9
$DIMTP
 40
0.0
  9
$DIMTM
 40
0.0
  9
$DIMTXT
 40
0.125
  9
$DIMCEN
 40
0.09
  9
$DIMTSZ
 40
0.0
  9
$DIMTOL
 70
     0
  9
$DIMLIM
 70
     0
  9
$DIMTIH
 70
     1
  9
$DIMTOH
 70
     1
  9
$DIMSE1
 70
     0
  9
$DIMSE2
 70
     0
  9
$DIMTAD
 70
     1
  9
$DIMZIN
 70
     0
  9
$DIMBLK
  1

  9
$DIMASO
 70
     1
  9
$DIMSHO
 70
     1
  9
$DIMPOST
  1

  9
$DIMAPOST
  1

  9
$DIMALT
 70
     0
  9
$DIMALTD
 70
     2
  9
$DIMALTF
 40
25.4
  9
$DIMLFAC
 40
1.0
  9
$DIMTOFL
 70
     0
  9
$DIMTVP
 40
0.0
  9
$DIMTIX
 70
     0
  9
$DIMSOXD
 70
     0
  9
$DIMSAH
 70
     0
  9
$DIMBLK1
  1

  9
$DIMBLK2
  1

  9
$DIMSTYLE
  2
STANDARD
  9
$DIMCLRD
 70
     0
  9
$DIMCLRE
 70
     0
  9
$DIMCLRT
 70
     0
  9
$DIMTFAC
 40
1.0
  9
$DIMGAP
 40
0.06
  9
$LUNITS
 70
     2
  9
$LUPREC
 70
     3
  9
$SKETCHINC
 40
0.1
  9
$FILLETRAD
 40
0.5
  9
$AUNITS
 70
     0
  9
$AUPREC
 70
     2
  9
$MENU
  1
.
  9
$ELEVATION
 40
0.0
  9
$PELEVATION
 40
0.0
  9
$THICKNESS
 40
0.0
  9
$LIMCHECK
 70
     0
  9
$CHAMFERA
 40
0.5
  9
$CHAMFERB
 40
0.5
  9
$SKPOLY
 70
     0
  9
$TDCREATE
 40
2456498.582418299
  9
$TDUPDATE
 40
2456498.58241831
  9
$TDINDWG
 40
0.0000000116
  9
$TDUSRTIMER
 40
0.0000000116
  9
$USRTIMER
 70
     1
  9
$ANGBASE
 50
0.0
  9
$ANGDIR
 70
     0
  9
$PDMODE
 70
     0
  9
$PDSIZE
 40
-1.0
  9
$PLINEWID
 40
0.0
  9
$COORDS
 70
     1
  9
$SPLFRAME
 70
     0
  9
$SPLINETYPE
 70
     6
  9
$SPLINESEGS
 70
     8
  9
$ATTDIA
 70
     0
  9
$ATTREQ
 70
     1
  9
$HANDLING
 70
     1
  9
$HANDSEED
  5
38A
  9
$SURFTAB1
 70
     6
  9
$SURFTAB2
 70
     6
  9
$SURFTYPE
 70
     6
  9
$SURFU
 70
     6
  9
$SURFV
 70
     6
  9
$UCSNAME
  2

  9
$UCSORG
 10
0.0
 20
0.0
 30
0.0
  9
$UCSXDIR
 10
1.0
 20
0.0
 30
0.0
  9
$UCSYDIR
 10
0.0
 20
1.0
 30
0.0
  9
$PUCSNAME
  2

  9
$PUCSORG
 10
0.0
 20
0.0
 30
0.0
  9
$PUCSXDIR
 10
1.0
 20
0.0
 30
0.0
  9
$PUCSYDIR
 10
0.0
 20
1.0
 30
0.0
  9
$USERI1
 70
     0
  9
$USERI2
 70
     0
  9
$USERI3
 70
     0
  9
$USERI4
 70
     0
  9
$USERI5
 70
     0
  9
$USERR1
 40
0.0
  9
$USERR2
 40
0.0
  9
$USERR3
 40
0.0
  9
$USERR4
 40
0.0
  9
$USERR5
 40
0.0
  9
$WORLDVIEW
 70
     1
  9
$SHADEDGE
 70
     3
  9
$SHADEDIF
 70
    70
  9
$TILEMODE
 70
     1
  9
$MAXACTVP
 70
    64
  9
$PLIMCHECK
 70
     0
  9
$PEXTMIN
 10
1.0000000000E+20
 20
1.0000000000E+20
 30
1.0000000000E+20
  9
$PEXTMAX
 10
-1.0000000000E+20
 20
-1.0000000000E+20
 30
-1.0000000000E+20
  9
$PLIMMIN
 10
0.0
 20
0.0
  9
$PLIMMAX
 10
12.0
 20
9.0
  9
$UNITMODE
 70
     0
  9
$VISRETAIN
 70
     1
  9
$PLINEGEN
 70
     0
  9
$PSLTSCALE
 70
     1
  0
ENDSEC
  0
SECTION
  2
TABLES
  0
TABLE
  2
VPORT
 70
     1
  0
VPORT
  2
*ACTIVE
 70
     0
 10
0.0
 20
0.0
 11
1.0
 21
1.0
 12
5.5
 22
4.25
 13
0.0
 23
0.0
 14
0.5
 24
0.5
 15
0.5
 25
0.5
 16
0.0
 26
0.0
 36
1.0
 17
0.0
 27
0.0
 37
0.0
 40
8.5
 41
1.2941176471
 42
50.0
 43
0.0
 44
0.0
 50
0.0
 51
0.0
 71
     0
 72
  2000
 73
     1
 74
     3
 75
     0
 76
     0
 77
     0
 78
     0
  0
ENDTAB
  0
TABLE
  2
LTYPE
 70
     6
  0
LTYPE
  2
CONTINUOUS
 70
     0
  3
Solid line
 72
    65
 73
     0
 40
0.0
  0
LTYPE
  2
HIDDEN
 70
     0
  3
Hidden __ __ __ __ __ __ __ __ __ __ __ __ __ __
 72
    65
 73
     2
 40
0.075
 49
0.05
 49
-0.025
  0
LTYPE
  2
PHANTOM
 70
     0
  3
Phantom ______  __  __  ______  __  __  ______
 72
    65
 73
     6
 40
0.5
 49
0.25
 49
-0.05
 49
0.05
 49
-0.05
 49
0.05
 49
-0.05
  0
LTYPE
  2
CENTER
 70
     0
  3
Center ____ _ ____ _ ____ _ ____ _ ____ _ ____
 72
    65
 73
     4
 40
0.4
 49
0.25
 49
-0.05
 49
0.05
 49
-0.05
  0
LTYPE
  2
CENTERX2
 70
     0
  3
Center (2x) ________  __  ________  __  _____
 72
    65
 73
     4
 40
0.8
 49
0.5
 49
-0.1
 49
0.1
 49
-0.1
  0
LTYPE
  2
DOT2
 70
     0
  3
Dot (.5x) ........................................
 72
    65
 73
     2
 40
0.025
 49
0.0
 49
-0.025
  0
ENDTAB
  0
TABLE
  2
LAYER
 70
     1
  0
LAYER
  2
0
 70
     0
 62
     7
  6
CONTINUOUS
  0
ENDTAB
  0
TABLE
  2
STYLE
 70
     1
  0
STYLE
  2
STANDARD
 70
     0
 40
0.0
 41
1.0
 50
0.0
 71
     0
 42
0.2
  3
txt
  4

  0
ENDTAB
  0
TABLE
  2
VIEW
 70
     0
  0
ENDTAB
  0
TABLE
  2
UCS
 70
     0
  0
ENDTAB
  0
TABLE
  2
APPID
 70
     1
  0
APPID
  2
ACAD
 70
     0
  0
ENDTAB
  0
TABLE
  2
DIMSTYLE
 70
     4
  0
DIMSTYLE
  2
STANDARD
 70
     0
  3

  4

  5

  6

  7

 40
1.0
 41
0.18
 42
0.0625
 43
0.38
 44
0.18
 45
0.0
 46
0.0
 47
0.0
 48
0.0
140
0.18
141
0.09
142
0.0
143
25.4
144
1.0
145
0.0
146
1.0
147
0.09
 71
     0
 72
     0
 73
     1
 74
     1
 75
     0
 76
     0
 77
     0
 78
     0
170
     0
171
     2
172
     0
173
     0
174
     0
175
     0
176
     0
177
     0
178
     0
  0
DIMSTYLE
  2
SLDDIMSTYLE0
 70
     0
  3

  4

  5

  6

  7

 40
1.0
 41
0.13
 42
0.0625
 43
0.38
 44
0.0
 45
0.000000001
 46
0.0
 47
0.0
 48
0.0
140
0.125
141
0.09
142
0.0
143
25.4
144
1.0
145
0.0
146
1.0
147
0.03125
 71
     0
 72
     0
 73
     1
 74
     1
 75
     0
 76
     0
 77
     0
 78
    12
170
     1
171
     2
172
     0
173
     1
174
     0
175
     0
176
     0
177
     0
178
     0
  0
DIMSTYLE
  2
SLDDIMSTYLE1
 70
     0
  3

  4

  5

  6

  7

 40
1.0
 41
0.13
 42
0.0625
 43
0.38
 44
0.0
 45
0.000000001
 46
0.0
 47
0.0
 48
0.0
140
0.125
141
0.09
142
0.0
143
25.4
144
1.0
145
0.0
146
1.0
147
0.03125
 71
     0
 72
     0
 73
     1
 74
     1
 75
     0
 76
     0
 77
     0
 78
     4
170
     1
171
     2
172
     0
173
     1
174
     0
175
     0
176
     0
177
     0
178
     0
  0
DIMSTYLE
  2
SLDDIMSTYLE2
 70
     0
  3

  4

  5

  6

  7

 40
1.0
 41
0.13
 42
0.0625
 43
0.38
 44
0.0
 45
0.000000001
 46
0.0
 47
0.0
 48
0.0
140
0.125
141
0.09
142
0.0
143
25.4
144
1.0
145
0.0
146
1.0
147
0.03125
 71
     0
 72
     0
 73
     1
 74
     1
 75
     0
 76
     0
 77
     0
 78
    12
170
     1
171
     2
172
     1
173
     1
174
     0
175
     0
176
     0
177
     0
178
     0
  0
ENDTAB
  0
ENDSEC
  0
SECTION
  2
BLOCKS
  0
BLOCK
  8
0
  2
$MODEL_SPACE
 70
     0
 10
0.0
 20
0.0
 30
0.0
  3
$MODEL_SPACE
  1

  0
ENDBLK
  5
21
  8
0
  0
BLOCK
 67
     1
  8
0
  2
$PAPER_SPACE
 70
     0
 10
0.0
 20
0.0
 30
0.0
  3
$PAPER_SPACE
  1

  0
ENDBLK
  5
1D
 67
     1
  8
0
  0
BLOCK
  8
0
  2
SW_NOTE_0
 70
     0
 10
0.0
 20
0.0
 30
0.0
  3
SW_NOTE_0
  1

  0
TEXT
  5
55
  8
0
  6
CONTINUOUS
 62
     0
 10
0.0
 20
0.0441575077
 30
0.0
 40
0.125
  1
MATERIAL:
 41
0.7
 11
0.0
 21
0.0
 31
0.0
 73
     1
  0
TEXT
  5
56
  8
0
  6
CONTINUOUS
 62
     0
 10
0.0
 20
-0.1202125668
 30
0.0
 40
0.125
  1
  STEM & CAP - STEEL
 41
0.595
 11
0.0
 21
-0.1643700745
 31
0.0
 73
     1
  0
TEXT
  5
57
  8
0
  6
CONTINUOUS
 62
     0
 10
0.0
 20
-0.2845826413
 30
0.0
 40
0.125
  1
  PAD - NYLON
 41
0.5923076923
 11
0.0
 21
-0.328740149
 31
0.0
 73
     1
  0
TEXT
  5
58
  8
0
  6
CONTINUOUS
 62
     0
 10
0.0
 20
-0.6133227903
 30
0.0
 40
0.125
  1
FINISH:
 41
0.7
 11
0.0
 21
-0.6574802981
 31
0.0
 73
     1
  0
TEXT
  5
59
  8
0
  6
CONTINUOUS
 62
     0
 10
0.0
 20
-0.7776928648
 30
0.0
 40
0.125
  1
  STEM & CAP - ZINC PLATE WITH
 41
0.6066666667
 11
0.0
 21
-0.8218503726
 31
0.0
 73
     1
  0
TEXT
  5
5A
  8
0
  6
CONTINUOUS
 62
     0
 10
0.0
 20
-0.9420629394
 30
0.0
 40
0.125
  1
     CLEAR CHROMATE
 41
0.5894736842
 11
0.0
 21
-0.9862204471
 31
0.0
 73
     1
  0
TEXT
  5
5B
  8
0
  6
CONTINUOUS
 62
     0
 10
0.0
 20
-1.1064330139
 30
0.0
 40
0.125
  1
  PAD - WHITE
 41
0.5923076923
 11
0.0
 21
-1.1505905216
 31
0.0
 73
     1
  0
ENDBLK
  5
54
  8
0
  0
BLOCK
  8
0
  2
SW_NOTE_1
 70
     0
 10
0.0
 20
0.0
 30
0.0
  3
SW_NOTE_1
  1

  0
TEXT
  5
61
  8
0
  6
CONTINUOUS
 62
     0
 10
0.0
 20
0.0441575077
 30
0.0
 40
0.125
  1
PART
 41
0.7
 11
0.0
 21
0.0
 31
0.0
 73
     1
  0
TEXT
  5
62
  8
0
  6
CONTINUOUS
 62
     0
 10
-0.0474826381
 20
-0.1202125668
 30
0.0
 40
0.125
  1
NAME
 41
0.7
 11
-0.0474826381
 21
-0.1643700745
 31
0.0
 73
     1
  0
ENDBLK
  5
60
  8
0
  0
BLOCK
  8
0
  2
SW_NOTE_2
 70
     0
 10
0.0
 20
0.0
 30
0.0
  3
SW_NOTE_2
  1

  0
TEXT
  5
67
  8
0
  6
CONTINUOUS
 62
     0
 10
0.0
 20
0.0441575077
 30
0.0
 40
0.125
  1
PART
 41
0.7
 11
0.0
 21
0.0
 31
0.0
 73
     1
  0
TEXT
  5
68
  8
0
  6
CONTINUOUS
 62
     0
 10
0.0577256831
 20
-0.1202125668
 30
0.0
 40
0.125
  1
No.
 41
0.7
 11
0.0577256831
 21
-0.1643700745
 31
0.0
 73
     1
  0
ENDBLK
  5
66
  8
0
  0
BLOCK
  8
0
  2
SW_NOTE_3
 70
     0
 10
0.0
 20
0.0
 30
0.0
  3
SW_NOTE_3
  1

  0
TEXT
  5
6D
  8
0
  6
CONTINUOUS
 62
     0
 10
0.0
 20
0.0441575077
 30
0.0
 40
0.125
  1
REV.
 41
0.7
 11
0.0
 21
0.0
 31
0.0
 73
     1
  0
TEXT
  5
6E
  8
0
  6
CONTINUOUS
 62
     0
 10
-0.0269097225
 20
-0.1202125668
 30
0.0
 40
0.125
  1
DATE
 41
0.7
 11
-0.0269097225
 21
-0.1643700745
 31
0.0
 73
     1
  0
ENDBLK
  5
6C
  8
0
  0
BLOCK
  8
0
  2
*D5
 70
     1
 10
0.0
 20
0.0
 30
0.0
  3
*D5
  1

  0
SOLID
  5
96
  8
0
  6
CONTINUOUS
 62
     7
 10
2.5300580046
 20
2.078019404
 30
0.0
 11
2.6600580046
 21
2.058019404
 31
0.0
 12
2.6600580046
 22
2.098019404
 32
0.0
 13
2.6600580046
 23
2.098019404
 33
0.0
  0
SOLID
  5
97
  8
0
  6
CONTINUOUS
 62
     7
 10
4.1550580046
 20
2.078019404
 30
0.0
 11
4.0250580046
 21
2.098019404
 31
0.0
 12
4.0250580046
 22
2.058019404
 32
0.0
 13
4.0250580046
 23
2.058019404
 33
0.0
  0
LINE
  5
98
  8
0
  6
CONTINUOUS
 62
     7
 10
3.1491877677
 20
2.0964221822
 30
0.0
 11
3.1237971415
 21
2.0964221822
 31
0.0
  0
LINE
  5
99
  8
0
  6
CONTINUOUS
 62
     7
 10
3.1237971415
 20
2.0964221822
 30
0.0
 11
3.1237971415
 21
1.8979846762
 31
0.0
  0
LINE
  5
9A
  8
0
  6
CONTINUOUS
 62
     7
 10
3.1237971415
 20
1.8979846762
 30
0.0
 11
3.1491877677
 21
1.8979846762
 31
0.0
  0
LINE
  5
9B
  8
0
  6
CONTINUOUS
 62
     7
 10
3.5359282324
 20
2.0964221822
 30
0.0
 11
3.5613188586
 21
2.0964221822
 31
0.0
  0
LINE
  5
9C
  8
0
  6
CONTINUOUS
 62
     7
 10
3.5613188586
 20
2.0964221822
 30
0.0
 11
3.5613188586
 21
1.8979846762
 31
0.0
  0
LINE
  5
9D
  8
0
  6
CONTINUOUS
 62
     7
 10
3.5613188586
 20
1.8979846762
 30
0.0
 11
3.5359282324
 21
1.8979846762
 31
0.0
  0
LINE
  5
9E
  8
0
  6
CONTINUOUS
 62
     7
 10
2.5300580046
 20
2.7324338747
 30
0.0
 11
2.5300580046
 21
1.953019404
 31
0.0
  0
LINE
  5
9F
  8
0
  6
CONTINUOUS
 62
     7
 10
4.1550580046
 20
2.7324338747
 30
0.0
 11
4.1550580046
 21
1.953019404
 31
0.0
  0
LINE
  5
A0
  8
0
  6
CONTINUOUS
 62
     7
 10
2.5300580046
 20
2.078019404
 30
0.0
 11
3.010540839
 21
2.078019404
 31
0.0
  0
LINE
  5
A1
  8
0
  6
CONTINUOUS
 62
     7
 10
4.1550580046
 20
2.078019404
 30
0.0
 11
3.6745751703
 21
2.078019404
 31
0.0
  0
TEXT
  5
A2
  8
0
  6
CONTINUOUS
 62
     7
 10
3.0358870107
 20
2.1659703162
 30
0.0039370079
 40
0.125
  1
%%c
 41
0.7
 11
3.0358870107
 21
2.1218128085
 31
0.0039370079
 73
     1
  0
TEXT
  5
A3
  8
0
  6
CONTINUOUS
 62
     7
 10
3.2244026312
 20
2.1659703162
 30
0.0039370079
 40
0.125
  1
1.63
 41
0.7
 11
3.2244026312
 21
2.1218128085
 31
0.0039370079
 73
     1
  0
TEXT
  5
A4
  8
0
  6
CONTINUOUS
 62
     7
 10
3.1809260506
 20
1.9421421771
 30
0.0039370079
 40
0.125
  1
41.3
 41
0.7
 11
3.1809260506
 21
1.8979846694
 31
0.0039370079
 73
     1
  0
ENDBLK
  5
95
  8
0
  0
BLOCK
  8
0
  2
*D6
 70
     1
 10
0.0
 20
0.0
 30
0.0
  3
*D6
  1

  0
SOLID
  5
AA
  8
0
  6
CONTINUOUS
 62
     7
 10
4.7849792645
 20
5.3534338747
 30
0.0
 11
4.7649792645
 21
5.2234338747
 31
0.0
 12
4.8049792645
 22
5.2234338747
 32
0.0
 13
4.8049792645
 23
5.2234338747
 33
0.0
  0
SOLID
  5
AB
  8
0
  6
CONTINUOUS
 62
     7
 10
4.7849792645
 20
3.3534338747
 30
0.0
 11
4.8049792645
 21
3.4834338747
 31
0.0
 12
4.7649792645
 22
3.4834338747
 32
0.0
 13
4.7649792645
 23
3.4834338747
 33
0.0
  0
LINE
  5
AC
  8
0
  6
CONTINUOUS
 62
     7
 10
4.5916090367
 20
4.3524790124
 30
0.0
 11
4.5662184105
 21
4.3524790124
 31
0.0
  0
LINE
  5
AD
  8
0
  6
CONTINUOUS
 62
     7
 10
4.5662184105
 20
4.3524790124
 30
0.0
 11
4.5662184105
 21
4.1540415064
 31
0.0
  0
LINE
  5
AE
  8
0
  6
CONTINUOUS
 62
     7
 10
4.5662184105
 20
4.1540415064
 30
0.0
 11
4.5916090367
 21
4.1540415064
 31
0.0
  0
LINE
  5
AF
  8
0
  6
CONTINUOUS
 62
     7
 10
4.9783495014
 20
4.3524790124
 30
0.0
 11
5.0037401277
 21
4.3524790124
 31
0.0
  0
LINE
  5
B0
  8
0
  6
CONTINUOUS
 62
     7
 10
5.0037401277
 20
4.3524790124
 30
0.0
 11
5.0037401277
 21
4.1540415064
 31
0.0
  0
LINE
  5
B1
  8
0
  6
CONTINUOUS
 62
     7
 10
5.0037401277
 20
4.1540415064
 30
0.0
 11
4.9783495014
 21
4.1540415064
 31
0.0
  0
LINE
  5
B2
  8
0
  6
CONTINUOUS
 62
     7
 10
3.5200580046
 20
5.3534338747
 30
0.0
 11
4.9099792645
 21
5.3534338747
 31
0.0
  0
LINE
  5
B3
  8
0
  6
CONTINUOUS
 62
     7
 10
3.7014427479
 20
3.3534338747
 30
0.0
 11
4.9099792645
 21
3.3534338747
 31
0.0
  0
LINE
  5
B4
  8
0
  6
CONTINUOUS
 62
     7
 10
4.7849792645
 20
5.3534338747
 30
0.0
 11
4.7849792645
 21
4.578216883
 31
0.0
  0
LINE
  5
B5
  8
0
  6
CONTINUOUS
 62
     7
 10
4.7849792645
 20
3.3534338747
 30
0.0
 11
4.7849792645
 21
4.1286508664
 31
0.0
  0
TEXT
  5
B6
  8
0
  6
CONTINUOUS
 62
     7
 10
4.5009948851
 20
4.4239368779
 30
0.0039370079
 40
0.125
  1
 
 41
0.7
 11
4.5009948851
 21
4.3797793702
 31
0.0039370079
 73
     1
  0
TEXT
  5
B7
  8
0
  6
CONTINUOUS
 62
     7
 10
4.5725660808
 20
4.4220271464
 30
0.0039370079
 40
0.125
  1
2.00
 41
0.7
 11
4.5725660808
 21
4.3778696387
 31
0.0039370079
 73
     1
  0
TEXT
  5
B8
  8
0
  6
CONTINUOUS
 62
     7
 10
4.6233473196
 20
4.1981990073
 30
0.0039370079
 40
0.125
  1
50.8
 41
0.7
 11
4.6233473196
 21
4.1540414996
 31
0.0039370079
 73
     1
  0
TEXT
  5
B9
  8
0
  6
CONTINUOUS
 62
     7
 10
5.0227830974
 20
4.4239368779
 30
0.0039370079
 40
0.125
  1
 
 41
0.7
 11
5.0227830974
 21
4.3797793702
 31
0.0039370079
 73
     1
  0
ENDBLK
  5
A9
  8
0
  0
BLOCK
  8
0
  2
*D7
 70
     1
 10
0.0
 20
0.0
 30
0.0
  3
*D7
  1

  0
SOLID
  5
BF
  8
0
  6
CONTINUOUS
 62
     7
 10
4.7849792645
 20
3.3534338747
 30
0.0
 11
4.8049792645
 21
3.4834338747
 31
0.0
 12
4.7649792645
 22
3.4834338747
 32
0.0
 13
4.7649792645
 23
3.4834338747
 33
0.0
  0
SOLID
  5
C0
  8
0
  6
CONTINUOUS
 62
     7
 10
4.7849792645
 20
2.6034338747
 30
0.0
 11
4.7649792645
 21
2.4734338747
 31
0.0
 12
4.8049792645
 22
2.4734338747
 32
0.0
 13
4.8049792645
 23
2.4734338747
 33
0.0
  0
LINE
  5
C1
  8
0
  6
CONTINUOUS
 62
     7
 10
4.5916090367
 20
2.9774790124
 30
0.0
 11
4.5662184105
 21
2.9774790124
 31
0.0
  0
LINE
  5
C2
  8
0
  6
CONTINUOUS
 62
     7
 10
4.5662184105
 20
2.9774790124
 30
0.0
 11
4.5662184105
 21
2.7790415064
 31
0.0
  0
LINE
  5
C3
  8
0
  6
CONTINUOUS
 62
     7
 10
4.5662184105
 20
2.7790415064
 30
0.0
 11
4.5916090367
 21
2.7790415064
 31
0.0
  0
LINE
  5
C4
  8
0
  6
CONTINUOUS
 62
     7
 10
4.9783495014
 20
2.9774790124
 30
0.0
 11
5.0037401277
 21
2.9774790124
 31
0.0
  0
LINE
  5
C5
  8
0
  6
CONTINUOUS
 62
     7
 10
5.0037401277
 20
2.9774790124
 30
0.0
 11
5.0037401277
 21
2.7790415064
 31
0.0
  0
LINE
  5
C6
  8
0
  6
CONTINUOUS
 62
     7
 10
5.0037401277
 20
2.7790415064
 30
0.0
 11
4.9783495014
 21
2.7790415064
 31
0.0
  0
LINE
  5
C7
  8
0
  6
CONTINUOUS
 62
     7
 10
3.7014427479
 20
3.3534338747
 30
0.0
 11
4.9099792645
 21
3.3534338747
 31
0.0
  0
LINE
  5
C8
  8
0
  6
CONTINUOUS
 62
     7
 10
4.0590580046
 20
2.6034338747
 30
0.0
 11
4.9099792645
 21
2.6034338747
 31
0.0
  0
LINE
  5
C9
  8
0
  6
CONTINUOUS
 62
     7
 10
4.7849792645
 20
3.3534338747
 30
0.0
 11
4.7849792645
 21
3.6034338747
 31
0.0
  0
LINE
  5
CA
  8
0
  6
CONTINUOUS
 62
     7
 10
4.7849792645
 20
2.6034338747
 30
0.0
 11
4.7849792645
 21
2.3534338747
 31
0.0
  0
TEXT
  5
CB
  8
0
  6
CONTINUOUS
 62
     7
 10
4.5009948851
 20
3.0489368779
 30
0.0039370079
 40
0.125
  1
 
 41
0.7
 11
4.5009948851
 21
3.0047793702
 31
0.0039370079
 73
     1
  0
TEXT
  5
CC
  8
0
  6
CONTINUOUS
 62
     7
 10
4.6187466273
 20
3.0470271464
 30
0.0039370079
 40
0.125
  1
.75
 41
0.7
 11
4.6187466273
 21
3.0028696387
 31
0.0039370079
 73
     1
  0
TEXT
  5
CD
  8
0
  6
CONTINUOUS
 62
     7
 10
4.6233473196
 20
2.8231990073
 30
0.0039370079
 40
0.125
  1
19.1
 41
0.7
 11
4.6233473196
 21
2.7790414996
 31
0.0039370079
 73
     1
  0
TEXT
  5
CE
  8
0
  6
CONTINUOUS
 62
     7
 10
5.0227830974
 20
3.0489368779
 30
0.0039370079
 40
0.125
  1
 
 41
0.7
 11
5.0227830974
 21
3.0047793702
 31
0.0039370079
 73
     1
  0
ENDBLK
  5
BE
  8
0
  0
BLOCK
  8
0
  2
SW_NOTE_4
 70
     0
 10
0.0
 20
0.0
 30
0.0
  3
SW_NOTE_4
  1

  0
TEXT
  5
D2
  8
0
  6
CONTINUOUS
 62
     0
 10
1.2507946636
 20
1.126980004
 30
0.0
 40
0.125
  1
3/8-16 THREAD
 41
0.7
 11
1.2507946636
 21
1.0828224963
 31
0.0
 73
     1
  0
POLYLINE
  5
D3
  8
0
  6
CONTINUOUS
 62
     0
 66
     1
 10
0.0
 20
0.0
 30
0.0
  0
VERTEX
  5
386
  8
0
  6
CONTINUOUS
 62
     0
 10
1.2310889165
 20
1.1833242459
 30
0.0
  0
VERTEX
  5
387
  8
0
  6
CONTINUOUS
 62
     0
 10
0.9810889165
 20
1.1833242459
 30
0.0
  0
VERTEX
  5
388
  8
0
  6
CONTINUOUS
 62
     0
 10
0.0
 20
0.0
 30
0.0
  0
SEQEND
  5
389
  8
0
  6
CONTINUOUS
 62
     0
  0
SOLID
  5
D4
  8
0
  6
CONTINUOUS
 62
     0
 10
0.0
 20
0.0
 30
0.0
 11
0.0983698874
 21
0.0873118849
 31
0.0
 12
0.0675769561
 22
0.1128421686
 32
0.0
 13
0.0675769561
 23
0.1128421686
 33
0.0
  0
ENDBLK
  5
D1
  8
0
  0
ENDSEC
  0
SECTION
  2
ENTITIES
  0
LINE
  5
44
  8
0
  6
CONTINUOUS
 62
     7
 10
0.391927
 20
8.1300731707
 30
0.0
 11
0.391927
 21
0.4540731707
 31
0.0
  0
LINE
  5
45
  8
0
  6
CONTINUOUS
 62
     7
 10
0.329927
 20
8.1920731707
 30
0.0
 11
0.329927
 21
0.3920731707
 31
0.0
  0
LINE
  5
46
  8
0
  6
CONTINUOUS
 62
     7
 10
10.629927
 20
0.3920731707
 30
0.0
 11
0.329927
 21
0.3920731707
 31
0.0
  0
LINE
  5
47
  8
0
  6
CONTINUOUS
 62
     7
 10
10.629927
 20
0.3920731707
 30
0.0
 11
10.629927
 21
8.1920731707
 31
0.0
  0
LINE
  5
48
  8
0
  6
CONTINUOUS
 62
     7
 10
10.567927
 20
0.4540731707
 30
0.0
 11
0.391927
 21
0.4540731707
 31
0.0
  0
LINE
  5
49
  8
0
  6
CONTINUOUS
 62
     7
 10
10.567927
 20
0.4540731707
 30
0.0
 11
10.567927
 21
8.1300731707
 31
0.0
  0
LINE
  5
4A
  8
0
  6
CONTINUOUS
 62
     7
 10
0.391927
 20
8.1300731707
 30
0.0
 11
10.567927
 21
8.1300731707
 31
0.0
  0
LINE
  5
4B
  8
0
  6
CONTINUOUS
 62
     7
 10
0.391927
 20
7.7240731707
 30
0.0
 11
10.567927
 21
7.7240731707
 31
0.0
  0
LINE
  5
4C
  8
0
  6
CONTINUOUS
 62
     7
 10
0.953927
 20
8.1300731707
 30
0.0
 11
0.953927
 21
7.7240731707
 31
0.0
  0
LINE
  5
4D
  8
0
  6
CONTINUOUS
 62
     7
 10
9.0209161631
 20
8.1300731707
 30
0.0
 11
9.0209161631
 21
7.7240731707
 31
0.0
  0
LINE
  5
4E
  8
0
  6
CONTINUOUS
 62
     7
 10
9.5829161631
 20
8.1300731707
 30
0.0
 11
9.5829161631
 21
7.7240731707
 31
0.0
  0
LINE
  5
4F
  8
0
  6
CONTINUOUS
 62
     7
 10
5.453927
 20
8.1300731707
 30
0.0
 11
5.453927
 21
7.7240731707
 31
0.0
  0
LINE
  5
50
  8
0
  6
CONTINUOUS
 62
     7
 10
6.015927
 20
8.1300731707
 30
0.0
 11
6.015927
 21
7.7240731707
 31
0.0
  0
LINE
  5
51
  8
0
  6
CONTINUOUS
 62
     7
 10
0.329927
 20
8.1920731707
 30
0.0
 11
10.629927
 21
8.1920731707
 31
0.0
  0
INSERT
  5
5C
  8
0
  6
CONTINUOUS
 62
     7
  2
SW_NOTE_0
 10
7.0941937355
 20
6.8113491784
 30
0.0
  0
TEXT
  5
5D
  8
0
  6
CONTINUOUS
 62
     7
 10
7.0941937355
 20
4.9545438092
 30
0.0
 40
0.125
  1
LOAD RATING:  200 LBS. [90 KG.]
 41
0.6322580645
 11
7.0941937355
 21
4.9103863014
 31
0.0
 73
     1
  0
INSERT
  5
63
  8
0
  6
CONTINUOUS
 62
     7
  2
SW_NOTE_1
 10
0.4700130874
 20
7.9140318903
 30
0.0
  0
INSERT
  5
69
  8
0
  6
CONTINUOUS
 62
     7
  2
SW_NOTE_2
 10
5.5393881545
 20
7.9135712069
 30
0.0
  0
INSERT
  5
6F
  8
0
  6
CONTINUOUS
 62
     7
  2
SW_NOTE_3
 10
9.1290491867
 20
7.9199729233
 30
0.0
  0
TEXT
  5
70
  8
0
  6
CONTINUOUS
 62
     7
 10
2.2445673476
 20
7.8597806339
 30
0.0
 40
0.1875
  1
STEM LEVELER
 41
0.7
 11
2.2445673476
 21
7.7935443723
 31
0.0
 73
     1
  0
TEXT
  5
71
  8
0
  6
CONTINUOUS
 62
     7
 10
7.1096099171
 20
7.8503559766
 30
0.0
 40
0.1875
  1
RL-7771
 41
0.7
 11
7.1096099171
 21
7.784119715
 31
0.0
 73
     1
  0
TEXT
  5
72
  8
0
  6
CONTINUOUS
 62
     7
 10
9.634215585
 20
7.8474386566
 30
0.0
 40
0.1875
  1
7-24-13
 41
0.7
 11
9.634215585
 21
7.781202395
 31
0.0
 73
     1
  0
LINE
  5
73
  8
0
  6
CONTINUOUS
 62
     7
 10
4.1550579719
 20
2.7824338719
 30
0.0
 11
4.1550579719
 21
2.9694338566
 31
0.0
  0
LINE
  5
74
  8
0
  6
CONTINUOUS
 62
     7
 10
2.5300580374
 20
2.9694338566
 30
0.0
 11
2.5300580374
 21
2.7824338719
 31
0.0
  0
ARC
  5
75
  8
0
  6
CONTINUOUS
 62
     7
 10
4.0920580046
 20
2.9694338747
 30
0.0
 40
0.0630000000000006
 50
0.0
 51
90.0
  0
ARC
  5
76
  8
0
  6
CONTINUOUS
 62
     7
 10
2.5930580046
 20
2.9694338747
 30
0.0
 40
0.0629999999999997
 50
90.0
 51
180.0
  0
LINE
  5
77
  8
0
  6
CONTINUOUS
 62
     7
 10
4.1340580412
 20
2.7284338732
 30
0.0
 11
4.1340580412
 21
2.7824338719
 31
0.0
  0
LINE
  5
78
  8
0
  6
CONTINUOUS
 62
     7
 10
2.5510579681
 20
2.7824338719
 30
0.0
 11
2.5510579681
 21
2.7284338732
 31
0.0
  0
ARC
  5
79
  8
0
  6
CONTINUOUS
 62
     7
 10
4.0090580046
 20
2.7284338747
 30
0.0
 40
0.125
 50
270.0
 51
0.0
  0
ARC
  5
7A
  8
0
  6
CONTINUOUS
 62
     7
 10
2.6760580046
 20
2.7284338747
 30
0.0
 40
0.125
 50
180.0
 51
270.0
  0
LINE
  5
7B
  8
0
  6
CONTINUOUS
 62
     7
 10
3.7090580041
 20
3.0324338689
 30
0.0
 11
3.7090580041
 21
3.1174338836
 31
0.0
  0
LINE
  5
7C
  8
0
  6
CONTINUOUS
 62
     7
 10
2.9760580051
 20
3.1174338836
 30
0.0
 11
2.9760580051
 21
3.0324338689
 31
0.0
  0
LINE
  5
7D
  8
0
  6
CONTINUOUS
 62
     7
 10
3.7034019061
 20
3.3234352505
 30
0.0
 11
3.6514427597
 21
3.353433884
 31
0.0
  0
LINE
  5
7E
  8
0
  6
CONTINUOUS
 62
     7
 10
3.0336732496
 20
3.353433884
 30
0.0
 11
2.9817141031
 21
3.3234352505
 31
0.0
  0
LINE
  5
7F
  8
0
  6
CONTINUOUS
 62
     7
 10
3.530058007
 20
5.2934337329
 30
0.0
 11
3.4700580084
 21
5.3534337865
 31
0.0
  0
LINE
  5
80
  8
0
  6
CONTINUOUS
 62
     7
 10
3.2150580009
 20
5.3534337865
 30
0.0
 11
3.1550580023
 21
5.2934337329
 31
0.0
  0
LINE
  5
81
  8
0
  6
CONTINUOUS
 62
     7
 10
3.530058007
 20
3.353433884
 30
0.0
 11
3.530058007
 21
5.2934337329
 31
0.0
  0
LINE
  5
82
  8
0
  6
CONTINUOUS
 62
     7
 10
3.1550580023
 20
5.2934337329
 30
0.0
 11
3.1550580023
 21
3.353433884
 31
0.0
  0
LINE
  5
83
  8
0
  6
CONTINUOUS
 62
     7
 10
4.1550579719
 20
2.7824338719
 30
0.0
 11
2.5300580374
 21
2.7824338719
 31
0.0
  0
LINE
  5
84
  8
0
  6
CONTINUOUS
 62
     7
 10
4.092058033
 20
3.0324338689
 30
0.0
 11
2.5930579763
 21
3.0324338689
 31
0.0
  0
LINE
  5
85
  8
0
  6
CONTINUOUS
 62
     7
 10
4.0090579785
 20
2.6034338747
 30
0.0
 11
2.6760580308
 21
2.6034338747
 31
0.0
  0
LINE
  5
86
  8
0
  6
CONTINUOUS
 62
     7
 10
3.7090580041
 20
3.1174338836
 30
0.0
 11
2.9760580051
 21
3.1174338836
 31
0.0
  0
ARC
  5
87
  8
0
  6
CONTINUOUS
 62
     7
 10
3.3425580046
 20
2.741287487
 30
0.0
 40
0.609465420607505
 50
72.7805018205
 51
107.2194981795
  0
ARC
  5
88
  8
0
  6
CONTINUOUS
 62
     7
 10
3.0719250785
 20
3.1871458542
 30
0.0
 40
0.1634405690680989
 50
56.4991254061
 51
123.5008745939
  0
ARC
  5
89
  8
0
  6
CONTINUOUS
 62
     7
 10
3.6131909308
 20
3.1871458737
 30
0.0
 40
0.1634405528717786
 50
56.4991216479
 51
123.5008783521
  0
LINE
  5
8A
  8
0
  6
CONTINUOUS
 62
     7
 10
3.6514427597
 20
3.353433884
 30
0.0
 11
3.0336732496
 21
3.353433884
 31
0.0
  0
LINE
  5
8B
  8
0
  6
CONTINUOUS
 62
     7
 10
3.1621360539
 20
3.1174338836
 30
0.0
 11
3.1621360539
 21
3.3234352505
 31
0.0
  0
LINE
  5
8C
  8
0
  6
CONTINUOUS
 62
     7
 10
2.9817141031
 20
3.1174338836
 30
0.0
 11
2.9817141031
 21
3.3234352505
 31
0.0
  0
LINE
  5
8D
  8
0
  6
CONTINUOUS
 62
     7
 10
3.5229799554
 20
3.1174338836
 30
0.0
 11
3.5229799554
 21
3.3234352505
 31
0.0
  0
LINE
  5
8E
  8
0
  6
CONTINUOUS
 62
     7
 10
3.7034019061
 20
3.1174338836
 30
0.0
 11
3.7034019061
 21
3.3234352505
 31
0.0
  0
LINE
  5
8F
  8
0
  6
CONTINUOUS
 62
     7
 10
3.530058007
 20
5.2934337329
 30
0.0
 11
3.1550580023
 21
5.2934337329
 31
0.0
  0
LINE
  5
90
  8
0
  6
CONTINUOUS
 62
     7
 10
3.4700580084
 20
5.3534337865
 30
0.0
 11
3.2150580009
 21
5.3534337865
 31
0.0
  0
DIMENSION
  5
91
  8
0
  6
CONTINUOUS
 62
     7
  2
*D5
 10
4.1550580046
 20
2.078019404
 30
0.0
 11
3.3425580046
 21
2.078019404
 31
0.0
 70
   160
  1
%%c<>
  3
SLDDIMSTYLE0
 13
2.5300580046
 23
2.7824338747
 33
0.0
 14
4.1550580046
 24
2.7824338747
 34
0.0
  0
DIMENSION
  5
A5
  8
0
  6
CONTINUOUS
 62
     7
  2
*D6
 10
4.7849792645
 20
3.3534338747
 30
0.0
 11
4.7849792645
 21
4.3534338747
 31
0.0
 70
   160
  3
SLDDIMSTYLE1
 13
3.4700580046
 23
5.3534338747
 33
0.0
 14
3.6514427479
 24
3.3534338747
 34
0.0
 50
90.0
  0
DIMENSION
  5
BA
  8
0
  6
CONTINUOUS
 62
     7
  2
*D7
 10
4.7849792645
 20
2.6034338747
 30
0.0
 11
4.7849792645
 21
2.9784338747
 31
0.0
 70
   160
  3
SLDDIMSTYLE2
 13
3.6514427479
 23
3.3534338747
 33
0.0
 14
4.0090580046
 24
2.6034338747
 34
0.0
 50
90.0
  0
INSERT
  5
D5
  8
0
  6
CONTINUOUS
 62
     7
  2
SW_NOTE_4
 10
3.5300580046
 20
4.8434222738
 30
0.0
  0
LINE
  5
D6
  8
0
  6
CONTINUOUS
 62
     7
 10
8.5846284299
 20
3.9820982214
 30
0.0
 11
8.5421951233
 21
4.0066024474
 31
0.0
  0
LINE
  5
D7
  8
0
  6
CONTINUOUS
 62
     7
 10
8.3618536006
 20
4.0066024474
 30
0.0
 11
8.319420294
 21
3.9820982214
 31
0.0
  0
LINE
  5
D8
  8
0
  6
CONTINUOUS
 62
     7
 10
8.6395243635
 20
2.3214833458
 30
0.0
 11
8.6395243635
 21
3.9055723976
 31
0.0
  0
LINE
  5
D9
  8
0
  6
CONTINUOUS
 62
     7
 10
8.2645243604
 20
3.9055723976
 30
0.0
 11
8.2645243604
 21
2.3214833458
 31
0.0
  0
POLYLINE
  5
DA
  8
0
  6
CONTINUOUS
 62
     7
 66
     1
 10
0.0
 20
0.0
 30
0.0
  0
VERTEX
  5
FB
  8
0
  6
CONTINUOUS
 62
     7
 10
9.2642708506
 20
2.0085393528
 30
0.0
  0
VERTEX
  5
FC
  8
0
  6
CONTINUOUS
 62
     7
 10
9.2643676878
 20
2.0178308569
 30
0.0
  0
VERTEX
  5
FD
  8
0
  6
CONTINUOUS
 62
     7
 10
9.262435067
 20
2.0440556339
 30
0.0
  0
VERTEX
  5
FE
  8
0
  6
CONTINUOUS
 62
     7
 10
9.2583138229
 20
2.0701176293
 30
0.0
  0
VERTEX
  5
FF
  8
0
  6
CONTINUOUS
 62
     7
 10
9.2520194338
 20
2.0959652141
 30
0.0
  0
VERTEX
  5
100
  8
0
  6
CONTINUOUS
 62
     7
 10
9.2435627371
 20
2.1215507268
 30
0.0
  0
VERTEX
  5
101
  8
0
  6
CONTINUOUS
 62
     7
 10
9.2329518739
 20
2.1468242619
 30
0.0
  0
VERTEX
  5
102
  8
0
  6
CONTINUOUS
 62
     7
 10
9.2201949074
 20
2.171730871
 30
0.0
  0
VERTEX
  5
103
  8
0
  6
CONTINUOUS
 62
     7
 10
9.2053043346
 20
2.1962089165
 30
0.0
  0
VERTEX
  5
104
  8
0
  6
CONTINUOUS
 62
     7
 10
9.1883010913
 20
2.2201897349
 30
0.0
  0
VERTEX
  5
105
  8
0
  6
CONTINUOUS
 62
     7
 10
9.1692180142
 20
2.2435987515
 30
0.0
  0
VERTEX
  5
106
  8
0
  6
CONTINUOUS
 62
     7
 10
9.1481019401
 20
2.2663580101
 30
0.0
  0
VERTEX
  5
107
  8
0
  6
CONTINUOUS
 62
     7
 10
9.1250140048
 20
2.2883896223
 30
0.0
  0
VERTEX
  5
108
  8
0
  6
CONTINUOUS
 62
     7
 10
9.1000278215
 20
2.309618675
 30
0.0
  0
VERTEX
  5
109
  8
0
  6
CONTINUOUS
 62
     7
 10
9.0732272185
 20
2.3299758834
 30
0.0
  0
VERTEX
  5
10A
  8
0
  6
CONTINUOUS
 62
     7
 10
9.0447031344
 20
2.3493989035
 30
0.0
  0
VERTEX
  5
10B
  8
0
  6
CONTINUOUS
 62
     7
 10
9.0134983205
 20
2.3684416686
 30
0.0
  0
VERTEX
  5
10C
  8
0
  6
CONTINUOUS
 62
     7
 10
8.9968133452
 20
2.3778027532
 30
0.0
  0
VERTEX
  5
10D
  8
0
  6
CONTINUOUS
 62
     7
 10
8.9643050198
 20
2.3945966475
 30
0.0
  0
VERTEX
  5
10E
  8
0
  6
CONTINUOUS
 62
     7
 10
8.9304357517
 20
2.4102843117
 30
0.0
  0
VERTEX
  5
10F
  8
0
  6
CONTINUOUS
 62
     7
 10
8.8952967048
 20
2.4248372774
 30
0.0
  0
VERTEX
  5
110
  8
0
  6
CONTINUOUS
 62
     7
 10
8.8589880413
 20
2.4382263712
 30
0.0
  0
VERTEX
  5
111
  8
0
  6
CONTINUOUS
 62
     7
 10
8.8216104032
 20
2.4504254055
 30
0.0
  0
VERTEX
  5
112
  8
0
  6
CONTINUOUS
 62
     7
 10
8.7832655473
 20
2.4614110213
 30
0.0
  0
VERTEX
  5
113
  8
0
  6
CONTINUOUS
 62
     7
 10
8.7440564166
 20
2.4711623179
 30
0.0
  0
VERTEX
  5
114
  8
0
  6
CONTINUOUS
 62
     7
 10
8.7040868614
 20
2.479660804
 30
0.0
  0
VERTEX
  5
115
  8
0
  6
CONTINUOUS
 62
     7
 10
8.66346221
 20
2.4868903083
 30
0.0
  0
VERTEX
  5
116
  8
0
  6
CONTINUOUS
 62
     7
 10
8.6395243246
 20
2.4903477451
 30
0.0
  0
SEQEND
  5
117
  8
0
  6
CONTINUOUS
 62
     7
  0
POLYLINE
  5
DB
  8
0
  6
CONTINUOUS
 62
     7
 66
     1
 10
0.0
 20
0.0
 30
0.0
  0
VERTEX
  5
118
  8
0
  6
CONTINUOUS
 62
     7
 10
8.2645243734
 20
2.4903437788
 30
0.0
  0
VERTEX
  5
119
  8
0
  6
CONTINUOUS
 62
     7
 10
8.244954427
 20
2.4875860225
 30
0.0
  0
VERTEX
  5
11A
  8
0
  6
CONTINUOUS
 62
     7
 10
8.2042781032
 20
2.4804950116
 30
0.0
  0
VERTEX
  5
11B
  8
0
  6
CONTINUOUS
 62
     7
 10
8.1642459085
 20
2.4721344053
 30
0.0
  0
VERTEX
  5
11C
  8
0
  6
CONTINUOUS
 62
     7
 10
8.1249618359
 20
2.4625197239
 30
0.0
  0
VERTEX
  5
11D
  8
0
  6
CONTINUOUS
 62
     7
 10
8.0865282191
 20
2.4516687327
 30
0.0
  0
VERTEX
  5
11E
  8
0
  6
CONTINUOUS
 62
     7
 10
8.0490457973
 20
2.4396009106
 30
0.0
  0
VERTEX
  5
11F
  8
0
  6
CONTINUOUS
 62
     7
 10
8.0126135465
 20
2.4263378317
 30
0.0
  0
VERTEX
  5
120
  8
0
  6
CONTINUOUS
 62
     7
 10
7.9773289911
 20
2.4119027464
 30
0.0
  0
VERTEX
  5
121
  8
0
  6
CONTINUOUS
 62
     7
 10
7.9432883393
 20
2.396320839
 30
0.0
  0
VERTEX
  5
122
  8
0
  6
CONTINUOUS
 62
     7
 10
7.9105865163
 20
2.3796195465
 30
0.0
  0
VERTEX
  5
123
  8
0
  6
CONTINUOUS
 62
     7
 10
7.8793179472
 20
2.361828711
 30
0.0
  0
VERTEX
  5
124
  8
0
  6
CONTINUOUS
 62
     7
 10
7.8495764155
 20
2.3429814259
 30
0.0
  0
VERTEX
  5
125
  8
0
  6
CONTINUOUS
 62
     7
 10
7.8214575405
 20
2.323116185
 30
0.0
  0
VERTEX
  5
126
  8
0
  6
CONTINUOUS
 62
     7
 10
7.7950594015
 20
2.3022796969
 30
0.0
  0
VERTEX
  5
127
  8
0
  6
CONTINUOUS
 62
     7
 10
7.7704760776
 20
2.2805241443
 30
0.0
  0
VERTEX
  5
128
  8
0
  6
CONTINUOUS
 62
     7
 10
7.747799603
 20
2.2579107967
 30
0.0
  0
VERTEX
  5
129
  8
0
  6
CONTINUOUS
 62
     7
 10
7.727117935
 20
2.2345112032
 30
0.0
  0
VERTEX
  5
12A
  8
0
  6
CONTINUOUS
 62
     7
 10
7.7085118489
 20
2.210407525
 30
0.0
  0
VERTEX
  5
12B
  8
0
  6
CONTINUOUS
 62
     7
 10
7.6920512437
 20
2.1856916011
 30
0.0
  0
VERTEX
  5
12C
  8
0
  6
CONTINUOUS
 62
     7
 10
7.6777915254
 20
2.1604622912
 30
0.0
  0
VERTEX
  5
12D
  8
0
  6
CONTINUOUS
 62
     7
 10
7.665771714
 20
2.1348215996
 30
0.0
  0
VERTEX
  5
12E
  8
0
  6
CONTINUOUS
 62
     7
 10
7.6560132511
 20
2.1088704547
 30
0.0
  0
VERTEX
  5
12F
  8
0
  6
CONTINUOUS
 62
     7
 10
7.6485221258
 20
2.0827041584
 30
0.0
  0
VERTEX
  5
130
  8
0
  6
CONTINUOUS
 62
     7
 10
7.6432918046
 20
2.0564099465
 30
0.0
  0
VERTEX
  5
131
  8
0
  6
CONTINUOUS
 62
     7
 10
7.6403079498
 20
2.0300652521
 30
0.0
  0
VERTEX
  5
132
  8
0
  6
CONTINUOUS
 62
     7
 10
7.6397182154
 20
2.0095136709
 30
0.0
  0
SEQEND
  5
133
  8
0
  6
CONTINUOUS
 62
     7
  0
LINE
  5
DC
  8
0
  6
CONTINUOUS
 62
     7
 10
9.2645243384
 20
1.8552385324
 30
0.0
 11
9.2645243384
 21
2.0079316518
 31
0.0
  0
LINE
  5
DD
  8
0
  6
CONTINUOUS
 62
     7
 10
7.6395243855
 20
2.0079316518
 30
0.0
 11
7.6395243855
 21
1.8552385324
 31
0.0
  0
POLYLINE
  5
DE
  8
0
  6
CONTINUOUS
 62
     7
 66
     1
 10
0.0
 20
0.0
 30
0.0
  0
VERTEX
  5
134
  8
0
  6
CONTINUOUS
 62
     7
 10
7.6706452804
 20
1.7288133294
 30
0.0
  0
VERTEX
  5
135
  8
0
  6
CONTINUOUS
 62
     7
 10
7.6739579148
 20
1.7151071665
 30
0.0
  0
VERTEX
  5
136
  8
0
  6
CONTINUOUS
 62
     7
 10
7.6826398908
 20
1.6883605195
 30
0.0
  0
VERTEX
  5
137
  8
0
  6
CONTINUOUS
 62
     7
 10
7.6934485507
 20
1.6619950399
 30
0.0
  0
VERTEX
  5
138
  8
0
  6
CONTINUOUS
 62
     7
 10
7.7063782165
 20
1.6360597065
 30
0.0
  0
VERTEX
  5
139
  8
0
  6
CONTINUOUS
 62
     7
 10
7.7214253103
 20
1.6106074147
 30
0.0
  0
VERTEX
  5
13A
  8
0
  6
CONTINUOUS
 62
     7
 10
7.7385836097
 20
1.585697494
 30
0.0
  0
VERTEX
  5
13B
  8
0
  6
CONTINUOUS
 62
     7
 10
7.7578389715
 20
1.5613979651
 30
0.0
  0
VERTEX
  5
13C
  8
0
  6
CONTINUOUS
 62
     7
 10
7.7791635371
 20
1.5377857153
 30
0.0
  0
VERTEX
  5
13D
  8
0
  6
CONTINUOUS
 62
     7
 10
7.8025108715
 20
1.5149447402
 30
0.0
  0
VERTEX
  5
13E
  8
0
  6
CONTINUOUS
 62
     7
 10
7.8278138043
 20
1.4929624506
 30
0.0
  0
VERTEX
  5
13F
  8
0
  6
CONTINUOUS
 62
     7
 10
7.8549850915
 20
1.4719248194
 30
0.0
  0
VERTEX
  5
140
  8
0
  6
CONTINUOUS
 62
     7
 10
7.8839209343
 20
1.4519115139
 30
0.0
  0
VERTEX
  5
141
  8
0
  6
CONTINUOUS
 62
     7
 10
7.9145064818
 20
1.4329924784
 30
0.0
  0
VERTEX
  5
142
  8
0
  6
CONTINUOUS
 62
     7
 10
7.9466210736
 20
1.415226109
 30
0.0
  0
VERTEX
  5
143
  8
0
  6
CONTINUOUS
 62
     7
 10
7.9801393686
 20
1.3986608917
 30
0.0
  0
VERTEX
  5
144
  8
0
  6
CONTINUOUS
 62
     7
 10
8.0149343974
 20
1.3833358716
 30
0.0
  0
VERTEX
  5
145
  8
0
  6
CONTINUOUS
 62
     7
 10
8.0508917572
 20
1.3692770822
 30
0.0
  0
VERTEX
  5
146
  8
0
  6
CONTINUOUS
 62
     7
 10
8.0879004159
 20
1.3565048926
 30
0.0
  0
VERTEX
  5
147
  8
0
  6
CONTINUOUS
 62
     7
 10
8.1258520247
 20
1.345035528
 30
0.0
  0
VERTEX
  5
148
  8
0
  6
CONTINUOUS
 62
     7
 10
8.1646403352
 20
1.334882247
 30
0.0
  0
VERTEX
  5
149
  8
0
  6
CONTINUOUS
 62
     7
 10
8.204160343
 20
1.3260560482
 30
0.0
  0
VERTEX
  5
14A
  8
0
  6
CONTINUOUS
 62
     7
 10
8.2443079385
 20
1.3185662078
 30
0.0
  0
VERTEX
  5
14B
  8
0
  6
CONTINUOUS
 62
     7
 10
8.2849790769
 20
1.3124204531
 30
0.0
  0
VERTEX
  5
14C
  8
0
  6
CONTINUOUS
 62
     7
 10
8.3260697393
 20
1.3076250991
 30
0.0
  0
VERTEX
  5
14D
  8
0
  6
CONTINUOUS
 62
     7
 10
8.3674758549
 20
1.3041850468
 30
0.0
  0
VERTEX
  5
14E
  8
0
  6
CONTINUOUS
 62
     7
 10
8.4090930158
 20
1.3021038633
 30
0.0
  0
VERTEX
  5
14F
  8
0
  6
CONTINUOUS
 62
     7
 10
8.4508168661
 20
1.3013836343
 30
0.0
  0
VERTEX
  5
150
  8
0
  6
CONTINUOUS
 62
     7
 10
8.4925429203
 20
1.3020250614
 30
0.0
  0
VERTEX
  5
151
  8
0
  6
CONTINUOUS
 62
     7
 10
8.5341649555
 20
1.3040272672
 30
0.0
  0
VERTEX
  5
152
  8
0
  6
CONTINUOUS
 62
     7
 10
8.5755769046
 20
1.307387715
 30
0.0
  0
VERTEX
  5
153
  8
0
  6
CONTINUOUS
 62
     7
 10
8.6166755266
 20
1.3121025851
 30
0.0
  0
VERTEX
  5
154
  8
0
  6
CONTINUOUS
 62
     7
 10
8.6573583321
 20
1.3181668437
 30
0.0
  0
VERTEX
  5
155
  8
0
  6
CONTINUOUS
 62
     7
 10
8.6975236358
 20
1.3255744656
 30
0.0
  0
VERTEX
  5
156
  8
0
  6
CONTINUOUS
 62
     7
 10
8.7370706854
 20
1.3343184702
 30
0.0
  0
VERTEX
  5
157
  8
0
  6
CONTINUOUS
 62
     7
 10
8.7758994548
 20
1.3443911921
 30
0.0
  0
VERTEX
  5
158
  8
0
  6
CONTINUOUS
 62
     7
 10
8.8139106049
 20
1.355784265
 30
0.0
  0
VERTEX
  5
159
  8
0
  6
CONTINUOUS
 62
     7
 10
8.8510048096
 20
1.3684887953
 30
0.0
  0
VERTEX
  5
15A
  8
0
  6
CONTINUOUS
 62
     7
 10
8.8870823408
 20
1.3824950967
 30
0.0
  0
VERTEX
  5
15B
  8
0
  6
CONTINUOUS
 62
     7
 10
8.9220423816
 20
1.3977922782
 30
0.0
  0
VERTEX
  5
15C
  8
0
  6
CONTINUOUS
 62
     7
 10
8.955781545
 20
1.4143676388
 30
0.0
  0
VERTEX
  5
15D
  8
0
  6
CONTINUOUS
 62
     7
 10
8.9881931041
 20
1.4322051538
 30
0.0
  0
VERTEX
  5
15E
  8
0
  6
CONTINUOUS
 62
     7
 10
9.0191658317
 20
1.451283509
 30
0.0
  0
VERTEX
  5
15F
  8
0
  6
CONTINUOUS
 62
     7
 10
9.0485749095
 20
1.4715676059
 30
0.0
  0
VERTEX
  5
160
  8
0
  6
CONTINUOUS
 62
     7
 10
9.0762933719
 20
1.4930103807
 30
0.0
  0
VERTEX
  5
161
  8
0
  6
CONTINUOUS
 62
     7
 10
9.1021956191
 20
1.5155517915
 30
0.0
  0
VERTEX
  5
162
  8
0
  6
CONTINUOUS
 62
     7
 10
9.1261582518
 20
1.539114484
 30
0.0
  0
VERTEX
  5
163
  8
0
  6
CONTINUOUS
 62
     7
 10
9.1480661609
 20
1.5636036242
 30
0.0
  0
VERTEX
  5
164
  8
0
  6
CONTINUOUS
 62
     7
 10
9.1678195275
 20
1.5889094505
 30
0.0
  0
VERTEX
  5
165
  8
0
  6
CONTINUOUS
 62
     7
 10
9.1853397282
 20
1.6149124142
 30
0.0
  0
VERTEX
  5
166
  8
0
  6
CONTINUOUS
 62
     7
 10
9.2005728479
 20
1.6414895254
 30
0.0
  0
VERTEX
  5
167
  8
0
  6
CONTINUOUS
 62
     7
 10
9.2134894724
 20
1.6685204225
 30
0.0
  0
VERTEX
  5
168
  8
0
  6
CONTINUOUS
 62
     7
 10
9.2240814349
 20
1.6958917581
 30
0.0
  0
VERTEX
  5
169
  8
0
  6
CONTINUOUS
 62
     7
 10
9.2323568244
 20
1.7234994103
 30
0.0
  0
VERTEX
  5
16A
  8
0
  6
CONTINUOUS
 62
     7
 10
9.2336887177
 20
1.7296821685
 30
0.0
  0
SEQEND
  5
16B
  8
0
  6
CONTINUOUS
 62
     7
  0
LINE
  5
DF
  8
0
  6
CONTINUOUS
 62
     7
 10
8.8185243703
 20
2.0593737329
 30
0.0
 11
8.8185243703
 21
2.1287797139
 31
0.0
  0
LINE
  5
E0
  8
0
  6
CONTINUOUS
 62
     7
 10
8.0855243536
 20
2.1287797139
 30
0.0
 11
8.0855243536
 21
2.0593737329
 31
0.0
  0
POLYLINE
  5
E1
  8
0
  6
CONTINUOUS
 62
     7
 66
     1
 10
0.0
 20
0.0
 30
0.0
  0
VERTEX
  5
16C
  8
0
  6
CONTINUOUS
 62
     7
 10
8.5846068851
 20
3.982110659
 30
0.0
  0
VERTEX
  5
16D
  8
0
  6
CONTINUOUS
 62
     7
 10
8.5991023004
 20
3.9727075845
 30
0.0
  0
VERTEX
  5
16E
  8
0
  6
CONTINUOUS
 62
     7
 10
8.6116087363
 20
3.9623966193
 30
0.0
  0
VERTEX
  5
16F
  8
0
  6
CONTINUOUS
 62
     7
 10
8.6219570762
 20
3.9513172109
 30
0.0
  0
VERTEX
  5
170
  8
0
  6
CONTINUOUS
 62
     7
 10
8.6300073518
 20
3.9396191755
 30
0.0
  0
VERTEX
  5
171
  8
0
  6
CONTINUOUS
 62
     7
 10
8.6356507217
 20
3.9274607177
 30
0.0
  0
VERTEX
  5
172
  8
0
  6
CONTINUOUS
 62
     7
 10
8.6388108668
 20
3.9150062626
 30
0.0
  0
VERTEX
  5
173
  8
0
  6
CONTINUOUS
 62
     7
 10
8.63944504
 20
3.9024242262
 30
0.0
  0
VERTEX
  5
174
  8
0
  6
CONTINUOUS
 62
     7
 10
8.6375446724
 20
3.8898847642
 30
0.0
  0
VERTEX
  5
175
  8
0
  6
CONTINUOUS
 62
     7
 10
8.6331354512
 20
3.8775574527
 30
0.0
  0
VERTEX
  5
176
  8
0
  6
CONTINUOUS
 62
     7
 10
8.6262770212
 20
3.8656089899
 30
0.0
  0
VERTEX
  5
177
  8
0
  6
CONTINUOUS
 62
     7
 10
8.6170621201
 20
3.8542009686
 30
0.0
  0
VERTEX
  5
178
  8
0
  6
CONTINUOUS
 62
     7
 10
8.605615372
 20
3.8434876531
 30
0.0
  0
VERTEX
  5
179
  8
0
  6
CONTINUOUS
 62
     7
 10
8.5920915659
 20
3.8336139297
 30
0.0
  0
VERTEX
  5
17A
  8
0
  6
CONTINUOUS
 62
     7
 10
8.5766735903
 20
3.8247133219
 30
0.0
  0
VERTEX
  5
17B
  8
0
  6
CONTINUOUS
 62
     7
 10
8.5595699465
 20
3.8169061948
 30
0.0
  0
VERTEX
  5
17C
  8
0
  6
CONTINUOUS
 62
     7
 10
8.5410119289
 20
3.8102981278
 30
0.0
  0
VERTEX
  5
17D
  8
0
  6
CONTINUOUS
 62
     7
 10
8.5212505153
 20
3.8049784786
 30
0.0
  0
VERTEX
  5
17E
  8
0
  6
CONTINUOUS
 62
     7
 10
8.5005529281
 20
3.8010191912
 30
0.0
  0
VERTEX
  5
17F
  8
0
  6
CONTINUOUS
 62
     7
 10
8.4791990844
 20
3.798473802
 30
0.0
  0
VERTEX
  5
180
  8
0
  6
CONTINUOUS
 62
     7
 10
8.4574777457
 20
3.7973767431
 30
0.0
  0
VERTEX
  5
181
  8
0
  6
CONTINUOUS
 62
     7
 10
8.4356826578
 20
3.7977428435
 30
0.0
  0
VERTEX
  5
182
  8
0
  6
CONTINUOUS
 62
     7
 10
8.4141085712
 20
3.7995671565
 30
0.0
  0
VERTEX
  5
183
  8
0
  6
CONTINUOUS
 62
     7
 10
8.3930472224
 20
3.8028250046
 30
0.0
  0
VERTEX
  5
184
  8
0
  6
CONTINUOUS
 62
     7
 10
8.3727834352
 20
3.8074723297
 30
0.0
  0
VERTEX
  5
185
  8
0
  6
CONTINUOUS
 62
     7
 10
8.3535912574
 20
3.8134462992
 30
0.0
  0
VERTEX
  5
186
  8
0
  6
CONTINUOUS
 62
     7
 10
8.3357302064
 20
3.820666111
 30
0.0
  0
VERTEX
  5
187
  8
0
  6
CONTINUOUS
 62
     7
 10
8.3194418388
 20
3.8290341361
 30
0.0
  0
VERTEX
  5
188
  8
0
  6
CONTINUOUS
 62
     7
 10
8.3049464235
 20
3.8384372106
 30
0.0
  0
VERTEX
  5
189
  8
0
  6
CONTINUOUS
 62
     7
 10
8.2924399876
 20
3.8487481758
 30
0.0
  0
VERTEX
  5
18A
  8
0
  6
CONTINUOUS
 62
     7
 10
8.2820916477
 20
3.8598275842
 30
0.0
  0
VERTEX
  5
18B
  8
0
  6
CONTINUOUS
 62
     7
 10
8.2740413721
 20
3.8715256196
 30
0.0
  0
VERTEX
  5
18C
  8
0
  6
CONTINUOUS
 62
     7
 10
8.2683980022
 20
3.8836840775
 30
0.0
  0
VERTEX
  5
18D
  8
0
  6
CONTINUOUS
 62
     7
 10
8.2652378571
 20
3.8961385326
 30
0.0
  0
VERTEX
  5
18E
  8
0
  6
CONTINUOUS
 62
     7
 10
8.2646036839
 20
3.908720569
 30
0.0
  0
VERTEX
  5
18F
  8
0
  6
CONTINUOUS
 62
     7
 10
8.2665040515
 20
3.9212600309
 30
0.0
  0
VERTEX
  5
190
  8
0
  6
CONTINUOUS
 62
     7
 10
8.2709132727
 20
3.9335873425
 30
0.0
  0
VERTEX
  5
191
  8
0
  6
CONTINUOUS
 62
     7
 10
8.2777717027
 20
3.9455358052
 30
0.0
  0
VERTEX
  5
192
  8
0
  6
CONTINUOUS
 62
     7
 10
8.2869866038
 20
3.9569438265
 30
0.0
  0
VERTEX
  5
193
  8
0
  6
CONTINUOUS
 62
     7
 10
8.2984333519
 20
3.967657142
 30
0.0
  0
VERTEX
  5
194
  8
0
  6
CONTINUOUS
 62
     7
 10
8.311957158
 20
3.9775308654
 30
0.0
  0
VERTEX
  5
195
  8
0
  6
CONTINUOUS
 62
     7
 10
8.319420294
 20
3.9820982214
 30
0.0
  0
SEQEND
  5
196
  8
0
  6
CONTINUOUS
 62
     7
  0
POLYLINE
  5
E2
  8
0
  6
CONTINUOUS
 62
     7
 66
     1
 10
0.0
 20
0.0
 30
0.0
  0
VERTEX
  5
197
  8
0
  6
CONTINUOUS
 62
     7
 10
8.5421804792
 20
4.0066109087
 30
0.0
  0
VERTEX
  5
198
  8
0
  6
CONTINUOUS
 62
     7
 10
8.553850391
 20
3.9988609946
 30
0.0
  0
VERTEX
  5
199
  8
0
  6
CONTINUOUS
 62
     7
 10
8.5635383756
 20
3.9902489073
 30
0.0
  0
VERTEX
  5
19A
  8
0
  6
CONTINUOUS
 62
     7
 10
8.5710558702
 20
3.980942271
 30
0.0
  0
VERTEX
  5
19B
  8
0
  6
CONTINUOUS
 62
     7
 10
8.5762565439
 20
3.9711222269
 30
0.0
  0
VERTEX
  5
19C
  8
0
  6
CONTINUOUS
 62
     7
 10
8.5790391894
 20
3.9609799161
 30
0.0
  0
VERTEX
  5
19D
  8
0
  6
CONTINUOUS
 62
     7
 10
8.5793496257
 20
3.9507127462
 30
0.0
  0
VERTEX
  5
19E
  8
0
  6
CONTINUOUS
 62
     7
 10
8.5771818281
 20
3.9405205512
 30
0.0
  0
VERTEX
  5
19F
  8
0
  6
CONTINUOUS
 62
     7
 10
8.572577983
 20
3.9306017098
 30
0.0
  0
VERTEX
  5
1A0
  8
0
  6
CONTINUOUS
 62
     7
 10
8.5656276907
 20
3.9211492909
 30
0.0
  0
VERTEX
  5
1A1
  8
0
  6
CONTINUOUS
 62
     7
 10
8.5564662493
 20
3.9123472643
 30
0.0
  0
VERTEX
  5
1A2
  8
0
  6
CONTINUOUS
 62
     7
 10
8.545271956
 20
3.9043669594
 30
0.0
  0
VERTEX
  5
1A3
  8
0
  6
CONTINUOUS
 62
     7
 10
8.5322627098
 20
3.8973636969
 30
0.0
  0
VERTEX
  5
1A4
  8
0
  6
CONTINUOUS
 62
     7
 10
8.5176917142
 20
3.8914737923
 30
0.0
  0
VERTEX
  5
1A5
  8
0
  6
CONTINUOUS
 62
     7
 10
8.5018425831
 20
3.8868118796
 30
0.0
  0
VERTEX
  5
1A6
  8
0
  6
CONTINUOUS
 62
     7
 10
8.4850237874
 20
3.8834687085
 30
0.0
  0
VERTEX
  5
1A7
  8
0
  6
CONTINUOUS
 62
     7
 10
8.4675627067
 20
3.8815093418
 30
0.0
  0
VERTEX
  5
1A8
  8
0
  6
CONTINUOUS
 62
     7
 10
8.4497991815
 20
3.8809719181
 30
0.0
  0
VERTEX
  5
1A9
  8
0
  6
CONTINUOUS
 62
     7
 10
8.4320789674
 20
3.8818668959
 30
0.0
  0
VERTEX
  5
1AA
  8
0
  6
CONTINUOUS
 62
     7
 10
8.4147469704
 20
3.8841768605
 30
0.0
  0
VERTEX
  5
1AB
  8
0
  6
CONTINUOUS
 62
     7
 10
8.3981405326
 20
3.8878568467
 30
0.0
  0
VERTEX
  5
1AC
  8
0
  6
CONTINUOUS
 62
     7
 10
8.3825828853
 20
3.8928352281
 30
0.0
  0
VERTEX
  5
1AD
  8
0
  6
CONTINUOUS
 62
     7
 10
8.3683768378
 20
3.8990151092
 30
0.0
  0
VERTEX
  5
1AE
  8
0
  6
CONTINUOUS
 62
     7
 10
8.3557988929
 20
3.9062762022
 30
0.0
  0
VERTEX
  5
1AF
  8
0
  6
CONTINUOUS
 62
     7
 10
8.3450938651
 20
3.9144771788
 30
0.0
  0
VERTEX
  5
1B0
  8
0
  6
CONTINUOUS
 62
     7
 10
8.336470121
 20
3.9234584175
 30
0.0
  0
VERTEX
  5
1B1
  8
0
  6
CONTINUOUS
 62
     7
 10
8.3300955074
 20
3.9330451099
 30
0.0
  0
VERTEX
  5
1B2
  8
0
  6
CONTINUOUS
 62
     7
 10
8.3260940977
 20
3.9430506588
 30
0.0
  0
VERTEX
  5
1B3
  8
0
  6
CONTINUOUS
 62
     7
 10
8.3245437828
 20
3.9532803207
 30
0.0
  0
VERTEX
  5
1B4
  8
0
  6
CONTINUOUS
 62
     7
 10
8.3254747288
 20
3.9635349855
 30
0.0
  0
VERTEX
  5
1B5
  8
0
  6
CONTINUOUS
 62
     7
 10
8.3288688192
 20
3.9736150528
 30
0.0
  0
VERTEX
  5
1B6
  8
0
  6
CONTINUOUS
 62
     7
 10
8.334659989
 20
3.9833243369
 30
0.0
  0
VERTEX
  5
1B7
  8
0
  6
CONTINUOUS
 62
     7
 10
8.3427355336
 20
3.9924738455
 30
0.0
  0
VERTEX
  5
1B8
  8
0
  6
CONTINUOUS
 62
     7
 10
8.3529382531
 20
4.0008855023
 30
0.0
  0
VERTEX
  5
1B9
  8
0
  6
CONTINUOUS
 62
     7
 10
8.3650695739
 20
4.0083955802
 30
0.0
  0
VERTEX
  5
1BA
  8
0
  6
CONTINUOUS
 62
     7
 10
8.3788933654
 20
4.0148579082
 30
0.0
  0
VERTEX
  5
1BB
  8
0
  6
CONTINUOUS
 62
     7
 10
8.3941405748
 20
4.0201466957
 30
0.0
  0
VERTEX
  5
1BC
  8
0
  6
CONTINUOUS
 62
     7
 10
8.4105144187
 20
4.0241590141
 30
0.0
  0
VERTEX
  5
1BD
  8
0
  6
CONTINUOUS
 62
     7
 10
8.4276962176
 20
4.0268167573
 30
0.0
  0
VERTEX
  5
1BE
  8
0
  6
CONTINUOUS
 62
     7
 10
8.4453515301
 20
4.0280682002
 30
0.0
  0
VERTEX
  5
1BF
  8
0
  6
CONTINUOUS
 62
     7
 10
8.4631367172
 20
4.0278889891
 30
0.0
  0
VERTEX
  5
1C0
  8
0
  6
CONTINUOUS
 62
     7
 10
8.4807056184
 20
4.0262826021
 30
0.0
  0
VERTEX
  5
1C1
  8
0
  6
CONTINUOUS
 62
     7
 10
8.4977162768
 20
4.0232803171
 30
0.0
  0
VERTEX
  5
1C2
  8
0
  6
CONTINUOUS
 62
     7
 10
8.5138375905
 20
4.0189405598
 30
0.0
  0
VERTEX
  5
1C3
  8
0
  6
CONTINUOUS
 62
     7
 10
8.5287557796
 20
4.0133478054
 30
0.0
  0
VERTEX
  5
1C4
  8
0
  6
CONTINUOUS
 62
     7
 10
8.5421804792
 20
4.0066109087
 30
0.0
  0
SEQEND
  5
1C5
  8
0
  6
CONTINUOUS
 62
     7
  0
POLYLINE
  5
E3
  8
0
  6
CONTINUOUS
 62
     7
 66
     1
 10
0.0
 20
0.0
 30
0.0
  0
VERTEX
  5
1C6
  8
0
  6
CONTINUOUS
 62
     7
 10
8.6395243635
 20
2.3214833458
 30
0.0
  0
VERTEX
  5
1C7
  8
0
  6
CONTINUOUS
 62
     7
 10
8.63944504
 20
2.3183351744
 30
0.0
  0
VERTEX
  5
1C8
  8
0
  6
CONTINUOUS
 62
     7
 10
8.6375446724
 20
2.3057957125
 30
0.0
  0
VERTEX
  5
1C9
  8
0
  6
CONTINUOUS
 62
     7
 10
8.6331354512
 20
2.2934684009
 30
0.0
  0
VERTEX
  5
1CA
  8
0
  6
CONTINUOUS
 62
     7
 10
8.6262770212
 20
2.2815199382
 30
0.0
  0
VERTEX
  5
1CB
  8
0
  6
CONTINUOUS
 62
     7
 10
8.6170621201
 20
2.2701119169
 30
0.0
  0
VERTEX
  5
1CC
  8
0
  6
CONTINUOUS
 62
     7
 10
8.605615372
 20
2.2593986014
 30
0.0
  0
VERTEX
  5
1CD
  8
0
  6
CONTINUOUS
 62
     7
 10
8.5920915659
 20
2.249524878
 30
0.0
  0
VERTEX
  5
1CE
  8
0
  6
CONTINUOUS
 62
     7
 10
8.5766735903
 20
2.2406242702
 30
0.0
  0
VERTEX
  5
1CF
  8
0
  6
CONTINUOUS
 62
     7
 10
8.5595699465
 20
2.232817143
 30
0.0
  0
VERTEX
  5
1D0
  8
0
  6
CONTINUOUS
 62
     7
 10
8.5410119289
 20
2.2262090761
 30
0.0
  0
VERTEX
  5
1D1
  8
0
  6
CONTINUOUS
 62
     7
 10
8.5212505153
 20
2.2208894268
 30
0.0
  0
VERTEX
  5
1D2
  8
0
  6
CONTINUOUS
 62
     7
 10
8.5005529281
 20
2.2169301395
 30
0.0
  0
VERTEX
  5
1D3
  8
0
  6
CONTINUOUS
 62
     7
 10
8.4791990844
 20
2.2143847503
 30
0.0
  0
VERTEX
  5
1D4
  8
0
  6
CONTINUOUS
 62
     7
 10
8.4574777457
 20
2.2132876914
 30
0.0
  0
VERTEX
  5
1D5
  8
0
  6
CONTINUOUS
 62
     7
 10
8.4356826578
 20
2.2136537918
 30
0.0
  0
VERTEX
  5
1D6
  8
0
  6
CONTINUOUS
 62
     7
 10
8.4141085712
 20
2.2154781047
 30
0.0
  0
VERTEX
  5
1D7
  8
0
  6
CONTINUOUS
 62
     7
 10
8.3930472224
 20
2.2187359529
 30
0.0
  0
VERTEX
  5
1D8
  8
0
  6
CONTINUOUS
 62
     7
 10
8.3727834352
 20
2.223383278
 30
0.0
  0
VERTEX
  5
1D9
  8
0
  6
CONTINUOUS
 62
     7
 10
8.3535912574
 20
2.2293572475
 30
0.0
  0
VERTEX
  5
1DA
  8
0
  6
CONTINUOUS
 62
     7
 10
8.3357302064
 20
2.2365770593
 30
0.0
  0
VERTEX
  5
1DB
  8
0
  6
CONTINUOUS
 62
     7
 10
8.3194418388
 20
2.2449450844
 30
0.0
  0
VERTEX
  5
1DC
  8
0
  6
CONTINUOUS
 62
     7
 10
8.3049464235
 20
2.2543481589
 30
0.0
  0
VERTEX
  5
1DD
  8
0
  6
CONTINUOUS
 62
     7
 10
8.2924399876
 20
2.2646591241
 30
0.0
  0
VERTEX
  5
1DE
  8
0
  6
CONTINUOUS
 62
     7
 10
8.2820916477
 20
2.2757385325
 30
0.0
  0
VERTEX
  5
1DF
  8
0
  6
CONTINUOUS
 62
     7
 10
8.2740413721
 20
2.2874365679
 30
0.0
  0
VERTEX
  5
1E0
  8
0
  6
CONTINUOUS
 62
     7
 10
8.2683980022
 20
2.2995950257
 30
0.0
  0
VERTEX
  5
1E1
  8
0
  6
CONTINUOUS
 62
     7
 10
8.2652378571
 20
2.3120494808
 30
0.0
  0
VERTEX
  5
1E2
  8
0
  6
CONTINUOUS
 62
     7
 10
8.2645243604
 20
2.3214833458
 30
0.0
  0
SEQEND
  5
1E3
  8
0
  6
CONTINUOUS
 62
     7
  0
LINE
  5
E4
  8
0
  6
CONTINUOUS
 62
     7
 10
7.6395243855
 20
2.0079316518
 30
0.0
 11
7.6395278338
 21
2.0093036002
 31
0.0
  0
POLYLINE
  5
E5
  8
0
  6
CONTINUOUS
 62
     7
 66
     1
 10
0.0
 20
0.0
 30
0.0
  0
VERTEX
  5
1E4
  8
0
  6
CONTINUOUS
 62
     7
 10
9.2645243384
 20
1.8552385324
 30
0.0
  0
VERTEX
  5
1E5
  8
0
  6
CONTINUOUS
 62
     7
 10
9.2638302739
 20
1.8358552085
 30
0.0
  0
VERTEX
  5
1E6
  8
0
  6
CONTINUOUS
 62
     7
 10
9.2607478967
 20
1.8100680166
 30
0.0
  0
VERTEX
  5
1E7
  8
0
  6
CONTINUOUS
 62
     7
 10
9.2552094597
 20
1.7844179851
 30
0.0
  0
VERTEX
  5
1E8
  8
0
  6
CONTINUOUS
 62
     7
 10
9.2472317893
 20
1.7589830488
 30
0.0
  0
VERTEX
  5
1E9
  8
0
  6
CONTINUOUS
 62
     7
 10
9.2368391013
 20
1.7338404091
 30
0.0
  0
VERTEX
  5
1EA
  8
0
  6
CONTINUOUS
 62
     7
 10
9.224062949
 20
1.7090664741
 30
0.0
  0
VERTEX
  5
1EB
  8
0
  6
CONTINUOUS
 62
     7
 10
9.208942093
 20
1.6847364845
 30
0.0
  0
VERTEX
  5
1EC
  8
0
  6
CONTINUOUS
 62
     7
 10
9.1915225796
 20
1.660924259
 30
0.0
  0
VERTEX
  5
1ED
  8
0
  6
CONTINUOUS
 62
     7
 10
9.1718571961
 20
1.6377021795
 30
0.0
  0
VERTEX
  5
1EE
  8
0
  6
CONTINUOUS
 62
     7
 10
9.1500056782
 20
1.615140772
 30
0.0
  0
VERTEX
  5
1EF
  8
0
  6
CONTINUOUS
 62
     7
 10
9.1260344636
 20
1.5933085044
 30
0.0
  0
VERTEX
  5
1F0
  8
0
  6
CONTINUOUS
 62
     7
 10
9.1000162711
 20
1.5722717232
 30
0.0
  0
VERTEX
  5
1F1
  8
0
  6
CONTINUOUS
 62
     7
 10
9.0720301809
 20
1.5520942806
 30
0.0
  0
VERTEX
  5
1F2
  8
0
  6
CONTINUOUS
 62
     7
 10
9.0421611397
 20
1.5328374885
 30
0.0
  0
VERTEX
  5
1F3
  8
0
  6
CONTINUOUS
 62
     7
 10
9.0104998624
 20
1.5145598222
 30
0.0
  0
VERTEX
  5
1F4
  8
0
  6
CONTINUOUS
 62
     7
 10
8.9771425056
 20
1.4973167917
 30
0.0
  0
VERTEX
  5
1F5
  8
0
  6
CONTINUOUS
 62
     7
 10
8.9421903628
 20
1.4811607657
 30
0.0
  0
VERTEX
  5
1F6
  8
0
  6
CONTINUOUS
 62
     7
 10
8.9057496404
 20
1.4661407829
 30
0.0
  0
VERTEX
  5
1F7
  8
0
  6
CONTINUOUS
 62
     7
 10
8.8679309461
 20
1.4523024953
 30
0.0
  0
VERTEX
  5
1F8
  8
0
  6
CONTINUOUS
 62
     7
 10
8.8288492074
 20
1.4396878825
 30
0.0
  0
VERTEX
  5
1F9
  8
0
  6
CONTINUOUS
 62
     7
 10
8.7886230273
 20
1.4283352982
 30
0.0
  0
VERTEX
  5
1FA
  8
0
  6
CONTINUOUS
 62
     7
 10
8.7473745735
 20
1.4182792272
 30
0.0
  0
VERTEX
  5
1FB
  8
0
  6
CONTINUOUS
 62
     7
 10
8.7052292288
 20
1.4095501428
 30
0.0
  0
VERTEX
  5
1FC
  8
0
  6
CONTINUOUS
 62
     7
 10
8.6623148648
 20
1.4021746271
 30
0.0
  0
VERTEX
  5
1FD
  8
0
  6
CONTINUOUS
 62
     7
 10
8.6187618163
 20
1.396175056
 30
0.0
  0
VERTEX
  5
1FE
  8
0
  6
CONTINUOUS
 62
     7
 10
8.5747024405
 20
1.391569645
 30
0.0
  0
VERTEX
  5
1FF
  8
0
  6
CONTINUOUS
 62
     7
 10
8.5302704685
 20
1.3883723733
 30
0.0
  0
VERTEX
  5
200
  8
0
  6
CONTINUOUS
 62
     7
 10
8.4856009019
 20
1.3865929548
 30
0.0
  0
VERTEX
  5
201
  8
0
  6
CONTINUOUS
 62
     7
 10
8.4408293646
 20
1.3862367927
 30
0.0
  0
VERTEX
  5
202
  8
0
  6
CONTINUOUS
 62
     7
 10
8.3960917916
 20
1.3873049796
 30
0.0
  0
VERTEX
  5
203
  8
0
  6
CONTINUOUS
 62
     7
 10
8.3515241179
 20
1.3897942676
 30
0.0
  0
VERTEX
  5
204
  8
0
  6
CONTINUOUS
 62
     7
 10
8.3072616044
 20
1.3936970983
 30
0.0
  0
VERTEX
  5
205
  8
0
  6
CONTINUOUS
 62
     7
 10
8.2634387861
 20
1.3990016024
 30
0.0
  0
VERTEX
  5
206
  8
0
  6
CONTINUOUS
 62
     7
 10
8.2201886681
 20
1.4056917052
 30
0.0
  0
VERTEX
  5
207
  8
0
  6
CONTINUOUS
 62
     7
 10
8.1776426483
 20
1.4137470512
 30
0.0
  0
VERTEX
  5
208
  8
0
  6
CONTINUOUS
 62
     7
 10
8.1359298947
 20
1.4231431836
 30
0.0
  0
VERTEX
  5
209
  8
0
  6
CONTINUOUS
 62
     7
 10
8.0951771382
 20
1.4338516048
 30
0.0
  0
VERTEX
  5
20A
  8
0
  6
CONTINUOUS
 62
     7
 10
8.0555081023
 20
1.4458397459
 30
0.0
  0
VERTEX
  5
20B
  8
0
  6
CONTINUOUS
 62
     7
 10
8.0170432695
 20
1.4590712214
 30
0.0
  0
VERTEX
  5
20C
  8
0
  6
CONTINUOUS
 62
     7
 10
7.9798994536
 20
1.4735058365
 30
0.0
  0
VERTEX
  5
20D
  8
0
  6
CONTINUOUS
 62
     7
 10
7.9441894823
 20
1.4890997707
 30
0.0
  0
VERTEX
  5
20E
  8
0
  6
CONTINUOUS
 62
     7
 10
7.910021769
 20
1.5058056451
 30
0.0
  0
VERTEX
  5
20F
  8
0
  6
CONTINUOUS
 62
     7
 10
7.8775001254
 20
1.5235727503
 30
0.0
  0
VERTEX
  5
210
  8
0
  6
CONTINUOUS
 62
     7
 10
7.8467232617
 20
1.5423470956
 30
0.0
  0
VERTEX
  5
211
  8
0
  6
CONTINUOUS
 62
     7
 10
7.817784703
 20
1.5620716966
 30
0.0
  0
VERTEX
  5
212
  8
0
  6
CONTINUOUS
 62
     7
 10
7.7907722897
 20
1.5826866242
 30
0.0
  0
VERTEX
  5
213
  8
0
  6
CONTINUOUS
 62
     7
 10
7.7657680937
 20
1.6041292927
 30
0.0
  0
VERTEX
  5
214
  8
0
  6
CONTINUOUS
 62
     7
 10
7.7428480224
 20
1.6263345681
 30
0.0
  0
VERTEX
  5
215
  8
0
  6
CONTINUOUS
 62
     7
 10
7.7220817029
 20
1.649235015
 30
0.0
  0
VERTEX
  5
216
  8
0
  6
CONTINUOUS
 62
     7
 10
7.7035321634
 20
1.6727610806
 30
0.0
  0
VERTEX
  5
217
  8
0
  6
CONTINUOUS
 62
     7
 10
7.6872558211
 20
1.6968413407
 30
0.0
  0
VERTEX
  5
218
  8
0
  6
CONTINUOUS
 62
     7
 10
7.6733020408
 20
1.7214026351
 30
0.0
  0
VERTEX
  5
219
  8
0
  6
CONTINUOUS
 62
     7
 10
7.6617131871
 20
1.7463703968
 30
0.0
  0
VERTEX
  5
21A
  8
0
  6
CONTINUOUS
 62
     7
 10
7.6525245208
 20
1.7716687713
 30
0.0
  0
VERTEX
  5
21B
  8
0
  6
CONTINUOUS
 62
     7
 10
7.6457638873
 20
1.7972209765
 30
0.0
  0
VERTEX
  5
21C
  8
0
  6
CONTINUOUS
 62
     7
 10
7.6414518468
 20
1.8229493468
 30
0.0
  0
VERTEX
  5
21D
  8
0
  6
CONTINUOUS
 62
     7
 10
7.6396014923
 20
1.848775798
 30
0.0
  0
VERTEX
  5
21E
  8
0
  6
CONTINUOUS
 62
     7
 10
7.6395243855
 20
1.8552385324
 30
0.0
  0
SEQEND
  5
21F
  8
0
  6
CONTINUOUS
 62
     7
  0
POLYLINE
  5
E6
  8
0
  6
CONTINUOUS
 62
     7
 66
     1
 10
0.0
 20
0.0
 30
0.0
  0
VERTEX
  5
220
  8
0
  6
CONTINUOUS
 62
     7
 10
8.8185243703
 20
2.0593737329
 30
0.0
  0
VERTEX
  5
221
  8
0
  6
CONTINUOUS
 62
     7
 10
8.8182112894
 20
2.0506303622
 30
0.0
  0
VERTEX
  5
222
  8
0
  6
CONTINUOUS
 62
     7
 10
8.8157098444
 20
2.0332033479
 30
0.0
  0
VERTEX
  5
223
  8
0
  6
CONTINUOUS
 62
     7
 10
8.8107240791
 20
2.0159551032
 30
0.0
  0
VERTEX
  5
224
  8
0
  6
CONTINUOUS
 62
     7
 10
8.8032880227
 20
1.9990034581
 30
0.0
  0
VERTEX
  5
225
  8
0
  6
CONTINUOUS
 62
     7
 10
8.7934524855
 20
1.9824641961
 30
0.0
  0
VERTEX
  5
226
  8
0
  6
CONTINUOUS
 62
     7
 10
8.7812846442
 20
1.9664503054
 30
0.0
  0
VERTEX
  5
227
  8
0
  6
CONTINUOUS
 62
     7
 10
8.7668676271
 20
1.9510711707
 30
0.0
  0
VERTEX
  5
228
  8
0
  6
CONTINUOUS
 62
     7
 10
8.7502999047
 20
1.9364318627
 30
0.0
  0
VERTEX
  5
229
  8
0
  6
CONTINUOUS
 62
     7
 10
8.7316946709
 20
1.922632361
 30
0.0
  0
VERTEX
  5
22A
  8
0
  6
CONTINUOUS
 62
     7
 10
8.7111789969
 20
1.9097669466
 30
0.0
  0
VERTEX
  5
22B
  8
0
  6
CONTINUOUS
 62
     7
 10
8.6888930308
 20
1.8979235001
 30
0.0
  0
VERTEX
  5
22C
  8
0
  6
CONTINUOUS
 62
     7
 10
8.6649890027
 20
1.8871829273
 30
0.0
  0
VERTEX
  5
22D
  8
0
  6
CONTINUOUS
 62
     7
 10
8.6396302297
 20
1.8776185847
 30
0.0
  0
VERTEX
  5
22E
  8
0
  6
CONTINUOUS
 62
     7
 10
8.6129899006
 20
1.8692958179
 30
0.0
  0
VERTEX
  5
22F
  8
0
  6
CONTINUOUS
 62
     7
 10
8.5852500225
 20
1.8622714726
 30
0.0
  0
VERTEX
  5
230
  8
0
  6
CONTINUOUS
 62
     7
 10
8.5566000761
 20
1.8565935378
 30
0.0
  0
VERTEX
  5
231
  8
0
  6
CONTINUOUS
 62
     7
 10
8.5272357839
 20
1.8523007938
 30
0.0
  0
VERTEX
  5
232
  8
0
  6
CONTINUOUS
 62
     7
 10
8.4973577103
 20
1.8494225728
 30
0.0
  0
VERTEX
  5
233
  8
0
  6
CONTINUOUS
 62
     7
 10
8.4671699652
 20
1.8479785193
 30
0.0
  0
VERTEX
  5
234
  8
0
  6
CONTINUOUS
 62
     7
 10
8.4368787587
 20
1.8479785193
 30
0.0
  0
VERTEX
  5
235
  8
0
  6
CONTINUOUS
 62
     7
 10
8.4066910136
 20
1.8494225728
 30
0.0
  0
VERTEX
  5
236
  8
0
  6
CONTINUOUS
 62
     7
 10
8.37681294
 20
1.8523007938
 30
0.0
  0
VERTEX
  5
237
  8
0
  6
CONTINUOUS
 62
     7
 10
8.3474486478
 20
1.8565935378
 30
0.0
  0
VERTEX
  5
238
  8
0
  6
CONTINUOUS
 62
     7
 10
8.3187987014
 20
1.8622714726
 30
0.0
  0
VERTEX
  5
239
  8
0
  6
CONTINUOUS
 62
     7
 10
8.2910588233
 20
1.8692958179
 30
0.0
  0
VERTEX
  5
23A
  8
0
  6
CONTINUOUS
 62
     7
 10
8.2644184942
 20
1.8776185847
 30
0.0
  0
VERTEX
  5
23B
  8
0
  6
CONTINUOUS
 62
     7
 10
8.2390597212
 20
1.8871829273
 30
0.0
  0
VERTEX
  5
23C
  8
0
  6
CONTINUOUS
 62
     7
 10
8.2151556931
 20
1.8979235001
 30
0.0
  0
VERTEX
  5
23D
  8
0
  6
CONTINUOUS
 62
     7
 10
8.192869727
 20
1.9097669466
 30
0.0
  0
VERTEX
  5
23E
  8
0
  6
CONTINUOUS
 62
     7
 10
8.172354053
 20
1.922632361
 30
0.0
  0
VERTEX
  5
23F
  8
0
  6
CONTINUOUS
 62
     7
 10
8.1537488192
 20
1.9364318627
 30
0.0
  0
VERTEX
  5
240
  8
0
  6
CONTINUOUS
 62
     7
 10
8.1371810968
 20
1.9510711707
 30
0.0
  0
VERTEX
  5
241
  8
0
  6
CONTINUOUS
 62
     7
 10
8.1227640797
 20
1.9664503054
 30
0.0
  0
VERTEX
  5
242
  8
0
  6
CONTINUOUS
 62
     7
 10
8.1105962384
 20
1.9824641961
 30
0.0
  0
VERTEX
  5
243
  8
0
  6
CONTINUOUS
 62
     7
 10
8.1007607012
 20
1.9990034581
 30
0.0
  0
VERTEX
  5
244
  8
0
  6
CONTINUOUS
 62
     7
 10
8.0933246448
 20
2.0159551032
 30
0.0
  0
VERTEX
  5
245
  8
0
  6
CONTINUOUS
 62
     7
 10
8.0883388795
 20
2.0332033479
 30
0.0
  0
VERTEX
  5
246
  8
0
  6
CONTINUOUS
 62
     7
 10
8.0858374345
 20
2.0506303622
 30
0.0
  0
VERTEX
  5
247
  8
0
  6
CONTINUOUS
 62
     7
 10
8.0855243536
 20
2.0593737329
 30
0.0
  0
SEQEND
  5
248
  8
0
  6
CONTINUOUS
 62
     7
  0
ARC
  5
E7
  8
0
  6
CONTINUOUS
 62
     7
 10
7.9544958818
 20
1.690360737
 30
0.0
 40
0.5724389712800717
 50
45.09056116
 51
74.9148153727
  0
ARC
  5
E8
  8
0
  6
CONTINUOUS
 62
     7
 10
8.7286928584
 20
2.0751584673
 30
0.0
 40
0.6473729074597973
 50
145.2362916211
 51
164.9667795541
  0
POLYLINE
  5
E9
  8
0
  6
CONTINUOUS
 62
     7
 66
     1
 10
0.0
 20
0.0
 30
0.0
  0
VERTEX
  5
249
  8
0
  6
CONTINUOUS
 62
     7
 10
8.2645243604
 20
2.4683803983
 30
0.0
  0
VERTEX
  5
24A
  8
0
  6
CONTINUOUS
 62
     7
 10
8.2370169482
 20
2.4593975335
 30
0.0
  0
VERTEX
  5
24B
  8
0
  6
CONTINUOUS
 62
     7
 10
8.1968691922
 20
2.4442861815
 30
0.0
  0
SEQEND
  5
24C
  8
0
  6
CONTINUOUS
 62
     7
  0
ARC
  5
EA
  8
0
  6
CONTINUOUS
 62
     7
 10
8.3770345774
 20
1.9229614394
 30
0.0
 40
0.6020952218806782
 50
45.2962973545
 51
64.1535660618
  0
ARC
  5
EB
  8
0
  6
CONTINUOUS
 62
     7
 10
9.3134378046
 20
1.9905750334
 30
0.0
 40
0.6267908418443059
 50
144.9089403799
 51
165.2941307953
  0
ARC
  5
EC
  8
0
  6
CONTINUOUS
 62
     7
 10
8.6382003593
 20
1.4420212735
 30
0.0
 40
0.7110229023695738
 50
84.4327512374
 51
113.1533289765
  0
POLYLINE
  5
ED
  8
0
  6
CONTINUOUS
 62
     7
 66
     1
 10
0.0
 20
0.0
 30
0.0
  0
VERTEX
  5
24D
  8
0
  6
CONTINUOUS
 62
     7
 10
8.6704388669
 20
2.4475713557
 30
0.0
  0
VERTEX
  5
24E
  8
0
  6
CONTINUOUS
 62
     7
 10
8.6891381053
 20
2.4357613125
 30
0.0
  0
VERTEX
  5
24F
  8
0
  6
CONTINUOUS
 62
     7
 10
8.7059282647
 20
2.4230311839
 30
0.0
  0
VERTEX
  5
250
  8
0
  6
CONTINUOUS
 62
     7
 10
8.7206741263
 20
2.4094834417
 30
0.0
  0
VERTEX
  5
251
  8
0
  6
CONTINUOUS
 62
     7
 10
8.7332569932
 20
2.3952271845
 30
0.0
  0
VERTEX
  5
252
  8
0
  6
CONTINUOUS
 62
     7
 10
8.7435755236
 20
2.3803771779
 30
0.0
  0
VERTEX
  5
253
  8
0
  6
CONTINUOUS
 62
     7
 10
8.7515466604
 20
2.3650529882
 30
0.0
  0
VERTEX
  5
254
  8
0
  6
CONTINUOUS
 62
     7
 10
8.757106215
 20
2.3493780172
 30
0.0
  0
VERTEX
  5
255
  8
0
  6
CONTINUOUS
 62
     7
 10
8.7602094374
 20
2.3334784393
 30
0.0
  0
VERTEX
  5
256
  8
0
  6
CONTINUOUS
 62
     7
 10
8.7608313472
 20
2.3174822923
 30
0.0
  0
VERTEX
  5
257
  8
0
  6
CONTINUOUS
 62
     7
 10
8.7589669014
 20
2.3015183624
 30
0.0
  0
VERTEX
  5
258
  8
0
  6
CONTINUOUS
 62
     7
 10
8.7546311506
 20
2.2857151664
 30
0.0
  0
VERTEX
  5
259
  8
0
  6
CONTINUOUS
 62
     7
 10
8.7478589797
 20
2.270199964
 30
0.0
  0
VERTEX
  5
25A
  8
0
  6
CONTINUOUS
 62
     7
 10
8.7387049258
 20
2.2550976647
 30
0.0
  0
VERTEX
  5
25B
  8
0
  6
CONTINUOUS
 62
     7
 10
8.7272426799
 20
2.2405298667
 30
0.0
  0
VERTEX
  5
25C
  8
0
  6
CONTINUOUS
 62
     7
 10
8.713564542
 20
2.2266138538
 30
0.0
  0
VERTEX
  5
25D
  8
0
  6
CONTINUOUS
 62
     7
 10
8.6977806496
 20
2.2134616714
 30
0.0
  0
VERTEX
  5
25E
  8
0
  6
CONTINUOUS
 62
     7
 10
8.6800180579
 20
2.2011792206
 30
0.0
  0
VERTEX
  5
25F
  8
0
  6
CONTINUOUS
 62
     7
 10
8.6604197992
 20
2.1898653868
 30
0.0
  0
VERTEX
  5
260
  8
0
  6
CONTINUOUS
 62
     7
 10
8.6391436651
 20
2.1796112608
 30
0.0
  0
VERTEX
  5
261
  8
0
  6
CONTINUOUS
 62
     7
 10
8.6163609484
 20
2.1704994137
 30
0.0
  0
VERTEX
  5
262
  8
0
  6
CONTINUOUS
 62
     7
 10
8.5922550952
 20
2.1626031927
 30
0.0
  0
VERTEX
  5
263
  8
0
  6
CONTINUOUS
 62
     7
 10
8.5670201947
 20
2.155986179
 30
0.0
  0
VERTEX
  5
264
  8
0
  6
CONTINUOUS
 62
     7
 10
8.5408594104
 20
2.1507016562
 30
0.0
  0
VERTEX
  5
265
  8
0
  6
CONTINUOUS
 62
     7
 10
8.5139833794
 20
2.1467921652
 30
0.0
  0
VERTEX
  5
266
  8
0
  6
CONTINUOUS
 62
     7
 10
8.486608475
 20
2.1442891895
 30
0.0
  0
VERTEX
  5
267
  8
0
  6
CONTINUOUS
 62
     7
 10
8.458955141
 20
2.1432128679
 30
0.0
  0
VERTEX
  5
268
  8
0
  6
CONTINUOUS
 62
     7
 10
8.4312459993
 20
2.1435718887
 30
0.0
  0
VERTEX
  5
269
  8
0
  6
CONTINUOUS
 62
     7
 10
8.4037041383
 20
2.1453633409
 30
0.0
  0
VERTEX
  5
26A
  8
0
  6
CONTINUOUS
 62
     7
 10
8.3765513501
 20
2.1485728035
 30
0.0
  0
VERTEX
  5
26B
  8
0
  6
CONTINUOUS
 62
     7
 10
8.3500061988
 20
2.1531744428
 30
0.0
  0
VERTEX
  5
26C
  8
0
  6
CONTINUOUS
 62
     7
 10
8.3242824456
 20
2.1591312036
 30
0.0
  0
VERTEX
  5
26D
  8
0
  6
CONTINUOUS
 62
     7
 10
8.2995872081
 20
2.1663951381
 30
0.0
  0
VERTEX
  5
26E
  8
0
  6
CONTINUOUS
 62
     7
 10
8.2761192874
 20
2.1749077428
 30
0.0
  0
VERTEX
  5
26F
  8
0
  6
CONTINUOUS
 62
     7
 10
8.2540676686
 20
2.1846004954
 30
0.0
  0
VERTEX
  5
270
  8
0
  6
CONTINUOUS
 62
     7
 10
8.233609857
 20
2.195395336
 30
0.0
  0
VERTEX
  5
271
  8
0
  6
CONTINUOUS
 62
     7
 10
8.2149106186
 20
2.2072053792
 30
0.0
  0
VERTEX
  5
272
  8
0
  6
CONTINUOUS
 62
     7
 10
8.1981204592
 20
2.2199355078
 30
0.0
  0
VERTEX
  5
273
  8
0
  6
CONTINUOUS
 62
     7
 10
8.1833745976
 20
2.23348325
 30
0.0
  0
VERTEX
  5
274
  8
0
  6
CONTINUOUS
 62
     7
 10
8.1707917307
 20
2.2477395072
 30
0.0
  0
VERTEX
  5
275
  8
0
  6
CONTINUOUS
 62
     7
 10
8.1604732003
 20
2.2625895138
 30
0.0
  0
VERTEX
  5
276
  8
0
  6
CONTINUOUS
 62
     7
 10
8.1525020635
 20
2.2779137035
 30
0.0
  0
VERTEX
  5
277
  8
0
  6
CONTINUOUS
 62
     7
 10
8.1469425089
 20
2.2935886745
 30
0.0
  0
VERTEX
  5
278
  8
0
  6
CONTINUOUS
 62
     7
 10
8.1438392865
 20
2.3094882524
 30
0.0
  0
VERTEX
  5
279
  8
0
  6
CONTINUOUS
 62
     7
 10
8.1432173767
 20
2.3254843994
 30
0.0
  0
VERTEX
  5
27A
  8
0
  6
CONTINUOUS
 62
     7
 10
8.1450818225
 20
2.3414483293
 30
0.0
  0
VERTEX
  5
27B
  8
0
  6
CONTINUOUS
 62
     7
 10
8.1494175733
 20
2.3572515253
 30
0.0
  0
VERTEX
  5
27C
  8
0
  6
CONTINUOUS
 62
     7
 10
8.1561897442
 20
2.3727667277
 30
0.0
  0
VERTEX
  5
27D
  8
0
  6
CONTINUOUS
 62
     7
 10
8.1653437981
 20
2.387869027
 30
0.0
  0
VERTEX
  5
27E
  8
0
  6
CONTINUOUS
 62
     7
 10
8.176806044
 20
2.402436825
 30
0.0
  0
VERTEX
  5
27F
  8
0
  6
CONTINUOUS
 62
     7
 10
8.1904841819
 20
2.4163528379
 30
0.0
  0
VERTEX
  5
280
  8
0
  6
CONTINUOUS
 62
     7
 10
8.2062680743
 20
2.4295050203
 30
0.0
  0
VERTEX
  5
281
  8
0
  6
CONTINUOUS
 62
     7
 10
8.224030666
 20
2.4417874711
 30
0.0
  0
VERTEX
  5
282
  8
0
  6
CONTINUOUS
 62
     7
 10
8.2436289247
 20
2.4531013049
 30
0.0
  0
VERTEX
  5
283
  8
0
  6
CONTINUOUS
 62
     7
 10
8.2645243669
 20
2.4631878232
 30
0.0
  0
SEQEND
  5
284
  8
0
  6
CONTINUOUS
 62
     7
  0
POLYLINE
  5
EE
  8
0
  6
CONTINUOUS
 62
     7
 66
     1
 10
0.0
 20
0.0
 30
0.0
  0
VERTEX
  5
285
  8
0
  6
CONTINUOUS
 62
     7
 10
8.639524357
 20
2.4631878232
 30
0.0
  0
VERTEX
  5
286
  8
0
  6
CONTINUOUS
 62
     7
 10
8.6499810553
 20
2.4583661962
 30
0.0
  0
VERTEX
  5
287
  8
0
  6
CONTINUOUS
 62
     7
 10
8.6704388669
 20
2.4475713557
 30
0.0
  0
SEQEND
  5
288
  8
0
  6
CONTINUOUS
 62
     7
  0
LINE
  5
EF
  8
0
  6
CONTINUOUS
 62
     7
 10
8.7071795316
 20
1.9814817698
 30
0.0
 11
8.7071795316
 21
2.1496902932
 31
0.0
  0
LINE
  5
F0
  8
0
  6
CONTINUOUS
 62
     7
 10
8.7071795316
 20
1.9814817698
 30
0.0
 11
8.3586310706
 21
1.9275669703
 31
0.0
  0
LINE
  5
F1
  8
0
  6
CONTINUOUS
 62
     7
 10
8.3586310706
 20
1.9275669703
 30
0.0
 11
8.3586310706
 21
2.0957754937
 31
0.0
  0
POLYLINE
  5
F2
  8
0
  6
CONTINUOUS
 62
     7
 66
     1
 10
0.0
 20
0.0
 30
0.0
  0
VERTEX
  5
289
  8
0
  6
CONTINUOUS
 62
     7
 10
8.800572823
 20
2.1941847071
 30
0.0
  0
VERTEX
  5
28A
  8
0
  6
CONTINUOUS
 62
     7
 10
8.8032880227
 20
2.1891499887
 30
0.0
  0
VERTEX
  5
28B
  8
0
  6
CONTINUOUS
 62
     7
 10
8.8107240791
 20
2.1721983436
 30
0.0
  0
VERTEX
  5
28C
  8
0
  6
CONTINUOUS
 62
     7
 10
8.8157098444
 20
2.1549500989
 30
0.0
  0
VERTEX
  5
28D
  8
0
  6
CONTINUOUS
 62
     7
 10
8.8182112894
 20
2.1375230846
 30
0.0
  0
VERTEX
  5
28E
  8
0
  6
CONTINUOUS
 62
     7
 10
8.8182112894
 20
2.1200363433
 30
0.0
  0
VERTEX
  5
28F
  8
0
  6
CONTINUOUS
 62
     7
 10
8.8157098444
 20
2.102609329
 30
0.0
  0
VERTEX
  5
290
  8
0
  6
CONTINUOUS
 62
     7
 10
8.8107240791
 20
2.0853610843
 30
0.0
  0
VERTEX
  5
291
  8
0
  6
CONTINUOUS
 62
     7
 10
8.8032880227
 20
2.0684094392
 30
0.0
  0
VERTEX
  5
292
  8
0
  6
CONTINUOUS
 62
     7
 10
8.7934524855
 20
2.0518701772
 30
0.0
  0
VERTEX
  5
293
  8
0
  6
CONTINUOUS
 62
     7
 10
8.7812846442
 20
2.0358562864
 30
0.0
  0
VERTEX
  5
294
  8
0
  6
CONTINUOUS
 62
     7
 10
8.7668676271
 20
2.0204771518
 30
0.0
  0
VERTEX
  5
295
  8
0
  6
CONTINUOUS
 62
     7
 10
8.7502999047
 20
2.0058378437
 30
0.0
  0
VERTEX
  5
296
  8
0
  6
CONTINUOUS
 62
     7
 10
8.7316946709
 20
1.992038342
 30
0.0
  0
VERTEX
  5
297
  8
0
  6
CONTINUOUS
 62
     7
 10
8.7111789969
 20
1.9791729277
 30
0.0
  0
VERTEX
  5
298
  8
0
  6
CONTINUOUS
 62
     7
 10
8.6888930308
 20
1.9673294811
 30
0.0
  0
VERTEX
  5
299
  8
0
  6
CONTINUOUS
 62
     7
 10
8.6649890027
 20
1.9565889083
 30
0.0
  0
VERTEX
  5
29A
  8
0
  6
CONTINUOUS
 62
     7
 10
8.6396302297
 20
1.9470245658
 30
0.0
  0
VERTEX
  5
29B
  8
0
  6
CONTINUOUS
 62
     7
 10
8.6129899006
 20
1.9387017989
 30
0.0
  0
VERTEX
  5
29C
  8
0
  6
CONTINUOUS
 62
     7
 10
8.5852500225
 20
1.9316774537
 30
0.0
  0
VERTEX
  5
29D
  8
0
  6
CONTINUOUS
 62
     7
 10
8.5566000761
 20
1.9259995189
 30
0.0
  0
VERTEX
  5
29E
  8
0
  6
CONTINUOUS
 62
     7
 10
8.5272357839
 20
1.9217067749
 30
0.0
  0
VERTEX
  5
29F
  8
0
  6
CONTINUOUS
 62
     7
 10
8.4973577103
 20
1.9188285538
 30
0.0
  0
VERTEX
  5
2A0
  8
0
  6
CONTINUOUS
 62
     7
 10
8.4671699652
 20
1.9173845004
 30
0.0
  0
VERTEX
  5
2A1
  8
0
  6
CONTINUOUS
 62
     7
 10
8.4368787587
 20
1.9173845004
 30
0.0
  0
VERTEX
  5
2A2
  8
0
  6
CONTINUOUS
 62
     7
 10
8.4066910136
 20
1.9188285538
 30
0.0
  0
VERTEX
  5
2A3
  8
0
  6
CONTINUOUS
 62
     7
 10
8.37681294
 20
1.9217067749
 30
0.0
  0
VERTEX
  5
2A4
  8
0
  6
CONTINUOUS
 62
     7
 10
8.3474486478
 20
1.9259995189
 30
0.0
  0
VERTEX
  5
2A5
  8
0
  6
CONTINUOUS
 62
     7
 10
8.3187987014
 20
1.9316774537
 30
0.0
  0
VERTEX
  5
2A6
  8
0
  6
CONTINUOUS
 62
     7
 10
8.2910588233
 20
1.9387017989
 30
0.0
  0
VERTEX
  5
2A7
  8
0
  6
CONTINUOUS
 62
     7
 10
8.2644184942
 20
1.9470245658
 30
0.0
  0
VERTEX
  5
2A8
  8
0
  6
CONTINUOUS
 62
     7
 10
8.2390597212
 20
1.9565889083
 30
0.0
  0
VERTEX
  5
2A9
  8
0
  6
CONTINUOUS
 62
     7
 10
8.2151556931
 20
1.9673294811
 30
0.0
  0
VERTEX
  5
2AA
  8
0
  6
CONTINUOUS
 62
     7
 10
8.192869727
 20
1.9791729277
 30
0.0
  0
VERTEX
  5
2AB
  8
0
  6
CONTINUOUS
 62
     7
 10
8.172354053
 20
1.992038342
 30
0.0
  0
VERTEX
  5
2AC
  8
0
  6
CONTINUOUS
 62
     7
 10
8.1537488192
 20
2.0058378437
 30
0.0
  0
VERTEX
  5
2AD
  8
0
  6
CONTINUOUS
 62
     7
 10
8.1371810968
 20
2.0204771518
 30
0.0
  0
VERTEX
  5
2AE
  8
0
  6
CONTINUOUS
 62
     7
 10
8.1227640797
 20
2.0358562864
 30
0.0
  0
VERTEX
  5
2AF
  8
0
  6
CONTINUOUS
 62
     7
 10
8.1105962384
 20
2.0518701772
 30
0.0
  0
VERTEX
  5
2B0
  8
0
  6
CONTINUOUS
 62
     7
 10
8.1007607012
 20
2.0684094392
 30
0.0
  0
VERTEX
  5
2B1
  8
0
  6
CONTINUOUS
 62
     7
 10
8.0933246448
 20
2.0853610843
 30
0.0
  0
VERTEX
  5
2B2
  8
0
  6
CONTINUOUS
 62
     7
 10
8.0883388795
 20
2.102609329
 30
0.0
  0
VERTEX
  5
2B3
  8
0
  6
CONTINUOUS
 62
     7
 10
8.0858374345
 20
2.1200363433
 30
0.0
  0
VERTEX
  5
2B4
  8
0
  6
CONTINUOUS
 62
     7
 10
8.0858374345
 20
2.1375230846
 30
0.0
  0
VERTEX
  5
2B5
  8
0
  6
CONTINUOUS
 62
     7
 10
8.0883388795
 20
2.1549500989
 30
0.0
  0
VERTEX
  5
2B6
  8
0
  6
CONTINUOUS
 62
     7
 10
8.0933246448
 20
2.1721983436
 30
0.0
  0
VERTEX
  5
2B7
  8
0
  6
CONTINUOUS
 62
     7
 10
8.1007607012
 20
2.1891499887
 30
0.0
  0
VERTEX
  5
2B8
  8
0
  6
CONTINUOUS
 62
     7
 10
8.1034759009
 20
2.1941847071
 30
0.0
  0
SEQEND
  5
2B9
  8
0
  6
CONTINUOUS
 62
     7
  0
LINE
  5
F3
  8
0
  6
CONTINUOUS
 62
     7
 10
8.3586310706
 20
1.9275669703
 30
0.0
 11
8.1034759009
 21
2.0748649145
 31
0.0
  0
LINE
  5
F4
  8
0
  6
CONTINUOUS
 62
     7
 10
8.800572823
 20
2.1826945134
 30
0.0
 11
8.7071795316
 21
1.9814817698
 31
0.0
  0
LINE
  5
F5
  8
0
  6
CONTINUOUS
 62
     7
 10
8.1034759009
 20
2.0748649145
 30
0.0
 11
8.1034759009
 21
2.2430734379
 31
0.0
  0
LINE
  5
F6
  8
0
  6
CONTINUOUS
 62
     7
 10
8.800572823
 20
2.1826945134
 30
0.0
 11
8.800572823
 21
2.3509030368
 31
0.0
  0
POLYLINE
  5
F7
  8
0
  6
CONTINUOUS
 62
     8
 66
     1
 10
0.0
 20
0.0
 30
0.0
  0
VERTEX
  5
2BA
  8
0
  6
CONTINUOUS
 62
     8
 10
9.2645238458
 20
2.0084564206
 30
0.0
  0
VERTEX
  5
2BB
  8
0
  6
CONTINUOUS
 62
     8
 10
9.2638302739
 20
1.9885483279
 30
0.0
  0
VERTEX
  5
2BC
  8
0
  6
CONTINUOUS
 62
     8
 10
9.2607478967
 20
1.962761136
 30
0.0
  0
VERTEX
  5
2BD
  8
0
  6
CONTINUOUS
 62
     8
 10
9.2552094597
 20
1.9371111045
 30
0.0
  0
VERTEX
  5
2BE
  8
0
  6
CONTINUOUS
 62
     8
 10
9.2472317893
 20
1.9116761682
 30
0.0
  0
VERTEX
  5
2BF
  8
0
  6
CONTINUOUS
 62
     8
 10
9.2368391013
 20
1.8865335285
 30
0.0
  0
VERTEX
  5
2C0
  8
0
  6
CONTINUOUS
 62
     8
 10
9.224062949
 20
1.8617595935
 30
0.0
  0
VERTEX
  5
2C1
  8
0
  6
CONTINUOUS
 62
     8
 10
9.208942093
 20
1.8374296039
 30
0.0
  0
VERTEX
  5
2C2
  8
0
  6
CONTINUOUS
 62
     8
 10
9.1915225796
 20
1.8136173784
 30
0.0
  0
VERTEX
  5
2C3
  8
0
  6
CONTINUOUS
 62
     8
 10
9.1718571961
 20
1.7903952989
 30
0.0
  0
VERTEX
  5
2C4
  8
0
  6
CONTINUOUS
 62
     8
 10
9.1500056782
 20
1.7678338914
 30
0.0
  0
VERTEX
  5
2C5
  8
0
  6
CONTINUOUS
 62
     8
 10
9.1260344636
 20
1.7460016238
 30
0.0
  0
VERTEX
  5
2C6
  8
0
  6
CONTINUOUS
 62
     8
 10
9.1000162711
 20
1.7249648426
 30
0.0
  0
VERTEX
  5
2C7
  8
0
  6
CONTINUOUS
 62
     8
 10
9.0720301809
 20
1.7047874
 30
0.0
  0
VERTEX
  5
2C8
  8
0
  6
CONTINUOUS
 62
     8
 10
9.0421611397
 20
1.6855306079
 30
0.0
  0
VERTEX
  5
2C9
  8
0
  6
CONTINUOUS
 62
     8
 10
9.0104998624
 20
1.6672529415
 30
0.0
  0
VERTEX
  5
2CA
  8
0
  6
CONTINUOUS
 62
     8
 10
8.9771425056
 20
1.650009911
 30
0.0
  0
VERTEX
  5
2CB
  8
0
  6
CONTINUOUS
 62
     8
 10
8.9421903628
 20
1.6338538851
 30
0.0
  0
VERTEX
  5
2CC
  8
0
  6
CONTINUOUS
 62
     8
 10
8.9057496404
 20
1.6188339023
 30
0.0
  0
VERTEX
  5
2CD
  8
0
  6
CONTINUOUS
 62
     8
 10
8.8679309461
 20
1.6049956147
 30
0.0
  0
VERTEX
  5
2CE
  8
0
  6
CONTINUOUS
 62
     8
 10
8.8288492074
 20
1.5923810019
 30
0.0
  0
VERTEX
  5
2CF
  8
0
  6
CONTINUOUS
 62
     8
 10
8.7886230273
 20
1.5810284176
 30
0.0
  0
VERTEX
  5
2D0
  8
0
  6
CONTINUOUS
 62
     8
 10
8.7473745735
 20
1.5709723466
 30
0.0
  0
VERTEX
  5
2D1
  8
0
  6
CONTINUOUS
 62
     8
 10
8.7052292288
 20
1.5622432622
 30
0.0
  0
VERTEX
  5
2D2
  8
0
  6
CONTINUOUS
 62
     8
 10
8.6623148648
 20
1.5548677465
 30
0.0
  0
VERTEX
  5
2D3
  8
0
  6
CONTINUOUS
 62
     8
 10
8.6187618163
 20
1.5488681754
 30
0.0
  0
VERTEX
  5
2D4
  8
0
  6
CONTINUOUS
 62
     8
 10
8.5747024405
 20
1.5442627643
 30
0.0
  0
VERTEX
  5
2D5
  8
0
  6
CONTINUOUS
 62
     8
 10
8.5302704685
 20
1.5410654927
 30
0.0
  0
VERTEX
  5
2D6
  8
0
  6
CONTINUOUS
 62
     8
 10
8.4856009019
 20
1.5392860742
 30
0.0
  0
VERTEX
  5
2D7
  8
0
  6
CONTINUOUS
 62
     8
 10
8.4408293646
 20
1.5389299121
 30
0.0
  0
VERTEX
  5
2D8
  8
0
  6
CONTINUOUS
 62
     8
 10
8.3960917916
 20
1.539998099
 30
0.0
  0
VERTEX
  5
2D9
  8
0
  6
CONTINUOUS
 62
     8
 10
8.3515241179
 20
1.542487387
 30
0.0
  0
VERTEX
  5
2DA
  8
0
  6
CONTINUOUS
 62
     8
 10
8.3072616044
 20
1.5463902177
 30
0.0
  0
VERTEX
  5
2DB
  8
0
  6
CONTINUOUS
 62
     8
 10
8.2634387861
 20
1.5516947218
 30
0.0
  0
VERTEX
  5
2DC
  8
0
  6
CONTINUOUS
 62
     8
 10
8.2201886681
 20
1.5583848246
 30
0.0
  0
VERTEX
  5
2DD
  8
0
  6
CONTINUOUS
 62
     8
 10
8.1776426483
 20
1.5664401705
 30
0.0
  0
VERTEX
  5
2DE
  8
0
  6
CONTINUOUS
 62
     8
 10
8.1359298947
 20
1.575836303
 30
0.0
  0
VERTEX
  5
2DF
  8
0
  6
CONTINUOUS
 62
     8
 10
8.0951771382
 20
1.5865447242
 30
0.0
  0
VERTEX
  5
2E0
  8
0
  6
CONTINUOUS
 62
     8
 10
8.0555081023
 20
1.5985328653
 30
0.0
  0
VERTEX
  5
2E1
  8
0
  6
CONTINUOUS
 62
     8
 10
8.0170432695
 20
1.6117643407
 30
0.0
  0
VERTEX
  5
2E2
  8
0
  6
CONTINUOUS
 62
     8
 10
7.9798994536
 20
1.6261989559
 30
0.0
  0
VERTEX
  5
2E3
  8
0
  6
CONTINUOUS
 62
     8
 10
7.9441894823
 20
1.6417928901
 30
0.0
  0
VERTEX
  5
2E4
  8
0
  6
CONTINUOUS
 62
     8
 10
7.910021769
 20
1.6584987645
 30
0.0
  0
VERTEX
  5
2E5
  8
0
  6
CONTINUOUS
 62
     8
 10
7.8775001254
 20
1.6762658697
 30
0.0
  0
VERTEX
  5
2E6
  8
0
  6
CONTINUOUS
 62
     8
 10
7.8467232617
 20
1.695040215
 30
0.0
  0
VERTEX
  5
2E7
  8
0
  6
CONTINUOUS
 62
     8
 10
7.817784703
 20
1.714764816
 30
0.0
  0
VERTEX
  5
2E8
  8
0
  6
CONTINUOUS
 62
     8
 10
7.7907722897
 20
1.7353797436
 30
0.0
  0
VERTEX
  5
2E9
  8
0
  6
CONTINUOUS
 62
     8
 10
7.7657680937
 20
1.7568224121
 30
0.0
  0
VERTEX
  5
2EA
  8
0
  6
CONTINUOUS
 62
     8
 10
7.7428480224
 20
1.7790276874
 30
0.0
  0
VERTEX
  5
2EB
  8
0
  6
CONTINUOUS
 62
     8
 10
7.7220817029
 20
1.8019281344
 30
0.0
  0
VERTEX
  5
2EC
  8
0
  6
CONTINUOUS
 62
     8
 10
7.7035321634
 20
1.8254542
 30
0.0
  0
VERTEX
  5
2ED
  8
0
  6
CONTINUOUS
 62
     8
 10
7.6872558211
 20
1.84953446
 30
0.0
  0
VERTEX
  5
2EE
  8
0
  6
CONTINUOUS
 62
     8
 10
7.6733020408
 20
1.8740957545
 30
0.0
  0
VERTEX
  5
2EF
  8
0
  6
CONTINUOUS
 62
     8
 10
7.6617131871
 20
1.8990635161
 30
0.0
  0
VERTEX
  5
2F0
  8
0
  6
CONTINUOUS
 62
     8
 10
7.6525245208
 20
1.9243618907
 30
0.0
  0
VERTEX
  5
2F1
  8
0
  6
CONTINUOUS
 62
     8
 10
7.6457638873
 20
1.9499140958
 30
0.0
  0
VERTEX
  5
2F2
  8
0
  6
CONTINUOUS
 62
     8
 10
7.6414518468
 20
1.9756424662
 30
0.0
  0
VERTEX
  5
2F3
  8
0
  6
CONTINUOUS
 62
     8
 10
7.6396014923
 20
2.0014689173
 30
0.0
  0
VERTEX
  5
2F4
  8
0
  6
CONTINUOUS
 62
     8
 10
7.6395243855
 20
2.0079316518
 30
0.0
  0
SEQEND
  5
2F5
  8
0
  6
CONTINUOUS
 62
     8
  0
POLYLINE
  5
F8
  8
0
  6
CONTINUOUS
 62
     8
 66
     1
 10
0.0
 20
0.0
 30
0.0
  0
VERTEX
  5
2F6
  8
0
  6
CONTINUOUS
 62
     8
 10
8.9820009145
 20
2.3653226844
 30
0.0
  0
VERTEX
  5
2F7
  8
0
  6
CONTINUOUS
 62
     8
 10
9.0116536408
 20
2.3471881897
 30
0.0
  0
VERTEX
  5
2F8
  8
0
  6
CONTINUOUS
 62
     8
 10
9.0394473529
 20
2.3280976133
 30
0.0
  0
VERTEX
  5
2F9
  8
0
  6
CONTINUOUS
 62
     8
 10
9.06528967
 20
2.3081143435
 30
0.0
  0
VERTEX
  5
2FA
  8
0
  6
CONTINUOUS
 62
     8
 10
9.0890947965
 20
2.2873047922
 30
0.0
  0
VERTEX
  5
2FB
  8
0
  6
CONTINUOUS
 62
     8
 10
9.1107836488
 20
2.2657380821
 30
0.0
  0
VERTEX
  5
2FC
  8
0
  6
CONTINUOUS
 62
     8
 10
9.1302841887
 20
2.2434858543
 30
0.0
  0
VERTEX
  5
2FD
  8
0
  6
CONTINUOUS
 62
     8
 10
9.147531625
 20
2.2206220324
 30
0.0
  0
VERTEX
  5
2FE
  8
0
  6
CONTINUOUS
 62
     8
 10
9.162468607
 20
2.1972225304
 30
0.0
  0
VERTEX
  5
2FF
  8
0
  6
CONTINUOUS
 62
     8
 10
9.1750455627
 20
2.1733651186
 30
0.0
  0
VERTEX
  5
300
  8
0
  6
CONTINUOUS
 62
     8
 10
9.1852207235
 20
2.1491290488
 30
0.0
  0
VERTEX
  5
301
  8
0
  6
CONTINUOUS
 62
     8
 10
9.1929603326
 20
2.1245948152
 30
0.0
  0
VERTEX
  5
302
  8
0
  6
CONTINUOUS
 62
     8
 10
9.1982385928
 20
2.0998439449
 30
0.0
  0
VERTEX
  5
303
  8
0
  6
CONTINUOUS
 62
     8
 10
9.2010379773
 20
2.0749586082
 30
0.0
  0
VERTEX
  5
304
  8
0
  6
CONTINUOUS
 62
     8
 10
9.2013492563
 20
2.0500215145
 30
0.0
  0
VERTEX
  5
305
  8
0
  6
CONTINUOUS
 62
     8
 10
9.1991713407
 20
2.025115493
 30
0.0
  0
VERTEX
  5
306
  8
0
  6
CONTINUOUS
 62
     8
 10
9.1945114901
 20
2.000323253
 30
0.0
  0
VERTEX
  5
307
  8
0
  6
CONTINUOUS
 62
     8
 10
9.1873851311
 20
1.9757271895
 30
0.0
  0
VERTEX
  5
308
  8
0
  6
CONTINUOUS
 62
     8
 10
9.1778160127
 20
1.9514089642
 30
0.0
  0
VERTEX
  5
309
  8
0
  6
CONTINUOUS
 62
     8
 10
9.1658358955
 20
1.9274494154
 30
0.0
  0
VERTEX
  5
30A
  8
0
  6
CONTINUOUS
 62
     8
 10
9.1514845124
 20
1.903928117
 30
0.0
  0
VERTEX
  5
30B
  8
0
  6
CONTINUOUS
 62
     8
 10
9.134809621
 20
1.8809231683
 30
0.0
  0
VERTEX
  5
30C
  8
0
  6
CONTINUOUS
 62
     8
 10
9.1158666012
 20
1.8585110223
 30
0.0
  0
VERTEX
  5
30D
  8
0
  6
CONTINUOUS
 62
     8
 10
9.0947183518
 20
1.8367661264
 30
0.0
  0
VERTEX
  5
30E
  8
0
  6
CONTINUOUS
 62
     8
 10
9.0714351348
 20
1.8157607129
 30
0.0
  0
VERTEX
  5
30F
  8
0
  6
CONTINUOUS
 62
     8
 10
9.0460943227
 20
1.7955645331
 30
0.0
  0
VERTEX
  5
310
  8
0
  6
CONTINUOUS
 62
     8
 10
9.0187800549
 20
1.7762447192
 30
0.0
  0
VERTEX
  5
311
  8
0
  6
CONTINUOUS
 62
     8
 10
8.9895830604
 20
1.7578654422
 30
0.0
  0
VERTEX
  5
312
  8
0
  6
CONTINUOUS
 62
     8
 10
8.9586004105
 20
1.7404877092
 30
0.0
  0
VERTEX
  5
313
  8
0
  6
CONTINUOUS
 62
     8
 10
8.9259349144
 20
1.7241693141
 30
0.0
  0
VERTEX
  5
314
  8
0
  6
CONTINUOUS
 62
     8
 10
8.8916951404
 20
1.7089644307
 30
0.0
  0
VERTEX
  5
315
  8
0
  6
CONTINUOUS
 62
     8
 10
8.8559948269
 20
1.6949235718
 30
0.0
  0
VERTEX
  5
316
  8
0
  6
CONTINUOUS
 62
     8
 10
8.8189525409
 20
1.6820933924
 30
0.0
  0
VERTEX
  5
317
  8
0
  6
CONTINUOUS
 62
     8
 10
8.7806914032
 20
1.6705164706
 30
0.0
  0
VERTEX
  5
318
  8
0
  6
CONTINUOUS
 62
     8
 10
8.7413384557
 20
1.6602313025
 30
0.0
  0
VERTEX
  5
319
  8
0
  6
CONTINUOUS
 62
     8
 10
8.7010244221
 20
1.6512720433
 30
0.0
  0
VERTEX
  5
31A
  8
0
  6
CONTINUOUS
 62
     8
 10
8.6598832281
 20
1.6436684707
 30
0.0
  0
VERTEX
  5
31B
  8
0
  6
CONTINUOUS
 62
     8
 10
8.6180515475
 20
1.6374458418
 30
0.0
  0
VERTEX
  5
31C
  8
0
  6
CONTINUOUS
 62
     8
 10
8.575668349
 20
1.6326247818
 30
0.0
  0
VERTEX
  5
31D
  8
0
  6
CONTINUOUS
 62
     8
 10
8.5328744416
 20
1.6292213504
 30
0.0
  0
VERTEX
  5
31E
  8
0
  6
CONTINUOUS
 62
     8
 10
8.489811931
 20
1.627246848
 30
0.0
  0
VERTEX
  5
31F
  8
0
  6
CONTINUOUS
 62
     8
 10
8.4466238822
 20
1.6267078303
 30
0.0
  0
VERTEX
  5
320
  8
0
  6
CONTINUOUS
 62
     8
 10
8.4034538007
 20
1.6276060784
 30
0.0
  0
VERTEX
  5
321
  8
0
  6
CONTINUOUS
 62
     8
 10
8.3604450626
 20
1.6299385988
 30
0.0
  0
VERTEX
  5
322
  8
0
  6
CONTINUOUS
 62
     8
 10
8.3177405254
 20
1.6336976984
 30
0.0
  0
VERTEX
  5
323
  8
0
  6
CONTINUOUS
 62
     8
 10
8.2754820873
 20
1.6388708195
 30
0.0
  0
VERTEX
  5
324
  8
0
  6
CONTINUOUS
 62
     8
 10
8.2338100909
 20
1.6454408246
 30
0.0
  0
VERTEX
  5
325
  8
0
  6
CONTINUOUS
 62
     8
 10
8.192862986
 20
1.6533858614
 30
0.0
  0
VERTEX
  5
326
  8
0
  6
CONTINUOUS
 62
     8
 10
8.1527767855
 20
1.6626795576
 30
0.0
  0
VERTEX
  5
327
  8
0
  6
CONTINUOUS
 62
     8
 10
8.1136846501
 20
1.6732910206
 30
0.0
  0
VERTEX
  5
328
  8
0
  6
CONTINUOUS
 62
     8
 10
8.075716448
 20
1.6851850323
 30
0.0
  0
VERTEX
  5
329
  8
0
  6
CONTINUOUS
 62
     8
 10
8.0389983267
 20
1.6983220565
 30
0.0
  0
VERTEX
  5
32A
  8
0
  6
CONTINUOUS
 62
     8
 10
8.0036521818
 20
1.7126584263
 30
0.0
  0
VERTEX
  5
32B
  8
0
  6
CONTINUOUS
 62
     8
 10
7.96979554
 20
1.7281465903
 30
0.0
  0
VERTEX
  5
32C
  8
0
  6
CONTINUOUS
 62
     8
 10
7.9375407722
 20
1.7447350293
 30
0.0
  0
VERTEX
  5
32D
  8
0
  6
CONTINUOUS
 62
     8
 10
7.9069950862
 20
1.7623686785
 30
0.0
  0
VERTEX
  5
32E
  8
0
  6
CONTINUOUS
 62
     8
 10
7.8782599535
 20
1.7809889596
 30
0.0
  0
VERTEX
  5
32F
  8
0
  6
CONTINUOUS
 62
     8
 10
7.8514307595
 20
1.8005339828
 30
0.0
  0
VERTEX
  5
330
  8
0
  6
CONTINUOUS
 62
     8
 10
7.826596748
 20
1.820938878
 30
0.0
  0
VERTEX
  5
331
  8
0
  6
CONTINUOUS
 62
     8
 10
7.8038402888
 20
1.8421357982
 30
0.0
  0
VERTEX
  5
332
  8
0
  6
CONTINUOUS
 62
     8
 10
7.7832370238
 20
1.8640543747
 30
0.0
  0
VERTEX
  5
333
  8
0
  6
CONTINUOUS
 62
     8
 10
7.7648554391
 20
1.8866217841
 30
0.0
  0
VERTEX
  5
334
  8
0
  6
CONTINUOUS
 62
     8
 10
7.7487565408
 20
1.9097630551
 30
0.0
  0
VERTEX
  5
335
  8
0
  6
CONTINUOUS
 62
     8
 10
7.7349938421
 20
1.9334013156
 30
0.0
  0
VERTEX
  5
336
  8
0
  6
CONTINUOUS
 62
     8
 10
7.7236130263
 20
1.9574580471
 30
0.0
  0
VERTEX
  5
337
  8
0
  6
CONTINUOUS
 62
     8
 10
7.7146519467
 20
1.9818533241
 30
0.0
  0
VERTEX
  5
338
  8
0
  6
CONTINUOUS
 62
     8
 10
7.7081402897
 20
2.0065061287
 30
0.0
  0
VERTEX
  5
339
  8
0
  6
CONTINUOUS
 62
     8
 10
7.7040998081
 20
2.0313345447
 30
0.0
  0
VERTEX
  5
33A
  8
0
  6
CONTINUOUS
 62
     8
 10
7.7025438281
 20
2.0562561023
 30
0.0
  0
VERTEX
  5
33B
  8
0
  6
CONTINUOUS
 62
     8
 10
7.7034775354
 20
2.0811880322
 30
0.0
  0
VERTEX
  5
33C
  8
0
  6
CONTINUOUS
 62
     8
 10
7.7068978444
 20
2.1060474904
 30
0.0
  0
VERTEX
  5
33D
  8
0
  6
CONTINUOUS
 62
     8
 10
7.7127933993
 20
2.1307518873
 30
0.0
  0
VERTEX
  5
33E
  8
0
  6
CONTINUOUS
 62
     8
 10
7.7211446252
 20
2.155219187
 30
0.0
  0
VERTEX
  5
33F
  8
0
  6
CONTINUOUS
 62
     8
 10
7.7319237024
 20
2.1793681021
 30
0.0
  0
VERTEX
  5
340
  8
0
  6
CONTINUOUS
 62
     8
 10
7.7450949037
 20
2.2031184079
 30
0.0
  0
VERTEX
  5
341
  8
0
  6
CONTINUOUS
 62
     8
 10
7.7606144773
 20
2.2263912041
 30
0.0
  0
VERTEX
  5
342
  8
0
  6
CONTINUOUS
 62
     8
 10
7.7784308415
 20
2.2491091772
 30
0.0
  0
VERTEX
  5
343
  8
0
  6
CONTINUOUS
 62
     8
 10
7.7984848311
 20
2.2711968618
 30
0.0
  0
VERTEX
  5
344
  8
0
  6
CONTINUOUS
 62
     8
 10
7.8207097619
 20
2.2925809183
 30
0.0
  0
VERTEX
  5
345
  8
0
  6
CONTINUOUS
 62
     8
 10
7.8450318783
 20
2.3131902707
 30
0.0
  0
VERTEX
  5
346
  8
0
  6
CONTINUOUS
 62
     8
 10
7.8713703626
 20
2.3329564714
 30
0.0
  0
VERTEX
  5
347
  8
0
  6
CONTINUOUS
 62
     8
 10
7.8996377148
 20
2.3518138609
 30
0.0
  0
VERTEX
  5
348
  8
0
  6
CONTINUOUS
 62
     8
 10
7.9297400929
 20
2.369699764
 30
0.0
  0
VERTEX
  5
349
  8
0
  6
CONTINUOUS
 62
     8
 10
7.9615773842
 20
2.3865548302
 30
0.0
  0
VERTEX
  5
34A
  8
0
  6
CONTINUOUS
 62
     8
 10
7.9950439096
 20
2.4023230213
 30
0.0
  0
VERTEX
  5
34B
  8
0
  6
CONTINUOUS
 62
     8
 10
8.0300285097
 20
2.4169519608
 30
0.0
  0
VERTEX
  5
34C
  8
0
  6
CONTINUOUS
 62
     8
 10
8.0664148957
 20
2.4303930759
 30
0.0
  0
VERTEX
  5
34D
  8
0
  6
CONTINUOUS
 62
     8
 10
8.1040822415
 20
2.4426017004
 30
0.0
  0
VERTEX
  5
34E
  8
0
  6
CONTINUOUS
 62
     8
 10
8.1429054237
 20
2.453537273
 30
0.0
  0
VERTEX
  5
34F
  8
0
  6
CONTINUOUS
 62
     8
 10
8.1827554815
 20
2.4631634829
 30
0.0
  0
VERTEX
  5
350
  8
0
  6
CONTINUOUS
 62
     8
 10
8.2234999803
 20
2.4714483599
 30
0.0
  0
VERTEX
  5
351
  8
0
  6
CONTINUOUS
 62
     8
 10
8.2645243474
 20
2.4782929404
 30
0.0
  0
SEQEND
  5
352
  8
0
  6
CONTINUOUS
 62
     8
  0
ARC
  5
F9
  8
0
  6
CONTINUOUS
 62
     8
 10
8.5069986003
 20
1.5009277303
 30
0.0
 40
0.9863091986116704
 50
61.2103253432
 51
82.2780774966
  0
POLYLINE
  5
FA
  8
0
  6
CONTINUOUS
 62
     8
 66
     1
 10
0.0
 20
0.0
 30
0.0
  0
VERTEX
  5
353
  8
0
  6
CONTINUOUS
 62
     8
 10
9.2222413993
 20
1.7058983099
 30
0.0
  0
VERTEX
  5
354
  8
0
  6
CONTINUOUS
 62
     8
 10
9.2146234394
 20
1.6887998954
 30
0.0
  0
VERTEX
  5
355
  8
0
  6
CONTINUOUS
 62
     8
 10
9.2016668096
 20
1.6645228003
 30
0.0
  0
VERTEX
  5
356
  8
0
  6
CONTINUOUS
 62
     8
 10
9.1863930883
 20
1.6406988853
 30
0.0
  0
VERTEX
  5
357
  8
0
  6
CONTINUOUS
 62
     8
 10
9.1688494626
 20
1.6174018495
 30
0.0
  0
VERTEX
  5
358
  8
0
  6
CONTINUOUS
 62
     8
 10
9.1490901717
 20
1.5947036558
 30
0.0
  0
VERTEX
  5
359
  8
0
  6
CONTINUOUS
 62
     8
 10
9.1271763383
 20
1.5726744334
 30
0.0
  0
VERTEX
  5
35A
  8
0
  6
CONTINUOUS
 62
     8
 10
9.1031756189
 20
1.5513823361
 30
0.0
  0
VERTEX
  5
35B
  8
0
  6
CONTINUOUS
 62
     8
 10
9.0771622358
 20
1.5308931413
 30
0.0
  0
VERTEX
  5
35C
  8
0
  6
CONTINUOUS
 62
     8
 10
9.0492165788
 20
1.5112702001
 30
0.0
  0
VERTEX
  5
35D
  8
0
  6
CONTINUOUS
 62
     8
 10
9.0194250307
 20
1.4925741568
 30
0.0
  0
VERTEX
  5
35E
  8
0
  6
CONTINUOUS
 62
     8
 10
8.987879693
 20
1.4748627903
 30
0.0
  0
VERTEX
  5
35F
  8
0
  6
CONTINUOUS
 62
     8
 10
8.9546780325
 20
1.4581908702
 30
0.0
  0
VERTEX
  5
360
  8
0
  6
CONTINUOUS
 62
     8
 10
8.9199227303
 20
1.4426098902
 30
0.0
  0
VERTEX
  5
361
  8
0
  6
CONTINUOUS
 62
     8
 10
8.8837211452
 20
1.4281680571
 30
0.0
  0
VERTEX
  5
362
  8
0
  6
CONTINUOUS
 62
     8
 10
8.8461851971
 20
1.4149099847
 30
0.0
  0
VERTEX
  5
363
  8
0
  6
CONTINUOUS
 62
     8
 10
8.8074309547
 20
1.4028766348
 30
0.0
  0
VERTEX
  5
364
  8
0
  6
CONTINUOUS
 62
     8
 10
8.7675781745
 20
1.3921052312
 30
0.0
  0
VERTEX
  5
365
  8
0
  6
CONTINUOUS
 62
     8
 10
8.7267500225
 20
1.3826290386
 30
0.0
  0
VERTEX
  5
366
  8
0
  6
CONTINUOUS
 62
     8
 10
8.6850727629
 20
1.3744773631
 30
0.0
  0
VERTEX
  5
367
  8
0
  6
CONTINUOUS
 62
     8
 10
8.642675123
 20
1.3676754246
 30
0.0
  0
VERTEX
  5
368
  8
0
  6
CONTINUOUS
 62
     8
 10
8.5996881636
 20
1.3622442221
 30
0.0
  0
VERTEX
  5
369
  8
0
  6
CONTINUOUS
 62
     8
 10
8.5562447861
 20
1.3582005491
 30
0.0
  0
VERTEX
  5
36A
  8
0
  6
CONTINUOUS
 62
     8
 10
8.5124792922
 20
1.3555568883
 30
0.0
  0
VERTEX
  5
36B
  8
0
  6
CONTINUOUS
 62
     8
 10
8.4685269429
 20
1.3543214267
 30
0.0
  0
VERTEX
  5
36C
  8
0
  6
CONTINUOUS
 62
     8
 10
8.4245235951
 20
1.3544979961
 30
0.0
  0
VERTEX
  5
36D
  8
0
  6
CONTINUOUS
 62
     8
 10
8.3806052101
 20
1.3560860276
 30
0.0
  0
VERTEX
  5
36E
  8
0
  6
CONTINUOUS
 62
     8
 10
8.3369075929
 20
1.3590806119
 30
0.0
  0
VERTEX
  5
36F
  8
0
  6
CONTINUOUS
 62
     8
 10
8.2935657973
 20
1.3634725144
 30
0.0
  0
VERTEX
  5
370
  8
0
  6
CONTINUOUS
 62
     8
 10
8.2507138394
 20
1.3692481595
 30
0.0
  0
VERTEX
  5
371
  8
0
  6
CONTINUOUS
 62
     8
 10
8.2084840247
 20
1.3763896614
 30
0.0
  0
VERTEX
  5
372
  8
0
  6
CONTINUOUS
 62
     8
 10
8.1670070508
 20
1.3848749732
 30
0.0
  0
VERTEX
  5
373
  8
0
  6
CONTINUOUS
 62
     8
 10
8.1264110098
 20
1.3946778647
 30
0.0
  0
VERTEX
  5
374
  8
0
  6
CONTINUOUS
 62
     8
 10
8.0868214788
 20
1.4057680495
 30
0.0
  0
VERTEX
  5
375
  8
0
  6
CONTINUOUS
 62
     8
 10
8.0483607295
 20
1.4181112227
 30
0.0
  0
VERTEX
  5
376
  8
0
  6
CONTINUOUS
 62
     8
 10
8.0111476563
 20
1.4316692212
 30
0.0
  0
VERTEX
  5
377
  8
0
  6
CONTINUOUS
 62
     8
 10
7.9752973164
 20
1.4464001704
 30
0.0
  0
VERTEX
  5
378
  8
0
  6
CONTINUOUS
 62
     8
 10
7.9409205348
 20
1.4622585321
 30
0.0
  0
VERTEX
  5
379
  8
0
  6
CONTINUOUS
 62
     8
 10
7.9081235161
 20
1.4791952688
 30
0.0
  0
VERTEX
  5
37A
  8
0
  6
CONTINUOUS
 62
     8
 10
7.8770076867
 20
1.4971580547
 30
0.0
  0
VERTEX
  5
37B
  8
0
  6
CONTINUOUS
 62
     8
 10
7.8476692194
 20
1.5160913706
 30
0.0
  0
VERTEX
  5
37C
  8
0
  6
CONTINUOUS
 62
     8
 10
7.8201987547
 20
1.5359366642
 30
0.0
  0
VERTEX
  5
37D
  8
0
  6
CONTINUOUS
 62
     8
 10
7.7946812375
 20
1.5566326249
 30
0.0
  0
VERTEX
  5
37E
  8
0
  6
CONTINUOUS
 62
     8
 10
7.7711955504
 20
1.5781152748
 30
0.0
  0
VERTEX
  5
37F
  8
0
  6
CONTINUOUS
 62
     8
 10
7.7498142307
 20
1.6003181928
 30
0.0
  0
VERTEX
  5
380
  8
0
  6
CONTINUOUS
 62
     8
 10
7.7306033855
 20
1.6231727425
 30
0.0
  0
VERTEX
  5
381
  8
0
  6
CONTINUOUS
 62
     8
 10
7.7136224394
 20
1.6466083381
 30
0.0
  0
VERTEX
  5
382
  8
0
  6
CONTINUOUS
 62
     8
 10
7.6989238556
 20
1.6705524855
 30
0.0
  0
VERTEX
  5
383
  8
0
  6
CONTINUOUS
 62
     8
 10
7.6865530711
 20
1.6949312387
 30
0.0
  0
VERTEX
  5
384
  8
0
  6
CONTINUOUS
 62
     8
 10
7.6818073246
 20
1.7058983099
 30
0.0
  0
SEQEND
  5
385
  8
0
  6
CONTINUOUS
 62
     8
  0
ENDSEC
  0
EOF
