  0
SECTION
  2
HEADER
  9
$ACADVER
  1
AC1015
  9
$ACADMAINTVER
 70
     6
  9
$DWGCODEPAGE
  3
ANSI_1252
  9
$INSBASE
 10
0.0
 20
0.0
 30
0.0
  9
$EXTMIN
 10
0.0
 20
0.0
 30
0.0
  9
$EXTMAX
 10
10.12
 20
15.5
 30
0.0
  9
$LIMMIN
 10
0.0
 20
0.0
  9
$LIMMAX
 10
10.12
 20
15.5
  9
$ORTHOMODE
 70
     1
  9
$REGENMODE
 70
     1
  9
$FILLMODE
 70
     1
  9
$QTEXTMODE
 70
     0
  9
$MIRRTEXT
 70
     0
  9
$LTSCALE
 40
0.375
  9
$ATTMODE
 70
     1
  9
$TEXTSIZE
 40
0.125
  9
$TRACEWID
 40
0.05
  9
$TEXTSTYLE
  7
TXT
  9
$CLAYER
  8
OBJECT
  9
$CELTYPE
  6
ByLayer
  9
$CECOLOR
 62
   256
  9
$CELTSCALE
 40
1.0
  9
$DISPSILH
 70
     0
  9
$DIMSCALE
 40
1.0
  9
$DIMASZ
 40
0.18
  9
$DIMEXO
 40
0.063
  9
$DIMDLI
 40
0.281
  9
$DIMRND
 40
0.0
  9
$DIMDLE
 40
0.0
  9
$DIMEXE
 40
0.093
  9
$DIMTP
 40
0.0
  9
$DIMTM
 40
0.0
  9
$DIMTXT
 40
0.125
  9
$DIMCEN
 40
0.09
  9
$DIMTSZ
 40
0.0
  9
$DIMTOL
 70
     0
  9
$DIMLIM
 70
     0
  9
$DIMTIH
 70
     1
  9
$DIMTOH
 70
     1
  9
$DIMSE1
 70
     0
  9
$DIMSE2
 70
     0
  9
$DIMTAD
 70
     0
  9
$DIMZIN
 70
     0
  9
$DIMBLK
  1

  9
$DIMASO
 70
     1
  9
$DIMSHO
 70
     1
  9
$DIMPOST
  1

  9
$DIMAPOST
  1

  9
$DIMALT
 70
     1
  9
$DIMALTD
 70
     1
  9
$DIMALTF
 40
25.4
  9
$DIMLFAC
 40
1.0
  9
$DIMTOFL
 70
     0
  9
$DIMTVP
 40
0.0
  9
$DIMTIX
 70
     0
  9
$DIMSOXD
 70
     0
  9
$DIMSAH
 70
     0
  9
$DIMBLK1
  1

  9
$DIMBLK2
  1

  9
$DIMSTYLE
  2
23NSTD
  9
$DIMCLRD
 70
     0
  9
$DIMCLRE
 70
     0
  9
$DIMCLRT
 70
     0
  9
$DIMTFAC
 40
1.0
  9
$DIMGAP
 40
0.09
  9
$DIMJUST
 70
     0
  9
$DIMSD1
 70
     0
  9
$DIMSD2
 70
     0
  9
$DIMTOLJ
 70
     1
  9
$DIMTZIN
 70
     0
  9
$DIMALTZ
 70
     0
  9
$DIMALTTZ
 70
     0
  9
$DIMUPT
 70
     0
  9
$DIMDEC
 70
     3
  9
$DIMTDEC
 70
     3
  9
$DIMALTU
 70
     2
  9
$DIMALTTD
 70
     1
  9
$DIMTXSTY
  7
TXT
  9
$DIMAUNIT
 70
     0
  9
$DIMADEC
 70
     0
  9
$DIMALTRND
 40
0.0
  9
$DIMAZIN
 70
     0
  9
$DIMDSEP
 70
    46
  9
$DIMATFIT
 70
     1
  9
$DIMFRAC
 70
     0
  9
$DIMLDRBLK
  1

  9
$DIMLUNIT
 70
     2
  9
$DIMLWD
 70
    -2
  9
$DIMLWE
 70
    -2
  9
$DIMTMOVE
 70
     0
  9
$LUNITS
 70
     2
  9
$LUPREC
 70
     3
  9
$SKETCHINC
 40
0.1
  9
$FILLETRAD
 40
0.0
  9
$AUNITS
 70
     0
  9
$AUPREC
 70
     0
  9
$MENU
  1
acad
  9
$ELEVATION
 40
0.0
  9
$PELEVATION
 40
0.0
  9
$THICKNESS
 40
0.0
  9
$LIMCHECK
 70
     0
  9
$CHAMFERA
 40
0.0
  9
$CHAMFERB
 40
0.0
  9
$CHAMFERC
 40
0.0
  9
$CHAMFERD
 40
0.0
  9
$SKPOLY
 70
     0
  9
$TDCREATE
 40
2451030.565223264
  9
$TDUCREATE
 40
2451030.731889930
  9
$TDUPDATE
 40
2454706.572238668
  9
$TDUUPDATE
 40
2454706.738905335
  9
$TDINDWG
 40
0.1118609491
  9
$TDUSRTIMER
 40
0.1118609491
  9
$USRTIMER
 70
     1
  9
$ANGBASE
 50
0.0
  9
$ANGDIR
 70
     0
  9
$PDMODE
 70
     0
  9
$PDSIZE
 40
0.0
  9
$PLINEWID
 40
0.0
  9
$SPLFRAME
 70
     0
  9
$SPLINETYPE
 70
     6
  9
$SPLINESEGS
 70
     8
  9
$HANDSEED
  5
11DB
  9
$SURFTAB1
 70
     6
  9
$SURFTAB2
 70
     6
  9
$SURFTYPE
 70
     6
  9
$SURFU
 70
     6
  9
$SURFV
 70
     6
  9
$UCSBASE
  2

  9
$UCSNAME
  2

  9
$UCSORG
 10
0.0
 20
0.0
 30
0.0
  9
$UCSXDIR
 10
1.0
 20
0.0
 30
0.0
  9
$UCSYDIR
 10
0.0
 20
1.0
 30
0.0
  9
$UCSORTHOREF
  2

  9
$UCSORTHOVIEW
 70
     0
  9
$UCSORGTOP
 10
0.0
 20
0.0
 30
0.0
  9
$UCSORGBOTTOM
 10
0.0
 20
0.0
 30
0.0
  9
$UCSORGLEFT
 10
0.0
 20
0.0
 30
0.0
  9
$UCSORGRIGHT
 10
0.0
 20
0.0
 30
0.0
  9
$UCSORGFRONT
 10
0.0
 20
0.0
 30
0.0
  9
$UCSORGBACK
 10
0.0
 20
0.0
 30
0.0
  9
$PUCSBASE
  2

  9
$PUCSNAME
  2

  9
$PUCSORG
 10
0.0
 20
0.0
 30
0.0
  9
$PUCSXDIR
 10
1.0
 20
0.0
 30
0.0
  9
$PUCSYDIR
 10
0.0
 20
1.0
 30
0.0
  9
$PUCSORTHOREF
  2

  9
$PUCSORTHOVIEW
 70
     0
  9
$PUCSORGTOP
 10
0.0
 20
0.0
 30
0.0
  9
$PUCSORGBOTTOM
 10
0.0
 20
0.0
 30
0.0
  9
$PUCSORGLEFT
 10
0.0
 20
0.0
 30
0.0
  9
$PUCSORGRIGHT
 10
0.0
 20
0.0
 30
0.0
  9
$PUCSORGFRONT
 10
0.0
 20
0.0
 30
0.0
  9
$PUCSORGBACK
 10
0.0
 20
0.0
 30
0.0
  9
$USERI1
 70
     0
  9
$USERI2
 70
     0
  9
$USERI3
 70
     0
  9
$USERI4
 70
     0
  9
$USERI5
 70
     0
  9
$USERR1
 40
0.0
  9
$USERR2
 40
0.0
  9
$USERR3
 40
0.0
  9
$USERR4
 40
0.0
  9
$USERR5
 40
0.0
  9
$WORLDVIEW
 70
     1
  9
$SHADEDGE
 70
     3
  9
$SHADEDIF
 70
    70
  9
$TILEMODE
 70
     1
  9
$MAXACTVP
 70
    16
  9
$PINSBASE
 10
0.0
 20
0.0
 30
0.0
  9
$PLIMCHECK
 70
     0
  9
$PEXTMIN
 10
1.000000000000000E+20
 20
1.000000000000000E+20
 30
1.000000000000000E+20
  9
$PEXTMAX
 10
-1.000000000000000E+20
 20
-1.000000000000000E+20
 30
-1.000000000000000E+20
  9
$PLIMMIN
 10
0.0
 20
0.0
  9
$PLIMMAX
 10
12.0
 20
9.0
  9
$UNITMODE
 70
     0
  9
$VISRETAIN
 70
     0
  9
$PLINEGEN
 70
     0
  9
$PSLTSCALE
 70
     1
  9
$TREEDEPTH
 70
  3020
  9
$CMLSTYLE
  2
Standard
  9
$CMLJUST
 70
     0
  9
$CMLSCALE
 40
1.0
  9
$PROXYGRAPHICS
 70
     1
  9
$MEASUREMENT
 70
     0
  9
$CELWEIGHT
370
    -1
  9
$ENDCAPS
280
     0
  9
$JOINSTYLE
280
     0
  9
$LWDISPLAY
290
     0
  9
$INSUNITS
 70
     0
  9
$HYPERLINKBASE
  1

  9
$STYLESHEET
  1
monochrome.ctb
  9
$XEDIT
290
     1
  9
$CEPSNTYPE
380
     0
  9
$PSTYLEMODE
290
     1
  9
$FINGERPRINTGUID
  2
{01FAD6B8-6DA3-404F-9737-5A7F122D656D}
  9
$VERSIONGUID
  2
{D28472AC-42AE-4AFE-9B1B-BB5F2EE42882}
  9
$EXTNAMES
290
     1
  9
$PSVPSCALE
 40
0.0
  9
$OLESTARTUP
290
     0
  0
ENDSEC
  0
SECTION
  2
CLASSES
  0
CLASS
  1
ACDBDICTIONARYWDFLT
  2
AcDbDictionaryWithDefault
  3
AutoCAD 2000
 90
        0
280
     0
281
     0
  0
CLASS
  1
ACDBPLACEHOLDER
  2
AcDbPlaceHolder
  3
AutoCAD 2000
 90
        0
280
     0
281
     0
  0
CLASS
  1
LAYOUT
  2
AcDbLayout
  3
AutoCAD 2000
 90
        0
280
     0
281
     0
  0
ENDSEC
  0
SECTION
  2
TABLES
  0
TABLE
  2
VPORT
  5
8
330
0
100
AcDbSymbolTable
 70
     2
  0
VPORT
  5
11DA
330
8
100
AcDbSymbolTableRecord
100
AcDbViewportTableRecord
  2
*Active
 70
     0
 10
0.0
 20
0.0
 11
1.0
 21
1.0
 12
5.060000023562457
 22
7.750000036088747
 13
0.0
 23
0.0
 14
1.0
 24
1.0
 15
0.25
 25
0.25
 16
0.0
 26
0.0
 36
1.0
 17
0.0
 27
0.0
 37
0.0
 40
15.6559555053722
 41
1.824707846410684
 42
50.0
 43
0.0
 44
0.0
 50
0.0
 51
0.0
 71
     0
 72
   100
 73
     1
 74
     0
 75
     0
 76
     0
 77
     0
 78
     0
281
     0
 65
     1
110
0.0
120
0.0
130
0.0
111
1.0
121
0.0
131
0.0
112
0.0
122
1.0
132
0.0
 79
     0
146
0.0
  0
ENDTAB
  0
TABLE
  2
LTYPE
  5
5
330
0
100
AcDbSymbolTable
 70
     3
  0
LTYPE
  5
13
330
5
100
AcDbSymbolTableRecord
100
AcDbLinetypeTableRecord
  2
ByBlock
 70
     0
  3

 72
    65
 73
     0
 40
0.0
  0
LTYPE
  5
14
330
5
100
AcDbSymbolTableRecord
100
AcDbLinetypeTableRecord
  2
ByLayer
 70
     0
  3

 72
    65
 73
     0
 40
0.0
  0
LTYPE
  5
15
330
5
100
AcDbSymbolTableRecord
100
AcDbLinetypeTableRecord
  2
CONTINUOUS
 70
     0
  3
Solid line
 72
    65
 73
     0
 40
0.0
  0
LTYPE
  5
25
330
5
100
AcDbSymbolTableRecord
100
AcDbLinetypeTableRecord
  2
HIDDEN
 70
     0
  3
_ _ _ _ _ _ _ _ _ _ _ _ _ _ _ _ _ _ _ _ _ _ _
 72
    65
 73
     2
 40
0.375
 49
0.25
 74
     0
 49
-0.125
 74
     0
  0
LTYPE
  5
27
330
5
100
AcDbSymbolTableRecord
100
AcDbLinetypeTableRecord
  2
CENTER
 70
     0
  3
____ _ ____ _ ____ _ ____ _ ____ _ ____ _ ____
 72
    65
 73
     4
 40
2.0
 49
1.25
 74
     0
 49
-0.25
 74
     0
 49
0.25
 74
     0
 49
-0.25
 74
     0
  0
ENDTAB
  0
TABLE
  2
LAYER
  5
2
330
0
100
AcDbSymbolTable
 70
     9
  0
LAYER
  5
10
330
2
100
AcDbSymbolTableRecord
100
AcDbLayerTableRecord
  2
0
 70
     0
 62
     7
  6
CONTINUOUS
370
    -3
390
F
  0
LAYER
  5
22
330
2
100
AcDbSymbolTableRecord
100
AcDbLayerTableRecord
  2
OBJECT
 70
     0
 62
     7
  6
CONTINUOUS
370
    -3
390
F
  0
LAYER
  5
28
330
2
100
AcDbSymbolTableRecord
100
AcDbLayerTableRecord
  2
DIM
 70
     0
 62
     7
  6
CONTINUOUS
370
    -3
390
F
  0
LAYER
  5
29
330
2
100
AcDbSymbolTableRecord
100
AcDbLayerTableRecord
  2
HIDDEN
 70
     0
 62
     7
  6
HIDDEN
370
    -3
390
F
  0
LAYER
  5
2B
330
2
100
AcDbSymbolTableRecord
100
AcDbLayerTableRecord
  2
TEXT
 70
     0
 62
     7
  6
CONTINUOUS
370
    -3
390
F
  0
LAYER
  5
2C
330
2
100
AcDbSymbolTableRecord
100
AcDbLayerTableRecord
  2
TITLE
 70
     0
 62
     7
  6
CONTINUOUS
370
    -3
390
F
  0
LAYER
  5
2D
330
2
100
AcDbSymbolTableRecord
100
AcDbLayerTableRecord
  2
CENTER
 70
     0
 62
     7
  6
CENTER
370
    -3
390
F
  0
LAYER
  5
2E
330
2
100
AcDbSymbolTableRecord
100
AcDbLayerTableRecord
  2
AM_VIS
 70
     0
 62
     7
  6
CONTINUOUS
370
    -3
390
F
  0
LAYER
  5
2F
330
2
100
AcDbSymbolTableRecord
100
AcDbLayerTableRecord
  2
DEFPOINTS
 70
     0
 62
     7
  6
CONTINUOUS
290
     0
370
    -3
390
F
  0
ENDTAB
  0
TABLE
  2
STYLE
  5
3
330
0
100
AcDbSymbolTable
 70
     2
  0
STYLE
  5
11
330
3
100
AcDbSymbolTableRecord
100
AcDbTextStyleTableRecord
  2
STANDARD
 70
     0
 40
0.0
 41
1.0
 50
0.0
 71
     0
 42
0.2
  3
txt
  4

  0
STYLE
  5
23
330
3
100
AcDbSymbolTableRecord
100
AcDbTextStyleTableRecord
  2
TXT
 70
     0
 40
0.0
 41
0.75
 50
0.0
 71
     0
 42
0.125
  3
TXT.shx
  4

  0
ENDTAB
  0
TABLE
  2
VIEW
  5
6
330
0
100
AcDbSymbolTable
 70
     0
  0
ENDTAB
  0
TABLE
  2
UCS
  5
7
330
0
100
AcDbSymbolTable
 70
     0
  0
ENDTAB
  0
TABLE
  2
APPID
  5
9
330
0
100
AcDbSymbolTable
 70
     1
  0
APPID
  5
12
330
9
100
AcDbSymbolTableRecord
100
AcDbRegAppTableRecord
  2
ACAD
 70
     0
  0
ENDTAB
  0
TABLE
  2
DIMSTYLE
  5
A
330
0
100
AcDbSymbolTable
 70
     2
100
AcDbDimStyleTable
 71
     2
340
31
340
30
  0
DIMSTYLE
105
30
102
{ACAD_REACTORS
330
49D
330
4AB
330
BB1
330
BCD
330
BDA
330
D89
330
DBA
330
DC8
102
}
330
A
100
AcDbSymbolTableRecord
100
AcDbDimStyleTableRecord
  2
23NSTD
 70
     0
 42
0.063
 43
0.281
 44
0.093
140
0.125
170
     1
171
     1
271
     3
272
     3
274
     1
289
     1
340
23
  0
DIMSTYLE
105
31
102
{ACAD_REACTORS
330
BA3
330
BBF
330
BE8
330
D9E
330
DAC
102
}
330
A
100
AcDbSymbolTableRecord
100
AcDbDimStyleTableRecord
  2
23NSTDI
 70
     0
 42
0.063
 43
0.281
 44
0.093
140
0.125
170
     1
171
     1
174
     1
271
     3
272
     3
274
     1
340
23
  0
ENDTAB
  0
TABLE
  2
BLOCK_RECORD
  5
1
330
0
100
AcDbSymbolTable
 70
    13
  0
BLOCK_RECORD
  5
1E
330
1
100
AcDbSymbolTableRecord
100
AcDbBlockTableRecord
  2
*Model_Space
340
21
  0
BLOCK_RECORD
  5
1A
330
1
100
AcDbSymbolTableRecord
100
AcDbBlockTableRecord
  2
*Paper_Space
340
1D
  0
BLOCK_RECORD
  5
49E
330
1
100
AcDbSymbolTableRecord
100
AcDbBlockTableRecord
  2
*D0
340
0
  0
BLOCK_RECORD
  5
4AC
330
1
100
AcDbSymbolTableRecord
100
AcDbBlockTableRecord
  2
*D1
340
0
  0
BLOCK_RECORD
  5
BA4
330
1
100
AcDbSymbolTableRecord
100
AcDbBlockTableRecord
  2
*D2
340
0
  0
BLOCK_RECORD
  5
BB2
330
1
100
AcDbSymbolTableRecord
100
AcDbBlockTableRecord
  2
*D3
340
0
  0
BLOCK_RECORD
  5
BC0
330
1
100
AcDbSymbolTableRecord
100
AcDbBlockTableRecord
  2
*D4
340
0
  0
BLOCK_RECORD
  5
BCE
330
1
100
AcDbSymbolTableRecord
100
AcDbBlockTableRecord
  2
*D5
340
0
  0
BLOCK_RECORD
  5
BDB
330
1
100
AcDbSymbolTableRecord
100
AcDbBlockTableRecord
  2
*D6
340
0
  0
BLOCK_RECORD
  5
BE9
330
1
100
AcDbSymbolTableRecord
100
AcDbBlockTableRecord
  2
*D7
340
0
  0
BLOCK_RECORD
  5
D8A
330
1
100
AcDbSymbolTableRecord
100
AcDbBlockTableRecord
  2
*D8
340
0
  0
BLOCK_RECORD
  5
D9F
330
1
100
AcDbSymbolTableRecord
100
AcDbBlockTableRecord
  2
*D9
340
0
  0
BLOCK_RECORD
  5
DAD
330
1
100
AcDbSymbolTableRecord
100
AcDbBlockTableRecord
  2
*D10
340
0
  0
BLOCK_RECORD
  5
DBB
330
1
100
AcDbSymbolTableRecord
100
AcDbBlockTableRecord
  2
*D11
340
0
  0
BLOCK_RECORD
  5
DC9
330
1
100
AcDbSymbolTableRecord
100
AcDbBlockTableRecord
  2
*D12
340
0
  0
ENDTAB
  0
ENDSEC
  0
SECTION
  2
BLOCKS
  0
BLOCK
  5
1F
330
1E
100
AcDbEntity
  8
0
100
AcDbBlockBegin
  2
*Model_Space
 70
     0
 10
0.0
 20
0.0
 30
0.0
  3
*Model_Space
  1

  0
ENDBLK
  5
20
330
1E
100
AcDbEntity
  8
0
100
AcDbBlockEnd
  0
BLOCK
  5
1B
330
1A
100
AcDbEntity
 67
     1
  8
0
100
AcDbBlockBegin
  2
*Paper_Space
 70
     0
 10
0.0
 20
0.0
 30
0.0
  3
*Paper_Space
  1

  0
ENDBLK
  5
1C
330
1A
100
AcDbEntity
 67
     1
  8
0
100
AcDbBlockEnd
  0
BLOCK
  5
4A9
330
49E
100
AcDbEntity
  8
0
100
AcDbBlockBegin
  2
*D0
 70
     1
 10
0.0
 20
0.0
 30
0.0
  3
*D0
  1

  0
LINE
  5
11A4
330
49E
100
AcDbEntity
  8
DIM
 62
     0
370
    -2
100
AcDbLine
 10
5.013647770740178
 20
13.037226
 30
0.0
 11
5.013647770740178
 21
14.457491
 31
0.0
  0
LINE
  5
11A5
330
49E
100
AcDbEntity
  8
DIM
 62
     0
370
    -2
100
AcDbLine
 10
2.961647770740178
 20
13.037226
 30
0.0
 11
2.961647770740178
 21
14.457491
 31
0.0
  0
LINE
  5
11A6
330
49E
100
AcDbEntity
  8
DIM
 62
     0
370
    -2
100
AcDbLine
 10
4.833647770740178
 20
14.364491
 30
0.0
 11
4.507335270740179
 21
14.364491
 31
0.0
  0
LINE
  5
11A7
330
49E
100
AcDbEntity
  8
DIM
 62
     0
370
    -2
100
AcDbLine
 10
3.141647770740179
 20
14.364491
 30
0.0
 11
3.467960270740178
 21
14.364491
 31
0.0
  0
SOLID
  5
11A8
330
49E
100
AcDbEntity
  8
DIM
 62
     0
100
AcDbTrace
 10
4.833647770740178
 20
14.394491
 30
0.0
 11
4.833647770740178
 21
14.334491
 31
0.0
 12
5.013647770740178
 22
14.364491
 32
0.0
 13
5.013647770740178
 23
14.364491
 33
0.0
  0
SOLID
  5
11A9
330
49E
100
AcDbEntity
  8
DIM
 62
     0
100
AcDbTrace
 10
3.141647770740179
 20
14.394491
 30
0.0
 11
3.141647770740179
 21
14.334491
 31
0.0
 12
2.961647770740178
 22
14.364491
 32
0.0
 13
2.961647770740178
 23
14.364491
 33
0.0
  0
MTEXT
  5
11AA
330
49E
100
AcDbEntity
  8
DIM
 62
     0
100
AcDbMText
 10
3.987647770740178
 20
14.364491
 30
0.0
 40
0.125
 41
0.0
 71
     5
 72
     1
  1
\A1;2.052 [52.1]
  7
TXT
 73
     1
 44
1.0
  0
POINT
  5
11AB
330
49E
100
AcDbEntity
  8
DEFPOINTS
 62
     0
100
AcDbPoint
 10
5.013647770740178
 20
12.97422599999999
 30
0.0
  0
POINT
  5
11AC
330
49E
100
AcDbEntity
  8
DEFPOINTS
 62
     0
100
AcDbPoint
 10
2.961647770740178
 20
12.97422599999999
 30
0.0
  0
POINT
  5
11AD
330
49E
100
AcDbEntity
  8
DEFPOINTS
 62
     0
100
AcDbPoint
 10
2.961647770740178
 20
14.364491
 30
0.0
  0
ENDBLK
  5
4AA
330
49E
100
AcDbEntity
  8
0
100
AcDbBlockEnd
  0
BLOCK
  5
4B7
330
4AC
100
AcDbEntity
  8
0
100
AcDbBlockBegin
  2
*D1
 70
     1
 10
0.0
 20
0.0
 30
0.0
  3
*D1
  1

  0
LINE
  5
11B8
330
4AC
100
AcDbEntity
  8
DIM
 62
     0
370
    -2
100
AcDbLine
 10
3.924647770740178
 20
14.000226
 30
0.0
 11
2.330565770740179
 21
14.000226
 31
0.0
  0
LINE
  5
11B9
330
4AC
100
AcDbEntity
  8
DIM
 62
     0
370
    -2
100
AcDbLine
 10
2.961147770740178
 20
12.46922599999999
 30
0.0
 11
2.330565770740178
 21
12.46922599999999
 31
0.0
  0
LINE
  5
11BA
330
4AC
100
AcDbEntity
  8
DIM
 62
     0
370
    -2
100
AcDbLine
 10
2.423565770740179
 20
13.820226
 30
0.0
 11
2.423565770740179
 21
13.387226
 31
0.0
  0
LINE
  5
11BB
330
4AC
100
AcDbEntity
  8
DIM
 62
     0
370
    -2
100
AcDbLine
 10
2.423565770740178
 20
12.649226
 30
0.0
 11
2.423565770740179
 21
13.082226
 31
0.0
  0
SOLID
  5
11BC
330
4AC
100
AcDbEntity
  8
DIM
 62
     0
100
AcDbTrace
 10
2.393565770740179
 20
13.820226
 30
0.0
 11
2.453565770740179
 21
13.820226
 31
0.0
 12
2.423565770740179
 22
14.000226
 32
0.0
 13
2.423565770740179
 23
14.000226
 33
0.0
  0
SOLID
  5
11BD
330
4AC
100
AcDbEntity
  8
DIM
 62
     0
100
AcDbTrace
 10
2.393565770740178
 20
12.649226
 30
0.0
 11
2.453565770740178
 21
12.649226
 31
0.0
 12
2.423565770740178
 22
12.46922599999999
 32
0.0
 13
2.423565770740178
 23
12.46922599999999
 33
0.0
  0
MTEXT
  5
11BE
330
4AC
100
AcDbEntity
  8
DIM
 62
     0
100
AcDbMText
 10
2.423565770740176
 20
13.234726
 30
0.0
 40
0.125
 41
0.0
 71
     5
 72
     1
  1
\A1;1.531 [38.9]
  7
TXT
 73
     1
 44
1.0
  0
POINT
  5
11BF
330
4AC
100
AcDbEntity
  8
DEFPOINTS
 62
     0
100
AcDbPoint
 10
3.987647770740178
 20
14.000226
 30
0.0
  0
POINT
  5
11C0
330
4AC
100
AcDbEntity
  8
DEFPOINTS
 62
     0
100
AcDbPoint
 10
3.024147770740178
 20
12.46922599999999
 30
0.0
  0
POINT
  5
11C1
330
4AC
100
AcDbEntity
  8
DEFPOINTS
 62
     0
100
AcDbPoint
 10
2.423565770740178
 20
12.46922599999999
 30
0.0
  0
ENDBLK
  5
4B8
330
4AC
100
AcDbEntity
  8
0
100
AcDbBlockEnd
  0
BLOCK
  5
BAF
330
BA4
100
AcDbEntity
  8
0
100
AcDbBlockBegin
  2
*D2
 70
     1
 10
0.0
 20
0.0
 30
0.0
  3
*D2
  1

  0
LINE
  5
11AE
330
BA4
100
AcDbEntity
  8
DIM
 62
     0
370
    -2
100
AcDbLine
 10
2.961147770740178
 20
12.46922599999999
 30
0.0
 11
2.330565770740178
 21
12.46922599999999
 31
0.0
  0
LINE
  5
11AF
330
BA4
100
AcDbEntity
  8
DIM
 62
     0
370
    -2
100
AcDbLine
 10
3.057147770740178
 20
11.96922599999999
 30
0.0
 11
2.330565770740178
 21
11.96922599999999
 31
0.0
  0
LINE
  5
11B0
330
BA4
100
AcDbEntity
  8
DIM
 62
     0
370
    -2
100
AcDbLine
 10
2.423565770740178
 20
12.649226
 30
0.0
 11
2.423565770740178
 21
12.829226
 31
0.0
  0
LINE
  5
11B1
330
BA4
100
AcDbEntity
  8
DIM
 62
     0
370
    -2
100
AcDbLine
 10
2.423565770740178
 20
11.78922599999999
 30
0.0
 11
2.423565770740178
 21
11.60922599999999
 31
0.0
  0
SOLID
  5
11B2
330
BA4
100
AcDbEntity
  8
DIM
 62
     0
100
AcDbTrace
 10
2.393565770740178
 20
12.649226
 30
0.0
 11
2.453565770740178
 21
12.649226
 31
0.0
 12
2.423565770740178
 22
12.46922599999999
 32
0.0
 13
2.423565770740178
 23
12.46922599999999
 33
0.0
  0
SOLID
  5
11B3
330
BA4
100
AcDbEntity
  8
DIM
 62
     0
100
AcDbTrace
 10
2.393565770740178
 20
11.78922599999999
 30
0.0
 11
2.453565770740178
 21
11.78922599999999
 31
0.0
 12
2.423565770740178
 22
11.96922599999999
 32
0.0
 13
2.423565770740178
 23
11.96922599999999
 33
0.0
  0
MTEXT
  5
11B4
330
BA4
100
AcDbEntity
  8
DIM
 62
     0
100
AcDbMText
 10
2.423565770740176
 20
12.219226
 30
0.0
 40
0.125
 41
0.0
 71
     5
 72
     1
  1
\A1;0.500 [12.7]
  7
TXT
 73
     1
 44
1.0
  0
POINT
  5
11B5
330
BA4
100
AcDbEntity
  8
DEFPOINTS
 62
     0
100
AcDbPoint
 10
3.024147770740178
 20
12.46922599999999
 30
0.0
  0
POINT
  5
11B6
330
BA4
100
AcDbEntity
  8
DEFPOINTS
 62
     0
100
AcDbPoint
 10
3.120147770740178
 20
11.96922599999999
 30
0.0
  0
POINT
  5
11B7
330
BA4
100
AcDbEntity
  8
DEFPOINTS
 62
     0
100
AcDbPoint
 10
2.423565770740178
 20
11.96922599999999
 30
0.0
  0
ENDBLK
  5
BB0
330
BA4
100
AcDbEntity
  8
0
100
AcDbBlockEnd
  0
BLOCK
  5
BBD
330
BB2
100
AcDbEntity
  8
0
100
AcDbBlockBegin
  2
*D3
 70
     1
 10
0.0
 20
0.0
 30
0.0
  3
*D3
  1

  0
LINE
  5
11C2
330
BB2
100
AcDbEntity
  8
DIM
 62
     0
370
    -2
100
AcDbLine
 10
3.607446557537996
 20
9.429490239195859
 30
0.0
 11
3.100241189341938
 21
9.936912277200498
 31
0.0
  0
LINE
  5
11C3
330
BB2
100
AcDbEntity
  8
DIM
 62
     0
370
    -2
100
AcDbLine
 10
2.900188557537997
 20
8.722534239195859
 30
0.0
 11
2.392983189341939
 21
9.2299562772005
 31
0.0
  0
LINE
  5
11C4
330
BB2
100
AcDbEntity
  8
DIM
 62
     0
370
    -2
100
AcDbLine
 10
3.038681677795082
 20
9.743885267333713
 30
0.0
 11
2.964924220994573
 21
9.67015930505423
 31
0.0
  0
LINE
  5
11C5
330
BB2
100
AcDbEntity
  8
DIM
 62
     0
370
    -2
100
AcDbLine
 10
2.586036473199996
 20
9.291433342774748
 30
0.0
 11
2.659793930000507
 21
9.36515930505423
 31
0.0
  0
SOLID
  5
11C6
330
BB2
100
AcDbEntity
  8
DIM
 62
     0
100
AcDbTrace
 10
3.017473004841662
 20
9.765103000284121
 30
0.0
 11
3.059890350748502
 21
9.722667534383301
 31
0.0
 12
3.165988075497538
 22
9.871137305054229
 32
0.0
 13
3.165988075497538
 23
9.871137305054229
 33
0.0
  0
SOLID
  5
11C7
330
BB2
100
AcDbEntity
  8
DIM
 62
     0
100
AcDbTrace
 10
2.564827800246576
 20
9.312651075725156
 30
0.0
 11
2.607245146153416
 21
9.270215609824337
 31
0.0
 12
2.458730075497539
 22
9.164181305054231
 32
0.0
 13
2.458730075497539
 23
9.164181305054231
 33
0.0
  0
MTEXT
  5
11C8
330
BB2
100
AcDbEntity
  8
DIM
 62
     0
100
AcDbMText
 10
2.81235907549754
 20
9.51765930505423
 30
0.0
 40
0.125
 41
0.0
 71
     5
 72
     1
  1
\A1;1.000 [25.4]
  7
TXT
 73
     1
 44
1.0
  0
POINT
  5
11C9
330
BB2
100
AcDbEntity
  8
DEFPOINTS
 62
     0
100
AcDbPoint
 10
3.651984770740177
 20
9.384933
 30
0.0
  0
POINT
  5
11CA
330
BB2
100
AcDbEntity
  8
DEFPOINTS
 62
     0
100
AcDbPoint
 10
2.944726770740178
 20
8.677977
 30
0.0
  0
POINT
  5
11CB
330
BB2
100
AcDbEntity
  8
DEFPOINTS
 62
     0
100
AcDbPoint
 10
2.458730075497539
 20
9.164181305054231
 30
0.0
  0
ENDBLK
  5
BBE
330
BB2
100
AcDbEntity
  8
0
100
AcDbBlockEnd
  0
BLOCK
  5
BCB
330
BC0
100
AcDbEntity
  8
0
100
AcDbBlockBegin
  2
*D4
 70
     1
 10
0.0
 20
0.0
 30
0.0
  3
*D4
  1

  0
LINE
  5
113D
330
BC0
100
AcDbEntity
  8
DIM
 62
     0
370
    -2
100
AcDbLine
 10
6.12854
 20
13.589226
 30
0.0
 11
6.12854
 21
14.457491
 31
0.0
  0
LINE
  5
113E
330
BC0
100
AcDbEntity
  8
DIM
 62
     0
370
    -2
100
AcDbLine
 10
7.076539999999999
 20
13.589226
 30
0.0
 11
7.076539999999999
 21
14.457491
 31
0.0
  0
LINE
  5
113F
330
BC0
100
AcDbEntity
  8
DIM
 62
     0
370
    -2
100
AcDbLine
 10
5.94854
 20
14.364491
 30
0.0
 11
5.768539999999999
 21
14.364491
 31
0.0
  0
LINE
  5
1140
330
BC0
100
AcDbEntity
  8
DIM
 62
     0
370
    -2
100
AcDbLine
 10
7.256539999999999
 20
14.364491
 30
0.0
 11
7.436539999999999
 21
14.364491
 31
0.0
  0
SOLID
  5
1141
330
BC0
100
AcDbEntity
  8
DIM
 62
     0
100
AcDbTrace
 10
5.94854
 20
14.394491
 30
0.0
 11
5.94854
 21
14.334491
 31
0.0
 12
6.12854
 22
14.364491
 32
0.0
 13
6.12854
 23
14.364491
 33
0.0
  0
SOLID
  5
1142
330
BC0
100
AcDbEntity
  8
DIM
 62
     0
100
AcDbTrace
 10
7.256539999999999
 20
14.394491
 30
0.0
 11
7.256539999999999
 21
14.334491
 31
0.0
 12
7.076539999999999
 22
14.364491
 32
0.0
 13
7.076539999999999
 23
14.364491
 33
0.0
  0
MTEXT
  5
1143
330
BC0
100
AcDbEntity
  8
DIM
 62
     0
100
AcDbMText
 10
6.602539999999999
 20
14.364491
 30
0.0
 40
0.125
 41
0.0
 71
     5
 72
     1
  1
\A1;0.948 [24.1]
  7
TXT
 73
     1
 44
1.0
  0
POINT
  5
1144
330
BC0
100
AcDbEntity
  8
DEFPOINTS
 62
     0
100
AcDbPoint
 10
6.12854
 20
13.526226
 30
0.0
  0
POINT
  5
1145
330
BC0
100
AcDbEntity
  8
DEFPOINTS
 62
     0
100
AcDbPoint
 10
7.076539999999999
 20
13.526226
 30
0.0
  0
POINT
  5
1146
330
BC0
100
AcDbEntity
  8
DEFPOINTS
 62
     0
100
AcDbPoint
 10
7.076539999999999
 20
14.364491
 30
0.0
  0
ENDBLK
  5
BCC
330
BC0
100
AcDbEntity
  8
0
100
AcDbBlockEnd
  0
BLOCK
  5
BD8
330
BCE
100
AcDbEntity
  8
0
100
AcDbBlockBegin
  2
*D5
 70
     1
 10
0.0
 20
0.0
 30
0.0
  3
*D5
  1

  0
LINE
  5
119A
330
BCE
100
AcDbEntity
  8
DIM
 62
     0
370
    -2
100
AcDbLine
 10
3.103147770740178
 20
11.93400299999999
 30
0.0
 11
3.103147770740178
 21
11.612246
 31
0.0
  0
LINE
  5
119B
330
BCE
100
AcDbEntity
  8
DIM
 62
     0
370
    -2
100
AcDbLine
 10
3.768147770740178
 20
11.93400299999999
 30
0.0
 11
3.768147770740178
 21
11.612246
 31
0.0
  0
LINE
  5
119C
330
BCE
100
AcDbEntity
  8
DIM
 62
     0
370
    -2
100
AcDbLine
 10
2.923147770740178
 20
11.705246
 30
0.0
 11
2.743147770740178
 21
11.705246
 31
0.0
  0
LINE
  5
119D
330
BCE
100
AcDbEntity
  8
DIM
 62
     0
370
    -2
100
AcDbLine
 10
3.948147770740178
 20
11.705246
 30
0.0
 11
4.128147770740178
 21
11.705246
 31
0.0
  0
SOLID
  5
119E
330
BCE
100
AcDbEntity
  8
DIM
 62
     0
100
AcDbTrace
 10
2.923147770740178
 20
11.735246
 30
0.0
 11
2.923147770740178
 21
11.675246
 31
0.0
 12
3.103147770740178
 22
11.705246
 32
0.0
 13
3.103147770740178
 23
11.705246
 33
0.0
  0
SOLID
  5
119F
330
BCE
100
AcDbEntity
  8
DIM
 62
     0
100
AcDbTrace
 10
3.948147770740178
 20
11.735246
 30
0.0
 11
3.948147770740178
 21
11.675246
 31
0.0
 12
3.768147770740178
 22
11.705246
 32
0.0
 13
3.768147770740178
 23
11.705246
 33
0.0
  0
MTEXT
  5
11A0
330
BCE
100
AcDbEntity
  8
DIM
 62
     0
100
AcDbMText
 10
4.647835270740178
 20
11.705246
 30
0.0
 40
0.125
 41
0.0
 71
     5
 72
     1
  1
\A1;0.665 [16.9]
  7
TXT
 73
     1
 44
1.0
  0
POINT
  5
11A1
330
BCE
100
AcDbEntity
  8
DEFPOINTS
 62
     0
100
AcDbPoint
 10
3.103147770740178
 20
11.99700299999999
 30
0.0
  0
POINT
  5
11A2
330
BCE
100
AcDbEntity
  8
DEFPOINTS
 62
     0
100
AcDbPoint
 10
3.768147770740178
 20
11.99700299999999
 30
0.0
  0
POINT
  5
11A3
330
BCE
100
AcDbEntity
  8
DEFPOINTS
 62
     0
100
AcDbPoint
 10
3.768147770740178
 20
11.705246
 30
0.0
  0
ENDBLK
  5
BD9
330
BCE
100
AcDbEntity
  8
0
100
AcDbBlockEnd
  0
BLOCK
  5
BE6
330
BDB
100
AcDbEntity
  8
0
100
AcDbBlockBegin
  2
*D6
 70
     1
 10
0.0
 20
0.0
 30
0.0
  3
*D6
  1

  0
LINE
  5
1186
330
BDB
100
AcDbEntity
  8
DIM
 62
     0
370
    -2
100
AcDbLine
 10
2.437462770740178
 20
6.039785999999999
 30
0.0
 11
2.437462770740178
 21
6.530689999999999
 31
0.0
  0
LINE
  5
1187
330
BDB
100
AcDbEntity
  8
DIM
 62
     0
370
    -2
100
AcDbLine
 10
4.107647770740178
 20
5.902908999999999
 30
0.0
 11
4.107647770740178
 21
6.530689999999999
 31
0.0
  0
LINE
  5
1188
330
BDB
100
AcDbEntity
  8
DIM
 62
     0
370
    -2
100
AcDbLine
 10
2.617462770740178
 20
6.437689999999999
 30
0.0
 11
2.752867770740178
 21
6.437689999999999
 31
0.0
  0
LINE
  5
1189
330
BDB
100
AcDbEntity
  8
DIM
 62
     0
370
    -2
100
AcDbLine
 10
3.927647770740178
 20
6.437689999999999
 30
0.0
 11
3.792242770740178
 21
6.437689999999999
 31
0.0
  0
SOLID
  5
118A
330
BDB
100
AcDbEntity
  8
DIM
 62
     0
100
AcDbTrace
 10
2.617462770740178
 20
6.46769
 30
0.0
 11
2.617462770740178
 21
6.407689999999999
 31
0.0
 12
2.437462770740178
 22
6.437689999999999
 32
0.0
 13
2.437462770740178
 23
6.437689999999999
 33
0.0
  0
SOLID
  5
118B
330
BDB
100
AcDbEntity
  8
DIM
 62
     0
100
AcDbTrace
 10
3.927647770740178
 20
6.46769
 30
0.0
 11
3.927647770740178
 21
6.407689999999999
 31
0.0
 12
4.107647770740178
 22
6.437689999999999
 32
0.0
 13
4.107647770740178
 23
6.437689999999999
 33
0.0
  0
MTEXT
  5
118C
330
BDB
100
AcDbEntity
  8
DIM
 62
     0
100
AcDbMText
 10
3.272555270740178
 20
6.437689999999999
 30
0.0
 40
0.125
 41
0.0
 71
     5
 72
     1
  1
\A1;1.670 [42.4]
  7
TXT
 73
     1
 44
1.0
  0
POINT
  5
118D
330
BDB
100
AcDbEntity
  8
DEFPOINTS
 62
     0
100
AcDbPoint
 10
2.437462770740178
 20
5.976785999999999
 30
0.0
  0
POINT
  5
118E
330
BDB
100
AcDbEntity
  8
DEFPOINTS
 62
     0
100
AcDbPoint
 10
4.107647770740178
 20
5.839908999999999
 30
0.0
  0
POINT
  5
118F
330
BDB
100
AcDbEntity
  8
DEFPOINTS
 62
     0
100
AcDbPoint
 10
4.107647770740178
 20
6.437689999999999
 30
0.0
  0
ENDBLK
  5
BE7
330
BDB
100
AcDbEntity
  8
0
100
AcDbBlockEnd
  0
BLOCK
  5
BF4
330
BE9
100
AcDbEntity
  8
0
100
AcDbBlockBegin
  2
*D7
 70
     1
 10
0.0
 20
0.0
 30
0.0
  3
*D7
  1

  0
LINE
  5
1147
330
BE9
100
AcDbEntity
  8
DIM
 62
     0
370
    -2
100
AcDbLine
 10
6.094424
 20
5.902348999999999
 30
0.0
 11
6.094424
 21
6.530689999999999
 31
0.0
  0
LINE
  5
1148
330
BE9
100
AcDbEntity
  8
DIM
 62
     0
370
    -2
100
AcDbLine
 10
7.110657
 20
5.902348999999999
 30
0.0
 11
7.110657
 21
6.530689999999999
 31
0.0
  0
LINE
  5
1149
330
BE9
100
AcDbEntity
  8
DIM
 62
     0
370
    -2
100
AcDbLine
 10
5.914424
 20
6.437689999999999
 30
0.0
 11
5.734423999999999
 21
6.437689999999999
 31
0.0
  0
LINE
  5
114A
330
BE9
100
AcDbEntity
  8
DIM
 62
     0
370
    -2
100
AcDbLine
 10
7.290657
 20
6.437689999999999
 30
0.0
 11
7.470657
 21
6.437689999999999
 31
0.0
  0
SOLID
  5
114B
330
BE9
100
AcDbEntity
  8
DIM
 62
     0
100
AcDbTrace
 10
5.914424
 20
6.46769
 30
0.0
 11
5.914424
 21
6.407689999999999
 31
0.0
 12
6.094424
 22
6.437689999999999
 32
0.0
 13
6.094424
 23
6.437689999999999
 33
0.0
  0
SOLID
  5
114C
330
BE9
100
AcDbEntity
  8
DIM
 62
     0
100
AcDbTrace
 10
7.290657
 20
6.46769
 30
0.0
 11
7.290657
 21
6.407689999999999
 31
0.0
 12
7.110657
 22
6.437689999999999
 32
0.0
 13
7.110657
 23
6.437689999999999
 33
0.0
  0
MTEXT
  5
114D
330
BE9
100
AcDbEntity
  8
DIM
 62
     0
100
AcDbMText
 10
6.602540499999999
 20
6.437689999999999
 30
0.0
 40
0.125
 41
0.0
 71
     5
 72
     1
  1
\A1;1.016 [25.8]
  7
TXT
 73
     1
 44
1.0
  0
POINT
  5
114E
330
BE9
100
AcDbEntity
  8
DEFPOINTS
 62
     0
100
AcDbPoint
 10
6.094424
 20
5.839348999999999
 30
0.0
  0
POINT
  5
114F
330
BE9
100
AcDbEntity
  8
DEFPOINTS
 62
     0
100
AcDbPoint
 10
7.110657
 20
5.839348999999999
 30
0.0
  0
POINT
  5
1150
330
BE9
100
AcDbEntity
  8
DEFPOINTS
 62
     0
100
AcDbPoint
 10
7.110657
 20
6.437689999999999
 30
0.0
  0
ENDBLK
  5
BF5
330
BE9
100
AcDbEntity
  8
0
100
AcDbBlockEnd
  0
BLOCK
  5
D95
330
D8A
100
AcDbEntity
  8
0
100
AcDbBlockBegin
  2
*D8
 70
     1
 10
0.0
 20
0.0
 30
0.0
  3
*D8
  1

  0
LINE
  5
117C
330
D8A
100
AcDbEntity
  8
DIM
 62
     0
370
    -2
100
AcDbLine
 10
3.260612791833233
 20
1.674602524145656
 30
0.0
 11
3.910798102466717
 21
2.330689188854135
 31
0.0
  0
LINE
  5
117D
330
D8A
100
AcDbEntity
  8
DIM
 62
     0
370
    -2
100
AcDbLine
 10
3.970913791833232
 20
0.9706905241456567
 30
0.0
 11
4.621099102466716
 21
1.626777188854134
 31
0.0
  0
LINE
  5
117E
330
D8A
100
AcDbEntity
  8
DIM
 62
     0
370
    -2
100
AcDbLine
 10
3.973187854602656
 20
2.137928926278011
 30
0.0
 11
4.046601274629114
 21
2.065175843686737
 31
0.0
  0
LINE
  5
117F
330
D8A
100
AcDbEntity
  8
DIM
 62
     0
370
    -2
100
AcDbLine
 10
4.427783002341762
 20
1.687422761095463
 30
0.0
 11
4.354369582315303
 21
1.760175843686737
 31
0.0
  0
SOLID
  5
1180
330
D8A
100
AcDbEntity
  8
DIM
 62
     0
100
AcDbTrace
 10
3.99430500750411
 20
2.159237747299752
 30
0.0
 11
3.952070701701202
 21
2.11662010525627
 31
0.0
 12
3.845334928472209
 22
2.264631843686737
 32
0.0
 13
3.845334928472209
 23
2.264631843686737
 33
0.0
  0
SOLID
  5
1181
330
D8A
100
AcDbEntity
  8
DIM
 62
     0
100
AcDbTrace
 10
4.448900155243216
 20
1.708731582117204
 30
0.0
 11
4.406665849440307
 21
1.666113940073721
 31
0.0
 12
4.555635928472208
 22
1.560719843686737
 32
0.0
 13
4.555635928472208
 23
1.560719843686737
 33
0.0
  0
MTEXT
  5
1182
330
D8A
100
AcDbEntity
  8
DIM
 62
     0
100
AcDbMText
 10
4.200485428472209
 20
1.912675843686737
 30
0.0
 40
0.125
 41
0.0
 71
     5
 72
     1
  1
\A1;1.000 [25.4]
  7
TXT
 73
     1
 44
1.0
  0
POINT
  5
1183
330
D8A
100
AcDbEntity
  8
DEFPOINTS
 62
     0
100
AcDbPoint
 10
3.216266770740179
 20
1.629853999999999
 30
0.0
  0
POINT
  5
1184
330
D8A
100
AcDbEntity
  8
DEFPOINTS
 62
     0
100
AcDbPoint
 10
3.926567770740178
 20
0.9259419999999998
 30
0.0
  0
POINT
  5
1185
330
D8A
100
AcDbEntity
  8
DEFPOINTS
 62
     0
100
AcDbPoint
 10
4.555635928472208
 20
1.560719843686737
 30
0.0
  0
ENDBLK
  5
D96
330
D8A
100
AcDbEntity
  8
0
100
AcDbBlockEnd
  0
BLOCK
  5
DAA
330
D9F
100
AcDbEntity
  8
0
100
AcDbBlockBegin
  2
*D9
 70
     1
 10
0.0
 20
0.0
 30
0.0
  3
*D9
  1

  0
LINE
  5
1151
330
D9F
100
AcDbEntity
  8
DIM
 62
     0
370
    -2
100
AcDbLine
 10
6.702835
 20
5.976294999999999
 30
0.0
 11
7.775514999999999
 21
5.976294999999999
 31
0.0
  0
LINE
  5
1152
330
D9F
100
AcDbEntity
  8
DIM
 62
     0
370
    -2
100
AcDbLine
 10
7.167092999999998
 20
5.460812
 30
0.0
 11
7.775514999999999
 21
5.460812
 31
0.0
  0
LINE
  5
1153
330
D9F
100
AcDbEntity
  8
DIM
 62
     0
370
    -2
100
AcDbLine
 10
7.682515
 20
6.156294999999999
 30
0.0
 11
7.682515
 21
6.336294999999999
 31
0.0
  0
LINE
  5
1154
330
D9F
100
AcDbEntity
  8
DIM
 62
     0
370
    -2
100
AcDbLine
 10
7.682514999999999
 20
5.280812
 30
0.0
 11
7.682514999999999
 21
5.100812
 31
0.0
  0
SOLID
  5
1155
330
D9F
100
AcDbEntity
  8
DIM
 62
     0
100
AcDbTrace
 10
7.652515
 20
6.156294999999999
 30
0.0
 11
7.712515
 21
6.156294999999999
 31
0.0
 12
7.682514999999999
 22
5.976294999999999
 32
0.0
 13
7.682514999999999
 23
5.976294999999999
 33
0.0
  0
SOLID
  5
1156
330
D9F
100
AcDbEntity
  8
DIM
 62
     0
100
AcDbTrace
 10
7.652514999999999
 20
5.280812
 30
0.0
 11
7.712514999999999
 21
5.280812
 31
0.0
 12
7.682514999999999
 22
5.460812
 32
0.0
 13
7.682514999999999
 23
5.460812
 33
0.0
  0
MTEXT
  5
1157
330
D9F
100
AcDbEntity
  8
DIM
 62
     0
100
AcDbMText
 10
7.682514999999998
 20
5.718553500000001
 30
0.0
 40
0.125
 41
0.0
 71
     5
 72
     1
  1
\A1;0.515 [13.1]
  7
TXT
 73
     1
 44
1.0
  0
POINT
  5
1158
330
D9F
100
AcDbEntity
  8
DEFPOINTS
 62
     0
100
AcDbPoint
 10
6.639835
 20
5.976294999999999
 30
0.0
  0
POINT
  5
1159
330
D9F
100
AcDbEntity
  8
DEFPOINTS
 62
     0
100
AcDbPoint
 10
7.104092999999998
 20
5.460812
 30
0.0
  0
POINT
  5
115A
330
D9F
100
AcDbEntity
  8
DEFPOINTS
 62
     0
100
AcDbPoint
 10
7.682514999999999
 20
5.460812
 30
0.0
  0
ENDBLK
  5
DAB
330
D9F
100
AcDbEntity
  8
0
100
AcDbBlockEnd
  0
BLOCK
  5
DB8
330
DAD
100
AcDbEntity
  8
0
100
AcDbBlockBegin
  2
*D10
 70
     1
 10
0.0
 20
0.0
 30
0.0
  3
*D10
  1

  0
LINE
  5
1190
330
DAD
100
AcDbEntity
  8
DIM
 62
     0
370
    -2
100
AcDbLine
 10
3.967647770740178
 20
5.345812
 30
0.0
 11
4.596145770740178
 21
5.345812
 31
0.0
  0
LINE
  5
1191
330
DAD
100
AcDbEntity
  8
DIM
 62
     0
370
    -2
100
AcDbLine
 10
3.814147770740178
 20
4.845812
 30
0.0
 11
4.596145770740178
 21
4.845812
 31
0.0
  0
LINE
  5
1192
330
DAD
100
AcDbEntity
  8
DIM
 62
     0
370
    -2
100
AcDbLine
 10
4.503145770740178
 20
5.525812
 30
0.0
 11
4.503145770740178
 21
5.705812
 31
0.0
  0
LINE
  5
1193
330
DAD
100
AcDbEntity
  8
DIM
 62
     0
370
    -2
100
AcDbLine
 10
4.503145770740178
 20
4.665812
 30
0.0
 11
4.503145770740178
 21
4.485812
 31
0.0
  0
SOLID
  5
1194
330
DAD
100
AcDbEntity
  8
DIM
 62
     0
100
AcDbTrace
 10
4.473145770740178
 20
5.525812
 30
0.0
 11
4.533145770740178
 21
5.525812
 31
0.0
 12
4.503145770740178
 22
5.345812
 32
0.0
 13
4.503145770740178
 23
5.345812
 33
0.0
  0
SOLID
  5
1195
330
DAD
100
AcDbEntity
  8
DIM
 62
     0
100
AcDbTrace
 10
4.473145770740178
 20
4.665812
 30
0.0
 11
4.533145770740178
 21
4.665812
 31
0.0
 12
4.503145770740178
 22
4.845812
 32
0.0
 13
4.503145770740178
 23
4.845812
 33
0.0
  0
MTEXT
  5
1196
330
DAD
100
AcDbEntity
  8
DIM
 62
     0
100
AcDbMText
 10
4.503145770740177
 20
5.095812000000001
 30
0.0
 40
0.125
 41
0.0
 71
     5
 72
     1
  1
\A1;0.500 [12.7]
  7
TXT
 73
     1
 44
1.0
  0
POINT
  5
1197
330
DAD
100
AcDbEntity
  8
DEFPOINTS
 62
     0
100
AcDbPoint
 10
3.904647770740178
 20
5.345812
 30
0.0
  0
POINT
  5
1198
330
DAD
100
AcDbEntity
  8
DEFPOINTS
 62
     0
100
AcDbPoint
 10
3.751147770740178
 20
4.845812
 30
0.0
  0
POINT
  5
1199
330
DAD
100
AcDbEntity
  8
DEFPOINTS
 62
     0
100
AcDbPoint
 10
4.503145770740178
 20
4.845812
 30
0.0
  0
ENDBLK
  5
DB9
330
DAD
100
AcDbEntity
  8
0
100
AcDbBlockEnd
  0
BLOCK
  5
DC6
330
DBB
100
AcDbEntity
  8
0
100
AcDbBlockBegin
  2
*D11
 70
     1
 10
0.0
 20
0.0
 30
0.0
  3
*D11
  1

  0
LINE
  5
1167
330
DBB
100
AcDbEntity
  8
DIM
 62
     0
370
    -2
100
AcDbLine
 10
3.967647770740178
 20
5.345812
 30
0.0
 11
5.104358770740178
 21
5.345812
 31
0.0
  0
LINE
  5
1168
330
DBB
100
AcDbEntity
  8
DIM
 62
     0
370
    -2
100
AcDbLine
 10
4.170647770740178
 20
5.460812
 30
0.0
 11
5.104358770740178
 21
5.460812
 31
0.0
  0
LINE
  5
1169
330
DBB
100
AcDbEntity
  8
DIM
 62
     0
370
    -2
100
AcDbLine
 10
5.011358770740178
 20
5.165812
 30
0.0
 11
5.011358770740178
 21
4.985812
 31
0.0
  0
LINE
  5
116A
330
DBB
100
AcDbEntity
  8
DIM
 62
     0
370
    -2
100
AcDbLine
 10
5.011358770740178
 20
5.640812
 30
0.0
 11
5.011358770740178
 21
5.820812
 31
0.0
  0
LINE
  5
116B
330
DBB
100
AcDbEntity
  8
DIM
 62
     0
370
    -2
100
AcDbLine
 10
5.011358770740178
 20
5.820812
 30
0.0
 11
5.191358770740178
 21
5.820812
 31
0.0
  0
SOLID
  5
116C
330
DBB
100
AcDbEntity
  8
DIM
 62
     0
100
AcDbTrace
 10
4.981358770740178
 20
5.165812
 30
0.0
 11
5.041358770740179
 21
5.165812
 31
0.0
 12
5.011358770740178
 22
5.345812
 32
0.0
 13
5.011358770740178
 23
5.345812
 33
0.0
  0
SOLID
  5
116D
330
DBB
100
AcDbEntity
  8
DIM
 62
     0
100
AcDbTrace
 10
4.981358770740178
 20
5.640812
 30
0.0
 11
5.041358770740179
 21
5.640812
 31
0.0
 12
5.011358770740178
 22
5.460812
 32
0.0
 13
5.011358770740178
 23
5.460812
 33
0.0
  0
MTEXT
  5
116E
330
DBB
100
AcDbEntity
  8
DIM
 62
     0
100
AcDbMText
 10
5.648546270740178
 20
5.820812000000001
 30
0.0
 40
0.125
 41
0.0
 71
     5
 72
     1
  1
\A1;0.115 [2.9]
  7
TXT
 73
     1
 44
1.0
  0
POINT
  5
116F
330
DBB
100
AcDbEntity
  8
DEFPOINTS
 62
     0
100
AcDbPoint
 10
3.904647770740178
 20
5.345812
 30
0.0
  0
POINT
  5
1170
330
DBB
100
AcDbEntity
  8
DEFPOINTS
 62
     0
100
AcDbPoint
 10
4.107647770740178
 20
5.460812
 30
0.0
  0
POINT
  5
1171
330
DBB
100
AcDbEntity
  8
DEFPOINTS
 62
     0
100
AcDbPoint
 10
5.011358770740178
 20
5.460812
 30
0.0
  0
ENDBLK
  5
DC7
330
DBB
100
AcDbEntity
  8
0
100
AcDbBlockEnd
  0
BLOCK
  5
DD3
330
DC9
100
AcDbEntity
  8
0
100
AcDbBlockBegin
  2
*D12
 70
     1
 10
0.0
 20
0.0
 30
0.0
  3
*D12
  1

  0
LINE
  5
1172
330
DC9
100
AcDbEntity
  8
DIM
 62
     0
370
    -2
100
AcDbLine
 10
3.768147770740178
 20
4.81059
 30
0.0
 11
3.768147770740178
 21
4.368701
 31
0.0
  0
LINE
  5
1173
330
DC9
100
AcDbEntity
  8
DIM
 62
     0
370
    -2
100
AcDbLine
 10
3.103147770740178
 20
4.81059
 30
0.0
 11
3.103147770740178
 21
4.368701
 31
0.0
  0
LINE
  5
1174
330
DC9
100
AcDbEntity
  8
DIM
 62
     0
370
    -2
100
AcDbLine
 10
3.948147770740178
 20
4.461701
 30
0.0
 11
4.128147770740178
 21
4.461701
 31
0.0
  0
LINE
  5
1175
330
DC9
100
AcDbEntity
  8
DIM
 62
     0
370
    -2
100
AcDbLine
 10
2.923147770740178
 20
4.461701
 30
0.0
 11
2.743147770740178
 21
4.461701
 31
0.0
  0
SOLID
  5
1176
330
DC9
100
AcDbEntity
  8
DIM
 62
     0
100
AcDbTrace
 10
3.948147770740178
 20
4.491701
 30
0.0
 11
3.948147770740178
 21
4.431701
 31
0.0
 12
3.768147770740178
 22
4.461701
 32
0.0
 13
3.768147770740178
 23
4.461701
 33
0.0
  0
SOLID
  5
1177
330
DC9
100
AcDbEntity
  8
DIM
 62
     0
100
AcDbTrace
 10
2.923147770740178
 20
4.491701
 30
0.0
 11
2.923147770740178
 21
4.431701
 31
0.0
 12
3.103147770740178
 22
4.461701
 32
0.0
 13
3.103147770740178
 23
4.461701
 33
0.0
  0
MTEXT
  5
1178
330
DC9
100
AcDbEntity
  8
DIM
 62
     0
100
AcDbMText
 10
2.223460270740178
 20
4.461701
 30
0.0
 40
0.125
 41
0.0
 71
     5
 72
     1
  1
\A1;0.665 [16.9]
  7
TXT
 73
     1
 44
1.0
  0
POINT
  5
1179
330
DC9
100
AcDbEntity
  8
DEFPOINTS
 62
     0
100
AcDbPoint
 10
3.768147770740178
 20
4.87359
 30
0.0
  0
POINT
  5
117A
330
DC9
100
AcDbEntity
  8
DEFPOINTS
 62
     0
100
AcDbPoint
 10
3.103147770740178
 20
4.87359
 30
0.0
  0
POINT
  5
117B
330
DC9
100
AcDbEntity
  8
DEFPOINTS
 62
     0
100
AcDbPoint
 10
3.103147770740178
 20
4.461701
 30
0.0
  0
ENDBLK
  5
DD4
330
DC9
100
AcDbEntity
  8
0
100
AcDbBlockEnd
  0
ENDSEC
  0
SECTION
  2
ENTITIES
  0
LINE
  5
F1
330
1E
100
AcDbEntity
  8
OBJECT
100
AcDbLine
 10
6.602539999999999
 20
12.46922599999999
 30
0.0
 11
6.602539999999999
 21
12.46916399999999
 31
0.0
  0
LINE
  5
F2
330
1E
100
AcDbEntity
  8
OBJECT
100
AcDbLine
 10
6.602539999999999
 20
11.22888399999999
 30
0.0
 11
6.602539999999999
 21
11.26629199999999
 31
0.0
  0
LINE
  5
F3
330
1E
100
AcDbEntity
  8
OBJECT
100
AcDbLine
 10
6.19104
 20
12.46922599999999
 30
0.0
 11
7.014039999999999
 21
12.46922599999999
 31
0.0
  0
LINE
  5
F4
330
1E
100
AcDbEntity
  8
OBJECT
100
AcDbLine
 10
6.27054
 20
12.44144799999999
 30
0.0
 11
6.602539999999999
 21
12.44144799999999
 31
0.0
  0
LINE
  5
F5
330
1E
100
AcDbEntity
  8
OBJECT
100
AcDbLine
 10
6.602539999999999
 20
12.44144799999999
 30
0.0
 11
6.934539999999999
 21
12.44144799999999
 31
0.0
  0
LINE
  5
F6
330
1E
100
AcDbEntity
  8
OBJECT
100
AcDbLine
 10
6.287539999999999
 20
12.41367
 30
0.0
 11
6.602539999999999
 21
12.41367
 31
0.0
  0
LINE
  5
F7
330
1E
100
AcDbEntity
  8
OBJECT
100
AcDbLine
 10
6.602539999999999
 20
12.41367
 30
0.0
 11
6.917539999999999
 21
12.41367
 31
0.0
  0
LINE
  5
F8
330
1E
100
AcDbEntity
  8
OBJECT
100
AcDbLine
 10
6.27054
 20
12.385892
 30
0.0
 11
6.602539999999999
 21
12.385892
 31
0.0
  0
LINE
  5
F9
330
1E
100
AcDbEntity
  8
OBJECT
100
AcDbLine
 10
6.602539999999999
 20
12.385892
 30
0.0
 11
6.934539999999999
 21
12.385892
 31
0.0
  0
LINE
  5
FA
330
1E
100
AcDbEntity
  8
OBJECT
100
AcDbLine
 10
6.287539999999999
 20
12.358114
 30
0.0
 11
6.602539999999999
 21
12.358114
 31
0.0
  0
LINE
  5
FB
330
1E
100
AcDbEntity
  8
OBJECT
100
AcDbLine
 10
6.602539999999999
 20
12.358114
 30
0.0
 11
6.917539999999999
 21
12.358114
 31
0.0
  0
LINE
  5
FC
330
1E
100
AcDbEntity
  8
OBJECT
100
AcDbLine
 10
6.27054
 20
12.330337
 30
0.0
 11
6.602539999999999
 21
12.330337
 31
0.0
  0
LINE
  5
FD
330
1E
100
AcDbEntity
  8
OBJECT
100
AcDbLine
 10
6.602539999999999
 20
12.330337
 30
0.0
 11
6.934539999999999
 21
12.330337
 31
0.0
  0
LINE
  5
FE
330
1E
100
AcDbEntity
  8
OBJECT
100
AcDbLine
 10
6.287539999999999
 20
12.302559
 30
0.0
 11
6.602539999999999
 21
12.302559
 31
0.0
  0
LINE
  5
FF
330
1E
100
AcDbEntity
  8
OBJECT
100
AcDbLine
 10
6.602539999999999
 20
12.302559
 30
0.0
 11
6.917539999999999
 21
12.302559
 31
0.0
  0
LINE
  5
100
330
1E
100
AcDbEntity
  8
OBJECT
100
AcDbLine
 10
6.27054
 20
12.27478099999999
 30
0.0
 11
6.602539999999999
 21
12.27478099999999
 31
0.0
  0
LINE
  5
101
330
1E
100
AcDbEntity
  8
OBJECT
100
AcDbLine
 10
6.602539999999999
 20
12.27478099999999
 30
0.0
 11
6.934539999999999
 21
12.27478099999999
 31
0.0
  0
LINE
  5
102
330
1E
100
AcDbEntity
  8
OBJECT
100
AcDbLine
 10
6.287539999999999
 20
12.247003
 30
0.0
 11
6.602539999999999
 21
12.247003
 31
0.0
  0
LINE
  5
103
330
1E
100
AcDbEntity
  8
OBJECT
100
AcDbLine
 10
6.602539999999999
 20
12.247003
 30
0.0
 11
6.917539999999999
 21
12.247003
 31
0.0
  0
LINE
  5
104
330
1E
100
AcDbEntity
  8
OBJECT
100
AcDbLine
 10
6.27054
 20
12.219225
 30
0.0
 11
6.602539999999999
 21
12.219225
 31
0.0
  0
LINE
  5
105
330
1E
100
AcDbEntity
  8
OBJECT
100
AcDbLine
 10
6.602539999999999
 20
12.219225
 30
0.0
 11
6.934539999999999
 21
12.219225
 31
0.0
  0
LINE
  5
106
330
1E
100
AcDbEntity
  8
OBJECT
100
AcDbLine
 10
6.287539999999999
 20
12.191448
 30
0.0
 11
6.602539999999999
 21
12.191448
 31
0.0
  0
LINE
  5
107
330
1E
100
AcDbEntity
  8
OBJECT
100
AcDbLine
 10
6.602539999999999
 20
12.191448
 30
0.0
 11
6.917539999999999
 21
12.191448
 31
0.0
  0
LINE
  5
108
330
1E
100
AcDbEntity
  8
OBJECT
100
AcDbLine
 10
6.27054
 20
12.16366999999999
 30
0.0
 11
6.602539999999999
 21
12.16366999999999
 31
0.0
  0
LINE
  5
109
330
1E
100
AcDbEntity
  8
OBJECT
100
AcDbLine
 10
6.602539999999999
 20
12.16366999999999
 30
0.0
 11
6.934539999999999
 21
12.16366999999999
 31
0.0
  0
LINE
  5
10A
330
1E
100
AcDbEntity
  8
OBJECT
100
AcDbLine
 10
6.287539999999999
 20
12.135892
 30
0.0
 11
6.602539999999999
 21
12.135892
 31
0.0
  0
LINE
  5
10B
330
1E
100
AcDbEntity
  8
OBJECT
100
AcDbLine
 10
6.602539999999999
 20
12.135892
 30
0.0
 11
6.917539999999999
 21
12.135892
 31
0.0
  0
LINE
  5
10C
330
1E
100
AcDbEntity
  8
OBJECT
100
AcDbLine
 10
6.27054
 20
12.108114
 30
0.0
 11
6.602539999999999
 21
12.108114
 31
0.0
  0
LINE
  5
10D
330
1E
100
AcDbEntity
  8
OBJECT
100
AcDbLine
 10
6.602539999999999
 20
12.108114
 30
0.0
 11
6.934539999999999
 21
12.108114
 31
0.0
  0
LINE
  5
10E
330
1E
100
AcDbEntity
  8
OBJECT
100
AcDbLine
 10
6.287539999999999
 20
12.080337
 30
0.0
 11
6.602539999999999
 21
12.080337
 31
0.0
  0
LINE
  5
10F
330
1E
100
AcDbEntity
  8
OBJECT
100
AcDbLine
 10
6.602539999999999
 20
12.080337
 30
0.0
 11
6.917539999999999
 21
12.080337
 31
0.0
  0
LINE
  5
110
330
1E
100
AcDbEntity
  8
OBJECT
100
AcDbLine
 10
6.27054
 20
12.052559
 30
0.0
 11
6.602539999999999
 21
12.052559
 31
0.0
  0
LINE
  5
111
330
1E
100
AcDbEntity
  8
OBJECT
100
AcDbLine
 10
6.602539999999999
 20
12.052559
 30
0.0
 11
6.934539999999999
 21
12.052559
 31
0.0
  0
LINE
  5
112
330
1E
100
AcDbEntity
  8
OBJECT
100
AcDbLine
 10
6.287539999999999
 20
12.02478099999999
 30
0.0
 11
6.602539999999999
 21
12.02478099999999
 31
0.0
  0
LINE
  5
113
330
1E
100
AcDbEntity
  8
OBJECT
100
AcDbLine
 10
6.602539999999999
 20
12.02478099999999
 30
0.0
 11
6.917539999999999
 21
12.02478099999999
 31
0.0
  0
LINE
  5
114
330
1E
100
AcDbEntity
  8
OBJECT
100
AcDbLine
 10
6.27054
 20
11.99700299999999
 30
0.0
 11
6.602539999999999
 21
11.99700299999999
 31
0.0
  0
LINE
  5
115
330
1E
100
AcDbEntity
  8
OBJECT
100
AcDbLine
 10
6.602539999999999
 20
11.99700299999999
 30
0.0
 11
6.934539999999999
 21
11.99700299999999
 31
0.0
  0
LINE
  5
116
330
1E
100
AcDbEntity
  8
OBJECT
100
AcDbLine
 10
6.917539999999999
 20
11.96922599999999
 30
0.0
 11
6.602539999999999
 21
11.96922599999999
 31
0.0
  0
LINE
  5
117
330
1E
100
AcDbEntity
  8
OBJECT
100
AcDbLine
 10
6.602539999999999
 20
11.96922599999999
 30
0.0
 11
6.287539999999999
 21
11.96922599999999
 31
0.0
  0
LINE
  5
118
330
1E
100
AcDbEntity
  8
OBJECT
100
AcDbLine
 10
7.042539999999999
 20
11.26629199999999
 30
0.0
 11
6.162539999999999
 21
11.26629199999999
 31
0.0
  0
LINE
  5
119
330
1E
100
AcDbEntity
  8
OBJECT
100
AcDbLine
 10
6.162539999999999
 20
11.20629199999999
 30
0.0
 11
7.042539999999999
 21
11.20629199999999
 31
0.0
  0
ARC
  5
11A
330
1E
100
AcDbEntity
  8
OBJECT
100
AcDbCircle
 10
2.966647770740178
 20
10.31767199999999
 30
0.0
 40
0.031
100
AcDbArc
 50
180.0
 51
270.0
  0
POLYLINE
  5
11B
330
1E
100
AcDbEntity
  8
OBJECT
100
AcDb3dPolyline
 66
     1
 10
0.0
 20
0.0
 30
0.0
 70
     8
  0
VERTEX
  5
11C
330
11B
100
AcDbEntity
  8
OBJECT
100
AcDbVertex
100
AcDb3dPolylineVertex
 10
2.944726770740178
 20
10.31767199999999
 30
0.0
 70
    32
1001
ACAD
1000
R13OBJECT
1002
{
1005
97
1002
}
  0
VERTEX
  5
11D
330
11B
100
AcDbEntity
  8
OBJECT
100
AcDbVertex
100
AcDb3dPolylineVertex
 10
2.945473770740178
 20
10.309649
 30
0.0
 70
    32
1001
ACAD
1000
R13OBJECT
1002
{
1005
97
1002
}
  0
VERTEX
  5
11E
330
11B
100
AcDbEntity
  8
OBJECT
100
AcDbVertex
100
AcDb3dPolylineVertex
 10
2.947663770740178
 20
10.302172
 30
0.0
 70
    32
1001
ACAD
1000
R13OBJECT
1002
{
1005
97
1002
}
  0
VERTEX
  5
11F
330
11B
100
AcDbEntity
  8
OBJECT
100
AcDbVertex
100
AcDb3dPolylineVertex
 10
2.951147770740178
 20
10.295752
 30
0.0
 70
    32
1001
ACAD
1000
R13OBJECT
1002
{
1005
97
1002
}
  0
VERTEX
  5
120
330
11B
100
AcDbEntity
  8
OBJECT
100
AcDbVertex
100
AcDb3dPolylineVertex
 10
2.955687770740178
 20
10.290825
 30
0.0
 70
    32
1001
ACAD
1000
R13OBJECT
1002
{
1005
97
1002
}
  0
VERTEX
  5
121
330
11B
100
AcDbEntity
  8
OBJECT
100
AcDbVertex
100
AcDb3dPolylineVertex
 10
2.960973770740178
 20
10.287728
 30
0.0
 70
    32
1001
ACAD
1000
R13OBJECT
1002
{
1005
97
1002
}
  0
VERTEX
  5
122
330
11B
100
AcDbEntity
  8
OBJECT
100
AcDbVertex
100
AcDb3dPolylineVertex
 10
2.966647770740178
 20
10.28667199999999
 30
0.0
 70
    32
1001
ACAD
1000
R13OBJECT
1002
{
1005
97
1002
}
  0
SEQEND
  5
123
330
11B
100
AcDbEntity
  8
OBJECT
  0
LINE
  5
124
330
1E
100
AcDbEntity
  8
OBJECT
100
AcDbLine
 10
2.944726770740178
 20
10.31767199999999
 30
0.0
 11
2.935647770740178
 21
10.31767199999999
 31
0.0
  0
LINE
  5
125
330
1E
100
AcDbEntity
  8
OBJECT
100
AcDbLine
 10
2.966647770740178
 20
10.28667199999999
 30
0.0
 11
3.241230770740178
 21
10.28667199999999
 31
0.0
  0
POLYLINE
  5
126
330
1E
100
AcDbEntity
  8
OBJECT
100
AcDb3dPolyline
 66
     1
 10
0.0
 20
0.0
 30
0.0
 70
     8
  0
VERTEX
  5
127
330
126
100
AcDbEntity
  8
OBJECT
100
AcDbVertex
100
AcDb3dPolylineVertex
 10
3.219309770740178
 20
10.31767199999999
 30
0.0
 70
    32
1001
ACAD
1000
R13OBJECT
1002
{
1005
9A
1002
}
  0
VERTEX
  5
128
330
126
100
AcDbEntity
  8
OBJECT
100
AcDbVertex
100
AcDb3dPolylineVertex
 10
3.220056770740178
 20
10.309649
 30
0.0
 70
    32
1001
ACAD
1000
R13OBJECT
1002
{
1005
9A
1002
}
  0
VERTEX
  5
129
330
126
100
AcDbEntity
  8
OBJECT
100
AcDbVertex
100
AcDb3dPolylineVertex
 10
3.222246770740178
 20
10.302172
 30
0.0
 70
    32
1001
ACAD
1000
R13OBJECT
1002
{
1005
9A
1002
}
  0
VERTEX
  5
12A
330
126
100
AcDbEntity
  8
OBJECT
100
AcDbVertex
100
AcDb3dPolylineVertex
 10
3.225730770740178
 20
10.295752
 30
0.0
 70
    32
1001
ACAD
1000
R13OBJECT
1002
{
1005
9A
1002
}
  0
VERTEX
  5
12B
330
126
100
AcDbEntity
  8
OBJECT
100
AcDbVertex
100
AcDb3dPolylineVertex
 10
3.230269770740178
 20
10.290825
 30
0.0
 70
    32
1001
ACAD
1000
R13OBJECT
1002
{
1005
9A
1002
}
  0
VERTEX
  5
12C
330
126
100
AcDbEntity
  8
OBJECT
100
AcDbVertex
100
AcDb3dPolylineVertex
 10
3.235556770740178
 20
10.287728
 30
0.0
 70
    32
1001
ACAD
1000
R13OBJECT
1002
{
1005
9A
1002
}
  0
VERTEX
  5
12D
330
126
100
AcDbEntity
  8
OBJECT
100
AcDbVertex
100
AcDb3dPolylineVertex
 10
3.241230770740178
 20
10.28667199999999
 30
0.0
 70
    32
1001
ACAD
1000
R13OBJECT
1002
{
1005
9A
1002
}
  0
SEQEND
  5
12E
330
126
100
AcDbEntity
  8
OBJECT
  0
LINE
  5
12F
330
1E
100
AcDbEntity
  8
OBJECT
100
AcDbLine
 10
3.219309770740178
 20
10.31767199999999
 30
0.0
 11
2.944726770740178
 21
10.31767199999999
 31
0.0
  0
LINE
  5
130
330
1E
100
AcDbEntity
  8
OBJECT
100
AcDbLine
 10
3.241230770740178
 20
10.31767199999999
 30
0.0
 11
3.241230770740178
 21
10.28667199999999
 31
0.0
  0
LINE
  5
131
330
1E
100
AcDbEntity
  8
OBJECT
100
AcDbLine
 10
3.241230770740178
 20
10.31767199999999
 30
0.0
 11
3.219309770740178
 21
10.31767199999999
 31
0.0
  0
LINE
  5
132
330
1E
100
AcDbEntity
  8
OBJECT
100
AcDbLine
 10
3.241230770740178
 20
10.28667199999999
 30
0.0
 11
3.629850770740179
 21
10.28667199999999
 31
0.0
  0
LINE
  5
133
330
1E
100
AcDbEntity
  8
OBJECT
100
AcDbLine
 10
3.629850770740179
 20
10.31767199999999
 30
0.0
 11
3.629850770740179
 21
10.28667199999999
 31
0.0
  0
LINE
  5
134
330
1E
100
AcDbEntity
  8
OBJECT
100
AcDbLine
 10
3.629850770740179
 20
10.31767199999999
 30
0.0
 11
3.241230770740178
 21
10.31767199999999
 31
0.0
  0
ARC
  5
135
330
1E
100
AcDbEntity
  8
OBJECT
100
AcDbCircle
 10
3.904647770740178
 20
10.31767199999999
 30
0.0
 40
0.031
100
AcDbArc
 50
270.0
 51
0.0
  0
POLYLINE
  5
136
330
1E
100
AcDbEntity
  8
OBJECT
100
AcDb3dPolyline
 66
     1
 10
0.0
 20
0.0
 30
0.0
 70
     8
  0
VERTEX
  5
137
330
136
100
AcDbEntity
  8
OBJECT
100
AcDbVertex
100
AcDb3dPolylineVertex
 10
3.629850770740179
 20
10.28667199999999
 30
0.0
 70
    32
1001
ACAD
1000
R13OBJECT
1002
{
1005
A2
1002
}
  0
VERTEX
  5
138
330
136
100
AcDbEntity
  8
OBJECT
100
AcDbVertex
100
AcDb3dPolylineVertex
 10
3.635524770740178
 20
10.287728
 30
0.0
 70
    32
1001
ACAD
1000
R13OBJECT
1002
{
1005
A2
1002
}
  0
VERTEX
  5
139
330
136
100
AcDbEntity
  8
OBJECT
100
AcDbVertex
100
AcDb3dPolylineVertex
 10
3.640811770740178
 20
10.290825
 30
0.0
 70
    32
1001
ACAD
1000
R13OBJECT
1002
{
1005
A2
1002
}
  0
VERTEX
  5
13A
330
136
100
AcDbEntity
  8
OBJECT
100
AcDbVertex
100
AcDb3dPolylineVertex
 10
3.645350770740178
 20
10.295752
 30
0.0
 70
    32
1001
ACAD
1000
R13OBJECT
1002
{
1005
A2
1002
}
  0
VERTEX
  5
13B
330
136
100
AcDbEntity
  8
OBJECT
100
AcDbVertex
100
AcDb3dPolylineVertex
 10
3.648834770740178
 20
10.302172
 30
0.0
 70
    32
1001
ACAD
1000
R13OBJECT
1002
{
1005
A2
1002
}
  0
VERTEX
  5
13C
330
136
100
AcDbEntity
  8
OBJECT
100
AcDbVertex
100
AcDb3dPolylineVertex
 10
3.651024770740178
 20
10.309649
 30
0.0
 70
    32
1001
ACAD
1000
R13OBJECT
1002
{
1005
A2
1002
}
  0
VERTEX
  5
13D
330
136
100
AcDbEntity
  8
OBJECT
100
AcDbVertex
100
AcDb3dPolylineVertex
 10
3.651771770740178
 20
10.31767199999999
 30
0.0
 70
    32
1001
ACAD
1000
R13OBJECT
1002
{
1005
A2
1002
}
  0
SEQEND
  5
13E
330
136
100
AcDbEntity
  8
OBJECT
  0
LINE
  5
13F
330
1E
100
AcDbEntity
  8
OBJECT
100
AcDbLine
 10
3.651771770740178
 20
10.31767199999999
 30
0.0
 11
3.629850770740179
 21
10.31767199999999
 31
0.0
  0
LINE
  5
140
330
1E
100
AcDbEntity
  8
OBJECT
100
AcDbLine
 10
3.935647770740178
 20
10.31767199999999
 30
0.0
 11
3.926567770740178
 21
10.31767199999999
 31
0.0
  0
POLYLINE
  5
141
330
1E
100
AcDbEntity
  8
OBJECT
100
AcDb3dPolyline
 66
     1
 10
0.0
 20
0.0
 30
0.0
 70
     8
  0
VERTEX
  5
142
330
141
100
AcDbEntity
  8
OBJECT
100
AcDbVertex
100
AcDb3dPolylineVertex
 10
3.904647770740178
 20
10.28667199999999
 30
0.0
 70
    32
1001
ACAD
1000
R13OBJECT
1002
{
1005
A5
1002
}
  0
VERTEX
  5
143
330
141
100
AcDbEntity
  8
OBJECT
100
AcDbVertex
100
AcDb3dPolylineVertex
 10
3.910320770740178
 20
10.287728
 30
0.0
 70
    32
1001
ACAD
1000
R13OBJECT
1002
{
1005
A5
1002
}
  0
VERTEX
  5
144
330
141
100
AcDbEntity
  8
OBJECT
100
AcDbVertex
100
AcDb3dPolylineVertex
 10
3.915607770740178
 20
10.290825
 30
0.0
 70
    32
1001
ACAD
1000
R13OBJECT
1002
{
1005
A5
1002
}
  0
VERTEX
  5
145
330
141
100
AcDbEntity
  8
OBJECT
100
AcDbVertex
100
AcDb3dPolylineVertex
 10
3.920147770740178
 20
10.295752
 30
0.0
 70
    32
1001
ACAD
1000
R13OBJECT
1002
{
1005
A5
1002
}
  0
VERTEX
  5
146
330
141
100
AcDbEntity
  8
OBJECT
100
AcDbVertex
100
AcDb3dPolylineVertex
 10
3.923630770740178
 20
10.302172
 30
0.0
 70
    32
1001
ACAD
1000
R13OBJECT
1002
{
1005
A5
1002
}
  0
VERTEX
  5
147
330
141
100
AcDbEntity
  8
OBJECT
100
AcDbVertex
100
AcDb3dPolylineVertex
 10
3.925820770740179
 20
10.309649
 30
0.0
 70
    32
1001
ACAD
1000
R13OBJECT
1002
{
1005
A5
1002
}
  0
VERTEX
  5
148
330
141
100
AcDbEntity
  8
OBJECT
100
AcDbVertex
100
AcDb3dPolylineVertex
 10
3.926567770740178
 20
10.31767199999999
 30
0.0
 70
    32
1001
ACAD
1000
R13OBJECT
1002
{
1005
A5
1002
}
  0
SEQEND
  5
149
330
141
100
AcDbEntity
  8
OBJECT
  0
LINE
  5
14A
330
1E
100
AcDbEntity
  8
OBJECT
100
AcDbLine
 10
3.629850770740179
 20
10.28667199999999
 30
0.0
 11
3.904647770740178
 21
10.28667199999999
 31
0.0
  0
LINE
  5
14B
330
1E
100
AcDbEntity
  8
OBJECT
100
AcDbLine
 10
3.926567770740178
 20
10.31767199999999
 30
0.0
 11
3.651771770740178
 21
10.31767199999999
 31
0.0
  0
LINE
  5
14C
330
1E
100
AcDbEntity
  8
OBJECT
100
AcDbLine
 10
3.935647770740178
 20
10.31767199999999
 30
0.0
 11
3.935647770740178
 21
10.447672
 31
0.0
  0
LINE
  5
14D
330
1E
100
AcDbEntity
  8
OBJECT
100
AcDbLine
 10
3.935647770740178
 20
10.447672
 30
0.0
 11
3.926567770740178
 21
10.447672
 31
0.0
  0
LINE
  5
14E
330
1E
100
AcDbEntity
  8
OBJECT
100
AcDbLine
 10
3.926567770740178
 20
10.447672
 30
0.0
 11
3.926567770740178
 21
10.31767199999999
 31
0.0
  0
LINE
  5
14F
330
1E
100
AcDbEntity
  8
OBJECT
100
AcDbLine
 10
3.629850770740179
 20
10.47867199999999
 30
0.0
 11
3.629850770740179
 21
10.447672
 31
0.0
  0
LINE
  5
150
330
1E
100
AcDbEntity
  8
OBJECT
100
AcDbLine
 10
3.651771770740178
 20
10.447672
 30
0.0
 11
3.629850770740179
 21
10.447672
 31
0.0
  0
POLYLINE
  5
151
330
1E
100
AcDbEntity
  8
OBJECT
100
AcDb3dPolyline
 66
     1
 10
0.0
 20
0.0
 30
0.0
 70
     8
  0
VERTEX
  5
152
330
151
100
AcDbEntity
  8
OBJECT
100
AcDbVertex
100
AcDb3dPolylineVertex
 10
3.651771770740178
 20
10.447672
 30
0.0
 70
    32
1001
ACAD
1000
R13OBJECT
1002
{
1005
AD
1002
}
  0
VERTEX
  5
153
330
151
100
AcDbEntity
  8
OBJECT
100
AcDbVertex
100
AcDb3dPolylineVertex
 10
3.651024770740178
 20
10.455696
 30
0.0
 70
    32
1001
ACAD
1000
R13OBJECT
1002
{
1005
AD
1002
}
  0
VERTEX
  5
154
330
151
100
AcDbEntity
  8
OBJECT
100
AcDbVertex
100
AcDb3dPolylineVertex
 10
3.648834770740178
 20
10.463172
 30
0.0
 70
    32
1001
ACAD
1000
R13OBJECT
1002
{
1005
AD
1002
}
  0
VERTEX
  5
155
330
151
100
AcDbEntity
  8
OBJECT
100
AcDbVertex
100
AcDb3dPolylineVertex
 10
3.645350770740178
 20
10.469592
 30
0.0
 70
    32
1001
ACAD
1000
R13OBJECT
1002
{
1005
AD
1002
}
  0
VERTEX
  5
156
330
151
100
AcDbEntity
  8
OBJECT
100
AcDbVertex
100
AcDb3dPolylineVertex
 10
3.640811770740178
 20
10.474519
 30
0.0
 70
    32
1001
ACAD
1000
R13OBJECT
1002
{
1005
AD
1002
}
  0
VERTEX
  5
157
330
151
100
AcDbEntity
  8
OBJECT
100
AcDbVertex
100
AcDb3dPolylineVertex
 10
3.635524770740178
 20
10.477616
 30
0.0
 70
    32
1001
ACAD
1000
R13OBJECT
1002
{
1005
AD
1002
}
  0
VERTEX
  5
158
330
151
100
AcDbEntity
  8
OBJECT
100
AcDbVertex
100
AcDb3dPolylineVertex
 10
3.629850770740179
 20
10.47867199999999
 30
0.0
 70
    32
1001
ACAD
1000
R13OBJECT
1002
{
1005
AD
1002
}
  0
SEQEND
  5
159
330
151
100
AcDbEntity
  8
OBJECT
  0
LINE
  5
15A
330
1E
100
AcDbEntity
  8
OBJECT
100
AcDbLine
 10
3.651771770740178
 20
10.31767199999999
 30
0.0
 11
3.651771770740178
 21
10.447672
 31
0.0
  0
LINE
  5
15B
330
1E
100
AcDbEntity
  8
OBJECT
100
AcDbLine
 10
3.629850770740179
 20
10.447672
 30
0.0
 11
3.629850770740179
 21
10.31767199999999
 31
0.0
  0
LINE
  5
15C
330
1E
100
AcDbEntity
  8
OBJECT
100
AcDbLine
 10
3.241230770740178
 20
10.447672
 30
0.0
 11
3.629850770740179
 21
10.447672
 31
0.0
  0
LINE
  5
15D
330
1E
100
AcDbEntity
  8
OBJECT
100
AcDbLine
 10
3.241230770740178
 20
10.31767199999999
 30
0.0
 11
3.241230770740178
 21
10.447672
 31
0.0
  0
LINE
  5
15E
330
1E
100
AcDbEntity
  8
OBJECT
100
AcDbLine
 10
3.629850770740179
 20
10.47867199999999
 30
0.0
 11
3.241230770740178
 21
10.47867199999999
 31
0.0
  0
LINE
  5
15F
330
1E
100
AcDbEntity
  8
OBJECT
100
AcDbLine
 10
3.241230770740178
 20
10.447672
 30
0.0
 11
3.241230770740178
 21
10.47867199999999
 31
0.0
  0
LINE
  5
160
330
1E
100
AcDbEntity
  8
OBJECT
100
AcDbLine
 10
3.651771770740178
 20
10.447672
 30
0.0
 11
3.926567770740178
 21
10.447672
 31
0.0
  0
POLYLINE
  5
161
330
1E
100
AcDbEntity
  8
OBJECT
100
AcDb3dPolyline
 66
     1
 10
0.0
 20
0.0
 30
0.0
 70
     8
  0
VERTEX
  5
162
330
161
100
AcDbEntity
  8
OBJECT
100
AcDbVertex
100
AcDb3dPolylineVertex
 10
3.926567770740178
 20
10.447672
 30
0.0
 70
    32
1001
ACAD
1000
R13OBJECT
1002
{
1005
B5
1002
}
  0
VERTEX
  5
163
330
161
100
AcDbEntity
  8
OBJECT
100
AcDbVertex
100
AcDb3dPolylineVertex
 10
3.925820770740179
 20
10.455696
 30
0.0
 70
    32
1001
ACAD
1000
R13OBJECT
1002
{
1005
B5
1002
}
  0
VERTEX
  5
164
330
161
100
AcDbEntity
  8
OBJECT
100
AcDbVertex
100
AcDb3dPolylineVertex
 10
3.923630770740178
 20
10.463172
 30
0.0
 70
    32
1001
ACAD
1000
R13OBJECT
1002
{
1005
B5
1002
}
  0
VERTEX
  5
165
330
161
100
AcDbEntity
  8
OBJECT
100
AcDbVertex
100
AcDb3dPolylineVertex
 10
3.920147770740178
 20
10.469592
 30
0.0
 70
    32
1001
ACAD
1000
R13OBJECT
1002
{
1005
B5
1002
}
  0
VERTEX
  5
166
330
161
100
AcDbEntity
  8
OBJECT
100
AcDbVertex
100
AcDb3dPolylineVertex
 10
3.915607770740178
 20
10.474519
 30
0.0
 70
    32
1001
ACAD
1000
R13OBJECT
1002
{
1005
B5
1002
}
  0
VERTEX
  5
167
330
161
100
AcDbEntity
  8
OBJECT
100
AcDbVertex
100
AcDb3dPolylineVertex
 10
3.910320770740178
 20
10.477616
 30
0.0
 70
    32
1001
ACAD
1000
R13OBJECT
1002
{
1005
B5
1002
}
  0
VERTEX
  5
168
330
161
100
AcDbEntity
  8
OBJECT
100
AcDbVertex
100
AcDb3dPolylineVertex
 10
3.904647770740178
 20
10.47867199999999
 30
0.0
 70
    32
1001
ACAD
1000
R13OBJECT
1002
{
1005
B5
1002
}
  0
SEQEND
  5
169
330
161
100
AcDbEntity
  8
OBJECT
  0
LINE
  5
16A
330
1E
100
AcDbEntity
  8
OBJECT
100
AcDbLine
 10
3.904647770740178
 20
10.47867199999999
 30
0.0
 11
3.629850770740179
 21
10.47867199999999
 31
0.0
  0
ARC
  5
16B
330
1E
100
AcDbEntity
  8
OBJECT
100
AcDbCircle
 10
3.904647770740178
 20
10.447672
 30
0.0
 40
0.031
100
AcDbArc
 50
0.0
 51
90.0
  0
ARC
  5
16C
330
1E
100
AcDbEntity
  8
OBJECT
100
AcDbCircle
 10
2.966647770740178
 20
10.447672
 30
0.0
 40
0.031
100
AcDbArc
 50
90.0
 51
180.0
  0
LINE
  5
16D
330
1E
100
AcDbEntity
  8
OBJECT
100
AcDbLine
 10
2.944726770740178
 20
10.447672
 30
0.0
 11
2.935647770740178
 21
10.447672
 31
0.0
  0
POLYLINE
  5
16E
330
1E
100
AcDbEntity
  8
OBJECT
100
AcDb3dPolyline
 66
     1
 10
0.0
 20
0.0
 30
0.0
 70
     8
  0
VERTEX
  5
16F
330
16E
100
AcDbEntity
  8
OBJECT
100
AcDbVertex
100
AcDb3dPolylineVertex
 10
2.966647770740178
 20
10.47867199999999
 30
0.0
 70
    32
1001
ACAD
1000
R13OBJECT
1002
{
1005
BA
1002
}
  0
VERTEX
  5
170
330
16E
100
AcDbEntity
  8
OBJECT
100
AcDbVertex
100
AcDb3dPolylineVertex
 10
2.960973770740178
 20
10.477616
 30
0.0
 70
    32
1001
ACAD
1000
R13OBJECT
1002
{
1005
BA
1002
}
  0
VERTEX
  5
171
330
16E
100
AcDbEntity
  8
OBJECT
100
AcDbVertex
100
AcDb3dPolylineVertex
 10
2.955687770740178
 20
10.474519
 30
0.0
 70
    32
1001
ACAD
1000
R13OBJECT
1002
{
1005
BA
1002
}
  0
VERTEX
  5
172
330
16E
100
AcDbEntity
  8
OBJECT
100
AcDbVertex
100
AcDb3dPolylineVertex
 10
2.951147770740178
 20
10.469592
 30
0.0
 70
    32
1001
ACAD
1000
R13OBJECT
1002
{
1005
BA
1002
}
  0
VERTEX
  5
173
330
16E
100
AcDbEntity
  8
OBJECT
100
AcDbVertex
100
AcDb3dPolylineVertex
 10
2.947663770740178
 20
10.463172
 30
0.0
 70
    32
1001
ACAD
1000
R13OBJECT
1002
{
1005
BA
1002
}
  0
VERTEX
  5
174
330
16E
100
AcDbEntity
  8
OBJECT
100
AcDbVertex
100
AcDb3dPolylineVertex
 10
2.945473770740178
 20
10.455696
 30
0.0
 70
    32
1001
ACAD
1000
R13OBJECT
1002
{
1005
BA
1002
}
  0
VERTEX
  5
175
330
16E
100
AcDbEntity
  8
OBJECT
100
AcDbVertex
100
AcDb3dPolylineVertex
 10
2.944726770740178
 20
10.447672
 30
0.0
 70
    32
1001
ACAD
1000
R13OBJECT
1002
{
1005
BA
1002
}
  0
SEQEND
  5
176
330
16E
100
AcDbEntity
  8
OBJECT
  0
LINE
  5
177
330
1E
100
AcDbEntity
  8
OBJECT
100
AcDbLine
 10
2.944726770740178
 20
10.31767199999999
 30
0.0
 11
2.944726770740178
 21
10.447672
 31
0.0
  0
LINE
  5
178
330
1E
100
AcDbEntity
  8
OBJECT
100
AcDbLine
 10
2.935647770740178
 20
10.447672
 30
0.0
 11
2.935647770740178
 21
10.31767199999999
 31
0.0
  0
LINE
  5
179
330
1E
100
AcDbEntity
  8
OBJECT
100
AcDbLine
 10
2.944726770740178
 20
10.447672
 30
0.0
 11
3.219309770740178
 21
10.447672
 31
0.0
  0
POLYLINE
  5
17A
330
1E
100
AcDbEntity
  8
OBJECT
100
AcDb3dPolyline
 66
     1
 10
0.0
 20
0.0
 30
0.0
 70
     8
  0
VERTEX
  5
17B
330
17A
100
AcDbEntity
  8
OBJECT
100
AcDbVertex
100
AcDb3dPolylineVertex
 10
3.241230770740178
 20
10.47867199999999
 30
0.0
 70
    32
1001
ACAD
1000
R13OBJECT
1002
{
1005
BE
1002
}
  0
VERTEX
  5
17C
330
17A
100
AcDbEntity
  8
OBJECT
100
AcDbVertex
100
AcDb3dPolylineVertex
 10
3.235556770740178
 20
10.477616
 30
0.0
 70
    32
1001
ACAD
1000
R13OBJECT
1002
{
1005
BE
1002
}
  0
VERTEX
  5
17D
330
17A
100
AcDbEntity
  8
OBJECT
100
AcDbVertex
100
AcDb3dPolylineVertex
 10
3.230269770740178
 20
10.474519
 30
0.0
 70
    32
1001
ACAD
1000
R13OBJECT
1002
{
1005
BE
1002
}
  0
VERTEX
  5
17E
330
17A
100
AcDbEntity
  8
OBJECT
100
AcDbVertex
100
AcDb3dPolylineVertex
 10
3.225730770740178
 20
10.469592
 30
0.0
 70
    32
1001
ACAD
1000
R13OBJECT
1002
{
1005
BE
1002
}
  0
VERTEX
  5
17F
330
17A
100
AcDbEntity
  8
OBJECT
100
AcDbVertex
100
AcDb3dPolylineVertex
 10
3.222246770740178
 20
10.463172
 30
0.0
 70
    32
1001
ACAD
1000
R13OBJECT
1002
{
1005
BE
1002
}
  0
VERTEX
  5
180
330
17A
100
AcDbEntity
  8
OBJECT
100
AcDbVertex
100
AcDb3dPolylineVertex
 10
3.220056770740178
 20
10.455696
 30
0.0
 70
    32
1001
ACAD
1000
R13OBJECT
1002
{
1005
BE
1002
}
  0
VERTEX
  5
181
330
17A
100
AcDbEntity
  8
OBJECT
100
AcDbVertex
100
AcDb3dPolylineVertex
 10
3.219309770740178
 20
10.447672
 30
0.0
 70
    32
1001
ACAD
1000
R13OBJECT
1002
{
1005
BE
1002
}
  0
SEQEND
  5
182
330
17A
100
AcDbEntity
  8
OBJECT
  0
LINE
  5
183
330
1E
100
AcDbEntity
  8
OBJECT
100
AcDbLine
 10
3.241230770740178
 20
10.47867199999999
 30
0.0
 11
2.966647770740178
 21
10.47867199999999
 31
0.0
  0
LINE
  5
184
330
1E
100
AcDbEntity
  8
OBJECT
100
AcDbLine
 10
3.241230770740178
 20
10.447672
 30
0.0
 11
3.219309770740178
 21
10.447672
 31
0.0
  0
LINE
  5
185
330
1E
100
AcDbEntity
  8
OBJECT
100
AcDbLine
 10
3.219309770740178
 20
10.447672
 30
0.0
 11
3.219309770740178
 21
10.31767199999999
 31
0.0
  0
ARC
  5
186
330
1E
100
AcDbEntity
  8
OBJECT
100
AcDbCircle
 10
7.014039999999999
 20
12.531726
 30
0.0
 40
0.0625
100
AcDbArc
 50
270.0
 51
0.0
  0
ARC
  5
187
330
1E
100
AcDbEntity
  8
OBJECT
100
AcDbCircle
 10
6.19104
 20
12.531726
 30
0.0
 40
0.0625
100
AcDbArc
 50
180.0
 51
270.0
  0
LINE
  5
188
330
1E
100
AcDbEntity
  8
OBJECT
100
AcDbLine
 10
7.076539999999999
 20
12.531726
 30
0.0
 11
7.076539999999999
 21
12.97422599999999
 31
0.0
  0
LINE
  5
189
330
1E
100
AcDbEntity
  8
OBJECT
100
AcDbLine
 10
6.12854
 20
12.859532
 30
0.0
 11
6.12854
 21
12.531726
 31
0.0
  0
LWPOLYLINE
  5
18A
330
1E
100
AcDbEntity
  8
OBJECT
100
AcDbPolyline
 90
      139
 70
     0
 43
0.0
 10
7.076541999999999
 20
12.864699
 10
7.076506
 20
12.862149
 10
7.076397
 20
12.859598
 10
7.076214
 20
12.857046
 10
7.075957
 20
12.854496
 10
7.075625999999999
 20
12.851948
 10
7.075221
 20
12.849403
 10
7.074741
 20
12.846862
 10
7.074186
 20
12.84432699999999
 10
7.073557
 20
12.84179799999999
 10
7.072852
 20
12.839277
 10
7.072072
 20
12.836764
 10
7.071216
 20
12.834261
 10
7.070285
 20
12.83176899999999
 10
7.069277
 20
12.829288
 10
7.068192999999999
 20
12.82682
 10
7.067032000000001
 20
12.824366
 10
7.064569
 20
12.819649
 10
7.061910000000001
 20
12.81512799999999
 10
7.059066
 20
12.81079599999999
 10
7.056047999999999
 20
12.806646
 10
7.052869
 20
12.80267199999999
 10
7.049541
 20
12.79886799999999
 10
7.046074
 20
12.79522599999999
 10
7.042480999999999
 20
12.79174
 10
7.038772999999999
 20
12.788405
 10
7.034963
 20
12.785213
 10
7.027078999999999
 20
12.779232
 10
7.018925
 20
12.773745
 10
7.010592999999999
 20
12.768701
 10
7.002511
 20
12.764252
 10
6.993563
 20
12.75975999999999
 10
6.983703999999999
 20
12.755249
 10
6.972891
 20
12.75073899999999
 10
6.961082000000001
 20
12.746253
 10
6.954791
 20
12.744027
 10
6.948233999999999
 20
12.741814
 10
6.941405999999999
 20
12.73961899999999
 10
6.934302999999999
 20
12.73744399999999
 10
6.926916999999999
 20
12.735291
 10
6.919245
 20
12.733163
 10
6.907677
 20
12.730146
 10
6.895775
 20
12.72726
 10
6.883541999999999
 20
12.724504
 10
6.87098
 20
12.721878
 10
6.858090999999999
 20
12.719381
 10
6.844877999999999
 20
12.71701199999999
 10
6.831342999999999
 20
12.714771
 10
6.824455999999999
 20
12.713699
 10
6.817489
 20
12.712658
 10
6.807949
 20
12.71130199999999
 10
6.798300999999999
 20
12.71001
 10
6.788549
 20
12.708782
 10
6.778697
 20
12.707619
 10
6.768747
 20
12.706521
 10
6.758703999999998
 20
12.705488
 10
6.748571
 20
12.704521
 10
6.738352
 20
12.703619
 10
6.728050999999999
 20
12.702783
 10
6.717671000000001
 20
12.702013
 10
6.707216
 20
12.701311
 10
6.696689999999999
 20
12.700675
 10
6.686094999999999
 20
12.70010599999999
 10
6.675436999999999
 20
12.69960399999999
 10
6.664717999999999
 20
12.699171
 10
6.653941999999999
 20
12.698805
 10
6.643485
 20
12.698518
 10
6.633018999999999
 20
12.698295
 10
6.622547999999999
 20
12.698138
 10
6.612074999999999
 20
12.698046
 10
6.601605
 20
12.698019
 10
6.591141
 20
12.698057
 10
6.580688999999999
 20
12.698159
 10
6.570250999999999
 20
12.698327
 10
6.559832
 20
12.69856
 10
6.549436
 20
12.698857
 10
6.539067
 20
12.699218
 10
6.528728
 20
12.699645
 10
6.518424999999999
 20
12.700135
 10
6.508161
 20
12.70069
 10
6.497939999999999
 20
12.701309
 10
6.487765
 20
12.701993
 10
6.478263
 20
12.70269199999999
 10
6.468839
 20
12.703446
 10
6.459494
 20
12.704253
 10
6.450230999999999
 20
12.705113
 10
6.441050999999999
 20
12.706027
 10
6.431957999999999
 20
12.70699299999999
 10
6.422953999999999
 20
12.708013
 10
6.414038999999999
 20
12.70908499999999
 10
6.405216999999999
 20
12.71020899999999
 10
6.39649
 20
12.711386
 10
6.387858999999999
 20
12.712614
 10
6.379328
 20
12.713894
 10
6.370897
 20
12.71522599999999
 10
6.362569999999999
 20
12.716609
 10
6.354347999999999
 20
12.718043
 10
6.346232999999999
 20
12.719528
 10
6.339443
 20
12.720825
 10
6.332753
 20
12.722154
 10
6.319666
 20
12.724911
 10
6.306969
 20
12.727801
 10
6.294659999999999
 20
12.730829
 10
6.282734999999999
 20
12.733997
 10
6.271189999999999
 20
12.73731
 10
6.260023999999999
 20
12.740772
 10
6.249232
 20
12.744386
 10
6.242758999999999
 20
12.746694
 10
6.236505
 20
12.749037
 10
6.224644
 20
12.753824
 10
6.213619
 20
12.75874799999999
 10
6.203401
 20
12.763807
 10
6.193960999999999
 20
12.769002
 10
6.18527
 20
12.774331
 10
6.177298999999999
 20
12.779795
 10
6.170018999999999
 20
12.785394
 10
6.164208999999999
 20
12.790384
 10
6.158375
 20
12.795989
 10
6.155494999999999
 20
12.799028
 10
6.152662999999999
 20
12.802229
 10
6.149898999999999
 20
12.805595
 10
6.147219
 20
12.809127
 10
6.144643
 20
12.81282899999999
 10
6.142189
 20
12.816703
 10
6.139874999999999
 20
12.820752
 10
6.137719
 20
12.824979
 10
6.135739
 20
12.829386
 10
6.133955
 20
12.833976
 10
6.132382999999999
 20
12.838752
 10
6.131682999999999
 20
12.84121
 10
6.131041999999999
 20
12.843716
 10
6.130455
 20
12.846322
 10
6.129946
 20
12.848935
 10
6.129516
 20
12.851554
 10
6.129164
 20
12.854178
 10
6.128891
 20
12.85680499999999
 10
6.128694999999999
 20
12.859435
 10
6.128578
 20
12.862067
 10
6.12854
 20
12.86469799999999
  0
LINE
  5
217
330
1E
100
AcDbEntity
  8
OBJECT
100
AcDbLine
 10
6.12854
 20
12.97422599999999
 30
0.0
 11
6.12854
 21
12.864697
 31
0.0
  0
LINE
  5
218
330
1E
100
AcDbEntity
  8
OBJECT
100
AcDbLine
 10
7.076539999999999
 20
12.864697
 30
0.0
 11
7.076539999999999
 21
12.97422599999999
 31
0.0
  0
LINE
  5
219
330
1E
100
AcDbEntity
  8
OBJECT
100
AcDbLine
 10
6.287539999999999
 20
12.46922599999999
 30
0.0
 11
6.27054
 21
12.44144799999999
 31
0.0
  0
LINE
  5
21A
330
1E
100
AcDbEntity
  8
OBJECT
100
AcDbLine
 10
6.934539999999999
 20
12.44144799999999
 30
0.0
 11
6.917539999999999
 21
12.46922599999999
 31
0.0
  0
LINE
  5
21B
330
1E
100
AcDbEntity
  8
OBJECT
100
AcDbLine
 10
6.27054
 20
12.44144799999999
 30
0.0
 11
6.287539999999999
 21
12.41367
 31
0.0
  0
LINE
  5
21C
330
1E
100
AcDbEntity
  8
OBJECT
100
AcDbLine
 10
6.917539999999999
 20
12.41367
 30
0.0
 11
6.934539999999999
 21
12.44144799999999
 31
0.0
  0
LINE
  5
21D
330
1E
100
AcDbEntity
  8
OBJECT
100
AcDbLine
 10
6.287539999999999
 20
12.41367
 30
0.0
 11
6.27054
 21
12.385892
 31
0.0
  0
LINE
  5
21E
330
1E
100
AcDbEntity
  8
OBJECT
100
AcDbLine
 10
6.934539999999999
 20
12.385892
 30
0.0
 11
6.917539999999999
 21
12.41367
 31
0.0
  0
LINE
  5
21F
330
1E
100
AcDbEntity
  8
OBJECT
100
AcDbLine
 10
6.27054
 20
12.385892
 30
0.0
 11
6.287539999999999
 21
12.358114
 31
0.0
  0
LINE
  5
220
330
1E
100
AcDbEntity
  8
OBJECT
100
AcDbLine
 10
6.917539999999999
 20
12.358114
 30
0.0
 11
6.934539999999999
 21
12.385892
 31
0.0
  0
LINE
  5
221
330
1E
100
AcDbEntity
  8
OBJECT
100
AcDbLine
 10
6.287539999999999
 20
12.358114
 30
0.0
 11
6.27054
 21
12.330337
 31
0.0
  0
LINE
  5
222
330
1E
100
AcDbEntity
  8
OBJECT
100
AcDbLine
 10
6.934539999999999
 20
12.330337
 30
0.0
 11
6.917539999999999
 21
12.358114
 31
0.0
  0
LINE
  5
223
330
1E
100
AcDbEntity
  8
OBJECT
100
AcDbLine
 10
6.27054
 20
12.330337
 30
0.0
 11
6.287539999999999
 21
12.302559
 31
0.0
  0
LINE
  5
224
330
1E
100
AcDbEntity
  8
OBJECT
100
AcDbLine
 10
6.917539999999999
 20
12.302559
 30
0.0
 11
6.934539999999999
 21
12.330337
 31
0.0
  0
LINE
  5
225
330
1E
100
AcDbEntity
  8
OBJECT
100
AcDbLine
 10
6.287539999999999
 20
12.302559
 30
0.0
 11
6.27054
 21
12.27478099999999
 31
0.0
  0
LINE
  5
226
330
1E
100
AcDbEntity
  8
OBJECT
100
AcDbLine
 10
6.934539999999999
 20
12.27478099999999
 30
0.0
 11
6.917539999999999
 21
12.302559
 31
0.0
  0
LINE
  5
227
330
1E
100
AcDbEntity
  8
OBJECT
100
AcDbLine
 10
6.27054
 20
12.27478099999999
 30
0.0
 11
6.287539999999999
 21
12.247003
 31
0.0
  0
LINE
  5
228
330
1E
100
AcDbEntity
  8
OBJECT
100
AcDbLine
 10
6.917539999999999
 20
12.247003
 30
0.0
 11
6.934539999999999
 21
12.27478099999999
 31
0.0
  0
LINE
  5
229
330
1E
100
AcDbEntity
  8
OBJECT
100
AcDbLine
 10
6.287539999999999
 20
12.247003
 30
0.0
 11
6.27054
 21
12.219225
 31
0.0
  0
LINE
  5
22A
330
1E
100
AcDbEntity
  8
OBJECT
100
AcDbLine
 10
6.934539999999999
 20
12.219225
 30
0.0
 11
6.917539999999999
 21
12.247003
 31
0.0
  0
LINE
  5
22B
330
1E
100
AcDbEntity
  8
OBJECT
100
AcDbLine
 10
6.27054
 20
12.219225
 30
0.0
 11
6.287539999999999
 21
12.191448
 31
0.0
  0
LINE
  5
22C
330
1E
100
AcDbEntity
  8
OBJECT
100
AcDbLine
 10
6.917539999999999
 20
12.191448
 30
0.0
 11
6.934539999999999
 21
12.219225
 31
0.0
  0
LINE
  5
22D
330
1E
100
AcDbEntity
  8
OBJECT
100
AcDbLine
 10
6.287539999999999
 20
12.191448
 30
0.0
 11
6.27054
 21
12.16366999999999
 31
0.0
  0
LINE
  5
22E
330
1E
100
AcDbEntity
  8
OBJECT
100
AcDbLine
 10
6.934539999999999
 20
12.16366999999999
 30
0.0
 11
6.917539999999999
 21
12.191448
 31
0.0
  0
LINE
  5
22F
330
1E
100
AcDbEntity
  8
OBJECT
100
AcDbLine
 10
6.27054
 20
12.16366999999999
 30
0.0
 11
6.287539999999999
 21
12.135892
 31
0.0
  0
LINE
  5
230
330
1E
100
AcDbEntity
  8
OBJECT
100
AcDbLine
 10
6.917539999999999
 20
12.135892
 30
0.0
 11
6.934539999999999
 21
12.16366999999999
 31
0.0
  0
LINE
  5
231
330
1E
100
AcDbEntity
  8
OBJECT
100
AcDbLine
 10
6.287539999999999
 20
12.135892
 30
0.0
 11
6.27054
 21
12.108114
 31
0.0
  0
LINE
  5
232
330
1E
100
AcDbEntity
  8
OBJECT
100
AcDbLine
 10
6.934539999999999
 20
12.108114
 30
0.0
 11
6.917539999999999
 21
12.135892
 31
0.0
  0
LINE
  5
233
330
1E
100
AcDbEntity
  8
OBJECT
100
AcDbLine
 10
6.27054
 20
12.108114
 30
0.0
 11
6.287539999999999
 21
12.080337
 31
0.0
  0
LINE
  5
234
330
1E
100
AcDbEntity
  8
OBJECT
100
AcDbLine
 10
6.917539999999999
 20
12.080337
 30
0.0
 11
6.934539999999999
 21
12.108114
 31
0.0
  0
LINE
  5
235
330
1E
100
AcDbEntity
  8
OBJECT
100
AcDbLine
 10
6.287539999999999
 20
12.080337
 30
0.0
 11
6.27054
 21
12.052559
 31
0.0
  0
LINE
  5
236
330
1E
100
AcDbEntity
  8
OBJECT
100
AcDbLine
 10
6.934539999999999
 20
12.052559
 30
0.0
 11
6.917539999999999
 21
12.080337
 31
0.0
  0
LINE
  5
237
330
1E
100
AcDbEntity
  8
OBJECT
100
AcDbLine
 10
6.27054
 20
12.052559
 30
0.0
 11
6.287539999999999
 21
12.02478099999999
 31
0.0
  0
LINE
  5
238
330
1E
100
AcDbEntity
  8
OBJECT
100
AcDbLine
 10
6.917539999999999
 20
12.02478099999999
 30
0.0
 11
6.934539999999999
 21
12.052559
 31
0.0
  0
LINE
  5
239
330
1E
100
AcDbEntity
  8
OBJECT
100
AcDbLine
 10
6.287539999999999
 20
12.02478099999999
 30
0.0
 11
6.27054
 21
11.99700299999999
 31
0.0
  0
LINE
  5
23A
330
1E
100
AcDbEntity
  8
OBJECT
100
AcDbLine
 10
6.934539999999999
 20
11.99700299999999
 30
0.0
 11
6.917539999999999
 21
12.02478099999999
 31
0.0
  0
LINE
  5
23B
330
1E
100
AcDbEntity
  8
OBJECT
100
AcDbLine
 10
6.27054
 20
11.99700299999999
 30
0.0
 11
6.287539999999999
 21
11.96922599999999
 31
0.0
  0
LINE
  5
23C
330
1E
100
AcDbEntity
  8
OBJECT
100
AcDbLine
 10
6.917539999999999
 20
11.96922599999999
 30
0.0
 11
6.934539999999999
 21
11.99700299999999
 31
0.0
  0
ARC
  5
23D
330
1E
100
AcDbEntity
  8
OBJECT
100
AcDbCircle
 10
6.602539999999999
 20
13.526226
 30
0.0
 40
0.4740000000000001
100
AcDbArc
 50
0.0
 51
180.0
  0
LINE
  5
23E
330
1E
100
AcDbEntity
  8
OBJECT
100
AcDbLine
 10
7.076539999999999
 20
12.97422599999999
 30
0.0
 11
7.076539999999999
 21
13.526226
 31
0.0
  0
LINE
  5
23F
330
1E
100
AcDbEntity
  8
OBJECT
100
AcDbLine
 10
6.12854
 20
13.526226
 30
0.0
 11
6.12854
 21
12.97422599999999
 31
0.0
  0
LINE
  5
240
330
1E
100
AcDbEntity
  8
OBJECT
100
AcDbLine
 10
6.162539999999999
 20
11.26629199999999
 30
0.0
 11
6.162539999999999
 21
11.20629199999999
 31
0.0
  0
LINE
  5
241
330
1E
100
AcDbEntity
  8
OBJECT
100
AcDbLine
 10
7.042539999999999
 20
11.20629199999999
 30
0.0
 11
7.042539999999999
 21
11.26629199999999
 31
0.0
  0
LINE
  5
242
330
1E
100
AcDbEntity
  8
OBJECT
100
AcDbLine
 10
3.761183770740178
 20
10.47860599999999
 30
0.0
 11
3.761143770740178
 21
10.47867199999999
 31
0.0
  0
LINE
  5
243
330
1E
100
AcDbEntity
  8
OBJECT
100
AcDbLine
 10
3.110151770740178
 20
10.47867199999999
 30
0.0
 11
3.110110770740178
 21
10.47860599999999
 31
0.0
  0
LINE
  5
244
330
1E
100
AcDbEntity
  8
OBJECT
100
AcDbLine
 10
3.435647770740178
 20
11.20629199999999
 30
0.0
 11
3.435647770740178
 21
11.206206
 31
0.0
  0
LINE
  5
245
330
1E
100
AcDbEntity
  8
OBJECT
100
AcDbLine
 10
3.024147770740178
 20
12.46922599999999
 30
0.0
 11
3.847147770740178
 21
12.46922599999999
 31
0.0
  0
ARC
  5
246
330
1E
100
AcDbEntity
  8
OBJECT
100
AcDbCircle
 10
4.128147770740178
 20
12.968875
 30
0.0
 40
0.0625
100
AcDbArc
 50
180.0
 51
255.7932339999999
  0
LWPOLYLINE
  5
247
330
1E
100
AcDbEntity
  8
OBJECT
100
AcDbPolyline
 90
       59
 70
     0
 43
0.0
 10
4.112808770740178
 20
12.908286
 10
4.113411770740178
 20
12.90813299999999
 10
4.115220770740179
 20
12.907675
 10
4.118229770740178
 20
12.906914
 10
4.122429770740178
 20
12.90585
 10
4.127807770740179
 20
12.904489
 10
4.134349770740178
 20
12.902833
 10
4.142034770740179
 20
12.900887
 10
4.150841770740179
 20
12.898657
 10
4.160743770740178
 20
12.896151
 10
4.171711770740178
 20
12.89337399999999
 10
4.183714770740179
 20
12.890335
 10
4.196716770740178
 20
12.887044
 10
4.210678770740178
 20
12.883509
 10
4.225561770740178
 20
12.879741
 10
4.241320770740178
 20
12.87575099999999
 10
4.257908770740178
 20
12.871552
 10
4.275279770740178
 20
12.867154
 10
4.293379770740178
 20
12.862572
 10
4.312158770740178
 20
12.857818
 10
4.331558770740178
 20
12.85290599999999
 10
4.351524770740178
 20
12.84785199999999
 10
4.371996770740178
 20
12.842669
 10
4.392915770740178
 20
12.837373
 10
4.414220770740178
 20
12.831979
 10
4.435848770740178
 20
12.826504
 10
4.457735770740178
 20
12.820963
 10
4.479817770740178
 20
12.815372
 10
4.502030770740178
 20
12.809749
 10
4.524308770740178
 20
12.804109
 10
4.546586770740177
 20
12.798469
 10
4.568799770740178
 20
12.792845
 10
4.590881770740178
 20
12.787255
 10
4.612768770740178
 20
12.78171399999999
 10
4.634396770740178
 20
12.776238
 10
4.655701770740178
 20
12.77084499999999
 10
4.676620770740179
 20
12.765549
 10
4.697092770740178
 20
12.760366
 10
4.717058770740178
 20
12.755311
 10
4.736458770740178
 20
12.7504
 10
4.755236770740178
 20
12.745646
 10
4.773337770740178
 20
12.741063
 10
4.790707770740178
 20
12.736666
 10
4.807296770740179
 20
12.732466
 10
4.823055770740178
 20
12.728477
 10
4.837938770740178
 20
12.724709
 10
4.851900770740178
 20
12.721174
 10
4.864902770740179
 20
12.717882
 10
4.876905770740178
 20
12.714844
 10
4.887873770740178
 20
12.712067
 10
4.897775770740179
 20
12.70955999999999
 10
4.906582770740178
 20
12.707331
 10
4.914267770740178
 20
12.705385
 10
4.920809770740178
 20
12.70372899999999
 10
4.926187770740178
 20
12.702367
 10
4.930387770740178
 20
12.70130399999999
 10
4.933396770740179
 20
12.700542
 10
4.935204770740178
 20
12.700084
 10
4.935808770740178
 20
12.699932
  0
LINE
  5
284
330
1E
100
AcDbEntity
  8
OBJECT
100
AcDbLine
 10
3.103147770740178
 20
12.44144799999999
 30
0.0
 11
3.768147770740178
 21
12.44144799999999
 31
0.0
  0
LINE
  5
285
330
1E
100
AcDbEntity
  8
OBJECT
100
AcDbLine
 10
3.120147770740178
 20
12.41367
 30
0.0
 11
3.751147770740177
 21
12.41367
 31
0.0
  0
LINE
  5
286
330
1E
100
AcDbEntity
  8
OBJECT
100
AcDbLine
 10
3.103147770740178
 20
12.385892
 30
0.0
 11
3.768147770740178
 21
12.385892
 31
0.0
  0
LINE
  5
287
330
1E
100
AcDbEntity
  8
OBJECT
100
AcDbLine
 10
3.120147770740178
 20
12.358114
 30
0.0
 11
3.751147770740177
 21
12.358114
 31
0.0
  0
LINE
  5
288
330
1E
100
AcDbEntity
  8
OBJECT
100
AcDbLine
 10
3.103147770740178
 20
12.330337
 30
0.0
 11
3.768147770740178
 21
12.330337
 31
0.0
  0
LINE
  5
289
330
1E
100
AcDbEntity
  8
OBJECT
100
AcDbLine
 10
3.120147770740178
 20
12.302559
 30
0.0
 11
3.751147770740177
 21
12.302559
 31
0.0
  0
LINE
  5
28A
330
1E
100
AcDbEntity
  8
OBJECT
100
AcDbLine
 10
3.103147770740178
 20
12.27478099999999
 30
0.0
 11
3.768147770740178
 21
12.27478099999999
 31
0.0
  0
LINE
  5
28B
330
1E
100
AcDbEntity
  8
OBJECT
100
AcDbLine
 10
3.120147770740178
 20
12.247003
 30
0.0
 11
3.751147770740177
 21
12.247003
 31
0.0
  0
LINE
  5
28C
330
1E
100
AcDbEntity
  8
OBJECT
100
AcDbLine
 10
3.103147770740178
 20
12.219225
 30
0.0
 11
3.768147770740178
 21
12.219225
 31
0.0
  0
LINE
  5
28D
330
1E
100
AcDbEntity
  8
OBJECT
100
AcDbLine
 10
3.120147770740178
 20
12.191448
 30
0.0
 11
3.751147770740177
 21
12.191448
 31
0.0
  0
LINE
  5
28E
330
1E
100
AcDbEntity
  8
OBJECT
100
AcDbLine
 10
3.103147770740178
 20
12.16366999999999
 30
0.0
 11
3.768147770740178
 21
12.16366999999999
 31
0.0
  0
LINE
  5
28F
330
1E
100
AcDbEntity
  8
OBJECT
100
AcDbLine
 10
3.120147770740178
 20
12.135892
 30
0.0
 11
3.751147770740177
 21
12.135892
 31
0.0
  0
LINE
  5
290
330
1E
100
AcDbEntity
  8
OBJECT
100
AcDbLine
 10
3.103147770740178
 20
12.108114
 30
0.0
 11
3.768147770740178
 21
12.108114
 31
0.0
  0
LINE
  5
291
330
1E
100
AcDbEntity
  8
OBJECT
100
AcDbLine
 10
3.120147770740178
 20
12.080337
 30
0.0
 11
3.751147770740177
 21
12.080337
 31
0.0
  0
LINE
  5
292
330
1E
100
AcDbEntity
  8
OBJECT
100
AcDbLine
 10
3.103147770740178
 20
12.052559
 30
0.0
 11
3.768147770740178
 21
12.052559
 31
0.0
  0
LINE
  5
293
330
1E
100
AcDbEntity
  8
OBJECT
100
AcDbLine
 10
3.120147770740178
 20
12.02478099999999
 30
0.0
 11
3.751147770740177
 21
12.02478099999999
 31
0.0
  0
LINE
  5
294
330
1E
100
AcDbEntity
  8
OBJECT
100
AcDbLine
 10
3.103147770740178
 20
11.99700299999999
 30
0.0
 11
3.768147770740178
 21
11.99700299999999
 31
0.0
  0
LINE
  5
295
330
1E
100
AcDbEntity
  8
OBJECT
100
AcDbLine
 10
3.751147770740177
 20
11.96922599999999
 30
0.0
 11
3.120147770740178
 21
11.96922599999999
 31
0.0
  0
LINE
  5
296
330
1E
100
AcDbEntity
  8
OBJECT
100
AcDbLine
 10
3.875647770740178
 20
11.26629199999999
 30
0.0
 11
2.995647770740178
 21
11.26629199999999
 31
0.0
  0
LINE
  5
297
330
1E
100
AcDbEntity
  8
OBJECT
100
AcDbLine
 10
2.995647770740178
 20
11.20629199999999
 30
0.0
 11
3.875647770740178
 21
11.20629199999999
 31
0.0
  0
ARC
  5
298
330
1E
100
AcDbEntity
  8
OBJECT
100
AcDbCircle
 10
3.847147770740178
 20
12.531726
 30
0.0
 40
0.0625
100
AcDbArc
 50
270.0
 51
0.0
  0
ARC
  5
299
330
1E
100
AcDbEntity
  8
OBJECT
100
AcDbCircle
 10
3.024147770740178
 20
12.531726
 30
0.0
 40
0.0625
100
AcDbArc
 50
180.0
 51
270.0
  0
LINE
  5
29A
330
1E
100
AcDbEntity
  8
OBJECT
100
AcDbLine
 10
3.909647770740178
 20
12.531726
 30
0.0
 11
3.909647770740178
 21
12.97422599999999
 31
0.0
  0
LINE
  5
29B
330
1E
100
AcDbEntity
  8
OBJECT
100
AcDbLine
 10
2.961647770740178
 20
12.97422599999999
 30
0.0
 11
2.961647770740178
 21
12.531726
 31
0.0
  0
LWPOLYLINE
  5
29C
330
1E
100
AcDbEntity
  8
OBJECT
100
AcDbPolyline
 90
       69
 70
     0
 43
0.0
 10
5.013647770740178
 20
12.76051999999999
 10
5.013620770740178
 20
12.758688
 10
5.013539770740178
 20
12.756857
 10
5.013405770740178
 20
12.755026
 10
5.013216770740178
 20
12.753198
 10
5.013019770740178
 20
12.75168599999999
 10
5.012786770740178
 20
12.750181
 10
5.012516770740178
 20
12.748683
 10
5.012209770740178
 20
12.747193
 10
5.011867770740178
 20
12.745712
 10
5.011489770740179
 20
12.74424
 10
5.011076770740178
 20
12.742778
 10
5.010627770740178
 20
12.741327
 10
5.010143770740178
 20
12.739888
 10
5.009624770740178
 20
12.73846
 10
5.009071770740178
 20
12.737045
 10
5.008483770740178
 20
12.735643
 10
5.007860770740179
 20
12.734256
 10
5.007204770740178
 20
12.732882
 10
5.006514770740179
 20
12.731524
 10
5.005790770740178
 20
12.730182
 10
5.005033770740178
 20
12.728858
 10
5.004245770740178
 20
12.727554
 10
5.003427770740178
 20
12.72626999999999
 10
5.002578770740178
 20
12.725008
 10
5.001699770740178
 20
12.72376799999999
 10
5.000791770740178
 20
12.72255
 10
4.999853770740179
 20
12.721355
 10
4.998887770740178
 20
12.720183
 10
4.997893770740178
 20
12.719035
 10
4.996871770740178
 20
12.717911
 10
4.995822770740178
 20
12.71681199999999
 10
4.994745770740178
 20
12.715738
 10
4.993643770740177
 20
12.714691
 10
4.992514770740179
 20
12.713669
 10
4.991360770740178
 20
12.712675
 10
4.990181770740178
 20
12.711708
 10
4.988978770740178
 20
12.71077
 10
4.987754770740178
 20
12.709863
 10
4.986510770740179
 20
12.70898599999999
 10
4.985245770740179
 20
12.70814099999999
 10
4.983961770740178
 20
12.707327
 10
4.982659770740178
 20
12.706545
 10
4.981337770740178
 20
12.705796
 10
4.979999770740178
 20
12.705078
 10
4.978643770740178
 20
12.704393
 10
4.977271770740179
 20
12.703742
 10
4.975883770740178
 20
12.703123
 10
4.974480770740179
 20
12.702539
 10
4.973062770740178
 20
12.701988
 10
4.971630770740178
 20
12.701472
 10
4.970185770740179
 20
12.70099
 10
4.968727770740178
 20
12.70054299999999
 10
4.966721770740178
 20
12.69999199999999
 10
4.964699770740178
 20
12.699507
 10
4.962664770740178
 20
12.69909
 10
4.960617770740178
 20
12.698742
 10
4.958559770740178
 20
12.698461
 10
4.956492770740179
 20
12.698249
 10
4.954418770740177
 20
12.698106
 10
4.952339770740178
 20
12.698031
 10
4.950256770740178
 20
12.698027
 10
4.948171770740178
 20
12.698092
 10
4.946088770740178
 20
12.698227
 10
4.944010770740178
 20
12.698431
 10
4.941940770740178
 20
12.698704
 10
4.939881770740178
 20
12.69904499999999
 10
4.937836770740178
 20
12.699454
 10
4.935808770740178
 20
12.699932
  0
LINE
  5
2E3
330
1E
100
AcDbEntity
  8
OBJECT
100
AcDbLine
 10
4.065647770740178
 20
12.97422599999999
 30
0.0
 11
4.065647770740178
 21
12.968875
 31
0.0
  0
LINE
  5
2E4
330
1E
100
AcDbEntity
  8
OBJECT
100
AcDbLine
 10
5.013647770740178
 20
12.76051999999999
 30
0.0
 11
5.013647770740178
 21
12.97422599999999
 31
0.0
  0
LINE
  5
2E5
330
1E
100
AcDbEntity
  8
OBJECT
100
AcDbLine
 10
3.120147770740178
 20
12.46922599999999
 30
0.0
 11
3.103147770740178
 21
12.44144799999999
 31
0.0
  0
LINE
  5
2E6
330
1E
100
AcDbEntity
  8
OBJECT
100
AcDbLine
 10
3.768147770740178
 20
12.44144799999999
 30
0.0
 11
3.751147770740177
 21
12.46922599999999
 31
0.0
  0
LINE
  5
2E7
330
1E
100
AcDbEntity
  8
OBJECT
100
AcDbLine
 10
3.103147770740178
 20
12.44144799999999
 30
0.0
 11
3.120147770740178
 21
12.41367
 31
0.0
  0
LINE
  5
2E8
330
1E
100
AcDbEntity
  8
OBJECT
100
AcDbLine
 10
3.751147770740177
 20
12.41367
 30
0.0
 11
3.768147770740178
 21
12.44144799999999
 31
0.0
  0
LINE
  5
2E9
330
1E
100
AcDbEntity
  8
OBJECT
100
AcDbLine
 10
3.120147770740178
 20
12.41367
 30
0.0
 11
3.103147770740178
 21
12.385892
 31
0.0
  0
LINE
  5
2EA
330
1E
100
AcDbEntity
  8
OBJECT
100
AcDbLine
 10
3.768147770740178
 20
12.385892
 30
0.0
 11
3.751147770740177
 21
12.41367
 31
0.0
  0
LINE
  5
2EB
330
1E
100
AcDbEntity
  8
OBJECT
100
AcDbLine
 10
3.103147770740178
 20
12.385892
 30
0.0
 11
3.120147770740178
 21
12.358114
 31
0.0
  0
LINE
  5
2EC
330
1E
100
AcDbEntity
  8
OBJECT
100
AcDbLine
 10
3.751147770740177
 20
12.358114
 30
0.0
 11
3.768147770740178
 21
12.385892
 31
0.0
  0
LINE
  5
2ED
330
1E
100
AcDbEntity
  8
OBJECT
100
AcDbLine
 10
3.120147770740178
 20
12.358114
 30
0.0
 11
3.103147770740178
 21
12.330337
 31
0.0
  0
LINE
  5
2EE
330
1E
100
AcDbEntity
  8
OBJECT
100
AcDbLine
 10
3.768147770740178
 20
12.330337
 30
0.0
 11
3.751147770740177
 21
12.358114
 31
0.0
  0
LINE
  5
2EF
330
1E
100
AcDbEntity
  8
OBJECT
100
AcDbLine
 10
3.103147770740178
 20
12.330337
 30
0.0
 11
3.120147770740178
 21
12.302559
 31
0.0
  0
LINE
  5
2F0
330
1E
100
AcDbEntity
  8
OBJECT
100
AcDbLine
 10
3.751147770740177
 20
12.302559
 30
0.0
 11
3.768147770740178
 21
12.330337
 31
0.0
  0
LINE
  5
2F1
330
1E
100
AcDbEntity
  8
OBJECT
100
AcDbLine
 10
3.120147770740178
 20
12.302559
 30
0.0
 11
3.103147770740178
 21
12.27478099999999
 31
0.0
  0
LINE
  5
2F2
330
1E
100
AcDbEntity
  8
OBJECT
100
AcDbLine
 10
3.768147770740178
 20
12.27478099999999
 30
0.0
 11
3.751147770740177
 21
12.302559
 31
0.0
  0
LINE
  5
2F3
330
1E
100
AcDbEntity
  8
OBJECT
100
AcDbLine
 10
3.103147770740178
 20
12.27478099999999
 30
0.0
 11
3.120147770740178
 21
12.247003
 31
0.0
  0
LINE
  5
2F4
330
1E
100
AcDbEntity
  8
OBJECT
100
AcDbLine
 10
3.751147770740177
 20
12.247003
 30
0.0
 11
3.768147770740178
 21
12.27478099999999
 31
0.0
  0
LINE
  5
2F5
330
1E
100
AcDbEntity
  8
OBJECT
100
AcDbLine
 10
3.120147770740178
 20
12.247003
 30
0.0
 11
3.103147770740178
 21
12.219225
 31
0.0
  0
LINE
  5
2F6
330
1E
100
AcDbEntity
  8
OBJECT
100
AcDbLine
 10
3.768147770740178
 20
12.219225
 30
0.0
 11
3.751147770740177
 21
12.247003
 31
0.0
  0
LINE
  5
2F7
330
1E
100
AcDbEntity
  8
OBJECT
100
AcDbLine
 10
3.103147770740178
 20
12.219225
 30
0.0
 11
3.120147770740178
 21
12.191448
 31
0.0
  0
LINE
  5
2F8
330
1E
100
AcDbEntity
  8
OBJECT
100
AcDbLine
 10
3.751147770740177
 20
12.191448
 30
0.0
 11
3.768147770740178
 21
12.219225
 31
0.0
  0
LINE
  5
2F9
330
1E
100
AcDbEntity
  8
OBJECT
100
AcDbLine
 10
3.120147770740178
 20
12.191448
 30
0.0
 11
3.103147770740178
 21
12.16366999999999
 31
0.0
  0
LINE
  5
2FA
330
1E
100
AcDbEntity
  8
OBJECT
100
AcDbLine
 10
3.768147770740178
 20
12.16366999999999
 30
0.0
 11
3.751147770740177
 21
12.191448
 31
0.0
  0
LINE
  5
2FB
330
1E
100
AcDbEntity
  8
OBJECT
100
AcDbLine
 10
3.103147770740178
 20
12.16366999999999
 30
0.0
 11
3.120147770740178
 21
12.135892
 31
0.0
  0
LINE
  5
2FC
330
1E
100
AcDbEntity
  8
OBJECT
100
AcDbLine
 10
3.751147770740177
 20
12.135892
 30
0.0
 11
3.768147770740178
 21
12.16366999999999
 31
0.0
  0
LINE
  5
2FD
330
1E
100
AcDbEntity
  8
OBJECT
100
AcDbLine
 10
3.120147770740178
 20
12.135892
 30
0.0
 11
3.103147770740178
 21
12.108114
 31
0.0
  0
LINE
  5
2FE
330
1E
100
AcDbEntity
  8
OBJECT
100
AcDbLine
 10
3.768147770740178
 20
12.108114
 30
0.0
 11
3.751147770740177
 21
12.135892
 31
0.0
  0
LINE
  5
2FF
330
1E
100
AcDbEntity
  8
OBJECT
100
AcDbLine
 10
3.103147770740178
 20
12.108114
 30
0.0
 11
3.120147770740178
 21
12.080337
 31
0.0
  0
LINE
  5
300
330
1E
100
AcDbEntity
  8
OBJECT
100
AcDbLine
 10
3.751147770740177
 20
12.080337
 30
0.0
 11
3.768147770740178
 21
12.108114
 31
0.0
  0
LINE
  5
301
330
1E
100
AcDbEntity
  8
OBJECT
100
AcDbLine
 10
3.120147770740178
 20
12.080337
 30
0.0
 11
3.103147770740178
 21
12.052559
 31
0.0
  0
LINE
  5
302
330
1E
100
AcDbEntity
  8
OBJECT
100
AcDbLine
 10
3.768147770740178
 20
12.052559
 30
0.0
 11
3.751147770740177
 21
12.080337
 31
0.0
  0
LINE
  5
303
330
1E
100
AcDbEntity
  8
OBJECT
100
AcDbLine
 10
3.103147770740178
 20
12.052559
 30
0.0
 11
3.120147770740178
 21
12.02478099999999
 31
0.0
  0
LINE
  5
304
330
1E
100
AcDbEntity
  8
OBJECT
100
AcDbLine
 10
3.751147770740177
 20
12.02478099999999
 30
0.0
 11
3.768147770740178
 21
12.052559
 31
0.0
  0
LINE
  5
305
330
1E
100
AcDbEntity
  8
OBJECT
100
AcDbLine
 10
3.120147770740178
 20
12.02478099999999
 30
0.0
 11
3.103147770740178
 21
11.99700299999999
 31
0.0
  0
LINE
  5
306
330
1E
100
AcDbEntity
  8
OBJECT
100
AcDbLine
 10
3.768147770740178
 20
11.99700299999999
 30
0.0
 11
3.751147770740177
 21
12.02478099999999
 31
0.0
  0
LINE
  5
307
330
1E
100
AcDbEntity
  8
OBJECT
100
AcDbLine
 10
3.103147770740178
 20
11.99700299999999
 30
0.0
 11
3.120147770740178
 21
11.96922599999999
 31
0.0
  0
LINE
  5
308
330
1E
100
AcDbEntity
  8
OBJECT
100
AcDbLine
 10
3.751147770740177
 20
11.96922599999999
 30
0.0
 11
3.768147770740178
 21
11.99700299999999
 31
0.0
  0
ARC
  5
309
330
1E
100
AcDbEntity
  8
OBJECT
100
AcDbCircle
 10
3.987647770740178
 20
12.97422599999999
 30
0.0
 40
0.078
100
AcDbArc
 50
0.0
 51
180.0
  0
ARC
  5
30A
330
1E
100
AcDbEntity
  8
OBJECT
100
AcDbCircle
 10
3.987647770740178
 20
12.97422599999999
 30
0.0
 40
1.026
100
AcDbArc
 50
0.0
 51
180.0
  0
LINE
  5
30B
330
1E
100
AcDbEntity
  8
OBJECT
100
AcDbLine
 10
2.995647770740178
 20
11.26629199999999
 30
0.0
 11
2.995647770740178
 21
11.20629199999999
 31
0.0
  0
LINE
  5
30C
330
1E
100
AcDbEntity
  8
OBJECT
100
AcDbLine
 10
3.875647770740178
 20
11.20629199999999
 30
0.0
 11
3.875647770740178
 21
11.26629199999999
 31
0.0
  0
CIRCLE
  5
30D
330
1E
100
AcDbEntity
  8
HIDDEN
100
AcDbCircle
 10
3.435647770740178
 20
8.894013000000001
 30
0.0
 40
0.4740000000000001
  0
LWPOLYLINE
  5
30E
330
1E
100
AcDbEntity
  8
OBJECT
100
AcDbPolyline
 90
      125
 70
     0
 43
0.0
 10
4.065647770740178
 20
8.894013000000001
 10
4.066255770740178
 20
8.870005
 10
4.068079770740178
 20
8.846059
 10
4.071113770740178
 20
8.822236
 10
4.075350770740178
 20
8.798597
 10
4.080778770740178
 20
8.775202999999999
 10
4.087385770740178
 20
8.752114
 10
4.095152770740178
 20
8.729389999999998
 10
4.104061770740178
 20
8.707088
 10
4.114087770740178
 20
8.685266
 10
4.125207770740178
 20
8.663978999999999
 10
4.137389770740178
 20
8.643283999999999
 10
4.150605770740178
 20
8.623231
 10
4.164819770740178
 20
8.603874000000001
 10
4.179995770740179
 20
8.585262
 10
4.196095770740178
 20
8.567441999999999
 10
4.213076770740178
 20
8.550461
 10
4.230896770740178
 20
8.534361
 10
4.249509770740178
 20
8.519185
 10
4.268866770740178
 20
8.504971000000001
 10
4.288918770740178
 20
8.491754999999999
 10
4.309614770740179
 20
8.479572
 10
4.330900770740178
 20
8.468453
 10
4.352722770740178
 20
8.458427
 10
4.375024770740179
 20
8.449517999999999
 10
4.397749770740178
 20
8.441751
 10
4.420838770740179
 20
8.435144000000001
 10
4.444231770740178
 20
8.429714999999999
 10
4.467870770740178
 20
8.425478999999999
 10
4.491693770740178
 20
8.422444
 10
4.515639770740178
 20
8.420621
 10
4.539647770740178
 20
8.420013
 10
4.563655770740178
 20
8.420621
 10
4.587601770740178
 20
8.422444
 10
4.611424770740178
 20
8.425478999999999
 10
4.635062770740178
 20
8.429714999999999
 10
4.658456770740178
 20
8.435144000000001
 10
4.681545770740179
 20
8.441751
 10
4.704269770740178
 20
8.449517999999999
 10
4.726571770740179
 20
8.458427
 10
4.748394770740178
 20
8.468453
 10
4.769680770740178
 20
8.479572
 10
4.790376770740178
 20
8.491754999999999
 10
4.810428770740179
 20
8.504971000000001
 10
4.829785770740178
 20
8.519185
 10
4.848397770740178
 20
8.534361
 10
4.866217770740179
 20
8.550461
 10
4.883199770740178
 20
8.567441999999999
 10
4.899298770740178
 20
8.585262
 10
4.914474770740178
 20
8.603874000000001
 10
4.928689770740178
 20
8.623231
 10
4.941904770740178
 20
8.643283999999999
 10
4.954087770740178
 20
8.663978999999999
 10
4.965206770740178
 20
8.685266
 10
4.975233770740178
 20
8.707088
 10
4.984141770740178
 20
8.729389999999998
 10
4.991909770740178
 20
8.752114
 10
4.998515770740178
 20
8.775202999999999
 10
5.003944770740178
 20
8.798597
 10
5.008181770740178
 20
8.822236
 10
5.011215770740178
 20
8.846059
 10
5.013038770740179
 20
8.870005
 10
5.013647770740178
 20
8.894013000000001
 10
5.013038770740179
 20
8.91802
 10
5.011215770740178
 20
8.941966
 10
5.008181770740178
 20
8.965788999999999
 10
5.003944770740178
 20
8.989428
 10
4.998515770740178
 20
9.012821999999999
 10
4.991909770740178
 20
9.035911
 10
4.984141770740178
 20
9.058635
 10
4.975233770740178
 20
9.080936999999998
 10
4.965206770740178
 20
9.102758999999998
 10
4.954087770740178
 20
9.124045999999999
 10
4.941904770740178
 20
9.144740999999999
 10
4.928689770740178
 20
9.164794
 10
4.914474770740178
 20
9.184150999999999
 10
4.899298770740178
 20
9.202763
 10
4.883199770740178
 20
9.220582999999999
 10
4.866217770740179
 20
9.237564
 10
4.848397770740178
 20
9.253664
 10
4.829785770740178
 20
9.268839999999999
 10
4.810428770740179
 20
9.283053999999999
 10
4.790376770740178
 20
9.296269999999999
 10
4.769680770740178
 20
9.308453
 10
4.748394770740178
 20
9.319572
 10
4.726571770740179
 20
9.329598999999999
 10
4.704269770740178
 20
9.338506999999999
 10
4.681545770740179
 20
9.346275
 10
4.658456770740178
 20
9.352881
 10
4.635062770740178
 20
9.358310000000001
 10
4.611424770740178
 20
9.362546999999999
 10
4.587601770740178
 20
9.365581
 10
4.563655770740178
 20
9.367403999999998
 10
4.539647770740178
 20
9.368013000000001
 10
4.515639770740178
 20
9.367403999999998
 10
4.491693770740178
 20
9.365581
 10
4.467870770740178
 20
9.362546999999999
 10
4.444231770740178
 20
9.358310000000001
 10
4.420838770740179
 20
9.352881
 10
4.397749770740178
 20
9.346275
 10
4.375024770740179
 20
9.338506999999999
 10
4.352722770740178
 20
9.329598999999999
 10
4.330900770740178
 20
9.319572
 10
4.309614770740179
 20
9.308453
 10
4.288918770740178
 20
9.296269999999999
 10
4.268866770740178
 20
9.283053999999999
 10
4.249509770740178
 20
9.268839999999999
 10
4.230896770740178
 20
9.253664
 10
4.213076770740178
 20
9.237564
 10
4.196095770740178
 20
9.220582999999999
 10
4.179995770740179
 20
9.202763
 10
4.164819770740178
 20
9.184150999999999
 10
4.150605770740178
 20
9.164794
 10
4.137389770740178
 20
9.144740999999999
 10
4.125207770740178
 20
9.124045999999999
 10
4.114087770740178
 20
9.102758999999998
 10
4.104061770740178
 20
9.080936999999998
 10
4.095152770740178
 20
9.058635
 10
4.087385770740178
 20
9.035911
 10
4.080778770740178
 20
9.012821999999999
 10
4.075350770740178
 20
8.989428
 10
4.071113770740178
 20
8.965788999999999
 10
4.068079770740178
 20
8.941966
 10
4.066255770740178
 20
8.91802
 10
4.065647770740178
 20
8.894013000000001
  0
CIRCLE
  5
38D
330
1E
100
AcDbEntity
  8
OBJECT
100
AcDbCircle
 10
3.435647770740178
 20
8.894013000000001
 30
0.0
 40
0.332
  0
LINE
  5
38E
330
1E
100
AcDbEntity
  8
OBJECT
100
AcDbLine
 10
3.219398770740178
 20
9.384933
 30
0.0
 11
2.944726770740178
 21
9.110261999999998
 31
0.0
  0
ARC
  5
38F
330
1E
100
AcDbEntity
  8
OBJECT
100
AcDbCircle
 10
3.241318770740178
 20
9.363013
 30
0.0
 40
0.031
100
AcDbArc
 50
90.0
 51
135.0
  0
ARC
  5
390
330
1E
100
AcDbEntity
  8
OBJECT
100
AcDbCircle
 10
2.966647770740178
 20
9.088340999999999
 30
0.0
 40
0.031
100
AcDbArc
 50
135.0
 51
180.0
  0
LINE
  5
391
330
1E
100
AcDbEntity
  8
OBJECT
100
AcDbLine
 10
3.630064770740178
 20
9.394013000000001
 30
0.0
 11
3.241318770740178
 21
9.394013000000001
 31
0.0
  0
LINE
  5
392
330
1E
100
AcDbEntity
  8
OBJECT
100
AcDbLine
 10
2.935647770740178
 20
9.088340999999999
 30
0.0
 11
2.935647770740178
 21
8.699896999999999
 31
0.0
  0
ARC
  5
393
330
1E
100
AcDbEntity
  8
OBJECT
100
AcDbCircle
 10
3.630064770740178
 20
9.363013
 30
0.0
 40
0.031
100
AcDbArc
 50
45.0
 51
90.0
  0
ARC
  5
394
330
1E
100
AcDbEntity
  8
OBJECT
100
AcDbCircle
 10
2.966647770740178
 20
8.699896999999999
 30
0.0
 40
0.031
100
AcDbArc
 50
180.0
 51
225.0
  0
LINE
  5
395
330
1E
100
AcDbEntity
  8
OBJECT
100
AcDbLine
 10
3.926567770740178
 20
9.11035
 30
0.0
 11
3.651984770740178
 21
9.384933
 31
0.0
  0
LINE
  5
396
330
1E
100
AcDbEntity
  8
OBJECT
100
AcDbLine
 10
2.944726770740178
 20
8.677977
 30
0.0
 11
3.219611770740178
 21
8.403091999999999
 31
0.0
  0
ARC
  5
397
330
1E
100
AcDbEntity
  8
AM_VIS
100
AcDbCircle
 10
3.904647770740178
 20
9.08843
 30
0.0
 40
0.031
100
AcDbArc
 50
0.0
 51
45.0
  0
ARC
  5
398
330
1E
100
AcDbEntity
  8
OBJECT
100
AcDbCircle
 10
3.241532770740179
 20
8.425012999999999
 30
0.0
 40
0.031
100
AcDbArc
 50
225.0
 51
270.0
  0
LINE
  5
399
330
1E
100
AcDbEntity
  8
OBJECT
100
AcDbLine
 10
3.935647770740178
 20
8.699809
 30
0.0
 11
3.935647770740178
 21
9.08843
 31
0.0
  0
LINE
  5
39A
330
1E
100
AcDbEntity
  8
OBJECT
100
AcDbLine
 10
3.241532770740179
 20
8.394013000000001
 30
0.0
 11
3.629850770740179
 21
8.394013000000001
 31
0.0
  0
ARC
  5
39B
330
1E
100
AcDbEntity
  8
AM_VIS
100
AcDbCircle
 10
3.904647770740178
 20
8.699809
 30
0.0
 40
0.031
100
AcDbArc
 50
315.0
 51
0.0
  0
ARC
  5
39C
330
1E
100
AcDbEntity
  8
OBJECT
100
AcDbCircle
 10
3.629850770740179
 20
8.425012999999999
 30
0.0
 40
0.031
100
AcDbArc
 50
270.0
 51
315.0
  0
LINE
  5
39D
330
1E
100
AcDbEntity
  8
OBJECT
100
AcDbLine
 10
3.651771770740178
 20
8.403091999999999
 30
0.0
 11
3.926567770740178
 21
8.677889
 31
0.0
  0
LINE
  5
39E
330
1E
100
AcDbEntity
  8
OBJECT
100
AcDbLine
 10
4.539647770740178
 20
8.420013
 30
0.0
 11
3.665041770740178
 21
8.420013
 31
0.0
  0
LINE
  5
39F
330
1E
100
AcDbEntity
  8
OBJECT
100
AcDbLine
 10
3.666218770740178
 20
9.368013000000001
 30
0.0
 11
4.539647770740178
 21
9.368013000000001
 31
0.0
  0
LINE
  5
3A0
330
1E
100
AcDbEntity
  8
CENTER
100
AcDbLine
 10
3.435647770740178
 20
12.923224
 30
0.0
 11
3.435647770740178
 21
8.255514999999999
 31
0.0
  0
LWPOLYLINE
  5
3A1
330
1E
100
AcDbEntity
  8
HIDDEN
100
AcDbPolyline
 90
      139
 70
     0
 43
0.0
 10
7.076541999999999
 20
12.818898
 10
7.076506
 20
12.821448
 10
7.076397
 20
12.823999
 10
7.076214
 20
12.826551
 10
7.075957
 20
12.829101
 10
7.075625999999999
 20
12.831649
 10
7.075221
 20
12.834194
 10
7.074741
 20
12.836734
 10
7.074186
 20
12.83927
 10
7.073557
 20
12.84179799999999
 10
7.072852
 20
12.84432
 10
7.072072
 20
12.846832
 10
7.071216
 20
12.849336
 10
7.070285
 20
12.851828
 10
7.069277
 20
12.85430899999999
 10
7.068192999999999
 20
12.856777
 10
7.067032000000001
 20
12.85923099999999
 10
7.064569
 20
12.86394699999999
 10
7.061910000000001
 20
12.868469
 10
7.059066
 20
12.872801
 10
7.056047999999999
 20
12.876951
 10
7.052869
 20
12.880925
 10
7.049541
 20
12.884729
 10
7.046074
 20
12.888371
 10
7.042480999999999
 20
12.891856
 10
7.038772999999999
 20
12.89519199999999
 10
7.034963
 20
12.898384
 10
7.027078999999999
 20
12.90436499999999
 10
7.018925
 20
12.909851
 10
7.010592999999999
 20
12.91489499999999
 10
7.002511
 20
12.91934499999999
 10
6.993563
 20
12.923837
 10
6.983703999999999
 20
12.928348
 10
6.972891
 20
12.932858
 10
6.961082000000001
 20
12.93734299999999
 10
6.954791
 20
12.93957
 10
6.948233999999999
 20
12.941782
 10
6.941405999999999
 20
12.943978
 10
6.934302999999999
 20
12.946153
 10
6.926916999999999
 20
12.948306
 10
6.919245
 20
12.95043399999999
 10
6.907677
 20
12.953451
 10
6.895775
 20
12.95633699999999
 10
6.883541999999999
 20
12.95909299999999
 10
6.87098
 20
12.961719
 10
6.858090999999999
 20
12.964216
 10
6.844877999999999
 20
12.966585
 10
6.831342999999999
 20
12.96882599999999
 10
6.824455999999999
 20
12.96989799999999
 10
6.817489
 20
12.970939
 10
6.807949
 20
12.972295
 10
6.798300999999999
 20
12.973587
 10
6.788549
 20
12.974814
 10
6.778697
 20
12.975977
 10
6.768747
 20
12.977076
 10
6.758703999999998
 20
12.97810899999999
 10
6.748571
 20
12.979076
 10
6.738352
 20
12.979978
 10
6.728050999999999
 20
12.980814
 10
6.717671000000001
 20
12.981583
 10
6.707216
 20
12.982286
 10
6.696689999999999
 20
12.982922
 10
6.686094999999999
 20
12.983491
 10
6.675436999999999
 20
12.983992
 10
6.664717999999999
 20
12.984426
 10
6.653941999999999
 20
12.98479099999999
 10
6.643485
 20
12.98507899999999
 10
6.633018999999999
 20
12.985302
 10
6.622547999999999
 20
12.985459
 10
6.612074999999999
 20
12.98555099999999
 10
6.601605
 20
12.985578
 10
6.591141
 20
12.98554
 10
6.580688999999999
 20
12.98543699999999
 10
6.570250999999999
 20
12.98526999999999
 10
6.559832
 20
12.985037
 10
6.549436
 20
12.98473999999999
 10
6.539067
 20
12.984378
 10
6.528728
 20
12.983952
 10
6.518424999999999
 20
12.983462
 10
6.508161
 20
12.982907
 10
6.497939999999999
 20
12.982288
 10
6.487765
 20
12.98160399999999
 10
6.478263
 20
12.980905
 10
6.468839
 20
12.98015099999999
 10
6.459494
 20
12.979344
 10
6.450230999999999
 20
12.978484
 10
6.441050999999999
 20
12.97757
 10
6.431957999999999
 20
12.97660299999999
 10
6.422953999999999
 20
12.97558399999999
 10
6.414038999999999
 20
12.974512
 10
6.405216999999999
 20
12.973387
 10
6.39649
 20
12.972211
 10
6.387858999999999
 20
12.970982
 10
6.379328
 20
12.969702
 10
6.370897
 20
12.968371
 10
6.362569999999999
 20
12.966988
 10
6.354347999999999
 20
12.96555399999999
 10
6.346232999999999
 20
12.964069
 10
6.339443
 20
12.962772
 10
6.332753
 20
12.961442
 10
6.319666
 20
12.958686
 10
6.306969
 20
12.955796
 10
6.294659999999999
 20
12.95276799999999
 10
6.282734999999999
 20
12.9496
 10
6.271189999999999
 20
12.946286
 10
6.260023999999999
 20
12.942825
 10
6.249232
 20
12.939211
 10
6.242758999999999
 20
12.93690299999999
 10
6.236505
 20
12.93456
 10
6.224644
 20
12.929772
 10
6.213619
 20
12.924849
 10
6.203401
 20
12.91978999999999
 10
6.193960999999999
 20
12.914595
 10
6.18527
 20
12.909265
 10
6.177298999999999
 20
12.903801
 10
6.170018999999999
 20
12.898203
 10
6.164208999999999
 20
12.893212
 10
6.158375
 20
12.887608
 10
6.155494999999999
 20
12.884568
 10
6.152662999999999
 20
12.88136699999999
 10
6.149898999999999
 20
12.878002
 10
6.147219
 20
12.87447
 10
6.144643
 20
12.870768
 10
6.142189
 20
12.866894
 10
6.139874999999999
 20
12.862845
 10
6.137719
 20
12.858618
 10
6.135739
 20
12.85421099999999
 10
6.133955
 20
12.849621
 10
6.132382999999999
 20
12.844845
 10
6.131682999999999
 20
12.84238699999999
 10
6.131041999999999
 20
12.839881
 10
6.130455
 20
12.837275
 10
6.129946
 20
12.834662
 10
6.129516
 20
12.83204299999999
 10
6.129164
 20
12.82941899999999
 10
6.128891
 20
12.826792
 10
6.128694999999999
 20
12.824161
 10
6.128578
 20
12.82153
 10
6.12854
 20
12.818899
  0
LINE
  5
42E
330
1E
100
AcDbEntity
  8
OBJECT
100
AcDbLine
 10
7.102539999999999
 20
10.31767199999999
 30
0.0
 11
7.102539999999999
 21
10.447672
 31
0.0
  0
LINE
  5
42F
330
1E
100
AcDbEntity
  8
OBJECT
100
AcDbLine
 10
7.093461
 20
10.447672
 30
0.0
 11
7.093461
 21
10.31767199999999
 31
0.0
  0
LINE
  5
430
330
1E
100
AcDbEntity
  8
OBJECT
100
AcDbLine
 10
6.818664
 20
10.31767199999999
 30
0.0
 11
6.818664
 21
10.447672
 31
0.0
  0
LINE
  5
431
330
1E
100
AcDbEntity
  8
OBJECT
100
AcDbLine
 10
6.796744
 20
10.447672
 30
0.0
 11
6.796744
 21
10.31767199999999
 31
0.0
  0
LINE
  5
432
330
1E
100
AcDbEntity
  8
OBJECT
100
AcDbLine
 10
6.408123
 20
10.31767199999999
 30
0.0
 11
6.408123
 21
10.447672
 31
0.0
  0
LINE
  5
433
330
1E
100
AcDbEntity
  8
OBJECT
100
AcDbLine
 10
6.111619999999999
 20
10.31767199999999
 30
0.0
 11
6.111619999999999
 21
10.447672
 31
0.0
  0
LINE
  5
434
330
1E
100
AcDbEntity
  8
OBJECT
100
AcDbLine
 10
6.10254
 20
10.447672
 30
0.0
 11
6.10254
 21
10.31767199999999
 31
0.0
  0
LINE
  5
435
330
1E
100
AcDbEntity
  8
OBJECT
100
AcDbLine
 10
6.386203
 20
10.447672
 30
0.0
 11
6.386203
 21
10.31767199999999
 31
0.0
  0
LINE
  5
436
330
1E
100
AcDbEntity
  8
OBJECT
100
AcDbLine
 10
6.796744
 20
10.28667199999999
 30
0.0
 11
7.071539999999999
 21
10.28667199999999
 31
0.0
  0
LINE
  5
437
330
1E
100
AcDbEntity
  8
OBJECT
100
AcDbLine
 10
7.093461
 20
10.31767199999999
 30
0.0
 11
6.818664
 21
10.31767199999999
 31
0.0
  0
LINE
  5
438
330
1E
100
AcDbEntity
  8
OBJECT
100
AcDbLine
 10
6.133539999999999
 20
10.28667199999999
 30
0.0
 11
6.408123
 21
10.28667199999999
 31
0.0
  0
LINE
  5
439
330
1E
100
AcDbEntity
  8
OBJECT
100
AcDbLine
 10
6.386203
 20
10.31767199999999
 30
0.0
 11
6.111619999999999
 21
10.31767199999999
 31
0.0
  0
ARC
  5
43A
330
1E
100
AcDbEntity
  8
OBJECT
100
AcDbCircle
 10
6.133539999999999
 20
10.31767199999999
 30
0.0
 40
0.031
100
AcDbArc
 50
180.0
 51
270.0
  0
POLYLINE
  5
43B
330
1E
100
AcDbEntity
  8
OBJECT
100
AcDb3dPolyline
 66
     1
 10
0.0
 20
0.0
 30
0.0
 70
     8
  0
VERTEX
  5
43C
330
43B
100
AcDbEntity
  8
OBJECT
100
AcDbVertex
100
AcDb3dPolylineVertex
 10
6.111619999999999
 20
10.31767199999999
 30
0.0
 70
    32
1001
ACAD
1000
R13OBJECT
1002
{
1005
97
1002
}
  0
VERTEX
  5
43D
330
43B
100
AcDbEntity
  8
OBJECT
100
AcDbVertex
100
AcDb3dPolylineVertex
 10
6.112366999999999
 20
10.309649
 30
0.0
 70
    32
1001
ACAD
1000
R13OBJECT
1002
{
1005
97
1002
}
  0
VERTEX
  5
43E
330
43B
100
AcDbEntity
  8
OBJECT
100
AcDbVertex
100
AcDb3dPolylineVertex
 10
6.114556999999999
 20
10.302172
 30
0.0
 70
    32
1001
ACAD
1000
R13OBJECT
1002
{
1005
97
1002
}
  0
VERTEX
  5
43F
330
43B
100
AcDbEntity
  8
OBJECT
100
AcDbVertex
100
AcDb3dPolylineVertex
 10
6.11804
 20
10.295752
 30
0.0
 70
    32
1001
ACAD
1000
R13OBJECT
1002
{
1005
97
1002
}
  0
VERTEX
  5
440
330
43B
100
AcDbEntity
  8
OBJECT
100
AcDbVertex
100
AcDb3dPolylineVertex
 10
6.12258
 20
10.290825
 30
0.0
 70
    32
1001
ACAD
1000
R13OBJECT
1002
{
1005
97
1002
}
  0
VERTEX
  5
441
330
43B
100
AcDbEntity
  8
OBJECT
100
AcDbVertex
100
AcDb3dPolylineVertex
 10
6.127867
 20
10.287728
 30
0.0
 70
    32
1001
ACAD
1000
R13OBJECT
1002
{
1005
97
1002
}
  0
VERTEX
  5
442
330
43B
100
AcDbEntity
  8
OBJECT
100
AcDbVertex
100
AcDb3dPolylineVertex
 10
6.133539999999999
 20
10.28667199999999
 30
0.0
 70
    32
1001
ACAD
1000
R13OBJECT
1002
{
1005
97
1002
}
  0
SEQEND
  5
443
330
43B
100
AcDbEntity
  8
OBJECT
  0
LINE
  5
444
330
1E
100
AcDbEntity
  8
OBJECT
100
AcDbLine
 10
6.111619999999999
 20
10.31767199999999
 30
0.0
 11
6.10254
 21
10.31767199999999
 31
0.0
  0
LINE
  5
445
330
1E
100
AcDbEntity
  8
OBJECT
100
AcDbLine
 10
6.796744
 20
10.31767199999999
 30
0.0
 11
6.796744
 21
10.28667199999999
 31
0.0
  0
POLYLINE
  5
446
330
1E
100
AcDbEntity
  8
OBJECT
100
AcDb3dPolyline
 66
     1
 10
0.0
 20
0.0
 30
0.0
 70
     8
  0
VERTEX
  5
447
330
446
100
AcDbEntity
  8
OBJECT
100
AcDbVertex
100
AcDb3dPolylineVertex
 10
6.796744
 20
10.28667199999999
 30
0.0
 70
    32
1001
ACAD
1000
R13OBJECT
1002
{
1005
A2
1002
}
  0
VERTEX
  5
448
330
446
100
AcDbEntity
  8
OBJECT
100
AcDbVertex
100
AcDb3dPolylineVertex
 10
6.802417
 20
10.287728
 30
0.0
 70
    32
1001
ACAD
1000
R13OBJECT
1002
{
1005
A2
1002
}
  0
VERTEX
  5
449
330
446
100
AcDbEntity
  8
OBJECT
100
AcDbVertex
100
AcDb3dPolylineVertex
 10
6.807703999999999
 20
10.290825
 30
0.0
 70
    32
1001
ACAD
1000
R13OBJECT
1002
{
1005
A2
1002
}
  0
VERTEX
  5
44A
330
446
100
AcDbEntity
  8
OBJECT
100
AcDbVertex
100
AcDb3dPolylineVertex
 10
6.812244
 20
10.295752
 30
0.0
 70
    32
1001
ACAD
1000
R13OBJECT
1002
{
1005
A2
1002
}
  0
VERTEX
  5
44B
330
446
100
AcDbEntity
  8
OBJECT
100
AcDbVertex
100
AcDb3dPolylineVertex
 10
6.815728
 20
10.302172
 30
0.0
 70
    32
1001
ACAD
1000
R13OBJECT
1002
{
1005
A2
1002
}
  0
VERTEX
  5
44C
330
446
100
AcDbEntity
  8
OBJECT
100
AcDbVertex
100
AcDb3dPolylineVertex
 10
6.817916999999999
 20
10.309649
 30
0.0
 70
    32
1001
ACAD
1000
R13OBJECT
1002
{
1005
A2
1002
}
  0
VERTEX
  5
44D
330
446
100
AcDbEntity
  8
OBJECT
100
AcDbVertex
100
AcDb3dPolylineVertex
 10
6.818664
 20
10.31767199999999
 30
0.0
 70
    32
1001
ACAD
1000
R13OBJECT
1002
{
1005
A2
1002
}
  0
SEQEND
  5
44E
330
446
100
AcDbEntity
  8
OBJECT
  0
LINE
  5
44F
330
1E
100
AcDbEntity
  8
OBJECT
100
AcDbLine
 10
6.818664
 20
10.31767199999999
 30
0.0
 11
6.796744
 21
10.31767199999999
 31
0.0
  0
POLYLINE
  5
450
330
1E
100
AcDbEntity
  8
OBJECT
100
AcDb3dPolyline
 66
     1
 10
0.0
 20
0.0
 30
0.0
 70
     8
  0
VERTEX
  5
451
330
450
100
AcDbEntity
  8
OBJECT
100
AcDbVertex
100
AcDb3dPolylineVertex
 10
6.386203
 20
10.31767199999999
 30
0.0
 70
    32
1001
ACAD
1000
R13OBJECT
1002
{
1005
9A
1002
}
  0
VERTEX
  5
452
330
450
100
AcDbEntity
  8
OBJECT
100
AcDbVertex
100
AcDb3dPolylineVertex
 10
6.386949999999999
 20
10.309649
 30
0.0
 70
    32
1001
ACAD
1000
R13OBJECT
1002
{
1005
9A
1002
}
  0
VERTEX
  5
453
330
450
100
AcDbEntity
  8
OBJECT
100
AcDbVertex
100
AcDb3dPolylineVertex
 10
6.38914
 20
10.302172
 30
0.0
 70
    32
1001
ACAD
1000
R13OBJECT
1002
{
1005
9A
1002
}
  0
VERTEX
  5
454
330
450
100
AcDbEntity
  8
OBJECT
100
AcDbVertex
100
AcDb3dPolylineVertex
 10
6.392623
 20
10.295752
 30
0.0
 70
    32
1001
ACAD
1000
R13OBJECT
1002
{
1005
9A
1002
}
  0
VERTEX
  5
455
330
450
100
AcDbEntity
  8
OBJECT
100
AcDbVertex
100
AcDb3dPolylineVertex
 10
6.397162999999999
 20
10.290825
 30
0.0
 70
    32
1001
ACAD
1000
R13OBJECT
1002
{
1005
9A
1002
}
  0
VERTEX
  5
456
330
450
100
AcDbEntity
  8
OBJECT
100
AcDbVertex
100
AcDb3dPolylineVertex
 10
6.402449999999999
 20
10.287728
 30
0.0
 70
    32
1001
ACAD
1000
R13OBJECT
1002
{
1005
9A
1002
}
  0
VERTEX
  5
457
330
450
100
AcDbEntity
  8
OBJECT
100
AcDbVertex
100
AcDb3dPolylineVertex
 10
6.408123
 20
10.28667199999999
 30
0.0
 70
    32
1001
ACAD
1000
R13OBJECT
1002
{
1005
9A
1002
}
  0
SEQEND
  5
458
330
450
100
AcDbEntity
  8
OBJECT
  0
LINE
  5
459
330
1E
100
AcDbEntity
  8
OBJECT
100
AcDbLine
 10
6.408123
 20
10.31767199999999
 30
0.0
 11
6.408123
 21
10.28667199999999
 31
0.0
  0
LINE
  5
45A
330
1E
100
AcDbEntity
  8
OBJECT
100
AcDbLine
 10
6.408123
 20
10.31767199999999
 30
0.0
 11
6.386203
 21
10.31767199999999
 31
0.0
  0
LINE
  5
45B
330
1E
100
AcDbEntity
  8
OBJECT
100
AcDbLine
 10
6.408123
 20
10.28667199999999
 30
0.0
 11
6.796744
 21
10.28667199999999
 31
0.0
  0
LINE
  5
45C
330
1E
100
AcDbEntity
  8
OBJECT
100
AcDbLine
 10
6.796744
 20
10.31767199999999
 30
0.0
 11
6.408123
 21
10.31767199999999
 31
0.0
  0
ARC
  5
45D
330
1E
100
AcDbEntity
  8
OBJECT
100
AcDbCircle
 10
7.071539999999999
 20
10.31767199999999
 30
0.0
 40
0.031
100
AcDbArc
 50
270.0
 51
0.0
  0
LINE
  5
45E
330
1E
100
AcDbEntity
  8
OBJECT
100
AcDbLine
 10
7.102539999999999
 20
10.31767199999999
 30
0.0
 11
7.093461
 21
10.31767199999999
 31
0.0
  0
POLYLINE
  5
45F
330
1E
100
AcDbEntity
  8
OBJECT
100
AcDb3dPolyline
 66
     1
 10
0.0
 20
0.0
 30
0.0
 70
     8
  0
VERTEX
  5
460
330
45F
100
AcDbEntity
  8
OBJECT
100
AcDbVertex
100
AcDb3dPolylineVertex
 10
7.071539999999999
 20
10.28667199999999
 30
0.0
 70
    32
1001
ACAD
1000
R13OBJECT
1002
{
1005
A5
1002
}
  0
VERTEX
  5
461
330
45F
100
AcDbEntity
  8
OBJECT
100
AcDbVertex
100
AcDb3dPolylineVertex
 10
7.077213999999999
 20
10.287728
 30
0.0
 70
    32
1001
ACAD
1000
R13OBJECT
1002
{
1005
A5
1002
}
  0
VERTEX
  5
462
330
45F
100
AcDbEntity
  8
OBJECT
100
AcDbVertex
100
AcDb3dPolylineVertex
 10
7.082500999999999
 20
10.290825
 30
0.0
 70
    32
1001
ACAD
1000
R13OBJECT
1002
{
1005
A5
1002
}
  0
VERTEX
  5
463
330
45F
100
AcDbEntity
  8
OBJECT
100
AcDbVertex
100
AcDb3dPolylineVertex
 10
7.087039999999999
 20
10.295752
 30
0.0
 70
    32
1001
ACAD
1000
R13OBJECT
1002
{
1005
A5
1002
}
  0
VERTEX
  5
464
330
45F
100
AcDbEntity
  8
OBJECT
100
AcDbVertex
100
AcDb3dPolylineVertex
 10
7.090524
 20
10.302172
 30
0.0
 70
    32
1001
ACAD
1000
R13OBJECT
1002
{
1005
A5
1002
}
  0
VERTEX
  5
465
330
45F
100
AcDbEntity
  8
OBJECT
100
AcDbVertex
100
AcDb3dPolylineVertex
 10
7.092713999999999
 20
10.309649
 30
0.0
 70
    32
1001
ACAD
1000
R13OBJECT
1002
{
1005
A5
1002
}
  0
VERTEX
  5
466
330
45F
100
AcDbEntity
  8
OBJECT
100
AcDbVertex
100
AcDb3dPolylineVertex
 10
7.093461
 20
10.31767199999999
 30
0.0
 70
    32
1001
ACAD
1000
R13OBJECT
1002
{
1005
A5
1002
}
  0
SEQEND
  5
467
330
45F
100
AcDbEntity
  8
OBJECT
  0
LINE
  5
468
330
1E
100
AcDbEntity
  8
OBJECT
100
AcDbLine
 10
6.818664
 20
10.447672
 30
0.0
 11
7.093461
 21
10.447672
 31
0.0
  0
LINE
  5
469
330
1E
100
AcDbEntity
  8
OBJECT
100
AcDbLine
 10
7.071539999999999
 20
10.47867199999999
 30
0.0
 11
6.796744
 21
10.47867199999999
 31
0.0
  0
LINE
  5
46A
330
1E
100
AcDbEntity
  8
OBJECT
100
AcDbLine
 10
6.111619999999999
 20
10.447672
 30
0.0
 11
6.386203
 21
10.447672
 31
0.0
  0
LINE
  5
46B
330
1E
100
AcDbEntity
  8
OBJECT
100
AcDbLine
 10
6.408123
 20
10.47867199999999
 30
0.0
 11
6.133539999999999
 21
10.47867199999999
 31
0.0
  0
ARC
  5
46C
330
1E
100
AcDbEntity
  8
OBJECT
100
AcDbCircle
 10
6.133539999999999
 20
10.447672
 30
0.0
 40
0.031
100
AcDbArc
 50
90.0
 51
180.0
  0
LINE
  5
46D
330
1E
100
AcDbEntity
  8
OBJECT
100
AcDbLine
 10
6.111619999999999
 20
10.447672
 30
0.0
 11
6.10254
 21
10.447672
 31
0.0
  0
POLYLINE
  5
46E
330
1E
100
AcDbEntity
  8
OBJECT
100
AcDb3dPolyline
 66
     1
 10
0.0
 20
0.0
 30
0.0
 70
     8
  0
VERTEX
  5
46F
330
46E
100
AcDbEntity
  8
OBJECT
100
AcDbVertex
100
AcDb3dPolylineVertex
 10
6.133539999999999
 20
10.47867199999999
 30
0.0
 70
    32
1001
ACAD
1000
R13OBJECT
1002
{
1005
BA
1002
}
  0
VERTEX
  5
470
330
46E
100
AcDbEntity
  8
OBJECT
100
AcDbVertex
100
AcDb3dPolylineVertex
 10
6.127867
 20
10.477616
 30
0.0
 70
    32
1001
ACAD
1000
R13OBJECT
1002
{
1005
BA
1002
}
  0
VERTEX
  5
471
330
46E
100
AcDbEntity
  8
OBJECT
100
AcDbVertex
100
AcDb3dPolylineVertex
 10
6.12258
 20
10.474519
 30
0.0
 70
    32
1001
ACAD
1000
R13OBJECT
1002
{
1005
BA
1002
}
  0
VERTEX
  5
472
330
46E
100
AcDbEntity
  8
OBJECT
100
AcDbVertex
100
AcDb3dPolylineVertex
 10
6.11804
 20
10.469592
 30
0.0
 70
    32
1001
ACAD
1000
R13OBJECT
1002
{
1005
BA
1002
}
  0
VERTEX
  5
473
330
46E
100
AcDbEntity
  8
OBJECT
100
AcDbVertex
100
AcDb3dPolylineVertex
 10
6.114556999999999
 20
10.463172
 30
0.0
 70
    32
1001
ACAD
1000
R13OBJECT
1002
{
1005
BA
1002
}
  0
VERTEX
  5
474
330
46E
100
AcDbEntity
  8
OBJECT
100
AcDbVertex
100
AcDb3dPolylineVertex
 10
6.112366999999999
 20
10.455696
 30
0.0
 70
    32
1001
ACAD
1000
R13OBJECT
1002
{
1005
BA
1002
}
  0
VERTEX
  5
475
330
46E
100
AcDbEntity
  8
OBJECT
100
AcDbVertex
100
AcDb3dPolylineVertex
 10
6.111619999999999
 20
10.447672
 30
0.0
 70
    32
1001
ACAD
1000
R13OBJECT
1002
{
1005
BA
1002
}
  0
SEQEND
  5
476
330
46E
100
AcDbEntity
  8
OBJECT
  0
LINE
  5
477
330
1E
100
AcDbEntity
  8
OBJECT
100
AcDbLine
 10
6.796744
 20
10.47867199999999
 30
0.0
 11
6.796744
 21
10.447672
 31
0.0
  0
LINE
  5
478
330
1E
100
AcDbEntity
  8
OBJECT
100
AcDbLine
 10
6.818664
 20
10.447672
 30
0.0
 11
6.796744
 21
10.447672
 31
0.0
  0
POLYLINE
  5
479
330
1E
100
AcDbEntity
  8
OBJECT
100
AcDb3dPolyline
 66
     1
 10
0.0
 20
0.0
 30
0.0
 70
     8
  0
VERTEX
  5
47A
330
479
100
AcDbEntity
  8
OBJECT
100
AcDbVertex
100
AcDb3dPolylineVertex
 10
6.818664
 20
10.447672
 30
0.0
 70
    32
1001
ACAD
1000
R13OBJECT
1002
{
1005
AD
1002
}
  0
VERTEX
  5
47B
330
479
100
AcDbEntity
  8
OBJECT
100
AcDbVertex
100
AcDb3dPolylineVertex
 10
6.817916999999999
 20
10.455696
 30
0.0
 70
    32
1001
ACAD
1000
R13OBJECT
1002
{
1005
AD
1002
}
  0
VERTEX
  5
47C
330
479
100
AcDbEntity
  8
OBJECT
100
AcDbVertex
100
AcDb3dPolylineVertex
 10
6.815728
 20
10.463172
 30
0.0
 70
    32
1001
ACAD
1000
R13OBJECT
1002
{
1005
AD
1002
}
  0
VERTEX
  5
47D
330
479
100
AcDbEntity
  8
OBJECT
100
AcDbVertex
100
AcDb3dPolylineVertex
 10
6.812244
 20
10.469592
 30
0.0
 70
    32
1001
ACAD
1000
R13OBJECT
1002
{
1005
AD
1002
}
  0
VERTEX
  5
47E
330
479
100
AcDbEntity
  8
OBJECT
100
AcDbVertex
100
AcDb3dPolylineVertex
 10
6.807703999999999
 20
10.474519
 30
0.0
 70
    32
1001
ACAD
1000
R13OBJECT
1002
{
1005
AD
1002
}
  0
VERTEX
  5
47F
330
479
100
AcDbEntity
  8
OBJECT
100
AcDbVertex
100
AcDb3dPolylineVertex
 10
6.802417
 20
10.477616
 30
0.0
 70
    32
1001
ACAD
1000
R13OBJECT
1002
{
1005
AD
1002
}
  0
VERTEX
  5
480
330
479
100
AcDbEntity
  8
OBJECT
100
AcDbVertex
100
AcDb3dPolylineVertex
 10
6.796744
 20
10.47867199999999
 30
0.0
 70
    32
1001
ACAD
1000
R13OBJECT
1002
{
1005
AD
1002
}
  0
SEQEND
  5
481
330
479
100
AcDbEntity
  8
OBJECT
  0
LINE
  5
482
330
1E
100
AcDbEntity
  8
OBJECT
100
AcDbLine
 10
6.408123
 20
10.447672
 30
0.0
 11
6.408123
 21
10.47867199999999
 31
0.0
  0
POLYLINE
  5
483
330
1E
100
AcDbEntity
  8
OBJECT
100
AcDb3dPolyline
 66
     1
 10
0.0
 20
0.0
 30
0.0
 70
     8
  0
VERTEX
  5
484
330
483
100
AcDbEntity
  8
OBJECT
100
AcDbVertex
100
AcDb3dPolylineVertex
 10
6.408123
 20
10.47867199999999
 30
0.0
 70
    32
1001
ACAD
1000
R13OBJECT
1002
{
1005
BE
1002
}
  0
VERTEX
  5
485
330
483
100
AcDbEntity
  8
OBJECT
100
AcDbVertex
100
AcDb3dPolylineVertex
 10
6.402449999999999
 20
10.477616
 30
0.0
 70
    32
1001
ACAD
1000
R13OBJECT
1002
{
1005
BE
1002
}
  0
VERTEX
  5
486
330
483
100
AcDbEntity
  8
OBJECT
100
AcDbVertex
100
AcDb3dPolylineVertex
 10
6.397162999999999
 20
10.474519
 30
0.0
 70
    32
1001
ACAD
1000
R13OBJECT
1002
{
1005
BE
1002
}
  0
VERTEX
  5
487
330
483
100
AcDbEntity
  8
OBJECT
100
AcDbVertex
100
AcDb3dPolylineVertex
 10
6.392623
 20
10.469592
 30
0.0
 70
    32
1001
ACAD
1000
R13OBJECT
1002
{
1005
BE
1002
}
  0
VERTEX
  5
488
330
483
100
AcDbEntity
  8
OBJECT
100
AcDbVertex
100
AcDb3dPolylineVertex
 10
6.38914
 20
10.463172
 30
0.0
 70
    32
1001
ACAD
1000
R13OBJECT
1002
{
1005
BE
1002
}
  0
VERTEX
  5
489
330
483
100
AcDbEntity
  8
OBJECT
100
AcDbVertex
100
AcDb3dPolylineVertex
 10
6.386949999999999
 20
10.455696
 30
0.0
 70
    32
1001
ACAD
1000
R13OBJECT
1002
{
1005
BE
1002
}
  0
VERTEX
  5
48A
330
483
100
AcDbEntity
  8
OBJECT
100
AcDbVertex
100
AcDb3dPolylineVertex
 10
6.386203
 20
10.447672
 30
0.0
 70
    32
1001
ACAD
1000
R13OBJECT
1002
{
1005
BE
1002
}
  0
SEQEND
  5
48B
330
483
100
AcDbEntity
  8
OBJECT
  0
LINE
  5
48C
330
1E
100
AcDbEntity
  8
OBJECT
100
AcDbLine
 10
6.408123
 20
10.447672
 30
0.0
 11
6.386203
 21
10.447672
 31
0.0
  0
LINE
  5
48D
330
1E
100
AcDbEntity
  8
OBJECT
100
AcDbLine
 10
6.277044
 20
10.47867199999999
 30
0.0
 11
6.277003999999999
 21
10.47860599999999
 31
0.0
  0
LINE
  5
48E
330
1E
100
AcDbEntity
  8
OBJECT
100
AcDbLine
 10
6.408123
 20
10.447672
 30
0.0
 11
6.796744
 21
10.447672
 31
0.0
  0
LINE
  5
48F
330
1E
100
AcDbEntity
  8
OBJECT
100
AcDbLine
 10
6.796744
 20
10.47867199999999
 30
0.0
 11
6.408123
 21
10.47867199999999
 31
0.0
  0
LINE
  5
490
330
1E
100
AcDbEntity
  8
OBJECT
100
AcDbLine
 10
7.102539999999999
 20
10.447672
 30
0.0
 11
7.093461
 21
10.447672
 31
0.0
  0
POLYLINE
  5
491
330
1E
100
AcDbEntity
  8
OBJECT
100
AcDb3dPolyline
 66
     1
 10
0.0
 20
0.0
 30
0.0
 70
     8
  0
VERTEX
  5
492
330
491
100
AcDbEntity
  8
OBJECT
100
AcDbVertex
100
AcDb3dPolylineVertex
 10
7.093461
 20
10.447672
 30
0.0
 70
    32
1001
ACAD
1000
R13OBJECT
1002
{
1005
B5
1002
}
  0
VERTEX
  5
493
330
491
100
AcDbEntity
  8
OBJECT
100
AcDbVertex
100
AcDb3dPolylineVertex
 10
7.092713999999999
 20
10.455696
 30
0.0
 70
    32
1001
ACAD
1000
R13OBJECT
1002
{
1005
B5
1002
}
  0
VERTEX
  5
494
330
491
100
AcDbEntity
  8
OBJECT
100
AcDbVertex
100
AcDb3dPolylineVertex
 10
7.090524
 20
10.463172
 30
0.0
 70
    32
1001
ACAD
1000
R13OBJECT
1002
{
1005
B5
1002
}
  0
VERTEX
  5
495
330
491
100
AcDbEntity
  8
OBJECT
100
AcDbVertex
100
AcDb3dPolylineVertex
 10
7.087039999999999
 20
10.469592
 30
0.0
 70
    32
1001
ACAD
1000
R13OBJECT
1002
{
1005
B5
1002
}
  0
VERTEX
  5
496
330
491
100
AcDbEntity
  8
OBJECT
100
AcDbVertex
100
AcDb3dPolylineVertex
 10
7.082500999999999
 20
10.474519
 30
0.0
 70
    32
1001
ACAD
1000
R13OBJECT
1002
{
1005
B5
1002
}
  0
VERTEX
  5
497
330
491
100
AcDbEntity
  8
OBJECT
100
AcDbVertex
100
AcDb3dPolylineVertex
 10
7.077213999999999
 20
10.477616
 30
0.0
 70
    32
1001
ACAD
1000
R13OBJECT
1002
{
1005
B5
1002
}
  0
VERTEX
  5
498
330
491
100
AcDbEntity
  8
OBJECT
100
AcDbVertex
100
AcDb3dPolylineVertex
 10
7.071539999999999
 20
10.47867199999999
 30
0.0
 70
    32
1001
ACAD
1000
R13OBJECT
1002
{
1005
B5
1002
}
  0
SEQEND
  5
499
330
491
100
AcDbEntity
  8
OBJECT
  0
ARC
  5
49A
330
1E
100
AcDbEntity
  8
OBJECT
100
AcDbCircle
 10
7.071539999999999
 20
10.447672
 30
0.0
 40
0.031
100
AcDbArc
 50
0.0
 51
90.0
  0
LINE
  5
49B
330
1E
100
AcDbEntity
  8
OBJECT
100
AcDbLine
 10
6.928077
 20
10.47860599999999
 30
0.0
 11
6.928035999999999
 21
10.47867199999999
 31
0.0
  0
DIMENSION
  5
49D
330
1E
100
AcDbEntity
  8
DIM
100
AcDbDimension
  2
*D0
 10
2.961647770740178
 20
14.364491
 30
0.0
 11
3.987647770740178
 21
14.364491
 31
0.0
 70
    32
 71
     5
 42
2.051999999999999
  3
23NSTD
100
AcDbAlignedDimension
 13
5.013647770740178
 23
12.97422599999999
 33
0.0
 14
2.961647770740178
 24
12.97422599999999
 34
0.0
100
AcDbRotatedDimension
  0
DIMENSION
  5
4AB
330
1E
100
AcDbEntity
  8
DIM
100
AcDbDimension
  2
*D1
 10
2.423565770740178
 20
12.46922599999999
 30
0.0
 11
2.423565770740176
 21
13.234726
 31
0.0
 70
    32
 71
     5
 42
1.531000000000002
  3
23NSTD
100
AcDbAlignedDimension
 13
3.987647770740178
 23
14.000226
 33
0.0
 14
3.024147770740178
 24
12.46922599999999
 34
0.0
 50
90.0
100
AcDbRotatedDimension
  0
LINE
  5
4B9
330
1E
100
AcDbEntity
  8
CENTER
100
AcDbLine
 10
6.602539999999999
 20
14.091807
 30
0.0
 11
6.602539999999999
 21
10.086592
 31
0.0
  0
LWPOLYLINE
  5
4BA
330
1E
100
AcDbEntity
  8
OBJECT
100
AcDbPolyline
 90
       57
 70
     0
 43
0.0
 10
2.518166770740178
 20
1.650093999999999
 10
2.517322770740178
 20
1.650101999999999
 10
2.516478770740178
 20
1.650075999999999
 10
2.515634770740178
 20
1.650015999999999
 10
2.514791770740178
 20
1.649923
 10
2.513950770740178
 20
1.649795999999999
 10
2.513109770740178
 20
1.649634999999999
 10
2.512271770740178
 20
1.649438999999999
 10
2.511435770740178
 20
1.649209999999999
 10
2.510590770740178
 20
1.648943
 10
2.509749770740179
 20
1.648641
 10
2.508912770740178
 20
1.648304999999999
 10
2.508078770740178
 20
1.647933
 10
2.507249770740178
 20
1.647527
 10
2.506424770740178
 20
1.647084999999999
 10
2.505605770740178
 20
1.646608999999999
 10
2.504791770740178
 20
1.646098
 10
2.503984770740178
 20
1.645552
 10
2.503183770740178
 20
1.644970999999999
 10
2.502388770740178
 20
1.644356
 10
2.501601770740178
 20
1.643704999999999
 10
2.500822770740178
 20
1.64302
 10
2.500050770740178
 20
1.642299
 10
2.499287770740178
 20
1.641543999999999
 10
2.498533770740178
 20
1.640754
 10
2.497904770740178
 20
1.640061999999999
 10
2.497284770740178
 20
1.639345
 10
2.496671770740178
 20
1.638604
 10
2.496065770740178
 20
1.637839999999999
 10
2.495469770740178
 20
1.637051999999999
 10
2.494880770740178
 20
1.636239999999999
 10
2.494301770740178
 20
1.635404999999999
 10
2.493730770740178
 20
1.634545999999999
 10
2.493169770740178
 20
1.633664
 10
2.492618770740178
 20
1.632759
 10
2.492077770740178
 20
1.631829999999999
 10
2.491545770740178
 20
1.630879
 10
2.491025770740178
 20
1.629904999999999
 10
2.490515770740178
 20
1.628908
 10
2.490016770740178
 20
1.627888999999999
 10
2.489529770740178
 20
1.626846999999999
 10
2.489095770740178
 20
1.625878
 10
2.488672770740178
 20
1.624892999999999
 10
2.488260770740178
 20
1.623892
 10
2.487859770740178
 20
1.622873999999999
 10
2.487470770740178
 20
1.621841
 10
2.487092770740178
 20
1.620792999999999
 10
2.486725770740178
 20
1.619729
 10
2.486371770740178
 20
1.618649
 10
2.486029770740178
 20
1.617555999999999
 10
2.485699770740178
 20
1.616446999999999
 10
2.485381770740178
 20
1.615324
 10
2.485076770740178
 20
1.614187
 10
2.484784770740178
 20
1.613036
 10
2.484505770740178
 20
1.611871999999999
 10
2.484240770740179
 20
1.610694
 10
2.483988770740178
 20
1.609503
  0
LWPOLYLINE
  5
4F5
330
1E
100
AcDbEntity
  8
OBJECT
100
AcDbPolyline
 90
       65
 70
     0
 43
0.0
 10
3.957440770740178
 20
0.7953730000000001
 10
3.964934770740178
 20
0.802574
 10
3.972413770740178
 20
0.8101089999999999
 10
3.979817770740178
 20
0.8179029999999999
 10
3.987083770740178
 20
0.825881
 10
3.994149770740178
 20
0.83397
 10
4.000953770740179
 20
0.8420950000000001
 10
4.007434770740178
 20
0.8501829999999999
 10
4.013529770740178
 20
0.8581569999999999
 10
4.020594770740178
 20
0.8679479999999999
 10
4.027627770740179
 20
0.8782949999999999
 10
4.034549770740178
 20
0.8890689999999999
 10
4.041283770740178
 20
0.90014
 10
4.047751770740178
 20
0.911378
 10
4.053876770740178
 20
0.922652
 10
4.059579770740178
 20
0.933833
 10
4.064784770740178
 20
0.94479
 10
4.069704770740178
 20
0.956032
 10
4.074467770740178
 20
0.967825
 10
4.079025770740178
 20
0.980024
 10
4.083328770740179
 20
0.992482
 10
4.087327770740178
 20
1.005050999999999
 10
4.090971770740178
 20
1.017586
 10
4.094211770740177
 20
1.029938999999999
 10
4.096998770740178
 20
1.041963999999999
 10
4.099359770740178
 20
1.053803
 10
4.101459770740178
 20
1.066135
 10
4.103281770740179
 20
1.078807
 10
4.104809770740178
 20
1.091669
 10
4.106025770740179
 20
1.104569
 10
4.106915770740178
 20
1.117354
 10
4.107461770740178
 20
1.129874
 10
4.107647770740178
 20
1.141976
 10
4.107461770740178
 20
1.154079
 10
4.106915770740178
 20
1.166598999999999
 10
4.106026770740178
 20
1.179383999999999
 10
4.104809770740178
 20
1.192284
 10
4.103281770740179
 20
1.205145999999999
 10
4.101459770740178
 20
1.217818999999999
 10
4.099359770740178
 20
1.230150999999999
 10
4.096998770740178
 20
1.241989999999999
 10
4.094211770740177
 20
1.254014999999999
 10
4.090971770740178
 20
1.266369
 10
4.087326770740178
 20
1.278904
 10
4.083328770740179
 20
1.291472999999999
 10
4.079025770740178
 20
1.303930999999999
 10
4.074467770740178
 20
1.31613
 10
4.069703770740178
 20
1.327923999999999
 10
4.064783770740178
 20
1.339166
 10
4.059578770740178
 20
1.350122999999999
 10
4.053875770740178
 20
1.361304
 10
4.047750770740178
 20
1.372578
 10
4.041282770740179
 20
1.383815999999999
 10
4.034548770740178
 20
1.394886999999999
 10
4.027626770740178
 20
1.405661
 10
4.020593770740178
 20
1.416007999999999
 10
4.013528770740179
 20
1.425799
 10
4.007432770740178
 20
1.433773999999999
 10
4.000952770740179
 20
1.44186
 10
3.994148770740178
 20
1.449985
 10
3.987082770740179
 20
1.458073999999999
 10
3.979817770740178
 20
1.466053
 10
3.972413770740178
 20
1.473845999999999
 10
3.964933770740178
 20
1.481381
 10
3.957440770740178
 20
1.488582
  0
LWPOLYLINE
  5
538
330
1E
100
AcDbEntity
  8
OBJECT
100
AcDbPolyline
 90
       49
 70
     0
 43
0.0
 10
2.483988770740178
 20
0.674451
 10
2.484304770740178
 20
0.672969
 10
2.484642770740178
 20
0.671505
 10
2.485000770740178
 20
0.6700619999999999
 10
2.485379770740178
 20
0.6686380000000001
 10
2.485778770740178
 20
0.6672340000000001
 10
2.486198770740178
 20
0.6658520000000001
 10
2.486636770740178
 20
0.664492
 10
2.487094770740178
 20
0.6631540000000001
 10
2.487560770740178
 20
0.661871
 10
2.488041770740178
 20
0.6606130000000001
 10
2.488538770740178
 20
0.659382
 10
2.489051770740178
 20
0.6581770000000001
 10
2.489579770740178
 20
0.656999
 10
2.490121770740178
 20
0.6558470000000001
 10
2.490678770740178
 20
0.6547220000000001
 10
2.491249770740178
 20
0.653625
 10
2.491833770740178
 20
0.652555
 10
2.492431770740178
 20
0.651513
 10
2.493041770740178
 20
0.6504979999999999
 10
2.493664770740178
 20
0.649512
 10
2.494298770740178
 20
0.648554
 10
2.494945770740178
 20
0.647624
 10
2.495602770740178
 20
0.646724
 10
2.496270770740178
 20
0.6458520000000001
 10
2.497061770740178
 20
0.644875
 10
2.497864770740178
 20
0.643938
 10
2.498679770740178
 20
0.6430439999999999
 10
2.499504770740178
 20
0.6421899999999999
 10
2.500341770740178
 20
0.641378
 10
2.501187770740178
 20
0.640608
 10
2.502043770740178
 20
0.639879
 10
2.502908770740178
 20
0.639191
 10
2.503782770740178
 20
0.6385450000000001
 10
2.504663770740178
 20
0.63794
 10
2.505552770740178
 20
0.6373770000000001
 10
2.506448770740178
 20
0.6368560000000001
 10
2.507350770740178
 20
0.6363760000000001
 10
2.508257770740178
 20
0.635938
 10
2.509170770740178
 20
0.6355420000000001
 10
2.510088770740178
 20
0.635187
 10
2.511088770740178
 20
0.6348500000000001
 10
2.512093770740178
 20
0.6345609999999999
 10
2.513100770740178
 20
0.6343220000000001
 10
2.514110770740178
 20
0.634132
 10
2.515123770740178
 20
0.633991
 10
2.516137770740178
 20
0.633898
 10
2.517151770740178
 20
0.6338550000000001
 10
2.518166770740178
 20
0.633861
  0
LWPOLYLINE
  5
56B
330
1E
100
AcDbEntity
  8
OBJECT
100
AcDbPolyline
 90
       25
 70
     0
 43
0.0
 10
2.483988770740178
 20
0.674451
 10
2.476615770740178
 20
0.712115
 10
2.469865770740178
 20
0.750115
 10
2.463741770740178
 20
0.7884210000000001
 10
2.458249770740178
 20
0.8270049999999999
 10
2.453392770740178
 20
0.865835
 10
2.449176770740178
 20
0.9048809999999999
 10
2.445603770740178
 20
0.9441129999999999
 10
2.442675770740178
 20
0.9835
 10
2.440396770740178
 20
1.023009999999999
 10
2.438767770740178
 20
1.062613999999999
 10
2.437788770740178
 20
1.102279999999999
 10
2.437462770740178
 20
1.141977
 10
2.437788770740178
 20
1.181673999999999
 10
2.438767770740178
 20
1.221339999999999
 10
2.440396770740178
 20
1.260944
 10
2.442675770740178
 20
1.300454999999999
 10
2.445603770740178
 20
1.339841999999999
 10
2.449176770740178
 20
1.379072999999999
 10
2.453392770740178
 20
1.41812
 10
2.458249770740178
 20
1.456949999999999
 10
2.463741770740178
 20
1.495533
 10
2.469865770740178
 20
1.533839999999999
 10
2.476615770740178
 20
1.571839999999999
 10
2.483988770740178
 20
1.609503
  0
LINE
  5
586
330
1E
100
AcDbEntity
  8
OBJECT
100
AcDbLine
 10
2.740447770740178
 20
0.6404250000000001
 30
0.0
 11
2.740447770740178
 21
1.64353
 31
0.0
  0
CIRCLE
  5
587
330
1E
100
AcDbEntity
  8
HIDDEN
100
AcDbCircle
 10
3.435647770740178
 20
1.141976999999999
 30
0.0
 40
0.469
  0
ARC
  5
588
330
1E
100
AcDbEntity
  8
OBJECT
100
AcDbCircle
 10
3.241443770740178
 20
0.672977
 30
0.0
 40
0.031
100
AcDbArc
 50
225.0
 51
270.0
  0
LINE
  5
589
330
1E
100
AcDbEntity
  8
OBJECT
100
AcDbLine
 10
3.241443770740178
 20
0.6419769999999998
 30
0.0
 11
3.629762770740178
 21
0.6419769999999998
 31
0.0
  0
ARC
  5
58A
330
1E
100
AcDbEntity
  8
OBJECT
100
AcDbCircle
 10
3.629762770740178
 20
0.672977
 30
0.0
 40
0.031
100
AcDbArc
 50
270.0
 51
315.0
  0
LINE
  5
58B
330
1E
100
AcDbEntity
  8
OBJECT
100
AcDbLine
 10
3.669472770740178
 20
0.668847
 30
0.0
 11
3.926567770740178
 21
0.925942
 31
0.0
  0
LINE
  5
58C
330
1E
100
AcDbEntity
  8
OBJECT
100
AcDbLine
 10
3.651682770740178
 20
0.6510569999999998
 30
0.0
 11
3.669472770740178
 21
0.668847
 31
0.0
  0
ARC
  5
58D
330
1E
100
AcDbEntity
  8
OBJECT
100
AcDbCircle
 10
3.904647770740178
 20
0.9478620000000002
 30
0.0
 40
0.031
100
AcDbArc
 50
315.0
 51
0.0
  0
LINE
  5
58E
330
1E
100
AcDbEntity
  8
OBJECT
100
AcDbLine
 10
3.935647770740178
 20
0.9478620000000002
 30
0.0
 11
3.935647770740178
 21
1.336305999999999
 31
0.0
  0
ARC
  5
58F
330
1E
100
AcDbEntity
  8
OBJECT
100
AcDbCircle
 10
3.904647770740178
 20
1.336305999999999
 30
0.0
 40
0.031
100
AcDbArc
 50
0.0
 51
45.0
  0
LINE
  5
590
330
1E
100
AcDbEntity
  8
OBJECT
100
AcDbLine
 10
3.668852770740178
 20
1.615941999999999
 30
0.0
 11
3.651896770740179
 21
1.632897999999999
 31
0.0
  0
LINE
  5
591
330
1E
100
AcDbEntity
  8
OBJECT
100
AcDbLine
 10
3.926567770740178
 20
1.358226
 30
0.0
 11
3.668852770740178
 21
1.615941999999999
 31
0.0
  0
ARC
  5
592
330
1E
100
AcDbEntity
  8
OBJECT
100
AcDbCircle
 10
2.966647770740178
 20
0.9477739999999998
 30
0.0
 40
0.031
100
AcDbArc
 50
180.0
 51
225.0
  0
LINE
  5
593
330
1E
100
AcDbEntity
  8
OBJECT
100
AcDbLine
 10
2.935647770740178
 20
1.336394
 30
0.0
 11
2.935647770740178
 21
0.9477739999999998
 31
0.0
  0
LINE
  5
594
330
1E
100
AcDbEntity
  8
OBJECT
100
AcDbLine
 10
3.215712770740178
 20
0.654868
 30
0.0
 11
3.219523770740178
 21
0.6510569999999998
 31
0.0
  0
LINE
  5
595
330
1E
100
AcDbEntity
  8
OBJECT
100
AcDbLine
 10
2.944726770740178
 20
0.925853
 30
0.0
 11
3.215712770740178
 21
0.654868
 31
0.0
  0
ARC
  5
596
330
1E
100
AcDbEntity
  8
OBJECT
100
AcDbCircle
 10
3.629976770740178
 20
1.610977
 30
0.0
 40
0.031
100
AcDbArc
 50
45.0
 51
90.0
  0
LINE
  5
597
330
1E
100
AcDbEntity
  8
OBJECT
100
AcDbLine
 10
3.629976770740178
 20
1.641976999999999
 30
0.0
 11
3.241230770740178
 21
1.641976999999999
 31
0.0
  0
ARC
  5
598
330
1E
100
AcDbEntity
  8
OBJECT
100
AcDbCircle
 10
3.241230770740178
 20
1.610977
 30
0.0
 40
0.031
100
AcDbArc
 50
90.0
 51
135.0
  0
LINE
  5
599
330
1E
100
AcDbEntity
  8
OBJECT
100
AcDbLine
 10
3.216266770740178
 20
1.629853999999999
 30
0.0
 11
2.944726770740178
 21
1.358315
 31
0.0
  0
LINE
  5
59A
330
1E
100
AcDbEntity
  8
OBJECT
100
AcDbLine
 10
3.219309770740178
 20
1.632897999999999
 30
0.0
 11
3.216266770740178
 21
1.629853999999999
 31
0.0
  0
ARC
  5
59B
330
1E
100
AcDbEntity
  8
OBJECT
100
AcDbCircle
 10
2.966647770740178
 20
1.336394
 30
0.0
 40
0.031
100
AcDbArc
 50
135.0
 51
180.0
  0
CIRCLE
  5
59C
330
1E
100
AcDbEntity
  8
OBJECT
100
AcDbCircle
 10
3.435647770740178
 20
1.141976999999999
 30
0.0
 40
0.341
  0
LWPOLYLINE
  5
59D
330
1E
100
AcDbEntity
  8
OBJECT
100
AcDbPolyline
 90
       17
 70
     0
 43
0.0
 10
4.028920770740178
 20
1.403879
 10
4.035173770740178
 20
1.394162999999999
 10
4.041185770740178
 20
1.384303
 10
4.046954770740178
 20
1.374303
 10
4.052477770740178
 20
1.364168
 10
4.057752770740179
 20
1.353901999999999
 10
4.062776770740178
 20
1.343509999999999
 10
4.067548770740178
 20
1.332995
 10
4.072065770740178
 20
1.322362999999999
 10
4.076324770740178
 20
1.311617
 10
4.080323770740178
 20
1.300762999999999
 10
4.084060770740179
 20
1.289804999999999
 10
4.087532770740178
 20
1.278746999999999
 10
4.090737770740178
 20
1.267594
 10
4.093672770740178
 20
1.256348999999999
 10
4.096336770740178
 20
1.245019
 10
4.098725770740179
 20
1.233605999999999
  0
LWPOLYLINE
  5
5B0
330
1E
100
AcDbEntity
  8
OBJECT
100
AcDbPolyline
 90
       17
 70
     0
 43
0.0
 10
4.098725770740179
 20
1.233605999999999
 10
4.100764770740179
 20
1.222545999999999
 10
4.102540770740178
 20
1.211454
 10
4.104051770740178
 20
1.200336
 10
4.105299770740178
 20
1.189194999999999
 10
4.106282770740178
 20
1.178034999999999
 10
4.107001770740178
 20
1.166862
 10
4.107457770740179
 20
1.155677999999999
 10
4.107648770740178
 20
1.144488999999999
 10
4.107575770740178
 20
1.133297999999999
 10
4.107238770740178
 20
1.122109999999999
 10
4.106637770740178
 20
1.110929
 10
4.105771770740179
 20
1.099758999999999
 10
4.104642770740178
 20
1.088604
 10
4.103248770740179
 20
1.077469
 10
4.101589770740178
 20
1.066356999999999
 10
4.099667770740178
 20
1.055272999999999
  0
LWPOLYLINE
  5
5C3
330
1E
100
AcDbEntity
  8
OBJECT
100
AcDbPolyline
 90
       17
 70
     0
 43
0.0
 10
4.099667770740178
 20
1.055272999999999
 10
4.097503770740178
 20
1.044337
 10
4.095088770740178
 20
1.033471999999999
 10
4.092424770740178
 20
1.022683
 10
4.089512770740178
 20
1.011973999999999
 10
4.086354770740178
 20
1.001346999999999
 10
4.082952770740178
 20
0.9908079999999999
 10
4.079309770740178
 20
0.980361
 10
4.075426770740178
 20
0.9700079999999999
 10
4.071306770740179
 20
0.9597549999999998
 10
4.066950770740178
 20
0.949604
 10
4.062361770740178
 20
0.9395610000000001
 10
4.057539770740178
 20
0.9296280000000001
 10
4.052489770740178
 20
0.91981
 10
4.047211770740178
 20
0.91011
 10
4.041707770740178
 20
0.900534
 10
4.035979770740178
 20
0.8910829999999998
  0
LWPOLYLINE
  5
5D6
330
1E
100
AcDbEntity
  8
OBJECT
100
AcDbPolyline
 90
       17
 70
     0
 43
0.0
 10
3.957440770740178
 20
0.7953730000000001
 10
3.950668770740178
 20
0.7891500000000001
 10
3.943779770740178
 20
0.7830600000000001
 10
3.936775770740179
 20
0.7771060000000001
 10
3.929658770740178
 20
0.77129
 10
3.922430770740178
 20
0.765612
 10
3.915092770740178
 20
0.760075
 10
3.907647770740178
 20
0.754679
 10
3.900097770740178
 20
0.749428
 10
3.892445770740178
 20
0.7443210000000001
 10
3.884691770740178
 20
0.739362
 10
3.876838770740178
 20
0.7345510000000001
 10
3.868888770740178
 20
0.729891
 10
3.860843770740178
 20
0.725382
 10
3.852705770740178
 20
0.7210260000000001
 10
3.844476770740178
 20
0.7168260000000001
 10
3.836158770740178
 20
0.712783
  0
LINE
  5
5E9
330
1E
100
AcDbEntity
  8
CENTER
100
AcDbLine
 10
3.435647770740178
 20
5.604331
 30
0.0
 11
3.435647770740178
 21
0.4495100000000001
 31
0.0
  0
LINE
  5
5EA
330
1E
100
AcDbEntity
  8
OBJECT
100
AcDbLine
 10
3.435647770740178
 20
3.696470999999999
 30
0.0
 11
3.435647770740178
 21
3.696410999999999
 31
0.0
  0
LWPOLYLINE
  5
5EB
330
1E
100
AcDbEntity
  8
OBJECT
100
AcDbPolyline
 90
        3
 70
     0
 43
0.0
 10
3.924803770740179
 20
5.942243
 10
3.923580770740178
 20
5.942622
 10
3.922349770740178
 20
5.942948
  0
LWPOLYLINE
  5
5F0
330
1E
100
AcDbEntity
  8
OBJECT
100
AcDbPolyline
 90
       33
 70
     0
 43
0.0
 10
4.067722770740178
 20
5.897845999999999
 10
4.067552770740178
 20
5.897910999999999
 10
4.067051770740178
 20
5.898101999999999
 10
4.066236770740178
 20
5.898412999999999
 10
4.065120770740178
 20
5.898836
 10
4.063720770740178
 20
5.899364
 10
4.062050770740179
 20
5.899992
 10
4.060125770740179
 20
5.900712
 10
4.057961770740178
 20
5.901517
 10
4.055406770740178
 20
5.902460999999999
 10
4.052436770740178
 20
5.90355
 10
4.049095770740178
 20
5.904764
 10
4.045430770740178
 20
5.906083999999999
 10
4.041486770740178
 20
5.907491
 10
4.037308770740178
 20
5.908965
 10
4.032942770740178
 20
5.910489
 10
4.028432770740178
 20
5.912041
 10
4.023661770740178
 20
5.913657999999999
 10
4.018433770740178
 20
5.915401999999999
 10
4.012819770740178
 20
5.917244999999999
 10
4.006890770740178
 20
5.919163
 10
4.000718770740178
 20
5.921126999999999
 10
3.994373770740178
 20
5.923111
 10
3.987926770740178
 20
5.925088999999999
 10
3.981450770740178
 20
5.927033999999999
 10
3.975039770740179
 20
5.928912
 10
3.968171770740179
 20
5.930876999999999
 10
3.960936770740178
 20
5.932901
 10
3.953423770740178
 20
5.934956999999999
 10
3.945718770740178
 20
5.937018
 10
3.937912770740178
 20
5.939054
 10
3.930093770740178
 20
5.94104
 10
3.922349770740178
 20
5.942948
  0
LWPOLYLINE
  5
613
330
1E
100
AcDbEntity
  8
OBJECT
100
AcDbPolyline
 90
        2
 70
     0
 43
0.0
 10
3.922237770740178
 20
5.942974999999999
 10
3.922349770740178
 20
5.942948
  0
LWPOLYLINE
  5
617
330
1E
100
AcDbEntity
  8
OBJECT
100
AcDbPolyline
 90
       49
 70
     0
 43
0.0
 10
2.483988770740178
 20
5.897554
 10
2.484304770740178
 20
5.897016
 10
2.484642770740178
 20
5.896441
 10
2.485000770740178
 20
5.89583
 10
2.485379770740178
 20
5.895184999999999
 10
2.485778770740178
 20
5.894505
 10
2.486198770740178
 20
5.893791
 10
2.486636770740178
 20
5.893044
 10
2.487094770740178
 20
5.892262999999999
 10
2.487560770740178
 20
5.891472
 10
2.488041770740178
 20
5.890651999999999
 10
2.488538770740178
 20
5.889804999999999
 10
2.489051770740178
 20
5.888931999999999
 10
2.489579770740178
 20
5.888033
 10
2.490121770740178
 20
5.887108999999999
 10
2.490678770740178
 20
5.886161
 10
2.491249770740178
 20
5.885188999999999
 10
2.491833770740178
 20
5.884193999999999
 10
2.492431770740178
 20
5.883176
 10
2.493041770740178
 20
5.882137
 10
2.493664770740178
 20
5.881076
 10
2.494298770740178
 20
5.879996
 10
2.494945770740178
 20
5.878894999999999
 10
2.495602770740178
 20
5.877774999999999
 10
2.496270770740178
 20
5.876637
 10
2.497061770740178
 20
5.875291
 10
2.497864770740178
 20
5.873923
 10
2.498679770740178
 20
5.872536
 10
2.499504770740178
 20
5.871129999999999
 10
2.500341770740178
 20
5.869705
 10
2.501187770740178
 20
5.868263999999999
 10
2.502043770740178
 20
5.866805999999999
 10
2.502908770740178
 20
5.865333
 10
2.503782770740178
 20
5.863844999999999
 10
2.504663770740178
 20
5.862344
 10
2.505552770740178
 20
5.860831
 10
2.506448770740178
 20
5.859306
 10
2.507350770740178
 20
5.857769999999999
 10
2.508257770740178
 20
5.856224
 10
2.509170770740178
 20
5.854669
 10
2.510088770740178
 20
5.853105999999999
 10
2.511088770740178
 20
5.851402999999999
 10
2.512093770740178
 20
5.849692
 10
2.513100770740178
 20
5.847976999999999
 10
2.514110770740178
 20
5.846255999999999
 10
2.515123770740178
 20
5.844532
 10
2.516137770740178
 20
5.842805999999999
 10
2.517151770740178
 20
5.841077999999999
 10
2.518166770740178
 20
5.839348999999999
  0
LINE
  5
64A
330
1E
100
AcDbEntity
  8
OBJECT
100
AcDbLine
 10
3.646667770740178
 20
5.460812
 30
0.0
 11
4.107647770740178
 21
5.460812
 31
0.0
  0
LINE
  5
64B
330
1E
100
AcDbEntity
  8
OBJECT
100
AcDbLine
 10
2.518166770740178
 20
5.839348999999999
 30
0.0
 11
2.740447770740178
 21
5.460812
 31
0.0
  0
LINE
  5
64C
330
1E
100
AcDbEntity
  8
OBJECT
100
AcDbLine
 10
2.740447770740178
 20
5.460812
 30
0.0
 11
3.646667770740178
 21
5.460812
 31
0.0
  0
LWPOLYLINE
  5
64D
330
1E
100
AcDbEntity
  8
OBJECT
100
AcDbPolyline
 90
       13
 70
     0
 43
0.0
 10
2.483988770740178
 20
5.897554
 10
2.476615770740178
 20
5.910108999999999
 10
2.469865770740178
 20
5.921605
 10
2.463741770740178
 20
5.932033999999999
 10
2.458249770740178
 20
5.941387
 10
2.453392770740178
 20
5.949657
 10
2.449176770740178
 20
5.956837999999999
 10
2.445603770740178
 20
5.962922999999999
 10
2.442675770740178
 20
5.967908
 10
2.440396770740178
 20
5.97179
 10
2.438767770740178
 20
5.974563999999999
 10
2.437788770740178
 20
5.97623
 10
2.437462770740178
 20
5.976785999999999
  0
LWPOLYLINE
  5
65C
330
1E
100
AcDbEntity
  8
OBJECT
100
AcDbPolyline
 90
       47
 70
     0
 43
0.0
 10
3.646667770740178
 20
5.976785999999999
 10
3.646670770740178
 20
5.976785999999999
 10
3.646679770740178
 20
5.976784999999999
 10
3.646694770740178
 20
5.976784999999999
 10
3.646715770740178
 20
5.976784999999999
 10
3.646741770740178
 20
5.976784999999999
 10
3.646772770740178
 20
5.976784999999999
 10
3.646808770740178
 20
5.976784999999999
 10
3.646849770740178
 20
5.976783999999999
 10
3.646895770740178
 20
5.976783999999999
 10
3.646945770740178
 20
5.976783999999999
 10
3.646999770740178
 20
5.976783
 10
3.647057770740179
 20
5.976783
 10
3.647119770740178
 20
5.976782
 10
3.647184770740178
 20
5.976782
 10
3.647253770740178
 20
5.976780999999999
 10
3.647325770740179
 20
5.976780999999999
 10
3.647478770740178
 20
5.97678
 10
3.647640770740178
 20
5.976779
 10
3.647812770740178
 20
5.976776999999999
 10
3.647990770740178
 20
5.976776
 10
3.648738770740178
 20
5.97677
 10
3.649119770740178
 20
5.976766999999999
 10
3.649509770740178
 20
5.976763
 10
3.650311770740178
 20
5.976755999999999
 10
3.651136770740178
 20
5.976748
 10
3.651978770740178
 20
5.976739
 10
3.653691770740178
 20
5.976719
 10
3.655433770740178
 20
5.976695999999999
 10
3.658998770740178
 20
5.976641
 10
3.673966770740178
 20
5.976294999999999
 10
3.681799770740178
 20
5.97604
 10
3.689865770740178
 20
5.975723999999999
 10
3.706471770740178
 20
5.974904
 10
3.714994770740178
 20
5.974391999999999
 10
3.723732770740178
 20
5.973803
 10
3.741754770740178
 20
5.972387999999999
 10
3.760327770740178
 20
5.970651999999999
 10
3.779240770740178
 20
5.968587
 10
3.795922770740178
 20
5.966504
 10
3.813057770740178
 20
5.964112
 10
3.830587770740178
 20
5.961407
 10
3.848459770740178
 20
5.958382
 10
3.866615770740178
 20
5.955032
 10
3.885000770740179
 20
5.951350999999999
 10
3.903560770740178
 20
5.947333999999999
 10
3.922237770740178
 20
5.942974999999999
  0
LINE
  5
68D
330
1E
100
AcDbEntity
  8
OBJECT
100
AcDbLine
 10
3.768147770740178
 20
5.318033999999999
 30
0.0
 11
3.103147770740178
 21
5.318033999999999
 31
0.0
  0
LINE
  5
68E
330
1E
100
AcDbEntity
  8
OBJECT
100
AcDbLine
 10
3.751147770740178
 20
5.290255999999999
 30
0.0
 11
3.120147770740178
 21
5.290255999999999
 31
0.0
  0
LINE
  5
68F
330
1E
100
AcDbEntity
  8
OBJECT
100
AcDbLine
 10
3.768147770740178
 20
5.262478999999999
 30
0.0
 11
3.103147770740178
 21
5.262478999999999
 31
0.0
  0
LINE
  5
690
330
1E
100
AcDbEntity
  8
OBJECT
100
AcDbLine
 10
3.751147770740178
 20
5.234701
 30
0.0
 11
3.120147770740178
 21
5.234701
 31
0.0
  0
LINE
  5
691
330
1E
100
AcDbEntity
  8
OBJECT
100
AcDbLine
 10
3.768147770740178
 20
5.206923
 30
0.0
 11
3.103147770740178
 21
5.206923
 31
0.0
  0
LINE
  5
692
330
1E
100
AcDbEntity
  8
OBJECT
100
AcDbLine
 10
3.751147770740178
 20
5.179145
 30
0.0
 11
3.120147770740178
 21
5.179145
 31
0.0
  0
LINE
  5
693
330
1E
100
AcDbEntity
  8
OBJECT
100
AcDbLine
 10
3.768147770740178
 20
5.151366999999999
 30
0.0
 11
3.103147770740178
 21
5.151366999999999
 31
0.0
  0
LINE
  5
694
330
1E
100
AcDbEntity
  8
OBJECT
100
AcDbLine
 10
3.751147770740178
 20
5.12359
 30
0.0
 11
3.120147770740178
 21
5.12359
 31
0.0
  0
LINE
  5
695
330
1E
100
AcDbEntity
  8
OBJECT
100
AcDbLine
 10
3.768147770740178
 20
5.095812
 30
0.0
 11
3.103147770740178
 21
5.095812
 31
0.0
  0
LINE
  5
696
330
1E
100
AcDbEntity
  8
OBJECT
100
AcDbLine
 10
3.751147770740178
 20
5.068033999999999
 30
0.0
 11
3.120147770740178
 21
5.068033999999999
 31
0.0
  0
LINE
  5
697
330
1E
100
AcDbEntity
  8
OBJECT
100
AcDbLine
 10
3.768147770740178
 20
5.040256999999999
 30
0.0
 11
3.103147770740178
 21
5.040256999999999
 31
0.0
  0
LINE
  5
698
330
1E
100
AcDbEntity
  8
OBJECT
100
AcDbLine
 10
3.751147770740178
 20
5.012478999999999
 30
0.0
 11
3.120147770740178
 21
5.012478999999999
 31
0.0
  0
LINE
  5
699
330
1E
100
AcDbEntity
  8
OBJECT
100
AcDbLine
 10
3.768147770740178
 20
4.984701
 30
0.0
 11
3.103147770740178
 21
4.984701
 31
0.0
  0
LINE
  5
69A
330
1E
100
AcDbEntity
  8
OBJECT
100
AcDbLine
 10
3.751147770740178
 20
4.956923
 30
0.0
 11
3.120147770740178
 21
4.956923
 31
0.0
  0
LINE
  5
69B
330
1E
100
AcDbEntity
  8
OBJECT
100
AcDbLine
 10
3.768147770740178
 20
4.929145
 30
0.0
 11
3.103147770740178
 21
4.929145
 31
0.0
  0
LINE
  5
69C
330
1E
100
AcDbEntity
  8
OBJECT
100
AcDbLine
 10
3.751147770740178
 20
4.901367999999999
 30
0.0
 11
3.120147770740178
 21
4.901367999999999
 31
0.0
  0
LINE
  5
69D
330
1E
100
AcDbEntity
  8
OBJECT
100
AcDbLine
 10
3.768147770740178
 20
4.87359
 30
0.0
 11
3.103147770740178
 21
4.87359
 31
0.0
  0
LINE
  5
69E
330
1E
100
AcDbEntity
  8
OBJECT
100
AcDbLine
 10
3.751147770740178
 20
4.845812
 30
0.0
 11
3.120147770740178
 21
4.845812
 31
0.0
  0
LINE
  5
69F
330
1E
100
AcDbEntity
  8
OBJECT
100
AcDbLine
 10
2.966647770740178
 20
5.345812
 30
0.0
 11
3.435647770740178
 21
5.345812
 31
0.0
  0
LINE
  5
6A0
330
1E
100
AcDbEntity
  8
OBJECT
100
AcDbLine
 10
3.435647770740178
 20
5.345812
 30
0.0
 11
3.904647770740178
 21
5.345812
 31
0.0
  0
LINE
  5
6A1
330
1E
100
AcDbEntity
  8
OBJECT
100
AcDbLine
 10
3.875647770740178
 20
3.756470999999999
 30
0.0
 11
3.435647770740178
 21
3.756470999999999
 31
0.0
  0
LINE
  5
6A2
330
1E
100
AcDbEntity
  8
OBJECT
100
AcDbLine
 10
3.435647770740178
 20
3.756470999999999
 30
0.0
 11
2.995647770740178
 21
3.756470999999999
 31
0.0
  0
LINE
  5
6A3
330
1E
100
AcDbEntity
  8
OBJECT
100
AcDbLine
 10
2.995647770740178
 20
3.696470999999999
 30
0.0
 11
3.435647770740178
 21
3.696470999999999
 31
0.0
  0
LINE
  5
6A4
330
1E
100
AcDbEntity
  8
OBJECT
100
AcDbLine
 10
3.435647770740178
 20
3.696470999999999
 30
0.0
 11
3.875647770740178
 21
3.696470999999999
 31
0.0
  0
LWPOLYLINE
  5
6A5
330
1E
100
AcDbEntity
  8
OBJECT
100
AcDbPolyline
 90
       21
 70
     0
 43
0.0
 10
3.922349770740178
 20
5.942944999999999
 10
3.928543770740178
 20
5.941425999999999
 10
3.934631770740178
 20
5.939899999999999
 10
3.940610770740178
 20
5.938367999999999
 10
3.946479770740178
 20
5.936833
 10
3.952235770740179
 20
5.935297
 10
3.957878770740179
 20
5.933762
 10
3.963404770740178
 20
5.93223
 10
3.968812770740178
 20
5.930704
 10
3.974100770740179
 20
5.929184999999999
 10
3.979266770740178
 20
5.927675999999999
 10
3.984308770740178
 20
5.926179
 10
3.989225770740178
 20
5.924695999999999
 10
3.994015770740178
 20
5.92323
 10
3.998675770740178
 20
5.921782
 10
4.003203770740179
 20
5.920355
 10
4.007599770740179
 20
5.918950999999999
 10
4.013972770740178
 20
5.916882
 10
4.020019770740178
 20
5.914883999999999
 10
4.025734770740178
 20
5.912962
 10
4.031111770740178
 20
5.911125
  0
LWPOLYLINE
  5
6BC
330
1E
100
AcDbEntity
  8
OBJECT
100
AcDbPolyline
 90
       25
 70
     0
 43
0.0
 10
4.031111770740178
 20
5.911125
 10
4.034207770740178
 20
5.910053999999999
 10
4.037176770740178
 20
5.909017999999999
 10
4.040015770740178
 20
5.908018
 10
4.042725770740179
 20
5.907057
 10
4.045303770740178
 20
5.906136
 10
4.047748770740178
 20
5.905255999999999
 10
4.050059770740178
 20
5.904417999999999
 10
4.052235770740178
 20
5.903624999999999
 10
4.054086770740178
 20
5.902948
 10
4.055823770740178
 20
5.902308999999999
 10
4.057444770740178
 20
5.901710999999999
 10
4.058948770740178
 20
5.901154
 10
4.060337770740178
 20
5.900637
 10
4.061608770740178
 20
5.900163
 10
4.062760770740179
 20
5.899729999999999
 10
4.063795770740179
 20
5.899341
 10
4.064710770740179
 20
5.898996
 10
4.065505770740178
 20
5.898693999999999
 10
4.066180770740178
 20
5.898437
 10
4.066733770740178
 20
5.898226
 10
4.067165770740178
 20
5.898061
 10
4.067474770740179
 20
5.897941999999999
 10
4.067660770740179
 20
5.897869999999999
 10
4.067722770740178
 20
5.897845999999999
  0
LWPOLYLINE
  5
6D7
330
1E
100
AcDbEntity
  8
OBJECT
100
AcDbPolyline
 90
       21
 70
     0
 43
0.0
 10
3.922349770740178
 20
5.942944999999999
 10
3.928543770740178
 20
5.941425999999999
 10
3.934631770740178
 20
5.939899999999999
 10
3.940610770740178
 20
5.938367999999999
 10
3.946479770740178
 20
5.936833
 10
3.952235770740179
 20
5.935297
 10
3.957878770740179
 20
5.933762
 10
3.963404770740178
 20
5.93223
 10
3.968812770740178
 20
5.930704
 10
3.974100770740179
 20
5.929184999999999
 10
3.979266770740178
 20
5.927675999999999
 10
3.984308770740178
 20
5.926179
 10
3.989225770740178
 20
5.924695999999999
 10
3.994015770740178
 20
5.92323
 10
3.998675770740178
 20
5.921782
 10
4.003203770740179
 20
5.920355
 10
4.007599770740179
 20
5.918950999999999
 10
4.013972770740178
 20
5.916882
 10
4.020019770740178
 20
5.914883999999999
 10
4.025734770740178
 20
5.912962
 10
4.031111770740178
 20
5.911125
  0
LWPOLYLINE
  5
6EE
330
1E
100
AcDbEntity
  8
OBJECT
100
AcDbPolyline
 90
       25
 70
     0
 43
0.0
 10
4.031111770740178
 20
5.911125
 10
4.034207770740178
 20
5.910053999999999
 10
4.037176770740178
 20
5.909017999999999
 10
4.040015770740178
 20
5.908018
 10
4.042725770740179
 20
5.907057
 10
4.045303770740178
 20
5.906136
 10
4.047748770740178
 20
5.905255999999999
 10
4.050059770740178
 20
5.904417999999999
 10
4.052235770740178
 20
5.903624999999999
 10
4.054086770740178
 20
5.902948
 10
4.055823770740178
 20
5.902308999999999
 10
4.057444770740178
 20
5.901710999999999
 10
4.058948770740178
 20
5.901154
 10
4.060337770740178
 20
5.900637
 10
4.061608770740178
 20
5.900163
 10
4.062760770740179
 20
5.899729999999999
 10
4.063795770740179
 20
5.899341
 10
4.064710770740179
 20
5.898996
 10
4.065505770740178
 20
5.898693999999999
 10
4.066180770740178
 20
5.898437
 10
4.066733770740178
 20
5.898226
 10
4.067165770740178
 20
5.898061
 10
4.067474770740179
 20
5.897941999999999
 10
4.067660770740179
 20
5.897869999999999
 10
4.067722770740178
 20
5.897845999999999
  0
LWPOLYLINE
  5
709
330
1E
100
AcDbEntity
  8
OBJECT
100
AcDbPolyline
 90
       57
 70
     0
 43
0.0
 10
4.067722770740178
 20
5.897845999999999
 10
4.068834770740179
 20
5.897409999999999
 10
4.069938770740178
 20
5.896951999999999
 10
4.071034770740178
 20
5.896472
 10
4.072121770740179
 20
5.895971
 10
4.073199770740179
 20
5.895449
 10
4.074266770740178
 20
5.894905999999999
 10
4.075323770740178
 20
5.894341999999999
 10
4.076369770740178
 20
5.893758999999999
 10
4.077404770740178
 20
5.893155
 10
4.078427770740178
 20
5.892532
 10
4.079437770740178
 20
5.891888999999999
 10
4.080435770740178
 20
5.891226999999999
 10
4.081420770740178
 20
5.890546999999999
 10
4.082390770740178
 20
5.889848
 10
4.083347770740178
 20
5.88913
 10
4.084288770740179
 20
5.888395
 10
4.085215770740178
 20
5.887641
 10
4.086126770740178
 20
5.886871
 10
4.087022770740178
 20
5.886083999999999
 10
4.087902770740178
 20
5.88528
 10
4.088766770740178
 20
5.884458999999999
 10
4.089614770740179
 20
5.883623
 10
4.090446770740179
 20
5.882769999999999
 10
4.091261770740178
 20
5.881901
 10
4.092059770740178
 20
5.881018
 10
4.092840770740178
 20
5.880118
 10
4.093604770740178
 20
5.879203999999999
 10
4.094350770740178
 20
5.878275
 10
4.095079770740178
 20
5.877332
 10
4.095790770740178
 20
5.876374
 10
4.096482770740179
 20
5.875401999999999
 10
4.097156770740178
 20
5.874417
 10
4.097983770740178
 20
5.873149999999999
 10
4.098777770740178
 20
5.871863999999999
 10
4.099540770740178
 20
5.870561
 10
4.100270770740178
 20
5.86924
 10
4.100967770740179
 20
5.867903
 10
4.101631770740178
 20
5.86655
 10
4.102262770740178
 20
5.865181999999999
 10
4.102859770740178
 20
5.863799
 10
4.103423770740178
 20
5.862401
 10
4.103953770740178
 20
5.860991
 10
4.104448770740178
 20
5.859567
 10
4.104909770740178
 20
5.858131
 10
4.105334770740178
 20
5.856683999999999
 10
4.105725770740178
 20
5.855224999999999
 10
4.106081770740178
 20
5.853755999999999
 10
4.106401770740178
 20
5.852278
 10
4.106693770740178
 20
5.850744999999999
 10
4.106946770740178
 20
5.849205999999999
 10
4.107160770740178
 20
5.847663999999999
 10
4.107335770740179
 20
5.846116999999999
 10
4.107471770740178
 20
5.844567999999999
 10
4.107569770740178
 20
5.843016
 10
4.107627770740178
 20
5.841463
 10
4.107647770740178
 20
5.839908999999999
  0
LINE
  5
744
330
1E
100
AcDbEntity
  8
OBJECT
100
AcDbLine
 10
4.107647770740178
 20
5.460812
 30
0.0
 11
4.107647770740178
 21
5.839908999999999
 31
0.0
  0
LINE
  5
745
330
1E
100
AcDbEntity
  8
OBJECT
100
AcDbLine
 10
3.646667770740178
 20
5.976785999999999
 30
0.0
 11
2.437462770740178
 21
5.976785999999999
 31
0.0
  0
LINE
  5
746
330
1E
100
AcDbEntity
  8
OBJECT
100
AcDbLine
 10
3.751257770740179
 20
5.345632
 30
0.0
 11
3.751147770740178
 21
5.345812
 31
0.0
  0
LINE
  5
747
330
1E
100
AcDbEntity
  8
OBJECT
100
AcDbLine
 10
3.768147770740178
 20
5.318033999999999
 30
0.0
 11
3.751257770740179
 21
5.345632
 31
0.0
  0
LINE
  5
748
330
1E
100
AcDbEntity
  8
OBJECT
100
AcDbLine
 10
3.120046770740178
 20
5.345647
 30
0.0
 11
3.103147770740178
 21
5.318033999999999
 31
0.0
  0
LINE
  5
749
330
1E
100
AcDbEntity
  8
OBJECT
100
AcDbLine
 10
3.120147770740178
 20
5.345812
 30
0.0
 11
3.120046770740178
 21
5.345647
 31
0.0
  0
LINE
  5
74A
330
1E
100
AcDbEntity
  8
OBJECT
100
AcDbLine
 10
3.751147770740178
 20
5.290255999999999
 30
0.0
 11
3.768147770740178
 21
5.318033999999999
 31
0.0
  0
LINE
  5
74B
330
1E
100
AcDbEntity
  8
OBJECT
100
AcDbLine
 10
3.103147770740178
 20
5.318033999999999
 30
0.0
 11
3.120147770740178
 21
5.290255999999999
 31
0.0
  0
LINE
  5
74C
330
1E
100
AcDbEntity
  8
OBJECT
100
AcDbLine
 10
3.768147770740178
 20
5.262478999999999
 30
0.0
 11
3.751147770740178
 21
5.290255999999999
 31
0.0
  0
LINE
  5
74D
330
1E
100
AcDbEntity
  8
OBJECT
100
AcDbLine
 10
3.120147770740178
 20
5.290255999999999
 30
0.0
 11
3.103147770740178
 21
5.262478999999999
 31
0.0
  0
LINE
  5
74E
330
1E
100
AcDbEntity
  8
OBJECT
100
AcDbLine
 10
3.751147770740178
 20
5.234701
 30
0.0
 11
3.768147770740178
 21
5.262478999999999
 31
0.0
  0
LINE
  5
74F
330
1E
100
AcDbEntity
  8
OBJECT
100
AcDbLine
 10
3.103147770740178
 20
5.262478999999999
 30
0.0
 11
3.120147770740178
 21
5.234701
 31
0.0
  0
LINE
  5
750
330
1E
100
AcDbEntity
  8
OBJECT
100
AcDbLine
 10
3.768147770740178
 20
5.206923
 30
0.0
 11
3.751147770740178
 21
5.234701
 31
0.0
  0
LINE
  5
751
330
1E
100
AcDbEntity
  8
OBJECT
100
AcDbLine
 10
3.120147770740178
 20
5.234701
 30
0.0
 11
3.103147770740178
 21
5.206923
 31
0.0
  0
LINE
  5
752
330
1E
100
AcDbEntity
  8
OBJECT
100
AcDbLine
 10
3.751147770740178
 20
5.179145
 30
0.0
 11
3.768147770740178
 21
5.206923
 31
0.0
  0
LINE
  5
753
330
1E
100
AcDbEntity
  8
OBJECT
100
AcDbLine
 10
3.103147770740178
 20
5.206923
 30
0.0
 11
3.120147770740178
 21
5.179145
 31
0.0
  0
LINE
  5
754
330
1E
100
AcDbEntity
  8
OBJECT
100
AcDbLine
 10
3.768147770740178
 20
5.151366999999999
 30
0.0
 11
3.751147770740178
 21
5.179145
 31
0.0
  0
LINE
  5
755
330
1E
100
AcDbEntity
  8
OBJECT
100
AcDbLine
 10
3.120147770740178
 20
5.179145
 30
0.0
 11
3.103147770740178
 21
5.151366999999999
 31
0.0
  0
LINE
  5
756
330
1E
100
AcDbEntity
  8
OBJECT
100
AcDbLine
 10
3.751147770740178
 20
5.12359
 30
0.0
 11
3.768147770740178
 21
5.151366999999999
 31
0.0
  0
LINE
  5
757
330
1E
100
AcDbEntity
  8
OBJECT
100
AcDbLine
 10
3.103147770740178
 20
5.151366999999999
 30
0.0
 11
3.120147770740178
 21
5.12359
 31
0.0
  0
LINE
  5
758
330
1E
100
AcDbEntity
  8
OBJECT
100
AcDbLine
 10
3.768147770740178
 20
5.095812
 30
0.0
 11
3.751147770740178
 21
5.12359
 31
0.0
  0
LINE
  5
759
330
1E
100
AcDbEntity
  8
OBJECT
100
AcDbLine
 10
3.120147770740178
 20
5.12359
 30
0.0
 11
3.103147770740178
 21
5.095812
 31
0.0
  0
LINE
  5
75A
330
1E
100
AcDbEntity
  8
OBJECT
100
AcDbLine
 10
3.751147770740178
 20
5.068033999999999
 30
0.0
 11
3.768147770740178
 21
5.095812
 31
0.0
  0
LINE
  5
75B
330
1E
100
AcDbEntity
  8
OBJECT
100
AcDbLine
 10
3.103147770740178
 20
5.095812
 30
0.0
 11
3.120147770740178
 21
5.068033999999999
 31
0.0
  0
LINE
  5
75C
330
1E
100
AcDbEntity
  8
OBJECT
100
AcDbLine
 10
3.768147770740178
 20
5.040256999999999
 30
0.0
 11
3.751147770740178
 21
5.068033999999999
 31
0.0
  0
LINE
  5
75D
330
1E
100
AcDbEntity
  8
OBJECT
100
AcDbLine
 10
3.120147770740178
 20
5.068033999999999
 30
0.0
 11
3.103147770740178
 21
5.040256999999999
 31
0.0
  0
LINE
  5
75E
330
1E
100
AcDbEntity
  8
OBJECT
100
AcDbLine
 10
3.751147770740178
 20
5.012478999999999
 30
0.0
 11
3.768147770740178
 21
5.040256999999999
 31
0.0
  0
LINE
  5
75F
330
1E
100
AcDbEntity
  8
OBJECT
100
AcDbLine
 10
3.103147770740178
 20
5.040256999999999
 30
0.0
 11
3.120147770740178
 21
5.012478999999999
 31
0.0
  0
LINE
  5
760
330
1E
100
AcDbEntity
  8
OBJECT
100
AcDbLine
 10
3.768147770740178
 20
4.984701
 30
0.0
 11
3.751147770740178
 21
5.012478999999999
 31
0.0
  0
LINE
  5
761
330
1E
100
AcDbEntity
  8
OBJECT
100
AcDbLine
 10
3.120147770740178
 20
5.012478999999999
 30
0.0
 11
3.103147770740178
 21
4.984701
 31
0.0
  0
LINE
  5
762
330
1E
100
AcDbEntity
  8
OBJECT
100
AcDbLine
 10
3.751147770740178
 20
4.956923
 30
0.0
 11
3.768147770740178
 21
4.984701
 31
0.0
  0
LINE
  5
763
330
1E
100
AcDbEntity
  8
OBJECT
100
AcDbLine
 10
3.103147770740178
 20
4.984701
 30
0.0
 11
3.120147770740178
 21
4.956923
 31
0.0
  0
LINE
  5
764
330
1E
100
AcDbEntity
  8
OBJECT
100
AcDbLine
 10
3.768147770740178
 20
4.929145
 30
0.0
 11
3.751147770740178
 21
4.956923
 31
0.0
  0
LINE
  5
765
330
1E
100
AcDbEntity
  8
OBJECT
100
AcDbLine
 10
3.120147770740178
 20
4.956923
 30
0.0
 11
3.103147770740178
 21
4.929145
 31
0.0
  0
LINE
  5
766
330
1E
100
AcDbEntity
  8
OBJECT
100
AcDbLine
 10
3.751147770740178
 20
4.901367999999999
 30
0.0
 11
3.768147770740178
 21
4.929145
 31
0.0
  0
LINE
  5
767
330
1E
100
AcDbEntity
  8
OBJECT
100
AcDbLine
 10
3.103147770740178
 20
4.929145
 30
0.0
 11
3.120147770740178
 21
4.901367999999999
 31
0.0
  0
LINE
  5
768
330
1E
100
AcDbEntity
  8
OBJECT
100
AcDbLine
 10
3.768147770740178
 20
4.87359
 30
0.0
 11
3.751147770740178
 21
4.901367999999999
 31
0.0
  0
LINE
  5
769
330
1E
100
AcDbEntity
  8
OBJECT
100
AcDbLine
 10
3.120147770740178
 20
4.901367999999999
 30
0.0
 11
3.103147770740178
 21
4.87359
 31
0.0
  0
LINE
  5
76A
330
1E
100
AcDbEntity
  8
OBJECT
100
AcDbLine
 10
3.751147770740178
 20
4.845812
 30
0.0
 11
3.768147770740178
 21
4.87359
 31
0.0
  0
LINE
  5
76B
330
1E
100
AcDbEntity
  8
OBJECT
100
AcDbLine
 10
3.103147770740178
 20
4.87359
 30
0.0
 11
3.120147770740178
 21
4.845812
 31
0.0
  0
LINE
  5
76C
330
1E
100
AcDbEntity
  8
OBJECT
100
AcDbLine
 10
3.904647770740178
 20
5.345812
 30
0.0
 11
3.904647770740178
 21
5.460812
 31
0.0
  0
LINE
  5
76D
330
1E
100
AcDbEntity
  8
OBJECT
100
AcDbLine
 10
2.966647770740178
 20
5.460744999999999
 30
0.0
 11
2.966647770740178
 21
5.345812
 31
0.0
  0
LINE
  5
76E
330
1E
100
AcDbEntity
  8
OBJECT
100
AcDbLine
 10
2.966647770740178
 20
5.460812
 30
0.0
 11
2.966647770740178
 21
5.460744999999999
 31
0.0
  0
LINE
  5
76F
330
1E
100
AcDbEntity
  8
OBJECT
100
AcDbLine
 10
2.995647770740178
 20
3.756470999999999
 30
0.0
 11
2.995647770740178
 21
3.696470999999999
 31
0.0
  0
LINE
  5
770
330
1E
100
AcDbEntity
  8
OBJECT
100
AcDbLine
 10
3.875647770740178
 20
3.696470999999999
 30
0.0
 11
3.875647770740178
 21
3.756470999999999
 31
0.0
  0
LINE
  5
771
330
1E
100
AcDbEntity
  8
CENTER
100
AcDbLine
 10
6.602539999999999
 20
5.601932999999999
 30
0.0
 11
6.602539999999999
 21
2.60504
 31
0.0
  0
LINE
  5
772
330
1E
100
AcDbEntity
  8
OBJECT
100
AcDbLine
 10
6.602539999999999
 20
3.696470999999999
 30
0.0
 11
6.602539999999999
 21
3.696410999999999
 31
0.0
  0
LWPOLYLINE
  5
773
330
1E
100
AcDbEntity
  8
OBJECT
100
AcDbPolyline
 90
      250
 70
     0
 43
0.0
 10
7.070066999999999
 20
5.897554
 10
7.069922999999999
 20
5.897604
 10
7.06978
 20
5.897654
 10
7.069636999999999
 20
5.897704
 10
7.069492999999999
 20
5.897753999999999
 10
7.06935
 20
5.897803999999999
 10
7.069207
 20
5.897853999999999
 10
7.069063
 20
5.897904
 10
7.068919999999999
 20
5.897954
 10
7.068777
 20
5.898004
 10
7.068633
 20
5.898054
 10
7.068489999999999
 20
5.898102999999999
 10
7.068347
 20
5.898152999999999
 10
7.068202999999999
 20
5.898202999999999
 10
7.06806
 20
5.898252999999999
 10
7.067916
 20
5.898303
 10
7.067772999999999
 20
5.898352
 10
7.06763
 20
5.898401999999999
 10
7.067485999999999
 20
5.898451999999999
 10
7.067342999999999
 20
5.898501999999999
 10
7.067199
 20
5.898551
 10
7.067056
 20
5.898601
 10
7.066913
 20
5.898651
 10
7.066768999999999
 20
5.898699999999999
 10
7.066625999999999
 20
5.898749999999999
 10
7.066482
 20
5.898799999999999
 10
7.066339
 20
5.898849
 10
7.066194999999999
 20
5.898899
 10
7.066051999999999
 20
5.898948999999999
 10
7.065908
 20
5.898998
 10
7.065764999999999
 20
5.899048
 10
7.065622
 20
5.899097
 10
7.065477999999999
 20
5.899147
 10
7.065335
 20
5.899195999999999
 10
7.065191
 20
5.899245999999999
 10
7.065047999999999
 20
5.899294999999999
 10
7.064903999999999
 20
5.899344999999999
 10
7.064760999999999
 20
5.899394
 10
7.064617
 20
5.899443999999999
 10
7.064474
 20
5.899492999999999
 10
7.064329999999999
 20
5.899541999999999
 10
7.064186999999999
 20
5.899592
 10
7.064042999999998
 20
5.899640999999999
 10
7.0639
 20
5.89969
 10
7.063755999999999
 20
5.89974
 10
7.063611999999999
 20
5.899789
 10
7.063469
 20
5.899837999999999
 10
7.063324999999999
 20
5.899887999999999
 10
7.063182
 20
5.899937
 10
7.063038
 20
5.899986
 10
7.062895
 20
5.900036
 10
7.062750999999999
 20
5.900084999999999
 10
7.062607
 20
5.900133999999999
 10
7.062464
 20
5.900183
 10
7.062319999999999
 20
5.900231999999999
 10
7.062177
 20
5.900281999999999
 10
7.062033
 20
5.900330999999999
 10
7.061889999999999
 20
5.90038
 10
7.061746
 20
5.900428999999999
 10
7.061602
 20
5.900477999999999
 10
7.061458999999999
 20
5.900526999999999
 10
7.061314999999999
 20
5.900576
 10
7.061171
 20
5.900624999999999
 10
7.061028
 20
5.900673999999999
 10
7.060883999999999
 20
5.900723
 10
7.060739999999999
 20
5.900771999999999
 10
7.060597
 20
5.900820999999999
 10
7.060452999999999
 20
5.900869999999999
 10
7.060308999999999
 20
5.900919
 10
7.060166
 20
5.900967999999999
 10
7.060022
 20
5.901016999999999
 10
7.059878
 20
5.901066
 10
7.059735
 20
5.901114999999999
 10
7.059591
 20
5.901163999999999
 10
7.059447
 20
5.901212999999999
 10
7.059303999999999
 20
5.901262
 10
7.05916
 20
5.901310999999999
 10
7.059016
 20
5.901358999999999
 10
7.058872999999999
 20
5.901407999999999
 10
7.058728999999999
 20
5.901456999999999
 10
7.058585
 20
5.901505999999999
 10
7.058441
 20
5.901555
 10
7.058297999999999
 20
5.901602999999999
 10
7.058153999999999
 20
5.901651999999999
 10
7.05801
 20
5.901701
 10
7.057866
 20
5.901749999999999
 10
7.057722999999999
 20
5.901798
 10
7.057578999999999
 20
5.901847
 10
7.057435
 20
5.901895999999999
 10
7.057291
 20
5.901944
 10
7.057147999999999
 20
5.901993
 10
7.057003999999999
 20
5.902041999999999
 10
7.05686
 20
5.90209
 10
7.056716
 20
5.902139
 10
7.056572
 20
5.902187
 10
7.056428999999999
 20
5.902236
 10
7.056285
 20
5.902283999999999
 10
7.056141
 20
5.902333
 10
7.055997
 20
5.902381
 10
7.055852999999999
 20
5.90243
 10
7.05571
 20
5.902477999999999
 10
7.055566
 20
5.902527
 10
7.055422
 20
5.902574999999999
 10
7.055277999999999
 20
5.902623999999999
 10
7.055133999999999
 20
5.902671999999999
 10
7.054989999999999
 20
5.902720999999999
 10
7.054846
 20
5.902769
 10
7.054702999999999
 20
5.902816999999999
 10
7.054558999999999
 20
5.902866
 10
7.054414999999999
 20
5.902913999999999
 10
7.054271
 20
5.902962
 10
7.054127
 20
5.903011
 10
7.053983
 20
5.903058999999999
 10
7.053838999999999
 20
5.903107
 10
7.053694999999999
 20
5.903154999999999
 10
7.053550999999999
 20
5.903203999999999
 10
7.053408
 20
5.903251999999999
 10
7.053263999999999
 20
5.903299999999999
 10
7.053119999999999
 20
5.903348
 10
7.052975999999999
 20
5.903397
 10
7.052832
 20
5.903444999999999
 10
7.052688
 20
5.903493
 10
7.052544
 20
5.903541
 10
7.052399999999999
 20
5.903589
 10
7.052255999999999
 20
5.903637
 10
7.052111999999999
 20
5.903685
 10
7.051967999999999
 20
5.903732999999999
 10
7.051824
 20
5.903781999999999
 10
7.05168
 20
5.90383
 10
7.051536
 20
5.903877999999999
 10
7.051391999999999
 20
5.903926
 10
7.051247999999999
 20
5.903973999999999
 10
7.051103999999999
 20
5.904022
 10
7.05096
 20
5.904069999999999
 10
7.050816
 20
5.904118
 10
7.050672
 20
5.904164999999999
 10
7.050527999999999
 20
5.904212999999999
 10
7.050383999999999
 20
5.904260999999999
 10
7.050239999999999
 20
5.904308999999999
 10
7.050096
 20
5.904357
 10
7.049952
 20
5.904405
 10
7.049808
 20
5.904453
 10
7.049663999999999
 20
5.904500999999999
 10
7.049519999999999
 20
5.904548
 10
7.049375999999999
 20
5.904595999999999
 10
7.049232
 20
5.904644
 10
7.049088
 20
5.904691999999999
 10
7.048944
 20
5.90474
 10
7.048799999999999
 20
5.904787
 10
7.048655999999999
 20
5.904835
 10
7.048511
 20
5.904882999999999
 10
7.048366999999999
 20
5.90493
 10
7.048222999999999
 20
5.904977999999999
 10
7.048078999999999
 20
5.905026
 10
7.047935
 20
5.905073
 10
7.047791
 20
5.905121
 10
7.047647
 20
5.905168999999999
 10
7.047502999999999
 20
5.905216
 10
7.047358999999999
 20
5.905263999999999
 10
7.047214
 20
5.905311
 10
7.047069999999999
 20
5.905358999999999
 10
7.046925999999999
 20
5.905407
 10
7.046782
 20
5.905453999999999
 10
7.046638
 20
5.905501999999999
 10
7.046494
 20
5.905548999999999
 10
7.04635
 20
5.905597
 10
7.046205
 20
5.905644
 10
7.046060999999999
 20
5.905691
 10
7.045917
 20
5.905738999999999
 10
7.045772999999999
 20
5.905785999999999
 10
7.045628999999999
 20
5.905833999999999
 10
7.045484
 20
5.905880999999999
 10
7.045339999999999
 20
5.905928
 10
7.045196
 20
5.905975999999999
 10
7.045052
 20
5.906023
 10
7.044908
 20
5.906070999999999
 10
7.044763
 20
5.906118
 10
7.044618999999999
 20
5.906165
 10
7.044475
 20
5.906212
 10
7.044330999999999
 20
5.906259999999999
 10
7.044185999999999
 20
5.906306999999999
 10
7.044042
 20
5.906354
 10
7.043897999999999
 20
5.906400999999999
 10
7.043753999999998
 20
5.906448999999999
 10
7.043609
 20
5.906495999999999
 10
7.043464999999999
 20
5.906543
 10
7.043321
 20
5.90659
 10
7.043177
 20
5.906636999999999
 10
7.043032000000001
 20
5.906683999999999
 10
7.042888
 20
5.906730999999999
 10
7.042743999999999
 20
5.906779
 10
7.042599
 20
5.906826
 10
7.042455
 20
5.906873
 10
7.042310999999999
 20
5.906919999999999
 10
7.042167
 20
5.906966999999999
 10
7.042022
 20
5.907014
 10
7.041877999999999
 20
5.907060999999999
 10
7.041733999999999
 20
5.907108
 10
7.041589
 20
5.907155
 10
7.041444999999999
 20
5.907201999999999
 10
7.041300999999999
 20
5.907249
 10
7.041155999999999
 20
5.907295999999999
 10
7.041011999999999
 20
5.907341999999999
 10
7.040867999999999
 20
5.907389
 10
7.040722999999999
 20
5.907435999999999
 10
7.040578999999999
 20
5.907483
 10
7.040433999999999
 20
5.90753
 10
7.040289999999999
 20
5.907576999999999
 10
7.040146
 20
5.907624
 10
7.040000999999999
 20
5.907669999999999
 10
7.039857
 20
5.907716999999999
 10
7.039713
 20
5.907764
 10
7.039567999999999
 20
5.907810999999999
 10
7.039424
 20
5.907856999999999
 10
7.039278999999999
 20
5.907904
 10
7.039135
 20
5.907951
 10
7.038989999999999
 20
5.907998
 10
7.038846
 20
5.908044
 10
7.038702
 20
5.908091
 10
7.038557
 20
5.908138
 10
7.038413
 20
5.908183999999999
 10
7.038267999999999
 20
5.908230999999999
 10
7.038124
 20
5.908277
 10
7.037978999999999
 20
5.908323999999999
 10
7.037835
 20
5.908370999999999
 10
7.037689999999999
 20
5.908417
 10
7.037546
 20
5.908464
 10
7.037402
 20
5.908509999999999
 10
7.037257
 20
5.908557
 10
7.037113
 20
5.908603
 10
7.036967999999999
 20
5.908649999999999
 10
7.036824
 20
5.908695999999999
 10
7.036678999999999
 20
5.908743
 10
7.036535
 20
5.908788999999999
 10
7.036389999999999
 20
5.908834999999999
 10
7.036246
 20
5.908882
 10
7.036100999999999
 20
5.908927999999999
 10
7.035955999999999
 20
5.908973999999999
 10
7.035811999999999
 20
5.909021
 10
7.035667
 20
5.909066999999999
 10
7.035522999999999
 20
5.909113999999999
 10
7.035377999999999
 20
5.909159999999999
 10
7.035233999999999
 20
5.909206
 10
7.035089
 20
5.909251999999999
 10
7.034944999999999
 20
5.909298999999999
 10
7.034799999999999
 20
5.909345
 10
7.034656
 20
5.909391
 10
7.034511
 20
5.909437
 10
7.034366
 20
5.909483999999999
 10
7.034221999999999
 20
5.90953
  0
LWPOLYLINE
  5
86F
330
1E
100
AcDbEntity
  8
OBJECT
100
AcDbPolyline
 90
       57
 70
     0
 43
0.0
 10
7.110657
 20
5.839348999999999
 10
7.110664999999999
 20
5.840787
 10
7.110638999999999
 20
5.842223999999999
 10
7.11058
 20
5.843660999999999
 10
7.110485999999999
 20
5.845095999999999
 10
7.110358999999999
 20
5.84653
 10
7.110197999999999
 20
5.847960999999999
 10
7.110002
 20
5.849388999999999
 10
7.109772999999999
 20
5.850812999999999
 10
7.109505999999999
 20
5.852250999999999
 10
7.109205
 20
5.853683
 10
7.108867999999999
 20
5.855109999999999
 10
7.108496
 20
5.856529
 10
7.108089999999999
 20
5.857941999999999
 10
7.107649
 20
5.859344999999999
 10
7.107172
 20
5.860740999999999
 10
7.106660999999999
 20
5.862125999999999
 10
7.106114999999999
 20
5.863501
 10
7.105533999999999
 20
5.864866
 10
7.104919
 20
5.866219
 10
7.104267999999999
 20
5.867558999999999
 10
7.103583
 20
5.868886999999999
 10
7.102861999999999
 20
5.870199999999999
 10
7.102107000000001
 20
5.8715
 10
7.101316999999999
 20
5.872784999999999
 10
7.100624999999999
 20
5.873853999999999
 10
7.099908
 20
5.874912
 10
7.099167999999999
 20
5.875955999999999
 10
7.098403
 20
5.876986
 10
7.097614999999999
 20
5.878002999999999
 10
7.096802999999999
 20
5.879004
 10
7.095967999999999
 20
5.879991
 10
7.095108999999999
 20
5.880962999999999
 10
7.094227
 20
5.881917999999999
 10
7.093321999999999
 20
5.882856999999999
 10
7.092392999999999
 20
5.883778999999999
 10
7.091441999999999
 20
5.884684
 10
7.090467999999999
 20
5.885569999999999
 10
7.089471
 20
5.886438
 10
7.088452
 20
5.887287999999999
 10
7.08741
 20
5.888118
 10
7.086441
 20
5.888855999999999
 10
7.085455999999999
 20
5.889577
 10
7.084455
 20
5.890277999999999
 10
7.083438
 20
5.890960999999999
 10
7.082403999999999
 20
5.891625
 10
7.081355999999999
 20
5.892267999999999
 10
7.080292
 20
5.892891999999999
 10
7.079213
 20
5.893495999999999
 10
7.078119
 20
5.894079
 10
7.07701
 20
5.894641
 10
7.075886999999999
 20
5.895181
 10
7.074749999999999
 20
5.895700999999999
 10
7.073599999999999
 20
5.896198
 10
7.072435
 20
5.896673
 10
7.071257000000001
 20
5.897124999999999
 10
7.070066999999999
 20
5.897554
  0
LWPOLYLINE
  5
8AA
330
1E
100
AcDbEntity
  8
OBJECT
100
AcDbPolyline
 90
       34
 70
     0
 43
0.0
 10
6.294626999999999
 20
5.942974999999999
 10
6.293970999999999
 20
5.942828999999999
 10
6.28748
 20
5.941365
 10
6.280835999999999
 20
5.939833
 10
6.274341
 20
5.938307
 10
6.268298
 20
5.936858999999999
 10
6.262283999999999
 20
5.935385
 10
6.256159999999999
 20
5.933856999999999
 10
6.250205
 20
5.932345999999999
 10
6.244696
 20
5.930924
 10
6.239301999999999
 20
5.929505
 10
6.233844999999999
 20
5.928047
 10
6.228575
 20
5.926619999999999
 10
6.223736999999999
 20
5.92529
 10
6.219081
 20
5.923991
 10
6.214413999999999
 20
5.922672
 10
6.209947
 20
5.921394
 10
6.205891
 20
5.920220999999999
 10
6.202062
 20
5.9191
 10
6.198273999999999
 20
5.917978999999999
 10
6.194698
 20
5.916911999999999
 10
6.191501999999999
 20
5.915948999999999
 10
6.188565
 20
5.915055999999999
 10
6.185719
 20
5.914184999999999
 10
6.183091
 20
5.913375
 10
6.180807999999999
 20
5.912666999999999
 10
6.178801999999999
 20
5.912041
 10
6.176933999999999
 20
5.911455
 10
6.175285999999999
 20
5.910935
 10
6.173938999999999
 20
5.910509999999999
 10
6.172855999999999
 20
5.910166
 10
6.171956999999999
 20
5.90988
 10
6.17128
 20
5.909664
 10
6.170859
 20
5.90953
  0
LWPOLYLINE
  5
8CE
330
1E
100
AcDbEntity
  8
OBJECT
100
AcDbPolyline
 90
      250
 70
     0
 43
0.0
 10
6.170859
 20
5.90953
 10
6.170714
 20
5.909483999999999
 10
6.170569999999999
 20
5.909437
 10
6.170424999999999
 20
5.909391
 10
6.170281
 20
5.909345
 10
6.170136
 20
5.909298999999999
 10
6.169991999999999
 20
5.909251999999999
 10
6.169846999999999
 20
5.909206
 10
6.169702
 20
5.909159999999999
 10
6.169558
 20
5.909113999999999
 10
6.169412999999999
 20
5.909066999999999
 10
6.169268999999999
 20
5.909021
 10
6.169124
 20
5.908973999999999
 10
6.16898
 20
5.908927999999999
 10
6.168834999999999
 20
5.908882
 10
6.168690999999999
 20
5.908834999999999
 10
6.168546
 20
5.908788999999999
 10
6.168401999999999
 20
5.908743
 10
6.168256999999999
 20
5.908695999999999
 10
6.168112999999999
 20
5.908649999999999
 10
6.167968
 20
5.908603
 10
6.167823999999999
 20
5.908557
 10
6.167678999999999
 20
5.908509999999999
 10
6.167534999999999
 20
5.908464
 10
6.16739
 20
5.908417
 10
6.167245999999999
 20
5.908370999999999
 10
6.167101
 20
5.908323999999999
 10
6.166957
 20
5.908277
 10
6.166812999999999
 20
5.908230999999999
 10
6.166667999999999
 20
5.908183999999999
 10
6.166523999999999
 20
5.908138
 10
6.166379
 20
5.908091
 10
6.166234999999999
 20
5.908044
 10
6.16609
 20
5.907998
 10
6.165945999999999
 20
5.907951
 10
6.165801999999999
 20
5.907904
 10
6.165657
 20
5.907856999999999
 10
6.165512999999999
 20
5.907810999999999
 10
6.165367999999999
 20
5.907764
 10
6.165223999999999
 20
5.907716999999999
 10
6.165079
 20
5.907669999999999
 10
6.164934999999999
 20
5.907624
 10
6.164791
 20
5.907576999999999
 10
6.164646
 20
5.90753
 10
6.164501999999999
 20
5.907483
 10
6.164358
 20
5.907435999999999
 10
6.164213
 20
5.907389
 10
6.164069
 20
5.907341999999999
 10
6.163924999999999
 20
5.907295999999999
 10
6.16378
 20
5.907249
 10
6.163636
 20
5.907201999999999
 10
6.163491999999999
 20
5.907155
 10
6.163346999999999
 20
5.907108
 10
6.163203
 20
5.907060999999999
 10
6.163058999999999
 20
5.907014
 10
6.162913999999999
 20
5.906966999999999
 10
6.16277
 20
5.906919999999999
 10
6.162626
 20
5.906873
 10
6.162480999999999
 20
5.906826
 10
6.162336999999999
 20
5.906779
 10
6.162193
 20
5.906730999999999
 10
6.162048
 20
5.906683999999999
 10
6.161903999999999
 20
5.906636999999999
 10
6.16176
 20
5.90659
 10
6.161616
 20
5.906543
 10
6.161470999999999
 20
5.906495999999999
 10
6.161326999999999
 20
5.906448999999999
 10
6.161183
 20
5.906400999999999
 10
6.161038999999999
 20
5.906354
 10
6.160893999999999
 20
5.906306999999999
 10
6.16075
 20
5.906259999999999
 10
6.160605999999999
 20
5.906212
 10
6.160461999999999
 20
5.906165
 10
6.160317
 20
5.906118
 10
6.160173
 20
5.906070999999999
 10
6.160028999999999
 20
5.906023
 10
6.159885
 20
5.905975999999999
 10
6.159741
 20
5.905928
 10
6.159595999999999
 20
5.905880999999999
 10
6.159451999999999
 20
5.905833999999999
 10
6.159308
 20
5.905785999999999
 10
6.159163999999999
 20
5.905738999999999
 10
6.159019999999999
 20
5.905691
 10
6.158875
 20
5.905644
 10
6.158730999999999
 20
5.905597
 10
6.158587
 20
5.905548999999999
 10
6.158443
 20
5.905501999999999
 10
6.158298999999999
 20
5.905453999999999
 10
6.158155
 20
5.905407
 10
6.158011
 20
5.905358999999999
 10
6.157866
 20
5.905311
 10
6.157721999999999
 20
5.905263999999999
 10
6.157577999999999
 20
5.905216
 10
6.157433999999999
 20
5.905168999999999
 10
6.157289999999999
 20
5.905121
 10
6.157146
 20
5.905073
 10
6.157001999999999
 20
5.905026
 10
6.156858
 20
5.904977999999999
 10
6.156712999999999
 20
5.90493
 10
6.156569
 20
5.904882999999999
 10
6.156424999999999
 20
5.904835
 10
6.156280999999999
 20
5.904787
 10
6.156137
 20
5.90474
 10
6.155992999999999
 20
5.904691999999999
 10
6.155848999999999
 20
5.904644
 10
6.155705
 20
5.904595999999999
 10
6.155560999999999
 20
5.904548
 10
6.155416999999999
 20
5.904500999999999
 10
6.155273
 20
5.904453
 10
6.155129
 20
5.904405
 10
6.154984999999999
 20
5.904357
 10
6.154841
 20
5.904308999999999
 10
6.154697
 20
5.904260999999999
 10
6.154552999999999
 20
5.904212999999999
 10
6.154408999999999
 20
5.904164999999999
 10
6.154265
 20
5.904118
 10
6.154120999999999
 20
5.904069999999999
 10
6.153976999999999
 20
5.904022
 10
6.153833
 20
5.903973999999999
 10
6.153688999999999
 20
5.903926
 10
6.153544999999999
 20
5.903877999999999
 10
6.153401
 20
5.90383
 10
6.153256999999999
 20
5.903781999999999
 10
6.153112999999999
 20
5.903732999999999
 10
6.152969
 20
5.903685
 10
6.152824999999999
 20
5.903637
 10
6.152680999999999
 20
5.903589
 10
6.152537
 20
5.903541
 10
6.152393
 20
5.903493
 10
6.152248999999999
 20
5.903444999999999
 10
6.152105
 20
5.903397
 10
6.151961
 20
5.903348
 10
6.151816999999999
 20
5.903299999999999
 10
6.151673
 20
5.903251999999999
 10
6.151529
 20
5.903203999999999
 10
6.151384999999999
 20
5.903154999999999
 10
6.151241999999999
 20
5.903107
 10
6.151098
 20
5.903058999999999
 10
6.150954
 20
5.903011
 10
6.150809999999999
 20
5.902962
 10
6.150666
 20
5.902913999999999
 10
6.150522
 20
5.902866
 10
6.150377999999999
 20
5.902816999999999
 10
6.150233999999999
 20
5.902769
 10
6.150091
 20
5.902720999999999
 10
6.149947
 20
5.902671999999999
 10
6.149802999999999
 20
5.902623999999999
 10
6.149658999999999
 20
5.902574999999999
 10
6.149515
 20
5.902527
 10
6.149370999999999
 20
5.902477999999999
 10
6.149226999999999
 20
5.90243
 10
6.149083999999999
 20
5.902381
 10
6.14894
 20
5.902333
 10
6.148795999999999
 20
5.902283999999999
 10
6.148651999999999
 20
5.902236
 10
6.148508
 20
5.902187
 10
6.148365
 20
5.902139
 10
6.148220999999999
 20
5.90209
 10
6.148076999999999
 20
5.902041999999999
 10
6.147933
 20
5.901993
 10
6.147788999999999
 20
5.901944
 10
6.147645999999999
 20
5.901895999999999
 10
6.147501999999999
 20
5.901847
 10
6.147358
 20
5.901798
 10
6.147213999999999
 20
5.901749999999999
 10
6.147070999999999
 20
5.901701
 10
6.146926999999999
 20
5.901651999999999
 10
6.146783
 20
5.901602999999999
 10
6.146638999999999
 20
5.901555
 10
6.146495999999999
 20
5.901505999999999
 10
6.146351999999999
 20
5.901456999999999
 10
6.146208
 20
5.901407999999999
 10
6.146065
 20
5.901358999999999
 10
6.145920999999999
 20
5.901310999999999
 10
6.145776999999999
 20
5.901262
 10
6.145633
 20
5.901212999999999
 10
6.14549
 20
5.901163999999999
 10
6.145345999999999
 20
5.901114999999999
 10
6.145201999999999
 20
5.901066
 10
6.145058999999999
 20
5.901016999999999
 10
6.144915
 20
5.900967999999999
 10
6.144770999999999
 20
5.900919
 10
6.144627999999999
 20
5.900869999999999
 10
6.144483999999999
 20
5.900820999999999
 10
6.14434
 20
5.900771999999999
 10
6.144197
 20
5.900723
 10
6.144052999999999
 20
5.900673999999999
 10
6.143908999999999
 20
5.900624999999999
 10
6.143766
 20
5.900576
 10
6.143621999999999
 20
5.900526999999999
 10
6.143479
 20
5.900477999999999
 10
6.143334999999999
 20
5.900428999999999
 10
6.143191
 20
5.90038
 10
6.143048
 20
5.900330999999999
 10
6.142903999999999
 20
5.900281999999999
 10
6.142761
 20
5.900231999999999
 10
6.142616999999999
 20
5.900183
 10
6.142473
 20
5.900133999999999
 10
6.14233
 20
5.900084999999999
 10
6.142185999999999
 20
5.900036
 10
6.142043
 20
5.899986
 10
6.141898999999999
 20
5.899937
 10
6.141754999999999
 20
5.899887999999999
 10
6.141612
 20
5.899837999999999
 10
6.141467999999999
 20
5.899789
 10
6.141325
 20
5.89974
 10
6.141180999999999
 20
5.89969
 10
6.141037999999999
 20
5.899640999999999
 10
6.140894
 20
5.899592
 10
6.140750999999999
 20
5.899541999999999
 10
6.140607
 20
5.899492999999999
 10
6.140463999999999
 20
5.899443999999999
 10
6.14032
 20
5.899394
 10
6.140176999999999
 20
5.899344999999999
 10
6.140032999999999
 20
5.899294999999999
 10
6.13989
 20
5.899245999999999
 10
6.139745999999999
 20
5.899195999999999
 10
6.139603
 20
5.899147
 10
6.139458999999999
 20
5.899097
 10
6.139315999999999
 20
5.899048
 10
6.139172
 20
5.898998
 10
6.139028999999999
 20
5.898948999999999
 10
6.138885
 20
5.898899
 10
6.138741999999999
 20
5.898849
 10
6.138599
 20
5.898799999999999
 10
6.138455
 20
5.898749999999999
 10
6.138311999999999
 20
5.898699999999999
 10
6.138168
 20
5.898651
 10
6.138024999999999
 20
5.898601
 10
6.137881
 20
5.898551
 10
6.137737999999999
 20
5.898501999999999
 10
6.137595
 20
5.898451999999999
 10
6.137451
 20
5.898401999999999
 10
6.137307999999999
 20
5.898352
 10
6.137164
 20
5.898303
 10
6.137020999999999
 20
5.898252999999999
 10
6.136878
 20
5.898202999999999
 10
6.136733999999999
 20
5.898152999999999
 10
6.136591
 20
5.898102999999999
 10
6.136448
 20
5.898054
 10
6.136303999999999
 20
5.898004
 10
6.136161
 20
5.897954
 10
6.136017999999999
 20
5.897904
 10
6.135873999999999
 20
5.897853999999999
 10
6.135730999999999
 20
5.897803999999999
 10
6.135587
 20
5.897753999999999
 10
6.135444
 20
5.897704
 10
6.135301
 20
5.897654
 10
6.135158
 20
5.897604
 10
6.135013999999999
 20
5.897554
  0
LWPOLYLINE
  5
9CA
330
1E
100
AcDbEntity
  8
OBJECT
100
AcDbPolyline
 90
       49
 70
     0
 43
0.0
 10
6.135013999999999
 20
5.897554
 10
6.133531999999999
 20
5.897016
 10
6.132069
 20
5.896441
 10
6.130625
 20
5.89583
 10
6.129201
 20
5.895184999999999
 10
6.127797
 20
5.894505
 10
6.126414999999999
 20
5.893791
 10
6.125055
 20
5.893044
 10
6.123717
 20
5.892262999999999
 10
6.122433999999999
 20
5.891472
 10
6.121176999999999
 20
5.890651999999999
 10
6.119944999999999
 20
5.889804999999999
 10
6.118739999999999
 20
5.888931999999999
 10
6.117562
 20
5.888033
 10
6.11641
 20
5.887108999999999
 10
6.115286
 20
5.886161
 10
6.114187999999999
 20
5.885188999999999
 10
6.113118
 20
5.884193999999999
 10
6.112076
 20
5.883176
 10
6.111061
 20
5.882137
 10
6.110075
 20
5.881076
 10
6.109116999999999
 20
5.879996
 10
6.108187
 20
5.878894999999999
 10
6.107287
 20
5.877774999999999
 10
6.106415
 20
5.876637
 10
6.105437999999999
 20
5.875291
 10
6.104502
 20
5.873923
 10
6.103607
 20
5.872536
 10
6.102752999999999
 20
5.871129999999999
 10
6.101941
 20
5.869705
 10
6.101170999999999
 20
5.868263999999999
 10
6.100442
 20
5.866805999999999
 10
6.099753999999999
 20
5.865333
 10
6.099108
 20
5.863844999999999
 10
6.098504
 20
5.862344
 10
6.097941
 20
5.860831
 10
6.097419
 20
5.859306
 10
6.09694
 20
5.857769999999999
 10
6.096500999999999
 20
5.856224
 10
6.096105
 20
5.854669
 10
6.095749999999999
 20
5.853105999999999
 10
6.095412999999999
 20
5.851402999999999
 10
6.095124
 20
5.849692
 10
6.094884999999999
 20
5.847976999999999
 10
6.094694999999999
 20
5.846255999999999
 10
6.094554
 20
5.844532
 10
6.094462
 20
5.842805999999999
 10
6.094418
 20
5.841077999999999
 10
6.094424
 20
5.839348999999999
  0
LWPOLYLINE
  5
9FD
330
1E
100
AcDbEntity
  8
OBJECT
100
AcDbPolyline
 90
       35
 70
     0
 43
0.0
 10
7.034221999999999
 20
5.90953
 10
7.034207
 20
5.909533999999999
 10
7.033782
 20
5.909669999999999
 10
7.033104999999999
 20
5.909886
 10
7.032213
 20
5.910169999999999
 10
7.031142
 20
5.910509999999999
 10
7.029795
 20
5.910935
 10
7.028146
 20
5.911455
 10
7.026278999999999
 20
5.912041
 10
7.024271999999999
 20
5.912666999999999
 10
7.021988999999999
 20
5.913375
 10
7.019361999999999
 20
5.914184999999999
 10
7.016516
 20
5.915055999999999
 10
7.013578999999999
 20
5.915948999999999
 10
7.010383
 20
5.916911999999999
 10
7.006806
 20
5.917978999999999
 10
7.003019
 20
5.9191
 10
6.999189999999999
 20
5.920220999999999
 10
6.995133999999999
 20
5.921394
 10
6.990667
 20
5.922672
 10
6.986
 20
5.923991
 10
6.981343999999999
 20
5.92529
 10
6.976505999999999
 20
5.926619999999999
 10
6.971236
 20
5.928047
 10
6.965778999999999
 20
5.929505
 10
6.960383999999999
 20
5.930924
 10
6.954875999999999
 20
5.932345999999999
 10
6.948921
 20
5.933856999999999
 10
6.942797
 20
5.935385
 10
6.936783
 20
5.936858999999999
 10
6.930739999999999
 20
5.938307
 10
6.924244999999999
 20
5.939833
 10
6.917600999999999
 20
5.941365
 10
6.91111
 20
5.942828999999999
 10
6.910453999999999
 20
5.942974999999999
  0
LINE
  5
A22
330
1E
100
AcDbEntity
  8
OBJECT
100
AcDbLine
 10
6.127747
 20
5.460812
 30
0.0
 11
7.077333
 21
5.460812
 31
0.0
  0
LINE
  5
A23
330
1E
100
AcDbEntity
  8
OBJECT
100
AcDbLine
 10
6.094424
 20
5.839348999999999
 30
0.0
 11
6.100988
 21
5.460812
 31
0.0
  0
LINE
  5
A24
330
1E
100
AcDbEntity
  8
OBJECT
100
AcDbLine
 10
6.100988
 20
5.460812
 30
0.0
 11
6.127747
 21
5.460812
 31
0.0
  0
LWPOLYLINE
  5
A25
330
1E
100
AcDbEntity
  8
OBJECT
100
AcDbPolyline
 90
       95
 70
     0
 43
0.0
 10
6.910453999999999
 20
5.942974999999999
 10
6.890114999999999
 20
5.947333999999999
 10
6.869911999999999
 20
5.951350999999999
 10
6.849905
 20
5.955032
 10
6.830150999999999
 20
5.958382
 10
6.810711
 20
5.961407
 10
6.791642999999999
 20
5.964112
 10
6.773007
 20
5.966504
 10
6.754861
 20
5.968587
 10
6.734286999999999
 20
5.970651999999999
 10
6.714072999999999
 20
5.972387999999999
 10
6.694436
 20
5.973803
 10
6.684902
 20
5.974391999999999
 10
6.675592999999999
 20
5.974904
 10
6.657408
 20
5.975723999999999
 10
6.648522999999999
 20
5.97604
 10
6.639835
 20
5.976294999999999
 10
6.62281
 20
5.976641
 10
6.61853
 20
5.976695999999999
 10
6.616338999999999
 20
5.976719
 10
6.614075999999999
 20
5.976739
 10
6.612913
 20
5.976748
 10
6.611721000000001
 20
5.976755999999999
 10
6.611107999999999
 20
5.976759999999999
 10
6.610479999999999
 20
5.976763
 10
6.609836
 20
5.976766999999999
 10
6.609172
 20
5.97677
 10
6.607785999999999
 20
5.976776
 10
6.607421999999999
 20
5.976776999999999
 10
6.607049
 20
5.976779
 10
6.606664999999999
 20
5.97678
 10
6.606269
 20
5.976780999999999
 10
6.606066999999999
 20
5.976780999999999
 10
6.605860999999999
 20
5.976782
 10
6.605652
 20
5.976782
 10
6.605438999999999
 20
5.976783
 10
6.605222
 20
5.976783
 10
6.605000999999999
 20
5.976783999999999
 10
6.604775999999999
 20
5.976783999999999
 10
6.604547
 20
5.976783999999999
 10
6.604313
 20
5.976784999999999
 10
6.604074999999999
 20
5.976784999999999
 10
6.603832
 20
5.976784999999999
 10
6.603583999999999
 20
5.976784999999999
 10
6.603330999999999
 20
5.976784999999999
 10
6.603072999999999
 20
5.976784999999999
 10
6.602808999999999
 20
5.976785999999999
 10
6.602539999999999
 20
5.976785999999999
 10
6.602271
 20
5.976785999999999
 10
6.602008
 20
5.976784999999999
 10
6.60175
 20
5.976784999999999
 10
6.601497
 20
5.976784999999999
 10
6.601249
 20
5.976784999999999
 10
6.601005999999999
 20
5.976784999999999
 10
6.600767999999999
 20
5.976784999999999
 10
6.600533999999999
 20
5.976783999999999
 10
6.600305
 20
5.976783999999999
 10
6.60008
 20
5.976783999999999
 10
6.599858999999999
 20
5.976783
 10
6.599642
 20
5.976783
 10
6.599428999999999
 20
5.976782
 10
6.599219999999999
 20
5.976782
 10
6.599014
 20
5.976780999999999
 10
6.598811
 20
5.976780999999999
 10
6.598416
 20
5.97678
 10
6.598032
 20
5.976779
 10
6.597658999999999
 20
5.976776999999999
 10
6.597294999999999
 20
5.976776
 10
6.595908999999999
 20
5.97677
 10
6.595244999999999
 20
5.976766999999999
 10
6.594600999999999
 20
5.976763
 10
6.593972999999999
 20
5.976759999999999
 10
6.59336
 20
5.976755999999999
 10
6.592167999999999
 20
5.976748
 10
6.591005
 20
5.976739
 10
6.588741999999999
 20
5.976719
 10
6.586550999999999
 20
5.976695999999999
 10
6.582269999999999
 20
5.976641
 10
6.565246000000001
 20
5.976294999999999
 10
6.556557999999999
 20
5.97604
 10
6.547673
 20
5.975723999999999
 10
6.529487
 20
5.974904
 10
6.520178999999999
 20
5.974391999999999
 10
6.510644999999999
 20
5.973803
 10
6.491007999999999
 20
5.972387999999999
 10
6.470794
 20
5.970651999999999
 10
6.450219999999999
 20
5.968587
 10
6.432074
 20
5.966504
 10
6.413437999999999
 20
5.964112
 10
6.394369999999999
 20
5.961407
 10
6.374929999999999
 20
5.958382
 10
6.355176
 20
5.955032
 10
6.335168
 20
5.951350999999999
 10
6.314966
 20
5.947333999999999
 10
6.294626999999999
 20
5.942974999999999
  0
LINE
  5
A86
330
1E
100
AcDbEntity
  8
OBJECT
100
AcDbLine
 10
7.104092999999998
 20
5.460812
 30
0.0
 11
7.110657
 21
5.839348999999999
 31
0.0
  0
LINE
  5
A87
330
1E
100
AcDbEntity
  8
OBJECT
100
AcDbLine
 10
6.935039999999998
 20
5.318033999999999
 30
0.0
 11
6.270039999999999
 21
5.318033999999999
 31
0.0
  0
LINE
  5
A88
330
1E
100
AcDbEntity
  8
OBJECT
100
AcDbLine
 10
6.918039999999999
 20
5.290255999999999
 30
0.0
 11
6.28704
 21
5.290255999999999
 31
0.0
  0
LINE
  5
A89
330
1E
100
AcDbEntity
  8
OBJECT
100
AcDbLine
 10
6.935039999999998
 20
5.262478999999999
 30
0.0
 11
6.270039999999999
 21
5.262478999999999
 31
0.0
  0
LINE
  5
A8A
330
1E
100
AcDbEntity
  8
OBJECT
100
AcDbLine
 10
6.918039999999999
 20
5.234701
 30
0.0
 11
6.28704
 21
5.234701
 31
0.0
  0
LINE
  5
A8B
330
1E
100
AcDbEntity
  8
OBJECT
100
AcDbLine
 10
6.935039999999998
 20
5.206923
 30
0.0
 11
6.270039999999999
 21
5.206923
 31
0.0
  0
LINE
  5
A8C
330
1E
100
AcDbEntity
  8
OBJECT
100
AcDbLine
 10
6.918039999999999
 20
5.179145
 30
0.0
 11
6.28704
 21
5.179145
 31
0.0
  0
LINE
  5
A8D
330
1E
100
AcDbEntity
  8
OBJECT
100
AcDbLine
 10
6.935039999999998
 20
5.151366999999999
 30
0.0
 11
6.270039999999999
 21
5.151366999999999
 31
0.0
  0
LINE
  5
A8E
330
1E
100
AcDbEntity
  8
OBJECT
100
AcDbLine
 10
6.918039999999999
 20
5.12359
 30
0.0
 11
6.28704
 21
5.12359
 31
0.0
  0
LINE
  5
A8F
330
1E
100
AcDbEntity
  8
OBJECT
100
AcDbLine
 10
6.935039999999998
 20
5.095812
 30
0.0
 11
6.270040999999999
 21
5.095812
 31
0.0
  0
LINE
  5
A90
330
1E
100
AcDbEntity
  8
OBJECT
100
AcDbLine
 10
6.918039999999999
 20
5.068033999999999
 30
0.0
 11
6.287041
 21
5.068033999999999
 31
0.0
  0
LINE
  5
A91
330
1E
100
AcDbEntity
  8
OBJECT
100
AcDbLine
 10
6.935039999999998
 20
5.040256999999999
 30
0.0
 11
6.270040999999999
 21
5.040256999999999
 31
0.0
  0
LINE
  5
A92
330
1E
100
AcDbEntity
  8
OBJECT
100
AcDbLine
 10
6.918039999999999
 20
5.012478999999999
 30
0.0
 11
6.287041
 21
5.012478999999999
 31
0.0
  0
LINE
  5
A93
330
1E
100
AcDbEntity
  8
OBJECT
100
AcDbLine
 10
6.935039999999998
 20
4.984701
 30
0.0
 11
6.270040999999999
 21
4.984701
 31
0.0
  0
LINE
  5
A94
330
1E
100
AcDbEntity
  8
OBJECT
100
AcDbLine
 10
6.918039999999999
 20
4.956923
 30
0.0
 11
6.287041
 21
4.956923
 31
0.0
  0
LINE
  5
A95
330
1E
100
AcDbEntity
  8
OBJECT
100
AcDbLine
 10
6.935039999999998
 20
4.929145
 30
0.0
 11
6.270040999999999
 21
4.929145
 31
0.0
  0
LINE
  5
A96
330
1E
100
AcDbEntity
  8
OBJECT
100
AcDbLine
 10
6.918039999999999
 20
4.901367999999999
 30
0.0
 11
6.287041
 21
4.901367999999999
 31
0.0
  0
LINE
  5
A97
330
1E
100
AcDbEntity
  8
OBJECT
100
AcDbLine
 10
6.935039999999998
 20
4.87359
 30
0.0
 11
6.270040999999999
 21
4.87359
 31
0.0
  0
LINE
  5
A98
330
1E
100
AcDbEntity
  8
OBJECT
100
AcDbLine
 10
6.918039999999999
 20
4.845812
 30
0.0
 11
6.287041
 21
4.845812
 31
0.0
  0
LINE
  5
A99
330
1E
100
AcDbEntity
  8
OBJECT
100
AcDbLine
 10
7.077333
 20
5.460812
 30
0.0
 11
7.104092999999998
 21
5.460812
 31
0.0
  0
LINE
  5
A9A
330
1E
100
AcDbEntity
  8
OBJECT
100
AcDbLine
 10
6.133539999999999
 20
5.345812
 30
0.0
 11
7.071539999999999
 21
5.345812
 31
0.0
  0
LINE
  5
A9B
330
1E
100
AcDbEntity
  8
OBJECT
100
AcDbLine
 10
7.042539999999999
 20
3.756470999999999
 30
0.0
 11
6.162539999999999
 21
3.756470999999999
 31
0.0
  0
LINE
  5
A9C
330
1E
100
AcDbEntity
  8
OBJECT
100
AcDbLine
 10
6.162539999999999
 20
3.696470999999999
 30
0.0
 11
7.042539999999999
 21
3.696470999999999
 31
0.0
  0
LINE
  5
A9D
330
1E
100
AcDbEntity
  8
OBJECT
100
AcDbLine
 10
6.918142999999999
 20
5.345644
 30
0.0
 11
6.918039999999999
 21
5.345812
 31
0.0
  0
LINE
  5
A9E
330
1E
100
AcDbEntity
  8
OBJECT
100
AcDbLine
 10
6.935039999999998
 20
5.318033999999999
 30
0.0
 11
6.918142999999999
 21
5.345644
 31
0.0
  0
LINE
  5
A9F
330
1E
100
AcDbEntity
  8
OBJECT
100
AcDbLine
 10
6.286932
 20
5.345634999999999
 30
0.0
 11
6.270039999999999
 21
5.318033999999999
 31
0.0
  0
LINE
  5
AA0
330
1E
100
AcDbEntity
  8
OBJECT
100
AcDbLine
 10
6.28704
 20
5.345812
 30
0.0
 11
6.286932
 21
5.345634999999999
 31
0.0
  0
LINE
  5
AA1
330
1E
100
AcDbEntity
  8
OBJECT
100
AcDbLine
 10
6.918039999999999
 20
5.290255999999999
 30
0.0
 11
6.935039999999998
 21
5.318033999999999
 31
0.0
  0
LINE
  5
AA2
330
1E
100
AcDbEntity
  8
OBJECT
100
AcDbLine
 10
6.270039999999999
 20
5.318033999999999
 30
0.0
 11
6.28704
 21
5.290255999999999
 31
0.0
  0
LINE
  5
AA3
330
1E
100
AcDbEntity
  8
OBJECT
100
AcDbLine
 10
6.935039999999998
 20
5.262478999999999
 30
0.0
 11
6.918039999999999
 21
5.290255999999999
 31
0.0
  0
LINE
  5
AA4
330
1E
100
AcDbEntity
  8
OBJECT
100
AcDbLine
 10
6.28704
 20
5.290255999999999
 30
0.0
 11
6.270039999999999
 21
5.262478999999999
 31
0.0
  0
LINE
  5
AA5
330
1E
100
AcDbEntity
  8
OBJECT
100
AcDbLine
 10
6.918039999999999
 20
5.234701
 30
0.0
 11
6.935039999999998
 21
5.262478999999999
 31
0.0
  0
LINE
  5
AA6
330
1E
100
AcDbEntity
  8
OBJECT
100
AcDbLine
 10
6.270039999999999
 20
5.262478999999999
 30
0.0
 11
6.28704
 21
5.234701
 31
0.0
  0
LINE
  5
AA7
330
1E
100
AcDbEntity
  8
OBJECT
100
AcDbLine
 10
6.935039999999998
 20
5.206923
 30
0.0
 11
6.918039999999999
 21
5.234701
 31
0.0
  0
LINE
  5
AA8
330
1E
100
AcDbEntity
  8
OBJECT
100
AcDbLine
 10
6.28704
 20
5.234701
 30
0.0
 11
6.270039999999999
 21
5.206923
 31
0.0
  0
LINE
  5
AA9
330
1E
100
AcDbEntity
  8
OBJECT
100
AcDbLine
 10
6.918039999999999
 20
5.179145
 30
0.0
 11
6.935039999999998
 21
5.206923
 31
0.0
  0
LINE
  5
AAA
330
1E
100
AcDbEntity
  8
OBJECT
100
AcDbLine
 10
6.270039999999999
 20
5.206923
 30
0.0
 11
6.28704
 21
5.179145
 31
0.0
  0
LINE
  5
AAB
330
1E
100
AcDbEntity
  8
OBJECT
100
AcDbLine
 10
6.935039999999998
 20
5.151366999999999
 30
0.0
 11
6.918039999999999
 21
5.179145
 31
0.0
  0
LINE
  5
AAC
330
1E
100
AcDbEntity
  8
OBJECT
100
AcDbLine
 10
6.28704
 20
5.179145
 30
0.0
 11
6.270039999999999
 21
5.151366999999999
 31
0.0
  0
LINE
  5
AAD
330
1E
100
AcDbEntity
  8
OBJECT
100
AcDbLine
 10
6.918039999999999
 20
5.12359
 30
0.0
 11
6.935039999999998
 21
5.151366999999999
 31
0.0
  0
LINE
  5
AAE
330
1E
100
AcDbEntity
  8
OBJECT
100
AcDbLine
 10
6.270039999999999
 20
5.151366999999999
 30
0.0
 11
6.28704
 21
5.12359
 31
0.0
  0
LINE
  5
AAF
330
1E
100
AcDbEntity
  8
OBJECT
100
AcDbLine
 10
6.935039999999998
 20
5.095812
 30
0.0
 11
6.918039999999999
 21
5.12359
 31
0.0
  0
LINE
  5
AB0
330
1E
100
AcDbEntity
  8
OBJECT
100
AcDbLine
 10
6.28704
 20
5.12359
 30
0.0
 11
6.270040999999999
 21
5.095812
 31
0.0
  0
LINE
  5
AB1
330
1E
100
AcDbEntity
  8
OBJECT
100
AcDbLine
 10
6.918039999999999
 20
5.068033999999999
 30
0.0
 11
6.935039999999998
 21
5.095812
 31
0.0
  0
LINE
  5
AB2
330
1E
100
AcDbEntity
  8
OBJECT
100
AcDbLine
 10
6.270040999999999
 20
5.095812
 30
0.0
 11
6.287041
 21
5.068033999999999
 31
0.0
  0
LINE
  5
AB3
330
1E
100
AcDbEntity
  8
OBJECT
100
AcDbLine
 10
6.935039999999998
 20
5.040256999999999
 30
0.0
 11
6.918039999999999
 21
5.068033999999999
 31
0.0
  0
LINE
  5
AB4
330
1E
100
AcDbEntity
  8
OBJECT
100
AcDbLine
 10
6.287041
 20
5.068033999999999
 30
0.0
 11
6.270040999999999
 21
5.040256999999999
 31
0.0
  0
LINE
  5
AB5
330
1E
100
AcDbEntity
  8
OBJECT
100
AcDbLine
 10
6.918039999999999
 20
5.012478999999999
 30
0.0
 11
6.935039999999998
 21
5.040256999999999
 31
0.0
  0
LINE
  5
AB6
330
1E
100
AcDbEntity
  8
OBJECT
100
AcDbLine
 10
6.270040999999999
 20
5.040256999999999
 30
0.0
 11
6.287041
 21
5.012478999999999
 31
0.0
  0
LINE
  5
AB7
330
1E
100
AcDbEntity
  8
OBJECT
100
AcDbLine
 10
6.935039999999998
 20
4.984701
 30
0.0
 11
6.918039999999999
 21
5.012478999999999
 31
0.0
  0
LINE
  5
AB8
330
1E
100
AcDbEntity
  8
OBJECT
100
AcDbLine
 10
6.287041
 20
5.012478999999999
 30
0.0
 11
6.270040999999999
 21
4.984701
 31
0.0
  0
LINE
  5
AB9
330
1E
100
AcDbEntity
  8
OBJECT
100
AcDbLine
 10
6.918039999999999
 20
4.956923
 30
0.0
 11
6.935039999999998
 21
4.984701
 31
0.0
  0
LINE
  5
ABA
330
1E
100
AcDbEntity
  8
OBJECT
100
AcDbLine
 10
6.270040999999999
 20
4.984701
 30
0.0
 11
6.287041
 21
4.956923
 31
0.0
  0
LINE
  5
ABB
330
1E
100
AcDbEntity
  8
OBJECT
100
AcDbLine
 10
6.935039999999998
 20
4.929145
 30
0.0
 11
6.918039999999999
 21
4.956923
 31
0.0
  0
LINE
  5
ABC
330
1E
100
AcDbEntity
  8
OBJECT
100
AcDbLine
 10
6.287041
 20
4.956923
 30
0.0
 11
6.270040999999999
 21
4.929145
 31
0.0
  0
LINE
  5
ABD
330
1E
100
AcDbEntity
  8
OBJECT
100
AcDbLine
 10
6.918039999999999
 20
4.901367999999999
 30
0.0
 11
6.935039999999998
 21
4.929145
 31
0.0
  0
LINE
  5
ABE
330
1E
100
AcDbEntity
  8
OBJECT
100
AcDbLine
 10
6.270040999999999
 20
4.929145
 30
0.0
 11
6.287041
 21
4.901367999999999
 31
0.0
  0
LINE
  5
ABF
330
1E
100
AcDbEntity
  8
OBJECT
100
AcDbLine
 10
6.935039999999998
 20
4.87359
 30
0.0
 11
6.918039999999999
 21
4.901367999999999
 31
0.0
  0
LINE
  5
AC0
330
1E
100
AcDbEntity
  8
OBJECT
100
AcDbLine
 10
6.287041
 20
4.901367999999999
 30
0.0
 11
6.270040999999999
 21
4.87359
 31
0.0
  0
LINE
  5
AC1
330
1E
100
AcDbEntity
  8
OBJECT
100
AcDbLine
 10
6.918039999999999
 20
4.845812
 30
0.0
 11
6.935039999999998
 21
4.87359
 31
0.0
  0
LINE
  5
AC2
330
1E
100
AcDbEntity
  8
OBJECT
100
AcDbLine
 10
6.270040999999999
 20
4.87359
 30
0.0
 11
6.287041
 21
4.845812
 31
0.0
  0
LINE
  5
AC3
330
1E
100
AcDbEntity
  8
OBJECT
100
AcDbLine
 10
7.071539999999999
 20
5.345812
 30
0.0
 11
7.071539999999999
 21
5.460812
 31
0.0
  0
LINE
  5
AC4
330
1E
100
AcDbEntity
  8
OBJECT
100
AcDbLine
 10
6.133539999999999
 20
5.460812
 30
0.0
 11
6.133539999999999
 21
5.345812
 31
0.0
  0
LINE
  5
AC5
330
1E
100
AcDbEntity
  8
OBJECT
100
AcDbLine
 10
6.162539999999999
 20
3.756470999999999
 30
0.0
 11
6.162539999999999
 21
3.696470999999999
 31
0.0
  0
LINE
  5
AC6
330
1E
100
AcDbEntity
  8
OBJECT
100
AcDbLine
 10
7.042539999999999
 20
3.696470999999999
 30
0.0
 11
7.042539999999999
 21
3.756470999999999
 31
0.0
  0
LINE
  5
AC7
330
1E
100
AcDbEntity
  8
OBJECT
100
AcDbLine
 10
3.241230770740178
 20
3.061441999999999
 30
0.0
 11
3.219309770740178
 21
3.061441999999999
 31
0.0
  0
POLYLINE
  5
AC8
330
1E
100
AcDbEntity
  8
OBJECT
100
AcDb3dPolyline
 66
     1
 10
0.0
 20
0.0
 30
0.0
 70
     8
  0
VERTEX
  5
AC9
330
AC8
100
AcDbEntity
  8
OBJECT
100
AcDbVertex
100
AcDb3dPolylineVertex
 10
3.241230770740178
 20
3.092441999999999
 30
0.0
 70
    32
1001
ACAD
1000
R13OBJECT
1002
{
1005
BE
1002
}
  0
VERTEX
  5
ACA
330
AC8
100
AcDbEntity
  8
OBJECT
100
AcDbVertex
100
AcDb3dPolylineVertex
 10
3.235556770740178
 20
3.091384999999999
 30
0.0
 70
    32
1001
ACAD
1000
R13OBJECT
1002
{
1005
BE
1002
}
  0
VERTEX
  5
ACB
330
AC8
100
AcDbEntity
  8
OBJECT
100
AcDbVertex
100
AcDb3dPolylineVertex
 10
3.230269770740178
 20
3.088287999999999
 30
0.0
 70
    32
1001
ACAD
1000
R13OBJECT
1002
{
1005
BE
1002
}
  0
VERTEX
  5
ACC
330
AC8
100
AcDbEntity
  8
OBJECT
100
AcDbVertex
100
AcDb3dPolylineVertex
 10
3.225730770740178
 20
3.083361999999999
 30
0.0
 70
    32
1001
ACAD
1000
R13OBJECT
1002
{
1005
BE
1002
}
  0
VERTEX
  5
ACD
330
AC8
100
AcDbEntity
  8
OBJECT
100
AcDbVertex
100
AcDb3dPolylineVertex
 10
3.222246770740178
 20
3.076941999999999
 30
0.0
 70
    32
1001
ACAD
1000
R13OBJECT
1002
{
1005
BE
1002
}
  0
VERTEX
  5
ACE
330
AC8
100
AcDbEntity
  8
OBJECT
100
AcDbVertex
100
AcDb3dPolylineVertex
 10
3.220056770740178
 20
3.069465
 30
0.0
 70
    32
1001
ACAD
1000
R13OBJECT
1002
{
1005
BE
1002
}
  0
VERTEX
  5
ACF
330
AC8
100
AcDbEntity
  8
OBJECT
100
AcDbVertex
100
AcDb3dPolylineVertex
 10
3.219309770740178
 20
3.061441999999999
 30
0.0
 70
    32
1001
ACAD
1000
R13OBJECT
1002
{
1005
BE
1002
}
  0
SEQEND
  5
AD0
330
AC8
100
AcDbEntity
  8
OBJECT
  0
LINE
  5
AD1
330
1E
100
AcDbEntity
  8
OBJECT
100
AcDbLine
 10
3.241230770740178
 20
2.931441999999999
 30
0.0
 11
3.219309770740178
 21
2.931441999999999
 31
0.0
  0
POLYLINE
  5
AD2
330
1E
100
AcDbEntity
  8
OBJECT
100
AcDb3dPolyline
 66
     1
 10
0.0
 20
0.0
 30
0.0
 70
     8
  0
VERTEX
  5
AD3
330
AD2
100
AcDbEntity
  8
OBJECT
100
AcDbVertex
100
AcDb3dPolylineVertex
 10
3.219309770740178
 20
2.931441999999999
 30
0.0
 70
    32
1001
ACAD
1000
R13OBJECT
1002
{
1005
9A
1002
}
  0
VERTEX
  5
AD4
330
AD2
100
AcDbEntity
  8
OBJECT
100
AcDbVertex
100
AcDb3dPolylineVertex
 10
3.220056770740178
 20
2.923417999999999
 30
0.0
 70
    32
1001
ACAD
1000
R13OBJECT
1002
{
1005
9A
1002
}
  0
VERTEX
  5
AD5
330
AD2
100
AcDbEntity
  8
OBJECT
100
AcDbVertex
100
AcDb3dPolylineVertex
 10
3.222246770740178
 20
2.915941999999999
 30
0.0
 70
    32
1001
ACAD
1000
R13OBJECT
1002
{
1005
9A
1002
}
  0
VERTEX
  5
AD6
330
AD2
100
AcDbEntity
  8
OBJECT
100
AcDbVertex
100
AcDb3dPolylineVertex
 10
3.225730770740178
 20
2.909520999999999
 30
0.0
 70
    32
1001
ACAD
1000
R13OBJECT
1002
{
1005
9A
1002
}
  0
VERTEX
  5
AD7
330
AD2
100
AcDbEntity
  8
OBJECT
100
AcDbVertex
100
AcDb3dPolylineVertex
 10
3.230269770740178
 20
2.904595
 30
0.0
 70
    32
1001
ACAD
1000
R13OBJECT
1002
{
1005
9A
1002
}
  0
VERTEX
  5
AD8
330
AD2
100
AcDbEntity
  8
OBJECT
100
AcDbVertex
100
AcDb3dPolylineVertex
 10
3.235556770740178
 20
2.901498
 30
0.0
 70
    32
1001
ACAD
1000
R13OBJECT
1002
{
1005
9A
1002
}
  0
VERTEX
  5
AD9
330
AD2
100
AcDbEntity
  8
OBJECT
100
AcDbVertex
100
AcDb3dPolylineVertex
 10
3.241230770740178
 20
2.900441999999999
 30
0.0
 70
    32
1001
ACAD
1000
R13OBJECT
1002
{
1005
9A
1002
}
  0
SEQEND
  5
ADA
330
AD2
100
AcDbEntity
  8
OBJECT
  0
LINE
  5
ADB
330
1E
100
AcDbEntity
  8
OBJECT
100
AcDbLine
 10
3.241230770740178
 20
3.092441999999999
 30
0.0
 11
2.966647770740178
 21
3.092441999999999
 31
0.0
  0
LINE
  5
ADC
330
1E
100
AcDbEntity
  8
OBJECT
100
AcDbLine
 10
2.966647770740178
 20
2.900441999999999
 30
0.0
 11
3.241230770740178
 21
2.900441999999999
 31
0.0
  0
LINE
  5
ADD
330
1E
100
AcDbEntity
  8
OBJECT
100
AcDbLine
 10
2.944726770740178
 20
3.061441999999999
 30
0.0
 11
3.219309770740178
 21
3.061441999999999
 31
0.0
  0
LINE
  5
ADE
330
1E
100
AcDbEntity
  8
OBJECT
100
AcDbLine
 10
3.219309770740178
 20
2.931441999999999
 30
0.0
 11
2.944726770740178
 21
2.931441999999999
 31
0.0
  0
LINE
  5
ADF
330
1E
100
AcDbEntity
  8
OBJECT
100
AcDbLine
 10
2.935647770740178
 20
3.061441999999999
 30
0.0
 11
2.935647770740178
 21
2.931441999999999
 31
0.0
  0
LINE
  5
AE0
330
1E
100
AcDbEntity
  8
OBJECT
100
AcDbLine
 10
2.944726770740178
 20
2.931441999999999
 30
0.0
 11
2.944726770740178
 21
3.061441999999999
 31
0.0
  0
POLYLINE
  5
AE1
330
1E
100
AcDbEntity
  8
OBJECT
100
AcDb3dPolyline
 66
     1
 10
0.0
 20
0.0
 30
0.0
 70
     8
  0
VERTEX
  5
AE2
330
AE1
100
AcDbEntity
  8
OBJECT
100
AcDbVertex
100
AcDb3dPolylineVertex
 10
2.966647770740178
 20
3.092441999999999
 30
0.0
 70
    32
1001
ACAD
1000
R13OBJECT
1002
{
1005
BA
1002
}
  0
VERTEX
  5
AE3
330
AE1
100
AcDbEntity
  8
OBJECT
100
AcDbVertex
100
AcDb3dPolylineVertex
 10
2.960973770740178
 20
3.091384999999999
 30
0.0
 70
    32
1001
ACAD
1000
R13OBJECT
1002
{
1005
BA
1002
}
  0
VERTEX
  5
AE4
330
AE1
100
AcDbEntity
  8
OBJECT
100
AcDbVertex
100
AcDb3dPolylineVertex
 10
2.955687770740178
 20
3.088287999999999
 30
0.0
 70
    32
1001
ACAD
1000
R13OBJECT
1002
{
1005
BA
1002
}
  0
VERTEX
  5
AE5
330
AE1
100
AcDbEntity
  8
OBJECT
100
AcDbVertex
100
AcDb3dPolylineVertex
 10
2.951147770740178
 20
3.083361999999999
 30
0.0
 70
    32
1001
ACAD
1000
R13OBJECT
1002
{
1005
BA
1002
}
  0
VERTEX
  5
AE6
330
AE1
100
AcDbEntity
  8
OBJECT
100
AcDbVertex
100
AcDb3dPolylineVertex
 10
2.947663770740178
 20
3.076941999999999
 30
0.0
 70
    32
1001
ACAD
1000
R13OBJECT
1002
{
1005
BA
1002
}
  0
VERTEX
  5
AE7
330
AE1
100
AcDbEntity
  8
OBJECT
100
AcDbVertex
100
AcDb3dPolylineVertex
 10
2.945473770740178
 20
3.069465
 30
0.0
 70
    32
1001
ACAD
1000
R13OBJECT
1002
{
1005
BA
1002
}
  0
VERTEX
  5
AE8
330
AE1
100
AcDbEntity
  8
OBJECT
100
AcDbVertex
100
AcDb3dPolylineVertex
 10
2.944726770740178
 20
3.061441999999999
 30
0.0
 70
    32
1001
ACAD
1000
R13OBJECT
1002
{
1005
BA
1002
}
  0
SEQEND
  5
AE9
330
AE1
100
AcDbEntity
  8
OBJECT
  0
LINE
  5
AEA
330
1E
100
AcDbEntity
  8
OBJECT
100
AcDbLine
 10
2.944726770740178
 20
3.061441999999999
 30
0.0
 11
2.935647770740178
 21
3.061441999999999
 31
0.0
  0
ARC
  5
AEB
330
1E
100
AcDbEntity
  8
OBJECT
100
AcDbCircle
 10
2.966647770740178
 20
3.061441999999999
 30
0.0
 40
0.031
100
AcDbArc
 50
90.0
 51
180.0
  0
LINE
  5
AEC
330
1E
100
AcDbEntity
  8
OBJECT
100
AcDbLine
 10
2.944726770740178
 20
2.931441999999999
 30
0.0
 11
2.935647770740178
 21
2.931441999999999
 31
0.0
  0
POLYLINE
  5
AED
330
1E
100
AcDbEntity
  8
OBJECT
100
AcDb3dPolyline
 66
     1
 10
0.0
 20
0.0
 30
0.0
 70
     8
  0
VERTEX
  5
AEE
330
AED
100
AcDbEntity
  8
OBJECT
100
AcDbVertex
100
AcDb3dPolylineVertex
 10
2.944726770740178
 20
2.931441999999999
 30
0.0
 70
    32
1001
ACAD
1000
R13OBJECT
1002
{
1005
97
1002
}
  0
VERTEX
  5
AEF
330
AED
100
AcDbEntity
  8
OBJECT
100
AcDbVertex
100
AcDb3dPolylineVertex
 10
2.945473770740178
 20
2.923417999999999
 30
0.0
 70
    32
1001
ACAD
1000
R13OBJECT
1002
{
1005
97
1002
}
  0
VERTEX
  5
AF0
330
AED
100
AcDbEntity
  8
OBJECT
100
AcDbVertex
100
AcDb3dPolylineVertex
 10
2.947663770740178
 20
2.915941999999999
 30
0.0
 70
    32
1001
ACAD
1000
R13OBJECT
1002
{
1005
97
1002
}
  0
VERTEX
  5
AF1
330
AED
100
AcDbEntity
  8
OBJECT
100
AcDbVertex
100
AcDb3dPolylineVertex
 10
2.951147770740178
 20
2.909520999999999
 30
0.0
 70
    32
1001
ACAD
1000
R13OBJECT
1002
{
1005
97
1002
}
  0
VERTEX
  5
AF2
330
AED
100
AcDbEntity
  8
OBJECT
100
AcDbVertex
100
AcDb3dPolylineVertex
 10
2.955687770740178
 20
2.904595
 30
0.0
 70
    32
1001
ACAD
1000
R13OBJECT
1002
{
1005
97
1002
}
  0
VERTEX
  5
AF3
330
AED
100
AcDbEntity
  8
OBJECT
100
AcDbVertex
100
AcDb3dPolylineVertex
 10
2.960973770740178
 20
2.901498
 30
0.0
 70
    32
1001
ACAD
1000
R13OBJECT
1002
{
1005
97
1002
}
  0
VERTEX
  5
AF4
330
AED
100
AcDbEntity
  8
OBJECT
100
AcDbVertex
100
AcDb3dPolylineVertex
 10
2.966647770740178
 20
2.900441999999999
 30
0.0
 70
    32
1001
ACAD
1000
R13OBJECT
1002
{
1005
97
1002
}
  0
SEQEND
  5
AF5
330
AED
100
AcDbEntity
  8
OBJECT
  0
ARC
  5
AF6
330
1E
100
AcDbEntity
  8
OBJECT
100
AcDbCircle
 10
2.966647770740178
 20
2.931441999999999
 30
0.0
 40
0.031
100
AcDbArc
 50
180.0
 51
270.0
  0
LINE
  5
AF7
330
1E
100
AcDbEntity
  8
OBJECT
100
AcDbLine
 10
3.110151770740178
 20
3.092441999999999
 30
0.0
 11
3.110110770740178
 21
3.092375999999999
 31
0.0
  0
LINE
  5
AF8
330
1E
100
AcDbEntity
  8
OBJECT
100
AcDbLine
 10
3.219309770740178
 20
3.061441999999999
 30
0.0
 11
3.219309770740178
 21
2.931441999999999
 31
0.0
  0
LINE
  5
AF9
330
1E
100
AcDbEntity
  8
OBJECT
100
AcDbLine
 10
3.904647770740178
 20
3.092441999999999
 30
0.0
 11
3.629850770740179
 21
3.092441999999999
 31
0.0
  0
LINE
  5
AFA
330
1E
100
AcDbEntity
  8
OBJECT
100
AcDbLine
 10
3.651771770740178
 20
3.061441999999999
 30
0.0
 11
3.926567770740178
 21
3.061441999999999
 31
0.0
  0
LINE
  5
AFB
330
1E
100
AcDbEntity
  8
OBJECT
100
AcDbLine
 10
3.926567770740178
 20
2.931441999999999
 30
0.0
 11
3.651771770740178
 21
2.931441999999999
 31
0.0
  0
LINE
  5
AFC
330
1E
100
AcDbEntity
  8
OBJECT
100
AcDbLine
 10
3.629850770740179
 20
2.900441999999999
 30
0.0
 11
3.904647770740178
 21
2.900441999999999
 31
0.0
  0
LINE
  5
AFD
330
1E
100
AcDbEntity
  8
OBJECT
100
AcDbLine
 10
3.629850770740179
 20
3.092441999999999
 30
0.0
 11
3.241230770740178
 21
3.092441999999999
 31
0.0
  0
LINE
  5
AFE
330
1E
100
AcDbEntity
  8
OBJECT
100
AcDbLine
 10
3.241230770740178
 20
3.061441999999999
 30
0.0
 11
3.629850770740179
 21
3.061441999999999
 31
0.0
  0
LINE
  5
AFF
330
1E
100
AcDbEntity
  8
OBJECT
100
AcDbLine
 10
3.629850770740179
 20
2.931441999999999
 30
0.0
 11
3.241230770740178
 21
2.931441999999999
 31
0.0
  0
LINE
  5
B00
330
1E
100
AcDbEntity
  8
OBJECT
100
AcDbLine
 10
3.241230770740178
 20
2.900441999999999
 30
0.0
 11
3.629850770740179
 21
2.900441999999999
 31
0.0
  0
LINE
  5
B01
330
1E
100
AcDbEntity
  8
OBJECT
100
AcDbLine
 10
3.241230770740178
 20
3.061441999999999
 30
0.0
 11
3.241230770740178
 21
3.092441999999999
 31
0.0
  0
LINE
  5
B02
330
1E
100
AcDbEntity
  8
OBJECT
100
AcDbLine
 10
3.241230770740178
 20
2.931441999999999
 30
0.0
 11
3.241230770740178
 21
3.061441999999999
 31
0.0
  0
LINE
  5
B03
330
1E
100
AcDbEntity
  8
OBJECT
100
AcDbLine
 10
3.241230770740178
 20
2.931441999999999
 30
0.0
 11
3.241230770740178
 21
2.900441999999999
 31
0.0
  0
LINE
  5
B04
330
1E
100
AcDbEntity
  8
OBJECT
100
AcDbLine
 10
3.629850770740179
 20
3.061441999999999
 30
0.0
 11
3.629850770740179
 21
2.931441999999999
 31
0.0
  0
LINE
  5
B05
330
1E
100
AcDbEntity
  8
OBJECT
100
AcDbLine
 10
3.651771770740178
 20
2.931441999999999
 30
0.0
 11
3.651771770740178
 21
3.061441999999999
 31
0.0
  0
POLYLINE
  5
B06
330
1E
100
AcDbEntity
  8
OBJECT
100
AcDb3dPolyline
 66
     1
 10
0.0
 20
0.0
 30
0.0
 70
     8
  0
VERTEX
  5
B07
330
B06
100
AcDbEntity
  8
OBJECT
100
AcDbVertex
100
AcDb3dPolylineVertex
 10
3.651771770740178
 20
3.061441999999999
 30
0.0
 70
    32
1001
ACAD
1000
R13OBJECT
1002
{
1005
AD
1002
}
  0
VERTEX
  5
B08
330
B06
100
AcDbEntity
  8
OBJECT
100
AcDbVertex
100
AcDb3dPolylineVertex
 10
3.651024770740178
 20
3.069465
 30
0.0
 70
    32
1001
ACAD
1000
R13OBJECT
1002
{
1005
AD
1002
}
  0
VERTEX
  5
B09
330
B06
100
AcDbEntity
  8
OBJECT
100
AcDbVertex
100
AcDb3dPolylineVertex
 10
3.648834770740178
 20
3.076941999999999
 30
0.0
 70
    32
1001
ACAD
1000
R13OBJECT
1002
{
1005
AD
1002
}
  0
VERTEX
  5
B0A
330
B06
100
AcDbEntity
  8
OBJECT
100
AcDbVertex
100
AcDb3dPolylineVertex
 10
3.645350770740178
 20
3.083361999999999
 30
0.0
 70
    32
1001
ACAD
1000
R13OBJECT
1002
{
1005
AD
1002
}
  0
VERTEX
  5
B0B
330
B06
100
AcDbEntity
  8
OBJECT
100
AcDbVertex
100
AcDb3dPolylineVertex
 10
3.640811770740178
 20
3.088287999999999
 30
0.0
 70
    32
1001
ACAD
1000
R13OBJECT
1002
{
1005
AD
1002
}
  0
VERTEX
  5
B0C
330
B06
100
AcDbEntity
  8
OBJECT
100
AcDbVertex
100
AcDb3dPolylineVertex
 10
3.635524770740178
 20
3.091384999999999
 30
0.0
 70
    32
1001
ACAD
1000
R13OBJECT
1002
{
1005
AD
1002
}
  0
VERTEX
  5
B0D
330
B06
100
AcDbEntity
  8
OBJECT
100
AcDbVertex
100
AcDb3dPolylineVertex
 10
3.629850770740179
 20
3.092441999999999
 30
0.0
 70
    32
1001
ACAD
1000
R13OBJECT
1002
{
1005
AD
1002
}
  0
SEQEND
  5
B0E
330
B06
100
AcDbEntity
  8
OBJECT
  0
LINE
  5
B0F
330
1E
100
AcDbEntity
  8
OBJECT
100
AcDbLine
 10
3.651771770740178
 20
3.061441999999999
 30
0.0
 11
3.629850770740179
 21
3.061441999999999
 31
0.0
  0
LINE
  5
B10
330
1E
100
AcDbEntity
  8
OBJECT
100
AcDbLine
 10
3.629850770740179
 20
3.092441999999999
 30
0.0
 11
3.629850770740179
 21
3.061441999999999
 31
0.0
  0
LINE
  5
B11
330
1E
100
AcDbEntity
  8
OBJECT
100
AcDbLine
 10
3.651771770740178
 20
2.931441999999999
 30
0.0
 11
3.629850770740179
 21
2.931441999999999
 31
0.0
  0
POLYLINE
  5
B12
330
1E
100
AcDbEntity
  8
OBJECT
100
AcDb3dPolyline
 66
     1
 10
0.0
 20
0.0
 30
0.0
 70
     8
  0
VERTEX
  5
B13
330
B12
100
AcDbEntity
  8
OBJECT
100
AcDbVertex
100
AcDb3dPolylineVertex
 10
3.629850770740179
 20
2.900441999999999
 30
0.0
 70
    32
1001
ACAD
1000
R13OBJECT
1002
{
1005
A2
1002
}
  0
VERTEX
  5
B14
330
B12
100
AcDbEntity
  8
OBJECT
100
AcDbVertex
100
AcDb3dPolylineVertex
 10
3.635524770740178
 20
2.901498
 30
0.0
 70
    32
1001
ACAD
1000
R13OBJECT
1002
{
1005
A2
1002
}
  0
VERTEX
  5
B15
330
B12
100
AcDbEntity
  8
OBJECT
100
AcDbVertex
100
AcDb3dPolylineVertex
 10
3.640811770740178
 20
2.904595
 30
0.0
 70
    32
1001
ACAD
1000
R13OBJECT
1002
{
1005
A2
1002
}
  0
VERTEX
  5
B16
330
B12
100
AcDbEntity
  8
OBJECT
100
AcDbVertex
100
AcDb3dPolylineVertex
 10
3.645350770740178
 20
2.909520999999999
 30
0.0
 70
    32
1001
ACAD
1000
R13OBJECT
1002
{
1005
A2
1002
}
  0
VERTEX
  5
B17
330
B12
100
AcDbEntity
  8
OBJECT
100
AcDbVertex
100
AcDb3dPolylineVertex
 10
3.648834770740178
 20
2.915941999999999
 30
0.0
 70
    32
1001
ACAD
1000
R13OBJECT
1002
{
1005
A2
1002
}
  0
VERTEX
  5
B18
330
B12
100
AcDbEntity
  8
OBJECT
100
AcDbVertex
100
AcDb3dPolylineVertex
 10
3.651024770740178
 20
2.923417999999999
 30
0.0
 70
    32
1001
ACAD
1000
R13OBJECT
1002
{
1005
A2
1002
}
  0
VERTEX
  5
B19
330
B12
100
AcDbEntity
  8
OBJECT
100
AcDbVertex
100
AcDb3dPolylineVertex
 10
3.651771770740178
 20
2.931441999999999
 30
0.0
 70
    32
1001
ACAD
1000
R13OBJECT
1002
{
1005
A2
1002
}
  0
SEQEND
  5
B1A
330
B12
100
AcDbEntity
  8
OBJECT
  0
LINE
  5
B1B
330
1E
100
AcDbEntity
  8
OBJECT
100
AcDbLine
 10
3.629850770740179
 20
2.931441999999999
 30
0.0
 11
3.629850770740179
 21
2.900441999999999
 31
0.0
  0
LINE
  5
B1C
330
1E
100
AcDbEntity
  8
OBJECT
100
AcDbLine
 10
3.761183770740178
 20
3.092375999999999
 30
0.0
 11
3.761143770740178
 21
3.092441999999999
 31
0.0
  0
ARC
  5
B1D
330
1E
100
AcDbEntity
  8
OBJECT
100
AcDbCircle
 10
3.904647770740178
 20
3.061441999999999
 30
0.0
 40
0.031
100
AcDbArc
 50
0.0
 51
90.0
  0
POLYLINE
  5
B1E
330
1E
100
AcDbEntity
  8
OBJECT
100
AcDb3dPolyline
 66
     1
 10
0.0
 20
0.0
 30
0.0
 70
     8
  0
VERTEX
  5
B1F
330
B1E
100
AcDbEntity
  8
OBJECT
100
AcDbVertex
100
AcDb3dPolylineVertex
 10
3.926567770740178
 20
3.061441999999999
 30
0.0
 70
    32
1001
ACAD
1000
R13OBJECT
1002
{
1005
B5
1002
}
  0
VERTEX
  5
B20
330
B1E
100
AcDbEntity
  8
OBJECT
100
AcDbVertex
100
AcDb3dPolylineVertex
 10
3.925820770740179
 20
3.069465
 30
0.0
 70
    32
1001
ACAD
1000
R13OBJECT
1002
{
1005
B5
1002
}
  0
VERTEX
  5
B21
330
B1E
100
AcDbEntity
  8
OBJECT
100
AcDbVertex
100
AcDb3dPolylineVertex
 10
3.923630770740178
 20
3.076941999999999
 30
0.0
 70
    32
1001
ACAD
1000
R13OBJECT
1002
{
1005
B5
1002
}
  0
VERTEX
  5
B22
330
B1E
100
AcDbEntity
  8
OBJECT
100
AcDbVertex
100
AcDb3dPolylineVertex
 10
3.920147770740178
 20
3.083361999999999
 30
0.0
 70
    32
1001
ACAD
1000
R13OBJECT
1002
{
1005
B5
1002
}
  0
VERTEX
  5
B23
330
B1E
100
AcDbEntity
  8
OBJECT
100
AcDbVertex
100
AcDb3dPolylineVertex
 10
3.915607770740178
 20
3.088287999999999
 30
0.0
 70
    32
1001
ACAD
1000
R13OBJECT
1002
{
1005
B5
1002
}
  0
VERTEX
  5
B24
330
B1E
100
AcDbEntity
  8
OBJECT
100
AcDbVertex
100
AcDb3dPolylineVertex
 10
3.910320770740178
 20
3.091384999999999
 30
0.0
 70
    32
1001
ACAD
1000
R13OBJECT
1002
{
1005
B5
1002
}
  0
VERTEX
  5
B25
330
B1E
100
AcDbEntity
  8
OBJECT
100
AcDbVertex
100
AcDb3dPolylineVertex
 10
3.904647770740178
 20
3.092441999999999
 30
0.0
 70
    32
1001
ACAD
1000
R13OBJECT
1002
{
1005
B5
1002
}
  0
SEQEND
  5
B26
330
B1E
100
AcDbEntity
  8
OBJECT
  0
LINE
  5
B27
330
1E
100
AcDbEntity
  8
OBJECT
100
AcDbLine
 10
3.926567770740178
 20
3.061441999999999
 30
0.0
 11
3.926567770740178
 21
2.931441999999999
 31
0.0
  0
LINE
  5
B28
330
1E
100
AcDbEntity
  8
OBJECT
100
AcDbLine
 10
3.935647770740178
 20
3.061441999999999
 30
0.0
 11
3.926567770740178
 21
3.061441999999999
 31
0.0
  0
LINE
  5
B29
330
1E
100
AcDbEntity
  8
OBJECT
100
AcDbLine
 10
3.935647770740178
 20
2.931441999999999
 30
0.0
 11
3.935647770740178
 21
3.061441999999999
 31
0.0
  0
POLYLINE
  5
B2A
330
1E
100
AcDbEntity
  8
OBJECT
100
AcDb3dPolyline
 66
     1
 10
0.0
 20
0.0
 30
0.0
 70
     8
  0
VERTEX
  5
B2B
330
B2A
100
AcDbEntity
  8
OBJECT
100
AcDbVertex
100
AcDb3dPolylineVertex
 10
3.904647770740178
 20
2.900441999999999
 30
0.0
 70
    32
1001
ACAD
1000
R13OBJECT
1002
{
1005
A5
1002
}
  0
VERTEX
  5
B2C
330
B2A
100
AcDbEntity
  8
OBJECT
100
AcDbVertex
100
AcDb3dPolylineVertex
 10
3.910320770740178
 20
2.901498
 30
0.0
 70
    32
1001
ACAD
1000
R13OBJECT
1002
{
1005
A5
1002
}
  0
VERTEX
  5
B2D
330
B2A
100
AcDbEntity
  8
OBJECT
100
AcDbVertex
100
AcDb3dPolylineVertex
 10
3.915607770740178
 20
2.904595
 30
0.0
 70
    32
1001
ACAD
1000
R13OBJECT
1002
{
1005
A5
1002
}
  0
VERTEX
  5
B2E
330
B2A
100
AcDbEntity
  8
OBJECT
100
AcDbVertex
100
AcDb3dPolylineVertex
 10
3.920147770740178
 20
2.909520999999999
 30
0.0
 70
    32
1001
ACAD
1000
R13OBJECT
1002
{
1005
A5
1002
}
  0
VERTEX
  5
B2F
330
B2A
100
AcDbEntity
  8
OBJECT
100
AcDbVertex
100
AcDb3dPolylineVertex
 10
3.923630770740178
 20
2.915941999999999
 30
0.0
 70
    32
1001
ACAD
1000
R13OBJECT
1002
{
1005
A5
1002
}
  0
VERTEX
  5
B30
330
B2A
100
AcDbEntity
  8
OBJECT
100
AcDbVertex
100
AcDb3dPolylineVertex
 10
3.925820770740179
 20
2.923417999999999
 30
0.0
 70
    32
1001
ACAD
1000
R13OBJECT
1002
{
1005
A5
1002
}
  0
VERTEX
  5
B31
330
B2A
100
AcDbEntity
  8
OBJECT
100
AcDbVertex
100
AcDb3dPolylineVertex
 10
3.926567770740178
 20
2.931441999999999
 30
0.0
 70
    32
1001
ACAD
1000
R13OBJECT
1002
{
1005
A5
1002
}
  0
SEQEND
  5
B32
330
B2A
100
AcDbEntity
  8
OBJECT
  0
LINE
  5
B33
330
1E
100
AcDbEntity
  8
OBJECT
100
AcDbLine
 10
3.935647770740178
 20
2.931441999999999
 30
0.0
 11
3.926567770740178
 21
2.931441999999999
 31
0.0
  0
ARC
  5
B34
330
1E
100
AcDbEntity
  8
OBJECT
100
AcDbCircle
 10
3.904647770740178
 20
2.931441999999999
 30
0.0
 40
0.031
100
AcDbArc
 50
270.0
 51
0.0
  0
LINE
  5
B35
330
1E
100
AcDbEntity
  8
OBJECT
100
AcDbLine
 10
6.408123
 20
3.061441999999999
 30
0.0
 11
6.386203
 21
3.061441999999999
 31
0.0
  0
POLYLINE
  5
B36
330
1E
100
AcDbEntity
  8
OBJECT
100
AcDb3dPolyline
 66
     1
 10
0.0
 20
0.0
 30
0.0
 70
     8
  0
VERTEX
  5
B37
330
B36
100
AcDbEntity
  8
OBJECT
100
AcDbVertex
100
AcDb3dPolylineVertex
 10
6.408123
 20
3.092441999999999
 30
0.0
 70
    32
1001
ACAD
1000
R13OBJECT
1002
{
1005
BE
1002
}
  0
VERTEX
  5
B38
330
B36
100
AcDbEntity
  8
OBJECT
100
AcDbVertex
100
AcDb3dPolylineVertex
 10
6.402449999999999
 20
3.091384999999999
 30
0.0
 70
    32
1001
ACAD
1000
R13OBJECT
1002
{
1005
BE
1002
}
  0
VERTEX
  5
B39
330
B36
100
AcDbEntity
  8
OBJECT
100
AcDbVertex
100
AcDb3dPolylineVertex
 10
6.397162999999999
 20
3.088287999999999
 30
0.0
 70
    32
1001
ACAD
1000
R13OBJECT
1002
{
1005
BE
1002
}
  0
VERTEX
  5
B3A
330
B36
100
AcDbEntity
  8
OBJECT
100
AcDbVertex
100
AcDb3dPolylineVertex
 10
6.392623
 20
3.083361999999999
 30
0.0
 70
    32
1001
ACAD
1000
R13OBJECT
1002
{
1005
BE
1002
}
  0
VERTEX
  5
B3B
330
B36
100
AcDbEntity
  8
OBJECT
100
AcDbVertex
100
AcDb3dPolylineVertex
 10
6.38914
 20
3.076941999999999
 30
0.0
 70
    32
1001
ACAD
1000
R13OBJECT
1002
{
1005
BE
1002
}
  0
VERTEX
  5
B3C
330
B36
100
AcDbEntity
  8
OBJECT
100
AcDbVertex
100
AcDb3dPolylineVertex
 10
6.386949999999999
 20
3.069465
 30
0.0
 70
    32
1001
ACAD
1000
R13OBJECT
1002
{
1005
BE
1002
}
  0
VERTEX
  5
B3D
330
B36
100
AcDbEntity
  8
OBJECT
100
AcDbVertex
100
AcDb3dPolylineVertex
 10
6.386203
 20
3.061441999999999
 30
0.0
 70
    32
1001
ACAD
1000
R13OBJECT
1002
{
1005
BE
1002
}
  0
SEQEND
  5
B3E
330
B36
100
AcDbEntity
  8
OBJECT
  0
LINE
  5
B3F
330
1E
100
AcDbEntity
  8
OBJECT
100
AcDbLine
 10
6.408123
 20
2.931441999999999
 30
0.0
 11
6.386203
 21
2.931441999999999
 31
0.0
  0
POLYLINE
  5
B40
330
1E
100
AcDbEntity
  8
OBJECT
100
AcDb3dPolyline
 66
     1
 10
0.0
 20
0.0
 30
0.0
 70
     8
  0
VERTEX
  5
B41
330
B40
100
AcDbEntity
  8
OBJECT
100
AcDbVertex
100
AcDb3dPolylineVertex
 10
6.386203
 20
2.931441999999999
 30
0.0
 70
    32
1001
ACAD
1000
R13OBJECT
1002
{
1005
9A
1002
}
  0
VERTEX
  5
B42
330
B40
100
AcDbEntity
  8
OBJECT
100
AcDbVertex
100
AcDb3dPolylineVertex
 10
6.386949999999999
 20
2.923417999999999
 30
0.0
 70
    32
1001
ACAD
1000
R13OBJECT
1002
{
1005
9A
1002
}
  0
VERTEX
  5
B43
330
B40
100
AcDbEntity
  8
OBJECT
100
AcDbVertex
100
AcDb3dPolylineVertex
 10
6.38914
 20
2.915941999999999
 30
0.0
 70
    32
1001
ACAD
1000
R13OBJECT
1002
{
1005
9A
1002
}
  0
VERTEX
  5
B44
330
B40
100
AcDbEntity
  8
OBJECT
100
AcDbVertex
100
AcDb3dPolylineVertex
 10
6.392623
 20
2.909520999999999
 30
0.0
 70
    32
1001
ACAD
1000
R13OBJECT
1002
{
1005
9A
1002
}
  0
VERTEX
  5
B45
330
B40
100
AcDbEntity
  8
OBJECT
100
AcDbVertex
100
AcDb3dPolylineVertex
 10
6.397162999999999
 20
2.904595
 30
0.0
 70
    32
1001
ACAD
1000
R13OBJECT
1002
{
1005
9A
1002
}
  0
VERTEX
  5
B46
330
B40
100
AcDbEntity
  8
OBJECT
100
AcDbVertex
100
AcDb3dPolylineVertex
 10
6.402449999999999
 20
2.901498
 30
0.0
 70
    32
1001
ACAD
1000
R13OBJECT
1002
{
1005
9A
1002
}
  0
VERTEX
  5
B47
330
B40
100
AcDbEntity
  8
OBJECT
100
AcDbVertex
100
AcDb3dPolylineVertex
 10
6.408123
 20
2.900441999999999
 30
0.0
 70
    32
1001
ACAD
1000
R13OBJECT
1002
{
1005
9A
1002
}
  0
SEQEND
  5
B48
330
B40
100
AcDbEntity
  8
OBJECT
  0
LINE
  5
B49
330
1E
100
AcDbEntity
  8
OBJECT
100
AcDbLine
 10
6.408123
 20
3.092441999999999
 30
0.0
 11
6.133539999999999
 21
3.092441999999999
 31
0.0
  0
LINE
  5
B4A
330
1E
100
AcDbEntity
  8
OBJECT
100
AcDbLine
 10
6.133539999999999
 20
2.900441999999999
 30
0.0
 11
6.408123
 21
2.900441999999999
 31
0.0
  0
LINE
  5
B4B
330
1E
100
AcDbEntity
  8
OBJECT
100
AcDbLine
 10
6.386203
 20
3.061441999999999
 30
0.0
 11
6.386203
 21
2.931441999999999
 31
0.0
  0
LINE
  5
B4C
330
1E
100
AcDbEntity
  8
OBJECT
100
AcDbLine
 10
6.10254
 20
3.061441999999999
 30
0.0
 11
6.10254
 21
2.931441999999999
 31
0.0
  0
LINE
  5
B4D
330
1E
100
AcDbEntity
  8
OBJECT
100
AcDbLine
 10
6.111619999999999
 20
2.931441999999999
 30
0.0
 11
6.111619999999999
 21
3.061441999999999
 31
0.0
  0
LINE
  5
B4E
330
1E
100
AcDbEntity
  8
OBJECT
100
AcDbLine
 10
6.386203
 20
2.931441999999999
 30
0.0
 11
6.111619999999999
 21
2.931441999999999
 31
0.0
  0
LINE
  5
B4F
330
1E
100
AcDbEntity
  8
OBJECT
100
AcDbLine
 10
6.111619999999999
 20
2.931441999999999
 30
0.0
 11
6.10254
 21
2.931441999999999
 31
0.0
  0
POLYLINE
  5
B50
330
1E
100
AcDbEntity
  8
OBJECT
100
AcDb3dPolyline
 66
     1
 10
0.0
 20
0.0
 30
0.0
 70
     8
  0
VERTEX
  5
B51
330
B50
100
AcDbEntity
  8
OBJECT
100
AcDbVertex
100
AcDb3dPolylineVertex
 10
6.111619999999999
 20
2.931441999999999
 30
0.0
 70
    32
1001
ACAD
1000
R13OBJECT
1002
{
1005
97
1002
}
  0
VERTEX
  5
B52
330
B50
100
AcDbEntity
  8
OBJECT
100
AcDbVertex
100
AcDb3dPolylineVertex
 10
6.112366999999999
 20
2.923417999999999
 30
0.0
 70
    32
1001
ACAD
1000
R13OBJECT
1002
{
1005
97
1002
}
  0
VERTEX
  5
B53
330
B50
100
AcDbEntity
  8
OBJECT
100
AcDbVertex
100
AcDb3dPolylineVertex
 10
6.114556999999999
 20
2.915941999999999
 30
0.0
 70
    32
1001
ACAD
1000
R13OBJECT
1002
{
1005
97
1002
}
  0
VERTEX
  5
B54
330
B50
100
AcDbEntity
  8
OBJECT
100
AcDbVertex
100
AcDb3dPolylineVertex
 10
6.11804
 20
2.909520999999999
 30
0.0
 70
    32
1001
ACAD
1000
R13OBJECT
1002
{
1005
97
1002
}
  0
VERTEX
  5
B55
330
B50
100
AcDbEntity
  8
OBJECT
100
AcDbVertex
100
AcDb3dPolylineVertex
 10
6.12258
 20
2.904595
 30
0.0
 70
    32
1001
ACAD
1000
R13OBJECT
1002
{
1005
97
1002
}
  0
VERTEX
  5
B56
330
B50
100
AcDbEntity
  8
OBJECT
100
AcDbVertex
100
AcDb3dPolylineVertex
 10
6.127867
 20
2.901498
 30
0.0
 70
    32
1001
ACAD
1000
R13OBJECT
1002
{
1005
97
1002
}
  0
VERTEX
  5
B57
330
B50
100
AcDbEntity
  8
OBJECT
100
AcDbVertex
100
AcDb3dPolylineVertex
 10
6.133539999999999
 20
2.900441999999999
 30
0.0
 70
    32
1001
ACAD
1000
R13OBJECT
1002
{
1005
97
1002
}
  0
SEQEND
  5
B58
330
B50
100
AcDbEntity
  8
OBJECT
  0
ARC
  5
B59
330
1E
100
AcDbEntity
  8
OBJECT
100
AcDbCircle
 10
6.133539999999999
 20
2.931441999999999
 30
0.0
 40
0.031
100
AcDbArc
 50
180.0
 51
270.0
  0
LINE
  5
B5A
330
1E
100
AcDbEntity
  8
OBJECT
100
AcDbLine
 10
6.111619999999999
 20
3.061441999999999
 30
0.0
 11
6.386203
 21
3.061441999999999
 31
0.0
  0
POLYLINE
  5
B5B
330
1E
100
AcDbEntity
  8
OBJECT
100
AcDb3dPolyline
 66
     1
 10
0.0
 20
0.0
 30
0.0
 70
     8
  0
VERTEX
  5
B5C
330
B5B
100
AcDbEntity
  8
OBJECT
100
AcDbVertex
100
AcDb3dPolylineVertex
 10
6.133539999999999
 20
3.092441999999999
 30
0.0
 70
    32
1001
ACAD
1000
R13OBJECT
1002
{
1005
BA
1002
}
  0
VERTEX
  5
B5D
330
B5B
100
AcDbEntity
  8
OBJECT
100
AcDbVertex
100
AcDb3dPolylineVertex
 10
6.127867
 20
3.091384999999999
 30
0.0
 70
    32
1001
ACAD
1000
R13OBJECT
1002
{
1005
BA
1002
}
  0
VERTEX
  5
B5E
330
B5B
100
AcDbEntity
  8
OBJECT
100
AcDbVertex
100
AcDb3dPolylineVertex
 10
6.12258
 20
3.088287999999999
 30
0.0
 70
    32
1001
ACAD
1000
R13OBJECT
1002
{
1005
BA
1002
}
  0
VERTEX
  5
B5F
330
B5B
100
AcDbEntity
  8
OBJECT
100
AcDbVertex
100
AcDb3dPolylineVertex
 10
6.11804
 20
3.083361999999999
 30
0.0
 70
    32
1001
ACAD
1000
R13OBJECT
1002
{
1005
BA
1002
}
  0
VERTEX
  5
B60
330
B5B
100
AcDbEntity
  8
OBJECT
100
AcDbVertex
100
AcDb3dPolylineVertex
 10
6.114556999999999
 20
3.076941999999999
 30
0.0
 70
    32
1001
ACAD
1000
R13OBJECT
1002
{
1005
BA
1002
}
  0
VERTEX
  5
B61
330
B5B
100
AcDbEntity
  8
OBJECT
100
AcDbVertex
100
AcDb3dPolylineVertex
 10
6.112366999999999
 20
3.069465
 30
0.0
 70
    32
1001
ACAD
1000
R13OBJECT
1002
{
1005
BA
1002
}
  0
VERTEX
  5
B62
330
B5B
100
AcDbEntity
  8
OBJECT
100
AcDbVertex
100
AcDb3dPolylineVertex
 10
6.111619999999999
 20
3.061441999999999
 30
0.0
 70
    32
1001
ACAD
1000
R13OBJECT
1002
{
1005
BA
1002
}
  0
SEQEND
  5
B63
330
B5B
100
AcDbEntity
  8
OBJECT
  0
LINE
  5
B64
330
1E
100
AcDbEntity
  8
OBJECT
100
AcDbLine
 10
6.111619999999999
 20
3.061441999999999
 30
0.0
 11
6.10254
 21
3.061441999999999
 31
0.0
  0
ARC
  5
B65
330
1E
100
AcDbEntity
  8
OBJECT
100
AcDbCircle
 10
6.133539999999999
 20
3.061441999999999
 30
0.0
 40
0.031
100
AcDbArc
 50
90.0
 51
180.0
  0
LINE
  5
B66
330
1E
100
AcDbEntity
  8
OBJECT
100
AcDbLine
 10
6.277044
 20
3.092441999999999
 30
0.0
 11
6.277003999999999
 21
3.092375999999999
 31
0.0
  0
LINE
  5
B67
330
1E
100
AcDbEntity
  8
OBJECT
100
AcDbLine
 10
7.071539999999999
 20
3.092441999999999
 30
0.0
 11
6.796744
 21
3.092441999999999
 31
0.0
  0
LINE
  5
B68
330
1E
100
AcDbEntity
  8
OBJECT
100
AcDbLine
 10
6.818664
 20
3.061441999999999
 30
0.0
 11
7.093461
 21
3.061441999999999
 31
0.0
  0
LINE
  5
B69
330
1E
100
AcDbEntity
  8
OBJECT
100
AcDbLine
 10
7.093461
 20
2.931441999999999
 30
0.0
 11
6.818664
 21
2.931441999999999
 31
0.0
  0
LINE
  5
B6A
330
1E
100
AcDbEntity
  8
OBJECT
100
AcDbLine
 10
6.796744
 20
2.900441999999999
 30
0.0
 11
7.071539999999999
 21
2.900441999999999
 31
0.0
  0
LINE
  5
B6B
330
1E
100
AcDbEntity
  8
OBJECT
100
AcDbLine
 10
6.796744
 20
3.061441999999999
 30
0.0
 11
6.796744
 21
2.931441999999999
 31
0.0
  0
LINE
  5
B6C
330
1E
100
AcDbEntity
  8
OBJECT
100
AcDbLine
 10
6.818664
 20
2.931441999999999
 30
0.0
 11
6.818664
 21
3.061441999999999
 31
0.0
  0
LINE
  5
B6D
330
1E
100
AcDbEntity
  8
OBJECT
100
AcDbLine
 10
6.408123
 20
2.931441999999999
 30
0.0
 11
6.408123
 21
3.061441999999999
 31
0.0
  0
LINE
  5
B6E
330
1E
100
AcDbEntity
  8
OBJECT
100
AcDbLine
 10
6.796744
 20
2.931441999999999
 30
0.0
 11
6.408123
 21
2.931441999999999
 31
0.0
  0
LINE
  5
B6F
330
1E
100
AcDbEntity
  8
OBJECT
100
AcDbLine
 10
6.408123
 20
2.900441999999999
 30
0.0
 11
6.796744
 21
2.900441999999999
 31
0.0
  0
LINE
  5
B70
330
1E
100
AcDbEntity
  8
OBJECT
100
AcDbLine
 10
6.408123
 20
2.931441999999999
 30
0.0
 11
6.408123
 21
2.900441999999999
 31
0.0
  0
LINE
  5
B71
330
1E
100
AcDbEntity
  8
OBJECT
100
AcDbLine
 10
6.818664
 20
2.931441999999999
 30
0.0
 11
6.796744
 21
2.931441999999999
 31
0.0
  0
POLYLINE
  5
B72
330
1E
100
AcDbEntity
  8
OBJECT
100
AcDb3dPolyline
 66
     1
 10
0.0
 20
0.0
 30
0.0
 70
     8
  0
VERTEX
  5
B73
330
B72
100
AcDbEntity
  8
OBJECT
100
AcDbVertex
100
AcDb3dPolylineVertex
 10
6.796744
 20
2.900441999999999
 30
0.0
 70
    32
1001
ACAD
1000
R13OBJECT
1002
{
1005
A2
1002
}
  0
VERTEX
  5
B74
330
B72
100
AcDbEntity
  8
OBJECT
100
AcDbVertex
100
AcDb3dPolylineVertex
 10
6.802417
 20
2.901498
 30
0.0
 70
    32
1001
ACAD
1000
R13OBJECT
1002
{
1005
A2
1002
}
  0
VERTEX
  5
B75
330
B72
100
AcDbEntity
  8
OBJECT
100
AcDbVertex
100
AcDb3dPolylineVertex
 10
6.807703999999999
 20
2.904595
 30
0.0
 70
    32
1001
ACAD
1000
R13OBJECT
1002
{
1005
A2
1002
}
  0
VERTEX
  5
B76
330
B72
100
AcDbEntity
  8
OBJECT
100
AcDbVertex
100
AcDb3dPolylineVertex
 10
6.812244
 20
2.909520999999999
 30
0.0
 70
    32
1001
ACAD
1000
R13OBJECT
1002
{
1005
A2
1002
}
  0
VERTEX
  5
B77
330
B72
100
AcDbEntity
  8
OBJECT
100
AcDbVertex
100
AcDb3dPolylineVertex
 10
6.815728
 20
2.915941999999999
 30
0.0
 70
    32
1001
ACAD
1000
R13OBJECT
1002
{
1005
A2
1002
}
  0
VERTEX
  5
B78
330
B72
100
AcDbEntity
  8
OBJECT
100
AcDbVertex
100
AcDb3dPolylineVertex
 10
6.817916999999999
 20
2.923417999999999
 30
0.0
 70
    32
1001
ACAD
1000
R13OBJECT
1002
{
1005
A2
1002
}
  0
VERTEX
  5
B79
330
B72
100
AcDbEntity
  8
OBJECT
100
AcDbVertex
100
AcDb3dPolylineVertex
 10
6.818664
 20
2.931441999999999
 30
0.0
 70
    32
1001
ACAD
1000
R13OBJECT
1002
{
1005
A2
1002
}
  0
SEQEND
  5
B7A
330
B72
100
AcDbEntity
  8
OBJECT
  0
LINE
  5
B7B
330
1E
100
AcDbEntity
  8
OBJECT
100
AcDbLine
 10
6.796744
 20
2.931441999999999
 30
0.0
 11
6.796744
 21
2.900441999999999
 31
0.0
  0
LINE
  5
B7C
330
1E
100
AcDbEntity
  8
OBJECT
100
AcDbLine
 10
6.796744
 20
3.092441999999999
 30
0.0
 11
6.408123
 21
3.092441999999999
 31
0.0
  0
LINE
  5
B7D
330
1E
100
AcDbEntity
  8
OBJECT
100
AcDbLine
 10
6.408123
 20
3.061441999999999
 30
0.0
 11
6.796744
 21
3.061441999999999
 31
0.0
  0
LINE
  5
B7E
330
1E
100
AcDbEntity
  8
OBJECT
100
AcDbLine
 10
6.408123
 20
3.061441999999999
 30
0.0
 11
6.408123
 21
3.092441999999999
 31
0.0
  0
POLYLINE
  5
B7F
330
1E
100
AcDbEntity
  8
OBJECT
100
AcDb3dPolyline
 66
     1
 10
0.0
 20
0.0
 30
0.0
 70
     8
  0
VERTEX
  5
B80
330
B7F
100
AcDbEntity
  8
OBJECT
100
AcDbVertex
100
AcDb3dPolylineVertex
 10
6.818664
 20
3.061441999999999
 30
0.0
 70
    32
1001
ACAD
1000
R13OBJECT
1002
{
1005
AD
1002
}
  0
VERTEX
  5
B81
330
B7F
100
AcDbEntity
  8
OBJECT
100
AcDbVertex
100
AcDb3dPolylineVertex
 10
6.817916999999999
 20
3.069465
 30
0.0
 70
    32
1001
ACAD
1000
R13OBJECT
1002
{
1005
AD
1002
}
  0
VERTEX
  5
B82
330
B7F
100
AcDbEntity
  8
OBJECT
100
AcDbVertex
100
AcDb3dPolylineVertex
 10
6.815728
 20
3.076941999999999
 30
0.0
 70
    32
1001
ACAD
1000
R13OBJECT
1002
{
1005
AD
1002
}
  0
VERTEX
  5
B83
330
B7F
100
AcDbEntity
  8
OBJECT
100
AcDbVertex
100
AcDb3dPolylineVertex
 10
6.812244
 20
3.083361999999999
 30
0.0
 70
    32
1001
ACAD
1000
R13OBJECT
1002
{
1005
AD
1002
}
  0
VERTEX
  5
B84
330
B7F
100
AcDbEntity
  8
OBJECT
100
AcDbVertex
100
AcDb3dPolylineVertex
 10
6.807703999999999
 20
3.088287999999999
 30
0.0
 70
    32
1001
ACAD
1000
R13OBJECT
1002
{
1005
AD
1002
}
  0
VERTEX
  5
B85
330
B7F
100
AcDbEntity
  8
OBJECT
100
AcDbVertex
100
AcDb3dPolylineVertex
 10
6.802417
 20
3.091384999999999
 30
0.0
 70
    32
1001
ACAD
1000
R13OBJECT
1002
{
1005
AD
1002
}
  0
VERTEX
  5
B86
330
B7F
100
AcDbEntity
  8
OBJECT
100
AcDbVertex
100
AcDb3dPolylineVertex
 10
6.796744
 20
3.092441999999999
 30
0.0
 70
    32
1001
ACAD
1000
R13OBJECT
1002
{
1005
AD
1002
}
  0
SEQEND
  5
B87
330
B7F
100
AcDbEntity
  8
OBJECT
  0
LINE
  5
B88
330
1E
100
AcDbEntity
  8
OBJECT
100
AcDbLine
 10
6.818664
 20
3.061441999999999
 30
0.0
 11
6.796744
 21
3.061441999999999
 31
0.0
  0
LINE
  5
B89
330
1E
100
AcDbEntity
  8
OBJECT
100
AcDbLine
 10
6.796744
 20
3.092441999999999
 30
0.0
 11
6.796744
 21
3.061441999999999
 31
0.0
  0
LINE
  5
B8A
330
1E
100
AcDbEntity
  8
OBJECT
100
AcDbLine
 10
7.093461
 20
3.061441999999999
 30
0.0
 11
7.093461
 21
2.931441999999999
 31
0.0
  0
LINE
  5
B8B
330
1E
100
AcDbEntity
  8
OBJECT
100
AcDbLine
 10
7.102539999999999
 20
2.931441999999999
 30
0.0
 11
7.102539999999999
 21
3.061441999999999
 31
0.0
  0
POLYLINE
  5
B8C
330
1E
100
AcDbEntity
  8
OBJECT
100
AcDb3dPolyline
 66
     1
 10
0.0
 20
0.0
 30
0.0
 70
     8
  0
VERTEX
  5
B8D
330
B8C
100
AcDbEntity
  8
OBJECT
100
AcDbVertex
100
AcDb3dPolylineVertex
 10
7.071539999999999
 20
2.900441999999999
 30
0.0
 70
    32
1001
ACAD
1000
R13OBJECT
1002
{
1005
A5
1002
}
  0
VERTEX
  5
B8E
330
B8C
100
AcDbEntity
  8
OBJECT
100
AcDbVertex
100
AcDb3dPolylineVertex
 10
7.077213999999999
 20
2.901498
 30
0.0
 70
    32
1001
ACAD
1000
R13OBJECT
1002
{
1005
A5
1002
}
  0
VERTEX
  5
B8F
330
B8C
100
AcDbEntity
  8
OBJECT
100
AcDbVertex
100
AcDb3dPolylineVertex
 10
7.082500999999999
 20
2.904595
 30
0.0
 70
    32
1001
ACAD
1000
R13OBJECT
1002
{
1005
A5
1002
}
  0
VERTEX
  5
B90
330
B8C
100
AcDbEntity
  8
OBJECT
100
AcDbVertex
100
AcDb3dPolylineVertex
 10
7.087039999999999
 20
2.909520999999999
 30
0.0
 70
    32
1001
ACAD
1000
R13OBJECT
1002
{
1005
A5
1002
}
  0
VERTEX
  5
B91
330
B8C
100
AcDbEntity
  8
OBJECT
100
AcDbVertex
100
AcDb3dPolylineVertex
 10
7.090524
 20
2.915941999999999
 30
0.0
 70
    32
1001
ACAD
1000
R13OBJECT
1002
{
1005
A5
1002
}
  0
VERTEX
  5
B92
330
B8C
100
AcDbEntity
  8
OBJECT
100
AcDbVertex
100
AcDb3dPolylineVertex
 10
7.092713999999999
 20
2.923417999999999
 30
0.0
 70
    32
1001
ACAD
1000
R13OBJECT
1002
{
1005
A5
1002
}
  0
VERTEX
  5
B93
330
B8C
100
AcDbEntity
  8
OBJECT
100
AcDbVertex
100
AcDb3dPolylineVertex
 10
7.093461
 20
2.931441999999999
 30
0.0
 70
    32
1001
ACAD
1000
R13OBJECT
1002
{
1005
A5
1002
}
  0
SEQEND
  5
B94
330
B8C
100
AcDbEntity
  8
OBJECT
  0
LINE
  5
B95
330
1E
100
AcDbEntity
  8
OBJECT
100
AcDbLine
 10
7.102539999999999
 20
2.931441999999999
 30
0.0
 11
7.093461
 21
2.931441999999999
 31
0.0
  0
ARC
  5
B96
330
1E
100
AcDbEntity
  8
OBJECT
100
AcDbCircle
 10
7.071539999999999
 20
2.931441999999999
 30
0.0
 40
0.031
100
AcDbArc
 50
270.0
 51
0.0
  0
LINE
  5
B97
330
1E
100
AcDbEntity
  8
OBJECT
100
AcDbLine
 10
6.928077
 20
3.092375999999999
 30
0.0
 11
6.928035999999999
 21
3.092441999999999
 31
0.0
  0
ARC
  5
B98
330
1E
100
AcDbEntity
  8
OBJECT
100
AcDbCircle
 10
7.071539999999999
 20
3.061441999999999
 30
0.0
 40
0.031
100
AcDbArc
 50
0.0
 51
90.0
  0
POLYLINE
  5
B99
330
1E
100
AcDbEntity
  8
OBJECT
100
AcDb3dPolyline
 66
     1
 10
0.0
 20
0.0
 30
0.0
 70
     8
  0
VERTEX
  5
B9A
330
B99
100
AcDbEntity
  8
OBJECT
100
AcDbVertex
100
AcDb3dPolylineVertex
 10
7.093461
 20
3.061441999999999
 30
0.0
 70
    32
1001
ACAD
1000
R13OBJECT
1002
{
1005
B5
1002
}
  0
VERTEX
  5
B9B
330
B99
100
AcDbEntity
  8
OBJECT
100
AcDbVertex
100
AcDb3dPolylineVertex
 10
7.092713999999999
 20
3.069465
 30
0.0
 70
    32
1001
ACAD
1000
R13OBJECT
1002
{
1005
B5
1002
}
  0
VERTEX
  5
B9C
330
B99
100
AcDbEntity
  8
OBJECT
100
AcDbVertex
100
AcDb3dPolylineVertex
 10
7.090524
 20
3.076941999999999
 30
0.0
 70
    32
1001
ACAD
1000
R13OBJECT
1002
{
1005
B5
1002
}
  0
VERTEX
  5
B9D
330
B99
100
AcDbEntity
  8
OBJECT
100
AcDbVertex
100
AcDb3dPolylineVertex
 10
7.087039999999999
 20
3.083361999999999
 30
0.0
 70
    32
1001
ACAD
1000
R13OBJECT
1002
{
1005
B5
1002
}
  0
VERTEX
  5
B9E
330
B99
100
AcDbEntity
  8
OBJECT
100
AcDbVertex
100
AcDb3dPolylineVertex
 10
7.082500999999999
 20
3.088287999999999
 30
0.0
 70
    32
1001
ACAD
1000
R13OBJECT
1002
{
1005
B5
1002
}
  0
VERTEX
  5
B9F
330
B99
100
AcDbEntity
  8
OBJECT
100
AcDbVertex
100
AcDb3dPolylineVertex
 10
7.077213999999999
 20
3.091384999999999
 30
0.0
 70
    32
1001
ACAD
1000
R13OBJECT
1002
{
1005
B5
1002
}
  0
VERTEX
  5
BA0
330
B99
100
AcDbEntity
  8
OBJECT
100
AcDbVertex
100
AcDb3dPolylineVertex
 10
7.071539999999999
 20
3.092441999999999
 30
0.0
 70
    32
1001
ACAD
1000
R13OBJECT
1002
{
1005
B5
1002
}
  0
SEQEND
  5
BA1
330
B99
100
AcDbEntity
  8
OBJECT
  0
LINE
  5
BA2
330
1E
100
AcDbEntity
  8
OBJECT
100
AcDbLine
 10
7.102539999999999
 20
3.061441999999999
 30
0.0
 11
7.093461
 21
3.061441999999999
 31
0.0
  0
DIMENSION
  5
BA3
330
1E
100
AcDbEntity
  8
DIM
100
AcDbDimension
  2
*D2
 10
2.423565770740178
 20
11.96922599999999
 30
0.0
 11
2.423565770740176
 21
12.219226
 31
0.0
 70
    32
 71
     5
 42
0.5
  3
23NSTDI
100
AcDbAlignedDimension
 13
3.024147770740178
 23
12.46922599999999
 33
0.0
 14
3.120147770740178
 24
11.96922599999999
 34
0.0
 50
90.0
100
AcDbRotatedDimension
  0
DIMENSION
  5
BB1
330
1E
100
AcDbEntity
  8
DIM
100
AcDbDimension
  2
*D3
 10
2.458730075497539
 20
9.164181305054231
 30
0.0
 11
2.81235907549754
 21
9.51765930505423
 31
0.0
 70
    33
 71
     5
 42
1.000000332249943
  3
23NSTD
100
AcDbAlignedDimension
 13
3.651984770740178
 23
9.384933
 33
0.0
 14
2.944726770740178
 24
8.677977
 34
0.0
  0
DIMENSION
  5
BBF
330
1E
100
AcDbEntity
  8
DIM
100
AcDbDimension
  2
*D4
 10
7.076539999999999
 20
14.364491
 30
0.0
 11
6.602539999999999
 21
14.364491
 31
0.0
 70
    32
 71
     5
 42
0.9479999999999995
  3
23NSTDI
100
AcDbAlignedDimension
 13
6.12854
 23
13.526226
 33
0.0
 14
7.076539999999999
 24
13.526226
 34
0.0
100
AcDbRotatedDimension
  0
DIMENSION
  5
BCD
330
1E
100
AcDbEntity
  8
DIM
100
AcDbDimension
  2
*D5
 10
3.768147770740178
 20
11.705246
 30
0.0
 11
4.647835270740178
 21
11.705246
 31
0.0
 70
    32
  1
<>
 71
     5
 42
0.6649999999999996
  3
23NSTD
100
AcDbAlignedDimension
 13
3.103147770740178
 23
11.99700299999999
 33
0.0
 14
3.768147770740178
 24
11.99700299999999
 34
0.0
100
AcDbRotatedDimension
  0
DIMENSION
  5
BDA
330
1E
100
AcDbEntity
  8
DIM
100
AcDbDimension
  2
*D6
 10
4.107647770740178
 20
6.437689999999999
 30
0.0
 11
3.272555270740178
 21
6.437689999999999
 31
0.0
 70
    32
 71
     5
 42
1.670185
  3
23NSTD
100
AcDbAlignedDimension
 13
2.437462770740178
 23
5.976785999999999
 33
0.0
 14
4.107647770740178
 24
5.839908999999999
 34
0.0
100
AcDbRotatedDimension
  0
DIMENSION
  5
BE8
330
1E
100
AcDbEntity
  8
DIM
100
AcDbDimension
  2
*D7
 10
7.110657
 20
6.437689999999999
 30
0.0
 11
6.602540499999999
 21
6.437689999999999
 31
0.0
 70
    32
 71
     5
 42
1.016233
  3
23NSTDI
100
AcDbAlignedDimension
 13
6.094424
 23
5.839348999999999
 33
0.0
 14
7.110657
 24
5.839348999999999
 34
0.0
100
AcDbRotatedDimension
  0
LWPOLYLINE
  5
BF6
330
1E
100
AcDbEntity
  8
OBJECT
100
AcDbPolyline
 90
      156
 70
     0
 43
0.0
 10
2.518166770740178
 20
0.633861
 10
2.522679770740178
 20
0.633994
 10
2.527191770740178
 20
0.634127
 10
2.531704770740178
 20
0.634261
 10
2.536217770740178
 20
0.634394
 10
2.540730770740178
 20
0.6345270000000001
 10
2.545243770740178
 20
0.6346600000000001
 10
2.549756770740178
 20
0.634794
 10
2.554270770740178
 20
0.6349270000000001
 10
2.558784770740178
 20
0.6350600000000001
 10
2.563297770740178
 20
0.6351930000000001
 10
2.567812770740178
 20
0.6353270000000001
 10
2.572326770740178
 20
0.6354600000000001
 10
2.576840770740178
 20
0.6355930000000001
 10
2.581355770740178
 20
0.6357270000000001
 10
2.585869770740178
 20
0.6358600000000001
 10
2.590384770740178
 20
0.6359930000000001
 10
2.594899770740178
 20
0.6361270000000001
 10
2.599414770740178
 20
0.6362600000000001
 10
2.603929770740178
 20
0.636393
 10
2.608445770740178
 20
0.6365270000000001
 10
2.612961770740178
 20
0.63666
 10
2.617476770740178
 20
0.6367930000000001
 10
2.621992770740178
 20
0.6369270000000001
 10
2.626509770740178
 20
0.6370600000000001
 10
2.631025770740178
 20
0.637193
 10
2.635541770740178
 20
0.6373270000000001
 10
2.640058770740179
 20
0.63746
 10
2.644575770740178
 20
0.637594
 10
2.649092770740178
 20
0.6377270000000001
 10
2.653609770740178
 20
0.63786
 10
2.658126770740178
 20
0.637994
 10
2.662643770740178
 20
0.638127
 10
2.667161770740178
 20
0.63826
 10
2.671679770740178
 20
0.6383939999999999
 10
2.676197770740178
 20
0.6385270000000001
 10
2.680715770740178
 20
0.638661
 10
2.685233770740178
 20
0.638794
 10
2.689751770740178
 20
0.638928
 10
2.694270770740178
 20
0.639061
 10
2.698789770740178
 20
0.6391939999999999
 10
2.703307770740178
 20
0.639328
 10
2.707826770740178
 20
0.639461
 10
2.712346770740178
 20
0.639595
 10
2.716865770740178
 20
0.639728
 10
2.721385770740178
 20
0.6398620000000001
 10
2.725904770740178
 20
0.639995
 10
2.730424770740178
 20
0.640129
 10
2.734944770740178
 20
0.640262
 10
2.739464770740178
 20
0.640396
 10
2.743985770740178
 20
0.640529
 10
2.748505770740178
 20
0.640662
 10
2.753026770740178
 20
0.640796
 10
2.757547770740178
 20
0.640929
 10
2.762068770740178
 20
0.6410630000000001
 10
2.766589770740178
 20
0.641196
 10
2.771110770740178
 20
0.6413300000000001
 10
2.775631770740178
 20
0.641463
 10
2.780153770740178
 20
0.641597
 10
2.784675770740178
 20
0.6417310000000001
 10
2.789197770740178
 20
0.641864
 10
2.793719770740178
 20
0.641998
 10
2.798241770740178
 20
0.642131
 10
2.802763770740178
 20
0.642265
 10
2.807286770740178
 20
0.642398
 10
2.811809770740178
 20
0.6425320000000001
 10
2.816332770740178
 20
0.642665
 10
2.820855770740178
 20
0.6427990000000001
 10
2.825378770740178
 20
0.642932
 10
2.829901770740178
 20
0.6430660000000001
 10
2.834425770740178
 20
0.6432000000000001
 10
2.838949770740178
 20
0.6433330000000001
 10
2.843472770740178
 20
0.6434670000000001
 10
2.847996770740178
 20
0.6436
 10
2.852521770740178
 20
0.6437340000000001
 10
2.857045770740178
 20
0.643868
 10
2.861569770740178
 20
0.6440010000000001
 10
2.866094770740178
 20
0.644135
 10
2.870619770740178
 20
0.6442680000000001
 10
2.875144770740178
 20
0.644402
 10
2.879669770740178
 20
0.644536
 10
2.884194770740178
 20
0.644669
 10
2.888720770740178
 20
0.6448030000000001
 10
2.893245770740178
 20
0.644936
 10
2.897771770740178
 20
0.6450700000000001
 10
2.902297770740178
 20
0.6452040000000001
 10
2.906823770740178
 20
0.645337
 10
2.911349770740178
 20
0.6454710000000001
 10
2.915876770740178
 20
0.645605
 10
2.920402770740178
 20
0.6457380000000001
 10
2.924929770740178
 20
0.645872
 10
2.929456770740178
 20
0.6460060000000001
 10
2.933983770740178
 20
0.646139
 10
2.938510770740178
 20
0.646273
 10
2.943038770740178
 20
0.646407
 10
2.947565770740178
 20
0.64654
 10
2.952093770740178
 20
0.646674
 10
2.956621770740178
 20
0.646808
 10
2.961149770740178
 20
0.6469420000000001
 10
2.965677770740178
 20
0.647075
 10
2.970205770740178
 20
0.6472090000000001
 10
2.974734770740178
 20
0.6473430000000001
 10
2.979262770740178
 20
0.6474760000000001
 10
2.983791770740178
 20
0.6476100000000001
 10
2.988320770740178
 20
0.647744
 10
2.992849770740178
 20
0.647878
 10
2.997378770740178
 20
0.648011
 10
3.001908770740179
 20
0.648145
 10
3.006437770740178
 20
0.6482790000000001
 10
3.010967770740178
 20
0.6484130000000001
 10
3.015497770740178
 20
0.648546
 10
3.020027770740178
 20
0.6486800000000001
 10
3.024557770740178
 20
0.648814
 10
3.029088770740178
 20
0.648948
 10
3.033618770740178
 20
0.649082
 10
3.038149770740179
 20
0.649215
 10
3.042680770740178
 20
0.649349
 10
3.047211770740178
 20
0.6494830000000001
 10
3.051742770740178
 20
0.6496170000000001
 10
3.056273770740178
 20
0.6497510000000001
 10
3.060804770740178
 20
0.6498840000000001
 10
3.065336770740178
 20
0.6500180000000001
 10
3.069868770740178
 20
0.6501520000000001
 10
3.074400770740178
 20
0.650286
 10
3.078932770740178
 20
0.65042
 10
3.083464770740178
 20
0.650553
 10
3.087997770740178
 20
0.6506870000000001
 10
3.092529770740178
 20
0.650821
 10
3.097062770740178
 20
0.6509550000000001
 10
3.101595770740178
 20
0.651089
 10
3.106128770740178
 20
0.651223
 10
3.110661770740178
 20
0.651357
 10
3.115194770740178
 20
0.65149
 10
3.119728770740178
 20
0.651624
 10
3.124262770740178
 20
0.651758
 10
3.128795770740178
 20
0.6518920000000001
 10
3.133329770740178
 20
0.6520260000000001
 10
3.137864770740178
 20
0.6521600000000002
 10
3.142398770740178
 20
0.652294
 10
3.146932770740178
 20
0.652428
 10
3.151467770740179
 20
0.652561
 10
3.156002770740178
 20
0.6526950000000001
 10
3.160537770740178
 20
0.6528290000000001
 10
3.165072770740178
 20
0.652963
 10
3.169607770740178
 20
0.653097
 10
3.174142770740179
 20
0.653231
 10
3.178678770740178
 20
0.653365
 10
3.183214770740178
 20
0.653499
 10
3.187749770740178
 20
0.6536330000000001
 10
3.192285770740178
 20
0.6537670000000001
 10
3.196822770740178
 20
0.6539010000000001
 10
3.201358770740178
 20
0.654035
 10
3.205894770740178
 20
0.654169
 10
3.210431770740178
 20
0.654303
 10
3.214968770740178
 20
0.6544369999999999
 10
3.216110770740178
 20
0.65447
  0
LWPOLYLINE
  5
C94
330
1E
100
AcDbEntity
  8
OBJECT
100
AcDbPolyline
 90
      156
 70
     0
 43
0.0
 10
3.215902770740178
 20
1.629489999999999
 10
3.214968770740178
 20
1.629518
 10
3.210431770740178
 20
1.629652
 10
3.205894770740178
 20
1.629786
 10
3.201358770740178
 20
1.62992
 10
3.196822770740178
 20
1.630054
 10
3.192285770740178
 20
1.630187999999999
 10
3.187749770740178
 20
1.630321999999999
 10
3.183214770740178
 20
1.630455999999999
 10
3.178678770740178
 20
1.630589999999999
 10
3.174142770740179
 20
1.630722999999999
 10
3.169607770740178
 20
1.630856999999999
 10
3.165072770740178
 20
1.630991
 10
3.160537770740178
 20
1.631124999999999
 10
3.156002770740178
 20
1.631259
 10
3.151467770740179
 20
1.631393
 10
3.146932770740178
 20
1.631526999999999
 10
3.142398770740178
 20
1.631661
 10
3.137864770740178
 20
1.631795
 10
3.133329770740178
 20
1.631929
 10
3.128795770740178
 20
1.632062
 10
3.124262770740178
 20
1.632195999999999
 10
3.119728770740178
 20
1.632329999999999
 10
3.115194770740178
 20
1.632463999999999
 10
3.110661770740178
 20
1.632597999999999
 10
3.106128770740178
 20
1.632732
 10
3.101595770740178
 20
1.632865999999999
 10
3.097062770740178
 20
1.633
 10
3.092529770740178
 20
1.633132999999999
 10
3.087997770740178
 20
1.633267
 10
3.083464770740178
 20
1.633401
 10
3.078932770740178
 20
1.633535
 10
3.074400770740178
 20
1.633669
 10
3.069868770740178
 20
1.633803
 10
3.065336770740178
 20
1.633936
 10
3.060804770740178
 20
1.63407
 10
3.056273770740178
 20
1.634203999999999
 10
3.051742770740178
 20
1.634337999999999
 10
3.047211770740178
 20
1.634471999999999
 10
3.042680770740178
 20
1.634604999999999
 10
3.038149770740179
 20
1.634738999999999
 10
3.033618770740178
 20
1.634872999999999
 10
3.029088770740178
 20
1.635006999999999
 10
3.024557770740178
 20
1.635140999999999
 10
3.020027770740178
 20
1.635273999999999
 10
3.015497770740178
 20
1.635407999999999
 10
3.010967770740178
 20
1.635542
 10
3.006437770740178
 20
1.635676
 10
3.001908770740179
 20
1.635809
 10
2.997378770740178
 20
1.635942999999999
 10
2.992849770740178
 20
1.636077
 10
2.988320770740178
 20
1.636211
 10
2.983791770740178
 20
1.636344
 10
2.979262770740178
 20
1.636478
 10
2.974734770740178
 20
1.636612
 10
2.970205770740178
 20
1.636745
 10
2.965677770740178
 20
1.636879
 10
2.961149770740178
 20
1.637012999999999
 10
2.956621770740178
 20
1.637146999999999
 10
2.952093770740178
 20
1.637279999999999
 10
2.947565770740178
 20
1.637413999999999
 10
2.943038770740178
 20
1.637547999999999
 10
2.938510770740178
 20
1.637680999999999
 10
2.933983770740178
 20
1.637814999999999
 10
2.929456770740178
 20
1.637948999999999
 10
2.924929770740178
 20
1.638081999999999
 10
2.920402770740178
 20
1.638215999999999
 10
2.915876770740178
 20
1.638349999999999
 10
2.911349770740178
 20
1.638483
 10
2.906823770740178
 20
1.638616999999999
 10
2.902297770740178
 20
1.638750999999999
 10
2.897771770740178
 20
1.638884
 10
2.893245770740178
 20
1.639018
 10
2.888720770740178
 20
1.639151999999999
 10
2.884194770740178
 20
1.639284999999999
 10
2.879669770740178
 20
1.639419
 10
2.875144770740178
 20
1.639552999999999
 10
2.870619770740178
 20
1.639686
 10
2.866094770740178
 20
1.63982
 10
2.861569770740178
 20
1.639953
 10
2.857045770740178
 20
1.640086999999999
 10
2.852521770740178
 20
1.640220999999999
 10
2.847996770740178
 20
1.640354
 10
2.843472770740178
 20
1.640488
 10
2.838949770740178
 20
1.640620999999999
 10
2.834425770740178
 20
1.640754999999999
 10
2.829901770740178
 20
1.640889
 10
2.825378770740178
 20
1.641022
 10
2.820855770740178
 20
1.641156
 10
2.816332770740178
 20
1.641288999999999
 10
2.811809770740178
 20
1.641422999999999
 10
2.807286770740178
 20
1.641556
 10
2.802763770740178
 20
1.64169
 10
2.798241770740178
 20
1.641823
 10
2.793719770740178
 20
1.641956999999999
 10
2.789197770740178
 20
1.64209
 10
2.784675770740178
 20
1.642224
 10
2.780153770740178
 20
1.642358
 10
2.775631770740178
 20
1.642490999999999
 10
2.771110770740178
 20
1.642624999999999
 10
2.766589770740178
 20
1.642758
 10
2.762068770740178
 20
1.642891999999999
 10
2.757547770740178
 20
1.643024999999999
 10
2.753026770740178
 20
1.643158999999999
 10
2.748505770740178
 20
1.643291999999999
 10
2.743985770740178
 20
1.643425999999999
 10
2.739464770740178
 20
1.643558999999999
 10
2.734944770740178
 20
1.643691999999999
 10
2.730424770740178
 20
1.643825999999999
 10
2.725904770740178
 20
1.643958999999999
 10
2.721385770740178
 20
1.644092999999999
 10
2.716865770740178
 20
1.644225999999999
 10
2.712346770740178
 20
1.644359999999999
 10
2.707826770740178
 20
1.644492999999999
 10
2.703307770740178
 20
1.644627
 10
2.698789770740178
 20
1.644759999999999
 10
2.694270770740178
 20
1.644893999999999
 10
2.689751770740178
 20
1.645026999999999
 10
2.685233770740178
 20
1.645159999999999
 10
2.680715770740178
 20
1.645293999999999
 10
2.676197770740178
 20
1.645426999999999
 10
2.671679770740178
 20
1.645561
 10
2.667161770740178
 20
1.645693999999999
 10
2.662643770740178
 20
1.645827
 10
2.658126770740178
 20
1.645960999999999
 10
2.653609770740178
 20
1.646093999999999
 10
2.649092770740178
 20
1.646227999999999
 10
2.644575770740178
 20
1.646360999999999
 10
2.640058770740179
 20
1.646493999999999
 10
2.635541770740178
 20
1.646627999999999
 10
2.631025770740178
 20
1.646761
 10
2.626509770740178
 20
1.646893999999999
 10
2.621992770740178
 20
1.647027999999999
 10
2.617476770740178
 20
1.647161
 10
2.612961770740178
 20
1.647295
 10
2.608445770740178
 20
1.647427999999999
 10
2.603929770740178
 20
1.647561
 10
2.599414770740178
 20
1.647695
 10
2.594899770740178
 20
1.647827999999999
 10
2.590384770740178
 20
1.647961
 10
2.585869770740178
 20
1.648095
 10
2.581355770740178
 20
1.648227999999999
 10
2.576840770740178
 20
1.648360999999999
 10
2.572326770740178
 20
1.648493999999999
 10
2.567812770740178
 20
1.648627999999999
 10
2.563297770740178
 20
1.648761
 10
2.558784770740178
 20
1.648893999999999
 10
2.554270770740178
 20
1.649027999999999
 10
2.549756770740178
 20
1.649161
 10
2.545243770740178
 20
1.649293999999999
 10
2.540730770740178
 20
1.649427
 10
2.536217770740178
 20
1.649561
 10
2.531704770740178
 20
1.649693999999999
 10
2.527191770740178
 20
1.649827
 10
2.522679770740178
 20
1.649959999999999
 10
2.518166770740178
 20
1.650093999999999
  0
LWPOLYLINE
  5
D32
330
1E
100
AcDbEntity
  8
OBJECT
100
AcDbPolyline
 90
       30
 70
     0
 43
0.0
 10
3.957440770740178
 20
1.488582
 10
3.945403770740179
 20
1.499468
 10
3.939333770740178
 20
1.504695
 10
3.933443770740177
 20
1.509600999999999
 10
3.925144770740178
 20
1.516214999999999
 10
3.916293770740178
 20
1.522950999999999
 10
3.907300770740178
 20
1.5295
 10
3.898576770740178
 20
1.535559
 10
3.889543770740178
 20
1.541492
 10
3.879934770740178
 20
1.547494
 10
3.870195770740178
 20
1.553290999999999
 10
3.860772770740178
 20
1.558610999999999
 10
3.851119770740178
 20
1.563731999999999
 10
3.840878770740178
 20
1.568864999999999
 10
3.830524770740178
 20
1.573778
 10
3.820530770740178
 20
1.578239999999999
 10
3.810383770740178
 20
1.582451
 10
3.799646770740178
 20
1.586616999999999
 10
3.788816770740178
 20
1.590551
 10
3.778389770740179
 20
1.594065999999999
 10
3.767894770740178
 20
1.597295999999999
 10
3.756816770740178
 20
1.600426
 10
3.745668770740178
 20
1.603315999999999
 10
3.734961770740178
 20
1.605827
 10
3.724292770740178
 20
1.608033999999999
 10
3.713059770740178
 20
1.610088
 10
3.701780770740178
 20
1.611901
 10
3.690975770740179
 20
1.613381999999999
 10
3.680320770740178
 20
1.614561
 10
3.669263770740178
 20
1.615531
  0
LWPOLYLINE
  5
D52
330
1E
100
AcDbEntity
  8
OBJECT
100
AcDbPolyline
 90
       30
 70
     0
 43
0.0
 10
3.669033770740178
 20
0.6684070000000001
 10
3.680190770740178
 20
0.669381
 10
3.690975770740179
 20
0.6705720000000001
 10
3.701780770740178
 20
0.6720540000000001
 10
3.713059770740178
 20
0.673866
 10
3.724292770740178
 20
0.675921
 10
3.734961770740178
 20
0.6781270000000001
 10
3.745668770740178
 20
0.680638
 10
3.756816770740178
 20
0.683528
 10
3.767894770740178
 20
0.686658
 10
3.778389770740179
 20
0.6898880000000001
 10
3.788816770740178
 20
0.693403
 10
3.799646770740178
 20
0.697337
 10
3.810383770740178
 20
0.701504
 10
3.820530770740178
 20
0.705715
 10
3.830524770740178
 20
0.7101760000000001
 10
3.840878770740178
 20
0.7150890000000001
 10
3.851119770740178
 20
0.7202220000000001
 10
3.860772770740178
 20
0.7253430000000001
 10
3.870195770740178
 20
0.730664
 10
3.879934770740178
 20
0.7364609999999999
 10
3.889543770740178
 20
0.7424619999999999
 10
3.898576770740178
 20
0.748396
 10
3.907300770740178
 20
0.754454
 10
3.916293770740178
 20
0.761004
 10
3.925144770740178
 20
0.7677390000000001
 10
3.933443770740177
 20
0.774354
 10
3.939333770740178
 20
0.7792600000000001
 10
3.945403770740179
 20
0.7844860000000001
 10
3.957440770740178
 20
0.7953730000000001
  0
LWPOLYLINE
  5
D72
330
1E
100
AcDbEntity
  8
OBJECT
100
AcDbPolyline
 90
        3
 70
     0
 43
0.0
 10
3.669251770740178
 20
1.615542999999999
 10
3.675227770740178
 20
1.615064999999999
 10
3.684710770740178
 20
1.614115999999999
  0
LWPOLYLINE
  5
D77
330
1E
100
AcDbEntity
  8
OBJECT
100
AcDbPolyline
 90
       16
 70
     0
 43
0.0
 10
3.836158770740178
 20
0.712783
 10
3.825027770740178
 20
0.7076789999999999
 10
3.813769770740178
 20
0.702865
 10
3.802389770740179
 20
0.6983410000000001
 10
3.790893770740178
 20
0.694112
 10
3.779287770740178
 20
0.690179
 10
3.767575770740179
 20
0.686544
 10
3.755764770740178
 20
0.68321
 10
3.743858770740178
 20
0.68018
 10
3.731887770740178
 20
0.6774600000000001
 10
3.719853770740178
 20
0.6750510000000001
 10
3.707764770740178
 20
0.672954
 10
3.695623770740178
 20
0.67117
 10
3.683438770740178
 20
0.6697
 10
3.671213770740178
 20
0.668545
 10
3.669020770740178
 20
0.668395
  0
DIMENSION
  5
D89
330
1E
100
AcDbEntity
  8
DIM
100
AcDbDimension
  2
*D8
 10
4.555635928472208
 20
1.560719843686737
 30
0.0
 11
4.200485428472209
 21
1.912675843686737
 31
0.0
 70
    33
 71
     5
 42
1.000009807124409
  3
23NSTD
100
AcDbAlignedDimension
 13
3.216266770740178
 23
1.629854
 33
0.0
 14
3.926567770740178
 24
0.925942
 34
0.0
  0
LINE
  5
D97
330
1E
100
AcDbEntity
  8
TITLE
100
AcDbLine
 10
0.062
 20
7.687999999999999
 30
0.0
 11
10.058
 21
7.687999999999999
 31
0.0
  0
LINE
  5
D98
330
1E
100
AcDbEntity
  8
TITLE
100
AcDbLine
 10
0.062
 20
7.75
 30
0.0
 11
10.058
 21
7.75
 31
0.0
  0
LINE
  5
D99
330
1E
100
AcDbEntity
  8
TITLE
100
AcDbLine
 10
0.062
 20
7.269999999999999
 30
0.0
 11
10.058
 21
7.269999999999999
 31
0.0
  0
LINE
  5
D9A
330
1E
100
AcDbEntity
  8
TITLE
100
AcDbLine
 10
0.812
 20
7.687999999999999
 30
0.0
 11
0.812
 21
7.269999999999999
 31
0.0
  0
LINE
  5
D9B
330
1E
100
AcDbEntity
  8
TITLE
100
AcDbLine
 10
5.505347445923203
 20
7.687999999999999
 30
0.0
 11
5.505347445923203
 21
7.269999999999999
 31
0.0
  0
LINE
  5
D9C
330
1E
100
AcDbEntity
  8
TITLE
100
AcDbLine
 10
4.755347445923203
 20
7.687999999999999
 30
0.0
 11
4.755347445923203
 21
7.269999999999999
 31
0.0
  0
LINE
  5
D9D
330
1E
100
AcDbEntity
  8
TITLE
100
AcDbLine
 10
4.693347445923202
 20
7.687999999999999
 30
0.0
 11
4.693347445923202
 21
7.269999999999999
 31
0.0
  0
DIMENSION
  5
D9E
330
1E
100
AcDbEntity
  8
DIM
100
AcDbDimension
  2
*D9
 10
7.682514999999999
 20
5.460812
 30
0.0
 11
7.682514999999998
 21
5.718553500000001
 31
0.0
 70
    32
 71
     5
 42
0.5154829999999988
  3
23NSTDI
100
AcDbAlignedDimension
 13
6.639835
 23
5.976294999999999
 33
0.0
 14
7.104092999999998
 24
5.460812
 34
0.0
 50
90.0
100
AcDbRotatedDimension
  0
DIMENSION
  5
DAC
330
1E
100
AcDbEntity
  8
DIM
100
AcDbDimension
  2
*D10
 10
4.503145770740178
 20
4.845812
 30
0.0
 11
4.503145770740177
 21
5.095812000000001
 31
0.0
 70
    32
 71
     5
 42
0.5
  3
23NSTDI
100
AcDbAlignedDimension
 13
3.904647770740178
 23
5.345812
 33
0.0
 14
3.751147770740178
 24
4.845812
 34
0.0
 50
270.0
100
AcDbRotatedDimension
  0
DIMENSION
  5
DBA
330
1E
100
AcDbEntity
  8
DIM
100
AcDbDimension
  2
*D11
 10
5.011358770740178
 20
5.460812
 30
0.0
 11
5.648546270740178
 21
5.820812000000001
 31
0.0
 70
    32
 71
     5
 42
0.1150000000000002
  3
23NSTD
100
AcDbAlignedDimension
 13
3.904647770740178
 23
5.345812
 33
0.0
 14
4.107647770740178
 24
5.460812
 34
0.0
 50
90.0
100
AcDbRotatedDimension
  0
DIMENSION
  5
DC8
330
1E
100
AcDbEntity
  8
DIM
100
AcDbDimension
  2
*D12
 10
3.103147770740178
 20
4.461701
 30
0.0
 11
2.223460270740178
 21
4.461701
 31
0.0
 70
    32
 71
     5
 42
0.6649999999999996
  3
23NSTD
100
AcDbAlignedDimension
 13
3.768147770740178
 23
4.87359
 33
0.0
 14
3.103147770740178
 24
4.87359
 34
0.0
100
AcDbRotatedDimension
  0
LWPOLYLINE
  5
DD5
330
1E
100
AcDbEntity
  8
DIM
100
AcDbPolyline
 90
        4
 70
     0
 10
3.002652770740178
 20
11.193245
 40
0.0
 41
0.0675
 10
2.844367770740178
 20
11.10753699999999
 40
0.0
 41
0.0
 10
2.484367770740179
 20
10.912604
 40
0.0
 41
0.0
 10
2.304367770740178
 20
10.912604
 40
0.0
 41
0.0
  0
TEXT
  5
DDB
330
1E
100
AcDbEntity
  8
DIM
100
AcDbText
 10
1.026867770740178
 20
10.850104
 30
0.0
 40
0.125
  1
RUBBER GASKET
 41
0.75
  7
TXT
 72
     2
 11
2.214367770740178
 21
10.912604
 31
0.0
100
AcDbText
 73
     2
  0
LWPOLYLINE
  5
DDC
330
1E
100
AcDbEntity
  8
DIM
100
AcDbPolyline
 90
        4
 70
     0
 10
3.935608770740178
 20
10.45862999999999
 40
0.0
 41
0.0675
 10
4.091398770740178
 20
10.548794
 40
0.0
 41
0.0
 10
4.385919770740178
 20
10.719247
 40
0.0
 41
0.0
 10
4.565919770740178
 20
10.719247
 40
0.0
 41
0.0
  0
TEXT
  5
DE2
330
1E
100
AcDbEntity
  8
DIM
100
AcDbText
 10
4.655919770740178
 20
10.65674699999999
 30
0.0
 40
0.125
  1
NUT
 41
0.75
  7
TXT
 11
4.655919770740178
 21
10.719247
 31
0.0
100
AcDbText
 73
     2
  0
TEXT
  5
DE3
330
1E
100
AcDbEntity
  8
TEXT
100
AcDbText
 10
6.791694999999999
 20
9.554762393277739
 30
0.0
 40
0.125
  1
MATERIAL: ABS
 41
0.75
  7
TXT
100
AcDbText
  0
TEXT
  5
DE4
330
1E
100
AcDbEntity
  8
TEXT
100
AcDbText
 10
6.791694999999999
 20
9.346429393277739
 30
0.0
 40
0.125
  1
COLOR: LIGHT GRAY
 41
0.75
  7
TXT
100
AcDbText
  0
TEXT
  5
DE5
330
1E
100
AcDbEntity
  8
TEXT
100
AcDbText
 10
1.33515236824086
 20
15.122214
 30
0.0
 40
0.188
  1
AIR AND MOISTURE VENT
 41
0.75
  7
TXT
 72
     1
 11
2.76865236824086
 21
15.122214
 31
0.0
100
AcDbText
  0
TEXT
  5
DE6
330
1E
100
AcDbEntity
  8
TEXT
100
AcDbText
 10
6.139170536945801
 20
15.122214
 30
0.0
 40
0.188
  1
NBX-10910
 41
0.75
  7
TXT
 72
     1
 11
6.679670536945801
 21
15.122214
 31
0.0
100
AcDbText
  0
TEXT
  5
DE7
330
1E
100
AcDbEntity
  8
TEXT
100
AcDbText
 10
1.34644669908342
 20
7.372213999999999
 30
0.0
 40
0.188
  1
AIR AND MOISTURE VENT
 41
0.75
  7
TXT
 72
     1
 11
2.77994669908342
 21
7.372213999999999
 31
0.0
100
AcDbText
  0
TEXT
  5
DE8
330
1E
100
AcDbEntity
  8
TEXT
100
AcDbText
 10
6.1509205369458
 20
7.372213999999999
 30
0.0
 40
0.188
  1
NBX-10911
 41
0.75
  7
TXT
 72
     1
 11
6.679670536945801
 21
7.372213999999999
 31
0.0
100
AcDbText
  0
TEXT
  5
DE9
330
1E
100
AcDbEntity
  8
TEXT
100
AcDbText
 10
6.791694999999999
 20
1.608415072341216
 30
0.0
 40
0.125
  1
COLOR: LIGHT GRAY
 41
0.75
  7
TXT
100
AcDbText
  0
TEXT
  5
DEA
330
1E
100
AcDbEntity
  8
TEXT
100
AcDbText
 10
6.791694999999999
 20
1.816748072341216
 30
0.0
 40
0.125
  1
MATERIAL: ABS
 41
0.75
  7
TXT
100
AcDbText
  0
LWPOLYLINE
  5
DEB
330
1E
100
AcDbEntity
  8
DIM
100
AcDbPolyline
 90
        4
 70
     0
 10
3.002652770740178
 20
3.696918
 40
0.0
 41
0.0675
 10
2.844367770740178
 20
3.611209999999999
 40
0.0
 41
0.0
 10
2.484367770740179
 20
3.416276999999999
 40
0.0
 41
0.0
 10
2.304367770740178
 20
3.416276999999999
 40
0.0
 41
0.0
  0
TEXT
  5
DF1
330
1E
100
AcDbEntity
  8
DIM
100
AcDbText
 10
1.026867770740178
 20
3.353776999999999
 30
0.0
 40
0.125
  1
RUBBER GASKET
 41
0.75
  7
TXT
 72
     2
 11
2.214367770740178
 21
3.416276999999999
 31
0.0
100
AcDbText
 73
     2
  0
LWPOLYLINE
  5
DF2
330
1E
100
AcDbEntity
  8
DIM
100
AcDbPolyline
 90
        4
 70
     0
 10
3.935608770740178
 20
3.09721
 40
0.0
 41
0.0675
 10
4.091398770740178
 20
3.187373
 40
0.0
 41
0.0
 10
4.385919770740178
 20
3.357826
 40
0.0
 41
0.0
 10
4.565919770740178
 20
3.357826
 40
0.0
 41
0.0
  0
TEXT
  5
DF8
330
1E
100
AcDbEntity
  8
DIM
100
AcDbText
 10
4.655919770740178
 20
3.295326
 30
0.0
 40
0.125
  1
NUT
 41
0.75
  7
TXT
 11
4.655919770740178
 21
3.357826
 31
0.0
100
AcDbText
 73
     2
  0
TEXT
  5
DF9
330
1E
100
AcDbEntity
  8
TEXT
100
AcDbText
 10
4.919700779256535
 20
7.517744999999999
 30
0.0
 40
0.125
  1
PART
  7
TXT
 72
     1
 11
5.148867445923202
 21
7.517744999999999
 31
0.0
100
AcDbText
  0
TEXT
  5
DFA
330
1E
100
AcDbEntity
  8
TEXT
100
AcDbText
 10
5.023867445923202
 20
7.309411999999999
 30
0.0
 40
0.125
  1
No.
  7
TXT
 72
     1
 11
5.148867445923202
 21
7.309411999999999
 31
0.0
100
AcDbText
  0
TEXT
  5
DFB
330
1E
100
AcDbEntity
  8
TEXT
100
AcDbText
 10
0.2157733333333333
 20
7.309411999999999
 30
0.0
 40
0.125
  1
NAME
  7
TXT
 72
     1
 11
0.44494
 21
7.309411999999999
 31
0.0
100
AcDbText
  0
TEXT
  5
DFC
330
1E
100
AcDbEntity
  8
TEXT
100
AcDbText
 10
0.2157733333333333
 20
7.517744999999999
 30
0.0
 40
0.125
  1
PART
  7
TXT
 72
     1
 11
0.44494
 21
7.517744999999999
 31
0.0
100
AcDbText
  0
TEXT
  5
DFD
330
1E
100
AcDbEntity
  8
TEXT
100
AcDbText
 10
6.7701
 20
8.365250999999998
 30
0.0
 40
0.125
  1
DIMENSIONS =
 41
0.75
  7
TXT
100
AcDbText
  0
TEXT
  5
DFE
330
1E
100
AcDbEntity
  8
TEXT
100
AcDbText
 10
8.204639999999999
 20
8.464396
 30
0.0
 40
0.125
  1
INCHES
 41
0.75
  7
TXT
 72
     1
 11
8.454639999999999
 21
8.464396
 31
0.0
100
AcDbText
  0
TEXT
  5
DFF
330
1E
100
AcDbEntity
  8
TEXT
100
AcDbText
 10
7.923389999999999
 20
8.256063000000001
 30
0.0
 40
0.125
  1
(MILLIMETERS)
 41
0.75
  7
TXT
 72
     1
 11
8.454639999999999
 21
8.256063000000001
 31
0.0
100
AcDbText
  0
TEXT
  5
E00
330
1E
100
AcDbEntity
  8
TEXT
100
AcDbText
 10
7.923389999999999
 20
0.5060630000000001
 30
0.0
 40
0.125
  1
(MILLIMETERS)
 41
0.75
  7
TXT
 72
     1
 11
8.454639999999999
 21
0.5060630000000001
 31
0.0
100
AcDbText
  0
TEXT
  5
E01
330
1E
100
AcDbEntity
  8
TEXT
100
AcDbText
 10
6.7701
 20
0.615251
 30
0.0
 40
0.125
  1
DIMENSIONS =
 41
0.75
  7
TXT
100
AcDbText
  0
TEXT
  5
E02
330
1E
100
AcDbEntity
  8
TEXT
100
AcDbText
 10
8.204639999999999
 20
0.714396
 30
0.0
 40
0.125
  1
INCHES
 41
0.75
  7
TXT
 72
     1
 11
8.454639999999999
 21
0.714396
 31
0.0
100
AcDbText
  0
TEXT
  5
1025
330
1E
100
AcDbEntity
  8
TEXT
100
AcDbText
 10
6.791694999999999
 20
1.161407715727989
 30
0.0
 40
0.125
  1
MOUNTING HOLE SIZE:  0.688 [17.5] DIA.
 41
0.75
  7
TXT
100
AcDbText
  0
TEXT
  5
102A
330
1E
100
AcDbEntity
  8
TEXT
100
AcDbText
 10
6.791694999999999
 20
8.878458270420434
 30
0.0
 40
0.125
  1
MOUNTING HOLE SIZE:  0.688 [17.5] DIA.
 41
0.75
  7
TXT
100
AcDbText
  0
TEXT
  5
102B
330
1E
100
AcDbEntity
  8
TEXT
100
AcDbText
 10
0.2078333333333334
 20
15.060079
 30
0.0
 40
0.125
  1
NAME
  7
TXT
 72
     1
 11
0.4370000000000001
 21
15.060079
 31
0.0
100
AcDbText
  0
TEXT
  5
102C
330
1E
100
AcDbEntity
  8
TEXT
100
AcDbText
 10
0.2078333333333334
 20
15.268413
 30
0.0
 40
0.125
  1
PART
  7
TXT
 72
     1
 11
0.4370000000000001
 21
15.268413
 31
0.0
100
AcDbText
  0
TEXT
  5
102D
330
1E
100
AcDbEntity
  8
TEXT
100
AcDbText
 10
5.005347445923203
 20
15.060079
 30
0.0
 40
0.125
  1
No.
  7
TXT
 72
     1
 11
5.130347445923203
 21
15.060079
 31
0.0
100
AcDbText
  0
TEXT
  5
102E
330
1E
100
AcDbEntity
  8
TEXT
100
AcDbText
 10
4.901180779256536
 20
15.268413
 30
0.0
 40
0.125
  1
PART
  7
TXT
 72
     1
 11
5.130347445923203
 21
15.268413
 31
0.0
100
AcDbText
  0
LINE
  5
102F
330
1E
100
AcDbEntity
  8
TITLE
100
AcDbLine
 10
5.505347445923203
 20
15.438
 30
0.0
 11
5.505347445923203
 21
15.01999999999999
 31
0.0
  0
LINE
  5
1030
330
1E
100
AcDbEntity
  8
TITLE
100
AcDbLine
 10
4.755347445923203
 20
15.438
 30
0.0
 11
4.755347445923203
 21
15.01999999999999
 31
0.0
  0
LINE
  5
1031
330
1E
100
AcDbEntity
  8
TITLE
100
AcDbLine
 10
4.693347445923202
 20
15.438
 30
0.0
 11
4.693347445923202
 21
15.01999999999999
 31
0.0
  0
LINE
  5
1032
330
1E
100
AcDbEntity
  8
TITLE
100
AcDbLine
 10
0.812
 20
15.01999999999999
 30
0.0
 11
0.812
 21
15.438
 31
0.0
  0
LINE
  5
1033
330
1E
100
AcDbEntity
  8
TITLE
100
AcDbLine
 10
0.062
 20
15.01999999999999
 30
0.0
 11
10.058
 21
15.01999999999999
 31
0.0
  0
LINE
  5
1034
330
1E
100
AcDbEntity
  8
TITLE
100
AcDbLine
 10
10.058
 20
0.062
 30
0.0
 11
0.062
 21
0.062
 31
0.0
  0
LINE
  5
1035
330
1E
100
AcDbEntity
  8
TITLE
100
AcDbLine
 10
10.058
 20
15.438
 30
0.0
 11
10.058
 21
0.062
 31
0.0
  0
LINE
  5
1036
330
1E
100
AcDbEntity
  8
TITLE
100
AcDbLine
 10
0.062
 20
15.438
 30
0.0
 11
10.058
 21
15.438
 31
0.0
  0
LINE
  5
1037
330
1E
100
AcDbEntity
  8
TITLE
100
AcDbLine
 10
0.062
 20
0.062
 30
0.0
 11
0.062
 21
15.438
 31
0.0
  0
LINE
  5
1038
330
1E
100
AcDbEntity
  8
TITLE
100
AcDbLine
 10
0.0
 20
0.0
 30
0.0
 11
0.0
 21
15.5
 31
0.0
  0
LINE
  5
1039
330
1E
100
AcDbEntity
  8
TITLE
100
AcDbLine
 10
10.12
 20
0.0
 30
0.0
 11
0.0
 21
0.0
 31
0.0
  0
LINE
  5
103A
330
1E
100
AcDbEntity
  8
TITLE
100
AcDbLine
 10
10.12
 20
15.5
 30
0.0
 11
10.12
 21
0.0
 31
0.0
  0
LINE
  5
103B
330
1E
100
AcDbEntity
  8
TITLE
100
AcDbLine
 10
0.0
 20
15.5
 30
0.0
 11
10.12
 21
15.5
 31
0.0
  0
LINE
  5
103D
330
1E
100
AcDbEntity
  8
TITLE
100
AcDbLine
 10
7.842589847441993
 20
15.438
 30
0.0
 11
7.842589847441993
 21
15.01999999999999
 31
0.0
  0
TEXT
  5
103E
330
1E
100
AcDbEntity
  8
TEXT
100
AcDbText
 10
8.071256514108659
 20
15.268413
 30
0.0
 40
0.125
  1
REV.
  7
TXT
 72
     1
 11
8.279589847441993
 21
15.268413
 31
0.0
100
AcDbText
  0
TEXT
  5
103F
330
1E
100
AcDbEntity
  8
TEXT
100
AcDbText
 10
8.050423180775327
 20
15.060079
 30
0.0
 40
0.125
  1
DATE
  7
TXT
 72
     1
 11
8.279589847441993
 21
15.060079
 31
0.0
100
AcDbText
  0
LINE
  5
1040
330
1E
100
AcDbEntity
  8
TITLE
100
AcDbLine
 10
7.904589847441994
 20
15.438
 30
0.0
 11
7.904589847441994
 21
15.01999999999999
 31
0.0
  0
LINE
  5
1041
330
1E
100
AcDbEntity
  8
TITLE
100
AcDbLine
 10
8.654589847441993
 20
15.438
 30
0.0
 11
8.654589847441993
 21
15.01999999999999
 31
0.0
  0
TEXT
  5
1042
330
1E
100
AcDbEntity
  8
TEXT
100
AcDbText
 10
8.893504946437177
 20
15.122214
 30
0.0
 40
0.188
  1
8-27-08
 41
0.75
  7
TXT
 72
     1
 11
9.351754946437177
 21
15.122214
 31
0.0
100
AcDbText
  0
TEXT
  5
1055
330
1E
100
AcDbEntity
  8
TEXT
100
AcDbText
 10
8.089776514108658
 20
7.517744999999999
 30
0.0
 40
0.125
  1
REV.
  7
TXT
 72
     1
 11
8.298109847441992
 21
7.517744999999999
 31
0.0
100
AcDbText
  0
TEXT
  5
1056
330
1E
100
AcDbEntity
  8
TEXT
100
AcDbText
 10
8.068943180775326
 20
7.309411999999999
 30
0.0
 40
0.125
  1
DATE
  7
TXT
 72
     1
 11
8.298109847441992
 21
7.309411999999999
 31
0.0
100
AcDbText
  0
LINE
  5
1057
330
1E
100
AcDbEntity
  8
TITLE
100
AcDbLine
 10
7.904589847441994
 20
7.687999999999999
 30
0.0
 11
7.904589847441994
 21
7.269999999999999
 31
0.0
  0
LINE
  5
1058
330
1E
100
AcDbEntity
  8
TITLE
100
AcDbLine
 10
7.842589847441993
 20
7.687999999999999
 30
0.0
 11
7.842589847441993
 21
7.269999999999999
 31
0.0
  0
LINE
  5
1059
330
1E
100
AcDbEntity
  8
TITLE
100
AcDbLine
 10
8.654589847441993
 20
7.687999999999999
 30
0.0
 11
8.654589847441993
 21
7.269999999999999
 31
0.0
  0
TEXT
  5
105A
330
1E
100
AcDbEntity
  8
TEXT
100
AcDbText
 10
8.893504946437177
 20
7.372214000000001
 30
0.0
 40
0.188
  1
8-27-08
 41
0.75
  7
TXT
 72
     1
 11
9.351754946437177
 21
7.372214000000001
 31
0.0
100
AcDbText
  0
ENDSEC
  0
SECTION
  2
OBJECTS
  0
DICTIONARY
  5
C
330
0
100
AcDbDictionary
281
     1
  3
ACAD_GROUP
350
D
  3
ACAD_LAYOUT
350
19
  3
ACAD_MLINESTYLE
350
16
  3
ACAD_PLOTSETTINGS
350
18
  3
ACAD_PLOTSTYLENAME
350
E
  0
DICTIONARY
  5
D
102
{ACAD_REACTORS
330
C
102
}
330
C
100
AcDbDictionary
281
     1
  0
DICTIONARY
  5
19
102
{ACAD_REACTORS
330
C
102
}
330
C
100
AcDbDictionary
281
     1
  3
Layout1
350
1D
  3
Model
350
21
  0
DICTIONARY
  5
16
102
{ACAD_REACTORS
330
C
102
}
330
C
100
AcDbDictionary
281
     1
  3
Standard
350
17
  0
DICTIONARY
  5
18
102
{ACAD_REACTORS
330
C
102
}
330
C
100
AcDbDictionary
281
     1
  0
ACDBDICTIONARYWDFLT
  5
E
102
{ACAD_REACTORS
330
C
102
}
330
C
100
AcDbDictionary
281
     1
  3
Normal
350
F
100
AcDbDictionaryWithDefault
340
F
  0
LAYOUT
  5
1D
102
{ACAD_REACTORS
330
19
102
}
330
19
100
AcDbPlotSettings
  1

  2
None
  4

  6

 40
0.0
 41
0.0
 42
0.0
 43
0.0
 44
0.0
 45
0.0
 46
0.0
 47
0.0
 48
0.0
 49
0.0
140
0.0
141
0.0
142
1.0
143
1.0
 70
   688
 72
     0
 73
     0
 74
     5
  7
monochrome.ctb
 75
    16
147
1.0
148
0.0
149
0.0
100
AcDbLayout
  1
Layout1
 70
     1
 71
     1
 10
0.0
 20
0.0
 11
12.0
 21
9.0
 12
0.0
 22
0.0
 32
0.0
 14
1.000000000000000E+20
 24
1.000000000000000E+20
 34
1.000000000000000E+20
 15
-1.000000000000000E+20
 25
-1.000000000000000E+20
 35
-1.000000000000000E+20
146
0.0
 13
0.0
 23
0.0
 33
0.0
 16
1.0
 26
0.0
 36
0.0
 17
0.0
 27
1.0
 37
0.0
 76
     0
330
1A
  0
LAYOUT
  5
21
102
{ACAD_REACTORS
330
19
102
}
330
19
100
AcDbPlotSettings
  1

  2
none_device
  4
Letter_(8.50_x_11.00_Inches)
  6

 40
6.349999904632568
 41
6.349999904632568
 42
6.350006103515625
 43
6.350006103515625
 44
215.8999938964843
 45
279.3999938964843
 46
0.0
 47
0.0
 48
0.0
 49
0.0
140
0.0
141
0.0
142
1.0
143
1.0
 70
 11952
 72
     0
 73
     1
 74
     0
  7

 75
     0
147
1.0
148
70.3126988721234
149
1.986697599384702
100
AcDbLayout
  1
Model
 70
     1
 71
     0
 10
0.0
 20
0.0
 11
12.0
 21
9.0
 12
0.0
 22
0.0
 32
0.0
 14
0.0
 24
0.0
 34
0.0
 15
0.0
 25
0.0
 35
0.0
146
0.0
 13
0.0
 23
0.0
 33
0.0
 16
1.0
 26
0.0
 36
0.0
 17
0.0
 27
1.0
 37
0.0
 76
     0
330
1E
  0
MLINESTYLE
  5
17
102
{ACAD_REACTORS
330
16
102
}
330
16
100
AcDbMlineStyle
  2
STANDARD
 70
     0
  3

 62
   256
 51
90.0
 52
90.0
 71
     2
 49
0.5
 62
   256
  6
BYLAYER
 49
-0.5
 62
   256
  6
BYLAYER
  0
ACDBPLACEHOLDER
  5
F
102
{ACAD_REACTORS
330
E
102
}
330
E
  0
ENDSEC
  0
EOF
