  0
SECTION
  2
HEADER
  9
$ACADVER
  1
AC1014
  9
$ACADMAINTVER
 70
     9
  9
$DWGCODEPAGE
  3
ANSI_1252
  9
$INSBASE
 10
0.0
 20
0.0
 30
0.0
  9
$EXTMIN
 10
-0.0004631343026169
 20
-0.001093956431113
 30
-0.0000000000000058
  9
$EXTMAX
 10
10.12046332281237
 20
15.50071334341772
 30
0.0000000000000104
  9
$LIMMIN
 10
0.0
 20
0.0
  9
$LIMMAX
 10
10.12
 20
15.49999999999999
  9
$ORTHOMODE
 70
     1
  9
$REGENMODE
 70
     1
  9
$FILLMODE
 70
     1
  9
$QTEXTMODE
 70
     0
  9
$MIRRTEXT
 70
     0
  9
$DRAGMODE
 70
     2
  9
$LTSCALE
 40
0.25
  9
$OSMODE
 70
   229
  9
$ATTMODE
 70
     1
  9
$TEXTSIZE
 40
0.125
  9
$TRACEWID
 40
0.05
  9
$TEXTSTYLE
  7
TXT
  9
$CLAYER
  8
OBJECT
  9
$CELTYPE
  6
BYLAYER
  9
$CECOLOR
 62
   256
  9
$CELTSCALE
 40
1.0
  9
$DELOBJ
 70
     1
  9
$DISPSILH
 70
     0
  9
$DIMSCALE
 40
1.0
  9
$DIMASZ
 40
0.18
  9
$DIMEXO
 40
0.063
  9
$DIMDLI
 40
0.281
  9
$DIMRND
 40
0.0
  9
$DIMDLE
 40
0.0
  9
$DIMEXE
 40
0.093
  9
$DIMTP
 40
0.0
  9
$DIMTM
 40
0.0
  9
$DIMTXT
 40
0.125
  9
$DIMCEN
 40
0.09
  9
$DIMTSZ
 40
0.0
  9
$DIMTOL
 70
     0
  9
$DIMLIM
 70
     0
  9
$DIMTIH
 70
     1
  9
$DIMTOH
 70
     1
  9
$DIMSE1
 70
     0
  9
$DIMSE2
 70
     0
  9
$DIMTAD
 70
     0
  9
$DIMZIN
 70
     0
  9
$DIMBLK
  1

  9
$DIMASO
 70
     1
  9
$DIMSHO
 70
     1
  9
$DIMPOST
  1

  9
$DIMAPOST
  1

  9
$DIMALT
 70
     1
  9
$DIMALTD
 70
     2
  9
$DIMALTF
 40
25.4
  9
$DIMLFAC
 40
1.0
  9
$DIMTOFL
 70
     0
  9
$DIMTVP
 40
0.0
  9
$DIMTIX
 70
     0
  9
$DIMSOXD
 70
     0
  9
$DIMSAH
 70
     0
  9
$DIMBLK1
  1

  9
$DIMBLK2
  1

  9
$DIMSTYLE
  2
23NSTD
  9
$DIMCLRD
 70
     0
  9
$DIMCLRE
 70
     0
  9
$DIMCLRT
 70
     0
  9
$DIMTFAC
 40
1.0
  9
$DIMGAP
 40
0.09
  9
$DIMJUST
 70
     0
  9
$DIMSD1
 70
     0
  9
$DIMSD2
 70
     0
  9
$DIMTOLJ
 70
     1
  9
$DIMTZIN
 70
     0
  9
$DIMALTZ
 70
     0
  9
$DIMALTTZ
 70
     0
  9
$DIMFIT
 70
     1
  9
$DIMUPT
 70
     0
  9
$DIMUNIT
 70
     2
  9
$DIMDEC
 70
     3
  9
$DIMTDEC
 70
     3
  9
$DIMALTU
 70
     2
  9
$DIMALTTD
 70
     2
  9
$DIMTXSTY
  7
TXT
  9
$DIMAUNIT
 70
     0
  9
$LUNITS
 70
     2
  9
$LUPREC
 70
     3
  9
$SKETCHINC
 40
0.1
  9
$FILLETRAD
 40
0.0
  9
$AUNITS
 70
     0
  9
$AUPREC
 70
     0
  9
$MENU
  1
acad
  9
$ELEVATION
 40
0.0
  9
$PELEVATION
 40
0.0
  9
$THICKNESS
 40
0.0
  9
$LIMCHECK
 70
     0
  9
$BLIPMODE
 70
     0
  9
$CHAMFERA
 40
0.0
  9
$CHAMFERB
 40
0.0
  9
$CHAMFERC
 40
0.0
  9
$CHAMFERD
 40
0.0
  9
$SKPOLY
 70
     0
  9
$TDCREATE
 40
2450617.600959838
  9
$TDUPDATE
 40
2455440.354520578
  9
$TDINDWG
 40
0.4031182176
  9
$TDUSRTIMER
 40
0.4031182176
  9
$USRTIMER
 70
     1
  9
$ANGBASE
 50
0.0
  9
$ANGDIR
 70
     0
  9
$PDMODE
 70
     0
  9
$PDSIZE
 40
0.0
  9
$PLINEWID
 40
0.0
  9
$COORDS
 70
     2
  9
$SPLFRAME
 70
     0
  9
$SPLINETYPE
 70
     6
  9
$SPLINESEGS
 70
     8
  9
$ATTDIA
 70
     0
  9
$ATTREQ
 70
     1
  9
$HANDLING
 70
  4097
  9
$HANDSEED
  5
A5D
  9
$SURFTAB1
 70
     6
  9
$SURFTAB2
 70
     6
  9
$SURFTYPE
 70
     6
  9
$SURFU
 70
     6
  9
$SURFV
 70
     6
  9
$UCSNAME
  2

  9
$UCSORG
 10
0.0
 20
0.0
 30
0.0
  9
$UCSXDIR
 10
1.0
 20
0.0
 30
0.0
  9
$UCSYDIR
 10
0.0
 20
1.0
 30
0.0
  9
$PUCSNAME
  2

  9
$PUCSORG
 10
0.0
 20
0.0
 30
0.0
  9
$PUCSXDIR
 10
1.0
 20
0.0
 30
0.0
  9
$PUCSYDIR
 10
0.0
 20
1.0
 30
0.0
  9
$USERI1
 70
     0
  9
$USERI2
 70
     0
  9
$USERI3
 70
     0
  9
$USERI4
 70
     0
  9
$USERI5
 70
     0
  9
$USERR1
 40
0.0
  9
$USERR2
 40
0.0
  9
$USERR3
 40
0.0
  9
$USERR4
 40
0.0
  9
$USERR5
 40
0.0
  9
$WORLDVIEW
 70
     1
  9
$SHADEDGE
 70
     3
  9
$SHADEDIF
 70
    70
  9
$TILEMODE
 70
     1
  9
$MAXACTVP
 70
    16
  9
$PINSBASE
 10
0.0
 20
0.0
 30
0.0
  9
$PLIMCHECK
 70
     0
  9
$PEXTMIN
 10
1.000000000000000E+20
 20
1.000000000000000E+20
 30
1.000000000000000E+20
  9
$PEXTMAX
 10
-1.000000000000000E+20
 20
-1.000000000000000E+20
 30
-1.000000000000000E+20
  9
$PLIMMIN
 10
0.0
 20
0.0
  9
$PLIMMAX
 10
12.0
 20
9.0
  9
$UNITMODE
 70
     0
  9
$VISRETAIN
 70
     0
  9
$PLINEGEN
 70
     0
  9
$PSLTSCALE
 70
     1
  9
$TREEDEPTH
 70
  3020
  9
$PICKSTYLE
 70
     1
  9
$CMLSTYLE
  2
STANDARD
  9
$CMLJUST
 70
     0
  9
$CMLSCALE
 40
1.0
  9
$PROXYGRAPHICS
 70
     1
  9
$MEASUREMENT
 70
     0
  0
ENDSEC
  0
SECTION
  2
CLASSES
  0
CLASS
  1
ACDBDICTIONARYWDFLT
  2
AcDbDictionaryWithDefault
  3
AutoCAD 2000
 90
        0
280
     0
281
     0
  0
CLASS
  1
ACDBPLACEHOLDER
  2
AcDbPlaceHolder
  3
AutoCAD 2000
 90
        0
280
     0
281
     0
  0
CLASS
  1
LAYOUT
  2
AcDbLayout
  3
AutoCAD 2000
 90
        0
280
     0
281
     0
  0
CLASS
  1
LONG_TRANSACTION
  2
AcDbLongTransaction
  3
AutoCAD 2000
 90
        0
280
     0
281
     0
  0
CLASS
  1
LWPOLYLINE
  2
AcDbPolyline
  3
AutoCAD 2000
 90
        0
280
     0
281
     1
  0
CLASS
  1
HATCH
  2
AcDbHatch
  3
AutoCAD 2000
 90
        0
280
     0
281
     1
  0
CLASS
  1
XRECORD
  2
AcDbXrecord
  3
AutoCAD 2000
 90
        0
280
     0
281
     0
  0
ENDSEC
  0
SECTION
  2
TABLES
  0
TABLE
  2
VPORT
  5
8
330
0
100
AcDbSymbolTable
 70
     2
  0
VPORT
  5
A37
330
8
100
AcDbSymbolTableRecord
100
AcDbViewportTableRecord
  2
*ACTIVE
 70
     0
 10
0.0
 20
0.0
 11
1.0
 21
1.0
 12
5.060000070691698
 22
7.749809657402547
 13
0.0
 23
0.0
 14
1.0
 24
1.0
 15
0.125
 25
0.125
 16
0.0
 26
0.0
 36
1.0
 17
0.0
 27
0.0
 37
0.0
 40
15.65691014064105
 41
1.836974789915966
 42
50.0
 43
0.0
 44
0.0
 50
0.0
 51
0.0
 71
     0
 72
   100
 73
     1
 74
     0
 75
     0
 76
     0
 77
     0
 78
     0
  0
ENDTAB
  0
TABLE
  2
LTYPE
  5
5
330
0
100
AcDbSymbolTable
 70
     7
  0
LTYPE
  5
13
330
5
100
AcDbSymbolTableRecord
100
AcDbLinetypeTableRecord
  2
BYBLOCK
 70
     0
  3

 72
    65
 73
     0
 40
0.0
  0
LTYPE
  5
14
330
5
100
AcDbSymbolTableRecord
100
AcDbLinetypeTableRecord
  2
BYLAYER
 70
     0
  3

 72
    65
 73
     0
 40
0.0
  0
LTYPE
  5
15
330
5
100
AcDbSymbolTableRecord
100
AcDbLinetypeTableRecord
  2
CONTINUOUS
 70
     0
  3
Solid line
 72
    65
 73
     0
 40
0.0
  0
LTYPE
  5
90
330
5
100
AcDbSymbolTableRecord
100
AcDbLinetypeTableRecord
  2
HIDDEN
 70
     0
  3
_ _ _ _ _ _ _ _ _ _ _ _ _ _ _ _ _ _ _ _ _ _ _
 72
    65
 73
     2
 40
0.375
 49
0.25
 74
     0
 49
-0.125
 74
     0
  0
LTYPE
  5
91
330
5
100
AcDbSymbolTableRecord
100
AcDbLinetypeTableRecord
  2
PHANTOM
 70
     0
  3
_____ _ _ _____ _ _ _____ _ _ _____ _ _ ____
 72
    65
 73
     6
 40
2.5
 49
1.25
 74
     0
 49
-0.25
 74
     0
 49
0.25
 74
     0
 49
-0.25
 74
     0
 49
0.25
 74
     0
 49
-0.25
 74
     0
  0
LTYPE
  5
92
330
5
100
AcDbSymbolTableRecord
100
AcDbLinetypeTableRecord
  2
CENTER
 70
     0
  3
____ _ ____ _ ____ _ ____ _ ____ _ ____ _ ____
 72
    65
 73
     4
 40
2.0
 49
1.25
 74
     0
 49
-0.25
 74
     0
 49
0.25
 74
     0
 49
-0.25
 74
     0
  0
LTYPE
  5
93
330
5
100
AcDbSymbolTableRecord
100
AcDbLinetypeTableRecord
  2
HIDDEN2
 70
     0
  3
_ _ _ _ _ _ _ _ _ _ _ _ _ _ _ _ _ _ _ _ _ _ _ _
 72
    65
 73
     2
 40
0.1875
 49
0.125
 74
     0
 49
-0.0625
 74
     0
  0
LTYPE
  5
94
330
5
100
AcDbSymbolTableRecord
100
AcDbLinetypeTableRecord
  2
PHANTOM2
 70
     0
  3
___ _ _ ___ _ _ ___ _ _ ___ _ _ ___ _ _ ___ _ _
 72
    65
 73
     6
 40
1.25
 49
0.625
 74
     0
 49
-0.125
 74
     0
 49
0.125
 74
     0
 49
-0.125
 74
     0
 49
0.125
 74
     0
 49
-0.125
 74
     0
  0
LTYPE
  5
95
330
5
100
AcDbSymbolTableRecord
100
AcDbLinetypeTableRecord
  2
CENTER2
 70
     0
  3
___ _ ___ _ ___ _ ___ _ ___ _ ___ _ ___ _ ___ _
 72
    65
 73
     4
 40
1.125
 49
0.75
 74
     0
 49
-0.125
 74
     0
 49
0.125
 74
     0
 49
-0.125
 74
     0
  0
ENDTAB
  0
TABLE
  2
LAYER
  5
2
330
0
100
AcDbSymbolTable
 70
     9
  0
LAYER
  5
10
330
2
100
AcDbSymbolTableRecord
100
AcDbLayerTableRecord
  2
0
 70
     0
 62
     7
  6
CONTINUOUS
  0
LAYER
  5
9A
330
2
100
AcDbSymbolTableRecord
100
AcDbLayerTableRecord
  2
OBJECT
 70
     0
 62
     7
  6
CONTINUOUS
  0
LAYER
  5
9B
330
2
100
AcDbSymbolTableRecord
100
AcDbLayerTableRecord
  2
DIM
 70
     0
 62
     7
  6
CONTINUOUS
  0
LAYER
  5
9C
330
2
100
AcDbSymbolTableRecord
100
AcDbLayerTableRecord
  2
HIDDEN
 70
     0
 62
     7
  6
HIDDEN
  0
LAYER
  5
9D
330
2
100
AcDbSymbolTableRecord
100
AcDbLayerTableRecord
  2
BEND
 70
     0
 62
     7
  6
PHANTOM
  0
LAYER
  5
9E
330
2
100
AcDbSymbolTableRecord
100
AcDbLayerTableRecord
  2
TEXT
 70
     0
 62
     7
  6
CONTINUOUS
  0
LAYER
  5
9F
330
2
100
AcDbSymbolTableRecord
100
AcDbLayerTableRecord
  2
TITLE
 70
     0
 62
     7
  6
CONTINUOUS
  0
LAYER
  5
A0
330
2
100
AcDbSymbolTableRecord
100
AcDbLayerTableRecord
  2
CENTER
 70
     0
 62
     7
  6
CENTER
  0
LAYER
  5
A1
330
2
100
AcDbSymbolTableRecord
100
AcDbLayerTableRecord
  2
DEFPOINTS
 70
     0
 62
     7
  6
CONTINUOUS
  0
ENDTAB
  0
TABLE
  2
STYLE
  5
3
330
0
100
AcDbSymbolTable
 70
     1
  0
STYLE
  5
11
330
3
100
AcDbSymbolTableRecord
100
AcDbTextStyleTableRecord
  2
TXT
 70
     0
 40
0.0
 41
0.75
 50
0.0
 71
     0
 42
0.125
  3
TXT.shx
  4

  0
ENDTAB
  0
TABLE
  2
VIEW
  5
6
330
0
100
AcDbSymbolTable
 70
     0
  0
ENDTAB
  0
TABLE
  2
UCS
  5
7
330
0
100
AcDbSymbolTable
 70
     0
  0
ENDTAB
  0
TABLE
  2
APPID
  5
9
330
0
100
AcDbSymbolTable
 70
     1
  0
APPID
  5
12
330
9
100
AcDbSymbolTableRecord
100
AcDbRegAppTableRecord
  2
ACAD
 70
     0
  0
ENDTAB
  0
TABLE
  2
DIMSTYLE
  5
A
330
0
100
AcDbSymbolTable
 70
     2
  0
DIMSTYLE
105
98
102
{ACAD_REACTORS
330
3BE
330
3BF
330
3C2
330
3C3
330
3C4
330
3C5
330
3C8
330
3CB
330
3CC
330
3CD
330
3CF
330
3D0
330
3D1
330
3D3
330
3F5
330
3F6
330
410
330
44D
330
457
330
459
330
464
330
465
330
466
330
492
330
493
102
}
330
A
100
AcDbSymbolTableRecord
100
AcDbDimStyleTableRecord
  2
23NSTD
 70
     0
  3

  4

  5

  6

  7

 40
1.0
 41
0.18
 42
0.063
 43
0.281
 44
0.093
 45
0.0
 46
0.0
 47
0.0
 48
0.0
140
0.125
141
0.09
142
0.0
143
25.4
144
1.0
145
0.0
146
1.0
147
0.09
 71
     0
 72
     0
 73
     1
 74
     1
 75
     0
 76
     0
 77
     0
 78
     0
170
     1
171
     2
172
     0
173
     0
174
     0
175
     0
176
     0
177
     0
178
     0
270
     2
271
     3
272
     3
273
     2
274
     2
340
11
275
     0
280
     0
281
     0
282
     0
283
     1
284
     0
285
     0
286
     0
287
     1
288
     0
  0
DIMSTYLE
105
99
102
{ACAD_REACTORS
330
3BD
330
3C0
330
3C1
330
3C6
330
3C7
330
3C9
330
3CA
330
3CE
330
3D2
330
3D4
330
3D5
330
3D6
330
3D7
330
3F4
330
44E
330
458
330
462
330
463
330
491
330
494
330
495
102
}
330
A
100
AcDbSymbolTableRecord
100
AcDbDimStyleTableRecord
  2
23NSTDI
 70
     0
  3

  4

  5

  6

  7

 40
1.0
 41
0.18
 42
0.063
 43
0.281
 44
0.093
 45
0.0
 46
0.0
 47
0.0
 48
0.0
140
0.125
141
0.09
142
0.0
143
25.4
144
1.0
145
0.0
146
1.0
147
0.09
 71
     0
 72
     0
 73
     1
 74
     1
 75
     0
 76
     0
 77
     0
 78
     0
170
     1
171
     2
172
     0
173
     0
174
     1
175
     0
176
     0
177
     0
178
     0
270
     2
271
     3
272
     3
273
     2
274
     2
340
11
275
     0
280
     0
281
     0
282
     0
283
     1
284
     0
285
     0
286
     0
287
     3
288
     0
  0
ENDTAB
  0
TABLE
  2
BLOCK_RECORD
  5
1
330
0
100
AcDbSymbolTable
 70
    46
  0
BLOCK_RECORD
  5
1E
102
{ACAD_XDICTIONARY
360
A5B
102
}
330
1
100
AcDbSymbolTableRecord
100
AcDbBlockTableRecord
  2
*MODEL_SPACE
  0
BLOCK_RECORD
  5
1A
102
{ACAD_XDICTIONARY
360
A59
102
}
330
1
100
AcDbSymbolTableRecord
100
AcDbBlockTableRecord
  2
*PAPER_SPACE
  0
BLOCK_RECORD
  5
49E
330
1
100
AcDbSymbolTableRecord
100
AcDbBlockTableRecord
  2
*D0
  0
BLOCK_RECORD
  5
4AB
330
1
100
AcDbSymbolTableRecord
100
AcDbBlockTableRecord
  2
*D1
  0
BLOCK_RECORD
  5
4B9
330
1
100
AcDbSymbolTableRecord
100
AcDbBlockTableRecord
  2
*D2
  0
BLOCK_RECORD
  5
4C6
330
1
100
AcDbSymbolTableRecord
100
AcDbBlockTableRecord
  2
*D3
  0
BLOCK_RECORD
  5
4D3
330
1
100
AcDbSymbolTableRecord
100
AcDbBlockTableRecord
  2
*D4
  0
BLOCK_RECORD
  5
4E1
330
1
100
AcDbSymbolTableRecord
100
AcDbBlockTableRecord
  2
*D5
  0
BLOCK_RECORD
  5
4EE
330
1
100
AcDbSymbolTableRecord
100
AcDbBlockTableRecord
  2
*D6
  0
BLOCK_RECORD
  5
4FB
330
1
100
AcDbSymbolTableRecord
100
AcDbBlockTableRecord
  2
*D7
  0
BLOCK_RECORD
  5
508
330
1
100
AcDbSymbolTableRecord
100
AcDbBlockTableRecord
  2
*D8
  0
BLOCK_RECORD
  5
516
330
1
100
AcDbSymbolTableRecord
100
AcDbBlockTableRecord
  2
*D9
  0
BLOCK_RECORD
  5
523
330
1
100
AcDbSymbolTableRecord
100
AcDbBlockTableRecord
  2
*D10
  0
BLOCK_RECORD
  5
530
330
1
100
AcDbSymbolTableRecord
100
AcDbBlockTableRecord
  2
*D11
  0
BLOCK_RECORD
  5
53D
330
1
100
AcDbSymbolTableRecord
100
AcDbBlockTableRecord
  2
*D12
  0
BLOCK_RECORD
  5
54A
330
1
100
AcDbSymbolTableRecord
100
AcDbBlockTableRecord
  2
*D13
  0
BLOCK_RECORD
  5
558
330
1
100
AcDbSymbolTableRecord
100
AcDbBlockTableRecord
  2
*D14
  0
BLOCK_RECORD
  5
565
330
1
100
AcDbSymbolTableRecord
100
AcDbBlockTableRecord
  2
*D15
  0
BLOCK_RECORD
  5
572
330
1
100
AcDbSymbolTableRecord
100
AcDbBlockTableRecord
  2
*D16
  0
BLOCK_RECORD
  5
57F
330
1
100
AcDbSymbolTableRecord
100
AcDbBlockTableRecord
  2
*D17
  0
BLOCK_RECORD
  5
58C
330
1
100
AcDbSymbolTableRecord
100
AcDbBlockTableRecord
  2
*D18
  0
BLOCK_RECORD
  5
599
330
1
100
AcDbSymbolTableRecord
100
AcDbBlockTableRecord
  2
*D19
  0
BLOCK_RECORD
  5
5A6
330
1
100
AcDbSymbolTableRecord
100
AcDbBlockTableRecord
  2
*D20
  0
BLOCK_RECORD
  5
5B4
330
1
100
AcDbSymbolTableRecord
100
AcDbBlockTableRecord
  2
*D21
  0
BLOCK_RECORD
  5
5C2
330
1
100
AcDbSymbolTableRecord
100
AcDbBlockTableRecord
  2
*D22
  0
BLOCK_RECORD
  5
5D0
330
1
100
AcDbSymbolTableRecord
100
AcDbBlockTableRecord
  2
*D23
  0
BLOCK_RECORD
  5
5DE
330
1
100
AcDbSymbolTableRecord
100
AcDbBlockTableRecord
  2
*D24
  0
BLOCK_RECORD
  5
5EC
330
1
100
AcDbSymbolTableRecord
100
AcDbBlockTableRecord
  2
*D25
  0
BLOCK_RECORD
  5
5F9
330
1
100
AcDbSymbolTableRecord
100
AcDbBlockTableRecord
  2
*D26
  0
BLOCK_RECORD
  5
606
330
1
100
AcDbSymbolTableRecord
100
AcDbBlockTableRecord
  2
*D27
  0
BLOCK_RECORD
  5
613
330
1
100
AcDbSymbolTableRecord
100
AcDbBlockTableRecord
  2
*D28
  0
BLOCK_RECORD
  5
620
330
1
100
AcDbSymbolTableRecord
100
AcDbBlockTableRecord
  2
*D29
  0
BLOCK_RECORD
  5
62D
330
1
100
AcDbSymbolTableRecord
100
AcDbBlockTableRecord
  2
*D30
  0
BLOCK_RECORD
  5
63A
330
1
100
AcDbSymbolTableRecord
100
AcDbBlockTableRecord
  2
*D31
  0
BLOCK_RECORD
  5
647
330
1
100
AcDbSymbolTableRecord
100
AcDbBlockTableRecord
  2
*D32
  0
BLOCK_RECORD
  5
654
330
1
100
AcDbSymbolTableRecord
100
AcDbBlockTableRecord
  2
*D33
  0
BLOCK_RECORD
  5
661
330
1
100
AcDbSymbolTableRecord
100
AcDbBlockTableRecord
  2
*D34
  0
BLOCK_RECORD
  5
66E
330
1
100
AcDbSymbolTableRecord
100
AcDbBlockTableRecord
  2
*D35
  0
BLOCK_RECORD
  5
67B
330
1
100
AcDbSymbolTableRecord
100
AcDbBlockTableRecord
  2
*D36
  0
BLOCK_RECORD
  5
688
330
1
100
AcDbSymbolTableRecord
100
AcDbBlockTableRecord
  2
*D37
  0
BLOCK_RECORD
  5
695
330
1
100
AcDbSymbolTableRecord
100
AcDbBlockTableRecord
  2
*D38
  0
BLOCK_RECORD
  5
6A2
330
1
100
AcDbSymbolTableRecord
100
AcDbBlockTableRecord
  2
*D39
  0
BLOCK_RECORD
  5
6AF
330
1
100
AcDbSymbolTableRecord
100
AcDbBlockTableRecord
  2
*D40
  0
BLOCK_RECORD
  5
6BC
330
1
100
AcDbSymbolTableRecord
100
AcDbBlockTableRecord
  2
*D41
  0
BLOCK_RECORD
  5
6C9
330
1
100
AcDbSymbolTableRecord
100
AcDbBlockTableRecord
  2
*D42
  0
BLOCK_RECORD
  5
6D6
330
1
100
AcDbSymbolTableRecord
100
AcDbBlockTableRecord
  2
*D43
  0
BLOCK_RECORD
  5
6E3
330
1
100
AcDbSymbolTableRecord
100
AcDbBlockTableRecord
  2
*D44
  0
BLOCK_RECORD
  5
6F0
330
1
100
AcDbSymbolTableRecord
100
AcDbBlockTableRecord
  2
*D45
  0
ENDTAB
  0
ENDSEC
  0
SECTION
  2
BLOCKS
  0
BLOCK
  5
A5
330
1E
100
AcDbEntity
  8
0
100
AcDbBlockBegin
  2
*MODEL_SPACE
 70
     0
 10
0.0
 20
0.0
 30
0.0
  3
*MODEL_SPACE
  1

  0
ENDBLK
  5
A6
330
1E
100
AcDbEntity
  8
0
100
AcDbBlockEnd
  0
BLOCK
  5
A3
330
1A
100
AcDbEntity
 67
     1
  8
0
100
AcDbBlockBegin
  2
*PAPER_SPACE
 70
     0
 10
0.0
 20
0.0
 30
0.0
  3
*PAPER_SPACE
  1

  0
ENDBLK
  5
A4
330
1A
100
AcDbEntity
 67
     1
  8
0
100
AcDbBlockEnd
  0
BLOCK
  5
4A9
330
49E
100
AcDbEntity
  8
0
100
AcDbBlockBegin
  2
*D0
 70
     1
 10
0.0
 20
0.0
 30
0.0
  3
*D0
  1

  0
LINE
  5
7CB
330
49E
100
AcDbEntity
  8
DIM
 62
     0
100
AcDbLine
 10
5.906084834483807
 20
8.801060961035734
 30
0.0
 11
3.8410175561962
 21
8.801060961035735
 31
0.0
  0
LINE
  5
7CC
330
49E
100
AcDbEntity
  8
DIM
 62
     0
100
AcDbLine
 10
5.906084834483807
 20
7.934919245035728
 30
0.0
 11
3.8410175561962
 21
7.934919245035728
 31
0.0
  0
LINE
  5
7CD
330
49E
100
AcDbEntity
  8
DIM
 62
     0
100
AcDbLine
 10
3.9340175561962
 20
8.621060961035736
 30
0.0
 11
3.9340175561962
 21
8.520490103035733
 31
0.0
  0
LINE
  5
7CE
330
49E
100
AcDbEntity
  8
DIM
 62
     0
100
AcDbLine
 10
3.9340175561962
 20
8.114919245035729
 30
0.0
 11
3.9340175561962
 21
8.215490103035733
 31
0.0
  0
SOLID
  5
7CF
330
49E
100
AcDbEntity
  8
DIM
 62
     0
100
AcDbTrace
 10
3.9040175561962
 20
8.621060961035736
 30
0.0
 11
3.964017556196199
 21
8.621060961035736
 31
0.0
 12
3.9340175561962
 22
8.801060961035735
 32
0.0
 13
3.9340175561962
 23
8.801060961035735
 33
0.0
  0
SOLID
  5
7D0
330
49E
100
AcDbEntity
  8
DIM
 62
     0
100
AcDbTrace
 10
3.9040175561962
 20
8.114919245035729
 30
0.0
 11
3.964017556196199
 21
8.114919245035729
 31
0.0
 12
3.9340175561962
 22
7.934919245035728
 32
0.0
 13
3.9340175561962
 23
7.934919245035728
 33
0.0
  0
MTEXT
  5
7D1
330
49E
100
AcDbEntity
  8
DIM
 62
     0
100
AcDbMText
 10
3.934017556196198
 20
8.367990103035733
 30
0.0
 40
0.125
 41
0.0
 71
     5
 72
     1
  1
\A1;0.866 [22.00]
1001
ACAD
1000
MTEXTBEGIN
1070
    73
1070
     1
1070
    44
1040
1.0
1070
    74
1070
     0
1000
MTEXTEND
  0
POINT
  5
7D2
330
49E
100
AcDbEntity
  8
DEFPOINTS
 62
     0
100
AcDbPoint
 10
5.969084834483807
 20
8.801060961035734
 30
0.0
  0
POINT
  5
7D3
330
49E
100
AcDbEntity
  8
DEFPOINTS
 62
     0
100
AcDbPoint
 10
5.969084834483807
 20
7.934919245035728
 30
0.0
  0
POINT
  5
7D4
330
49E
100
AcDbEntity
  8
DEFPOINTS
 62
     0
100
AcDbPoint
 10
3.9340175561962
 20
7.934919245035728
 30
0.0
  0
ENDBLK
  5
4AA
330
49E
100
AcDbEntity
  8
0
100
AcDbBlockEnd
  0
BLOCK
  5
4B7
330
4AB
100
AcDbEntity
  8
0
100
AcDbBlockBegin
  2
*D1
 70
     1
 10
0.0
 20
0.0
 30
0.0
  3
*D1
  1

  0
LINE
  5
7D5
330
4AB
100
AcDbEntity
  8
DIM
 62
     0
100
AcDbLine
 10
5.984824990483817
 20
11.17966118099992
 30
0.0
 11
5.705824990483816
 21
11.17966118099992
 31
0.0
  0
LINE
  5
7D6
330
4AB
100
AcDbEntity
  8
DIM
 62
     0
100
AcDbLine
 10
5.984824990483817
 20
11.12060606399992
 30
0.0
 11
5.705824990483816
 21
11.12060606399992
 31
0.0
  0
LINE
  5
7D7
330
4AB
100
AcDbEntity
  8
DIM
 62
     0
100
AcDbLine
 10
5.798824990483816
 20
11.35966118099992
 30
0.0
 11
5.798824990483816
 21
11.53966118099992
 31
0.0
  0
LINE
  5
7D8
330
4AB
100
AcDbEntity
  8
DIM
 62
     0
100
AcDbLine
 10
5.798824990483816
 20
10.94060606399992
 30
0.0
 11
5.798824990483816
 21
10.76060606399993
 31
0.0
  0
LINE
  5
7D9
330
4AB
100
AcDbEntity
  8
DIM
 62
     0
100
AcDbLine
 10
5.798824990483816
 20
10.76060606399993
 30
0.0
 11
5.618824990483816
 21
10.76060606399993
 31
0.0
  0
SOLID
  5
7DA
330
4AB
100
AcDbEntity
  8
DIM
 62
     0
100
AcDbTrace
 10
5.768824990483816
 20
11.35966118099992
 30
0.0
 11
5.828824990483816
 21
11.35966118099992
 31
0.0
 12
5.798824990483816
 22
11.17966118099992
 32
0.0
 13
5.798824990483816
 23
11.17966118099992
 33
0.0
  0
SOLID
  5
7DB
330
4AB
100
AcDbEntity
  8
DIM
 62
     0
100
AcDbTrace
 10
5.768824990483816
 20
10.94060606399992
 30
0.0
 11
5.828824990483816
 21
10.94060606399992
 31
0.0
 12
5.798824990483816
 22
11.12060606399992
 32
0.0
 13
5.798824990483816
 23
11.12060606399992
 33
0.0
  0
MTEXT
  5
7DC
330
4AB
100
AcDbEntity
  8
DIM
 62
     0
100
AcDbMText
 10
5.114762490483815
 20
10.76060606399993
 30
0.0
 40
0.125
 41
0.0
 71
     5
 72
     1
  1
\A1;0.059 [1.50]
1001
ACAD
1000
MTEXTBEGIN
1070
    73
1070
     1
1070
    44
1040
1.0
1070
    74
1070
     0
1000
MTEXTEND
  0
POINT
  5
7DD
330
4AB
100
AcDbEntity
  8
DEFPOINTS
 62
     0
100
AcDbPoint
 10
6.047824990483817
 20
11.17966118099992
 30
0.0
  0
POINT
  5
7DE
330
4AB
100
AcDbEntity
  8
DEFPOINTS
 62
     0
100
AcDbPoint
 10
6.047824990483817
 20
11.12060606399992
 30
0.0
  0
POINT
  5
7DF
330
4AB
100
AcDbEntity
  8
DEFPOINTS
 62
     0
100
AcDbPoint
 10
5.798824990483816
 20
11.12060606399992
 30
0.0
  0
ENDBLK
  5
4B8
330
4AB
100
AcDbEntity
  8
0
100
AcDbBlockEnd
  0
BLOCK
  5
4C4
330
4B9
100
AcDbEntity
  8
0
100
AcDbBlockBegin
  2
*D2
 70
     1
 10
0.0
 20
0.0
 30
0.0
  3
*D2
  1

  0
LINE
  5
7E0
330
4B9
100
AcDbEntity
  8
DIM
 62
     0
100
AcDbLine
 10
6.500580887483798
 20
13.45565056738959
 30
0.0
 11
6.500580887483798
 21
14.40069310072983
 31
0.0
  0
LINE
  5
7E1
330
4B9
100
AcDbEntity
  8
DIM
 62
     0
100
AcDbLine
 10
6.323415536483799
 20
13.45565056738959
 30
0.0
 11
6.323415536483799
 21
14.40069310072983
 31
0.0
  0
LINE
  5
7E2
330
4B9
100
AcDbEntity
  8
DIM
 62
     0
100
AcDbLine
 10
6.680580887483798
 20
14.30769310072983
 30
0.0
 11
6.860580887483799
 21
14.30769310072983
 31
0.0
  0
LINE
  5
7E3
330
4B9
100
AcDbEntity
  8
DIM
 62
     0
100
AcDbLine
 10
6.143415536483799
 20
14.30769310072983
 30
0.0
 11
5.963415536483799
 21
14.30769310072983
 31
0.0
  0
SOLID
  5
7E4
330
4B9
100
AcDbEntity
  8
DIM
 62
     0
100
AcDbTrace
 10
6.680580887483798
 20
14.33769310072984
 30
0.0
 11
6.680580887483798
 21
14.27769310072983
 31
0.0
 12
6.500580887483798
 22
14.30769310072983
 32
0.0
 13
6.500580887483798
 23
14.30769310072983
 33
0.0
  0
SOLID
  5
7E5
330
4B9
100
AcDbEntity
  8
DIM
 62
     0
100
AcDbTrace
 10
6.143415536483799
 20
14.33769310072984
 30
0.0
 11
6.143415536483799
 21
14.27769310072983
 31
0.0
 12
6.323415536483799
 22
14.30769310072983
 32
0.0
 13
6.323415536483799
 23
14.30769310072983
 33
0.0
  0
MTEXT
  5
7E6
330
4B9
100
AcDbEntity
  8
DIM
 62
     0
100
AcDbMText
 10
5.451540536483799
 20
14.30769310072983
 30
0.0
 40
0.125
 41
0.0
 71
     5
 72
     1
  1
\A1;0.177 [4.50]
1001
ACAD
1000
MTEXTBEGIN
1070
    73
1070
     1
1070
    44
1040
1.0
1070
    74
1070
     0
1000
MTEXTEND
  0
POINT
  5
7E7
330
4B9
100
AcDbEntity
  8
DEFPOINTS
 62
     0
100
AcDbPoint
 10
6.500580887483798
 20
13.39265056738959
 30
0.0
  0
POINT
  5
7E8
330
4B9
100
AcDbEntity
  8
DEFPOINTS
 62
     0
100
AcDbPoint
 10
6.323415536483799
 20
13.39265056738959
 30
0.0
  0
POINT
  5
7E9
330
4B9
100
AcDbEntity
  8
DEFPOINTS
 62
     0
100
AcDbPoint
 10
6.323415536483799
 20
14.30769310072983
 30
0.0
  0
ENDBLK
  5
4C5
330
4B9
100
AcDbEntity
  8
0
100
AcDbBlockEnd
  0
BLOCK
  5
4D1
330
4C6
100
AcDbEntity
  8
0
100
AcDbBlockBegin
  2
*D3
 70
     1
 10
0.0
 20
0.0
 30
0.0
  3
*D3
  1

  0
LINE
  5
7EA
330
4C6
100
AcDbEntity
  8
DIM
 62
     0
100
AcDbLine
 10
6.677746238483797
 20
13.45565056738959
 30
0.0
 11
6.677746238483797
 21
14.11969310072985
 31
0.0
  0
LINE
  5
7EB
330
4C6
100
AcDbEntity
  8
DIM
 62
     0
100
AcDbLine
 10
6.323415536483799
 20
13.45565056738959
 30
0.0
 11
6.323415536483799
 21
14.11969310072985
 31
0.0
  0
LINE
  5
7EC
330
4C6
100
AcDbEntity
  8
DIM
 62
     0
100
AcDbLine
 10
6.857746238483796
 20
14.02669310072985
 30
0.0
 11
7.037746238483797
 21
14.02669310072985
 31
0.0
  0
LINE
  5
7ED
330
4C6
100
AcDbEntity
  8
DIM
 62
     0
100
AcDbLine
 10
6.143415536483799
 20
14.02669310072985
 30
0.0
 11
5.963415536483799
 21
14.02669310072985
 31
0.0
  0
SOLID
  5
7EE
330
4C6
100
AcDbEntity
  8
DIM
 62
     0
100
AcDbTrace
 10
6.857746238483796
 20
14.05669310072984
 30
0.0
 11
6.857746238483796
 21
13.99669310072985
 31
0.0
 12
6.677746238483797
 22
14.02669310072985
 32
0.0
 13
6.677746238483797
 23
14.02669310072985
 33
0.0
  0
SOLID
  5
7EF
330
4C6
100
AcDbEntity
  8
DIM
 62
     0
100
AcDbTrace
 10
6.143415536483799
 20
14.05669310072984
 30
0.0
 11
6.143415536483799
 21
13.99669310072985
 31
0.0
 12
6.323415536483799
 22
14.02669310072985
 32
0.0
 13
6.323415536483799
 23
14.02669310072985
 33
0.0
  0
MTEXT
  5
7F0
330
4C6
100
AcDbEntity
  8
DIM
 62
     0
100
AcDbMText
 10
5.443728036483799
 20
14.02669310072985
 30
0.0
 40
0.125
 41
0.0
 71
     5
 72
     1
  1
\A1;0.354 [9.00]
1001
ACAD
1000
MTEXTBEGIN
1070
    73
1070
     1
1070
    44
1040
1.0
1070
    74
1070
     0
1000
MTEXTEND
  0
POINT
  5
7F1
330
4C6
100
AcDbEntity
  8
DEFPOINTS
 62
     0
100
AcDbPoint
 10
6.677746238483797
 20
13.39265056738959
 30
0.0
  0
POINT
  5
7F2
330
4C6
100
AcDbEntity
  8
DEFPOINTS
 62
     0
100
AcDbPoint
 10
6.323415536483799
 20
13.39265056738959
 30
0.0
  0
POINT
  5
7F3
330
4C6
100
AcDbEntity
  8
DEFPOINTS
 62
     0
100
AcDbPoint
 10
6.323415536483799
 20
14.02669310072985
 30
0.0
  0
ENDBLK
  5
4D2
330
4C6
100
AcDbEntity
  8
0
100
AcDbBlockEnd
  0
BLOCK
  5
4DF
330
4D3
100
AcDbEntity
  8
0
100
AcDbBlockBegin
  2
*D4
 70
     1
 10
0.0
 20
0.0
 30
0.0
  3
*D4
  1

  0
LINE
  5
7F4
330
4D3
100
AcDbEntity
  8
DIM
 62
     0
100
AcDbLine
 10
6.874513013574736
 20
11.35682653199992
 30
0.0
 11
4.480108135560906
 21
11.35682653199992
 31
0.0
  0
LINE
  5
7F5
330
4D3
100
AcDbEntity
  8
DIM
 62
     0
100
AcDbLine
 10
5.984824990483817
 20
11.17966118099992
 30
0.0
 11
4.480108135560906
 21
11.17966118099992
 31
0.0
  0
LINE
  5
7F6
330
4D3
100
AcDbEntity
  8
DIM
 62
     0
100
AcDbLine
 10
4.573108135560906
 20
11.53682653199992
 30
0.0
 11
4.573108135560906
 21
11.71682653199992
 31
0.0
  0
LINE
  5
7F7
330
4D3
100
AcDbEntity
  8
DIM
 62
     0
100
AcDbLine
 10
4.573108135560906
 20
10.99966118099992
 30
0.0
 11
4.573108135560906
 21
10.81966118099993
 31
0.0
  0
LINE
  5
7F8
330
4D3
100
AcDbEntity
  8
DIM
 62
     0
100
AcDbLine
 10
4.573108135560906
 20
10.81966118099993
 30
0.0
 11
4.393108135560907
 21
10.81966118099993
 31
0.0
  0
SOLID
  5
7F9
330
4D3
100
AcDbEntity
  8
DIM
 62
     0
100
AcDbTrace
 10
4.543108135560906
 20
11.53682653199992
 30
0.0
 11
4.603108135560907
 21
11.53682653199992
 31
0.0
 12
4.573108135560906
 22
11.35682653199992
 32
0.0
 13
4.573108135560906
 23
11.35682653199992
 33
0.0
  0
SOLID
  5
7FA
330
4D3
100
AcDbEntity
  8
DIM
 62
     0
100
AcDbTrace
 10
4.543108135560906
 20
10.99966118099992
 30
0.0
 11
4.603108135560907
 21
10.99966118099992
 31
0.0
 12
4.573108135560906
 22
11.17966118099992
 32
0.0
 13
4.573108135560906
 23
11.17966118099992
 33
0.0
  0
MTEXT
  5
7FB
330
4D3
100
AcDbEntity
  8
DIM
 62
     0
100
AcDbMText
 10
3.881233135560904
 20
10.81966118099993
 30
0.0
 40
0.125
 41
0.0
 71
     5
 72
     1
  1
\A1;0.177 [4.50]
1001
ACAD
1000
MTEXTBEGIN
1070
    73
1070
     1
1070
    44
1040
1.0
1070
    74
1070
     0
1000
MTEXTEND
  0
POINT
  5
7FC
330
4D3
100
AcDbEntity
  8
DEFPOINTS
 62
     0
100
AcDbPoint
 10
6.937513013574736
 20
11.35682653199992
 30
0.0
  0
POINT
  5
7FD
330
4D3
100
AcDbEntity
  8
DEFPOINTS
 62
     0
100
AcDbPoint
 10
6.047824990483817
 20
11.17966118099992
 30
0.0
  0
POINT
  5
7FE
330
4D3
100
AcDbEntity
  8
DEFPOINTS
 62
     0
100
AcDbPoint
 10
4.573108135560906
 20
11.17966118099992
 30
0.0
  0
ENDBLK
  5
4E0
330
4D3
100
AcDbEntity
  8
0
100
AcDbBlockEnd
  0
BLOCK
  5
4EC
330
4E1
100
AcDbEntity
  8
0
100
AcDbBlockBegin
  2
*D5
 70
     1
 10
0.0
 20
0.0
 30
0.0
  3
*D5
  1

  0
LINE
  5
7FF
330
4E1
100
AcDbEntity
  8
DIM
 62
     0
100
AcDbLine
 10
7.347037564483797
 20
13.45565056738959
 30
0.0
 11
7.347037564483797
 21
14.66881913466585
 31
0.0
  0
LINE
  5
800
330
4E1
100
AcDbEntity
  8
DIM
 62
     0
100
AcDbLine
 10
6.500580887483798
 20
13.45565056738959
 30
0.0
 11
6.500580887483798
 21
14.66881913466585
 31
0.0
  0
LINE
  5
801
330
4E1
100
AcDbEntity
  8
DIM
 62
     0
100
AcDbLine
 10
7.527037564483797
 20
14.57581913466585
 30
0.0
 11
7.707037564483798
 21
14.57581913466585
 31
0.0
  0
LINE
  5
802
330
4E1
100
AcDbEntity
  8
DIM
 62
     0
100
AcDbLine
 10
6.320580887483798
 20
14.57581913466585
 30
0.0
 11
6.140580887483798
 21
14.57581913466585
 31
0.0
  0
SOLID
  5
803
330
4E1
100
AcDbEntity
  8
DIM
 62
     0
100
AcDbTrace
 10
7.527037564483797
 20
14.60581913466585
 30
0.0
 11
7.527037564483797
 21
14.54581913466586
 31
0.0
 12
7.347037564483797
 22
14.57581913466585
 32
0.0
 13
7.347037564483797
 23
14.57581913466585
 33
0.0
  0
SOLID
  5
804
330
4E1
100
AcDbEntity
  8
DIM
 62
     0
100
AcDbTrace
 10
6.320580887483798
 20
14.60581913466585
 30
0.0
 11
6.320580887483798
 21
14.54581913466586
 31
0.0
 12
6.500580887483798
 22
14.57581913466585
 32
0.0
 13
6.500580887483798
 23
14.57581913466585
 33
0.0
  0
MTEXT
  5
805
330
4E1
100
AcDbEntity
  8
DIM
 62
     0
100
AcDbMText
 10
5.581830887483798
 20
14.57581913466585
 30
0.0
 40
0.125
 41
0.0
 71
     5
 72
     1
  1
\A1;0.846 [21.50]
1001
ACAD
1000
MTEXTBEGIN
1070
    73
1070
     1
1070
    44
1040
1.0
1070
    74
1070
     0
1000
MTEXTEND
  0
POINT
  5
806
330
4E1
100
AcDbEntity
  8
DEFPOINTS
 62
     0
100
AcDbPoint
 10
7.347037564483797
 20
13.39265056738959
 30
0.0
  0
POINT
  5
807
330
4E1
100
AcDbEntity
  8
DEFPOINTS
 62
     0
100
AcDbPoint
 10
6.500580887483798
 20
13.39265056738959
 30
0.0
  0
POINT
  5
808
330
4E1
100
AcDbEntity
  8
DEFPOINTS
 62
     0
100
AcDbPoint
 10
6.500580887483798
 20
14.57581913466585
 30
0.0
  0
ENDBLK
  5
4ED
330
4E1
100
AcDbEntity
  8
0
100
AcDbBlockEnd
  0
BLOCK
  5
4F9
330
4EE
100
AcDbEntity
  8
0
100
AcDbBlockBegin
  2
*D6
 70
     1
 10
0.0
 20
0.0
 30
0.0
  3
*D6
  1

  0
LINE
  5
809
330
4EE
100
AcDbEntity
  8
DIM
 62
     0
100
AcDbLine
 10
6.736801355483804
 20
8.475990103035725
 30
0.0
 11
6.736801355483804
 21
9.165914052938962
 31
0.0
  0
LINE
  5
80A
330
4EE
100
AcDbEntity
  8
DIM
 62
     0
100
AcDbLine
 10
6.461210809483802
 20
8.475990103035725
 30
0.0
 11
6.461210809483802
 21
9.165914052938962
 31
0.0
  0
LINE
  5
80B
330
4EE
100
AcDbEntity
  8
DIM
 62
     0
100
AcDbLine
 10
6.916801355483804
 20
9.072914052938962
 30
0.0
 11
7.096801355483805
 21
9.072914052938962
 31
0.0
  0
LINE
  5
80C
330
4EE
100
AcDbEntity
  8
DIM
 62
     0
100
AcDbLine
 10
6.281210809483802
 20
9.072914052938962
 30
0.0
 11
6.101210809483801
 21
9.072914052938962
 31
0.0
  0
SOLID
  5
80D
330
4EE
100
AcDbEntity
  8
DIM
 62
     0
100
AcDbTrace
 10
6.916801355483804
 20
9.102914052938961
 30
0.0
 11
6.916801355483804
 21
9.042914052938963
 31
0.0
 12
6.736801355483804
 22
9.072914052938962
 32
0.0
 13
6.736801355483804
 23
9.072914052938962
 33
0.0
  0
SOLID
  5
80E
330
4EE
100
AcDbEntity
  8
DIM
 62
     0
100
AcDbTrace
 10
6.281210809483802
 20
9.102914052938961
 30
0.0
 11
6.281210809483802
 21
9.042914052938963
 31
0.0
 12
6.461210809483802
 22
9.072914052938962
 32
0.0
 13
6.461210809483802
 23
9.072914052938962
 33
0.0
  0
MTEXT
  5
80F
330
4EE
100
AcDbEntity
  8
DIM
 62
     0
100
AcDbMText
 10
5.581523309483801
 20
9.072914052938962
 30
0.0
 40
0.125
 41
0.0
 71
     5
 72
     1
  1
\A1;0.276 [7.00]
1001
ACAD
1000
MTEXTBEGIN
1070
    73
1070
     1
1070
    44
1040
1.0
1070
    74
1070
     0
1000
MTEXTEND
  0
POINT
  5
810
330
4EE
100
AcDbEntity
  8
DEFPOINTS
 62
     0
100
AcDbPoint
 10
6.736801355483804
 20
8.412990103035724
 30
0.0
  0
POINT
  5
811
330
4EE
100
AcDbEntity
  8
DEFPOINTS
 62
     0
100
AcDbPoint
 10
6.461210809483802
 20
8.412990103035724
 30
0.0
  0
POINT
  5
812
330
4EE
100
AcDbEntity
  8
DEFPOINTS
 62
     0
100
AcDbPoint
 10
6.461210809483802
 20
9.072914052938962
 30
0.0
  0
ENDBLK
  5
4FA
330
4EE
100
AcDbEntity
  8
0
100
AcDbBlockEnd
  0
BLOCK
  5
506
330
4FB
100
AcDbEntity
  8
0
100
AcDbBlockBegin
  2
*D7
 70
     1
 10
0.0
 20
0.0
 30
0.0
  3
*D7
  1

  0
LINE
  5
813
330
4FB
100
AcDbEntity
  8
DIM
 62
     0
100
AcDbLine
 10
6.835226550483824
 20
6.123440645750857
 30
0.0
 11
6.835226550483824
 21
6.794440645750857
 31
0.0
  0
LINE
  5
814
330
4FB
100
AcDbEntity
  8
DIM
 62
     0
100
AcDbLine
 10
5.890344678483798
 20
6.123440645750857
 30
0.0
 11
5.890344678483798
 21
6.794440645750857
 31
0.0
  0
LINE
  5
815
330
4FB
100
AcDbEntity
  8
DIM
 62
     0
100
AcDbLine
 10
7.015226550483824
 20
6.701440645750857
 30
0.0
 11
7.195226550483824
 21
6.701440645750857
 31
0.0
  0
LINE
  5
816
330
4FB
100
AcDbEntity
  8
DIM
 62
     0
100
AcDbLine
 10
5.710344678483799
 20
6.701440645750857
 30
0.0
 11
5.530344678483798
 21
6.701440645750857
 31
0.0
  0
SOLID
  5
817
330
4FB
100
AcDbEntity
  8
DIM
 62
     0
100
AcDbTrace
 10
7.015226550483824
 20
6.731440645750858
 30
0.0
 11
7.015226550483824
 21
6.671440645750857
 31
0.0
 12
6.835226550483824
 22
6.701440645750857
 32
0.0
 13
6.835226550483824
 23
6.701440645750857
 33
0.0
  0
SOLID
  5
818
330
4FB
100
AcDbEntity
  8
DIM
 62
     0
100
AcDbTrace
 10
5.710344678483799
 20
6.731440645750858
 30
0.0
 11
5.710344678483799
 21
6.671440645750857
 31
0.0
 12
5.890344678483798
 22
6.701440645750857
 32
0.0
 13
5.890344678483798
 23
6.701440645750857
 33
0.0
  0
MTEXT
  5
819
330
4FB
100
AcDbEntity
  8
DIM
 62
     0
100
AcDbMText
 10
4.963782178483798
 20
6.701440645750857
 30
0.0
 40
0.125
 41
0.0
 71
     5
 72
     1
  1
\A1;0.945 [24.00]
1001
ACAD
1000
MTEXTBEGIN
1070
    73
1070
     1
1070
    44
1040
1.0
1070
    74
1070
     0
1000
MTEXTEND
  0
POINT
  5
81A
330
4FB
100
AcDbEntity
  8
DEFPOINTS
 62
     0
100
AcDbPoint
 10
6.835226550483824
 20
6.060440645750857
 30
0.0
  0
POINT
  5
81B
330
4FB
100
AcDbEntity
  8
DEFPOINTS
 62
     0
100
AcDbPoint
 10
5.890344678483798
 20
6.060440645750857
 30
0.0
  0
POINT
  5
81C
330
4FB
100
AcDbEntity
  8
DEFPOINTS
 62
     0
100
AcDbPoint
 10
5.890344678483798
 20
6.701440645750857
 30
0.0
  0
ENDBLK
  5
507
330
4FB
100
AcDbEntity
  8
0
100
AcDbBlockEnd
  0
BLOCK
  5
514
330
508
100
AcDbEntity
  8
0
100
AcDbBlockBegin
  2
*D8
 70
     1
 10
0.0
 20
0.0
 30
0.0
  3
*D8
  1

  0
LINE
  5
81D
330
508
100
AcDbEntity
  8
DIM
 62
     0
100
AcDbLine
 10
5.827344678483799
 20
6.060440645750857
 30
0.0
 11
5.548344678483798
 21
6.060440645750857
 31
0.0
  0
LINE
  5
81E
330
508
100
AcDbEntity
  8
DIM
 62
     0
100
AcDbLine
 10
5.827344678483799
 20
6.013196552150857
 30
0.0
 11
5.548344678483798
 21
6.013196552150857
 31
0.0
  0
LINE
  5
81F
330
508
100
AcDbEntity
  8
DIM
 62
     0
100
AcDbLine
 10
5.641344678483798
 20
6.240440645750857
 30
0.0
 11
5.641344678483798
 21
6.420440645750858
 31
0.0
  0
LINE
  5
820
330
508
100
AcDbEntity
  8
DIM
 62
     0
100
AcDbLine
 10
5.641344678483797
 20
5.833196552150857
 30
0.0
 11
5.641344678483797
 21
5.653196552150856
 31
0.0
  0
LINE
  5
821
330
508
100
AcDbEntity
  8
DIM
 62
     0
100
AcDbLine
 10
5.641344678483797
 20
5.653196552150856
 30
0.0
 11
5.461344678483797
 21
5.653196552150856
 31
0.0
  0
SOLID
  5
822
330
508
100
AcDbEntity
  8
DIM
 62
     0
100
AcDbTrace
 10
5.611344678483797
 20
6.240440645750857
 30
0.0
 11
5.671344678483798
 21
6.240440645750857
 31
0.0
 12
5.641344678483798
 22
6.060440645750857
 32
0.0
 13
5.641344678483798
 23
6.060440645750857
 33
0.0
  0
SOLID
  5
823
330
508
100
AcDbEntity
  8
DIM
 62
     0
100
AcDbTrace
 10
5.611344678483797
 20
5.833196552150857
 30
0.0
 11
5.671344678483797
 21
5.833196552150857
 31
0.0
 12
5.641344678483798
 22
6.013196552150857
 32
0.0
 13
5.641344678483798
 23
6.013196552150857
 33
0.0
  0
MTEXT
  5
824
330
508
100
AcDbEntity
  8
DIM
 62
     0
100
AcDbMText
 10
4.957282178483795
 20
5.653196552150857
 30
0.0
 40
0.125
 41
0.0
 71
     5
 72
     1
  1
\A1;0.047 [1.20]
1001
ACAD
1000
MTEXTBEGIN
1070
    73
1070
     1
1070
    44
1040
1.0
1070
    74
1070
     0
1000
MTEXTEND
  0
POINT
  5
825
330
508
100
AcDbEntity
  8
DEFPOINTS
 62
     0
100
AcDbPoint
 10
5.890344678483798
 20
6.060440645750857
 30
0.0
  0
POINT
  5
826
330
508
100
AcDbEntity
  8
DEFPOINTS
 62
     0
100
AcDbPoint
 10
5.890344678483798
 20
6.013196552150857
 30
0.0
  0
POINT
  5
827
330
508
100
AcDbEntity
  8
DEFPOINTS
 62
     0
100
AcDbPoint
 10
5.641344678483798
 20
6.013196552150857
 30
0.0
  0
ENDBLK
  5
515
330
508
100
AcDbEntity
  8
0
100
AcDbBlockEnd
  0
BLOCK
  5
521
330
516
100
AcDbEntity
  8
0
100
AcDbBlockBegin
  2
*D9
 70
     1
 10
0.0
 20
0.0
 30
0.0
  3
*D9
  1

  0
LINE
  5
828
330
516
100
AcDbEntity
  8
DIM
 62
     0
100
AcDbLine
 10
7.347037564483797
 20
3.113080540161046
 30
0.0
 11
7.347037564483797
 21
4.42220651516105
 31
0.0
  0
LINE
  5
829
330
516
100
AcDbEntity
  8
DIM
 62
     0
100
AcDbLine
 10
6.382470653483808
 20
3.113080540161046
 30
0.0
 11
6.382470653483808
 21
4.42220651516105
 31
0.0
  0
LINE
  5
82A
330
516
100
AcDbEntity
  8
DIM
 62
     0
100
AcDbLine
 10
7.527037564483797
 20
4.32920651516105
 30
0.0
 11
7.707037564483798
 21
4.32920651516105
 31
0.0
  0
LINE
  5
82B
330
516
100
AcDbEntity
  8
DIM
 62
     0
100
AcDbLine
 10
6.202470653483808
 20
4.32920651516105
 30
0.0
 11
6.022470653483807
 21
4.32920651516105
 31
0.0
  0
SOLID
  5
82C
330
516
100
AcDbEntity
  8
DIM
 62
     0
100
AcDbTrace
 10
7.527037564483797
 20
4.359206515161051
 30
0.0
 11
7.527037564483797
 21
4.29920651516105
 31
0.0
 12
7.347037564483797
 22
4.32920651516105
 32
0.0
 13
7.347037564483797
 23
4.32920651516105
 33
0.0
  0
SOLID
  5
82D
330
516
100
AcDbEntity
  8
DIM
 62
     0
100
AcDbTrace
 10
6.202470653483808
 20
4.359206515161051
 30
0.0
 11
6.202470653483808
 21
4.29920651516105
 31
0.0
 12
6.382470653483808
 22
4.32920651516105
 32
0.0
 13
6.382470653483808
 23
4.32920651516105
 33
0.0
  0
MTEXT
  5
82E
330
516
100
AcDbEntity
  8
DIM
 62
     0
100
AcDbMText
 10
5.448095653483807
 20
4.32920651516105
 30
0.0
 40
0.125
 41
0.0
 71
     5
 72
     1
  1
\A1;0.965 [24.50]
1001
ACAD
1000
MTEXTBEGIN
1070
    73
1070
     1
1070
    44
1040
1.0
1070
    74
1070
     0
1000
MTEXTEND
  0
POINT
  5
82F
330
516
100
AcDbEntity
  8
DEFPOINTS
 62
     0
100
AcDbPoint
 10
7.347037564483797
 20
3.050080540161046
 30
0.0
  0
POINT
  5
830
330
516
100
AcDbEntity
  8
DEFPOINTS
 62
     0
100
AcDbPoint
 10
6.382470653483808
 20
3.050080540161046
 30
0.0
  0
POINT
  5
831
330
516
100
AcDbEntity
  8
DEFPOINTS
 62
     0
100
AcDbPoint
 10
6.382470653483808
 20
4.32920651516105
 30
0.0
  0
ENDBLK
  5
522
330
516
100
AcDbEntity
  8
0
100
AcDbBlockEnd
  0
BLOCK
  5
52E
330
523
100
AcDbEntity
  8
0
100
AcDbBlockBegin
  2
*D10
 70
     1
 10
0.0
 20
0.0
 30
0.0
  3
*D10
  1

  0
LINE
  5
832
330
523
100
AcDbEntity
  8
DIM
 62
     0
100
AcDbLine
 10
7.347037564483797
 20
2.897080540161042
 30
0.0
 11
7.347037564483797
 21
1.782187229742491
 31
0.0
  0
LINE
  5
833
330
523
100
AcDbEntity
  8
DIM
 62
     0
100
AcDbLine
 10
5.555699015483809
 20
2.44995456516105
 30
0.0
 11
5.555699015483809
 21
1.782187229742491
 31
0.0
  0
LINE
  5
834
330
523
100
AcDbEntity
  8
DIM
 62
     0
100
AcDbLine
 10
7.167037564483798
 20
1.875187229742491
 30
0.0
 11
7.002305789983803
 21
1.875187229742491
 31
0.0
  0
LINE
  5
835
330
523
100
AcDbEntity
  8
DIM
 62
     0
100
AcDbLine
 10
5.735699015483809
 20
1.875187229742491
 30
0.0
 11
5.900430789983803
 21
1.875187229742491
 31
0.0
  0
SOLID
  5
836
330
523
100
AcDbEntity
  8
DIM
 62
     0
100
AcDbTrace
 10
7.167037564483798
 20
1.905187229742491
 30
0.0
 11
7.167037564483798
 21
1.84518722974249
 31
0.0
 12
7.347037564483797
 22
1.875187229742491
 32
0.0
 13
7.347037564483797
 23
1.875187229742491
 33
0.0
  0
SOLID
  5
837
330
523
100
AcDbEntity
  8
DIM
 62
     0
100
AcDbTrace
 10
5.735699015483809
 20
1.905187229742491
 30
0.0
 11
5.735699015483809
 21
1.84518722974249
 31
0.0
 12
5.555699015483809
 22
1.875187229742491
 32
0.0
 13
5.555699015483809
 23
1.875187229742491
 33
0.0
  0
MTEXT
  5
838
330
523
100
AcDbEntity
  8
DIM
 62
     0
100
AcDbMText
 10
6.451368289983803
 20
1.875187229742491
 30
0.0
 40
0.125
 41
0.0
 71
     5
 72
     1
  1
\A1;1.791 [45.50]
1001
ACAD
1000
MTEXTBEGIN
1070
    73
1070
     1
1070
    44
1040
1.0
1070
    74
1070
     0
1000
MTEXTEND
  0
POINT
  5
839
330
523
100
AcDbEntity
  8
DEFPOINTS
 62
     0
100
AcDbPoint
 10
7.347037564483797
 20
2.960080540161042
 30
0.0
  0
POINT
  5
83A
330
523
100
AcDbEntity
  8
DEFPOINTS
 62
     0
100
AcDbPoint
 10
5.555699015483809
 20
2.51295456516105
 30
0.0
  0
POINT
  5
83B
330
523
100
AcDbEntity
  8
DEFPOINTS
 62
     0
100
AcDbPoint
 10
5.555699015483809
 20
1.875187229742491
 30
0.0
  0
ENDBLK
  5
52F
330
523
100
AcDbEntity
  8
0
100
AcDbBlockEnd
  0
BLOCK
  5
53B
330
530
100
AcDbEntity
  8
0
100
AcDbBlockBegin
  2
*D11
 70
     1
 10
0.0
 20
0.0
 30
0.0
  3
*D11
  1

  0
LINE
  5
83C
330
530
100
AcDbEntity
  8
DIM
 62
     0
100
AcDbLine
 10
6.539950965483812
 20
3.113080540161043
 30
0.0
 11
6.539950965483812
 21
3.860206515161051
 31
0.0
  0
LINE
  5
83D
330
530
100
AcDbEntity
  8
DIM
 62
     0
100
AcDbLine
 10
6.224990341483803
 20
3.113080540161043
 30
0.0
 11
6.224990341483803
 21
3.860206515161051
 31
0.0
  0
LINE
  5
83E
330
530
100
AcDbEntity
  8
DIM
 62
     0
100
AcDbLine
 10
6.719950965483811
 20
3.767206515161051
 30
0.0
 11
6.899950965483812
 21
3.767206515161051
 31
0.0
  0
LINE
  5
83F
330
530
100
AcDbEntity
  8
DIM
 62
     0
100
AcDbLine
 10
6.044990341483803
 20
3.767206515161051
 30
0.0
 11
5.864990341483802
 21
3.767206515161051
 31
0.0
  0
SOLID
  5
840
330
530
100
AcDbEntity
  8
DIM
 62
     0
100
AcDbTrace
 10
6.719950965483811
 20
3.797206515161051
 30
0.0
 11
6.719950965483811
 21
3.737206515161052
 31
0.0
 12
6.539950965483812
 22
3.767206515161051
 32
0.0
 13
6.539950965483812
 23
3.767206515161051
 33
0.0
  0
SOLID
  5
841
330
530
100
AcDbEntity
  8
DIM
 62
     0
100
AcDbTrace
 10
6.044990341483803
 20
3.797206515161051
 30
0.0
 11
6.044990341483803
 21
3.737206515161052
 31
0.0
 12
6.224990341483803
 22
3.767206515161051
 32
0.0
 13
6.224990341483803
 23
3.767206515161051
 33
0.0
  0
MTEXT
  5
842
330
530
100
AcDbEntity
  8
DIM
 62
     0
100
AcDbMText
 10
5.360927841483802
 20
3.767206515161051
 30
0.0
 40
0.125
 41
0.0
 71
     5
 72
     1
  1
\A1;0.315 [8.00]
1001
ACAD
1000
MTEXTBEGIN
1070
    73
1070
     1
1070
    44
1040
1.0
1070
    74
1070
     0
1000
MTEXTEND
  0
POINT
  5
843
330
530
100
AcDbEntity
  8
DEFPOINTS
 62
     0
100
AcDbPoint
 10
6.539950965483812
 20
3.050080540161042
 30
0.0
  0
POINT
  5
844
330
530
100
AcDbEntity
  8
DEFPOINTS
 62
     0
100
AcDbPoint
 10
6.224990341483803
 20
3.050080540161042
 30
0.0
  0
POINT
  5
845
330
530
100
AcDbEntity
  8
DEFPOINTS
 62
     0
100
AcDbPoint
 10
6.224990341483803
 20
3.767206515161051
 30
0.0
  0
ENDBLK
  5
53C
330
530
100
AcDbEntity
  8
0
100
AcDbBlockEnd
  0
BLOCK
  5
548
330
53D
100
AcDbEntity
  8
0
100
AcDbBlockBegin
  2
*D12
 70
     1
 10
0.0
 20
0.0
 30
0.0
  3
*D12
  1

  0
LINE
  5
846
330
53D
100
AcDbEntity
  8
DIM
 62
     0
100
AcDbLine
 10
5.492699015483809
 20
3.49720651516105
 30
0.0
 11
3.506371893196211
 21
3.497206515161051
 31
0.0
  0
LINE
  5
847
330
53D
100
AcDbEntity
  8
DIM
 62
     0
100
AcDbLine
 10
5.492699015483809
 20
2.51295456516105
 30
0.0
 11
3.506371893196211
 21
2.512954565161051
 31
0.0
  0
LINE
  5
848
330
53D
100
AcDbEntity
  8
DIM
 62
     0
100
AcDbLine
 10
3.599371893196211
 20
3.317206515161051
 30
0.0
 11
3.599371893196211
 21
3.157580540161051
 31
0.0
  0
LINE
  5
849
330
53D
100
AcDbEntity
  8
DIM
 62
     0
100
AcDbLine
 10
3.599371893196211
 20
2.692954565161051
 30
0.0
 11
3.599371893196211
 21
2.852580540161051
 31
0.0
  0
SOLID
  5
84A
330
53D
100
AcDbEntity
  8
DIM
 62
     0
100
AcDbTrace
 10
3.569371893196211
 20
3.317206515161051
 30
0.0
 11
3.629371893196211
 21
3.317206515161051
 31
0.0
 12
3.599371893196211
 22
3.497206515161051
 32
0.0
 13
3.599371893196211
 23
3.497206515161051
 33
0.0
  0
SOLID
  5
84B
330
53D
100
AcDbEntity
  8
DIM
 62
     0
100
AcDbTrace
 10
3.569371893196211
 20
2.692954565161051
 30
0.0
 11
3.629371893196211
 21
2.692954565161051
 31
0.0
 12
3.599371893196211
 22
2.512954565161051
 32
0.0
 13
3.599371893196211
 23
2.512954565161051
 33
0.0
  0
MTEXT
  5
84C
330
53D
100
AcDbEntity
  8
DIM
 62
     0
100
AcDbMText
 10
3.59937189319621
 20
3.005080540161052
 30
0.0
 40
0.125
 41
0.0
 71
     5
 72
     1
  1
\A1;0.984 [25.00]
1001
ACAD
1000
MTEXTBEGIN
1070
    73
1070
     1
1070
    44
1040
1.0
1070
    74
1070
     0
1000
MTEXTEND
  0
POINT
  5
84D
330
53D
100
AcDbEntity
  8
DEFPOINTS
 62
     0
100
AcDbPoint
 10
5.555699015483809
 20
3.49720651516105
 30
0.0
  0
POINT
  5
84E
330
53D
100
AcDbEntity
  8
DEFPOINTS
 62
     0
100
AcDbPoint
 10
5.555699015483809
 20
2.51295456516105
 30
0.0
  0
POINT
  5
84F
330
53D
100
AcDbEntity
  8
DEFPOINTS
 62
     0
100
AcDbPoint
 10
3.599371893196211
 20
2.512954565161051
 30
0.0
  0
ENDBLK
  5
549
330
53D
100
AcDbEntity
  8
0
100
AcDbBlockEnd
  0
BLOCK
  5
556
330
54A
100
AcDbEntity
  8
0
100
AcDbBlockBegin
  2
*D13
 70
     1
 10
0.0
 20
0.0
 30
0.0
  3
*D13
  1

  0
LINE
  5
850
330
54A
100
AcDbEntity
  8
DIM
 62
     0
100
AcDbLine
 10
5.492699015483809
 20
0.7242375603232267
 30
0.0
 11
5.213699015483809
 21
0.7242375603232269
 31
0.0
  0
LINE
  5
851
330
54A
100
AcDbEntity
  8
DIM
 62
     0
100
AcDbLine
 10
5.492699015483809
 20
0.6454974043232176
 30
0.0
 11
5.213699015483809
 21
0.6454974043232177
 31
0.0
  0
LINE
  5
852
330
54A
100
AcDbEntity
  8
DIM
 62
     0
100
AcDbLine
 10
5.306699015483809
 20
0.9042375603232267
 30
0.0
 11
5.306699015483809
 21
1.084237560323226
 31
0.0
  0
LINE
  5
853
330
54A
100
AcDbEntity
  8
DIM
 62
     0
100
AcDbLine
 10
5.306699015483809
 20
0.4654974043232177
 30
0.0
 11
5.306699015483809
 21
0.2854974043232176
 31
0.0
  0
LINE
  5
854
330
54A
100
AcDbEntity
  8
DIM
 62
     0
100
AcDbLine
 10
5.306699015483809
 20
0.2854974043232176
 30
0.0
 11
5.12669901548381
 21
0.2854974043232176
 31
0.0
  0
SOLID
  5
855
330
54A
100
AcDbEntity
  8
DIM
 62
     0
100
AcDbTrace
 10
5.276699015483809
 20
0.9042375603232267
 30
0.0
 11
5.33669901548381
 21
0.9042375603232267
 31
0.0
 12
5.306699015483809
 22
0.7242375603232267
 32
0.0
 13
5.306699015483809
 23
0.7242375603232267
 33
0.0
  0
SOLID
  5
856
330
54A
100
AcDbEntity
  8
DIM
 62
     0
100
AcDbTrace
 10
5.276699015483809
 20
0.4654974043232177
 30
0.0
 11
5.33669901548381
 21
0.4654974043232177
 31
0.0
 12
5.306699015483809
 22
0.6454974043232176
 32
0.0
 13
5.306699015483809
 23
0.6454974043232176
 33
0.0
  0
MTEXT
  5
857
330
54A
100
AcDbEntity
  8
DIM
 62
     0
100
AcDbMText
 10
4.61482401548381
 20
0.2854974043232184
 30
0.0
 40
0.125
 41
0.0
 71
     5
 72
     1
  1
\A1;0.079 [2.00]
1001
ACAD
1000
MTEXTBEGIN
1070
    73
1070
     1
1070
    44
1040
1.0
1070
    74
1070
     0
1000
MTEXTEND
  0
POINT
  5
858
330
54A
100
AcDbEntity
  8
DEFPOINTS
 62
     0
100
AcDbPoint
 10
5.555699015483809
 20
0.7242375603232267
 30
0.0
  0
POINT
  5
859
330
54A
100
AcDbEntity
  8
DEFPOINTS
 62
     0
100
AcDbPoint
 10
5.555699015483809
 20
0.6454974043232176
 30
0.0
  0
POINT
  5
85A
330
54A
100
AcDbEntity
  8
DEFPOINTS
 62
     0
100
AcDbPoint
 10
5.306699015483809
 20
0.6454974043232176
 30
0.0
  0
ENDBLK
  5
557
330
54A
100
AcDbEntity
  8
0
100
AcDbBlockEnd
  0
BLOCK
  5
563
330
558
100
AcDbEntity
  8
0
100
AcDbBlockBegin
  2
*D14
 70
     1
 10
0.0
 20
0.0
 30
0.0
  3
*D14
  1

  0
LINE
  5
85B
330
558
100
AcDbEntity
  8
DIM
 62
     0
100
AcDbLine
 10
6.599006082483803
 20
8.475990103035725
 30
0.0
 11
6.599006082483803
 21
9.445060961035734
 31
0.0
  0
LINE
  5
85C
330
558
100
AcDbEntity
  8
DIM
 62
     0
100
AcDbLine
 10
6.461210809483802
 20
8.475990103035725
 30
0.0
 11
6.461210809483802
 21
9.445060961035734
 31
0.0
  0
LINE
  5
85D
330
558
100
AcDbEntity
  8
DIM
 62
     0
100
AcDbLine
 10
6.779006082483802
 20
9.352060961035734
 30
0.0
 11
6.959006082483803
 21
9.352060961035734
 31
0.0
  0
LINE
  5
85E
330
558
100
AcDbEntity
  8
DIM
 62
     0
100
AcDbLine
 10
6.281210809483802
 20
9.352060961035734
 30
0.0
 11
6.101210809483801
 21
9.352060961035734
 31
0.0
  0
SOLID
  5
85F
330
558
100
AcDbEntity
  8
DIM
 62
     0
100
AcDbTrace
 10
6.779006082483802
 20
9.382060961035733
 30
0.0
 11
6.779006082483802
 21
9.322060961035735
 31
0.0
 12
6.599006082483803
 22
9.352060961035734
 32
0.0
 13
6.599006082483803
 23
9.352060961035734
 33
0.0
  0
SOLID
  5
860
330
558
100
AcDbEntity
  8
DIM
 62
     0
100
AcDbTrace
 10
6.281210809483802
 20
9.382060961035733
 30
0.0
 11
6.281210809483802
 21
9.322060961035735
 31
0.0
 12
6.461210809483802
 22
9.352060961035734
 32
0.0
 13
6.461210809483802
 23
9.352060961035734
 33
0.0
  0
MTEXT
  5
861
330
558
100
AcDbEntity
  8
DIM
 62
     0
100
AcDbMText
 10
5.589335809483801
 20
9.352060961035734
 30
0.0
 40
0.125
 41
0.0
 71
     5
 72
     1
  1
\A1;0.138 [3.50]
1001
ACAD
1000
MTEXTBEGIN
1070
    73
1070
     1
1070
    44
1040
1.0
1070
    74
1070
     0
1000
MTEXTEND
  0
POINT
  5
862
330
558
100
AcDbEntity
  8
DEFPOINTS
 62
     0
100
AcDbPoint
 10
6.599006082483803
 20
8.412990103035724
 30
0.0
  0
POINT
  5
863
330
558
100
AcDbEntity
  8
DEFPOINTS
 62
     0
100
AcDbPoint
 10
6.461210809483802
 20
8.412990103035724
 30
0.0
  0
POINT
  5
864
330
558
100
AcDbEntity
  8
DEFPOINTS
 62
     0
100
AcDbPoint
 10
6.461210809483802
 20
9.352060961035734
 30
0.0
  0
ENDBLK
  5
564
330
558
100
AcDbEntity
  8
0
100
AcDbBlockEnd
  0
BLOCK
  5
570
330
565
100
AcDbEntity
  8
0
100
AcDbBlockBegin
  2
*D15
 70
     1
 10
0.0
 20
0.0
 30
0.0
  3
*D15
  1

  0
LINE
  5
865
330
565
100
AcDbEntity
  8
DIM
 62
     0
100
AcDbLine
 10
6.83522655048381
 20
11.24266118099993
 30
0.0
 11
6.83522655048381
 21
11.91366118099993
 31
0.0
  0
LINE
  5
866
330
565
100
AcDbEntity
  8
DIM
 62
     0
100
AcDbLine
 10
6.047824990483817
 20
11.24266118099993
 30
0.0
 11
6.047824990483817
 21
11.91366118099993
 31
0.0
  0
LINE
  5
867
330
565
100
AcDbEntity
  8
DIM
 62
     0
100
AcDbLine
 10
7.015226550483809
 20
11.82066118099992
 30
0.0
 11
7.19522655048381
 21
11.82066118099992
 31
0.0
  0
LINE
  5
868
330
565
100
AcDbEntity
  8
DIM
 62
     0
100
AcDbLine
 10
5.867824990483817
 20
11.82066118099992
 30
0.0
 11
5.687824990483816
 21
11.82066118099992
 31
0.0
  0
SOLID
  5
869
330
565
100
AcDbEntity
  8
DIM
 62
     0
100
AcDbTrace
 10
7.015226550483809
 20
11.85066118099992
 30
0.0
 11
7.015226550483809
 21
11.79066118099993
 31
0.0
 12
6.83522655048381
 22
11.82066118099992
 32
0.0
 13
6.83522655048381
 23
11.82066118099992
 33
0.0
  0
SOLID
  5
86A
330
565
100
AcDbEntity
  8
DIM
 62
     0
100
AcDbTrace
 10
5.867824990483817
 20
11.85066118099992
 30
0.0
 11
5.867824990483817
 21
11.79066118099993
 31
0.0
 12
6.047824990483817
 22
11.82066118099992
 32
0.0
 13
6.047824990483817
 23
11.82066118099992
 33
0.0
  0
MTEXT
  5
86B
330
565
100
AcDbEntity
  8
DIM
 62
     0
100
AcDbMText
 10
5.129074990483816
 20
11.82066118099992
 30
0.0
 40
0.125
 41
0.0
 71
     5
 72
     1
  1
\A1;0.787 [20.00]
1001
ACAD
1000
MTEXTBEGIN
1070
    73
1070
     1
1070
    44
1040
1.0
1070
    74
1070
     0
1000
MTEXTEND
  0
POINT
  5
86C
330
565
100
AcDbEntity
  8
DEFPOINTS
 62
     0
100
AcDbPoint
 10
6.83522655048381
 20
11.17966118099992
 30
0.0
  0
POINT
  5
86D
330
565
100
AcDbEntity
  8
DEFPOINTS
 62
     0
100
AcDbPoint
 10
6.047824990483817
 20
11.17966118099992
 30
0.0
  0
POINT
  5
86E
330
565
100
AcDbEntity
  8
DEFPOINTS
 62
     0
100
AcDbPoint
 10
6.047824990483817
 20
11.82066118099992
 30
0.0
  0
ENDBLK
  5
571
330
565
100
AcDbEntity
  8
0
100
AcDbBlockEnd
  0
BLOCK
  5
57D
330
572
100
AcDbEntity
  8
0
100
AcDbBlockBegin
  2
*D16
 70
     1
 10
0.0
 20
0.0
 30
0.0
  3
*D16
  1

  0
LINE
  5
86F
330
572
100
AcDbEntity
  8
DIM
 62
     0
100
AcDbLine
 10
6.382470653483808
 20
3.113080540161043
 30
0.0
 11
6.382470653483808
 21
4.141206515161051
 31
0.0
  0
LINE
  5
870
330
572
100
AcDbEntity
  8
DIM
 62
     0
100
AcDbLine
 10
6.224990341483803
 20
3.225560852161048
 30
0.0
 11
6.224990341483803
 21
4.141206515161051
 31
0.0
  0
LINE
  5
871
330
572
100
AcDbEntity
  8
DIM
 62
     0
100
AcDbLine
 10
6.562470653483807
 20
4.048206515161052
 30
0.0
 11
6.742470653483808
 21
4.048206515161052
 31
0.0
  0
LINE
  5
872
330
572
100
AcDbEntity
  8
DIM
 62
     0
100
AcDbLine
 10
6.044990341483803
 20
4.048206515161052
 30
0.0
 11
5.864990341483802
 21
4.048206515161052
 31
0.0
  0
SOLID
  5
873
330
572
100
AcDbEntity
  8
DIM
 62
     0
100
AcDbTrace
 10
6.562470653483807
 20
4.078206515161052
 30
0.0
 11
6.562470653483807
 21
4.018206515161051
 31
0.0
 12
6.382470653483808
 22
4.048206515161052
 32
0.0
 13
6.382470653483808
 23
4.048206515161052
 33
0.0
  0
SOLID
  5
874
330
572
100
AcDbEntity
  8
DIM
 62
     0
100
AcDbTrace
 10
6.044990341483803
 20
4.078206515161052
 30
0.0
 11
6.044990341483803
 21
4.018206515161051
 31
0.0
 12
6.224990341483803
 22
4.048206515161052
 32
0.0
 13
6.224990341483803
 23
4.048206515161052
 33
0.0
  0
MTEXT
  5
875
330
572
100
AcDbEntity
  8
DIM
 62
     0
100
AcDbMText
 10
5.360927841483802
 20
4.048206515161052
 30
0.0
 40
0.125
 41
0.0
 71
     5
 72
     1
  1
\A1;0.157 [4.00]
1001
ACAD
1000
MTEXTBEGIN
1070
    73
1070
     1
1070
    44
1040
1.0
1070
    74
1070
     0
1000
MTEXTEND
  0
POINT
  5
876
330
572
100
AcDbEntity
  8
DEFPOINTS
 62
     0
100
AcDbPoint
 10
6.382470653483808
 20
3.050080540161042
 30
0.0
  0
POINT
  5
877
330
572
100
AcDbEntity
  8
DEFPOINTS
 62
     0
100
AcDbPoint
 10
6.224990341483803
 20
3.162560852161048
 30
0.0
  0
POINT
  5
878
330
572
100
AcDbEntity
  8
DEFPOINTS
 62
     0
100
AcDbPoint
 10
6.224990341483803
 20
4.048206515161052
 30
0.0
  0
ENDBLK
  5
57E
330
572
100
AcDbEntity
  8
0
100
AcDbBlockEnd
  0
BLOCK
  5
58A
330
57F
100
AcDbEntity
  8
0
100
AcDbBlockBegin
  2
*D17
 70
     1
 10
0.0
 20
0.0
 30
0.0
  3
*D17
  1

  0
LINE
  5
879
330
57F
100
AcDbEntity
  8
DIM
 62
     0
100
AcDbLine
 10
7.347037564483797
 20
8.475990103035728
 30
0.0
 11
7.347037564483797
 21
9.726060961035734
 31
0.0
  0
LINE
  5
87A
330
57F
100
AcDbEntity
  8
DIM
 62
     0
100
AcDbLine
 10
6.599006082483803
 20
8.475990103035728
 30
0.0
 11
6.599006082483803
 21
9.726060961035734
 31
0.0
  0
LINE
  5
87B
330
57F
100
AcDbEntity
  8
DIM
 62
     0
100
AcDbLine
 10
7.527037564483797
 20
9.633060961035734
 30
0.0
 11
7.707037564483798
 21
9.633060961035734
 31
0.0
  0
LINE
  5
87C
330
57F
100
AcDbEntity
  8
DIM
 62
     0
100
AcDbLine
 10
6.419006082483803
 20
9.633060961035734
 30
0.0
 11
6.239006082483802
 21
9.633060961035734
 31
0.0
  0
SOLID
  5
87D
330
57F
100
AcDbEntity
  8
DIM
 62
     0
100
AcDbTrace
 10
7.527037564483797
 20
9.663060961035734
 30
0.0
 11
7.527037564483797
 21
9.603060961035735
 31
0.0
 12
7.347037564483797
 22
9.633060961035734
 32
0.0
 13
7.347037564483797
 23
9.633060961035734
 33
0.0
  0
SOLID
  5
87E
330
57F
100
AcDbEntity
  8
DIM
 62
     0
100
AcDbTrace
 10
6.419006082483803
 20
9.663060961035734
 30
0.0
 11
6.419006082483803
 21
9.603060961035735
 31
0.0
 12
6.599006082483803
 22
9.633060961035734
 32
0.0
 13
6.599006082483803
 23
9.633060961035734
 33
0.0
  0
MTEXT
  5
87F
330
57F
100
AcDbEntity
  8
DIM
 62
     0
100
AcDbMText
 10
5.688068582483802
 20
9.633060961035734
 30
0.0
 40
0.125
 41
0.0
 71
     5
 72
     1
  1
\A1;0.748 [19.00]
1001
ACAD
1000
MTEXTBEGIN
1070
    73
1070
     1
1070
    44
1040
1.0
1070
    74
1070
     0
1000
MTEXTEND
  0
POINT
  5
880
330
57F
100
AcDbEntity
  8
DEFPOINTS
 62
     0
100
AcDbPoint
 10
7.347037564483797
 20
8.412990103035728
 30
0.0
  0
POINT
  5
881
330
57F
100
AcDbEntity
  8
DEFPOINTS
 62
     0
100
AcDbPoint
 10
6.599006082483803
 20
8.412990103035728
 30
0.0
  0
POINT
  5
882
330
57F
100
AcDbEntity
  8
DEFPOINTS
 62
     0
100
AcDbPoint
 10
6.599006082483803
 20
9.633060961035734
 30
0.0
  0
ENDBLK
  5
58B
330
57F
100
AcDbEntity
  8
0
100
AcDbBlockEnd
  0
BLOCK
  5
597
330
58C
100
AcDbEntity
  8
0
100
AcDbBlockBegin
  2
*D18
 70
     1
 10
0.0
 20
0.0
 30
0.0
  3
*D18
  1

  0
LINE
  5
883
330
58C
100
AcDbEntity
  8
DIM
 62
     0
100
AcDbLine
 10
5.890344678483798
 20
6.123440645750857
 30
0.0
 11
5.890344678483798
 21
7.075440645750856
 31
0.0
  0
LINE
  5
884
330
58C
100
AcDbEntity
  8
DIM
 62
     0
100
AcDbLine
 10
7.780108422483804
 20
6.371605996750856
 30
0.0
 11
7.780108422483804
 21
7.075440645750856
 31
0.0
  0
LINE
  5
885
330
58C
100
AcDbEntity
  8
DIM
 62
     0
100
AcDbLine
 10
6.070344678483798
 20
6.982440645750856
 30
0.0
 11
6.284289050483801
 21
6.982440645750856
 31
0.0
  0
LINE
  5
886
330
58C
100
AcDbEntity
  8
DIM
 62
     0
100
AcDbLine
 10
7.600108422483804
 20
6.982440645750856
 30
0.0
 11
7.386164050483801
 21
6.982440645750856
 31
0.0
  0
SOLID
  5
887
330
58C
100
AcDbEntity
  8
DIM
 62
     0
100
AcDbTrace
 10
6.070344678483798
 20
7.012440645750857
 30
0.0
 11
6.070344678483798
 21
6.952440645750856
 31
0.0
 12
5.890344678483798
 22
6.982440645750856
 32
0.0
 13
5.890344678483798
 23
6.982440645750856
 33
0.0
  0
SOLID
  5
888
330
58C
100
AcDbEntity
  8
DIM
 62
     0
100
AcDbTrace
 10
7.600108422483804
 20
7.012440645750857
 30
0.0
 11
7.600108422483804
 21
6.952440645750856
 31
0.0
 12
7.780108422483804
 22
6.982440645750856
 32
0.0
 13
7.780108422483804
 23
6.982440645750856
 33
0.0
  0
MTEXT
  5
889
330
58C
100
AcDbEntity
  8
DIM
 62
     0
100
AcDbMText
 10
6.835226550483801
 20
6.982440645750856
 30
0.0
 40
0.125
 41
0.0
 71
     5
 72
     1
  1
\A1;1.890 [48.00]
1001
ACAD
1000
MTEXTBEGIN
1070
    73
1070
     1
1070
    44
1040
1.0
1070
    74
1070
     0
1000
MTEXTEND
  0
POINT
  5
88A
330
58C
100
AcDbEntity
  8
DEFPOINTS
 62
     0
100
AcDbPoint
 10
5.890344678483798
 20
6.060440645750857
 30
0.0
  0
POINT
  5
88B
330
58C
100
AcDbEntity
  8
DEFPOINTS
 62
     0
100
AcDbPoint
 10
7.780108422483804
 20
6.308605996750856
 30
0.0
  0
POINT
  5
88C
330
58C
100
AcDbEntity
  8
DEFPOINTS
 62
     0
100
AcDbPoint
 10
7.780108422483804
 20
6.982440645750856
 30
0.0
  0
ENDBLK
  5
598
330
58C
100
AcDbEntity
  8
0
100
AcDbBlockEnd
  0
BLOCK
  5
5A4
330
599
100
AcDbEntity
  8
0
100
AcDbBlockBegin
  2
*D19
 70
     1
 10
0.0
 20
0.0
 30
0.0
  3
*D19
  1

  0
LINE
  5
88D
330
599
100
AcDbEntity
  8
DIM
 62
     0
100
AcDbLine
 10
5.555699015483809
 20
0.7872375603232267
 30
0.0
 11
5.555699015483809
 21
1.580181497911811
 31
0.0
  0
LINE
  5
88E
330
599
100
AcDbEntity
  8
DIM
 62
     0
100
AcDbLine
 10
7.799793461483798
 20
1.062828106323215
 30
0.0
 11
7.799793461483798
 21
1.580181497911811
 31
0.0
  0
LINE
  5
88F
330
599
100
AcDbEntity
  8
DIM
 62
     0
100
AcDbLine
 10
5.735699015483809
 20
1.487181497911811
 30
0.0
 11
6.103371238483804
 21
1.487181497911811
 31
0.0
  0
LINE
  5
890
330
599
100
AcDbEntity
  8
DIM
 62
     0
100
AcDbLine
 10
7.619793461483799
 20
1.487181497911811
 30
0.0
 11
7.252121238483804
 21
1.487181497911811
 31
0.0
  0
SOLID
  5
891
330
599
100
AcDbEntity
  8
DIM
 62
     0
100
AcDbTrace
 10
5.735699015483809
 20
1.517181497911811
 30
0.0
 11
5.735699015483809
 21
1.457181497911811
 31
0.0
 12
5.555699015483809
 22
1.487181497911811
 32
0.0
 13
5.555699015483809
 23
1.487181497911811
 33
0.0
  0
SOLID
  5
892
330
599
100
AcDbEntity
  8
DIM
 62
     0
100
AcDbTrace
 10
7.619793461483799
 20
1.517181497911811
 30
0.0
 11
7.619793461483799
 21
1.457181497911811
 31
0.0
 12
7.799793461483798
 22
1.487181497911811
 32
0.0
 13
7.799793461483798
 23
1.487181497911811
 33
0.0
  0
MTEXT
  5
893
330
599
100
AcDbEntity
  8
DIM
 62
     0
100
AcDbMText
 10
6.677746238483804
 20
1.487181497911811
 30
0.0
 40
0.125
 41
0.0
 71
     5
 72
     1
  1
\A1;2.244 [57.00]
1001
ACAD
1000
MTEXTBEGIN
1070
    73
1070
     1
1070
    44
1040
1.0
1070
    74
1070
     0
1000
MTEXTEND
  0
POINT
  5
894
330
599
100
AcDbEntity
  8
DEFPOINTS
 62
     0
100
AcDbPoint
 10
5.555699015483809
 20
0.7242375603232267
 30
0.0
  0
POINT
  5
895
330
599
100
AcDbEntity
  8
DEFPOINTS
 62
     0
100
AcDbPoint
 10
7.799793461483798
 20
0.9998281063232159
 30
0.0
  0
POINT
  5
896
330
599
100
AcDbEntity
  8
DEFPOINTS
 62
     0
100
AcDbPoint
 10
7.799793461483798
 20
1.487181497911811
 30
0.0
  0
ENDBLK
  5
5A5
330
599
100
AcDbEntity
  8
0
100
AcDbBlockEnd
  0
BLOCK
  5
5B2
330
5A6
100
AcDbEntity
  8
0
100
AcDbBlockBegin
  2
*D20
 70
     1
 10
0.0
 20
0.0
 30
0.0
  3
*D20
  1

  0
LINE
  5
897
330
5A6
100
AcDbEntity
  8
DIM
 62
     0
100
AcDbLine
 10
7.637122174089856
 20
11.23871629799992
 30
0.0
 11
8.033095859898182
 21
11.23871629799992
 31
0.0
  0
LINE
  5
898
330
5A6
100
AcDbEntity
  8
DIM
 62
     0
100
AcDbLine
 10
6.875496225352503
 20
11.12060606399992
 30
0.0
 11
8.033095859898182
 21
11.12060606399992
 31
0.0
  0
LINE
  5
899
330
5A6
100
AcDbEntity
  8
DIM
 62
     0
100
AcDbLine
 10
7.940095859898183
 20
11.41871629799992
 30
0.0
 11
7.940095859898183
 21
11.59871629799992
 31
0.0
  0
LINE
  5
89A
330
5A6
100
AcDbEntity
  8
DIM
 62
     0
100
AcDbLine
 10
7.940095859898183
 20
10.94060606399992
 30
0.0
 11
7.940095859898183
 21
10.76060606399993
 31
0.0
  0
LINE
  5
89B
330
5A6
100
AcDbEntity
  8
DIM
 62
     0
100
AcDbLine
 10
7.940095859898183
 20
10.76060606399993
 30
0.0
 11
7.760095859898183
 21
10.76060606399993
 31
0.0
  0
SOLID
  5
89C
330
5A6
100
AcDbEntity
  8
DIM
 62
     0
100
AcDbTrace
 10
7.910095859898182
 20
11.41871629799992
 30
0.0
 11
7.970095859898183
 21
11.41871629799992
 31
0.0
 12
7.940095859898183
 22
11.23871629799992
 32
0.0
 13
7.940095859898183
 23
11.23871629799992
 33
0.0
  0
SOLID
  5
89D
330
5A6
100
AcDbEntity
  8
DIM
 62
     0
100
AcDbTrace
 10
7.910095859898182
 20
10.94060606399992
 30
0.0
 11
7.970095859898183
 21
10.94060606399992
 31
0.0
 12
7.940095859898183
 22
11.12060606399992
 32
0.0
 13
7.940095859898183
 23
11.12060606399992
 33
0.0
  0
MTEXT
  5
89E
330
5A6
100
AcDbEntity
  8
DIM
 62
     0
100
AcDbMText
 10
7.271658359898181
 20
10.76060606399993
 30
0.0
 40
0.125
 41
0.0
 71
     5
 72
     1
  1
\A1;0.118 [3.00]
1001
ACAD
1000
MTEXTBEGIN
1070
    73
1070
     1
1070
    44
1040
1.0
1070
    74
1070
     0
1000
MTEXTEND
  0
POINT
  5
89F
330
5A6
100
AcDbEntity
  8
DEFPOINTS
 62
     0
100
AcDbPoint
 10
7.574122174089856
 20
11.23871629799992
 30
0.0
  0
POINT
  5
8A0
330
5A6
100
AcDbEntity
  8
DEFPOINTS
 62
     0
100
AcDbPoint
 10
6.812496225352504
 20
11.12060606399992
 30
0.0
  0
POINT
  5
8A1
330
5A6
100
AcDbEntity
  8
DEFPOINTS
 62
     0
100
AcDbPoint
 10
7.940095859898183
 20
11.12060606399992
 30
0.0
  0
ENDBLK
  5
5B3
330
5A6
100
AcDbEntity
  8
0
100
AcDbBlockEnd
  0
BLOCK
  5
5C0
330
5B4
100
AcDbEntity
  8
0
100
AcDbBlockBegin
  2
*D21
 70
     1
 10
0.0
 20
0.0
 30
0.0
  3
*D21
  1

  0
LINE
  5
8A2
330
5B4
100
AcDbEntity
  8
DIM
 62
     0
100
AcDbLine
 10
7.705313149483807
 20
6.182621747150848
 30
0.0
 11
8.661918211345183
 21
6.182621747150848
 31
0.0
  0
LINE
  5
8A3
330
5B4
100
AcDbEntity
  8
DIM
 62
     0
100
AcDbLine
 10
6.875496225352488
 20
6.013196552150857
 30
0.0
 11
8.661918211345183
 21
6.013196552150857
 31
0.0
  0
LINE
  5
8A4
330
5B4
100
AcDbEntity
  8
DIM
 62
     0
100
AcDbLine
 10
8.568918211345183
 20
6.362621747150847
 30
0.0
 11
8.568918211345183
 21
6.542621747150848
 31
0.0
  0
LINE
  5
8A5
330
5B4
100
AcDbEntity
  8
DIM
 62
     0
100
AcDbLine
 10
8.568918211345183
 20
5.833196552150857
 30
0.0
 11
8.568918211345183
 21
5.653196552150856
 31
0.0
  0
LINE
  5
8A6
330
5B4
100
AcDbEntity
  8
DIM
 62
     0
100
AcDbLine
 10
8.568918211345183
 20
5.653196552150856
 30
0.0
 11
8.388918211345183
 21
5.653196552150856
 31
0.0
  0
SOLID
  5
8A7
330
5B4
100
AcDbEntity
  8
DIM
 62
     0
100
AcDbTrace
 10
8.538918211345183
 20
6.362621747150847
 30
0.0
 11
8.598918211345182
 21
6.362621747150847
 31
0.0
 12
8.568918211345183
 22
6.182621747150848
 32
0.0
 13
8.568918211345183
 23
6.182621747150848
 33
0.0
  0
SOLID
  5
8A8
330
5B4
100
AcDbEntity
  8
DIM
 62
     0
100
AcDbTrace
 10
8.538918211345183
 20
5.833196552150857
 30
0.0
 11
8.598918211345182
 21
5.833196552150857
 31
0.0
 12
8.568918211345183
 22
6.013196552150857
 32
0.0
 13
8.568918211345183
 23
6.013196552150857
 33
0.0
  0
MTEXT
  5
8A9
330
5B4
100
AcDbEntity
  8
DIM
 62
     0
100
AcDbMText
 10
7.877043211345181
 20
5.653196552150857
 30
0.0
 40
0.125
 41
0.0
 71
     5
 72
     1
  1
\A1;0.169 [4.30]
1001
ACAD
1000
MTEXTBEGIN
1070
    73
1070
     1
1070
    44
1040
1.0
1070
    74
1070
     0
1000
MTEXTEND
  0
POINT
  5
8AA
330
5B4
100
AcDbEntity
  8
DEFPOINTS
 62
     0
100
AcDbPoint
 10
7.642313149483808
 20
6.182621747150848
 30
0.0
  0
POINT
  5
8AB
330
5B4
100
AcDbEntity
  8
DEFPOINTS
 62
     0
100
AcDbPoint
 10
6.812496225352488
 20
6.013196552150857
 30
0.0
  0
POINT
  5
8AC
330
5B4
100
AcDbEntity
  8
DEFPOINTS
 62
     0
100
AcDbPoint
 10
8.568918211345183
 20
6.013196552150857
 30
0.0
  0
ENDBLK
  5
5C1
330
5B4
100
AcDbEntity
  8
0
100
AcDbBlockEnd
  0
BLOCK
  5
5CE
330
5C2
100
AcDbEntity
  8
0
100
AcDbBlockBegin
  2
*D22
 70
     1
 10
0.0
 20
0.0
 30
0.0
  3
*D22
  1

  0
LINE
  5
8AD
330
5C2
100
AcDbEntity
  8
DIM
 62
     0
100
AcDbLine
 10
7.713633025918151
 20
0.8029777163232216
 30
0.0
 11
8.661918211345183
 21
0.8029777163232212
 31
0.0
  0
LINE
  5
8AE
330
5C2
100
AcDbEntity
  8
DIM
 62
     0
100
AcDbLine
 10
6.769591632115575
 20
0.6454974043232175
 30
0.0
 11
8.661918211345183
 21
0.645497404323217
 31
0.0
  0
LINE
  5
8AF
330
5C2
100
AcDbEntity
  8
DIM
 62
     0
100
AcDbLine
 10
8.568918211345183
 20
0.9829777163232213
 30
0.0
 11
8.568918211345183
 21
1.162977716323221
 31
0.0
  0
LINE
  5
8B0
330
5C2
100
AcDbEntity
  8
DIM
 62
     0
100
AcDbLine
 10
8.568918211345183
 20
0.465497404323217
 30
0.0
 11
8.568918211345183
 21
0.285497404323217
 31
0.0
  0
LINE
  5
8B1
330
5C2
100
AcDbEntity
  8
DIM
 62
     0
100
AcDbLine
 10
8.568918211345183
 20
0.285497404323217
 30
0.0
 11
8.388918211345183
 21
0.285497404323217
 31
0.0
  0
SOLID
  5
8B2
330
5C2
100
AcDbEntity
  8
DIM
 62
     0
100
AcDbTrace
 10
8.538918211345183
 20
0.9829777163232213
 30
0.0
 11
8.598918211345182
 21
0.9829777163232213
 31
0.0
 12
8.568918211345183
 22
0.8029777163232212
 32
0.0
 13
8.568918211345183
 23
0.8029777163232212
 33
0.0
  0
SOLID
  5
8B3
330
5C2
100
AcDbEntity
  8
DIM
 62
     0
100
AcDbTrace
 10
8.538918211345183
 20
0.465497404323217
 30
0.0
 11
8.598918211345182
 21
0.465497404323217
 31
0.0
 12
8.568918211345183
 22
0.645497404323217
 32
0.0
 13
8.568918211345183
 23
0.645497404323217
 33
0.0
  0
MTEXT
  5
8B4
330
5C2
100
AcDbEntity
  8
DIM
 62
     0
100
AcDbMText
 10
7.884855711345183
 20
0.2854974043232184
 30
0.0
 40
0.125
 41
0.0
 71
     5
 72
     1
  1
\A1;0.157 [4.00]
1001
ACAD
1000
MTEXTBEGIN
1070
    73
1070
     1
1070
    44
1040
1.0
1070
    74
1070
     0
1000
MTEXTEND
  0
POINT
  5
8B5
330
5C2
100
AcDbEntity
  8
DEFPOINTS
 62
     0
100
AcDbPoint
 10
7.650633025918152
 20
0.8029777163232216
 30
0.0
  0
POINT
  5
8B6
330
5C2
100
AcDbEntity
  8
DEFPOINTS
 62
     0
100
AcDbPoint
 10
6.706591632115575
 20
0.6454974043232176
 30
0.0
  0
POINT
  5
8B7
330
5C2
100
AcDbEntity
  8
DEFPOINTS
 62
     0
100
AcDbPoint
 10
8.568918211345183
 20
0.645497404323217
 30
0.0
  0
ENDBLK
  5
5CF
330
5C2
100
AcDbEntity
  8
0
100
AcDbBlockEnd
  0
BLOCK
  5
5DC
330
5D0
100
AcDbEntity
  8
0
100
AcDbBlockBegin
  2
*D23
 70
     1
 10
0.0
 20
0.0
 30
0.0
  3
*D23
  1

  0
LINE
  5
8B8
330
5D0
100
AcDbEntity
  8
DIM
 62
     0
100
AcDbLine
 10
7.705313149483807
 20
6.229865840750846
 30
0.0
 11
8.099918211345181
 21
6.229865840750846
 31
0.0
  0
LINE
  5
8B9
330
5D0
100
AcDbEntity
  8
DIM
 62
     0
100
AcDbLine
 10
7.843108422483804
 20
6.308605996750856
 30
0.0
 11
8.099918211345181
 21
6.308605996750856
 31
0.0
  0
LINE
  5
8BA
330
5D0
100
AcDbEntity
  8
DIM
 62
     0
100
AcDbLine
 10
8.006918211345182
 20
6.049865840750847
 30
0.0
 11
8.006918211345182
 21
5.869865840750846
 31
0.0
  0
LINE
  5
8BB
330
5D0
100
AcDbEntity
  8
DIM
 62
     0
100
AcDbLine
 10
8.006918211345182
 20
6.488605996750856
 30
0.0
 11
8.006918211345182
 21
6.668605996750857
 31
0.0
  0
LINE
  5
8BC
330
5D0
100
AcDbEntity
  8
DIM
 62
     0
100
AcDbLine
 10
8.006918211345182
 20
6.668605996750857
 30
0.0
 11
8.186918211345181
 21
6.668605996750857
 31
0.0
  0
SOLID
  5
8BD
330
5D0
100
AcDbEntity
  8
DIM
 62
     0
100
AcDbTrace
 10
7.976918211345181
 20
6.049865840750847
 30
0.0
 11
8.036918211345181
 21
6.049865840750847
 31
0.0
 12
8.006918211345182
 22
6.229865840750846
 32
0.0
 13
8.006918211345182
 23
6.229865840750846
 33
0.0
  0
SOLID
  5
8BE
330
5D0
100
AcDbEntity
  8
DIM
 62
     0
100
AcDbTrace
 10
7.976918211345181
 20
6.488605996750856
 30
0.0
 11
8.036918211345181
 21
6.488605996750856
 31
0.0
 12
8.006918211345182
 22
6.308605996750856
 32
0.0
 13
8.006918211345182
 23
6.308605996750856
 33
0.0
  0
MTEXT
  5
8BF
330
5D0
100
AcDbEntity
  8
DIM
 62
     0
100
AcDbMText
 10
8.698793211345179
 20
6.668605996750858
 30
0.0
 40
0.125
 41
0.0
 71
     5
 72
     1
  1
\A1;0.079 [2.00]
1001
ACAD
1000
MTEXTBEGIN
1070
    73
1070
     1
1070
    44
1040
1.0
1070
    74
1070
     0
1000
MTEXTEND
  0
POINT
  5
8C0
330
5D0
100
AcDbEntity
  8
DEFPOINTS
 62
     0
100
AcDbPoint
 10
7.642313149483808
 20
6.229865840750846
 30
0.0
  0
POINT
  5
8C1
330
5D0
100
AcDbEntity
  8
DEFPOINTS
 62
     0
100
AcDbPoint
 10
7.780108422483804
 20
6.308605996750856
 30
0.0
  0
POINT
  5
8C2
330
5D0
100
AcDbEntity
  8
DEFPOINTS
 62
     0
100
AcDbPoint
 10
8.006918211345182
 20
6.308605996750856
 30
0.0
  0
ENDBLK
  5
5DD
330
5D0
100
AcDbEntity
  8
0
100
AcDbBlockEnd
  0
BLOCK
  5
5EA
330
5DE
100
AcDbEntity
  8
0
100
AcDbBlockBegin
  2
*D24
 70
     1
 10
0.0
 20
0.0
 30
0.0
  3
*D24
  1

  0
LINE
  5
8C3
330
5DE
100
AcDbEntity
  8
DIM
 62
     0
100
AcDbLine
 10
7.724998188483803
 20
0.8817178723232165
 30
0.0
 11
8.099918211345181
 21
0.8817178723232164
 31
0.0
  0
LINE
  5
8C4
330
5DE
100
AcDbEntity
  8
DIM
 62
     0
100
AcDbLine
 10
7.862793461483798
 20
0.9998281063232159
 30
0.0
 11
8.099918211345181
 21
0.9998281063232159
 31
0.0
  0
LINE
  5
8C5
330
5DE
100
AcDbEntity
  8
DIM
 62
     0
100
AcDbLine
 10
8.006918211345182
 20
0.7017178723232166
 30
0.0
 11
8.006918211345182
 21
0.5217178723232165
 31
0.0
  0
LINE
  5
8C6
330
5DE
100
AcDbEntity
  8
DIM
 62
     0
100
AcDbLine
 10
8.006918211345182
 20
1.179828106323215
 30
0.0
 11
8.006918211345182
 21
1.359828106323215
 31
0.0
  0
LINE
  5
8C7
330
5DE
100
AcDbEntity
  8
DIM
 62
     0
100
AcDbLine
 10
8.006918211345182
 20
1.359828106323215
 30
0.0
 11
8.186918211345181
 21
1.359828106323215
 31
0.0
  0
SOLID
  5
8C8
330
5DE
100
AcDbEntity
  8
DIM
 62
     0
100
AcDbTrace
 10
7.976918211345181
 20
0.7017178723232166
 30
0.0
 11
8.036918211345181
 21
0.7017178723232166
 31
0.0
 12
8.006918211345182
 22
0.8817178723232164
 32
0.0
 13
8.006918211345182
 23
0.8817178723232164
 33
0.0
  0
SOLID
  5
8C9
330
5DE
100
AcDbEntity
  8
DIM
 62
     0
100
AcDbTrace
 10
7.976918211345181
 20
1.179828106323215
 30
0.0
 11
8.036918211345181
 21
1.179828106323215
 31
0.0
 12
8.006918211345182
 22
0.9998281063232159
 32
0.0
 13
8.006918211345182
 23
0.9998281063232159
 33
0.0
  0
MTEXT
  5
8CA
330
5DE
100
AcDbEntity
  8
DIM
 62
     0
100
AcDbMText
 10
8.675355711345181
 20
1.359828106323217
 30
0.0
 40
0.125
 41
0.0
 71
     5
 72
     1
  1
\A1;0.118 [3.00]
1001
ACAD
1000
MTEXTBEGIN
1070
    73
1070
     1
1070
    44
1040
1.0
1070
    74
1070
     0
1000
MTEXTEND
  0
POINT
  5
8CB
330
5DE
100
AcDbEntity
  8
DEFPOINTS
 62
     0
100
AcDbPoint
 10
7.661998188483804
 20
0.8817178723232165
 30
0.0
  0
POINT
  5
8CC
330
5DE
100
AcDbEntity
  8
DEFPOINTS
 62
     0
100
AcDbPoint
 10
7.799793461483798
 20
0.9998281063232159
 30
0.0
  0
POINT
  5
8CD
330
5DE
100
AcDbEntity
  8
DEFPOINTS
 62
     0
100
AcDbPoint
 10
8.006918211345182
 20
0.9998281063232159
 30
0.0
  0
ENDBLK
  5
5EB
330
5DE
100
AcDbEntity
  8
0
100
AcDbBlockEnd
  0
BLOCK
  5
5F7
330
5EC
100
AcDbEntity
  8
0
100
AcDbBlockBegin
  2
*D25
 70
     1
 10
0.0
 20
0.0
 30
0.0
  3
*D25
  1

  0
LINE
  5
8CE
330
5EC
100
AcDbEntity
  8
DIM
 62
     0
100
AcDbLine
 10
5.984824990483803
 20
13.70198126938959
 30
0.0
 11
3.998497868196201
 21
13.70198126938959
 31
0.0
  0
LINE
  5
8CF
330
5EC
100
AcDbEntity
  8
DIM
 62
     0
100
AcDbLine
 10
5.984824990483803
 20
12.99331986538959
 30
0.0
 11
3.998497868196201
 21
12.99331986538959
 31
0.0
  0
LINE
  5
8D0
330
5EC
100
AcDbEntity
  8
DIM
 62
     0
100
AcDbLine
 10
4.091497868196201
 20
13.88198126938958
 30
0.0
 11
4.091497868196202
 21
14.06198126938958
 31
0.0
  0
LINE
  5
8D1
330
5EC
100
AcDbEntity
  8
DIM
 62
     0
100
AcDbLine
 10
4.091497868196201
 20
12.81331986538959
 30
0.0
 11
4.091497868196201
 21
12.63331986538959
 31
0.0
  0
SOLID
  5
8D2
330
5EC
100
AcDbEntity
  8
DIM
 62
     0
100
AcDbTrace
 10
4.061497868196201
 20
13.88198126938958
 30
0.0
 11
4.121497868196201
 21
13.88198126938958
 31
0.0
 12
4.091497868196201
 22
13.70198126938959
 32
0.0
 13
4.091497868196201
 23
13.70198126938959
 33
0.0
  0
SOLID
  5
8D3
330
5EC
100
AcDbEntity
  8
DIM
 62
     0
100
AcDbTrace
 10
4.061497868196201
 20
12.81331986538959
 30
0.0
 11
4.121497868196201
 21
12.81331986538959
 31
0.0
 12
4.091497868196201
 22
12.99331986538959
 32
0.0
 13
4.091497868196201
 23
12.99331986538959
 33
0.0
  0
MTEXT
  5
8D4
330
5EC
100
AcDbEntity
  8
DIM
 62
     0
100
AcDbMText
 10
4.091497868196199
 20
13.34765056738959
 30
0.0
 40
0.125
 41
0.0
 71
     5
 72
     1
  1
\A1;0.709 [18.00]
1001
ACAD
1000
MTEXTBEGIN
1070
    73
1070
     1
1070
    44
1040
1.0
1070
    74
1070
     0
1000
MTEXTEND
  0
POINT
  5
8D5
330
5EC
100
AcDbEntity
  8
DEFPOINTS
 62
     0
100
AcDbPoint
 10
6.047824990483802
 20
13.70198126938959
 30
0.0
  0
POINT
  5
8D6
330
5EC
100
AcDbEntity
  8
DEFPOINTS
 62
     0
100
AcDbPoint
 10
6.047824990483802
 20
12.99331986538959
 30
0.0
  0
POINT
  5
8D7
330
5EC
100
AcDbEntity
  8
DEFPOINTS
 62
     0
100
AcDbPoint
 10
4.091497868196201
 20
12.99331986538959
 30
0.0
  0
ENDBLK
  5
5F8
330
5EC
100
AcDbEntity
  8
0
100
AcDbBlockEnd
  0
BLOCK
  5
604
330
5F9
100
AcDbEntity
  8
0
100
AcDbBlockBegin
  2
*D26
 70
     1
 10
0.0
 20
0.0
 30
0.0
  3
*D26
  1

  0
LINE
  5
8D8
330
5F9
100
AcDbEntity
  8
DIM
 62
     0
100
AcDbLine
 10
5.984824990483803
 20
13.70198126938959
 30
0.0
 11
4.746497868196203
 21
13.70198126938959
 31
0.0
  0
LINE
  5
8D9
330
5F9
100
AcDbEntity
  8
DIM
 62
     0
100
AcDbLine
 10
6.260415536483799
 20
13.44607576238959
 30
0.0
 11
4.746497868196203
 21
13.44607576238959
 31
0.0
  0
LINE
  5
8DA
330
5F9
100
AcDbEntity
  8
DIM
 62
     0
100
AcDbLine
 10
4.839497868196203
 20
13.88198126938958
 30
0.0
 11
4.839497868196204
 21
14.06198126938958
 31
0.0
  0
LINE
  5
8DB
330
5F9
100
AcDbEntity
  8
DIM
 62
     0
100
AcDbLine
 10
4.839497868196203
 20
13.26607576238959
 30
0.0
 11
4.839497868196203
 21
13.08607576238959
 31
0.0
  0
SOLID
  5
8DC
330
5F9
100
AcDbEntity
  8
DIM
 62
     0
100
AcDbTrace
 10
4.809497868196203
 20
13.88198126938958
 30
0.0
 11
4.869497868196203
 21
13.88198126938958
 31
0.0
 12
4.839497868196203
 22
13.70198126938959
 32
0.0
 13
4.839497868196203
 23
13.70198126938959
 33
0.0
  0
SOLID
  5
8DD
330
5F9
100
AcDbEntity
  8
DIM
 62
     0
100
AcDbTrace
 10
4.809497868196203
 20
13.26607576238959
 30
0.0
 11
4.869497868196203
 21
13.26607576238959
 31
0.0
 12
4.839497868196203
 22
13.44607576238959
 32
0.0
 13
4.839497868196203
 23
13.44607576238959
 33
0.0
  0
MTEXT
  5
8DE
330
5F9
100
AcDbEntity
  8
DIM
 62
     0
100
AcDbMText
 10
4.839497868196201
 20
13.57402851588959
 30
0.0
 40
0.125
 41
0.0
 71
     5
 72
     1
  1
\A1;0.256 [6.50]
1001
ACAD
1000
MTEXTBEGIN
1070
    73
1070
     1
1070
    44
1040
1.0
1070
    74
1070
     0
1000
MTEXTEND
  0
POINT
  5
8DF
330
5F9
100
AcDbEntity
  8
DEFPOINTS
 62
     0
100
AcDbPoint
 10
6.047824990483802
 20
13.70198126938959
 30
0.0
  0
POINT
  5
8E0
330
5F9
100
AcDbEntity
  8
DEFPOINTS
 62
     0
100
AcDbPoint
 10
6.323415536483799
 20
13.44607576238959
 30
0.0
  0
POINT
  5
8E1
330
5F9
100
AcDbEntity
  8
DEFPOINTS
 62
     0
100
AcDbPoint
 10
4.839497868196203
 20
13.44607576238959
 30
0.0
  0
ENDBLK
  5
605
330
5F9
100
AcDbEntity
  8
0
100
AcDbBlockEnd
  0
BLOCK
  5
611
330
606
100
AcDbEntity
  8
0
100
AcDbBlockBegin
  2
*D27
 70
     1
 10
0.0
 20
0.0
 30
0.0
  3
*D27
  1

  0
LINE
  5
8E2
330
606
100
AcDbEntity
  8
DIM
 62
     0
100
AcDbLine
 10
6.260415536483799
 20
13.44607576238959
 30
0.0
 11
5.401497868196202
 21
13.44607576238959
 31
0.0
  0
LINE
  5
8E3
330
606
100
AcDbEntity
  8
DIM
 62
     0
100
AcDbLine
 10
6.260415536483799
 20
13.24922537238959
 30
0.0
 11
5.401497868196202
 21
13.24922537238959
 31
0.0
  0
LINE
  5
8E4
330
606
100
AcDbEntity
  8
DIM
 62
     0
100
AcDbLine
 10
5.494497868196202
 20
13.62607576238959
 30
0.0
 11
5.494497868196202
 21
13.80607576238959
 31
0.0
  0
LINE
  5
8E5
330
606
100
AcDbEntity
  8
DIM
 62
     0
100
AcDbLine
 10
5.494497868196202
 20
13.06922537238959
 30
0.0
 11
5.494497868196202
 21
12.88922537238959
 31
0.0
  0
SOLID
  5
8E6
330
606
100
AcDbEntity
  8
DIM
 62
     0
100
AcDbTrace
 10
5.464497868196202
 20
13.62607576238959
 30
0.0
 11
5.524497868196203
 21
13.62607576238959
 31
0.0
 12
5.494497868196202
 22
13.44607576238959
 32
0.0
 13
5.494497868196202
 23
13.44607576238959
 33
0.0
  0
SOLID
  5
8E7
330
606
100
AcDbEntity
  8
DIM
 62
     0
100
AcDbTrace
 10
5.464497868196202
 20
13.06922537238959
 30
0.0
 11
5.524497868196203
 21
13.06922537238959
 31
0.0
 12
5.494497868196202
 22
13.24922537238959
 32
0.0
 13
5.494497868196202
 23
13.24922537238959
 33
0.0
  0
MTEXT
  5
8E8
330
606
100
AcDbEntity
  8
DIM
 62
     0
100
AcDbMText
 10
5.494497868196201
 20
13.34765056738959
 30
0.0
 40
0.125
 41
0.0
 71
     5
 72
     1
  1
\A1;0.197 [5.00]
1001
ACAD
1000
MTEXTBEGIN
1070
    73
1070
     1
1070
    44
1040
1.0
1070
    74
1070
     0
1000
MTEXTEND
  0
POINT
  5
8E9
330
606
100
AcDbEntity
  8
DEFPOINTS
 62
     0
100
AcDbPoint
 10
6.323415536483799
 20
13.44607576238959
 30
0.0
  0
POINT
  5
8EA
330
606
100
AcDbEntity
  8
DEFPOINTS
 62
     0
100
AcDbPoint
 10
6.323415536483799
 20
13.24922537238959
 30
0.0
  0
POINT
  5
8EB
330
606
100
AcDbEntity
  8
DEFPOINTS
 62
     0
100
AcDbPoint
 10
5.494497868196202
 20
13.24922537238959
 30
0.0
  0
ENDBLK
  5
612
330
606
100
AcDbEntity
  8
0
100
AcDbBlockEnd
  0
BLOCK
  5
61E
330
613
100
AcDbEntity
  8
0
100
AcDbBlockBegin
  2
*D28
 70
     1
 10
0.0
 20
0.0
 30
0.0
  3
*D28
  1

  0
LINE
  5
8EC
330
613
100
AcDbEntity
  8
DIM
 62
     0
100
AcDbLine
 10
7.347037564483797
 20
13.23965056738959
 30
0.0
 11
7.347037564483797
 21
12.55877860299757
 31
0.0
  0
LINE
  5
8ED
330
613
100
AcDbEntity
  8
DIM
 62
     0
100
AcDbLine
 10
6.047824990483802
 20
12.93031986538959
 30
0.0
 11
6.047824990483802
 21
12.55877860299757
 31
0.0
  0
LINE
  5
8EE
330
613
100
AcDbEntity
  8
DIM
 62
     0
100
AcDbLine
 10
7.527037564483797
 20
12.65177860299757
 30
0.0
 11
7.707037564483798
 21
12.65177860299757
 31
0.0
  0
LINE
  5
8EF
330
613
100
AcDbEntity
  8
DIM
 62
     0
100
AcDbLine
 10
5.867824990483803
 20
12.65177860299757
 30
0.0
 11
5.687824990483802
 21
12.65177860299757
 31
0.0
  0
SOLID
  5
8F0
330
613
100
AcDbEntity
  8
DIM
 62
     0
100
AcDbTrace
 10
7.527037564483797
 20
12.68177860299757
 30
0.0
 11
7.527037564483797
 21
12.62177860299757
 31
0.0
 12
7.347037564483797
 22
12.65177860299757
 32
0.0
 13
7.347037564483797
 23
12.65177860299757
 33
0.0
  0
SOLID
  5
8F1
330
613
100
AcDbEntity
  8
DIM
 62
     0
100
AcDbTrace
 10
5.867824990483803
 20
12.68177860299757
 30
0.0
 11
5.867824990483803
 21
12.62177860299757
 31
0.0
 12
6.047824990483802
 22
12.65177860299757
 32
0.0
 13
6.047824990483802
 23
12.65177860299757
 33
0.0
  0
MTEXT
  5
8F2
330
613
100
AcDbEntity
  8
DIM
 62
     0
100
AcDbMText
 10
6.6974312774838
 20
12.65177860299757
 30
0.0
 40
0.125
 41
0.0
 71
     5
 72
     1
  1
\A1;1.299 [33.00]
1001
ACAD
1000
MTEXTBEGIN
1070
    73
1070
     1
1070
    44
1040
1.0
1070
    74
1070
     0
1000
MTEXTEND
  0
POINT
  5
8F3
330
613
100
AcDbEntity
  8
DEFPOINTS
 62
     0
100
AcDbPoint
 10
7.347037564483797
 20
13.30265056738959
 30
0.0
  0
POINT
  5
8F4
330
613
100
AcDbEntity
  8
DEFPOINTS
 62
     0
100
AcDbPoint
 10
6.047824990483802
 20
12.99331986538959
 30
0.0
  0
POINT
  5
8F5
330
613
100
AcDbEntity
  8
DEFPOINTS
 62
     0
100
AcDbPoint
 10
6.047824990483802
 20
12.65177860299757
 30
0.0
  0
ENDBLK
  5
61F
330
613
100
AcDbEntity
  8
0
100
AcDbBlockEnd
  0
BLOCK
  5
62B
330
620
100
AcDbEntity
  8
0
100
AcDbBlockBegin
  2
*D29
 70
     1
 10
0.0
 20
0.0
 30
0.0
  3
*D29
  1

  0
LINE
  5
8F6
330
620
100
AcDbEntity
  8
DIM
 62
     0
100
AcDbLine
 10
5.890344678483798
 20
7.950659401035724
 30
0.0
 11
5.890344678483798
 21
7.284682764430987
 31
0.0
  0
LINE
  5
8F7
330
620
100
AcDbEntity
  8
DIM
 62
     0
100
AcDbLine
 10
7.347037564483797
 20
8.259990103035724
 30
0.0
 11
7.347037564483797
 21
7.284682764430987
 31
0.0
  0
LINE
  5
8F8
330
620
100
AcDbEntity
  8
DIM
 62
     0
100
AcDbLine
 10
5.710344678483799
 20
7.377682764430987
 30
0.0
 11
5.530344678483798
 21
7.377682764430987
 31
0.0
  0
LINE
  5
8F9
330
620
100
AcDbEntity
  8
DIM
 62
     0
100
AcDbLine
 10
7.527037564483797
 20
7.377682764430987
 30
0.0
 11
7.707037564483798
 21
7.377682764430987
 31
0.0
  0
SOLID
  5
8FA
330
620
100
AcDbEntity
  8
DIM
 62
     0
100
AcDbTrace
 10
5.710344678483799
 20
7.407682764430988
 30
0.0
 11
5.710344678483799
 21
7.347682764430987
 31
0.0
 12
5.890344678483798
 22
7.377682764430987
 32
0.0
 13
5.890344678483798
 23
7.377682764430987
 33
0.0
  0
SOLID
  5
8FB
330
620
100
AcDbEntity
  8
DIM
 62
     0
100
AcDbTrace
 10
7.527037564483797
 20
7.407682764430988
 30
0.0
 11
7.527037564483797
 21
7.347682764430987
 31
0.0
 12
7.347037564483797
 22
7.377682764430987
 32
0.0
 13
7.347037564483797
 23
7.377682764430987
 33
0.0
  0
MTEXT
  5
8FC
330
620
100
AcDbEntity
  8
DIM
 62
     0
100
AcDbMText
 10
6.618691121483798
 20
7.377682764430987
 30
0.0
 40
0.125
 41
0.0
 71
     5
 72
     1
  1
\A1;1.457 [37.00]
1001
ACAD
1000
MTEXTBEGIN
1070
    73
1070
     1
1070
    44
1040
1.0
1070
    74
1070
     0
1000
MTEXTEND
  0
POINT
  5
8FD
330
620
100
AcDbEntity
  8
DEFPOINTS
 62
     0
100
AcDbPoint
 10
5.890344678483798
 20
8.013659401035724
 30
0.0
  0
POINT
  5
8FE
330
620
100
AcDbEntity
  8
DEFPOINTS
 62
     0
100
AcDbPoint
 10
7.347037564483797
 20
8.322990103035724
 30
0.0
  0
POINT
  5
8FF
330
620
100
AcDbEntity
  8
DEFPOINTS
 62
     0
100
AcDbPoint
 10
7.347037564483797
 20
7.377682764430987
 30
0.0
  0
ENDBLK
  5
62C
330
620
100
AcDbEntity
  8
0
100
AcDbBlockEnd
  0
BLOCK
  5
638
330
62D
100
AcDbEntity
  8
0
100
AcDbBlockBegin
  2
*D30
 70
     1
 10
0.0
 20
0.0
 30
0.0
  3
*D30
  1

  0
LINE
  5
900
330
62D
100
AcDbEntity
  8
DIM
 62
     0
100
AcDbLine
 10
6.398210809483802
 20
8.481990103035727
 30
0.0
 11
5.244017556196198
 21
8.481990103035727
 31
0.0
  0
LINE
  5
901
330
62D
100
AcDbEntity
  8
DIM
 62
     0
100
AcDbLine
 10
6.398210809483802
 20
8.253990103035723
 30
0.0
 11
5.244017556196198
 21
8.253990103035723
 31
0.0
  0
LINE
  5
902
330
62D
100
AcDbEntity
  8
DIM
 62
     0
100
AcDbLine
 10
5.337017556196198
 20
8.661990103035726
 30
0.0
 11
5.337017556196198
 21
8.841990103035726
 31
0.0
  0
LINE
  5
903
330
62D
100
AcDbEntity
  8
DIM
 62
     0
100
AcDbLine
 10
5.337017556196198
 20
8.073990103035724
 30
0.0
 11
5.337017556196198
 21
7.893990103035724
 31
0.0
  0
SOLID
  5
904
330
62D
100
AcDbEntity
  8
DIM
 62
     0
100
AcDbTrace
 10
5.307017556196198
 20
8.661990103035726
 30
0.0
 11
5.367017556196199
 21
8.661990103035726
 31
0.0
 12
5.337017556196198
 22
8.481990103035727
 32
0.0
 13
5.337017556196198
 23
8.481990103035727
 33
0.0
  0
SOLID
  5
905
330
62D
100
AcDbEntity
  8
DIM
 62
     0
100
AcDbTrace
 10
5.307017556196198
 20
8.073990103035724
 30
0.0
 11
5.367017556196199
 21
8.073990103035724
 31
0.0
 12
5.337017556196198
 22
8.253990103035723
 32
0.0
 13
5.337017556196198
 23
8.253990103035723
 33
0.0
  0
MTEXT
  5
906
330
62D
100
AcDbEntity
  8
DIM
 62
     0
100
AcDbMText
 10
5.337017556196197
 20
8.367990103035726
 30
0.0
 40
0.125
 41
0.0
 71
     5
 72
     1
  1
\A1;0.228 [5.79]
1001
ACAD
1000
MTEXTBEGIN
1070
    73
1070
     1
1070
    44
1040
1.0
1070
    74
1070
     0
1000
MTEXTEND
  0
POINT
  5
907
330
62D
100
AcDbEntity
  8
DEFPOINTS
 62
     0
100
AcDbPoint
 10
6.461210809483802
 20
8.481990103035727
 30
0.0
  0
POINT
  5
908
330
62D
100
AcDbEntity
  8
DEFPOINTS
 62
     0
100
AcDbPoint
 10
6.461210809483802
 20
8.253990103035723
 30
0.0
  0
POINT
  5
909
330
62D
100
AcDbEntity
  8
DEFPOINTS
 62
     0
100
AcDbPoint
 10
5.337017556196198
 20
8.253990103035723
 30
0.0
  0
ENDBLK
  5
639
330
62D
100
AcDbEntity
  8
0
100
AcDbBlockEnd
  0
BLOCK
  5
645
330
63A
100
AcDbEntity
  8
0
100
AcDbBlockBegin
  2
*D31
 70
     1
 10
0.0
 20
0.0
 30
0.0
  3
*D31
  1

  0
LINE
  5
90A
330
63A
100
AcDbEntity
  8
DIM
 62
     0
100
AcDbLine
 10
6.398210809483802
 20
8.481990103035727
 30
0.0
 11
4.589017556196198
 21
8.481990103035727
 31
0.0
  0
LINE
  5
90B
330
63A
100
AcDbEntity
  8
DIM
 62
     0
100
AcDbLine
 10
5.906084834483807
 20
8.801060961035734
 30
0.0
 11
4.589017556196198
 21
8.801060961035734
 31
0.0
  0
LINE
  5
90C
330
63A
100
AcDbEntity
  8
DIM
 62
     0
100
AcDbLine
 10
4.682017556196198
 20
8.301990103035727
 30
0.0
 11
4.682017556196198
 21
8.121990103035727
 31
0.0
  0
LINE
  5
90D
330
63A
100
AcDbEntity
  8
DIM
 62
     0
100
AcDbLine
 10
4.682017556196198
 20
8.981060961035733
 30
0.0
 11
4.682017556196198
 21
9.161060961035733
 31
0.0
  0
SOLID
  5
90E
330
63A
100
AcDbEntity
  8
DIM
 62
     0
100
AcDbTrace
 10
4.652017556196198
 20
8.301990103035727
 30
0.0
 11
4.712017556196198
 21
8.301990103035727
 31
0.0
 12
4.682017556196198
 22
8.481990103035727
 32
0.0
 13
4.682017556196198
 23
8.481990103035727
 33
0.0
  0
SOLID
  5
90F
330
63A
100
AcDbEntity
  8
DIM
 62
     0
100
AcDbTrace
 10
4.652017556196198
 20
8.981060961035733
 30
0.0
 11
4.712017556196198
 21
8.981060961035733
 31
0.0
 12
4.682017556196198
 22
8.801060961035734
 32
0.0
 13
4.682017556196198
 23
8.801060961035734
 33
0.0
  0
MTEXT
  5
910
330
63A
100
AcDbEntity
  8
DIM
 62
     0
100
AcDbMText
 10
4.682017556196197
 20
8.641525532035732
 30
0.0
 40
0.125
 41
0.0
 71
     5
 72
     1
  1
\A1;0.319 [8.10]
1001
ACAD
1000
MTEXTBEGIN
1070
    73
1070
     1
1070
    44
1040
1.0
1070
    74
1070
     0
1000
MTEXTEND
  0
POINT
  5
911
330
63A
100
AcDbEntity
  8
DEFPOINTS
 62
     0
100
AcDbPoint
 10
6.461210809483802
 20
8.481990103035727
 30
0.0
  0
POINT
  5
912
330
63A
100
AcDbEntity
  8
DEFPOINTS
 62
     0
100
AcDbPoint
 10
5.969084834483807
 20
8.801060961035734
 30
0.0
  0
POINT
  5
913
330
63A
100
AcDbEntity
  8
DEFPOINTS
 62
     0
100
AcDbPoint
 10
4.682017556196198
 20
8.801060961035734
 30
0.0
  0
ENDBLK
  5
646
330
63A
100
AcDbEntity
  8
0
100
AcDbBlockEnd
  0
BLOCK
  5
652
330
647
100
AcDbEntity
  8
0
100
AcDbBlockBegin
  2
*D32
 70
     1
 10
0.0
 20
0.0
 30
0.0
  3
*D32
  1

  0
LINE
  5
914
330
647
100
AcDbEntity
  8
DIM
 62
     0
100
AcDbLine
 10
5.870659639483803
 20
2.897080540161042
 30
0.0
 11
5.870659639483803
 21
2.06318722974249
 31
0.0
  0
LINE
  5
915
330
647
100
AcDbEntity
  8
DIM
 62
     0
100
AcDbLine
 10
7.347037564483797
 20
2.897080540161042
 30
0.0
 11
7.347037564483797
 21
2.06318722974249
 31
0.0
  0
LINE
  5
916
330
647
100
AcDbEntity
  8
DIM
 62
     0
100
AcDbLine
 10
5.690659639483803
 20
2.15618722974249
 30
0.0
 11
5.510659639483803
 21
2.15618722974249
 31
0.0
  0
LINE
  5
917
330
647
100
AcDbEntity
  8
DIM
 62
     0
100
AcDbLine
 10
7.527037564483797
 20
2.15618722974249
 30
0.0
 11
7.707037564483798
 21
2.15618722974249
 31
0.0
  0
SOLID
  5
918
330
647
100
AcDbEntity
  8
DIM
 62
     0
100
AcDbTrace
 10
5.690659639483803
 20
2.18618722974249
 30
0.0
 11
5.690659639483803
 21
2.126187229742491
 31
0.0
 12
5.870659639483803
 22
2.15618722974249
 32
0.0
 13
5.870659639483803
 23
2.15618722974249
 33
0.0
  0
SOLID
  5
919
330
647
100
AcDbEntity
  8
DIM
 62
     0
100
AcDbTrace
 10
7.527037564483797
 20
2.18618722974249
 30
0.0
 11
7.527037564483797
 21
2.126187229742491
 31
0.0
 12
7.347037564483797
 22
2.15618722974249
 32
0.0
 13
7.347037564483797
 23
2.15618722974249
 33
0.0
  0
MTEXT
  5
91A
330
647
100
AcDbEntity
  8
DIM
 62
     0
100
AcDbMText
 10
6.6088486019838
 20
2.15618722974249
 30
0.0
 40
0.125
 41
0.0
 71
     5
 72
     1
  1
\A1;1.476 [37.50]
1001
ACAD
1000
MTEXTBEGIN
1070
    73
1070
     1
1070
    44
1040
1.0
1070
    74
1070
     0
1000
MTEXTEND
  0
POINT
  5
91B
330
647
100
AcDbEntity
  8
DEFPOINTS
 62
     0
100
AcDbPoint
 10
5.870659639483803
 20
2.960080540161042
 30
0.0
  0
POINT
  5
91C
330
647
100
AcDbEntity
  8
DEFPOINTS
 62
     0
100
AcDbPoint
 10
7.347037564483797
 20
2.960080540161042
 30
0.0
  0
POINT
  5
91D
330
647
100
AcDbEntity
  8
DEFPOINTS
 62
     0
100
AcDbPoint
 10
7.347037564483797
 20
2.15618722974249
 30
0.0
  0
ENDBLK
  5
653
330
647
100
AcDbEntity
  8
0
100
AcDbBlockEnd
  0
BLOCK
  5
65F
330
654
100
AcDbEntity
  8
0
100
AcDbBlockBegin
  2
*D33
 70
     1
 10
0.0
 20
0.0
 30
0.0
  3
*D33
  1

  0
LINE
  5
91E
330
654
100
AcDbEntity
  8
DIM
 62
     0
100
AcDbLine
 10
5.555699015483809
 20
0.7872375603232267
 30
0.0
 11
5.555699015483809
 21
1.299181497911812
 31
0.0
  0
LINE
  5
91F
330
654
100
AcDbEntity
  8
DIM
 62
     0
100
AcDbLine
 10
6.736801355483804
 20
0.7872375603232267
 30
0.0
 11
6.736801355483804
 21
1.299181497911812
 31
0.0
  0
LINE
  5
920
330
654
100
AcDbEntity
  8
DIM
 62
     0
100
AcDbLine
 10
5.375699015483809
 20
1.206181497911812
 30
0.0
 11
5.195699015483809
 21
1.206181497911812
 31
0.0
  0
LINE
  5
921
330
654
100
AcDbEntity
  8
DIM
 62
     0
100
AcDbLine
 10
6.916801355483804
 20
1.206181497911812
 30
0.0
 11
7.096801355483805
 21
1.206181497911812
 31
0.0
  0
SOLID
  5
922
330
654
100
AcDbEntity
  8
DIM
 62
     0
100
AcDbTrace
 10
5.375699015483809
 20
1.236181497911812
 30
0.0
 11
5.375699015483809
 21
1.176181497911812
 31
0.0
 12
5.555699015483809
 22
1.206181497911812
 32
0.0
 13
5.555699015483809
 23
1.206181497911812
 33
0.0
  0
SOLID
  5
923
330
654
100
AcDbEntity
  8
DIM
 62
     0
100
AcDbTrace
 10
6.916801355483804
 20
1.236181497911812
 30
0.0
 11
6.916801355483804
 21
1.176181497911812
 31
0.0
 12
6.736801355483804
 22
1.206181497911812
 32
0.0
 13
6.736801355483804
 23
1.206181497911812
 33
0.0
  0
MTEXT
  5
924
330
654
100
AcDbEntity
  8
DIM
 62
     0
100
AcDbMText
 10
6.146250185483807
 20
1.206181497911812
 30
0.0
 40
0.125
 41
0.0
 71
     5
 72
     1
  1
\A1;1.181 [30.00]
1001
ACAD
1000
MTEXTBEGIN
1070
    73
1070
     1
1070
    44
1040
1.0
1070
    74
1070
     0
1000
MTEXTEND
  0
POINT
  5
925
330
654
100
AcDbEntity
  8
DEFPOINTS
 62
     0
100
AcDbPoint
 10
5.555699015483809
 20
0.7242375603232267
 30
0.0
  0
POINT
  5
926
330
654
100
AcDbEntity
  8
DEFPOINTS
 62
     0
100
AcDbPoint
 10
6.736801355483804
 20
0.7242375603232267
 30
0.0
  0
POINT
  5
927
330
654
100
AcDbEntity
  8
DEFPOINTS
 62
     0
100
AcDbPoint
 10
6.736801355483804
 20
1.206181497911812
 30
0.0
  0
ENDBLK
  5
660
330
654
100
AcDbEntity
  8
0
100
AcDbBlockEnd
  0
BLOCK
  5
66C
330
661
100
AcDbEntity
  8
0
100
AcDbBlockBegin
  2
*D34
 70
     1
 10
0.0
 20
0.0
 30
0.0
  3
*D34
  1

  0
LINE
  5
928
330
661
100
AcDbEntity
  8
DIM
 62
     0
100
AcDbLine
 10
6.161990341483803
 20
3.162560852161048
 30
0.0
 11
4.930333797914766
 21
3.162560852161048
 31
0.0
  0
LINE
  5
929
330
661
100
AcDbEntity
  8
DIM
 62
     0
100
AcDbLine
 10
6.161990341483803
 20
2.847600228161041
 30
0.0
 11
4.930333797914766
 21
2.847600228161041
 31
0.0
  0
LINE
  5
92A
330
661
100
AcDbEntity
  8
DIM
 62
     0
100
AcDbLine
 10
5.023333797914766
 20
3.342560852161048
 30
0.0
 11
5.023333797914766
 21
3.522560852161048
 31
0.0
  0
LINE
  5
92B
330
661
100
AcDbEntity
  8
DIM
 62
     0
100
AcDbLine
 10
5.023333797914766
 20
2.66760022816104
 30
0.0
 11
5.023333797914766
 21
2.487600228161041
 31
0.0
  0
SOLID
  5
92C
330
661
100
AcDbEntity
  8
DIM
 62
     0
100
AcDbTrace
 10
4.993333797914766
 20
3.342560852161049
 30
0.0
 11
5.053333797914766
 21
3.342560852161048
 31
0.0
 12
5.023333797914766
 22
3.162560852161048
 32
0.0
 13
5.023333797914766
 23
3.162560852161048
 33
0.0
  0
SOLID
  5
92D
330
661
100
AcDbEntity
  8
DIM
 62
     0
100
AcDbTrace
 10
4.993333797914766
 20
2.667600228161041
 30
0.0
 11
5.053333797914766
 21
2.66760022816104
 31
0.0
 12
5.023333797914766
 22
2.847600228161041
 32
0.0
 13
5.023333797914766
 23
2.847600228161041
 33
0.0
  0
MTEXT
  5
92E
330
661
100
AcDbEntity
  8
DIM
 62
     0
100
AcDbMText
 10
5.023333797914765
 20
3.005080540161045
 30
0.0
 40
0.125
 41
0.0
 71
     5
 72
     1
  1
\A1;0.315 [8.00]
1001
ACAD
1000
MTEXTBEGIN
1070
    73
1070
     1
1070
    44
1040
1.0
1070
    74
1070
     0
1000
MTEXTEND
  0
POINT
  5
92F
330
661
100
AcDbEntity
  8
DEFPOINTS
 62
     0
100
AcDbPoint
 10
6.224990341483803
 20
3.162560852161048
 30
0.0
  0
POINT
  5
930
330
661
100
AcDbEntity
  8
DEFPOINTS
 62
     0
100
AcDbPoint
 10
6.224990341483803
 20
2.847600228161041
 30
0.0
  0
POINT
  5
931
330
661
100
AcDbEntity
  8
DEFPOINTS
 62
     0
100
AcDbPoint
 10
5.023333797914766
 20
2.847600228161041
 30
0.0
  0
ENDBLK
  5
66D
330
661
100
AcDbEntity
  8
0
100
AcDbBlockEnd
  0
BLOCK
  5
679
330
66E
100
AcDbEntity
  8
0
100
AcDbBlockBegin
  2
*D35
 70
     1
 10
0.0
 20
0.0
 30
0.0
  3
*D35
  1

  0
LINE
  5
932
330
66E
100
AcDbEntity
  8
DIM
 62
     0
100
AcDbLine
 10
7.370667486483807
 20
3.497206515161024
 30
0.0
 11
8.429672973079281
 21
3.497206515161024
 31
0.0
  0
LINE
  5
933
330
66E
100
AcDbEntity
  8
DIM
 62
     0
100
AcDbLine
 10
7.455037564483797
 20
3.005080540161045
 30
0.0
 11
8.429672973079281
 21
3.005080540161045
 31
0.0
  0
LINE
  5
934
330
66E
100
AcDbEntity
  8
DIM
 62
     0
100
AcDbLine
 10
8.336672973079281
 20
3.677206515161024
 30
0.0
 11
8.336672973079281
 21
3.857206515161024
 31
0.0
  0
LINE
  5
935
330
66E
100
AcDbEntity
  8
DIM
 62
     0
100
AcDbLine
 10
8.336672973079281
 20
2.825080540161044
 30
0.0
 11
8.336672973079281
 21
2.645080540161045
 31
0.0
  0
SOLID
  5
936
330
66E
100
AcDbEntity
  8
DIM
 62
     0
100
AcDbTrace
 10
8.306672973079281
 20
3.677206515161024
 30
0.0
 11
8.36667297307928
 21
3.677206515161024
 31
0.0
 12
8.336672973079281
 22
3.497206515161024
 32
0.0
 13
8.336672973079281
 23
3.497206515161024
 33
0.0
  0
SOLID
  5
937
330
66E
100
AcDbEntity
  8
DIM
 62
     0
100
AcDbTrace
 10
8.306672973079281
 20
2.825080540161044
 30
0.0
 11
8.36667297307928
 21
2.825080540161044
 31
0.0
 12
8.336672973079281
 22
3.005080540161045
 32
0.0
 13
8.336672973079281
 23
3.005080540161045
 33
0.0
  0
MTEXT
  5
938
330
66E
100
AcDbEntity
  8
DIM
 62
     0
100
AcDbMText
 10
8.336672973079281
 20
3.251143527661036
 30
0.0
 40
0.125
 41
0.0
 71
     5
 72
     1
  1
\A1;0.492 [12.50]
1001
ACAD
1000
MTEXTBEGIN
1070
    73
1070
     1
1070
    44
1040
1.0
1070
    74
1070
     0
1000
MTEXTEND
  0
POINT
  5
939
330
66E
100
AcDbEntity
  8
DEFPOINTS
 62
     0
100
AcDbPoint
 10
7.307667486483807
 20
3.497206515161024
 30
0.0
  0
POINT
  5
93A
330
66E
100
AcDbEntity
  8
DEFPOINTS
 62
     0
100
AcDbPoint
 10
7.392037564483797
 20
3.005080540161045
 30
0.0
  0
POINT
  5
93B
330
66E
100
AcDbEntity
  8
DEFPOINTS
 62
     0
100
AcDbPoint
 10
8.336672973079281
 20
3.005080540161045
 30
0.0
  0
ENDBLK
  5
67A
330
66E
100
AcDbEntity
  8
0
100
AcDbBlockEnd
  0
BLOCK
  5
686
330
67B
100
AcDbEntity
  8
0
100
AcDbBlockBegin
  2
*D36
 70
     1
 10
0.0
 20
0.0
 30
0.0
  3
*D36
  1

  0
LINE
  5
93C
330
67B
100
AcDbEntity
  8
DIM
 62
     0
100
AcDbLine
 10
6.161990341483803
 20
3.162560852161048
 30
0.0
 11
4.254371893196209
 21
3.162560852161048
 31
0.0
  0
LINE
  5
93D
330
67B
100
AcDbEntity
  8
DIM
 62
     0
100
AcDbLine
 10
5.492699015483809
 20
3.49720651516105
 30
0.0
 11
4.254371893196209
 21
3.497206515161051
 31
0.0
  0
LINE
  5
93E
330
67B
100
AcDbEntity
  8
DIM
 62
     0
100
AcDbLine
 10
4.347371893196209
 20
2.982560852161048
 30
0.0
 11
4.347371893196209
 21
2.802560852161048
 31
0.0
  0
LINE
  5
93F
330
67B
100
AcDbEntity
  8
DIM
 62
     0
100
AcDbLine
 10
4.347371893196209
 20
3.677206515161051
 30
0.0
 11
4.347371893196209
 21
3.857206515161051
 31
0.0
  0
SOLID
  5
940
330
67B
100
AcDbEntity
  8
DIM
 62
     0
100
AcDbTrace
 10
4.317371893196209
 20
2.982560852161048
 30
0.0
 11
4.377371893196209
 21
2.982560852161048
 31
0.0
 12
4.347371893196209
 22
3.162560852161048
 32
0.0
 13
4.347371893196209
 23
3.162560852161048
 33
0.0
  0
SOLID
  5
941
330
67B
100
AcDbEntity
  8
DIM
 62
     0
100
AcDbTrace
 10
4.317371893196209
 20
3.677206515161051
 30
0.0
 11
4.377371893196209
 21
3.677206515161051
 31
0.0
 12
4.347371893196209
 22
3.497206515161051
 32
0.0
 13
4.347371893196209
 23
3.497206515161051
 33
0.0
  0
MTEXT
  5
942
330
67B
100
AcDbEntity
  8
DIM
 62
     0
100
AcDbMText
 10
4.347371893196208
 20
3.32988368366105
 30
0.0
 40
0.125
 41
0.0
 71
     5
 72
     1
  1
\A1;0.335 [8.50]
1001
ACAD
1000
MTEXTBEGIN
1070
    73
1070
     1
1070
    44
1040
1.0
1070
    74
1070
     0
1000
MTEXTEND
  0
POINT
  5
943
330
67B
100
AcDbEntity
  8
DEFPOINTS
 62
     0
100
AcDbPoint
 10
6.224990341483803
 20
3.162560852161048
 30
0.0
  0
POINT
  5
944
330
67B
100
AcDbEntity
  8
DEFPOINTS
 62
     0
100
AcDbPoint
 10
5.555699015483809
 20
3.49720651516105
 30
0.0
  0
POINT
  5
945
330
67B
100
AcDbEntity
  8
DEFPOINTS
 62
     0
100
AcDbPoint
 10
4.347371893196209
 20
3.497206515161051
 30
0.0
  0
ENDBLK
  5
687
330
67B
100
AcDbEntity
  8
0
100
AcDbBlockEnd
  0
BLOCK
  5
693
330
688
100
AcDbEntity
  8
0
100
AcDbBlockBegin
  2
*D37
 70
     1
 10
0.0
 20
0.0
 30
0.0
  3
*D37
  1

  0
LINE
  5
946
330
688
100
AcDbEntity
  8
DIM
 62
     0
100
AcDbLine
 10
7.410037564483797
 20
8.801060961035718
 30
0.0
 11
8.425737873161347
 21
8.801060961035718
 31
0.0
  0
LINE
  5
947
330
688
100
AcDbEntity
  8
DIM
 62
     0
100
AcDbLine
 10
7.455037564483797
 20
8.367990103035722
 30
0.0
 11
8.425737873161347
 21
8.367990103035722
 31
0.0
  0
LINE
  5
948
330
688
100
AcDbEntity
  8
DIM
 62
     0
100
AcDbLine
 10
8.332737873161347
 20
8.981060961035717
 30
0.0
 11
8.332737873161347
 21
9.161060961035717
 31
0.0
  0
LINE
  5
949
330
688
100
AcDbEntity
  8
DIM
 62
     0
100
AcDbLine
 10
8.332737873161347
 20
8.187990103035723
 30
0.0
 11
8.332737873161347
 21
8.007990103035723
 31
0.0
  0
SOLID
  5
94A
330
688
100
AcDbEntity
  8
DIM
 62
     0
100
AcDbTrace
 10
8.302737873161348
 20
8.981060961035717
 30
0.0
 11
8.362737873161346
 21
8.981060961035717
 31
0.0
 12
8.332737873161347
 22
8.801060961035718
 32
0.0
 13
8.332737873161347
 23
8.801060961035718
 33
0.0
  0
SOLID
  5
94B
330
688
100
AcDbEntity
  8
DIM
 62
     0
100
AcDbTrace
 10
8.302737873161348
 20
8.187990103035723
 30
0.0
 11
8.362737873161346
 21
8.187990103035723
 31
0.0
 12
8.332737873161347
 22
8.367990103035722
 32
0.0
 13
8.332737873161347
 23
8.367990103035722
 33
0.0
  0
MTEXT
  5
94C
330
688
100
AcDbEntity
  8
DIM
 62
     0
100
AcDbMText
 10
8.332737873161345
 20
8.584525532035723
 30
0.0
 40
0.125
 41
0.0
 71
     5
 72
     1
  1
\A1;0.433 [11.00]
1001
ACAD
1000
MTEXTBEGIN
1070
    73
1070
     1
1070
    44
1040
1.0
1070
    74
1070
     0
1000
MTEXTEND
  0
POINT
  5
94D
330
688
100
AcDbEntity
  8
DEFPOINTS
 62
     0
100
AcDbPoint
 10
7.347037564483797
 20
8.801060961035718
 30
0.0
  0
POINT
  5
94E
330
688
100
AcDbEntity
  8
DEFPOINTS
 62
     0
100
AcDbPoint
 10
7.392037564483797
 20
8.367990103035722
 30
0.0
  0
POINT
  5
94F
330
688
100
AcDbEntity
  8
DEFPOINTS
 62
     0
100
AcDbPoint
 10
8.332737873161347
 20
8.367990103035722
 30
0.0
  0
ENDBLK
  5
694
330
688
100
AcDbEntity
  8
0
100
AcDbBlockEnd
  0
BLOCK
  5
6A0
330
695
100
AcDbEntity
  8
0
100
AcDbBlockBegin
  2
*D38
 70
     1
 10
0.0
 20
0.0
 30
0.0
  3
*D38
  1

  0
LINE
  5
950
330
695
100
AcDbEntity
  8
DIM
 62
     0
100
AcDbLine
 10
7.410037564483797
 20
13.70198126938959
 30
0.0
 11
8.395323597913026
 21
13.70198126938959
 31
0.0
  0
LINE
  5
951
330
695
100
AcDbEntity
  8
DIM
 62
     0
100
AcDbLine
 10
7.455037564483797
 20
13.34765056738959
 30
0.0
 11
8.395323597913026
 21
13.34765056738959
 31
0.0
  0
LINE
  5
952
330
695
100
AcDbEntity
  8
DIM
 62
     0
100
AcDbLine
 10
8.302323597913026
 20
13.88198126938958
 30
0.0
 11
8.302323597913026
 21
14.06198126938958
 31
0.0
  0
LINE
  5
953
330
695
100
AcDbEntity
  8
DIM
 62
     0
100
AcDbLine
 10
8.302323597913026
 20
13.16765056738959
 30
0.0
 11
8.302323597913026
 21
12.98765056738959
 31
0.0
  0
SOLID
  5
954
330
695
100
AcDbEntity
  8
DIM
 62
     0
100
AcDbTrace
 10
8.272323597913027
 20
13.88198126938958
 30
0.0
 11
8.332323597913026
 21
13.88198126938958
 31
0.0
 12
8.302323597913026
 22
13.70198126938959
 32
0.0
 13
8.302323597913026
 23
13.70198126938959
 33
0.0
  0
SOLID
  5
955
330
695
100
AcDbEntity
  8
DIM
 62
     0
100
AcDbTrace
 10
8.272323597913027
 20
13.16765056738959
 30
0.0
 11
8.332323597913026
 21
13.16765056738959
 31
0.0
 12
8.302323597913026
 22
13.34765056738959
 32
0.0
 13
8.302323597913026
 23
13.34765056738959
 33
0.0
  0
MTEXT
  5
956
330
695
100
AcDbEntity
  8
DIM
 62
     0
100
AcDbMText
 10
8.302323597913023
 20
13.52481591838959
 30
0.0
 40
0.125
 41
0.0
 71
     5
 72
     1
  1
\A1;0.354 [9.00]
1001
ACAD
1000
MTEXTBEGIN
1070
    73
1070
     1
1070
    44
1040
1.0
1070
    74
1070
     0
1000
MTEXTEND
  0
POINT
  5
957
330
695
100
AcDbEntity
  8
DEFPOINTS
 62
     0
100
AcDbPoint
 10
7.347037564483797
 20
13.70198126938959
 30
0.0
  0
POINT
  5
958
330
695
100
AcDbEntity
  8
DEFPOINTS
 62
     0
100
AcDbPoint
 10
7.392037564483797
 20
13.34765056738959
 30
0.0
  0
POINT
  5
959
330
695
100
AcDbEntity
  8
DEFPOINTS
 62
     0
100
AcDbPoint
 10
8.302323597913026
 20
13.34765056738959
 30
0.0
  0
ENDBLK
  5
6A1
330
695
100
AcDbEntity
  8
0
100
AcDbBlockEnd
  0
BLOCK
  5
6AD
330
6A2
100
AcDbEntity
  8
0
100
AcDbBlockBegin
  2
*D39
 70
     1
 10
0.0
 20
0.0
 30
0.0
  3
*D39
  1

  0
LINE
  5
95A
330
6A2
100
AcDbEntity
  8
DIM
 62
     0
100
AcDbLine
 10
7.347037564483797
 20
8.259990103035724
 30
0.0
 11
7.347037564483797
 21
7.541013589002201
 31
0.0
  0
LINE
  5
95B
330
6A2
100
AcDbEntity
  8
DIM
 62
     0
100
AcDbLine
 10
6.126565146483812
 20
8.259990103035724
 30
0.0
 11
6.126565146483812
 21
7.541013589002201
 31
0.0
  0
LINE
  5
95C
330
6A2
100
AcDbEntity
  8
DIM
 62
     0
100
AcDbLine
 10
7.527037564483797
 20
7.634013589002201
 30
0.0
 11
7.707037564483798
 21
7.634013589002201
 31
0.0
  0
LINE
  5
95D
330
6A2
100
AcDbEntity
  8
DIM
 62
     0
100
AcDbLine
 10
5.946565146483812
 20
7.634013589002201
 30
0.0
 11
5.766565146483811
 21
7.634013589002201
 31
0.0
  0
SOLID
  5
95E
330
6A2
100
AcDbEntity
  8
DIM
 62
     0
100
AcDbTrace
 10
7.527037564483797
 20
7.664013589002201
 30
0.0
 11
7.527037564483797
 21
7.6040135890022
 31
0.0
 12
7.347037564483797
 22
7.634013589002201
 32
0.0
 13
7.347037564483797
 23
7.634013589002201
 33
0.0
  0
SOLID
  5
95F
330
6A2
100
AcDbEntity
  8
DIM
 62
     0
100
AcDbTrace
 10
5.946565146483812
 20
7.664013589002201
 30
0.0
 11
5.946565146483812
 21
7.6040135890022
 31
0.0
 12
6.126565146483812
 22
7.634013589002201
 32
0.0
 13
6.126565146483812
 23
7.634013589002201
 33
0.0
  0
MTEXT
  5
960
330
6A2
100
AcDbEntity
  8
DIM
 62
     0
100
AcDbMText
 10
6.736801355483804
 20
7.634013589002201
 30
0.0
 40
0.125
 41
0.0
 71
     5
 72
     1
  1
\A1;1.220 [31.00]
1001
ACAD
1000
MTEXTBEGIN
1070
    73
1070
     1
1070
    44
1040
1.0
1070
    74
1070
     0
1000
MTEXTEND
  0
POINT
  5
961
330
6A2
100
AcDbEntity
  8
DEFPOINTS
 62
     0
100
AcDbPoint
 10
7.347037564483797
 20
8.322990103035724
 30
0.0
  0
POINT
  5
962
330
6A2
100
AcDbEntity
  8
DEFPOINTS
 62
     0
100
AcDbPoint
 10
6.126565146483812
 20
8.322990103035724
 30
0.0
  0
POINT
  5
963
330
6A2
100
AcDbEntity
  8
DEFPOINTS
 62
     0
100
AcDbPoint
 10
6.126565146483812
 20
7.634013589002201
 30
0.0
  0
ENDBLK
  5
6AE
330
6A2
100
AcDbEntity
  8
0
100
AcDbBlockEnd
  0
BLOCK
  5
6BA
330
6AF
100
AcDbEntity
  8
0
100
AcDbBlockBegin
  2
*D40
 70
     1
 10
0.0
 20
0.0
 30
0.0
  3
*D40
  1

  0
LINE
  5
964
330
6AF
100
AcDbEntity
  8
DIM
 62
     0
100
AcDbLine
 10
6.047824990483817
 20
11.24266118099993
 30
0.0
 11
6.047824990483817
 21
12.19466118099993
 31
0.0
  0
LINE
  5
965
330
6AF
100
AcDbEntity
  8
DIM
 62
     0
100
AcDbLine
 10
7.724824990483802
 20
11.41982653199993
 30
0.0
 11
7.724824990483802
 21
12.19466118099993
 31
0.0
  0
LINE
  5
966
330
6AF
100
AcDbEntity
  8
DIM
 62
     0
100
AcDbLine
 10
6.227824990483816
 20
12.10166118099992
 30
0.0
 11
6.319762490483809
 21
12.10166118099992
 31
0.0
  0
LINE
  5
967
330
6AF
100
AcDbEntity
  8
DIM
 62
     0
100
AcDbLine
 10
7.544824990483802
 20
12.10166118099992
 30
0.0
 11
7.452887490483809
 21
12.10166118099992
 31
0.0
  0
SOLID
  5
968
330
6AF
100
AcDbEntity
  8
DIM
 62
     0
100
AcDbTrace
 10
6.227824990483816
 20
12.13166118099993
 30
0.0
 11
6.227824990483816
 21
12.07166118099993
 31
0.0
 12
6.047824990483817
 22
12.10166118099992
 32
0.0
 13
6.047824990483817
 23
12.10166118099992
 33
0.0
  0
SOLID
  5
969
330
6AF
100
AcDbEntity
  8
DIM
 62
     0
100
AcDbTrace
 10
7.544824990483802
 20
12.13166118099993
 30
0.0
 11
7.544824990483802
 21
12.07166118099993
 31
0.0
 12
7.724824990483802
 22
12.10166118099992
 32
0.0
 13
7.724824990483802
 23
12.10166118099992
 33
0.0
  0
MTEXT
  5
96A
330
6AF
100
AcDbEntity
  8
DIM
 62
     0
100
AcDbMText
 10
6.886324990483809
 20
12.10166118099992
 30
0.0
 40
0.125
 41
0.0
 71
     5
 72
     1
  1
\A1;1.677 [42.60]
1001
ACAD
1000
MTEXTBEGIN
1070
    73
1070
     1
1070
    44
1040
1.0
1070
    74
1070
     0
1000
MTEXTEND
  0
POINT
  5
96B
330
6AF
100
AcDbEntity
  8
DEFPOINTS
 62
     0
100
AcDbPoint
 10
6.047824990483817
 20
11.17966118099992
 30
0.0
  0
POINT
  5
96C
330
6AF
100
AcDbEntity
  8
DEFPOINTS
 62
     0
100
AcDbPoint
 10
7.724824990483802
 20
11.35682653199992
 30
0.0
  0
POINT
  5
96D
330
6AF
100
AcDbEntity
  8
DEFPOINTS
 62
     0
100
AcDbPoint
 10
7.724824990483802
 20
12.10166118099992
 30
0.0
  0
ENDBLK
  5
6BB
330
6AF
100
AcDbEntity
  8
0
100
AcDbBlockEnd
  0
BLOCK
  5
6C7
330
6BC
100
AcDbEntity
  8
0
100
AcDbBlockBegin
  2
*D41
 70
     1
 10
0.0
 20
0.0
 30
0.0
  3
*D41
  1

  0
LINE
  5
96E
330
6BC
100
AcDbEntity
  8
DIM
 62
     0
100
AcDbLine
 10
6.924432272180798
 20
6.308605996750856
 30
0.0
 11
4.232463057493931
 21
6.308605996750857
 31
0.0
  0
LINE
  5
96F
330
6BC
100
AcDbEntity
  8
DIM
 62
     0
100
AcDbLine
 10
5.827344678483799
 20
6.060440645750857
 30
0.0
 11
4.232463057493931
 21
6.060440645750857
 31
0.0
  0
LINE
  5
970
330
6BC
100
AcDbEntity
  8
DIM
 62
     0
100
AcDbLine
 10
4.325463057493931
 20
6.488605996750857
 30
0.0
 11
4.325463057493931
 21
6.668605996750858
 31
0.0
  0
LINE
  5
971
330
6BC
100
AcDbEntity
  8
DIM
 62
     0
100
AcDbLine
 10
4.32546305749393
 20
5.880440645750858
 30
0.0
 11
4.32546305749393
 21
5.700440645750857
 31
0.0
  0
SOLID
  5
972
330
6BC
100
AcDbEntity
  8
DIM
 62
     0
100
AcDbTrace
 10
4.295463057493931
 20
6.488605996750857
 30
0.0
 11
4.355463057493931
 21
6.488605996750857
 31
0.0
 12
4.325463057493931
 22
6.308605996750857
 32
0.0
 13
4.325463057493931
 23
6.308605996750857
 33
0.0
  0
SOLID
  5
973
330
6BC
100
AcDbEntity
  8
DIM
 62
     0
100
AcDbTrace
 10
4.29546305749393
 20
5.880440645750858
 30
0.0
 11
4.35546305749393
 21
5.880440645750858
 31
0.0
 12
4.325463057493931
 22
6.060440645750857
 32
0.0
 13
4.325463057493931
 23
6.060440645750857
 33
0.0
  0
MTEXT
  5
974
330
6BC
100
AcDbEntity
  8
DIM
 62
     0
100
AcDbMText
 10
4.325463057493929
 20
6.184523321250859
 30
0.0
 40
0.125
 41
0.0
 71
     5
 72
     1
  1
\A1;0.248 [6.30]
1001
ACAD
1000
MTEXTBEGIN
1070
    73
1070
     1
1070
    44
1040
1.0
1070
    74
1070
     0
1000
MTEXTEND
  0
POINT
  5
975
330
6BC
100
AcDbEntity
  8
DEFPOINTS
 62
     0
100
AcDbPoint
 10
6.987432272180797
 20
6.308605996750856
 30
0.0
  0
POINT
  5
976
330
6BC
100
AcDbEntity
  8
DEFPOINTS
 62
     0
100
AcDbPoint
 10
5.890344678483798
 20
6.060440645750857
 30
0.0
  0
POINT
  5
977
330
6BC
100
AcDbEntity
  8
DEFPOINTS
 62
     0
100
AcDbPoint
 10
4.325463057493931
 20
6.060440645750857
 30
0.0
  0
ENDBLK
  5
6C8
330
6BC
100
AcDbEntity
  8
0
100
AcDbBlockEnd
  0
BLOCK
  5
6D4
330
6C9
100
AcDbEntity
  8
0
100
AcDbBlockBegin
  2
*D42
 70
     1
 10
0.0
 20
0.0
 30
0.0
  3
*D42
  1

  0
LINE
  5
978
330
6C9
100
AcDbEntity
  8
DIM
 62
     0
100
AcDbLine
 10
6.838274789830864
 20
0.9998281063232159
 30
0.0
 11
4.010008703360363
 21
0.9998281063232168
 31
0.0
  0
LINE
  5
979
330
6C9
100
AcDbEntity
  8
DIM
 62
     0
100
AcDbLine
 10
5.492699015483809
 20
0.7242375603232267
 30
0.0
 11
4.010008703360363
 21
0.7242375603232273
 31
0.0
  0
LINE
  5
97A
330
6C9
100
AcDbEntity
  8
DIM
 62
     0
100
AcDbLine
 10
4.103008703360363
 20
1.179828106323216
 30
0.0
 11
4.103008703360363
 21
1.359828106323216
 31
0.0
  0
LINE
  5
97B
330
6C9
100
AcDbEntity
  8
DIM
 62
     0
100
AcDbLine
 10
4.103008703360363
 20
0.5442375603232273
 30
0.0
 11
4.103008703360363
 21
0.3642375603232272
 31
0.0
  0
SOLID
  5
97C
330
6C9
100
AcDbEntity
  8
DIM
 62
     0
100
AcDbTrace
 10
4.073008703360363
 20
1.179828106323216
 30
0.0
 11
4.133008703360363
 21
1.179828106323216
 31
0.0
 12
4.103008703360363
 22
0.9998281063232168
 32
0.0
 13
4.103008703360363
 23
0.9998281063232168
 33
0.0
  0
SOLID
  5
97D
330
6C9
100
AcDbEntity
  8
DIM
 62
     0
100
AcDbTrace
 10
4.073008703360363
 20
0.5442375603232273
 30
0.0
 11
4.133008703360363
 21
0.5442375603232273
 31
0.0
 12
4.103008703360363
 22
0.7242375603232273
 32
0.0
 13
4.103008703360363
 23
0.7242375603232273
 33
0.0
  0
MTEXT
  5
97E
330
6C9
100
AcDbEntity
  8
DIM
 62
     0
100
AcDbMText
 10
4.103008703360363
 20
0.8620328333232226
 30
0.0
 40
0.125
 41
0.0
 71
     5
 72
     1
  1
\A1;0.276 [7.00]
1001
ACAD
1000
MTEXTBEGIN
1070
    73
1070
     1
1070
    44
1040
1.0
1070
    74
1070
     0
1000
MTEXTEND
  0
POINT
  5
97F
330
6C9
100
AcDbEntity
  8
DEFPOINTS
 62
     0
100
AcDbPoint
 10
6.901274789830863
 20
0.9998281063232159
 30
0.0
  0
POINT
  5
980
330
6C9
100
AcDbEntity
  8
DEFPOINTS
 62
     0
100
AcDbPoint
 10
5.555699015483809
 20
0.7242375603232267
 30
0.0
  0
POINT
  5
981
330
6C9
100
AcDbEntity
  8
DEFPOINTS
 62
     0
100
AcDbPoint
 10
4.103008703360363
 20
0.7242375603232273
 30
0.0
  0
ENDBLK
  5
6D5
330
6C9
100
AcDbEntity
  8
0
100
AcDbBlockEnd
  0
BLOCK
  5
6E1
330
6D6
100
AcDbEntity
  8
0
100
AcDbBlockBegin
  2
*D43
 70
     1
 10
0.0
 20
0.0
 30
0.0
  3
*D43
  1

  0
LINE
  5
982
330
6D6
100
AcDbEntity
  8
DIM
 62
     0
100
AcDbLine
 10
6.877465905437116
 20
6.013196552150857
 30
0.0
 11
9.316918211345184
 21
6.013196552150857
 31
0.0
  0
LINE
  5
983
330
6D6
100
AcDbEntity
  8
DIM
 62
     0
100
AcDbLine
 10
7.843108422483804
 20
6.308605996750856
 30
0.0
 11
9.316918211345184
 21
6.308605996750856
 31
0.0
  0
LINE
  5
984
330
6D6
100
AcDbEntity
  8
DIM
 62
     0
100
AcDbLine
 10
9.223918211345184
 20
5.833196552150857
 30
0.0
 11
9.223918211345184
 21
5.653196552150856
 31
0.0
  0
LINE
  5
985
330
6D6
100
AcDbEntity
  8
DIM
 62
     0
100
AcDbLine
 10
9.223918211345184
 20
6.488605996750856
 30
0.0
 11
9.223918211345184
 21
6.668605996750857
 31
0.0
  0
SOLID
  5
986
330
6D6
100
AcDbEntity
  8
DIM
 62
     0
100
AcDbTrace
 10
9.193918211345184
 20
5.833196552150857
 30
0.0
 11
9.253918211345183
 21
5.833196552150857
 31
0.0
 12
9.223918211345184
 22
6.013196552150857
 32
0.0
 13
9.223918211345184
 23
6.013196552150857
 33
0.0
  0
SOLID
  5
987
330
6D6
100
AcDbEntity
  8
DIM
 62
     0
100
AcDbTrace
 10
9.193918211345184
 20
6.488605996750856
 30
0.0
 11
9.253918211345183
 21
6.488605996750856
 31
0.0
 12
9.223918211345184
 22
6.308605996750856
 32
0.0
 13
9.223918211345184
 23
6.308605996750856
 33
0.0
  0
MTEXT
  5
988
330
6D6
100
AcDbEntity
  8
DIM
 62
     0
100
AcDbMText
 10
9.223918211345182
 20
6.160901274450858
 30
0.0
 40
0.125
 41
0.0
 71
     5
 72
     1
  1
\A1;0.295 [7.50]
1001
ACAD
1000
MTEXTBEGIN
1070
    73
1070
     1
1070
    44
1040
1.0
1070
    74
1070
     0
1000
MTEXTEND
  0
POINT
  5
989
330
6D6
100
AcDbEntity
  8
DEFPOINTS
 62
     0
100
AcDbPoint
 10
6.814465905437116
 20
6.013196552150857
 30
0.0
  0
POINT
  5
98A
330
6D6
100
AcDbEntity
  8
DEFPOINTS
 62
     0
100
AcDbPoint
 10
7.780108422483804
 20
6.308605996750856
 30
0.0
  0
POINT
  5
98B
330
6D6
100
AcDbEntity
  8
DEFPOINTS
 62
     0
100
AcDbPoint
 10
9.223918211345184
 20
6.308605996750856
 30
0.0
  0
ENDBLK
  5
6E2
330
6D6
100
AcDbEntity
  8
0
100
AcDbBlockEnd
  0
BLOCK
  5
6EE
330
6E3
100
AcDbEntity
  8
0
100
AcDbBlockBegin
  2
*D44
 70
     1
 10
0.0
 20
0.0
 30
0.0
  3
*D44
  1

  0
LINE
  5
98C
330
6E3
100
AcDbEntity
  8
DIM
 62
     0
100
AcDbLine
 10
6.769591632115575
 20
0.6454974043232175
 30
0.0
 11
9.316918211345184
 21
0.6454974043232168
 31
0.0
  0
LINE
  5
98D
330
6E3
100
AcDbEntity
  8
DIM
 62
     0
100
AcDbLine
 10
7.862793461483798
 20
0.9998281063232159
 30
0.0
 11
9.316918211345184
 21
0.9998281063232155
 31
0.0
  0
LINE
  5
98E
330
6E3
100
AcDbEntity
  8
DIM
 62
     0
100
AcDbLine
 10
9.223918211345184
 20
0.4654974043232169
 30
0.0
 11
9.223918211345184
 21
0.2854974043232168
 31
0.0
  0
LINE
  5
98F
330
6E3
100
AcDbEntity
  8
DIM
 62
     0
100
AcDbLine
 10
9.223918211345184
 20
1.179828106323215
 30
0.0
 11
9.223918211345184
 21
1.359828106323215
 31
0.0
  0
SOLID
  5
990
330
6E3
100
AcDbEntity
  8
DIM
 62
     0
100
AcDbTrace
 10
9.193918211345184
 20
0.4654974043232169
 30
0.0
 11
9.253918211345183
 21
0.4654974043232169
 31
0.0
 12
9.223918211345184
 22
0.6454974043232169
 32
0.0
 13
9.223918211345184
 23
0.6454974043232169
 33
0.0
  0
SOLID
  5
991
330
6E3
100
AcDbEntity
  8
DIM
 62
     0
100
AcDbTrace
 10
9.193918211345184
 20
1.179828106323215
 30
0.0
 11
9.253918211345183
 21
1.179828106323215
 31
0.0
 12
9.223918211345184
 22
0.9998281063232155
 32
0.0
 13
9.223918211345184
 23
0.9998281063232155
 33
0.0
  0
MTEXT
  5
992
330
6E3
100
AcDbEntity
  8
DIM
 62
     0
100
AcDbMText
 10
9.223918211345184
 20
0.8226627553232177
 30
0.0
 40
0.125
 41
0.0
 71
     5
 72
     1
  1
\A1;0.354 [9.00]
1001
ACAD
1000
MTEXTBEGIN
1070
    73
1070
     1
1070
    44
1040
1.0
1070
    74
1070
     0
1000
MTEXTEND
  0
POINT
  5
993
330
6E3
100
AcDbEntity
  8
DEFPOINTS
 62
     0
100
AcDbPoint
 10
6.706591632115575
 20
0.6454974043232176
 30
0.0
  0
POINT
  5
994
330
6E3
100
AcDbEntity
  8
DEFPOINTS
 62
     0
100
AcDbPoint
 10
7.799793461483798
 20
0.9998281063232159
 30
0.0
  0
POINT
  5
995
330
6E3
100
AcDbEntity
  8
DEFPOINTS
 62
     0
100
AcDbPoint
 10
9.223918211345184
 20
0.9998281063232155
 30
0.0
  0
ENDBLK
  5
6EF
330
6E3
100
AcDbEntity
  8
0
100
AcDbBlockEnd
  0
BLOCK
  5
6FB
330
6F0
100
AcDbEntity
  8
0
100
AcDbBlockBegin
  2
*D45
 70
     1
 10
0.0
 20
0.0
 30
0.0
  3
*D45
  1

  0
LINE
  5
996
330
6F0
100
AcDbEntity
  8
DIM
 62
     0
100
AcDbLine
 10
6.875496225352503
 20
11.12060606399992
 30
0.0
 11
8.688095859898185
 21
11.12060606399992
 31
0.0
  0
LINE
  5
997
330
6F0
100
AcDbEntity
  8
DIM
 62
     0
100
AcDbLine
 10
7.787824990483802
 20
11.35682653199992
 30
0.0
 11
8.688095859898185
 21
11.35682653199992
 31
0.0
  0
LINE
  5
998
330
6F0
100
AcDbEntity
  8
DIM
 62
     0
100
AcDbLine
 10
8.595095859898185
 20
10.94060606399992
 30
0.0
 11
8.595095859898185
 21
10.76060606399993
 31
0.0
  0
LINE
  5
999
330
6F0
100
AcDbEntity
  8
DIM
 62
     0
100
AcDbLine
 10
8.595095859898185
 20
11.53682653199992
 30
0.0
 11
8.595095859898185
 21
11.71682653199992
 31
0.0
  0
SOLID
  5
99A
330
6F0
100
AcDbEntity
  8
DIM
 62
     0
100
AcDbTrace
 10
8.565095859898185
 20
10.94060606399992
 30
0.0
 11
8.625095859898184
 21
10.94060606399992
 31
0.0
 12
8.595095859898185
 22
11.12060606399992
 32
0.0
 13
8.595095859898185
 23
11.12060606399992
 33
0.0
  0
SOLID
  5
99B
330
6F0
100
AcDbEntity
  8
DIM
 62
     0
100
AcDbTrace
 10
8.565095859898185
 20
11.53682653199992
 30
0.0
 11
8.625095859898184
 21
11.53682653199992
 31
0.0
 12
8.595095859898185
 22
11.35682653199992
 32
0.0
 13
8.595095859898185
 23
11.35682653199992
 33
0.0
  0
MTEXT
  5
99C
330
6F0
100
AcDbEntity
  8
DIM
 62
     0
100
AcDbMText
 10
8.595095859898183
 20
11.23871629799993
 30
0.0
 40
0.125
 41
0.0
 71
     5
 72
     1
  1
\A1;0.236 [6.00]
1001
ACAD
1000
MTEXTBEGIN
1070
    73
1070
     1
1070
    44
1040
1.0
1070
    74
1070
     0
1000
MTEXTEND
  0
POINT
  5
99D
330
6F0
100
AcDbEntity
  8
DEFPOINTS
 62
     0
100
AcDbPoint
 10
6.812496225352504
 20
11.12060606399992
 30
0.0
  0
POINT
  5
99E
330
6F0
100
AcDbEntity
  8
DEFPOINTS
 62
     0
100
AcDbPoint
 10
7.724824990483802
 20
11.35682653199992
 30
0.0
  0
POINT
  5
99F
330
6F0
100
AcDbEntity
  8
DEFPOINTS
 62
     0
100
AcDbPoint
 10
8.595095859898185
 20
11.35682653199992
 30
0.0
  0
ENDBLK
  5
6FC
330
6F0
100
AcDbEntity
  8
0
100
AcDbBlockEnd
  0
ENDSEC
  0
SECTION
  2
ENTITIES
  0
LINE
  5
329
330
1E
100
AcDbEntity
  8
TITLE
100
AcDbLine
 10
0.0620000000000012
 20
15.01999999999999
 30
0.0
 11
10.058
 21
15.01999999999999
 31
0.0
  0
LINE
  5
32A
330
1E
100
AcDbEntity
  8
TITLE
100
AcDbLine
 10
10.058
 20
0.0619999999999994
 30
0.0
 11
0.0619999999999976
 21
0.0620000000000012
 31
0.0
  0
LINE
  5
32B
330
1E
100
AcDbEntity
  8
TITLE
100
AcDbLine
 10
10.058
 20
15.438
 30
0.0
 11
10.058
 21
10.34399999999999
 31
0.0
  0
LINE
  5
32C
330
1E
100
AcDbEntity
  8
TITLE
100
AcDbLine
 10
0.0620000000000012
 20
15.438
 30
0.0
 11
10.058
 21
15.438
 31
0.0
  0
LINE
  5
32D
330
1E
100
AcDbEntity
  8
TITLE
100
AcDbLine
 10
0.0619999999999976
 20
0.0620000000000012
 30
0.0
 11
0.0619999999999995
 21
5.125999999999995
 31
0.0
  0
LINE
  5
32E
330
1E
100
AcDbEntity
  8
TITLE
100
AcDbLine
 10
0.0
 20
0.0
 30
0.0
 11
0.0
 21
15.5
 31
0.0
  0
LINE
  5
32F
330
1E
100
AcDbEntity
  8
TITLE
100
AcDbLine
 10
10.12
 20
-0.0000000000000018
 30
0.0
 11
0.0
 21
0.0
 31
0.0
  0
LINE
  5
330
330
1E
100
AcDbEntity
  8
TITLE
100
AcDbLine
 10
10.12
 20
15.49999999999999
 30
0.0
 11
10.12
 21
-0.0000000000000018
 31
0.0
  0
LINE
  5
331
330
1E
100
AcDbEntity
  8
TITLE
100
AcDbLine
 10
0.0
 20
15.5
 30
0.0
 11
10.12
 21
15.49999999999999
 31
0.0
  0
LINE
  5
332
330
1E
100
AcDbEntity
  8
TITLE
100
AcDbLine
 10
0.0620000000000012
 20
5.125999999999995
 30
0.0
 11
10.058
 21
5.125999999999995
 31
0.0
  0
LINE
  5
333
330
1E
100
AcDbEntity
  8
TITLE
100
AcDbLine
 10
0.0619999999999995
 20
5.187999999999997
 30
0.0
 11
10.058
 21
5.187999999999995
 31
0.0
  0
LINE
  5
334
330
1E
100
AcDbEntity
  8
TITLE
100
AcDbLine
 10
10.058
 20
5.125999999999995
 30
0.0
 11
10.058
 21
0.0619999999999994
 31
0.0
  0
LINE
  5
335
330
1E
100
AcDbEntity
  8
TITLE
100
AcDbLine
 10
0.0619999999999995
 20
5.187999999999997
 30
0.0
 11
0.0620000000000003
 21
10.28199999999999
 31
0.0
  0
LINE
  5
338
330
1E
100
AcDbEntity
  8
TITLE
100
AcDbLine
 10
0.0620000000000012
 20
4.707999999999994
 30
0.0
 11
10.058
 21
4.707999999999994
 31
0.0
  0
TEXT
  5
33F
330
1E
100
AcDbEntity
  8
TEXT
100
AcDbText
 10
6.102700653749714
 20
4.808830406896632
 30
0.0
 40
0.188
  1
NBX-10924
 41
0.75
 72
     1
 11
6.678450653749714
 21
4.808830406896632
 31
0.0
100
AcDbText
  0
TEXT
  5
341
330
1E
100
AcDbEntity
  8
TEXT
100
AcDbText
 10
0.2756701496448755
 20
14.62574612298455
 30
0.0
 40
0.125
  1
MATERIAL:
 41
0.75
100
AcDbText
  0
TEXT
  5
342
330
1E
100
AcDbEntity
  8
TEXT
100
AcDbText
 10
0.418944784554784
 20
14.41741278965122
 30
0.0
 40
0.125
  1
BRACKETS
 41
0.75
100
AcDbText
  0
TEXT
  5
343
330
1E
100
AcDbEntity
  8
TEXT
100
AcDbText
 10
0.418944784554784
 20
14.2090794563179
 30
0.0
 40
0.125
  1
SCREWS
 41
0.75
100
AcDbText
  0
TEXT
  5
344
330
1E
100
AcDbEntity
  8
TEXT
100
AcDbText
 10
0.275670149644875
 20
13.79837112298456
 30
0.0
 40
0.125
  1
FINISH:
 41
0.75
100
AcDbText
  0
TEXT
  5
345
330
1E
100
AcDbEntity
  8
TEXT
100
AcDbText
 10
0.4189447845547837
 20
13.59003778965123
 30
0.0
 40
0.125
  1
BRACKETS & SCREWS
 41
0.75
100
AcDbText
  0
TEXT
  5
347
330
1E
100
AcDbEntity
  8
TEXT
100
AcDbText
 10
1.679269747200149
 20
14.41855090250928
 30
0.0
 40
0.125
  1
16 GA. STAINLESS STEEL
 41
0.75
100
AcDbText
  0
TEXT
  5
348
330
1E
100
AcDbEntity
  8
TEXT
100
AcDbText
 10
1.679269747200149
 20
14.21021756917596
 30
0.0
 40
0.125
  1
STAINLESS STEEL
 41
0.75
100
AcDbText
  0
TEXT
  5
349
330
1E
100
AcDbEntity
  8
TEXT
100
AcDbText
 10
2.631533901083674
 20
13.59003778965123
 30
0.0
 40
0.125
  1
NATURAL
 41
0.75
100
AcDbText
  0
LINE
  5
34B
330
1E
100
AcDbEntity
  8
TEXT
100
AcDbLine
 10
2.063907662034779
 20
13.59003778965123
 30
0.0
 11
2.569533901083674
 21
13.59003778965123
 31
0.0
  0
TEXT
  5
34D
330
1E
100
AcDbEntity
  8
TEXT
100
AcDbText
 10
0.275670149644875
 20
12.76266278965122
 30
0.0
 40
0.125
  1
DIMENSIONS =
 41
0.75
100
AcDbText
  0
TEXT
  5
34E
330
1E
100
AcDbEntity
  8
TEXT
100
AcDbText
 10
1.675976702277534
 20
12.86231125130475
 30
0.0
 40
0.125
  1
INCHES
 41
0.75
 72
     1
 11
1.925976702277534
 21
12.86231125130475
 31
0.0
100
AcDbText
  0
TEXT
  5
34F
330
1E
100
AcDbEntity
  8
TEXT
100
AcDbText
 10
1.394726702277534
 20
12.65397791797142
 30
0.0
 40
0.125
  1
[MILLIMETERS]
 41
0.75
 72
     1
 11
1.925976702277534
 21
12.65397791797142
 31
0.0
100
AcDbText
  0
LWPOLYLINE
  5
350
330
1E
100
AcDbEntity
  8
DIM
100
AcDbPolyline
 90
        4
 70
     0
 10
7.494503053128119
 20
3.283386350968796
 40
0.0
 41
0.0675
 10
7.567555339887193
 20
3.447895813916281
 40
0.0
 41
0.0
 10
7.917300296252068
 20
4.235500932013846
 40
0.0
 41
0.0
 10
8.097300296252067
 20
4.235500932013846
 40
0.0
 41
0.0
  0
TEXT
  5
356
330
1E
100
AcDbEntity
  8
DIM
100
AcDbText
 10
8.187300296252066
 20
4.173000932013846
 30
0.0
 40
0.125
  1
EXCLUSIVE MOUNTING
 41
0.75
 11
8.187300296252066
 21
4.235500932013846
 31
0.0
100
AcDbText
 73
     2
  0
TEXT
  5
357
330
1E
100
AcDbEntity
  8
DIM
100
AcDbText
 10
8.187300296252066
 20
3.964667598680515
 30
0.0
 40
0.125
  1
TO ENCLOSURE BOSSES
 41
0.75
 11
8.187300296252066
 21
4.027167598680515
 31
0.0
100
AcDbText
 73
     2
  0
CIRCLE
  5
358
330
1E
100
AcDbEntity
  8
OBJECT
100
AcDbCircle
 10
7.347037564483797
 20
13.34765056738959
 30
0.0
 40
0.108
  0
ARC
  5
359
330
1E
100
AcDbEntity
  8
OBJECT
100
AcDbCircle
 10
7.370494288483802
 20
13.34765056738959
 30
0.0
 40
0.3543307019999999
100
AcDbArc
 50
270.0
 51
90.0
  0
LINE
  5
35A
330
1E
100
AcDbEntity
  8
OBJECT
100
AcDbLine
 10
6.047824990483802
 20
12.99331986538959
 30
0.0
 11
6.047824990483802
 21
13.70198126938959
 31
0.0
  0
LINE
  5
35B
330
1E
100
AcDbEntity
  8
OBJECT
100
AcDbLine
 10
7.370494288483802
 20
13.70198126938959
 30
0.0
 11
6.047824990483802
 21
13.70198126938959
 31
0.0
  0
LINE
  5
35C
330
1E
100
AcDbEntity
  8
OBJECT
100
AcDbLine
 10
7.370494288483802
 20
12.99331986538959
 30
0.0
 11
6.047824990483802
 21
12.99331986538959
 31
0.0
  0
CIRCLE
  5
35D
330
1E
100
AcDbEntity
  8
OBJECT
100
AcDbCircle
 10
7.347037564483797
 20
13.34765056738959
 30
0.0
 40
0.236220468
  0
LINE
  5
35E
330
1E
100
AcDbEntity
  8
OBJECT
100
AcDbLine
 10
6.835226550483817
 20
12.99331986538959
 30
0.0
 11
6.835226550483802
 21
13.70198126938959
 31
0.0
  0
LINE
  5
35F
330
1E
100
AcDbEntity
  8
OBJECT
100
AcDbLine
 10
6.99433882640303
 20
11.29777141499993
 30
0.0
 11
7.051761979483798
 21
11.29777141499993
 31
0.0
  0
LINE
  5
360
330
1E
100
AcDbEntity
  8
CENTER
100
AcDbLine
 10
7.347037564483797
 20
11.47121167730402
 30
0.0
 11
7.347037564483797
 21
11.13022050655626
 31
0.0
  0
LINE
  5
361
330
1E
100
AcDbEntity
  8
OBJECT
100
AcDbLine
 10
6.99433882640303
 20
11.35682653199992
 30
0.0
 11
7.724824990483802
 21
11.35682653199992
 31
0.0
  0
LINE
  5
362
330
1E
100
AcDbEntity
  8
OBJECT
100
AcDbLine
 10
7.724824990483802
 20
11.35682653199992
 30
0.0
 11
7.724824990483802
 21
11.29777141499991
 31
0.0
  0
LINE
  5
363
330
1E
100
AcDbEntity
  8
OBJECT
100
AcDbLine
 10
7.119952954877759
 20
11.23871629799993
 30
0.0
 11
7.574122174089856
 21
11.23871629799992
 31
0.0
  0
LINE
  5
364
330
1E
100
AcDbEntity
  8
OBJECT
100
AcDbLine
 10
7.625265405635316
 20
11.26824385649992
 30
0.0
 11
7.642313149483794
 21
11.29777141499991
 31
0.0
  0
LINE
  5
365
330
1E
100
AcDbEntity
  8
OBJECT
100
AcDbLine
 10
7.068809723332278
 20
11.26824385649992
 30
0.0
 11
7.051761979483821
 21
11.29777141499991
 31
0.0
  0
ARC
  5
366
330
1E
100
AcDbEntity
  8
OBJECT
100
AcDbCircle
 10
7.574122174089856
 20
11.29777141499991
 30
0.0
 40
0.059055117
100
AcDbArc
 50
269.9999999999998
 51
330.0000000000018
  0
ARC
  5
367
330
1E
100
AcDbEntity
  8
OBJECT
100
AcDbCircle
 10
7.119952954877759
 20
11.29777141499993
 30
0.0
 40
0.059055117
100
AcDbArc
 50
209.999999999998
 51
269.9999999999998
  0
LINE
  5
368
330
1E
100
AcDbEntity
  8
OBJECT
100
AcDbLine
 10
7.642313149483794
 20
11.29777141499991
 30
0.0
 11
7.724824990483802
 21
11.29777141499991
 31
0.0
  0
LINE
  5
369
330
1E
100
AcDbEntity
  8
OBJECT
100
AcDbLine
 10
6.047824990483817
 20
11.12060606399992
 30
0.0
 11
6.812496225352504
 21
11.12060606399992
 31
0.0
  0
LINE
  5
36A
330
1E
100
AcDbEntity
  8
OBJECT
100
AcDbLine
 10
6.992706862483821
 20
13.70198126938959
 30
0.0
 11
6.992706862483821
 21
12.99331986538959
 31
0.0
  0
LINE
  5
36B
330
1E
100
AcDbEntity
  8
OBJECT
100
AcDbLine
 10
6.047824990483817
 20
11.17966118099992
 30
0.0
 11
6.812496225352504
 21
11.17966118099992
 31
0.0
  0
LINE
  5
36C
330
1E
100
AcDbEntity
  8
OBJECT
100
AcDbLine
 10
6.047824990483817
 20
11.17966118099992
 30
0.0
 11
6.047824990483817
 21
11.12060606399992
 31
0.0
  0
LINE
  5
36D
330
1E
100
AcDbEntity
  8
OBJECT
100
AcDbLine
 10
6.846591713049465
 20
11.19934621999993
 30
0.0
 11
6.909100107160589
 21
11.30761393449992
 31
0.0
  0
LINE
  5
36E
330
1E
100
AcDbEntity
  8
OBJECT
100
AcDbLine
 10
6.897734944594943
 20
11.16981866149993
 30
0.0
 11
6.96024333870605
 21
11.27808637599992
 31
0.0
  0
ARC
  5
36F
330
1E
100
AcDbEntity
  8
OBJECT
100
AcDbCircle
 10
6.99433882640303
 20
11.25840133699993
 30
0.0
 40
0.039370078
100
AcDbArc
 50
90.0
 51
150.0
  0
ARC
  5
370
330
1E
100
AcDbEntity
  8
OBJECT
100
AcDbCircle
 10
6.812496225352504
 20
11.21903125899992
 30
0.0
 40
0.039370078
100
AcDbArc
 50
270.0
 51
330.0000000000001
  0
ARC
  5
371
330
1E
100
AcDbEntity
  8
OBJECT
100
AcDbCircle
 10
6.99433882640303
 20
11.25840133699993
 30
0.0
 40
0.098425195
100
AcDbArc
 50
90.0
 51
149.9999999999998
  0
ARC
  5
372
330
1E
100
AcDbEntity
  8
OBJECT
100
AcDbCircle
 10
6.812496225352504
 20
11.21903125899992
 30
0.0
 40
0.098425195
100
AcDbArc
 50
270.0
 51
329.9999999999993
  0
LINE
  5
373
330
1E
100
AcDbEntity
  8
OBJECT
100
AcDbLine
 10
6.323415536483799
 20
13.44607576238959
 30
0.0
 11
6.677746238483797
 21
13.44607576238959
 31
0.0
  0
LINE
  5
374
330
1E
100
AcDbEntity
  8
OBJECT
100
AcDbLine
 10
6.323415536483799
 20
13.24922537238959
 30
0.0
 11
6.677746238483797
 21
13.24922537238959
 31
0.0
  0
ARC
  5
375
330
1E
100
AcDbEntity
  8
OBJECT
100
AcDbCircle
 10
6.323415536483799
 20
13.34765056738959
 30
0.0
 40
0.098425195
100
AcDbArc
 50
90.0
 51
270.0
  0
ARC
  5
376
330
1E
100
AcDbEntity
  8
OBJECT
100
AcDbCircle
 10
6.677746238483797
 20
13.34765056738959
 30
0.0
 40
0.098425195
100
AcDbArc
 50
270.0
 51
90.0
  0
LINE
  5
377
330
1E
100
AcDbEntity
  8
HIDDEN
100
AcDbLine
 10
7.239037564483797
 20
11.29777141499993
 30
0.0
 11
7.239037564483797
 21
11.23871629799993
 31
0.0
  0
LINE
  5
378
330
1E
100
AcDbEntity
  8
HIDDEN
100
AcDbLine
 10
7.455037564483797
 20
11.29777141499991
 30
0.0
 11
7.455037564483797
 21
11.23871629799993
 31
0.0
  0
LINE
  5
379
330
1E
100
AcDbEntity
  8
HIDDEN
100
AcDbLine
 10
6.776171433483803
 20
11.17966118099992
 30
0.0
 11
6.776171433483803
 21
11.12060606399992
 31
0.0
  0
LINE
  5
37A
330
1E
100
AcDbEntity
  8
HIDDEN
100
AcDbLine
 10
6.224990341483803
 20
11.17966118099992
 30
0.0
 11
6.224990341483803
 21
11.12060606399992
 31
0.0
  0
LINE
  5
37B
330
1E
100
AcDbEntity
  8
CENTER
100
AcDbLine
 10
6.500580887483798
 20
11.2828362057996
 30
0.0
 11
6.500580887483798
 21
11.00541057160151
 31
0.0
  0
ARC
  5
37C
330
1E
100
AcDbEntity
  8
OBJECT
100
AcDbCircle
 10
7.307667486483807
 20
3.005080540161045
 30
0.0
 40
0.4921259749999999
100
AcDbArc
 50
270.0
 51
90.0
  0
CIRCLE
  5
37D
330
1E
100
AcDbEntity
  8
OBJECT
100
AcDbCircle
 10
7.347037564483797
 20
3.005080540161045
 30
0.0
 40
0.314960624
  0
LINE
  5
37E
330
1E
100
AcDbEntity
  8
OBJECT
100
AcDbLine
 10
5.555699015483809
 20
3.49720651516105
 30
0.0
 11
5.555699015483809
 21
2.51295456516105
 31
0.0
  0
LINE
  5
37F
330
1E
100
AcDbEntity
  8
OBJECT
100
AcDbLine
 10
7.307667486483807
 20
3.49720651516105
 30
0.0
 11
5.555699015483809
 21
3.49720651516105
 31
0.0
  0
LINE
  5
380
330
1E
100
AcDbEntity
  8
OBJECT
100
AcDbLine
 10
7.307667486483807
 20
2.51295456516105
 30
0.0
 11
5.555699015483809
 21
2.51295456516105
 31
0.0
  0
CIRCLE
  5
381
330
1E
100
AcDbEntity
  8
OBJECT
100
AcDbCircle
 10
5.870659639483803
 20
3.005080540161045
 30
0.0
 40
0.098425195
  0
ARC
  5
382
330
1E
100
AcDbEntity
  8
OBJECT
100
AcDbCircle
 10
6.224990341483803
 20
3.005080540161045
 30
0.0
 40
0.157480312
100
AcDbArc
 50
90.0
 51
270.0
  0
ARC
  5
383
330
1E
100
AcDbEntity
  8
OBJECT
100
AcDbCircle
 10
6.539950965483812
 20
3.005080540161045
 30
0.0
 40
0.157480312
100
AcDbArc
 50
270.0
 51
90.0
  0
LINE
  5
384
330
1E
100
AcDbEntity
  8
OBJECT
100
AcDbLine
 10
6.224990341483803
 20
3.162560852161048
 30
0.0
 11
6.539950965483812
 21
3.162560852161048
 31
0.0
  0
LINE
  5
385
330
1E
100
AcDbEntity
  8
OBJECT
100
AcDbLine
 10
6.224990341483803
 20
2.847600228161041
 30
0.0
 11
6.539950965483812
 21
2.847600228161041
 31
0.0
  0
LINE
  5
386
330
1E
100
AcDbEntity
  8
OBJECT
100
AcDbLine
 10
5.555699015483809
 20
0.7242375603232265
 30
0.0
 11
5.555699015483809
 21
0.6454974043232175
 31
0.0
  0
LINE
  5
387
330
1E
100
AcDbEntity
  8
OBJECT
100
AcDbLine
 10
5.555699015483809
 20
0.6454974043232175
 30
0.0
 11
6.706591632115575
 21
0.6454974043232175
 31
0.0
  0
LINE
  5
388
330
1E
100
AcDbEntity
  8
OBJECT
100
AcDbLine
 10
7.799793461483798
 20
0.9998281063232159
 30
0.0
 11
7.799793461483798
 21
0.9210879503232067
 31
0.0
  0
LINE
  5
389
330
1E
100
AcDbEntity
  8
CENTER
100
AcDbLine
 10
7.347037564483797
 20
1.135783610734258
 30
0.0
 11
7.347037564483797
 21
0.6351375591861573
 31
0.0
  0
LINE
  5
38A
330
1E
100
AcDbEntity
  8
OBJECT
100
AcDbLine
 10
5.555699015483809
 20
0.7242375603232265
 30
0.0
 11
6.706591632115575
 21
0.7242375603232265
 31
0.0
  0
LINE
  5
38B
330
1E
100
AcDbEntity
  8
HIDDEN
100
AcDbLine
 10
7.464537564483798
 20
0.8817178723232155
 30
0.0
 11
7.464537564483798
 21
0.8029777163232203
 31
0.0
  0
LINE
  5
38C
330
1E
100
AcDbEntity
  8
HIDDEN
100
AcDbLine
 10
7.229537564483798
 20
0.8817178723232164
 30
0.0
 11
7.229537564483798
 21
0.8029777163232072
 31
0.0
  0
LINE
  5
38D
330
1E
100
AcDbEntity
  8
OBJECT
100
AcDbLine
 10
6.901274789830863
 20
0.9998281063232159
 30
0.0
 11
7.799793461483798
 21
0.9998281063232159
 31
0.0
  0
LINE
  5
38E
330
1E
100
AcDbEntity
  8
OBJECT
100
AcDbLine
 10
6.901274789830877
 20
0.9210879503232067
 30
0.0
 11
7.799793461483798
 21
0.9210879503232067
 31
0.0
  0
LINE
  5
38F
330
1E
100
AcDbEntity
  8
OBJECT
100
AcDbLine
 10
7.04344210304947
 20
0.8029777163232072
 30
0.0
 11
7.650633025918152
 21
0.8029777163232212
 31
0.0
  0
LINE
  5
390
330
1E
100
AcDbEntity
  8
OBJECT
100
AcDbLine
 10
7.775649814140392
 20
0.9210879503232208
 30
0.0
 11
7.735871745160593
 21
0.8521903138232236
 31
0.0
  0
LINE
  5
391
330
1E
100
AcDbEntity
  8
OBJECT
100
AcDbLine
 10
6.918425314827217
 20
0.9210879503232208
 30
0.0
 11
6.95820338380703
 21
0.8521903138232094
 31
0.0
  0
LINE
  5
392
330
1E
100
AcDbEntity
  8
OBJECT
100
AcDbLine
 10
6.744620207238781
 20
0.7534179123296472
 30
0.0
 11
6.787189064461222
 21
0.9122870503039326
 31
0.0
  0
LINE
  5
393
330
1E
100
AcDbEntity
  8
OBJECT
100
AcDbLine
 10
6.820677357485222
 20
0.7330384603425078
 30
0.0
 11
6.863246214707672
 21
0.8919075983167861
 31
0.0
  0
LINE
  5
394
330
1E
100
AcDbEntity
  8
HIDDEN
100
AcDbLine
 10
6.6974312774838
 20
0.7242375603232265
 30
0.0
 11
6.6974312774838
 21
0.6454974043232175
 31
0.0
  0
LINE
  5
395
330
1E
100
AcDbEntity
  8
HIDDEN
100
AcDbLine
 10
6.067510029483797
 20
0.7242375603232265
 30
0.0
 11
6.067510029483797
 21
0.6454974043232175
 31
0.0
  0
LINE
  5
396
330
1E
100
AcDbEntity
  8
HIDDEN
100
AcDbLine
 10
5.7722344444838
 20
0.7242375603232265
 30
0.0
 11
5.7722344444838
 21
0.6454974043232175
 31
0.0
  0
LINE
  5
397
330
1E
100
AcDbEntity
  8
HIDDEN
100
AcDbLine
 10
5.969084834483807
 20
0.7242375603232123
 30
0.0
 11
5.969084834483807
 21
0.6454974043232175
 31
0.0
  0
LINE
  5
398
330
1E
100
AcDbEntity
  8
CENTER
100
AcDbLine
 10
5.870659639483803
 20
0.8185026986598789
 30
0.0
 11
5.870659639483803
 21
0.5463593573458727
 31
0.0
  0
ARC
  5
399
330
1E
100
AcDbEntity
  8
OBJECT
100
AcDbCircle
 10
6.706591632115575
 20
0.7636076383232169
 30
0.0
 40
0.039370078
100
AcDbArc
 50
270.0
 51
345.0000000000004
  0
ARC
  5
39A
330
1E
100
AcDbEntity
  8
OBJECT
100
AcDbCircle
 10
6.901274789830877
 20
0.8817178723232164
 30
0.0
 40
0.039370078
100
AcDbArc
 50
90.0
 51
165.0000000000003
  0
ARC
  5
39B
330
1E
100
AcDbEntity
  8
OBJECT
100
AcDbCircle
 10
6.901274789830863
 20
0.8817178723232164
 30
0.0
 40
0.118110234
100
AcDbArc
 50
90.0
 51
165.0000000000003
  0
ARC
  5
39C
330
1E
100
AcDbEntity
  8
OBJECT
100
AcDbCircle
 10
6.706591632115575
 20
0.7636076383232169
 30
0.0
 40
0.118110234
100
AcDbArc
 50
270.0
 51
345.0000000000002
  0
ARC
  5
39D
330
1E
100
AcDbEntity
  8
OBJECT
100
AcDbCircle
 10
7.650633025918152
 20
0.9014029113232258
 30
0.0
 40
0.098425195
100
AcDbArc
 50
270.0
 51
329.9999999999993
  0
ARC
  5
39E
330
1E
100
AcDbEntity
  8
OBJECT
100
AcDbCircle
 10
7.04344210304947
 20
0.9014029113232115
 30
0.0
 40
0.098425195
100
AcDbArc
 50
209.9999999999993
 51
270.0000000000001
  0
LINE
  5
39F
330
1E
100
AcDbEntity
  8
OBJECT
100
AcDbLine
 10
6.810645619726159
 20
2.51295456516105
 30
0.0
 11
6.810645619726159
 21
3.49720651516105
 31
0.0
  0
LINE
  5
3A0
330
1E
100
AcDbEntity
  8
OBJECT
100
AcDbLine
 10
6.736801355483804
 20
2.51295456516105
 30
0.0
 11
6.736801355483804
 21
3.49720651516105
 31
0.0
  0
LINE
  5
3A1
330
1E
100
AcDbEntity
  8
OBJECT
100
AcDbLine
 10
6.984453128264175
 20
6.308605996750856
 30
0.0
 11
7.780108422483804
 21
6.308605996750856
 31
0.0
  0
LINE
  5
3A2
330
1E
100
AcDbEntity
  8
OBJECT
100
AcDbLine
 10
5.890344678483798
 20
6.060440645750857
 30
0.0
 11
6.814465905437116
 21
6.060440645750857
 31
0.0
  0
LINE
  5
3A3
330
1E
100
AcDbEntity
  8
OBJECT
100
AcDbLine
 10
5.890344678483798
 20
6.060440645750857
 30
0.0
 11
5.890344678483798
 21
6.013196552150857
 31
0.0
  0
LINE
  5
3A4
330
1E
100
AcDbEntity
  8
OBJECT
100
AcDbLine
 10
5.890344678483798
 20
8.013659401035724
 30
0.0
 11
5.890344678483798
 21
8.722320805035725
 31
0.0
  0
LINE
  5
3A5
330
1E
100
AcDbEntity
  8
OBJECT
100
AcDbLine
 10
7.780108422483804
 20
6.308605996750856
 30
0.0
 11
7.780108422483804
 21
6.261361903150856
 31
0.0
  0
CIRCLE
  5
3A6
330
1E
100
AcDbEntity
  8
OBJECT
100
AcDbCircle
 10
6.126565146483812
 20
8.367990103035726
 30
0.0
 40
0.078740156
  0
LINE
  5
3A7
330
1E
100
AcDbEntity
  8
OBJECT
100
AcDbLine
 10
5.969084834483807
 20
8.801060961035734
 30
0.0
 11
7.347037564483797
 21
8.801060961035734
 31
0.0
  0
LINE
  5
3A8
330
1E
100
AcDbEntity
  8
OBJECT
100
AcDbLine
 10
5.969084834483807
 20
7.934919245035728
 30
0.0
 11
7.347037564483797
 21
7.934919245035728
 31
0.0
  0
ARC
  5
3A9
330
1E
100
AcDbEntity
  8
OBJECT
100
AcDbCircle
 10
7.347037564483797
 20
8.367990103035726
 30
0.0
 40
0.433070858
100
AcDbArc
 50
270.0
 51
90.0
  0
CIRCLE
  5
3AA
330
1E
100
AcDbEntity
  8
OBJECT
100
AcDbCircle
 10
7.347037564483797
 20
8.367990103035726
 30
0.0
 40
0.1175
  0
CIRCLE
  5
3AB
330
1E
100
AcDbEntity
  8
OBJECT
100
AcDbCircle
 10
7.347037564483797
 20
8.367990103035726
 30
0.0
 40
0.2952755849999999
  0
LINE
  5
3AC
330
1E
100
AcDbEntity
  8
OBJECT
100
AcDbLine
 10
6.83522655048381
 20
7.934919245035728
 30
0.0
 11
6.83522655048381
 21
8.302702214689206
 31
0.0
  0
LINE
  5
3AD
330
1E
100
AcDbEntity
  8
OBJECT
100
AcDbLine
 10
6.83522655048381
 20
8.433277991382244
 30
0.0
 11
6.83522655048381
 21
8.801060961035734
 31
0.0
  0
LINE
  5
3AE
330
1E
100
AcDbEntity
  8
OBJECT
100
AcDbLine
 10
6.953336784483807
 20
7.934919245035728
 30
0.0
 11
6.953336784483807
 21
8.801060961035734
 31
0.0
  0
LINE
  5
3AF
330
1E
100
AcDbEntity
  8
CENTER
100
AcDbLine
 10
7.347037564483797
 20
6.430464308192312
 30
0.0
 11
7.347037564483797
 21
6.048134962594247
 31
0.0
  0
LINE
  5
3B0
330
1E
100
AcDbEntity
  8
HIDDEN
100
AcDbLine
 10
7.464537564483797
 20
6.229865840750846
 30
0.0
 11
7.464537564483797
 21
6.182621747150848
 31
0.0
  0
LINE
  5
3B1
330
1E
100
AcDbEntity
  8
HIDDEN
100
AcDbLine
 10
7.229537564483798
 20
6.229865840750846
 30
0.0
 11
7.229537564483798
 21
6.182621747150848
 31
0.0
  0
LINE
  5
3B2
330
1E
100
AcDbEntity
  8
OBJECT
100
AcDbLine
 10
5.890344678483798
 20
6.013196552150857
 30
0.0
 11
6.814465905437116
 21
6.013196552150857
 31
0.0
  0
LINE
  5
3B3
330
1E
100
AcDbEntity
  8
OBJECT
100
AcDbLine
 10
7.051761979483798
 20
6.182621747150848
 30
0.0
 11
7.642313149483808
 21
6.182621747150848
 31
0.0
  0
ARC
  5
3B4
330
1E
100
AcDbEntity
  8
OBJECT
100
AcDbCircle
 10
6.814465905437116
 20
6.099810723750847
 30
0.0
 40
0.039370078
100
AcDbArc
 50
269.9999999999998
 51
325.6071914549839
  0
LINE
  5
3B5
330
1E
100
AcDbEntity
  8
HIDDEN
100
AcDbLine
 10
6.854911589483804
 20
6.08919766231436
 30
0.0
 11
6.854911589483804
 21
6.024292834429428
 31
0.0
  0
LINE
  5
3B6
330
1E
100
AcDbEntity
  8
HIDDEN
100
AcDbLine
 10
6.343100575483802
 20
6.060440645750857
 30
0.0
 11
6.343100575483802
 21
6.013196552150857
 31
0.0
  0
LINE
  5
3B7
330
1E
100
AcDbEntity
  8
HIDDEN
100
AcDbLine
 10
6.205305302483807
 20
6.060440645750857
 30
0.0
 11
6.205305302483807
 21
6.013196552150857
 31
0.0
  0
LINE
  5
3B8
330
1E
100
AcDbEntity
  8
HIDDEN
100
AcDbLine
 10
6.047824990483802
 20
6.060440645750857
 30
0.0
 11
6.047824990483802
 21
6.013196552150857
 31
0.0
  0
LINE
  5
3B9
330
1E
100
AcDbEntity
  8
CENTER
100
AcDbLine
 10
6.126565146483812
 20
6.142107253687325
 30
0.0
 11
6.126565146483812
 21
5.934029285514366
 31
0.0
  0
LINE
  5
3BA
330
1E
100
AcDbEntity
  8
CENTER
100
AcDbLine
 10
6.599006082483811
 20
6.141096729025503
 30
0.0
 11
6.599006082483811
 21
5.937942954510601
 31
0.0
  0
ARC
  5
3BB
330
1E
100
AcDbEntity
  8
OBJECT
100
AcDbCircle
 10
5.969084834483807
 20
8.722320805035725
 30
0.0
 40
0.078740156
100
AcDbArc
 50
90.0
 51
180.0
  0
ARC
  5
3BC
330
1E
100
AcDbEntity
  8
OBJECT
100
AcDbCircle
 10
5.969084834483807
 20
8.013659401035724
 30
0.0
 40
0.078740156
100
AcDbArc
 50
180.0000000000003
 51
269.9999999999998
  0
DIMENSION
  5
3BD
330
1E
100
AcDbEntity
  8
DIM
100
AcDbDimension
  2
*D25
 10
4.091497868196201
 20
12.99331986538959
 30
0.0
 11
4.091497868196199
 21
13.34765056738959
 31
0.0
 70
    32
  3
23NSTDI
100
AcDbAlignedDimension
 13
6.047824990483802
 23
13.70198126938959
 33
0.0
 14
6.047824990483802
 24
12.99331986538959
 34
0.0
 50
90.0
100
AcDbRotatedDimension
  0
DIMENSION
  5
3BE
330
1E
100
AcDbEntity
  8
DIM
100
AcDbDimension
  2
*D0
 10
3.9340175561962
 20
7.934919245035728
 30
0.0
 11
3.934017556196198
 21
8.367990103035733
 31
0.0
 70
    32
  3
23NSTD
100
AcDbAlignedDimension
 13
5.969084834483807
 23
8.801060961035734
 33
0.0
 14
5.969084834483807
 24
7.934919245035728
 34
0.0
 50
90.0
100
AcDbRotatedDimension
  0
DIMENSION
  5
3BF
330
1E
100
AcDbEntity
  8
DIM
100
AcDbDimension
  2
*D1
 10
5.798824990483816
 20
11.12060606399992
 30
0.0
 11
5.114762490483815
 21
10.76060606399993
 31
0.0
 70
    32
  3
23NSTD
100
AcDbAlignedDimension
 13
6.047824990483817
 23
11.17966118099992
 33
0.0
 14
6.047824990483817
 24
11.12060606399992
 34
0.0
 50
90.0
100
AcDbRotatedDimension
  0
DIMENSION
  5
3C0
330
1E
100
AcDbEntity
  8
DIM
100
AcDbDimension
  2
*D26
 10
4.839497868196203
 20
13.44607576238959
 30
0.0
 11
4.839497868196201
 21
13.57402851588959
 31
0.0
 70
    32
  3
23NSTDI
100
AcDbAlignedDimension
 13
6.047824990483802
 23
13.70198126938959
 33
0.0
 14
6.323415536483799
 24
13.44607576238959
 34
0.0
 50
90.0
100
AcDbRotatedDimension
  0
DIMENSION
  5
3C1
330
1E
100
AcDbEntity
  8
DIM
100
AcDbDimension
  2
*D27
 10
5.494497868196202
 20
13.24922537238959
 30
0.0
 11
5.494497868196201
 21
13.34765056738959
 31
0.0
 70
    32
  3
23NSTDI
100
AcDbAlignedDimension
 13
6.323415536483799
 23
13.44607576238959
 33
0.0
 14
6.323415536483799
 24
13.24922537238959
 34
0.0
 50
90.0
100
AcDbRotatedDimension
  0
DIMENSION
  5
3C2
330
1E
100
AcDbEntity
  8
DIM
100
AcDbDimension
  2
*D2
 10
6.323415536483799
 20
14.30769310072983
 30
0.0
 11
5.451540536483799
 21
14.30769310072983
 31
0.0
 70
    32
  3
23NSTD
100
AcDbAlignedDimension
 13
6.500580887483798
 23
13.39265056738959
 33
0.0
 14
6.323415536483799
 24
13.39265056738959
 34
0.0
100
AcDbRotatedDimension
  0
DIMENSION
  5
3C3
330
1E
100
AcDbEntity
  8
DIM
100
AcDbDimension
  2
*D3
 10
6.323415536483799
 20
14.02669310072985
 30
0.0
 11
5.443728036483799
 21
14.02669310072985
 31
0.0
 70
    32
  3
23NSTD
100
AcDbAlignedDimension
 13
6.677746238483797
 23
13.39265056738959
 33
0.0
 14
6.323415536483799
 24
13.39265056738959
 34
0.0
100
AcDbRotatedDimension
  0
DIMENSION
  5
3C4
330
1E
100
AcDbEntity
  8
DIM
100
AcDbDimension
  2
*D4
 10
4.573108135560906
 20
11.17966118099992
 30
0.0
 11
3.881233135560904
 21
10.81966118099993
 31
0.0
 70
    32
  3
23NSTD
100
AcDbAlignedDimension
 13
6.937513013574736
 23
11.35682653199992
 33
0.0
 14
6.047824990483817
 24
11.17966118099992
 34
0.0
 50
90.0
100
AcDbRotatedDimension
  0
DIMENSION
  5
3C5
330
1E
100
AcDbEntity
  8
DIM
100
AcDbDimension
  2
*D5
 10
6.500580887483798
 20
14.57581913466585
 30
0.0
 11
5.581830887483798
 21
14.57581913466585
 31
0.0
 70
    32
  3
23NSTD
100
AcDbAlignedDimension
 13
7.347037564483797
 23
13.39265056738959
 33
0.0
 14
6.500580887483798
 24
13.39265056738959
 34
0.0
 50
180.0
100
AcDbRotatedDimension
  0
DIMENSION
  5
3C6
330
1E
100
AcDbEntity
  8
DIM
100
AcDbDimension
  2
*D28
 10
6.047824990483802
 20
12.65177860299757
 30
0.0
 11
6.6974312774838
 21
12.65177860299757
 31
0.0
 70
    32
  3
23NSTDI
100
AcDbAlignedDimension
 13
7.347037564483797
 23
13.30265056738959
 33
0.0
 14
6.047824990483802
 24
12.99331986538959
 34
0.0
100
AcDbRotatedDimension
  0
DIMENSION
  5
3C7
330
1E
100
AcDbEntity
  8
DIM
100
AcDbDimension
  2
*D29
 10
7.347037564483797
 20
7.377682764430987
 30
0.0
 11
6.618691121483798
 21
7.377682764430987
 31
0.0
 70
    32
  3
23NSTDI
100
AcDbAlignedDimension
 13
5.890344678483798
 23
8.013659401035724
 33
0.0
 14
7.347037564483797
 24
8.322990103035724
 34
0.0
100
AcDbRotatedDimension
  0
DIMENSION
  5
3C8
330
1E
100
AcDbEntity
  8
DIM
100
AcDbDimension
  2
*D6
 10
6.461210809483802
 20
9.072914052938962
 30
0.0
 11
5.581523309483801
 21
9.072914052938962
 31
0.0
 70
    32
  3
23NSTD
100
AcDbAlignedDimension
 13
6.736801355483804
 23
8.412990103035724
 33
0.0
 14
6.461210809483802
 24
8.412990103035724
 34
0.0
100
AcDbRotatedDimension
  0
DIMENSION
  5
3C9
330
1E
100
AcDbEntity
  8
DIM
100
AcDbDimension
  2
*D30
 10
5.337017556196198
 20
8.253990103035723
 30
0.0
 11
5.337017556196197
 21
8.367990103035726
 31
0.0
 70
    32
  3
23NSTDI
100
AcDbAlignedDimension
 13
6.461210809483802
 23
8.481990103035727
 33
0.0
 14
6.461210809483802
 24
8.253990103035723
 34
0.0
 50
90.0
100
AcDbRotatedDimension
  0
DIMENSION
  5
3CA
330
1E
100
AcDbEntity
  8
DIM
100
AcDbDimension
  2
*D31
 10
4.682017556196198
 20
8.801060961035734
 30
0.0
 11
4.682017556196197
 21
8.641525532035732
 31
0.0
 70
    32
  3
23NSTDI
100
AcDbAlignedDimension
 13
6.461210809483802
 23
8.481990103035727
 33
0.0
 14
5.969084834483807
 24
8.801060961035734
 34
0.0
 50
90.0
100
AcDbRotatedDimension
  0
DIMENSION
  5
3CB
330
1E
100
AcDbEntity
  8
DIM
100
AcDbDimension
  2
*D7
 10
5.890344678483798
 20
6.701440645750857
 30
0.0
 11
4.963782178483798
 21
6.701440645750857
 31
0.0
 70
    32
  3
23NSTD
100
AcDbAlignedDimension
 13
6.835226550483824
 23
6.060440645750857
 33
0.0
 14
5.890344678483798
 24
6.060440645750857
 34
0.0
100
AcDbRotatedDimension
  0
DIMENSION
  5
3CC
330
1E
100
AcDbEntity
  8
DIM
100
AcDbDimension
  2
*D8
 10
5.641344678483798
 20
6.013196552150857
 30
0.0
 11
4.957282178483795
 21
5.653196552150857
 31
0.0
 70
    32
  3
23NSTD
100
AcDbAlignedDimension
 13
5.890344678483798
 23
6.060440645750857
 33
0.0
 14
5.890344678483798
 24
6.013196552150857
 34
0.0
 50
90.0
100
AcDbRotatedDimension
  0
DIMENSION
  5
3CD
330
1E
100
AcDbEntity
  8
DIM
100
AcDbDimension
  2
*D9
 10
6.382470653483808
 20
4.32920651516105
 30
0.0
 11
5.448095653483807
 21
4.32920651516105
 31
0.0
 70
    32
  3
23NSTD
100
AcDbAlignedDimension
 13
7.347037564483797
 23
3.050080540161046
 33
0.0
 14
6.382470653483808
 24
3.050080540161046
 34
0.0
 50
180.0
100
AcDbRotatedDimension
  0
DIMENSION
  5
3CE
330
1E
100
AcDbEntity
  8
DIM
100
AcDbDimension
  2
*D32
 10
7.347037564483797
 20
2.15618722974249
 30
0.0
 11
6.6088486019838
 21
2.15618722974249
 31
0.0
 70
    32
  3
23NSTDI
100
AcDbAlignedDimension
 13
5.870659639483803
 23
2.960080540161042
 33
0.0
 14
7.347037564483797
 24
2.960080540161042
 34
0.0
100
AcDbRotatedDimension
  0
DIMENSION
  5
3CF
330
1E
100
AcDbEntity
  8
DIM
100
AcDbDimension
  2
*D10
 10
5.555699015483809
 20
1.875187229742491
 30
0.0
 11
6.451368289983803
 21
1.875187229742491
 31
0.0
 70
    32
  3
23NSTD
100
AcDbAlignedDimension
 13
7.347037564483797
 23
2.960080540161042
 33
0.0
 14
5.555699015483809
 24
2.51295456516105
 34
0.0
100
AcDbRotatedDimension
  0
DIMENSION
  5
3D0
330
1E
100
AcDbEntity
  8
DIM
100
AcDbDimension
  2
*D11
 10
6.224990341483803
 20
3.767206515161051
 30
0.0
 11
5.360927841483802
 21
3.767206515161051
 31
0.0
 70
    32
  3
23NSTD
100
AcDbAlignedDimension
 13
6.539950965483812
 23
3.050080540161042
 33
0.0
 14
6.224990341483803
 24
3.050080540161042
 34
0.0
100
AcDbRotatedDimension
  0
DIMENSION
  5
3D1
330
1E
100
AcDbEntity
  8
DIM
100
AcDbDimension
  2
*D12
 10
3.599371893196211
 20
2.512954565161051
 30
0.0
 11
3.59937189319621
 21
3.005080540161052
 31
0.0
 70
    32
  3
23NSTD
100
AcDbAlignedDimension
 13
5.555699015483809
 23
3.49720651516105
 33
0.0
 14
5.555699015483809
 24
2.51295456516105
 34
0.0
 50
90.0
100
AcDbRotatedDimension
  0
DIMENSION
  5
3D2
330
1E
100
AcDbEntity
  8
DIM
100
AcDbDimension
  2
*D33
 10
6.736801355483804
 20
1.206181497911812
 30
0.0
 11
6.146250185483807
 21
1.206181497911812
 31
0.0
 70
    32
  3
23NSTDI
100
AcDbAlignedDimension
 13
5.555699015483809
 23
0.7242375603232267
 33
0.0
 14
6.736801355483804
 24
0.7242375603232267
 34
0.0
100
AcDbRotatedDimension
  0
DIMENSION
  5
3D3
330
1E
100
AcDbEntity
  8
DIM
100
AcDbDimension
  2
*D13
 10
5.306699015483809
 20
0.6454974043232176
 30
0.0
 11
4.61482401548381
 21
0.2854974043232184
 31
0.0
 70
    32
  3
23NSTD
100
AcDbAlignedDimension
 13
5.555699015483809
 23
0.7242375603232267
 33
0.0
 14
5.555699015483809
 24
0.6454974043232176
 34
0.0
 50
90.0
100
AcDbRotatedDimension
  0
DIMENSION
  5
3D4
330
1E
100
AcDbEntity
  8
DIM
100
AcDbDimension
  2
*D34
 10
5.023333797914766
 20
2.847600228161041
 30
0.0
 11
5.023333797914765
 21
3.005080540161045
 31
0.0
 70
    32
  3
23NSTDI
100
AcDbAlignedDimension
 13
6.224990341483803
 23
3.162560852161048
 33
0.0
 14
6.224990341483803
 24
2.847600228161041
 34
0.0
 50
90.0
100
AcDbRotatedDimension
  0
DIMENSION
  5
3D5
330
1E
100
AcDbEntity
  8
DIM
100
AcDbDimension
  2
*D35
 10
8.336672973079281
 20
3.005080540161045
 30
0.0
 11
8.336672973079281
 21
3.251143527661036
 31
0.0
 70
    32
  3
23NSTDI
100
AcDbAlignedDimension
 13
7.307667486483807
 23
3.497206515161024
 33
0.0
 14
7.392037564483797
 24
3.005080540161045
 34
0.0
 50
90.0
100
AcDbRotatedDimension
  0
DIMENSION
  5
3D6
330
1E
100
AcDbEntity
  8
DIM
100
AcDbDimension
  2
*D36
 10
4.347371893196209
 20
3.497206515161051
 30
0.0
 11
4.347371893196208
 21
3.32988368366105
 31
0.0
 70
    32
  3
23NSTDI
100
AcDbAlignedDimension
 13
6.224990341483803
 23
3.162560852161048
 33
0.0
 14
5.555699015483809
 24
3.49720651516105
 34
0.0
 50
90.0
100
AcDbRotatedDimension
  0
DIMENSION
  5
3D7
330
1E
100
AcDbEntity
  8
DIM
100
AcDbDimension
  2
*D37
 10
8.332737873161347
 20
8.367990103035722
 30
0.0
 11
8.332737873161345
 21
8.584525532035723
 31
0.0
 70
    32
  3
23NSTDI
100
AcDbAlignedDimension
 13
7.347037564483797
 23
8.801060961035718
 33
0.0
 14
7.392037564483797
 24
8.367990103035722
 34
0.0
 50
90.0
100
AcDbRotatedDimension
  0
LINE
  5
3D8
330
1E
100
AcDbEntity
  8
CENTER
100
AcDbLine
 10
5.825659639483803
 20
3.005080540161045
 30
0.0
 11
5.915659639483803
 21
3.005080540161045
 31
0.0
  0
LINE
  5
3D9
330
1E
100
AcDbEntity
  8
CENTER
100
AcDbLine
 10
5.870659639483803
 20
2.960080540161042
 30
0.0
 11
5.870659639483803
 21
3.050080540161042
 31
0.0
  0
LINE
  5
3DA
330
1E
100
AcDbEntity
  8
CENTER
100
AcDbLine
 10
6.224990341483803
 20
2.960080540161042
 30
0.0
 11
6.224990341483803
 21
3.050080540161042
 31
0.0
  0
LINE
  5
3DB
330
1E
100
AcDbEntity
  8
CENTER
100
AcDbLine
 10
6.179990341483803
 20
3.005080540161045
 30
0.0
 11
6.269990341483802
 21
3.005080540161045
 31
0.0
  0
LINE
  5
3DC
330
1E
100
AcDbEntity
  8
CENTER
100
AcDbLine
 10
6.494950965483812
 20
3.005080540161045
 30
0.0
 11
6.584950965483812
 21
3.005080540161045
 31
0.0
  0
LINE
  5
3DD
330
1E
100
AcDbEntity
  8
CENTER
100
AcDbLine
 10
6.539950965483812
 20
2.960080540161042
 30
0.0
 11
6.539950965483812
 21
3.050080540161042
 31
0.0
  0
LINE
  5
3DE
330
1E
100
AcDbEntity
  8
CENTER
100
AcDbLine
 10
6.337470653483808
 20
3.005080540161045
 30
0.0
 11
6.427470653483807
 21
3.005080540161045
 31
0.0
  0
LINE
  5
3DF
330
1E
100
AcDbEntity
  8
CENTER
100
AcDbLine
 10
6.382470653483808
 20
2.960080540161042
 30
0.0
 11
6.382470653483808
 21
3.050080540161042
 31
0.0
  0
LINE
  5
3E0
330
1E
100
AcDbEntity
  8
CENTER
100
AcDbLine
 10
7.347037564483797
 20
2.960080540161042
 30
0.0
 11
7.347037564483797
 21
3.050080540161042
 31
0.0
  0
LINE
  5
3E1
330
1E
100
AcDbEntity
  8
CENTER
100
AcDbLine
 10
7.302037564483797
 20
3.005080540161045
 30
0.0
 11
7.392037564483797
 21
3.005080540161045
 31
0.0
  0
LINE
  5
3E2
330
1E
100
AcDbEntity
  8
CENTER
100
AcDbLine
 10
6.081565146483812
 20
8.367990103035726
 30
0.0
 11
6.171565146483811
 21
8.367990103035726
 31
0.0
  0
LINE
  5
3E3
330
1E
100
AcDbEntity
  8
CENTER
100
AcDbLine
 10
6.126565146483812
 20
8.322990103035724
 30
0.0
 11
6.126565146483812
 21
8.412990103035724
 31
0.0
  0
LINE
  5
3E4
330
1E
100
AcDbEntity
  8
CENTER
100
AcDbLine
 10
6.416210809483802
 20
8.367990103035726
 30
0.0
 11
6.506210809483802
 21
8.367990103035726
 31
0.0
  0
LINE
  5
3E5
330
1E
100
AcDbEntity
  8
CENTER
100
AcDbLine
 10
6.461210809483802
 20
8.322990103035724
 30
0.0
 11
6.461210809483802
 21
8.412990103035724
 31
0.0
  0
LINE
  5
3E6
330
1E
100
AcDbEntity
  8
CENTER
100
AcDbLine
 10
6.691801355483804
 20
8.367990103035726
 30
0.0
 11
6.781801355483804
 21
8.367990103035726
 31
0.0
  0
LINE
  5
3E7
330
1E
100
AcDbEntity
  8
CENTER
100
AcDbLine
 10
6.736801355483804
 20
8.322990103035724
 30
0.0
 11
6.736801355483804
 21
8.412990103035724
 31
0.0
  0
LINE
  5
3E8
330
1E
100
AcDbEntity
  8
CENTER
100
AcDbLine
 10
6.554006082483804
 20
8.367990103035726
 30
0.0
 11
6.644006082483802
 21
8.367990103035726
 31
0.0
  0
LINE
  5
3E9
330
1E
100
AcDbEntity
  8
CENTER
100
AcDbLine
 10
6.599006082483803
 20
8.322990103035724
 30
0.0
 11
6.599006082483803
 21
8.412990103035724
 31
0.0
  0
LINE
  5
3EA
330
1E
100
AcDbEntity
  8
CENTER
100
AcDbLine
 10
7.347037564483797
 20
8.322990103035724
 30
0.0
 11
7.347037564483797
 21
8.412990103035724
 31
0.0
  0
LINE
  5
3EB
330
1E
100
AcDbEntity
  8
CENTER
100
AcDbLine
 10
7.302037564483797
 20
8.367990103035726
 30
0.0
 11
7.392037564483797
 21
8.367990103035726
 31
0.0
  0
LINE
  5
3EC
330
1E
100
AcDbEntity
  8
CENTER
100
AcDbLine
 10
6.278415536483799
 20
13.34765056738959
 30
0.0
 11
6.368415536483799
 21
13.34765056738959
 31
0.0
  0
LINE
  5
3ED
330
1E
100
AcDbEntity
  8
CENTER
100
AcDbLine
 10
6.323415536483799
 20
13.30265056738959
 30
0.0
 11
6.323415536483799
 21
13.39265056738959
 31
0.0
  0
LINE
  5
3EE
330
1E
100
AcDbEntity
  8
CENTER
100
AcDbLine
 10
6.722746238483797
 20
13.34765056738959
 30
0.0
 11
6.632746238483797
 21
13.34765056738959
 31
0.0
  0
LINE
  5
3EF
330
1E
100
AcDbEntity
  8
CENTER
100
AcDbLine
 10
6.677746238483797
 20
13.30265056738959
 30
0.0
 11
6.677746238483797
 21
13.39265056738959
 31
0.0
  0
LINE
  5
3F0
330
1E
100
AcDbEntity
  8
CENTER
100
AcDbLine
 10
6.455580887483797
 20
13.34765056738959
 30
0.0
 11
6.545580887483798
 21
13.34765056738959
 31
0.0
  0
LINE
  5
3F1
330
1E
100
AcDbEntity
  8
CENTER
100
AcDbLine
 10
6.500580887483798
 20
13.30265056738959
 30
0.0
 11
6.500580887483798
 21
13.39265056738959
 31
0.0
  0
LINE
  5
3F2
330
1E
100
AcDbEntity
  8
CENTER
100
AcDbLine
 10
7.347037564483797
 20
13.30265056738959
 30
0.0
 11
7.347037564483797
 21
13.39265056738959
 31
0.0
  0
LINE
  5
3F3
330
1E
100
AcDbEntity
  8
CENTER
100
AcDbLine
 10
7.392037564483797
 20
13.34765056738959
 30
0.0
 11
7.302037564483797
 21
13.34765056738959
 31
0.0
  0
DIMENSION
  5
3F4
330
1E
100
AcDbEntity
  8
DIM
100
AcDbDimension
  2
*D38
 10
8.302323597913026
 20
13.34765056738959
 30
0.0
 11
8.302323597913023
 21
13.52481591838959
 31
0.0
 70
    32
  3
23NSTDI
100
AcDbAlignedDimension
 13
7.347037564483797
 23
13.70198126938959
 33
0.0
 14
7.392037564483797
 24
13.34765056738959
 34
0.0
 50
90.0
100
AcDbRotatedDimension
  0
DIMENSION
  5
3F5
330
1E
100
AcDbEntity
  8
DIM
100
AcDbDimension
  2
*D14
 10
6.461210809483802
 20
9.352060961035734
 30
0.0
 11
5.589335809483801
 21
9.352060961035734
 31
0.0
 70
    32
  3
23NSTD
100
AcDbAlignedDimension
 13
6.599006082483803
 23
8.412990103035724
 33
0.0
 14
6.461210809483802
 24
8.412990103035724
 34
0.0
100
AcDbRotatedDimension
  0
DIMENSION
  5
3F6
330
1E
100
AcDbEntity
  8
DIM
100
AcDbDimension
  2
*D15
 10
6.047824990483817
 20
11.82066118099992
 30
0.0
 11
5.129074990483816
 21
11.82066118099992
 31
0.0
 70
    32
  3
23NSTD
100
AcDbAlignedDimension
 13
6.83522655048381
 23
11.17966118099992
 33
0.0
 14
6.047824990483817
 24
11.17966118099992
 34
0.0
100
AcDbRotatedDimension
  0
LWPOLYLINE
  5
3F7
330
1E
100
AcDbEntity
  8
HIDDEN
100
AcDbPolyline
 90
        6
 70
     0
 43
0.0
 10
7.662814170443433
 20
11.35682653199991
 42
0.2679491924311963
 10
7.594623195049462
 20
11.31745645399993
 10
7.583258032483795
 20
11.29777141499991
 10
7.110817096483799
 20
11.29777141499991
 10
7.099451933918142
 20
11.31745645399992
 42
0.2679491924311288
 10
7.031260958524192
 20
11.35682653199991
 42
0.2679491924311288
  0
TEXT
  5
3FF
330
1E
100
AcDbEntity
  8
TEXT
100
AcDbText
 10
1.026191739505379
 20
15.13594004869557
 30
0.0
 40
0.188
  1
WALL MTG. BRACKET KIT
 41
0.75
 72
     1
 11
2.436191739505379
 21
15.13594004869557
 31
0.0
100
AcDbText
  0
TEXT
  5
400
330
1E
100
AcDbEntity
  8
TEXT
100
AcDbText
 10
6.114450653749714
 20
15.13594004869557
 30
0.0
 40
0.188
  1
NBX-10920
 41
0.75
 72
     1
 11
6.678450653749714
 21
15.13594004869557
 31
0.0
100
AcDbText
  0
LINE
  5
403
330
1E
100
AcDbEntity
  8
TITLE
100
AcDbLine
 10
0.0620000000000012
 20
9.863999999999997
 30
0.0
 11
10.058
 21
9.863999999999997
 31
0.0
  0
LINE
  5
404
330
1E
100
AcDbEntity
  8
TITLE
100
AcDbLine
 10
0.0619999999999994
 20
10.34399999999999
 30
0.0
 11
10.058
 21
10.34399999999999
 31
0.0
  0
LINE
  5
405
330
1E
100
AcDbEntity
  8
TITLE
100
AcDbLine
 10
0.0620000000000012
 20
10.28199999999999
 30
0.0
 11
10.058
 21
10.28199999999999
 31
0.0
  0
TEXT
  5
40C
330
1E
100
AcDbEntity
  8
TEXT
100
AcDbText
 10
6.102700653749714
 20
9.964830406896632
 30
0.0
 40
0.188
  1
NBX-10922
 41
0.75
 72
     1
 11
6.678450653749714
 21
9.964830406896632
 31
0.0
100
AcDbText
  0
LINE
  5
40E
330
1E
100
AcDbEntity
  8
TITLE
100
AcDbLine
 10
10.058
 20
10.28199999999999
 30
0.0
 11
10.058
 21
5.187999999999995
 31
0.0
  0
LINE
  5
40F
330
1E
100
AcDbEntity
  8
TITLE
100
AcDbLine
 10
0.0620000000000003
 20
10.34399999999999
 30
0.0
 11
0.0620000000000012
 21
15.438
 31
0.0
  0
DIMENSION
  5
410
330
1E
100
AcDbEntity
  8
DIM
100
AcDbDimension
  2
*D16
 10
6.224990341483803
 20
4.048206515161052
 30
0.0
 11
5.360927841483802
 21
4.048206515161052
 31
0.0
 70
    32
  3
23NSTD
100
AcDbAlignedDimension
 13
6.382470653483808
 23
3.050080540161042
 33
0.0
 14
6.224990341483803
 24
3.162560852161048
 34
0.0
100
AcDbRotatedDimension
  0
LINE
  5
411
330
1E
100
AcDbEntity
  8
TEXT
100
AcDbLine
 10
1.042059942481269
 20
14.20974122138407
 30
0.0
 11
1.617269747200149
 21
14.20907945631789
 31
0.0
  0
LINE
  5
412
330
1E
100
AcDbEntity
  8
TEXT
100
AcDbLine
 10
1.217232185233577
 20
14.41820722934495
 30
0.0
 11
1.617269747200149
 21
14.41820722934495
 31
0.0
  0
TEXT
  5
413
330
1E
100
AcDbEntity
  8
TEXT
100
AcDbText
 10
1.679269747200149
 20
9.262550902509296
 30
0.0
 40
0.125
  1
18 GA. STAINLESS STEEL
 41
0.75
100
AcDbText
  0
TEXT
  5
414
330
1E
100
AcDbEntity
  8
TEXT
100
AcDbText
 10
1.394726702277534
 20
7.49797791797142
 30
0.0
 40
0.125
  1
[MILLIMETERS]
 41
0.75
 72
     1
 11
1.925976702277534
 21
7.49797791797142
 31
0.0
100
AcDbText
  0
TEXT
  5
415
330
1E
100
AcDbEntity
  8
TEXT
100
AcDbText
 10
0.418944784554784
 20
9.053079456317897
 30
0.0
 40
0.125
  1
SCREWS
 41
0.75
100
AcDbText
  0
TEXT
  5
416
330
1E
100
AcDbEntity
  8
TEXT
100
AcDbText
 10
0.275670149644875
 20
8.642371122984561
 30
0.0
 40
0.125
  1
FINISH:
 41
0.75
100
AcDbText
  0
TEXT
  5
417
330
1E
100
AcDbEntity
  8
TEXT
100
AcDbText
 10
0.2756701496448755
 20
9.469746122984563
 30
0.0
 40
0.125
  1
MATERIAL:
 41
0.75
100
AcDbText
  0
TEXT
  5
418
330
1E
100
AcDbEntity
  8
TEXT
100
AcDbText
 10
0.418944784554784
 20
9.261412789651226
 30
0.0
 40
0.125
  1
BRACKETS
 41
0.75
100
AcDbText
  0
TEXT
  5
41A
330
1E
100
AcDbEntity
  8
TEXT
100
AcDbText
 10
0.275670149644875
 20
7.606662789651227
 30
0.0
 40
0.125
  1
DIMENSIONS =
 41
0.75
100
AcDbText
  0
TEXT
  5
41E
330
1E
100
AcDbEntity
  8
TEXT
100
AcDbText
 10
1.679269747200149
 20
9.054217569175962
 30
0.0
 40
0.125
  1
STAINLESS STEEL
 41
0.75
100
AcDbText
  0
TEXT
  5
41F
330
1E
100
AcDbEntity
  8
TEXT
100
AcDbText
 10
1.675976702277534
 20
7.706311251304754
 30
0.0
 40
0.125
  1
INCHES
 41
0.75
 72
     1
 11
1.925976702277534
 21
7.706311251304754
 31
0.0
100
AcDbText
  0
LINE
  5
422
330
1E
100
AcDbEntity
  8
TEXT
100
AcDbLine
 10
1.237178713546853
 20
9.262207229344946
 30
0.0
 11
1.617269747200149
 21
9.262207229344946
 31
0.0
  0
LINE
  5
423
330
1E
100
AcDbEntity
  8
TEXT
100
AcDbLine
 10
1.073027525012161
 20
9.05370559392408
 30
0.0
 11
1.617269747200149
 21
9.053079456317894
 31
0.0
  0
TEXT
  5
424
330
1E
100
AcDbEntity
  8
TEXT
100
AcDbText
 10
1.679269747200149
 20
4.106550902509294
 30
0.0
 40
0.125
  1
14 GA. STAINLESS STEEL
 41
0.75
100
AcDbText
  0
TEXT
  5
425
330
1E
100
AcDbEntity
  8
TEXT
100
AcDbText
 10
1.394726702277534
 20
2.341977917971417
 30
0.0
 40
0.125
  1
[MILLIMETERS]
 41
0.75
 72
     1
 11
1.925976702277534
 21
2.341977917971417
 31
0.0
100
AcDbText
  0
TEXT
  5
426
330
1E
100
AcDbEntity
  8
TEXT
100
AcDbText
 10
0.418944784554784
 20
3.897079456317895
 30
0.0
 40
0.125
  1
SCREWS
 41
0.75
100
AcDbText
  0
TEXT
  5
427
330
1E
100
AcDbEntity
  8
TEXT
100
AcDbText
 10
0.275670149644875
 20
3.486371122984561
 30
0.0
 40
0.125
  1
FINISH:
 41
0.75
100
AcDbText
  0
TEXT
  5
428
330
1E
100
AcDbEntity
  8
TEXT
100
AcDbText
 10
0.2756701496448755
 20
4.313746122984561
 30
0.0
 40
0.125
  1
MATERIAL:
 41
0.75
100
AcDbText
  0
TEXT
  5
429
330
1E
100
AcDbEntity
  8
TEXT
100
AcDbText
 10
0.418944784554784
 20
4.105412789651227
 30
0.0
 40
0.125
  1
BRACKETS
 41
0.75
100
AcDbText
  0
TEXT
  5
42B
330
1E
100
AcDbEntity
  8
TEXT
100
AcDbText
 10
0.275670149644875
 20
2.450662789651226
 30
0.0
 40
0.125
  1
DIMENSIONS =
 41
0.75
100
AcDbText
  0
TEXT
  5
42F
330
1E
100
AcDbEntity
  8
TEXT
100
AcDbText
 10
1.679269747200149
 20
3.89821756917596
 30
0.0
 40
0.125
  1
STAINLESS STEEL
 41
0.75
100
AcDbText
  0
TEXT
  5
430
330
1E
100
AcDbEntity
  8
TEXT
100
AcDbText
 10
1.675976702277534
 20
2.550311251304751
 30
0.0
 40
0.125
  1
INCHES
 41
0.75
 72
     1
 11
1.925976702277534
 21
2.550311251304751
 31
0.0
100
AcDbText
  0
LINE
  5
433
330
1E
100
AcDbEntity
  8
TEXT
100
AcDbLine
 10
1.204809840732471
 20
4.106207229344946
 30
0.0
 11
1.617269747200149
 21
4.106207229344946
 31
0.0
  0
LINE
  5
434
330
1E
100
AcDbEntity
  8
TEXT
100
AcDbLine
 10
1.050136005782997
 20
3.897731930067189
 30
0.0
 11
1.617269747200149
 21
3.89707945631789
 31
0.0
  0
LWPOLYLINE
  5
435
330
1E
100
AcDbEntity
  8
DIM
100
AcDbPolyline
 90
        4
 70
     0
 10
7.399943504726199
 20
13.24205232468356
 40
0.0
 41
0.0675
 10
7.520679200291723
 20
13.1085499208988
 40
0.0
 41
0.0
 10
7.789032654066208
 20
12.81182051560544
 40
0.0
 41
0.0
 10
7.969032654066208
 20
12.81182051560544
 40
0.0
 41
0.0
  0
TEXT
  5
43B
330
1E
100
AcDbEntity
  8
DIM
100
AcDbText
 10
8.059032654066209
 20
12.74932051560544
 30
0.0
 40
0.125
  1
0.216 [5.50]
 41
0.75
 11
8.059032654066209
 21
12.81182051560544
 31
0.0
100
AcDbText
 73
     2
  0
TEXT
  5
43C
330
1E
100
AcDbEntity
  8
DIM
100
AcDbText
 10
8.059032654066209
 20
12.54098718227212
 30
0.0
 40
0.125
  1
DIA. HOLE
 41
0.75
 11
8.059032654066209
 21
12.60348718227212
 31
0.0
100
AcDbText
 73
     2
  0
LWPOLYLINE
  5
43D
330
1E
100
AcDbEntity
  8
DIM
100
AcDbPolyline
 90
        4
 70
     0
 10
7.42750615853098
 20
8.271997180939289
 40
0.0
 41
0.0675
 10
7.523289092025189
 20
8.11959760859329
 40
0.0
 41
0.0
 10
7.736348028653594
 20
7.780600987356733
 40
0.0
 41
0.0
 10
7.916348028653594
 20
7.780600987356733
 40
0.0
 41
0.0
  0
TEXT
  5
443
330
1E
100
AcDbEntity
  8
DIM
100
AcDbText
 10
8.006348028653592
 20
7.509767654023399
 30
0.0
 40
0.125
  1
DIA. HOLE
 41
0.75
 11
8.006348028653592
 21
7.572267654023399
 31
0.0
100
AcDbText
 73
     2
  0
TEXT
  5
444
330
1E
100
AcDbEntity
  8
DIM
100
AcDbText
 10
8.006348028653592
 20
7.718100987356733
 30
0.0
 40
0.125
  1
0.235 [5.97]
 41
0.75
 11
8.006348028653592
 21
7.780600987356733
 31
0.0
100
AcDbText
 73
     2
  0
LWPOLYLINE
  5
445
330
1E
100
AcDbEntity
  8
DIM
100
AcDbPolyline
 90
        4
 70
     0
 10
7.434788850357993
 20
2.920005601435874
 40
0.0
 41
0.0675
 10
7.526646325045009
 20
2.76520830060629
 40
0.0
 41
0.0
 10
7.771482492196875
 20
2.352612831922825
 40
0.0
 41
0.0
 10
7.951482492196873
 20
2.352612831922825
 40
0.0
 41
0.0
  0
TEXT
  5
44B
330
1E
100
AcDbEntity
  8
DIM
100
AcDbText
 10
8.041482492196871
 20
2.290112831922825
 30
0.0
 40
0.125
  1
0.235 [5.97]
 41
0.75
 11
8.041482492196871
 21
2.352612831922825
 31
0.0
100
AcDbText
 73
     2
  0
TEXT
  5
44C
330
1E
100
AcDbEntity
  8
DIM
100
AcDbText
 10
8.041482492196871
 20
2.081779498589491
 30
0.0
 40
0.125
  1
DIA. HOLE
 41
0.75
 11
8.041482492196871
 21
2.144279498589491
 31
0.0
100
AcDbText
 73
     2
  0
DIMENSION
  5
44D
330
1E
100
AcDbEntity
  8
DIM
100
AcDbDimension
  2
*D17
 10
6.599006082483803
 20
9.633060961035734
 30
0.0
 11
5.688068582483802
 21
9.633060961035734
 31
0.0
 70
    32
  3
23NSTD
100
AcDbAlignedDimension
 13
7.347037564483797
 23
8.412990103035728
 33
0.0
 14
6.599006082483803
 24
8.412990103035728
 34
0.0
 50
180.0
100
AcDbRotatedDimension
  0
DIMENSION
  5
44E
330
1E
100
AcDbEntity
  8
DIM
100
AcDbDimension
  2
*D39
 10
6.126565146483812
 20
7.634013589002201
 30
0.0
 11
6.736801355483804
 21
7.634013589002201
 31
0.0
 70
    32
  3
23NSTDI
100
AcDbAlignedDimension
 13
7.347037564483797
 23
8.322990103035724
 33
0.0
 14
6.126565146483812
 24
8.322990103035724
 34
0.0
100
AcDbRotatedDimension
  0
LWPOLYLINE
  5
44F
330
1E
100
AcDbEntity
  8
DIM
100
AcDbPolyline
 90
        4
 70
     0
 10
6.070045246045548
 20
8.313167543615781
 40
0.0
 41
0.0675
 10
5.937820284308402
 20
8.191034175965457
 40
0.0
 41
0.0
 10
5.358845503634362
 20
7.640819351902051
 40
0.0
 41
0.0
 10
5.178845503634361
 20
7.640819351902051
 40
0.0
 41
0.0
  0
TEXT
  5
455
330
1E
100
AcDbEntity
  8
DIM
100
AcDbText
 10
4.16697050363436
 20
7.578319351902051
 30
0.0
 40
0.125
  1
0.157  [4.00]
 41
0.75
 72
     2
 11
5.08884550363436
 21
7.640819351902051
 31
0.0
100
AcDbText
 73
     2
  0
TEXT
  5
456
330
1E
100
AcDbEntity
  8
DIM
100
AcDbText
 10
4.37009550363436
 20
7.369986018568718
 30
0.0
 40
0.125
  1
DIA. HOLE
 41
0.75
 72
     2
 11
5.08884550363436
 21
7.432486018568718
 31
0.0
100
AcDbText
 73
     2
  0
DIMENSION
  5
457
330
1E
100
AcDbEntity
  8
DIM
100
AcDbDimension
  2
*D18
 10
7.780108422483804
 20
6.982440645750856
 30
0.0
 11
6.835226550483801
 21
6.982440645750856
 31
0.0
 70
    32
  3
23NSTD
100
AcDbAlignedDimension
 13
5.890344678483798
 23
6.060440645750857
 33
0.0
 14
7.780108422483804
 24
6.308605996750856
 34
0.0
100
AcDbRotatedDimension
  0
DIMENSION
  5
458
330
1E
100
AcDbEntity
  8
DIM
100
AcDbDimension
  2
*D40
 10
7.724824990483802
 20
12.10166118099992
 30
0.0
 11
6.886324990483809
 21
12.10166118099992
 31
0.0
 70
    32
  3
23NSTDI
100
AcDbAlignedDimension
 13
6.047824990483817
 23
11.17966118099992
 33
0.0
 14
7.724824990483802
 24
11.35682653199992
 34
0.0
100
AcDbRotatedDimension
  0
DIMENSION
  5
459
330
1E
100
AcDbEntity
  8
DIM
100
AcDbDimension
  2
*D19
 10
7.799793461483798
 20
1.487181497911811
 30
0.0
 11
6.677746238483804
 21
1.487181497911811
 31
0.0
 70
    32
  3
23NSTD
100
AcDbAlignedDimension
 13
5.555699015483809
 23
0.7242375603232267
 33
0.0
 14
7.799793461483798
 24
0.9998281063232159
 34
0.0
100
AcDbRotatedDimension
  0
LWPOLYLINE
  5
45A
330
1E
100
AcDbEntity
  8
DIM
100
AcDbPolyline
 90
        4
 70
     0
 10
5.803676499872099
 20
2.932964120265524
 40
0.0
 41
0.0675
 10
5.672873183475076
 20
2.809309389585537
 40
0.0
 41
0.0
 10
5.103271931885764
 20
2.240250557783919
 40
0.0
 41
0.0
 10
4.923271931885764
 20
2.240250557783919
 40
0.0
 41
0.0
  0
TEXT
  5
460
330
1E
100
AcDbEntity
  8
DIM
100
AcDbText
 10
4.005146931885764
 20
2.177750557783919
 30
0.0
 40
0.125
  1
0.197 [5.00]
 41
0.75
 72
     2
 11
4.833271931885764
 21
2.240250557783919
 31
0.0
100
AcDbText
 73
     2
  0
TEXT
  5
461
330
1E
100
AcDbEntity
  8
DIM
100
AcDbText
 10
4.114521931885764
 20
1.969417224450585
 30
0.0
 40
0.125
  1
DIA. HOLE
 41
0.75
 72
     2
 11
4.833271931885764
 21
2.031917224450585
 31
0.0
100
AcDbText
 73
     2
  0
DIMENSION
  5
462
330
1E
100
AcDbEntity
  8
DIM
100
AcDbDimension
  2
*D41
 10
4.325463057493931
 20
6.060440645750857
 30
0.0
 11
4.325463057493929
 21
6.184523321250859
 31
0.0
 70
    32
  3
23NSTDI
100
AcDbAlignedDimension
 13
6.987432272180797
 23
6.308605996750856
 33
0.0
 14
5.890344678483798
 24
6.060440645750857
 34
0.0
 50
90.0
100
AcDbRotatedDimension
  0
DIMENSION
  5
463
330
1E
100
AcDbEntity
  8
DIM
100
AcDbDimension
  2
*D42
 10
4.103008703360363
 20
0.7242375603232273
 30
0.0
 11
4.103008703360363
 21
0.8620328333232226
 31
0.0
 70
    32
  3
23NSTDI
100
AcDbAlignedDimension
 13
6.901274789830863
 23
0.9998281063232159
 33
0.0
 14
5.555699015483809
 24
0.7242375603232267
 34
0.0
 50
90.0
100
AcDbRotatedDimension
  0
DIMENSION
  5
464
330
1E
100
AcDbEntity
  8
DIM
100
AcDbDimension
  2
*D20
 10
7.940095859898183
 20
11.12060606399992
 30
0.0
 11
7.271658359898181
 21
10.76060606399993
 31
0.0
 70
    32
  3
23NSTD
100
AcDbAlignedDimension
 13
7.574122174089856
 23
11.23871629799992
 33
0.0
 14
6.812496225352504
 24
11.12060606399992
 34
0.0
 50
90.0
100
AcDbRotatedDimension
  0
DIMENSION
  5
465
330
1E
100
AcDbEntity
  8
DIM
100
AcDbDimension
  2
*D21
 10
8.568918211345183
 20
6.013196552150857
 30
0.0
 11
7.877043211345181
 21
5.653196552150857
 31
0.0
 70
    32
  3
23NSTD
100
AcDbAlignedDimension
 13
7.642313149483808
 23
6.182621747150848
 33
0.0
 14
6.812496225352488
 24
6.013196552150857
 34
0.0
 50
90.0
100
AcDbRotatedDimension
  0
DIMENSION
  5
466
330
1E
100
AcDbEntity
  8
DIM
100
AcDbDimension
  2
*D22
 10
8.568918211345183
 20
0.645497404323217
 30
0.0
 11
7.884855711345183
 21
0.2854974043232184
 31
0.0
 70
    32
  3
23NSTD
100
AcDbAlignedDimension
 13
7.650633025918152
 23
0.8029777163232216
 33
0.0
 14
6.706591632115575
 24
0.6454974043232176
 34
0.0
 50
90.0
100
AcDbRotatedDimension
  0
TEXT
  5
467
330
1E
100
AcDbEntity
  8
DIM
100
AcDbText
 10
8.191742405337727
 20
9.302474338188348
 30
0.0
 40
0.125
  1
TO ENCLOSURE BOSSES
 41
0.75
 11
8.191742405337727
 21
9.364974338188348
 31
0.0
100
AcDbText
 73
     2
  0
TEXT
  5
468
330
1E
100
AcDbEntity
  8
DIM
100
AcDbText
 10
8.191742405337727
 20
9.510807671521678
 30
0.0
 40
0.125
  1
EXCLUSIVE MOUNTING
 41
0.75
 11
8.191742405337727
 21
9.573307671521678
 31
0.0
100
AcDbText
 73
     2
  0
LWPOLYLINE
  5
469
330
1E
100
AcDbEntity
  8
DIM
100
AcDbPolyline
 90
        4
 70
     0
 10
7.498945162213778
 20
8.62119309047663
 40
0.0
 41
0.0675
 10
7.571997448972852
 20
8.785702553424115
 40
0.0
 41
0.0
 10
7.921742405337726
 20
9.573307671521678
 40
0.0
 41
0.0
 10
8.101742405337727
 20
9.573307671521678
 40
0.0
 41
0.0
  0
TEXT
  5
46F
330
1E
100
AcDbEntity
  8
DIM
100
AcDbText
 10
8.191609390937212
 20
14.41827505246562
 30
0.0
 40
0.125
  1
EXCLUSIVE MOUNTING
 41
0.75
 11
8.191609390937212
 21
14.48077505246562
 31
0.0
100
AcDbText
 73
     2
  0
TEXT
  5
470
330
1E
100
AcDbEntity
  8
DIM
100
AcDbText
 10
8.191609390937212
 20
14.20994171913229
 30
0.0
 40
0.125
  1
TO ENCLOSURE BOSSES
 41
0.75
 11
8.191609390937212
 21
14.27244171913229
 31
0.0
100
AcDbText
 73
     2
  0
LWPOLYLINE
  5
471
330
1E
100
AcDbEntity
  8
DIM
100
AcDbPolyline
 90
        4
 70
     0
 10
7.498812147813263
 20
13.52866047142057
 40
0.0
 41
0.0675
 10
7.571864434572337
 20
13.69316993436806
 40
0.0
 41
0.0
 10
7.921609390937212
 20
14.48077505246562
 40
0.0
 41
0.0
 10
8.101609390937213
 20
14.48077505246562
 40
0.0
 41
0.0
  0
LWPOLYLINE
  5
477
330
1E
100
AcDbEntity
  8
HIDDEN
100
AcDbPolyline
 90
        4
 70
     0
 43
0.0
 10
6.963885965089871
 20
0.9998281063232159
 10
7.032076940483803
 20
0.8817178723232165
 10
7.661998188483804
 20
0.8817178723232165
 10
7.730189163877737
 20
0.9998281063232159
  0
LINE
  5
47D
330
1E
100
AcDbEntity
  8
OBJECT
100
AcDbLine
 10
7.780108422483804
 20
6.261361903150856
 30
0.0
 11
6.984453128264175
 21
6.261361903150858
 31
0.0
  0
ARC
  5
47E
330
1E
100
AcDbEntity
  8
OBJECT
100
AcDbCircle
 10
6.984453128264175
 20
6.249442168915618
 30
0.0
 40
0.0591638278352367
100
AcDbArc
 50
90.0
 51
146.5660117290162
  0
ARC
  5
47F
330
1E
100
AcDbEntity
  8
OBJECT
100
AcDbCircle
 10
6.814465905437116
 20
6.099810723750847
 30
0.0
 40
0.0393700780000002
100
AcDbArc
 50
270.0
 51
326.5660117290158
  0
LINE
  5
480
330
1E
100
AcDbEntity
  8
OBJECT
100
AcDbLine
 10
6.847321068883812
 20
6.078118760340012
 30
0.0
 11
6.93507966160102
 21
6.282040011080088
 31
0.0
  0
ARC
  5
481
330
1E
100
AcDbEntity
  8
OBJECT
100
AcDbCircle
 10
6.814465905437116
 20
6.099810723750847
 30
0.0
 40
0.0866141716
100
AcDbArc
 50
270.0
 51
326.5660117290165
  0
LINE
  5
482
330
1E
100
AcDbEntity
  8
OBJECT
100
AcDbLine
 10
6.886747265019848
 20
6.052088404247012
 30
0.0
 11
6.974505857737057
 21
6.256009654987088
 31
0.0
  0
ARC
  5
483
330
1E
100
AcDbEntity
  8
OBJECT
100
AcDbCircle
 10
6.984453128264175
 20
6.249442168915618
 30
0.0
 40
0.0119197342352369
100
AcDbArc
 50
16.21648706106656
 51
146.5660117290169
  0
ARC
  5
484
330
1E
100
AcDbEntity
  8
OBJECT
100
AcDbCircle
 10
7.051761979483798
 20
6.229865840750846
 30
0.0
 40
0.0472440935999998
100
AcDbArc
 50
196.2164870610661
 51
270.0
  0
LINE
  5
485
330
1E
100
AcDbEntity
  8
OBJECT
100
AcDbLine
 10
7.006397569379777
 20
6.216672104509742
 30
0.0
 11
6.995898616387121
 21
6.252770962370632
 31
0.0
  0
ARC
  5
486
330
1E
100
AcDbEntity
  8
OBJECT
100
AcDbCircle
 10
7.642313149483797
 20
6.229865840750846
 30
0.0
 40
0.0472440935999998
100
AcDbArc
 50
270.0
 51
343.7835129389337
  0
LINE
  5
487
330
1E
100
AcDbEntity
  8
OBJECT
100
AcDbLine
 10
7.687677559587816
 20
6.216672104509742
 30
0.0
 11
7.698176512580472
 21
6.252770962370632
 31
0.0
  0
ARC
  5
488
330
1E
100
AcDbEntity
  8
OBJECT
100
AcDbCircle
 10
7.709622000703419
 20
6.249442168915618
 30
0.0
 40
0.0119197342352369
100
AcDbArc
 50
90.0
 51
163.7835129389334
  0
LWPOLYLINE
  5
489
330
1E
100
AcDbEntity
  8
HIDDEN
100
AcDbPolyline
 90
        6
 70
     0
 43
0.0
 10
6.984453128264175
 20
6.308605996750856
 42
-0.3335452959483982
 10
7.041263026491143
 20
6.265964698611735
 10
7.051761979483798
 20
6.229865840750846
 10
7.642313149483808
 20
6.229865840750846
 10
7.652812102476452
 20
6.265964698611735
 42
-0.3335452959483981
 10
7.709622000703419
 20
6.308605996750856
  0
DIMENSION
  5
491
330
1E
100
AcDbEntity
  8
DIM
100
AcDbDimension
  2
*D43
 10
9.223918211345184
 20
6.308605996750856
 30
0.0
 11
9.223918211345182
 21
6.160901274450858
 31
0.0
 70
    32
  3
23NSTDI
100
AcDbAlignedDimension
 13
6.814465905437116
 23
6.013196552150857
 33
0.0
 14
7.780108422483804
 24
6.308605996750856
 34
0.0
 50
90.0
100
AcDbRotatedDimension
  0
DIMENSION
  5
492
330
1E
100
AcDbEntity
  8
DIM
100
AcDbDimension
  2
*D23
 10
8.006918211345182
 20
6.308605996750856
 30
0.0
 11
8.698793211345179
 21
6.668605996750858
 31
0.0
 70
    32
  3
23NSTD
100
AcDbAlignedDimension
 13
7.642313149483808
 23
6.229865840750846
 33
0.0
 14
7.780108422483804
 24
6.308605996750856
 34
0.0
 50
90.0
100
AcDbRotatedDimension
  0
DIMENSION
  5
493
330
1E
100
AcDbEntity
  8
DIM
100
AcDbDimension
  2
*D24
 10
8.006918211345182
 20
0.9998281063232159
 30
0.0
 11
8.675355711345181
 21
1.359828106323217
 31
0.0
 70
    32
  3
23NSTD
100
AcDbAlignedDimension
 13
7.661998188483804
 23
0.8817178723232165
 33
0.0
 14
7.799793461483798
 24
0.9998281063232159
 34
0.0
 50
90.0
100
AcDbRotatedDimension
  0
DIMENSION
  5
494
330
1E
100
AcDbEntity
  8
DIM
100
AcDbDimension
  2
*D44
 10
9.223918211345184
 20
0.9998281063232155
 30
0.0
 11
9.223918211345184
 21
0.8226627553232177
 31
0.0
 70
    32
  3
23NSTDI
100
AcDbAlignedDimension
 13
6.706591632115575
 23
0.6454974043232176
 33
0.0
 14
7.799793461483798
 24
0.9998281063232159
 34
0.0
 50
90.0
100
AcDbRotatedDimension
  0
DIMENSION
  5
495
330
1E
100
AcDbEntity
  8
DIM
100
AcDbDimension
  2
*D45
 10
8.595095859898185
 20
11.35682653199992
 30
0.0
 11
8.595095859898183
 21
11.23871629799993
 31
0.0
 70
    32
  3
23NSTDI
100
AcDbAlignedDimension
 13
6.812496225352504
 23
11.12060606399992
 33
0.0
 14
7.724824990483802
 24
11.35682653199992
 34
0.0
 50
90.0
100
AcDbRotatedDimension
  0
LWPOLYLINE
  5
496
330
1E
100
AcDbEntity
  8
OBJECT
100
AcDbPolyline
 90
        4
 70
     1
 43
0.0
 10
6.736801355483804
 20
8.481990103035727
 10
6.461210809483802
 20
8.481990103035727
 42
1.0
 10
6.461210809483802
 20
8.253990103035723
 10
6.736801355483804
 20
8.253990103035723
 42
1.0
  0
CIRCLE
  5
49C
330
1E
100
AcDbEntity
  8
OBJECT
100
AcDbCircle
 10
7.347037564483797
 20
3.005080540161045
 30
0.0
 40
0.1175
  0
TEXT
  5
6FE
330
1E
100
AcDbEntity
  8
TEXT
100
AcDbText
 10
0.4189447845547837
 20
8.434037789651231
 30
0.0
 40
0.125
  1
BRACKETS & SCREWS
 41
0.75
100
AcDbText
  0
TEXT
  5
6FF
330
1E
100
AcDbEntity
  8
TEXT
100
AcDbText
 10
2.631533901083674
 20
8.434037789651231
 30
0.0
 40
0.125
  1
NATURAL
 41
0.75
100
AcDbText
  0
LINE
  5
700
330
1E
100
AcDbEntity
  8
TEXT
100
AcDbLine
 10
2.063907662034779
 20
8.434037789651231
 30
0.0
 11
2.569533901083674
 21
8.434037789651231
 31
0.0
  0
TEXT
  5
701
330
1E
100
AcDbEntity
  8
TEXT
100
AcDbText
 10
0.4189447845547837
 20
3.278037789651228
 30
0.0
 40
0.125
  1
BRACKETS & SCREWS
 41
0.75
100
AcDbText
  0
TEXT
  5
702
330
1E
100
AcDbEntity
  8
TEXT
100
AcDbText
 10
2.631533901083674
 20
3.278037789651228
 30
0.0
 40
0.125
  1
NATURAL
 41
0.75
100
AcDbText
  0
LINE
  5
703
330
1E
100
AcDbEntity
  8
TEXT
100
AcDbLine
 10
2.063907662034779
 20
3.278037789651228
 30
0.0
 11
2.569533901083674
 21
3.278037789651228
 31
0.0
  0
TEXT
  5
704
330
1E
100
AcDbEntity
  8
TEXT
100
AcDbText
 10
0.275670149644875
 20
12.22559841047605
 30
0.0
 40
0.125
  1
NOTE: KIT INCLUDES QTY. (4) BRACKETS AND QTY. (4)
 41
0.75
100
AcDbText
  0
TEXT
  5
705
330
1E
100
AcDbEntity
  8
TEXT
100
AcDbText
 10
0.275670149644875
 20
12.01726507714272
 30
0.0
 40
0.125
  1
  M4x0.7 PITCH x 8mm LG. TRUSS HD. MACHINE SCREWS
 41
0.75
100
AcDbText
  0
TEXT
  5
706
330
1E
100
AcDbEntity
  8
TEXT
100
AcDbText
 10
0.2756701496448741
 20
6.873224770820068
 30
0.0
 40
0.125
  1
  M5x0.8 PITCH x 10mm LG. TRUSS HD. MACHINE SCREWS
 41
0.75
100
AcDbText
  0
TEXT
  5
707
330
1E
100
AcDbEntity
  8
TEXT
100
AcDbText
 10
0.2756701496448741
 20
7.081558104153401
 30
0.0
 40
0.125
  1
NOTE: KIT INCLUDES QTY. (4) BRACKETS AND QTY. (4)
 41
0.75
100
AcDbText
  0
TEXT
  5
709
330
1E
100
AcDbEntity
  8
TEXT
100
AcDbText
 10
0.2756701496448723
 20
1.434561907777149
 30
0.0
 40
0.125
  1
  M5x0.8 PITCH x 10mm LG. TRUSS HD. MACHINE SCREWS
 41
0.75
100
AcDbText
  0
TEXT
  5
70A
330
1E
100
AcDbEntity
  8
TEXT
100
AcDbText
 10
0.2756701496448723
 20
1.642895241110481
 30
0.0
 40
0.125
  1
NOTE: KIT INCLUDES QTY. (4) BRACKETS AND QTY. (4)
 41
0.75
100
AcDbText
  0
TEXT
  5
9EC
330
1E
100
AcDbEntity
  8
TEXT
100
AcDbText
 10
0.2078333333333381
 20
15.06007919564008
 30
0.0
 40
0.125
  1
NAME
 72
     1
 11
0.4370000000000048
 21
15.06007919564008
 31
0.0
100
AcDbText
  0
TEXT
  5
9ED
330
1E
100
AcDbEntity
  8
TEXT
100
AcDbText
 10
0.2078333333333381
 20
15.26841252897341
 30
0.0
 40
0.125
  1
PART
 72
     1
 11
0.4370000000000048
 21
15.26841252897341
 31
0.0
100
AcDbText
  0
LINE
  5
9EE
330
1E
100
AcDbEntity
  8
TITLE
100
AcDbLine
 10
0.8120000000000047
 20
15.01999999999999
 30
0.0
 11
0.8120000000000011
 21
15.438
 31
0.0
  0
TEXT
  5
9EF
330
1E
100
AcDbEntity
  8
TEXT
100
AcDbText
 10
4.465999999999997
 20
15.06007919564008
 30
0.0
 40
0.125
  1
No.
 72
     1
 11
4.590999999999997
 21
15.06007919564008
 31
0.0
100
AcDbText
  0
TEXT
  5
9F0
330
1E
100
AcDbEntity
  8
TEXT
100
AcDbText
 10
4.36183333333333
 20
15.26841252897341
 30
0.0
 40
0.125
  1
PART
 72
     1
 11
4.590999999999997
 21
15.26841252897341
 31
0.0
100
AcDbText
  0
LINE
  5
9F1
330
1E
100
AcDbEntity
  8
TITLE
100
AcDbLine
 10
4.215999999999997
 20
15.438
 30
0.0
 11
4.215999999999997
 21
15.01999999999999
 31
0.0
  0
LINE
  5
9F2
330
1E
100
AcDbEntity
  8
TITLE
100
AcDbLine
 10
4.153999999999999
 20
15.438
 30
0.0
 11
4.153999999999999
 21
15.01999999999999
 31
0.0
  0
LINE
  5
9F3
330
1E
100
AcDbEntity
  8
TITLE
100
AcDbLine
 10
4.965999999999997
 20
15.438
 30
0.0
 11
4.965999999999997
 21
15.01999999999999
 31
0.0
  0
TEXT
  5
9F4
330
1E
100
AcDbEntity
  8
TEXT
100
AcDbText
 10
8.474666666666665
 20
15.26841252897341
 30
0.0
 40
0.125
  1
REV.
 72
     1
 11
8.682999999999999
 21
15.26841252897341
 31
0.0
100
AcDbText
  0
TEXT
  5
9F5
330
1E
100
AcDbEntity
  8
TEXT
100
AcDbText
 10
8.453833333333333
 20
15.06007919564008
 30
0.0
 40
0.125
  1
DATE
 72
     1
 11
8.682999999999999
 21
15.06007919564008
 31
0.0
100
AcDbText
  0
LINE
  5
9F6
330
1E
100
AcDbEntity
  8
TITLE
100
AcDbLine
 10
8.245999999999988
 20
15.438
 30
0.0
 11
8.245999999999988
 21
15.02
 31
0.0
  0
LINE
  5
9F7
330
1E
100
AcDbEntity
  8
TITLE
100
AcDbLine
 10
8.307999999999999
 20
15.438
 30
0.0
 11
8.307999999999999
 21
15.02
 31
0.0
  0
LINE
  5
9F8
330
1E
100
AcDbEntity
  8
TITLE
100
AcDbLine
 10
9.057999999999999
 20
15.438
 30
0.0
 11
9.057999999999999
 21
15.02
 31
0.0
  0
TEXT
  5
9F9
330
1E
100
AcDbEntity
  8
TEXT
100
AcDbText
 10
9.154404476794214
 20
15.13594004869557
 30
0.0
 40
0.188
  1
5-11-07
 41
0.75
 72
     1
 11
9.565654476794215
 21
15.13594004869557
 31
0.0
100
AcDbText
  0
TEXT
  5
9FA
330
1E
100
AcDbEntity
  8
TEXT
100
AcDbText
 10
0.2078333333333381
 20
10.11241252897342
 30
0.0
 40
0.125
  1
PART
 72
     1
 11
0.4370000000000048
 21
10.11241252897342
 31
0.0
100
AcDbText
  0
TEXT
  5
9FB
330
1E
100
AcDbEntity
  8
TEXT
100
AcDbText
 10
0.2078333333333381
 20
9.904079195640086
 30
0.0
 40
0.125
  1
NAME
 72
     1
 11
0.4370000000000048
 21
9.904079195640086
 31
0.0
100
AcDbText
  0
LINE
  5
9FC
330
1E
100
AcDbEntity
  8
TITLE
100
AcDbLine
 10
0.8120000000000048
 20
9.864000000000006
 30
0.0
 11
0.8120000000000013
 21
10.282
 31
0.0
  0
TEXT
  5
9FD
330
1E
100
AcDbEntity
  8
TEXT
100
AcDbText
 10
1.026191739505379
 20
9.979940048695581
 30
0.0
 40
0.188
  1
WALL MTG. BRACKET KIT
 41
0.75
 72
     1
 11
2.436191739505379
 21
9.979940048695581
 31
0.0
100
AcDbText
  0
LINE
  5
9FE
330
1E
100
AcDbEntity
  8
TITLE
100
AcDbLine
 10
4.153999999999999
 20
10.282
 30
0.0
 11
4.153999999999999
 21
9.864000000000006
 31
0.0
  0
LINE
  5
9FF
330
1E
100
AcDbEntity
  8
TITLE
100
AcDbLine
 10
4.215999999999997
 20
10.282
 30
0.0
 11
4.215999999999997
 21
9.864000000000006
 31
0.0
  0
TEXT
  5
A00
330
1E
100
AcDbEntity
  8
TEXT
100
AcDbText
 10
4.36183333333333
 20
10.11241252897342
 30
0.0
 40
0.125
  1
PART
 72
     1
 11
4.590999999999997
 21
10.11241252897342
 31
0.0
100
AcDbText
  0
TEXT
  5
A01
330
1E
100
AcDbEntity
  8
TEXT
100
AcDbText
 10
4.465999999999997
 20
9.904079195640086
 30
0.0
 40
0.125
  1
No.
 72
     1
 11
4.590999999999997
 21
9.904079195640086
 31
0.0
100
AcDbText
  0
LINE
  5
A02
330
1E
100
AcDbEntity
  8
TITLE
100
AcDbLine
 10
4.965999999999997
 20
10.282
 30
0.0
 11
4.965999999999997
 21
9.864000000000006
 31
0.0
  0
TEXT
  5
A03
330
1E
100
AcDbEntity
  8
TEXT
100
AcDbText
 10
8.453833333333333
 20
9.904079195640086
 30
0.0
 40
0.125
  1
DATE
 72
     1
 11
8.682999999999999
 21
9.904079195640086
 31
0.0
100
AcDbText
  0
TEXT
  5
A04
330
1E
100
AcDbEntity
  8
TEXT
100
AcDbText
 10
8.474666666666665
 20
10.11241252897342
 30
0.0
 40
0.125
  1
REV.
 72
     1
 11
8.682999999999999
 21
10.11241252897342
 31
0.0
100
AcDbText
  0
LINE
  5
A05
330
1E
100
AcDbEntity
  8
TITLE
100
AcDbLine
 10
8.307999999999999
 20
10.282
 30
0.0
 11
8.307999999999999
 21
9.864000000000007
 31
0.0
  0
LINE
  5
A06
330
1E
100
AcDbEntity
  8
TITLE
100
AcDbLine
 10
8.245999999999988
 20
10.282
 30
0.0
 11
8.245999999999988
 21
9.864000000000007
 31
0.0
  0
LINE
  5
A07
330
1E
100
AcDbEntity
  8
TITLE
100
AcDbLine
 10
9.057999999999999
 20
10.282
 30
0.0
 11
9.057999999999999
 21
9.864000000000007
 31
0.0
  0
TEXT
  5
A08
330
1E
100
AcDbEntity
  8
TEXT
100
AcDbText
 10
9.142654476794215
 20
9.979940048695581
 30
0.0
 40
0.188
  1
8-30-10
 41
0.75
 72
     1
 11
9.565654476794215
 21
9.979940048695581
 31
0.0
100
AcDbText
  0
TEXT
  5
A0C
330
1E
100
AcDbEntity
  8
TEXT
100
AcDbText
 10
1.026191739505379
 20
4.823940048695579
 30
0.0
 40
0.188
  1
WALL MTG. BRACKET KIT
 41
0.75
 72
     1
 11
2.436191739505379
 21
4.823940048695579
 31
0.0
100
AcDbText
  0
TEXT
  5
A0D
330
1E
100
AcDbEntity
  8
TEXT
100
AcDbText
 10
0.2078333333333381
 20
4.748079195640084
 30
0.0
 40
0.125
  1
NAME
 72
     1
 11
0.4370000000000048
 21
4.748079195640084
 31
0.0
100
AcDbText
  0
TEXT
  5
A0E
330
1E
100
AcDbEntity
  8
TEXT
100
AcDbText
 10
0.2078333333333381
 20
4.956412528973418
 30
0.0
 40
0.125
  1
PART
 72
     1
 11
0.4370000000000048
 21
4.956412528973418
 31
0.0
100
AcDbText
  0
LINE
  5
A0F
330
1E
100
AcDbEntity
  8
TITLE
100
AcDbLine
 10
0.8120000000000047
 20
4.708000000000003
 30
0.0
 11
0.8120000000000011
 21
5.126000000000002
 31
0.0
  0
LINE
  5
A10
330
1E
100
AcDbEntity
  8
TITLE
100
AcDbLine
 10
4.965999999999997
 20
5.126000000000002
 30
0.0
 11
4.965999999999997
 21
4.708000000000003
 31
0.0
  0
TEXT
  5
A11
330
1E
100
AcDbEntity
  8
TEXT
100
AcDbText
 10
4.36183333333333
 20
4.956412528973418
 30
0.0
 40
0.125
  1
PART
 72
     1
 11
4.590999999999997
 21
4.956412528973418
 31
0.0
100
AcDbText
  0
LINE
  5
A12
330
1E
100
AcDbEntity
  8
TITLE
100
AcDbLine
 10
4.215999999999997
 20
5.126000000000002
 30
0.0
 11
4.215999999999997
 21
4.708000000000003
 31
0.0
  0
LINE
  5
A13
330
1E
100
AcDbEntity
  8
TITLE
100
AcDbLine
 10
4.153999999999999
 20
5.126000000000002
 30
0.0
 11
4.153999999999999
 21
4.708000000000003
 31
0.0
  0
TEXT
  5
A14
330
1E
100
AcDbEntity
  8
TEXT
100
AcDbText
 10
4.465999999999997
 20
4.748079195640084
 30
0.0
 40
0.125
  1
No.
 72
     1
 11
4.590999999999997
 21
4.748079195640084
 31
0.0
100
AcDbText
  0
TEXT
  5
A15
330
1E
100
AcDbEntity
  8
TEXT
100
AcDbText
 10
9.142654476794215
 20
4.823940048695579
 30
0.0
 40
0.188
  1
8-30-10
 41
0.75
 72
     1
 11
9.565654476794215
 21
4.823940048695579
 31
0.0
100
AcDbText
  0
LINE
  5
A16
330
1E
100
AcDbEntity
  8
TITLE
100
AcDbLine
 10
9.057999999999999
 20
5.126000000000004
 30
0.0
 11
9.057999999999999
 21
4.708000000000005
 31
0.0
  0
LINE
  5
A17
330
1E
100
AcDbEntity
  8
TITLE
100
AcDbLine
 10
8.245999999999988
 20
5.126000000000004
 30
0.0
 11
8.245999999999988
 21
4.708000000000005
 31
0.0
  0
LINE
  5
A18
330
1E
100
AcDbEntity
  8
TITLE
100
AcDbLine
 10
8.307999999999999
 20
5.126000000000004
 30
0.0
 11
8.307999999999999
 21
4.708000000000005
 31
0.0
  0
TEXT
  5
A19
330
1E
100
AcDbEntity
  8
TEXT
100
AcDbText
 10
8.474666666666665
 20
4.956412528973416
 30
0.0
 40
0.125
  1
REV.
 72
     1
 11
8.682999999999999
 21
4.956412528973416
 31
0.0
100
AcDbText
  0
TEXT
  5
A1A
330
1E
100
AcDbEntity
  8
TEXT
100
AcDbText
 10
8.453833333333333
 20
4.748079195640084
 30
0.0
 40
0.125
  1
DATE
 72
     1
 11
8.682999999999999
 21
4.748079195640084
 31
0.0
100
AcDbText
  0
ENDSEC
  0
SECTION
  2
OBJECTS
  0
DICTIONARY
  5
C
330
0
100
AcDbDictionary
  3
ACAD_GROUP
350
D
  3
ACAD_LAYOUT
350
19
  3
ACAD_MLINESTYLE
350
16
  3
ACAD_PLOTSETTINGS
350
18
  3
ACAD_PLOTSTYLENAME
350
E
  3
ACDBHEADERROUNDTRIPXREC
350
A38
  0
DICTIONARY
  5
A5B
330
1E
100
AcDbDictionary
280
     1
  3
ACAD_LAYOUTSELFREF
360
A5C
  0
DICTIONARY
  5
A59
330
1A
100
AcDbDictionary
280
     1
  3
ACAD_LAYOUTSELFREF
360
A5A
  0
DICTIONARY
  5
D
102
{ACAD_REACTORS
330
C
102
}
330
C
100
AcDbDictionary
  0
DICTIONARY
  5
19
102
{ACAD_REACTORS
330
C
102
}
330
C
100
AcDbDictionary
  0
DICTIONARY
  5
16
102
{ACAD_REACTORS
330
C
102
}
330
C
100
AcDbDictionary
  3
STANDARD
350
17
  0
DICTIONARY
  5
18
102
{ACAD_REACTORS
330
C
102
}
330
C
100
AcDbDictionary
  0
ACDBDICTIONARYWDFLT
  5
E
102
{ACAD_REACTORS
330
C
102
}
330
C
100
AcDbDictionary
281
     1
  3
Normal
350
F
100
AcDbDictionaryWithDefault
340
F
  0
DICTIONARY
  5
A38
102
{ACAD_REACTORS
330
C
102
}
330
C
100
AcDbDictionary
  3
TSTACKALIGN
350
A39
  3
TSTACKSIZE
350
A3A
  3
HYPERLINKBASE
350
A3B
  3
STYLESHEET
350
A3C
  3
LAYOUTDICT
350
A3D
  3
PLOTSETDICT
350
A3E
  3
PLOTSTYLNAMDICT
350
A3F
  3
LWETCUNION
350
A40
  3
INSUNITS
350
A41
  3
CEPSNTYPE
350
A42
  3
FINGERPRINTGUID
350
A43
  3
VERSIONGUID
350
A44
  3
PSVPSCALE
350
A45
  3
DIMSTYLEDATA
350
A46
  3
PUCSORTHOREF
350
A47
  3
PUCSORTHOVIEW
350
A48
  3
PUCSBASE
350
A49
  3
PUCSORGTOP
350
A4A
  3
PUCSORGBOTTOM
350
A4B
  3
PUCSORGLEFT
350
A4C
  3
PUCSORGRIGHT
350
A4D
  3
PUCSORGFRONT
350
A4E
  3
PUCSORGBACK
350
A4F
  3
UCSORTHOREF
350
A50
  3
UCSORTHOVIEW
350
A51
  3
UCSBASE
350
A52
  3
UCSORGTOP
350
A53
  3
UCSORGBOTTOM
350
A54
  3
UCSORGLEFT
350
A55
  3
UCSORGRIGHT
350
A56
  3
UCSORGFRONT
350
A57
  3
UCSORGBACK
350
A58
  0
XRECORD
  5
A5C
102
{ACAD_REACTORS
330
A5B
102
}
330
A5B
100
AcDbXrecord
340
1E
  0
XRECORD
  5
A5A
102
{ACAD_REACTORS
330
A59
102
}
330
A59
100
AcDbXrecord
340
1A
  0
MLINESTYLE
  5
17
102
{ACAD_REACTORS
330
16
102
}
330
16
100
AcDbMlineStyle
  2
STANDARD
 70
     0
  3

 62
   256
 51
90.0
 52
90.0
 71
     2
 49
0.5
 62
   256
  6
BYLAYER
 49
-0.5
 62
   256
  6
BYLAYER
  0
ACDBPLACEHOLDER
  5
F
102
{ACAD_REACTORS
330
E
102
}
330
E
100
AcDbPlaceHolder
280
     0
  0
XRECORD
  5
A39
102
{ACAD_REACTORS
330
A38
102
}
330
A38
100
AcDbXrecord
 90
        1
  0
XRECORD
  5
A3A
102
{ACAD_REACTORS
330
A38
102
}
330
A38
100
AcDbXrecord
 90
       70
  0
XRECORD
  5
A3B
102
{ACAD_REACTORS
330
A38
102
}
330
A38
100
AcDbXrecord
  1

  0
XRECORD
  5
A3C
102
{ACAD_REACTORS
330
A38
102
}
330
A38
100
AcDbXrecord
  1
monochrome.ctb
  0
XRECORD
  5
A3D
102
{ACAD_REACTORS
330
A38
102
}
330
A38
100
AcDbXrecord
340
19
  0
XRECORD
  5
A3E
102
{ACAD_REACTORS
330
A38
102
}
330
A38
100
AcDbXrecord
340
18
  0
XRECORD
  5
A3F
102
{ACAD_REACTORS
330
A38
102
}
330
A38
100
AcDbXrecord
340
E
  0
XRECORD
  5
A40
102
{ACAD_REACTORS
330
A38
102
}
330
A38
100
AcDbXrecord
 90
    10781
  0
XRECORD
  5
A41
102
{ACAD_REACTORS
330
A38
102
}
330
A38
100
AcDbXrecord
 90
        0
  0
XRECORD
  5
A42
102
{ACAD_REACTORS
330
A38
102
}
330
A38
100
AcDbXrecord
 90
        0
  0
XRECORD
  5
A43
102
{ACAD_REACTORS
330
A38
102
}
330
A38
100
AcDbXrecord
  1
{FD99303D-036D-40B6-AE34-6A9E0B671837}
  0
XRECORD
  5
A44
102
{ACAD_REACTORS
330
A38
102
}
330
A38
100
AcDbXrecord
  1
{2781ECE0-3A2A-4BA3-B852-1502814247D9}
  0
XRECORD
  5
A45
102
{ACAD_REACTORS
330
A38
102
}
330
A38
100
AcDbXrecord
 40
0.0
  0
XRECORD
  5
A46
102
{ACAD_REACTORS
330
A38
102
}
330
A38
100
AcDbXrecord
1000
DSTYLE
1002
{
1070
   289
 70
     1
1002
}
  0
XRECORD
  5
A47
102
{ACAD_REACTORS
330
A38
102
}
330
A38
100
AcDbXrecord
340
0
  0
XRECORD
  5
A48
102
{ACAD_REACTORS
330
A38
102
}
330
A38
100
AcDbXrecord
 70
     0
  0
XRECORD
  5
A49
102
{ACAD_REACTORS
330
A38
102
}
330
A38
100
AcDbXrecord
340
0
  0
XRECORD
  5
A4A
102
{ACAD_REACTORS
330
A38
102
}
330
A38
100
AcDbXrecord
 10
0.0
 20
0.0
 30
0.0
  0
XRECORD
  5
A4B
102
{ACAD_REACTORS
330
A38
102
}
330
A38
100
AcDbXrecord
 10
0.0
 20
0.0
 30
0.0
  0
XRECORD
  5
A4C
102
{ACAD_REACTORS
330
A38
102
}
330
A38
100
AcDbXrecord
 10
0.0
 20
0.0
 30
0.0
  0
XRECORD
  5
A4D
102
{ACAD_REACTORS
330
A38
102
}
330
A38
100
AcDbXrecord
 10
0.0
 20
0.0
 30
0.0
  0
XRECORD
  5
A4E
102
{ACAD_REACTORS
330
A38
102
}
330
A38
100
AcDbXrecord
 10
0.0
 20
0.0
 30
0.0
  0
XRECORD
  5
A4F
102
{ACAD_REACTORS
330
A38
102
}
330
A38
100
AcDbXrecord
 10
0.0
 20
0.0
 30
0.0
  0
XRECORD
  5
A50
102
{ACAD_REACTORS
330
A38
102
}
330
A38
100
AcDbXrecord
340
0
  0
XRECORD
  5
A51
102
{ACAD_REACTORS
330
A38
102
}
330
A38
100
AcDbXrecord
 70
     0
  0
XRECORD
  5
A52
102
{ACAD_REACTORS
330
A38
102
}
330
A38
100
AcDbXrecord
340
0
  0
XRECORD
  5
A53
102
{ACAD_REACTORS
330
A38
102
}
330
A38
100
AcDbXrecord
 10
0.0
 20
0.0
 30
0.0
  0
XRECORD
  5
A54
102
{ACAD_REACTORS
330
A38
102
}
330
A38
100
AcDbXrecord
 10
0.0
 20
0.0
 30
0.0
  0
XRECORD
  5
A55
102
{ACAD_REACTORS
330
A38
102
}
330
A38
100
AcDbXrecord
 10
0.0
 20
0.0
 30
0.0
  0
XRECORD
  5
A56
102
{ACAD_REACTORS
330
A38
102
}
330
A38
100
AcDbXrecord
 10
0.0
 20
0.0
 30
0.0
  0
XRECORD
  5
A57
102
{ACAD_REACTORS
330
A38
102
}
330
A38
100
AcDbXrecord
 10
0.0
 20
0.0
 30
0.0
  0
XRECORD
  5
A58
102
{ACAD_REACTORS
330
A38
102
}
330
A38
100
AcDbXrecord
 10
0.0
 20
0.0
 30
0.0
  0
ENDSEC
  0
EOF
