  0
SECTION
  2
HEADER
  9
$ACADVER
  1
AC1014
  9
$ACADMAINTVER
 70
     9
  9
$DWGCODEPAGE
  3
ANSI_1252
  9
$INSBASE
 10
0.0
 20
0.0
 30
0.0
  9
$EXTMIN
 10
-0.300262121875237
 20
-0.0000000000000005
 30
0.0
  9
$EXTMAX
 10
2.649999999999999
 20
1.985
 30
0.0000000000000021
  9
$LIMMIN
 10
0.0
 20
0.0
  9
$LIMMAX
 10
11.0
 20
8.5
  9
$ORTHOMODE
 70
     1
  9
$REGENMODE
 70
     1
  9
$FILLMODE
 70
     1
  9
$QTEXTMODE
 70
     0
  9
$MIRRTEXT
 70
     0
  9
$DRAGMODE
 70
     2
  9
$LTSCALE
 40
1.0
  9
$OSMODE
 70
   229
  9
$ATTMODE
 70
     1
  9
$TEXTSIZE
 40
0.109
  9
$TRACEWID
 40
0.05
  9
$TEXTSTYLE
  7
TXT
  9
$CLAYER
  8
OBJECT
  9
$CELTYPE
  6
BYLAYER
  9
$CECOLOR
 62
   256
  9
$CELTSCALE
 40
1.0
  9
$DELOBJ
 70
     1
  9
$DISPSILH
 70
     0
  9
$DIMSCALE
 40
0.25
  9
$DIMASZ
 40
0.18
  9
$DIMEXO
 40
0.063
  9
$DIMDLI
 40
0.281
  9
$DIMRND
 40
0.0
  9
$DIMDLE
 40
0.0
  9
$DIMEXE
 40
0.093
  9
$DIMTP
 40
0.0
  9
$DIMTM
 40
0.0
  9
$DIMTXT
 40
0.125
  9
$DIMCEN
 40
0.09
  9
$DIMTSZ
 40
0.0
  9
$DIMTOL
 70
     0
  9
$DIMLIM
 70
     0
  9
$DIMTIH
 70
     1
  9
$DIMTOH
 70
     1
  9
$DIMSE1
 70
     0
  9
$DIMSE2
 70
     0
  9
$DIMTAD
 70
     0
  9
$DIMZIN
 70
     0
  9
$DIMBLK
  1

  9
$DIMASO
 70
     1
  9
$DIMSHO
 70
     1
  9
$DIMPOST
  1

  9
$DIMAPOST
  1

  9
$DIMALT
 70
     1
  9
$DIMALTD
 70
     1
  9
$DIMALTF
 40
25.4
  9
$DIMLFAC
 40
1.0
  9
$DIMTOFL
 70
     0
  9
$DIMTVP
 40
0.0
  9
$DIMTIX
 70
     0
  9
$DIMSOXD
 70
     0
  9
$DIMSAH
 70
     0
  9
$DIMBLK1
  1

  9
$DIMBLK2
  1

  9
$DIMSTYLE
  2
23NSTD
  9
$DIMCLRD
 70
     0
  9
$DIMCLRE
 70
     0
  9
$DIMCLRT
 70
     0
  9
$DIMTFAC
 40
1.0
  9
$DIMGAP
 40
0.09
  9
$DIMJUST
 70
     0
  9
$DIMSD1
 70
     0
  9
$DIMSD2
 70
     0
  9
$DIMTOLJ
 70
     1
  9
$DIMTZIN
 70
     0
  9
$DIMALTZ
 70
     0
  9
$DIMALTTZ
 70
     0
  9
$DIMFIT
 70
     0
  9
$DIMUPT
 70
     0
  9
$DIMUNIT
 70
     2
  9
$DIMDEC
 70
     3
  9
$DIMTDEC
 70
     3
  9
$DIMALTU
 70
     2
  9
$DIMALTTD
 70
     1
  9
$DIMTXSTY
  7
TXT
  9
$DIMAUNIT
 70
     0
  9
$LUNITS
 70
     2
  9
$LUPREC
 70
     3
  9
$SKETCHINC
 40
0.1
  9
$FILLETRAD
 40
0.031
  9
$AUNITS
 70
     0
  9
$AUPREC
 70
     0
  9
$MENU
  1
acad
  9
$ELEVATION
 40
0.0
  9
$PELEVATION
 40
0.0
  9
$THICKNESS
 40
0.0
  9
$LIMCHECK
 70
     0
  9
$BLIPMODE
 70
     0
  9
$CHAMFERA
 40
0.0
  9
$CHAMFERB
 40
0.0
  9
$CHAMFERC
 40
0.0
  9
$CHAMFERD
 40
0.0
  9
$SKPOLY
 70
     0
  9
$TDCREATE
 40
2454231.622468344
  9
$TDUPDATE
 40
2455469.316876261
  9
$TDINDWG
 40
0.1328249769
  9
$TDUSRTIMER
 40
0.1328249769
  9
$USRTIMER
 70
     1
  9
$ANGBASE
 50
0.0
  9
$ANGDIR
 70
     0
  9
$PDMODE
 70
     0
  9
$PDSIZE
 40
0.0
  9
$PLINEWID
 40
0.0
  9
$COORDS
 70
     2
  9
$SPLFRAME
 70
     0
  9
$SPLINETYPE
 70
     6
  9
$SPLINESEGS
 70
     8
  9
$ATTDIA
 70
     0
  9
$ATTREQ
 70
     1
  9
$HANDLING
 70
  4097
  9
$HANDSEED
  5
12534
  9
$SURFTAB1
 70
     6
  9
$SURFTAB2
 70
     6
  9
$SURFTYPE
 70
     6
  9
$SURFU
 70
     6
  9
$SURFV
 70
     6
  9
$UCSNAME
  2

  9
$UCSORG
 10
0.0
 20
0.0
 30
0.0
  9
$UCSXDIR
 10
1.0
 20
0.0
 30
0.0
  9
$UCSYDIR
 10
0.0
 20
1.0
 30
0.0
  9
$PUCSNAME
  2

  9
$PUCSORG
 10
0.0
 20
0.0
 30
0.0
  9
$PUCSXDIR
 10
1.0
 20
0.0
 30
0.0
  9
$PUCSYDIR
 10
0.0
 20
1.0
 30
0.0
  9
$USERI1
 70
     0
  9
$USERI2
 70
     0
  9
$USERI3
 70
     0
  9
$USERI4
 70
     0
  9
$USERI5
 70
     0
  9
$USERR1
 40
0.0
  9
$USERR2
 40
0.0
  9
$USERR3
 40
0.0
  9
$USERR4
 40
0.0
  9
$USERR5
 40
0.0
  9
$WORLDVIEW
 70
     1
  9
$SHADEDGE
 70
     3
  9
$SHADEDIF
 70
    70
  9
$TILEMODE
 70
     1
  9
$MAXACTVP
 70
    16
  9
$PINSBASE
 10
0.0
 20
0.0
 30
0.0
  9
$PLIMCHECK
 70
     0
  9
$PEXTMIN
 10
1.000000000000000E+20
 20
1.000000000000000E+20
 30
1.000000000000000E+20
  9
$PEXTMAX
 10
-1.000000000000000E+20
 20
-1.000000000000000E+20
 30
-1.000000000000000E+20
  9
$PLIMMIN
 10
0.0
 20
0.0
  9
$PLIMMAX
 10
12.0
 20
9.0
  9
$UNITMODE
 70
     0
  9
$VISRETAIN
 70
     0
  9
$PLINEGEN
 70
     0
  9
$PSLTSCALE
 70
     1
  9
$TREEDEPTH
 70
  3020
  9
$PICKSTYLE
 70
     1
  9
$CMLSTYLE
  2
STANDARD
  9
$CMLJUST
 70
     0
  9
$CMLSCALE
 40
1.0
  9
$PROXYGRAPHICS
 70
     1
  9
$MEASUREMENT
 70
     0
  0
ENDSEC
  0
SECTION
  2
CLASSES
  0
CLASS
  1
ACDBDICTIONARYWDFLT
  2
AcDbDictionaryWithDefault
  3
AutoCAD 2000
 90
        0
280
     0
281
     0
  0
CLASS
  1
ACDBPLACEHOLDER
  2
AcDbPlaceHolder
  3
AutoCAD 2000
 90
        0
280
     0
281
     0
  0
CLASS
  1
LAYOUT
  2
AcDbLayout
  3
AutoCAD 2000
 90
        0
280
     0
281
     0
  0
CLASS
  1
LONG_TRANSACTION
  2
AcDbLongTransaction
  3
AutoCAD 2000
 90
        0
280
     0
281
     0
  0
CLASS
  1
LWPOLYLINE
  2
AcDbPolyline
  3
AutoCAD 2000
 90
        0
280
     0
281
     1
  0
CLASS
  1
HATCH
  2
AcDbHatch
  3
AutoCAD 2000
 90
        0
280
     0
281
     1
  0
CLASS
  1
XRECORD
  2
AcDbXrecord
  3
AutoCAD 2000
 90
        0
280
     0
281
     0
  0
ENDSEC
  0
SECTION
  2
TABLES
  0
TABLE
  2
VPORT
  5
8
330
0
100
AcDbSymbolTable
 70
     2
  0
VPORT
  5
1250E
330
8
100
AcDbSymbolTableRecord
100
AcDbViewportTableRecord
  2
*ACTIVE
 70
     0
 10
0.0
 20
0.0
 11
1.0
 21
1.0
 12
1.324790708181618
 22
0.9922482924462967
 13
0.0
 23
0.0
 14
0.125
 24
0.125
 15
0.125
 25
0.125
 16
0.0
 26
0.0
 36
1.0
 17
0.0
 27
0.0
 37
0.0
 40
2.005784592608069
 41
1.836974789915966
 42
50.0
 43
0.0
 44
0.0
 50
0.0
 51
0.0
 71
     0
 72
   100
 73
     1
 74
     0
 75
     0
 76
     0
 77
     0
 78
     0
  0
ENDTAB
  0
TABLE
  2
LTYPE
  5
5
330
0
100
AcDbSymbolTable
 70
     9
  0
LTYPE
  5
13
330
5
100
AcDbSymbolTableRecord
100
AcDbLinetypeTableRecord
  2
BYBLOCK
 70
     0
  3

 72
    65
 73
     0
 40
0.0
  0
LTYPE
  5
14
330
5
100
AcDbSymbolTableRecord
100
AcDbLinetypeTableRecord
  2
BYLAYER
 70
     0
  3

 72
    65
 73
     0
 40
0.0
  0
LTYPE
  5
15
330
5
100
AcDbSymbolTableRecord
100
AcDbLinetypeTableRecord
  2
CONTINUOUS
 70
     0
  3
Solid line
 72
    65
 73
     0
 40
0.0
  0
ENDTAB
  0
TABLE
  2
LAYER
  5
2
330
0
100
AcDbSymbolTable
 70
    10
  0
LAYER
  5
10
330
2
100
AcDbSymbolTableRecord
100
AcDbLayerTableRecord
  2
0
 70
     0
 62
     7
  6
CONTINUOUS
  0
LAYER
  5
29
330
2
100
AcDbSymbolTableRecord
100
AcDbLayerTableRecord
  2
OBJECT
 70
     0
 62
     7
  6
CONTINUOUS
  0
LAYER
  5
6E3E
330
2
100
AcDbSymbolTableRecord
100
AcDbLayerTableRecord
  2
DEFPOINTS
 70
     0
 62
     7
  6
CONTINUOUS
  0
LAYER
  5
6E45
330
2
100
AcDbSymbolTableRecord
100
AcDbLayerTableRecord
  2
ASHADE
 70
     4
 62
     7
  6
CONTINUOUS
  0
ENDTAB
  0
TABLE
  2
STYLE
  5
3
330
0
100
AcDbSymbolTable
 70
     2
  0
STYLE
  5
11
330
3
100
AcDbSymbolTableRecord
100
AcDbTextStyleTableRecord
  2
TXT
 70
     0
 40
0.0
 41
0.75
 50
0.0
 71
     0
 42
0.109
  3
TXT.shx
  4

  0
STYLE
  5
6E46
330
3
100
AcDbSymbolTableRecord
100
AcDbTextStyleTableRecord
  2
STANDARD
 70
     0
 40
0.0
 41
1.0
 50
0.0
 71
     0
 42
2.5
  3
txt
  4

  0
ENDTAB
  0
TABLE
  2
VIEW
  5
6
330
0
100
AcDbSymbolTable
 70
     0
  0
ENDTAB
  0
TABLE
  2
UCS
  5
7
330
0
100
AcDbSymbolTable
 70
     0
  0
ENDTAB
  0
TABLE
  2
APPID
  5
9
330
0
100
AcDbSymbolTable
 70
     8
  0
APPID
  5
12
330
9
100
AcDbSymbolTableRecord
100
AcDbRegAppTableRecord
  2
ACAD
 70
     0
  0
APPID
  5
6E4D
330
9
100
AcDbSymbolTableRecord
100
AcDbRegAppTableRecord
  2
AVE_RENDER
 70
     0
  0
APPID
  5
6E4E
330
9
100
AcDbSymbolTableRecord
100
AcDbRegAppTableRecord
  2
AVE_ENTITY_MATERIAL
 70
     0
  0
APPID
  5
6E4F
330
9
100
AcDbSymbolTableRecord
100
AcDbRegAppTableRecord
  2
AVE_FINISH
 70
     0
  0
APPID
  5
6E50
330
9
100
AcDbSymbolTableRecord
100
AcDbRegAppTableRecord
  2
AVE_MATERIAL
 70
     0
  0
APPID
  5
6E51
330
9
100
AcDbSymbolTableRecord
100
AcDbRegAppTableRecord
  2
AVE_GLOBAL
 70
     0
  0
APPID
  5
11E1D
330
9
100
AcDbSymbolTableRecord
100
AcDbRegAppTableRecord
  2
MCAD_NO_VIS
 70
     0
  0
APPID
  5
11E1E
330
9
100
AcDbSymbolTableRecord
100
AcDbRegAppTableRecord
  2
AD_SKETCHDIM
 70
     0
  0
ENDTAB
  0
TABLE
  2
DIMSTYLE
  5
A
330
0
100
AcDbSymbolTable
 70
     2
  0
DIMSTYLE
105
38
102
{ACAD_REACTORS
330
11F40
330
11FEF
330
11FE1
330
11E39
330
11EA8
330
11F98
102
}
330
A
100
AcDbSymbolTableRecord
100
AcDbDimStyleTableRecord
  2
23NSTD
 70
     0
  3

  4

  5

  6

  7

 40
0.25
 41
0.18
 42
0.063
 43
0.281
 44
0.093
 45
0.0
 46
0.0
 47
0.0
 48
0.0
140
0.125
141
0.09
142
0.0
143
25.4
144
1.0
145
0.0
146
1.0
147
0.09
 71
     0
 72
     0
 73
     1
 74
     1
 75
     0
 76
     0
 77
     0
 78
     0
170
     1
171
     1
172
     0
173
     0
174
     0
175
     0
176
     0
177
     0
178
     0
270
     2
271
     3
272
     3
273
     2
274
     1
340
11
275
     0
280
     0
281
     0
282
     0
283
     1
284
     0
285
     0
286
     0
287
     0
288
     0
  0
DIMSTYLE
105
39
102
{ACAD_REACTORS
330
11E77
330
11FA6
330
11E9A
330
11EB6
102
}
330
A
100
AcDbSymbolTableRecord
100
AcDbDimStyleTableRecord
  2
23NSTDI
 70
     0
  3

  4

  5

  6

  7

 40
0.25
 41
0.18
 42
0.063
 43
0.281
 44
0.093
 45
0.0
 46
0.0
 47
0.0
 48
0.0
140
0.125
141
0.09
142
0.0
143
25.4
144
1.0
145
0.0
146
1.0
147
0.09
 71
     0
 72
     0
 73
     1
 74
     1
 75
     0
 76
     0
 77
     0
 78
     0
170
     1
171
     1
172
     0
173
     0
174
     1
175
     0
176
     0
177
     0
178
     0
270
     2
271
     3
272
     3
273
     2
274
     1
340
11
275
     0
280
     0
281
     0
282
     0
283
     1
284
     0
285
     0
286
     0
287
     0
288
     0
  0
ENDTAB
  0
TABLE
  2
BLOCK_RECORD
  5
1
330
0
100
AcDbSymbolTable
 70
    13
  0
BLOCK_RECORD
  5
1E
102
{ACAD_XDICTIONARY
360
12532
102
}
330
1
100
AcDbSymbolTableRecord
100
AcDbBlockTableRecord
  2
*MODEL_SPACE
  0
BLOCK_RECORD
  5
1A
102
{ACAD_XDICTIONARY
360
12530
102
}
330
1
100
AcDbSymbolTableRecord
100
AcDbBlockTableRecord
  2
*PAPER_SPACE
  0
BLOCK_RECORD
  5
5BD1
330
1
100
AcDbSymbolTableRecord
100
AcDbBlockTableRecord
  2
AVE_RENDER
  0
BLOCK_RECORD
  5
5BD4
330
1
100
AcDbSymbolTableRecord
100
AcDbBlockTableRecord
  2
AVE_GLOBAL
  0
BLOCK_RECORD
  5
11E3A
330
1
100
AcDbSymbolTableRecord
100
AcDbBlockTableRecord
  2
*D3
  0
BLOCK_RECORD
  5
11E78
330
1
100
AcDbSymbolTableRecord
100
AcDbBlockTableRecord
  2
*D4
  0
BLOCK_RECORD
  5
11E9B
330
1
100
AcDbSymbolTableRecord
100
AcDbBlockTableRecord
  2
*D5
  0
BLOCK_RECORD
  5
11EA9
330
1
100
AcDbSymbolTableRecord
100
AcDbBlockTableRecord
  2
*D6
  0
BLOCK_RECORD
  5
11EB7
330
1
100
AcDbSymbolTableRecord
100
AcDbBlockTableRecord
  2
*D7
  0
BLOCK_RECORD
  5
11F41
330
1
100
AcDbSymbolTableRecord
100
AcDbBlockTableRecord
  2
*D8
  0
BLOCK_RECORD
  5
11F99
330
1
100
AcDbSymbolTableRecord
100
AcDbBlockTableRecord
  2
*D9
  0
BLOCK_RECORD
  5
11FA7
330
1
100
AcDbSymbolTableRecord
100
AcDbBlockTableRecord
  2
*D10
  0
BLOCK_RECORD
  5
11FE2
330
1
100
AcDbSymbolTableRecord
100
AcDbBlockTableRecord
  2
*D11
  0
BLOCK_RECORD
  5
11FF0
330
1
100
AcDbSymbolTableRecord
100
AcDbBlockTableRecord
  2
*D12
  0
ENDTAB
  0
ENDSEC
  0
SECTION
  2
BLOCKS
  0
BLOCK
  5
33
330
1E
100
AcDbEntity
  8
0
100
AcDbBlockBegin
  2
*MODEL_SPACE
 70
     0
 10
0.0
 20
0.0
 30
0.0
  3
*MODEL_SPACE
  1

  0
ENDBLK
  5
34
330
1E
100
AcDbEntity
  8
0
100
AcDbBlockEnd
  0
BLOCK
  5
31
330
1A
100
AcDbEntity
 67
     1
  8
0
100
AcDbBlockBegin
  2
*PAPER_SPACE
 70
     0
 10
0.0
 20
0.0
 30
0.0
  3
*PAPER_SPACE
  1

  0
ENDBLK
  5
32
330
1A
100
AcDbEntity
 67
     1
  8
0
100
AcDbBlockEnd
  0
BLOCK
  5
5BD2
330
5BD1
100
AcDbEntity
  8
ASHADE
100
AcDbBlockBegin
  2
AVE_RENDER
 70
     0
 10
0.0
 20
0.0
 30
0.0
  3
AVE_RENDER
  1
AVE_RENDER
  0
ENDBLK
  5
5BD3
330
5BD1
100
AcDbEntity
  8
0
100
AcDbBlockEnd
  0
BLOCK
  5
5BD5
330
5BD4
100
AcDbEntity
  8
ASHADE
100
AcDbBlockBegin
  2
AVE_GLOBAL
 70
     0
 10
0.0
 20
0.0
 30
0.0
  3
AVE_GLOBAL
  1
AVE_GLOBAL
  0
ENDBLK
  5
5BD6
330
5BD4
100
AcDbEntity
  8
0
100
AcDbBlockEnd
  0
BLOCK
  5
11E45
330
11E3A
100
AcDbEntity
  8
0
100
AcDbBlockBegin
  2
*D3
 70
     1
 10
0.0
 20
0.0
 30
0.0
  3
*D3
  1

  0
LINE
  5
124EE
330
11E3A
100
AcDbEntity
  8
OBJECT
 62
     0
100
AcDbLine
 10
1.388765328712521
 20
1.521136152818994
 30
0.0
 11
1.545570128763787
 21
1.521136152818994
 31
0.0
  0
LINE
  5
124EF
330
11E3A
100
AcDbEntity
  8
OBJECT
 62
     0
100
AcDbLine
 10
1.388765328712521
 20
1.088136152818994
 30
0.0
 11
1.545570128763787
 21
1.088136152818994
 31
0.0
  0
LINE
  5
124F0
330
11E3A
100
AcDbEntity
  8
OBJECT
 62
     0
100
AcDbLine
 10
1.522320128763787
 20
1.476136152818994
 30
0.0
 11
1.522320128763787
 21
1.342761152818994
 31
0.0
  0
LINE
  5
124F1
330
11E3A
100
AcDbEntity
  8
OBJECT
 62
     0
100
AcDbLine
 10
1.522320128763787
 20
1.133136152818994
 30
0.0
 11
1.522320128763787
 21
1.266511152818994
 31
0.0
  0
SOLID
  5
124F2
330
11E3A
100
AcDbEntity
  8
OBJECT
 62
     0
100
AcDbTrace
 10
1.514820128763787
 20
1.476136152818994
 30
0.0
 11
1.529820128763787
 21
1.476136152818994
 31
0.0
 12
1.522320128763787
 22
1.521136152818994
 32
0.0
 13
1.522320128763787
 23
1.521136152818994
 33
0.0
  0
SOLID
  5
124F3
330
11E3A
100
AcDbEntity
  8
OBJECT
 62
     0
100
AcDbTrace
 10
1.514820128763787
 20
1.133136152818994
 30
0.0
 11
1.529820128763787
 21
1.133136152818994
 31
0.0
 12
1.522320128763787
 22
1.088136152818994
 32
0.0
 13
1.522320128763787
 23
1.088136152818994
 33
0.0
  0
MTEXT
  5
124F4
330
11E3A
100
AcDbEntity
  8
OBJECT
 62
     0
100
AcDbMText
 10
1.522320128763787
 20
1.304636152818994
 30
0.0
 40
0.03125
 41
0.0
 71
     5
 72
     1
  1
\A1;0.433 [11.0]
1001
ACAD
1000
MTEXTBEGIN
1070
    73
1070
     1
1070
    44
1040
1.0
1070
    74
1070
     0
1000
MTEXTEND
  0
POINT
  5
124F5
330
11E3A
100
AcDbEntity
  8
DEFPOINTS
 62
     0
100
AcDbPoint
 10
1.373015328712521
 20
1.521136152818994
 30
0.0
  0
POINT
  5
124F6
330
11E3A
100
AcDbEntity
  8
DEFPOINTS
 62
     0
100
AcDbPoint
 10
1.373015328712521
 20
1.088136152818994
 30
0.0
  0
POINT
  5
124F7
330
11E3A
100
AcDbEntity
  8
DEFPOINTS
 62
     0
100
AcDbPoint
 10
1.522320128763787
 20
1.088136152818994
 30
0.0
  0
ENDBLK
  5
11E46
330
11E3A
100
AcDbEntity
  8
0
100
AcDbBlockEnd
  0
BLOCK
  5
11E84
330
11E78
100
AcDbEntity
  8
0
100
AcDbBlockBegin
  2
*D4
 70
     1
 10
0.0
 20
0.0
 30
0.0
  3
*D4
  1

  0
LINE
  5
124E4
330
11E78
100
AcDbEntity
  8
OBJECT
 62
     0
100
AcDbLine
 10
1.01826532871252
 20
1.088136152818994
 30
0.0
 11
0.8825345795766166
 21
1.088136152818994
 31
0.0
  0
LINE
  5
124E5
330
11E78
100
AcDbEntity
  8
OBJECT
 62
     0
100
AcDbLine
 10
1.01826532871252
 20
1.265136152818994
 30
0.0
 11
0.8825345795766168
 21
1.265136152818994
 31
0.0
  0
LINE
  5
124E6
330
11E78
100
AcDbEntity
  8
OBJECT
 62
     0
100
AcDbLine
 10
0.9057845795766166
 20
1.043136152818994
 30
0.0
 11
0.9057845795766166
 21
0.9981361528189943
 31
0.0
  0
LINE
  5
124E7
330
11E78
100
AcDbEntity
  8
OBJECT
 62
     0
100
AcDbLine
 10
0.9057845795766167
 20
1.310136152818994
 30
0.0
 11
0.9057845795766167
 21
1.355136152818994
 31
0.0
  0
SOLID
  5
124E8
330
11E78
100
AcDbEntity
  8
OBJECT
 62
     0
100
AcDbTrace
 10
0.8982845795766166
 20
1.043136152818994
 30
0.0
 11
0.9132845795766165
 21
1.043136152818994
 31
0.0
 12
0.9057845795766166
 22
1.088136152818994
 32
0.0
 13
0.9057845795766166
 23
1.088136152818994
 33
0.0
  0
SOLID
  5
124E9
330
11E78
100
AcDbEntity
  8
OBJECT
 62
     0
100
AcDbTrace
 10
0.8982845795766166
 20
1.310136152818994
 30
0.0
 11
0.9132845795766167
 21
1.310136152818994
 31
0.0
 12
0.9057845795766167
 22
1.265136152818994
 32
0.0
 13
0.9057845795766167
 23
1.265136152818994
 33
0.0
  0
MTEXT
  5
124EA
330
11E78
100
AcDbEntity
  8
OBJECT
 62
     0
100
AcDbMText
 10
0.9057845795766164
 20
1.176636152818994
 30
0.0
 40
0.03125
 41
0.0
 71
     5
 72
     1
  1
\A1;0.177 [4.5]
1001
ACAD
1000
MTEXTBEGIN
1070
    73
1070
     1
1070
    44
1040
1.0
1070
    74
1070
     0
1000
MTEXTEND
  0
POINT
  5
124EB
330
11E78
100
AcDbEntity
  8
DEFPOINTS
 62
     0
100
AcDbPoint
 10
1.03401532871252
 20
1.088136152818994
 30
0.0
  0
POINT
  5
124EC
330
11E78
100
AcDbEntity
  8
DEFPOINTS
 62
     0
100
AcDbPoint
 10
1.03401532871252
 20
1.265136152818994
 30
0.0
  0
POINT
  5
124ED
330
11E78
100
AcDbEntity
  8
DEFPOINTS
 62
     0
100
AcDbPoint
 10
0.9057845795766167
 20
1.265136152818994
 30
0.0
  0
ENDBLK
  5
11E85
330
11E78
100
AcDbEntity
  8
0
100
AcDbBlockEnd
  0
BLOCK
  5
11EA6
330
11E9B
100
AcDbEntity
  8
0
100
AcDbBlockBegin
  2
*D5
 70
     1
 10
0.0
 20
0.0
 30
0.0
  3
*D5
  1

  0
LINE
  5
124DA
330
11E9B
100
AcDbEntity
  8
OBJECT
 62
     0
100
AcDbLine
 10
1.03401532871252
 20
1.072386152818994
 30
0.0
 11
1.03401532871252
 21
0.8307609935607498
 31
0.0
  0
LINE
  5
124DB
330
11E9B
100
AcDbEntity
  8
OBJECT
 62
     0
100
AcDbLine
 10
1.37301532871252
 20
1.072386152818994
 30
0.0
 11
1.37301532871252
 21
0.8307609935607498
 31
0.0
  0
LINE
  5
124DC
330
11E9B
100
AcDbEntity
  8
OBJECT
 62
     0
100
AcDbLine
 10
0.9890153287125203
 20
0.8540109935607498
 30
0.0
 11
0.9440153287125204
 21
0.8540109935607498
 31
0.0
  0
LINE
  5
124DD
330
11E9B
100
AcDbEntity
  8
OBJECT
 62
     0
100
AcDbLine
 10
1.41801532871252
 20
0.8540109935607498
 30
0.0
 11
1.46301532871252
 21
0.8540109935607498
 31
0.0
  0
SOLID
  5
124DE
330
11E9B
100
AcDbEntity
  8
OBJECT
 62
     0
100
AcDbTrace
 10
0.9890153287125203
 20
0.8615109935607497
 30
0.0
 11
0.9890153287125203
 21
0.8465109935607499
 31
0.0
 12
1.03401532871252
 22
0.8540109935607498
 32
0.0
 13
1.03401532871252
 23
0.8540109935607498
 33
0.0
  0
SOLID
  5
124DF
330
11E9B
100
AcDbEntity
  8
OBJECT
 62
     0
100
AcDbTrace
 10
1.41801532871252
 20
0.8615109935607497
 30
0.0
 11
1.41801532871252
 21
0.8465109935607499
 31
0.0
 12
1.37301532871252
 22
0.8540109935607498
 32
0.0
 13
1.37301532871252
 23
0.8540109935607498
 33
0.0
  0
MTEXT
  5
124E0
330
11E9B
100
AcDbEntity
  8
OBJECT
 62
     0
100
AcDbMText
 10
1.20351532871252
 20
0.8540109935607498
 30
0.0
 40
0.03125
 41
0.0
 71
     5
 72
     1
  1
\A1;0.339 [8.6]
1001
ACAD
1000
MTEXTBEGIN
1070
    73
1070
     1
1070
    44
1040
1.0
1070
    74
1070
     0
1000
MTEXTEND
  0
POINT
  5
124E1
330
11E9B
100
AcDbEntity
  8
DEFPOINTS
 62
     0
100
AcDbPoint
 10
1.03401532871252
 20
1.088136152818994
 30
0.0
  0
POINT
  5
124E2
330
11E9B
100
AcDbEntity
  8
DEFPOINTS
 62
     0
100
AcDbPoint
 10
1.37301532871252
 20
1.088136152818994
 30
0.0
  0
POINT
  5
124E3
330
11E9B
100
AcDbEntity
  8
DEFPOINTS
 62
     0
100
AcDbPoint
 10
1.37301532871252
 20
0.8540109935607498
 30
0.0
  0
ENDBLK
  5
11EA7
330
11E9B
100
AcDbEntity
  8
0
100
AcDbBlockEnd
  0
BLOCK
  5
11EB4
330
11EA9
100
AcDbEntity
  8
0
100
AcDbBlockBegin
  2
*D6
 70
     1
 10
0.0
 20
0.0
 30
0.0
  3
*D6
  1

  0
LINE
  5
124D0
330
11EA9
100
AcDbEntity
  8
OBJECT
 62
     0
100
AcDbLine
 10
1.17001532871252
 20
0.4302402137299331
 30
0.0
 11
1.17001532871252
 21
0.6943396808297955
 31
0.0
  0
LINE
  5
124D1
330
11EA9
100
AcDbEntity
  8
OBJECT
 62
     0
100
AcDbLine
 10
1.03401532871252
 20
0.5682402137299331
 30
0.0
 11
1.03401532871252
 21
0.6943396808297955
 31
0.0
  0
LINE
  5
124D2
330
11EA9
100
AcDbEntity
  8
OBJECT
 62
     0
100
AcDbLine
 10
1.21501532871252
 20
0.6710896808297955
 30
0.0
 11
1.26001532871252
 21
0.6710896808297955
 31
0.0
  0
LINE
  5
124D3
330
11EA9
100
AcDbEntity
  8
OBJECT
 62
     0
100
AcDbLine
 10
0.9890153287125203
 20
0.6710896808297955
 30
0.0
 11
0.9440153287125204
 21
0.6710896808297955
 31
0.0
  0
SOLID
  5
124D4
330
11EA9
100
AcDbEntity
  8
OBJECT
 62
     0
100
AcDbTrace
 10
1.21501532871252
 20
0.6785896808297954
 30
0.0
 11
1.21501532871252
 21
0.6635896808297956
 31
0.0
 12
1.17001532871252
 22
0.6710896808297955
 32
0.0
 13
1.17001532871252
 23
0.6710896808297955
 33
0.0
  0
SOLID
  5
124D5
330
11EA9
100
AcDbEntity
  8
OBJECT
 62
     0
100
AcDbTrace
 10
0.9890153287125203
 20
0.6785896808297954
 30
0.0
 11
0.9890153287125203
 21
0.6635896808297956
 31
0.0
 12
1.03401532871252
 22
0.6710896808297955
 32
0.0
 13
1.03401532871252
 23
0.6710896808297955
 33
0.0
  0
MTEXT
  5
124D6
330
11EA9
100
AcDbEntity
  8
OBJECT
 62
     0
100
AcDbMText
 10
0.8258122037125204
 20
0.6710896808297955
 30
0.0
 40
0.03125
 41
0.0
 71
     5
 72
     1
  1
\A1;0.136 [3.5]
1001
ACAD
1000
MTEXTBEGIN
1070
    73
1070
     1
1070
    44
1040
1.0
1070
    74
1070
     0
1000
MTEXTEND
  0
POINT
  5
124D7
330
11EA9
100
AcDbEntity
  8
DEFPOINTS
 62
     0
100
AcDbPoint
 10
1.17001532871252
 20
0.4144902137299331
 30
0.0
  0
POINT
  5
124D8
330
11EA9
100
AcDbEntity
  8
DEFPOINTS
 62
     0
100
AcDbPoint
 10
1.03401532871252
 20
0.552490213729933
 30
0.0
  0
POINT
  5
124D9
330
11EA9
100
AcDbEntity
  8
DEFPOINTS
 62
     0
100
AcDbPoint
 10
1.03401532871252
 20
0.6710896808297955
 30
0.0
  0
ENDBLK
  5
11EB5
330
11EA9
100
AcDbEntity
  8
0
100
AcDbBlockEnd
  0
BLOCK
  5
11EC2
330
11EB7
100
AcDbEntity
  8
0
100
AcDbBlockBegin
  2
*D7
 70
     1
 10
0.0
 20
0.0
 30
0.0
  3
*D7
  1

  0
LINE
  5
124B2
330
11EB7
100
AcDbEntity
  8
OBJECT
 62
     0
100
AcDbLine
 10
1.15426532871252
 20
0.4144902137299331
 30
0.0
 11
0.8825345795766166
 21
0.4144902137299332
 31
0.0
  0
LINE
  5
124B3
330
11EB7
100
AcDbEntity
  8
OBJECT
 62
     0
100
AcDbLine
 10
1.01826532871252
 20
0.2764902137299332
 30
0.0
 11
0.8825345795766166
 21
0.2764902137299332
 31
0.0
  0
LINE
  5
124B4
330
11EB7
100
AcDbEntity
  8
OBJECT
 62
     0
100
AcDbLine
 10
0.9057845795766166
 20
0.4594902137299332
 30
0.0
 11
0.9057845795766166
 21
0.5044902137299332
 31
0.0
  0
LINE
  5
124B5
330
11EB7
100
AcDbEntity
  8
OBJECT
 62
     0
100
AcDbLine
 10
0.9057845795766164
 20
0.2314902137299332
 30
0.0
 11
0.9057845795766164
 21
0.1864902137299332
 31
0.0
  0
SOLID
  5
124B6
330
11EB7
100
AcDbEntity
  8
OBJECT
 62
     0
100
AcDbTrace
 10
0.8982845795766166
 20
0.4594902137299332
 30
0.0
 11
0.9132845795766165
 21
0.4594902137299332
 31
0.0
 12
0.9057845795766166
 22
0.4144902137299332
 32
0.0
 13
0.9057845795766166
 23
0.4144902137299332
 33
0.0
  0
SOLID
  5
124B7
330
11EB7
100
AcDbEntity
  8
OBJECT
 62
     0
100
AcDbTrace
 10
0.8982845795766165
 20
0.2314902137299332
 30
0.0
 11
0.9132845795766165
 21
0.2314902137299332
 31
0.0
 12
0.9057845795766166
 22
0.2764902137299332
 32
0.0
 13
0.9057845795766166
 23
0.2764902137299332
 33
0.0
  0
MTEXT
  5
124B8
330
11EB7
100
AcDbEntity
  8
OBJECT
 62
     0
100
AcDbMText
 10
0.9057845795766164
 20
0.3454902137299333
 30
0.0
 40
0.03125
 41
0.0
 71
     5
 72
     1
  1
\A1;0.138 [3.5]
1001
ACAD
1000
MTEXTBEGIN
1070
    73
1070
     1
1070
    44
1040
1.0
1070
    74
1070
     0
1000
MTEXTEND
  0
POINT
  5
124B9
330
11EB7
100
AcDbEntity
  8
DEFPOINTS
 62
     0
100
AcDbPoint
 10
1.17001532871252
 20
0.4144902137299331
 30
0.0
  0
POINT
  5
124BA
330
11EB7
100
AcDbEntity
  8
DEFPOINTS
 62
     0
100
AcDbPoint
 10
1.03401532871252
 20
0.2764902137299332
 30
0.0
  0
POINT
  5
124BB
330
11EB7
100
AcDbEntity
  8
DEFPOINTS
 62
     0
100
AcDbPoint
 10
0.9057845795766166
 20
0.2764902137299332
 30
0.0
  0
ENDBLK
  5
11EC3
330
11EB7
100
AcDbEntity
  8
0
100
AcDbBlockEnd
  0
BLOCK
  5
11F4C
330
11F41
100
AcDbEntity
  8
0
100
AcDbBlockBegin
  2
*D8
 70
     1
 10
0.0
 20
0.0
 30
0.0
  3
*D8
  1

  0
LINE
  5
1249E
330
11F41
100
AcDbEntity
  8
OBJECT
 62
     0
100
AcDbLine
 10
1.306015328712521
 20
1.536886152818994
 30
0.0
 11
1.306015328712521
 21
1.660183000855027
 31
0.0
  0
LINE
  5
1249F
330
11F41
100
AcDbEntity
  8
OBJECT
 62
     0
100
AcDbLine
 10
1.37301532871252
 20
1.536886152818994
 30
0.0
 11
1.37301532871252
 21
1.660183000855027
 31
0.0
  0
LINE
  5
124A0
330
11F41
100
AcDbEntity
  8
OBJECT
 62
     0
100
AcDbLine
 10
1.261015328712521
 20
1.636933000855027
 30
0.0
 11
1.216015328712521
 21
1.636933000855027
 31
0.0
  0
LINE
  5
124A1
330
11F41
100
AcDbEntity
  8
OBJECT
 62
     0
100
AcDbLine
 10
1.41801532871252
 20
1.636933000855027
 30
0.0
 11
1.46301532871252
 21
1.636933000855027
 31
0.0
  0
SOLID
  5
124A2
330
11F41
100
AcDbEntity
  8
OBJECT
 62
     0
100
AcDbTrace
 10
1.261015328712521
 20
1.644433000855027
 30
0.0
 11
1.261015328712521
 21
1.629433000855027
 31
0.0
 12
1.306015328712521
 22
1.636933000855027
 32
0.0
 13
1.306015328712521
 23
1.636933000855027
 33
0.0
  0
SOLID
  5
124A3
330
11F41
100
AcDbEntity
  8
OBJECT
 62
     0
100
AcDbTrace
 10
1.41801532871252
 20
1.644433000855027
 30
0.0
 11
1.41801532871252
 21
1.629433000855027
 31
0.0
 12
1.37301532871252
 22
1.636933000855027
 32
0.0
 13
1.37301532871252
 23
1.636933000855027
 33
0.0
  0
MTEXT
  5
124A4
330
11F41
100
AcDbEntity
  8
OBJECT
 62
     0
100
AcDbMText
 10
1.57926532871252
 20
1.636933000855027
 30
0.0
 40
0.03125
 41
0.0
 71
     5
 72
     1
  1
\A1;0.067 [1.7]
1001
ACAD
1000
MTEXTBEGIN
1070
    73
1070
     1
1070
    44
1040
1.0
1070
    74
1070
     0
1000
MTEXTEND
  0
POINT
  5
124A5
330
11F41
100
AcDbEntity
  8
DEFPOINTS
 62
     0
100
AcDbPoint
 10
1.306015328712521
 20
1.521136152818994
 30
0.0
  0
POINT
  5
124A6
330
11F41
100
AcDbEntity
  8
DEFPOINTS
 62
     0
100
AcDbPoint
 10
1.37301532871252
 20
1.521136152818994
 30
0.0
  0
POINT
  5
124A7
330
11F41
100
AcDbEntity
  8
DEFPOINTS
 62
     0
100
AcDbPoint
 10
1.37301532871252
 20
1.636933000855027
 30
0.0
  0
ENDBLK
  5
11F4D
330
11F41
100
AcDbEntity
  8
0
100
AcDbBlockEnd
  0
BLOCK
  5
11FA4
330
11F99
100
AcDbEntity
  8
0
100
AcDbBlockBegin
  2
*D9
 70
     1
 10
0.0
 20
0.0
 30
0.0
  3
*D9
  1

  0
LINE
  5
12494
330
11F99
100
AcDbEntity
  8
OBJECT
 62
     0
100
AcDbLine
 10
0.6619672605694236
 20
1.536886152818994
 30
0.0
 11
0.6619672605694236
 21
1.660183000855027
 31
0.0
  0
LINE
  5
12495
330
11F99
100
AcDbEntity
  8
OBJECT
 62
     0
100
AcDbLine
 10
0.3269672605694192
 20
1.536886152818994
 30
0.0
 11
0.3269672605694192
 21
1.660183000855027
 31
0.0
  0
LINE
  5
12496
330
11F99
100
AcDbEntity
  8
OBJECT
 62
     0
100
AcDbLine
 10
0.7069672605694236
 20
1.636933000855027
 30
0.0
 11
0.7519672605694236
 21
1.636933000855027
 31
0.0
  0
LINE
  5
12497
330
11F99
100
AcDbEntity
  8
OBJECT
 62
     0
100
AcDbLine
 10
0.2819672605694192
 20
1.636933000855027
 30
0.0
 11
0.2369672605694192
 21
1.636933000855027
 31
0.0
  0
SOLID
  5
12498
330
11F99
100
AcDbEntity
  8
OBJECT
 62
     0
100
AcDbTrace
 10
0.7069672605694236
 20
1.644433000855027
 30
0.0
 11
0.7069672605694236
 21
1.629433000855027
 31
0.0
 12
0.6619672605694236
 22
1.636933000855027
 32
0.0
 13
0.6619672605694236
 23
1.636933000855027
 33
0.0
  0
SOLID
  5
12499
330
11F99
100
AcDbEntity
  8
OBJECT
 62
     0
100
AcDbTrace
 10
0.2819672605694192
 20
1.644433000855027
 30
0.0
 11
0.2819672605694192
 21
1.629433000855027
 31
0.0
 12
0.3269672605694192
 22
1.636933000855027
 32
0.0
 13
0.3269672605694192
 23
1.636933000855027
 33
0.0
  0
MTEXT
  5
1249A
330
11F99
100
AcDbEntity
  8
OBJECT
 62
     0
100
AcDbMText
 10
0.4775446636616456
 20
1.636933000855027
 30
0.0
 40
0.03125
 41
0.0
 71
     5
 72
     1
  1
\A1;0.335 [8.5]
1001
ACAD
1000
MTEXTBEGIN
1070
    73
1070
     1
1070
    44
1040
1.0
1070
    74
1070
     0
1000
MTEXTEND
  0
POINT
  5
1249B
330
11F99
100
AcDbEntity
  8
DEFPOINTS
 62
     0
100
AcDbPoint
 10
0.6619672605694236
 20
1.521136152818994
 30
0.0
  0
POINT
  5
1249C
330
11F99
100
AcDbEntity
  8
DEFPOINTS
 62
     0
100
AcDbPoint
 10
0.3269672605694192
 20
1.521136152818994
 30
0.0
  0
POINT
  5
1249D
330
11F99
100
AcDbEntity
  8
DEFPOINTS
 62
     0
100
AcDbPoint
 10
0.3269672605694192
 20
1.636933000855027
 30
0.0
  0
ENDBLK
  5
11FA5
330
11F99
100
AcDbEntity
  8
0
100
AcDbBlockEnd
  0
BLOCK
  5
11FB2
330
11FA7
100
AcDbEntity
  8
0
100
AcDbBlockBegin
  2
*D10
 70
     1
 10
0.0
 20
0.0
 30
0.0
  3
*D10
  1

  0
LINE
  5
124A8
330
11FA7
100
AcDbEntity
  8
OBJECT
 62
     0
100
AcDbLine
 10
0.6324672605694186
 20
1.072386152818994
 30
0.0
 11
0.6324672605694186
 21
0.9338908358048021
 31
0.0
  0
LINE
  5
124A9
330
11FA7
100
AcDbEntity
  8
OBJECT
 62
     0
100
AcDbLine
 10
0.3564672605694188
 20
1.072386152818994
 30
0.0
 11
0.3564672605694188
 21
0.9338908358048021
 31
0.0
  0
LINE
  5
124AA
330
11FA7
100
AcDbEntity
  8
OBJECT
 62
     0
100
AcDbLine
 10
0.6774672605694187
 20
0.9571408358048021
 30
0.0
 11
0.7224672605694186
 21
0.9571408358048021
 31
0.0
  0
LINE
  5
124AB
330
11FA7
100
AcDbEntity
  8
OBJECT
 62
     0
100
AcDbLine
 10
0.3114672605694188
 20
0.9571408358048021
 30
0.0
 11
0.2664672605694188
 21
0.9571408358048021
 31
0.0
  0
SOLID
  5
124AC
330
11FA7
100
AcDbEntity
  8
OBJECT
 62
     0
100
AcDbTrace
 10
0.6774672605694187
 20
0.964640835804802
 30
0.0
 11
0.6774672605694187
 21
0.9496408358048022
 31
0.0
 12
0.6324672605694186
 22
0.9571408358048021
 32
0.0
 13
0.6324672605694186
 23
0.9571408358048021
 33
0.0
  0
SOLID
  5
124AD
330
11FA7
100
AcDbEntity
  8
OBJECT
 62
     0
100
AcDbTrace
 10
0.3114672605694188
 20
0.964640835804802
 30
0.0
 11
0.3114672605694188
 21
0.9496408358048022
 31
0.0
 12
0.3564672605694188
 22
0.9571408358048021
 32
0.0
 13
0.3564672605694188
 23
0.9571408358048021
 33
0.0
  0
MTEXT
  5
124AE
330
11FA7
100
AcDbEntity
  8
OBJECT
 62
     0
100
AcDbMText
 10
0.4944672605694187
 20
0.9571408358048021
 30
0.0
 40
0.03125
 41
0.0
 71
     5
 72
     1
  1
\A1;0.276 [7.0]
1001
ACAD
1000
MTEXTBEGIN
1070
    73
1070
     1
1070
    44
1040
1.0
1070
    74
1070
     0
1000
MTEXTEND
  0
POINT
  5
124AF
330
11FA7
100
AcDbEntity
  8
DEFPOINTS
 62
     0
100
AcDbPoint
 10
0.6324672605694186
 20
1.088136152818994
 30
0.0
  0
POINT
  5
124B0
330
11FA7
100
AcDbEntity
  8
DEFPOINTS
 62
     0
100
AcDbPoint
 10
0.3564672605694188
 20
1.088136152818994
 30
0.0
  0
POINT
  5
124B1
330
11FA7
100
AcDbEntity
  8
DEFPOINTS
 62
     0
100
AcDbPoint
 10
0.3564672605694188
 20
0.9571408358048021
 30
0.0
  0
ENDBLK
  5
11FB3
330
11FA7
100
AcDbEntity
  8
0
100
AcDbBlockEnd
  0
BLOCK
  5
11FED
330
11FE2
100
AcDbEntity
  8
0
100
AcDbBlockBegin
  2
*D11
 70
     1
 10
0.0
 20
0.0
 30
0.0
  3
*D11
  1

  0
LINE
  5
124C6
330
11FE2
100
AcDbEntity
  8
OBJECT
 62
     0
100
AcDbLine
 10
1.12101532871252
 20
1.072386152818994
 30
0.0
 11
1.12101532871252
 21
0.9338908358048021
 31
0.0
  0
LINE
  5
124C7
330
11FE2
100
AcDbEntity
  8
OBJECT
 62
     0
100
AcDbLine
 10
1.21901532871252
 20
1.072386152818994
 30
0.0
 11
1.21901532871252
 21
0.9338908358048021
 31
0.0
  0
LINE
  5
124C8
330
11FE2
100
AcDbEntity
  8
OBJECT
 62
     0
100
AcDbLine
 10
1.07601532871252
 20
0.9571408358048021
 30
0.0
 11
1.03101532871252
 21
0.9571408358048021
 31
0.0
  0
LINE
  5
124C9
330
11FE2
100
AcDbEntity
  8
OBJECT
 62
     0
100
AcDbLine
 10
1.26401532871252
 20
0.9571408358048021
 30
0.0
 11
1.39736621115179
 21
0.9571408358048021
 31
0.0
  0
SOLID
  5
124CA
330
11FE2
100
AcDbEntity
  8
OBJECT
 62
     0
100
AcDbTrace
 10
1.07601532871252
 20
0.964640835804802
 30
0.0
 11
1.07601532871252
 21
0.9496408358048022
 31
0.0
 12
1.12101532871252
 22
0.9571408358048021
 32
0.0
 13
1.12101532871252
 23
0.9571408358048021
 33
0.0
  0
SOLID
  5
124CB
330
11FE2
100
AcDbEntity
  8
OBJECT
 62
     0
100
AcDbTrace
 10
1.26401532871252
 20
0.964640835804802
 30
0.0
 11
1.26401532871252
 21
0.9496408358048022
 31
0.0
 12
1.21901532871252
 22
0.9571408358048021
 32
0.0
 13
1.21901532871252
 23
0.9571408358048021
 33
0.0
  0
MTEXT
  5
124CC
330
11FE2
100
AcDbEntity
  8
OBJECT
 62
     0
100
AcDbMText
 10
1.52924121115179
 20
0.9571408358048021
 30
0.0
 40
0.03125
 41
0.0
 71
     5
 72
     1
  1
\A1;%%c0.098 [2.5]
1001
ACAD
1000
MTEXTBEGIN
1070
    73
1070
     1
1070
    44
1040
1.0
1070
    74
1070
     0
1000
MTEXTEND
  0
POINT
  5
124CD
330
11FE2
100
AcDbEntity
  8
DEFPOINTS
 62
     0
100
AcDbPoint
 10
1.12101532871252
 20
1.088136152818994
 30
0.0
  0
POINT
  5
124CE
330
11FE2
100
AcDbEntity
  8
DEFPOINTS
 62
     0
100
AcDbPoint
 10
1.21901532871252
 20
1.088136152818994
 30
0.0
  0
POINT
  5
124CF
330
11FE2
100
AcDbEntity
  8
DEFPOINTS
 62
     0
100
AcDbPoint
 10
1.21901532871252
 20
0.9571408358048021
 30
0.0
  0
ENDBLK
  5
11FEE
330
11FE2
100
AcDbEntity
  8
0
100
AcDbBlockEnd
  0
BLOCK
  5
11FFB
330
11FF0
100
AcDbEntity
  8
0
100
AcDbBlockBegin
  2
*D12
 70
     1
 10
0.0
 20
0.0
 30
0.0
  3
*D12
  1

  0
LINE
  5
124BC
330
11FF0
100
AcDbEntity
  8
OBJECT
 62
     0
100
AcDbLine
 10
1.199515328712521
 20
1.280886152818993
 30
0.0
 11
1.199515328712521
 21
1.439755338273098
 31
0.0
  0
LINE
  5
124BD
330
11FF0
100
AcDbEntity
  8
OBJECT
 62
     0
100
AcDbLine
 10
1.140515328712521
 20
1.280886152818993
 30
0.0
 11
1.140515328712521
 21
1.439755338273098
 31
0.0
  0
LINE
  5
124BE
330
11FF0
100
AcDbEntity
  8
OBJECT
 62
     0
100
AcDbLine
 10
1.244515328712521
 20
1.416505338273098
 30
0.0
 11
1.289515328712521
 21
1.416505338273098
 31
0.0
  0
LINE
  5
124BF
330
11FF0
100
AcDbEntity
  8
OBJECT
 62
     0
100
AcDbLine
 10
1.095515328712521
 20
1.416505338273098
 30
0.0
 11
1.050515328712521
 21
1.416505338273098
 31
0.0
  0
SOLID
  5
124C0
330
11FF0
100
AcDbEntity
  8
OBJECT
 62
     0
100
AcDbTrace
 10
1.244515328712521
 20
1.424005338273098
 30
0.0
 11
1.244515328712521
 21
1.409005338273098
 31
0.0
 12
1.199515328712521
 22
1.416505338273098
 32
0.0
 13
1.199515328712521
 23
1.416505338273098
 33
0.0
  0
SOLID
  5
124C1
330
11FF0
100
AcDbEntity
  8
OBJECT
 62
     0
100
AcDbTrace
 10
1.095515328712521
 20
1.424005338273098
 30
0.0
 11
1.095515328712521
 21
1.409005338273098
 31
0.0
 12
1.140515328712521
 22
1.416505338273098
 32
0.0
 13
1.140515328712521
 23
1.416505338273098
 33
0.0
  0
MTEXT
  5
124C2
330
11FF0
100
AcDbEntity
  8
OBJECT
 62
     0
100
AcDbMText
 10
0.9225465787125211
 20
1.416505338273098
 30
0.0
 40
0.03125
 41
0.0
 71
     5
 72
     1
  1
\A1;%%c0.059 [1.5]
1001
ACAD
1000
MTEXTBEGIN
1070
    73
1070
     1
1070
    44
1040
1.0
1070
    74
1070
     0
1000
MTEXTEND
  0
POINT
  5
124C3
330
11FF0
100
AcDbEntity
  8
DEFPOINTS
 62
     0
100
AcDbPoint
 10
1.199515328712521
 20
1.265136152818993
 30
0.0
  0
POINT
  5
124C4
330
11FF0
100
AcDbEntity
  8
DEFPOINTS
 62
     0
100
AcDbPoint
 10
1.140515328712521
 20
1.265136152818993
 30
0.0
  0
POINT
  5
124C5
330
11FF0
100
AcDbEntity
  8
DEFPOINTS
 62
     0
100
AcDbPoint
 10
1.140515328712521
 20
1.416505338273098
 30
0.0
  0
ENDBLK
  5
11FFC
330
11FF0
100
AcDbEntity
  8
0
100
AcDbBlockEnd
  0
ENDSEC
  0
SECTION
  2
ENTITIES
  0
INSERT
  5
6EC2
330
1E
100
AcDbEntity
  8
ASHADE
 62
     1
100
AcDbBlockReference
  2
AVE_RENDER
 10
0.0
 20
0.0
 30
0.0
1001
AVE_RENDER
1002
{
1070
     7
1000
Pref
1070
    30
1070
    20
1070
     1
1070
     0
1000

1070
    10
1070
     1
1070
    10
1040
1.0
1070
     1
1040
0.3
1040
0.7
1040
0.0
1040
10.0
1010
-1.0
1020
-1.0
1030
-1.0
1040
0.3
1070
    49
1070
     0
1070
     0
1010
1.0
1020
1.0
1030
1.0
1040
45.0
1070
     1
1070
     0
1000
WCS
1040
0.0
1070
     0
1040
10.0
1002
}
  0
INSERT
  5
6EC3
330
1E
100
AcDbEntity
  8
ASHADE
 62
     3
100
AcDbBlockReference
  2
AVE_RENDER
 10
0.0
 20
0.0
 30
0.0
1001
AVE_RENDER
1002
{
1070
     0
1000
Full Opt
1070
     0
1070
     1
1070
     1
1070
     1
1070
     0
1070
     0
1070
     0
1070
     1
1070
     1
1040
0.0001
1040
0.0001
1002
}
  0
INSERT
  5
6EC4
330
1E
100
AcDbEntity
  8
ASHADE
 62
     4
100
AcDbBlockReference
  2
AVE_RENDER
 10
0.0
 20
0.0
 30
0.0
1001
AVE_RENDER
1002
{
1070
     0
1000
Quick Opt
1070
     0
1070
     1
1070
     1
1070
     1
1070
     0
1070
     0
1070
     1
1002
}
  0
INSERT
  5
6EC5
330
1E
100
AcDbEntity
  8
ASHADE
 62
     5
100
AcDbBlockReference
  2
AVE_RENDER
 10
0.0
 20
0.0
 30
0.0
1001
AVE_RENDER
1002
{
1070
     1
1000
Scanl Opt
1070
     2
1070
     0
1070
     2
1040
2.0
1040
4.0
1070
     0
1070
     1
1070
     0
1040
0.03
1002
}
  0
INSERT
  5
6EC6
330
1E
100
AcDbEntity
  8
ASHADE
 62
     6
100
AcDbBlockReference
  2
AVE_RENDER
 10
0.0
 20
0.0
 30
0.0
1001
AVE_RENDER
1002
{
1070
     2
1000
Raytr Opt
1070
     2
1070
     0
1070
     2
1040
2.0
1040
4.0
1070
     0
1070
     1
1070
     1
1040
0.03
1070
     3
1040
0.03
1002
}
  0
INSERT
  5
6EC7
330
1E
100
AcDbEntity
  8
ASHADE
 62
     7
100
AcDbBlockReference
  2
AVE_RENDER
 10
0.0
 20
0.0
 30
0.0
1001
AVE_RENDER
1002
{
1070
     0
1000
RFile Opt
1070
     1
1070
   640
1070
   480
1070
 10000
1070
     1
1070
     8
1070
     8
1070
     0
1070
     0
1070
     0
1070
     0
1070
     0
1070
     0
1070
     0
1002
}
  0
INSERT
  5
6EC8
330
1E
100
AcDbEntity
  8
ASHADE
 62
     8
100
AcDbBlockReference
  2
AVE_RENDER
 10
0.0
 20
0.0
 30
0.0
1001
AVE_RENDER
1002
{
1070
     0
1000
Fog Opt
1070
     0
1070
     0
1040
0.0
1040
1.0
1040
0.0
1040
1.0
1010
0.5
1020
0.5
1030
0.5
1002
}
  0
INSERT
  5
6EC9
330
1E
100
AcDbEntity
  8
ASHADE
 62
     9
100
AcDbBlockReference
  2
AVE_RENDER
 10
0.0
 20
0.0
 30
0.0
1001
AVE_RENDER
1002
{
1070
     0
1000
BG Opt
1070
     0
1070
     1
1010
0.0
1020
0.0
1030
0.0
1010
1.0
1020
0.0
1030
0.0
1010
0.0
1020
1.0
1030
0.0
1010
0.0
1020
0.0
1030
1.0
1040
0.5
1040
0.33
1040
0.0
1000

1070
     1
1000

1070
     1
1070
     1
1040
1.0
1040
1.0
1040
0.0
1040
0.0
1070
     0
1002
}
  0
INSERT
  5
6ECA
330
1E
100
AcDbEntity
  8
ASHADE
 62
     1
100
AcDbBlockReference
  2
AVE_GLOBAL
 10
0.0
 20
0.0
 30
0.0
1001
AVE_MATERIAL
1002
{
1000
*GLOBAL*
1000
1
1000
Global finish.
1002
{
1002
}
1002
{
1070
    63
1002
{
1002
{
1010
-1.0
1020
-1.0
1030
-1.0
1002
}
1040
0.1000000014901161
1000

1040
0.0
1002
{
1002
}
1040
0.0
1002
{
1002
}
1040
0.0
1002
}
1002
{
1002
{
1010
-1.0
1020
-1.0
1030
-1.0
1002
}
1040
0.6999999880790711
1000

1040
0.0
1002
{
1002
}
1040
0.0
1002
{
1002
}
1040
0.0
1002
}
1002
{
1002
{
1010
-1.0
1020
-1.0
1030
-1.0
1002
}
1040
0.2000000029802322
1000

1040
0.0
1002
{
1002
}
1040
0.0
1002
{
1002
}
1040
0.0
1002
}
1002
{
1070
     0
1002
{
1070
     1
1002
{
1040
1.0
1040
1.0
1000

1040
0.0
1002
{
1002
}
1040
0.0
1002
{
1002
}
1040
0.0
1002
}
1002
}
1040
1.0
1040
0.0
1040
0.0
1002
}
1002
{
1040
1.0
1040
1.0
1000

1040
0.0
1002
{
1002
}
1040
0.0
1002
{
1002
}
1040
0.0
1002
}
1002
{
1040
0.5
1040
1.0
1000

1040
0.0
1002
{
1002
}
1040
0.0
1002
{
1002
}
1040
0.0
1002
}
1002
{
1070
     0
1040
0.0
1002
{
1002
}
1040
1.0
1002
{
1002
}
1040
0.0
1002
}
1002
{
1040
0.0
1002
{
1002
{
1010
0.0
1020
0.0
1030
0.0
1002
}
1040
1.0
1000

1040
0.0
1002
{
1002
}
1040
0.0
1002
{
1002
}
1040
0.0
1002
}
1002
}
1002
{
1002
{
1070
     1
1002
{
1040
0.0
1040
1.0
1000

1040
0.0
1002
{
1002
}
1040
0.0
1002
{
1002
}
1040
0.0
1002
}
1002
}
1040
0.0
1002
{
1002
}
1010
1.0
1020
0.0
1030
0.0
1010
0.0
1020
1.0
1030
0.0
1010
0.0
1020
0.0
1030
1.0
1070
     0
1002
}
1002
{
1002
{
1040
1.0
1040
1.0
1002
{
1070
     1
1002
{
1040
1.0
1040
1.0
1000

1040
0.0
1002
{
1002
}
1040
0.0
1002
{
1002
}
1040
0.0
1002
}
1002
}
1002
}
1070
     0
1040
0.0
1002
{
1002
}
1002
}
1002
{
1002
}
1002
}
1002
{
1071
        3
1070
     3
1070
     0
1002
{
1070
     2
1070
     0
1070
     0
1040
0.0
1002
}
1070
     0
1070
     2
1002
{
1002
}
1002
}
1002
{
1040
8030.0
1040
190.3000030517578
1040
0.3050000071525574
1040
228.0
1040
545.0
1040
14.0
1040
17.39999961853027
1040
0.4560000002384186
1002
}
1002
}
  0
INSERT
  5
6ECB
330
1E
100
AcDbEntity
  8
ASHADE
 62
     1
100
AcDbBlockReference
  2
AVE_RENDER
 10
7012.207134128518
 20
1073.336597974221
 30
0.0
1001
AVE_RENDER
1002
{
1070
     7
1000
Pref
1070
    30
1070
    20
1070
     1
1070
     0
1000

1070
    10
1070
     1
1070
    10
1040
1.0
1070
     1
1040
0.3
1040
0.7
1040
0.0
1040
10.0
1010
-1.0
1020
-1.0
1030
-1.0
1040
0.3
1070
    49
1070
     0
1070
     0
1010
1.0
1020
1.0
1030
1.0
1040
45.0
1070
     1
1070
     0
1000
WCS
1040
0.0
1070
     0
1040
10.0
1002
}
  0
INSERT
  5
6ECC
330
1E
100
AcDbEntity
  8
ASHADE
 62
     3
100
AcDbBlockReference
  2
AVE_RENDER
 10
7012.207134128518
 20
1073.336597974221
 30
0.0
1001
AVE_RENDER
1002
{
1070
     0
1000
Full Opt
1070
     0
1070
     1
1070
     1
1070
     1
1070
     0
1070
     0
1070
     0
1070
     1
1070
     1
1040
0.0001
1040
0.0001
1002
}
  0
INSERT
  5
6ECD
330
1E
100
AcDbEntity
  8
ASHADE
 62
     4
100
AcDbBlockReference
  2
AVE_RENDER
 10
7012.207134128518
 20
1073.336597974221
 30
0.0
1001
AVE_RENDER
1002
{
1070
     0
1000
Quick Opt
1070
     0
1070
     1
1070
     1
1070
     1
1070
     0
1070
     0
1070
     1
1002
}
  0
INSERT
  5
6ECE
330
1E
100
AcDbEntity
  8
ASHADE
 62
     5
100
AcDbBlockReference
  2
AVE_RENDER
 10
7012.207134128518
 20
1073.336597974221
 30
0.0
1001
AVE_RENDER
1002
{
1070
     1
1000
Scanl Opt
1070
     2
1070
     0
1070
     2
1040
2.0
1040
4.0
1070
     0
1070
     1
1070
     0
1040
0.03
1002
}
  0
INSERT
  5
6ECF
330
1E
100
AcDbEntity
  8
ASHADE
 62
     6
100
AcDbBlockReference
  2
AVE_RENDER
 10
7012.207134128518
 20
1073.336597974221
 30
0.0
1001
AVE_RENDER
1002
{
1070
     2
1000
Raytr Opt
1070
     2
1070
     0
1070
     2
1040
2.0
1040
4.0
1070
     0
1070
     1
1070
     1
1040
0.03
1070
     3
1040
0.03
1002
}
  0
INSERT
  5
6ED0
330
1E
100
AcDbEntity
  8
ASHADE
 62
     7
100
AcDbBlockReference
  2
AVE_RENDER
 10
7012.207134128518
 20
1073.336597974221
 30
0.0
1001
AVE_RENDER
1002
{
1070
     0
1000
RFile Opt
1070
     1
1070
   640
1070
   480
1070
 10000
1070
     1
1070
     8
1070
     8
1070
     0
1070
     0
1070
     0
1070
     0
1070
     0
1070
     0
1070
     0
1002
}
  0
INSERT
  5
6ED1
330
1E
100
AcDbEntity
  8
ASHADE
 62
     8
100
AcDbBlockReference
  2
AVE_RENDER
 10
7012.207134128518
 20
1073.336597974221
 30
0.0
1001
AVE_RENDER
1002
{
1070
     0
1000
Fog Opt
1070
     0
1070
     0
1040
0.0
1040
1.0
1040
0.0
1040
1.0
1010
0.5
1020
0.5
1030
0.5
1002
}
  0
INSERT
  5
6ED2
330
1E
100
AcDbEntity
  8
ASHADE
 62
     9
100
AcDbBlockReference
  2
AVE_RENDER
 10
7012.207134128518
 20
1073.336597974221
 30
0.0
1001
AVE_RENDER
1002
{
1070
     0
1000
BG Opt
1070
     0
1070
     1
1010
0.0
1020
0.0
1030
0.0
1010
1.0
1020
0.0
1030
0.0
1010
0.0
1020
1.0
1030
0.0
1010
0.0
1020
0.0
1030
1.0
1040
0.5
1040
0.33
1040
0.0
1000

1070
     1
1000

1070
     1
1070
     1
1040
1.0
1040
1.0
1040
0.0
1040
0.0
1070
     0
1002
}
  0
INSERT
  5
6ED3
330
1E
100
AcDbEntity
  8
ASHADE
 62
     1
100
AcDbBlockReference
  2
AVE_GLOBAL
 10
7012.207134128518
 20
1073.336597974221
 30
0.0
1001
AVE_MATERIAL
1002
{
1000
*GLOBAL*
1000
1
1000
Global finish.
1002
{
1002
}
1002
{
1070
    63
1002
{
1002
{
1010
-1.0
1020
-1.0
1030
-1.0
1002
}
1040
0.1000000014901161
1000

1040
0.0
1002
{
1002
}
1040
0.0
1002
{
1002
}
1040
0.0
1002
}
1002
{
1002
{
1010
-1.0
1020
-1.0
1030
-1.0
1002
}
1040
0.6999999880790711
1000

1040
0.0
1002
{
1002
}
1040
0.0
1002
{
1002
}
1040
0.0
1002
}
1002
{
1002
{
1010
-1.0
1020
-1.0
1030
-1.0
1002
}
1040
0.2000000029802322
1000

1040
0.0
1002
{
1002
}
1040
0.0
1002
{
1002
}
1040
0.0
1002
}
1002
{
1070
     0
1002
{
1070
     1
1002
{
1040
1.0
1040
1.0
1000

1040
0.0
1002
{
1002
}
1040
0.0
1002
{
1002
}
1040
0.0
1002
}
1002
}
1040
1.0
1040
0.0
1040
0.0
1002
}
1002
{
1040
1.0
1040
1.0
1000

1040
0.0
1002
{
1002
}
1040
0.0
1002
{
1002
}
1040
0.0
1002
}
1002
{
1040
0.5
1040
1.0
1000

1040
0.0
1002
{
1002
}
1040
0.0
1002
{
1002
}
1040
0.0
1002
}
1002
{
1070
     0
1040
0.0
1002
{
1002
}
1040
1.0
1002
{
1002
}
1040
0.0
1002
}
1002
{
1040
0.0
1002
{
1002
{
1010
0.0
1020
0.0
1030
0.0
1002
}
1040
1.0
1000

1040
0.0
1002
{
1002
}
1040
0.0
1002
{
1002
}
1040
0.0
1002
}
1002
}
1002
{
1002
{
1070
     1
1002
{
1040
0.0
1040
1.0
1000

1040
0.0
1002
{
1002
}
1040
0.0
1002
{
1002
}
1040
0.0
1002
}
1002
}
1040
0.0
1002
{
1002
}
1010
1.0
1020
0.0
1030
0.0
1010
0.0
1020
1.0
1030
0.0
1010
0.0
1020
0.0
1030
1.0
1070
     0
1002
}
1002
{
1002
{
1040
1.0
1040
1.0
1002
{
1070
     1
1002
{
1040
1.0
1040
1.0
1000

1040
0.0
1002
{
1002
}
1040
0.0
1002
{
1002
}
1040
0.0
1002
}
1002
}
1002
}
1070
     0
1040
0.0
1002
{
1002
}
1002
}
1002
{
1002
}
1002
}
1002
{
1071
        3
1070
     3
1070
     0
1002
{
1070
     2
1070
     0
1070
     0
1040
0.0
1002
}
1070
     0
1070
     2
1002
{
1002
}
1002
}
1002
{
1040
8030.0
1040
190.3000030517578
1040
0.3050000071525574
1040
228.0
1040
545.0
1040
14.0
1040
17.39999961853027
1040
0.4560000002384186
1002
}
1002
}
  0
MTEXT
  5
6ED4
330
1E
100
AcDbEntity
  8
0
100
AcDbMText
 10
12584.07060758038
 20
3514.466777062327
 30
0.0
 40
2.0
 41
0.0
 71
     6
 72
     1
  1
\A1;
  7
STANDARD
1001
ACAD
1000
MTEXTBEGIN
1070
    73
1070
     1
1070
    44
1040
1.0
1070
    74
1070
     0
1000
MTEXTEND
  0
INSERT
  5
E0FD
330
1E
100
AcDbEntity
  8
ASHADE
 62
     1
100
AcDbBlockReference
  2
AVE_RENDER
 10
10.95525943835243
 20
-0.1106174265738833
 30
0.0
1001
AVE_RENDER
1002
{
1070
     7
1000
Pref
1070
    30
1070
    20
1070
     1
1070
     0
1000

1070
    10
1070
     1
1070
    10
1040
1.0
1070
     1
1040
0.3
1040
0.7
1040
0.0
1040
10.0
1010
-1.0
1020
-1.0
1030
-1.0
1040
0.3
1070
    49
1070
     0
1070
     0
1010
1.0
1020
1.0
1030
1.0
1040
45.0
1070
     1
1070
     0
1000
WCS
1040
0.0
1070
     0
1040
10.0
1002
}
  0
INSERT
  5
E0FE
330
1E
100
AcDbEntity
  8
ASHADE
 62
     3
100
AcDbBlockReference
  2
AVE_RENDER
 10
10.95525943835243
 20
-0.1106174265738833
 30
0.0
1001
AVE_RENDER
1002
{
1070
     0
1000
Full Opt
1070
     0
1070
     1
1070
     1
1070
     1
1070
     0
1070
     0
1070
     0
1070
     1
1070
     1
1040
0.0001
1040
0.0001
1002
}
  0
INSERT
  5
E0FF
330
1E
100
AcDbEntity
  8
ASHADE
 62
     4
100
AcDbBlockReference
  2
AVE_RENDER
 10
10.95525943835243
 20
-0.1106174265738833
 30
0.0
1001
AVE_RENDER
1002
{
1070
     0
1000
Quick Opt
1070
     0
1070
     1
1070
     1
1070
     1
1070
     0
1070
     0
1070
     1
1002
}
  0
INSERT
  5
E100
330
1E
100
AcDbEntity
  8
ASHADE
 62
     5
100
AcDbBlockReference
  2
AVE_RENDER
 10
10.95525943835243
 20
-0.1106174265738833
 30
0.0
1001
AVE_RENDER
1002
{
1070
     1
1000
Scanl Opt
1070
     2
1070
     0
1070
     2
1040
2.0
1040
4.0
1070
     0
1070
     1
1070
     0
1040
0.03
1002
}
  0
INSERT
  5
E101
330
1E
100
AcDbEntity
  8
ASHADE
 62
     6
100
AcDbBlockReference
  2
AVE_RENDER
 10
10.95525943835243
 20
-0.1106174265738833
 30
0.0
1001
AVE_RENDER
1002
{
1070
     2
1000
Raytr Opt
1070
     2
1070
     0
1070
     2
1040
2.0
1040
4.0
1070
     0
1070
     1
1070
     1
1040
0.03
1070
     3
1040
0.03
1002
}
  0
INSERT
  5
E102
330
1E
100
AcDbEntity
  8
ASHADE
 62
     7
100
AcDbBlockReference
  2
AVE_RENDER
 10
10.95525943835243
 20
-0.1106174265738833
 30
0.0
1001
AVE_RENDER
1002
{
1070
     0
1000
RFile Opt
1070
     1
1070
   640
1070
   480
1070
 10000
1070
     1
1070
     8
1070
     8
1070
     0
1070
     0
1070
     0
1070
     0
1070
     0
1070
     0
1070
     0
1002
}
  0
INSERT
  5
E103
330
1E
100
AcDbEntity
  8
ASHADE
 62
     8
100
AcDbBlockReference
  2
AVE_RENDER
 10
10.95525943835243
 20
-0.1106174265738833
 30
0.0
1001
AVE_RENDER
1002
{
1070
     0
1000
Fog Opt
1070
     0
1070
     0
1040
0.0
1040
1.0
1040
0.0
1040
1.0
1010
0.5
1020
0.5
1030
0.5
1002
}
  0
INSERT
  5
E104
330
1E
100
AcDbEntity
  8
ASHADE
 62
     9
100
AcDbBlockReference
  2
AVE_RENDER
 10
10.95525943835243
 20
-0.1106174265738833
 30
0.0
1001
AVE_RENDER
1002
{
1070
     0
1000
BG Opt
1070
     0
1070
     1
1010
0.0
1020
0.0
1030
0.0
1010
1.0
1020
0.0
1030
0.0
1010
0.0
1020
1.0
1030
0.0
1010
0.0
1020
0.0
1030
1.0
1040
0.5
1040
0.33
1040
0.0
1000

1070
     1
1000

1070
     1
1070
     1
1040
1.0
1040
1.0
1040
0.0
1040
0.0
1070
     0
1002
}
  0
INSERT
  5
E105
330
1E
100
AcDbEntity
  8
ASHADE
 62
     1
100
AcDbBlockReference
  2
AVE_GLOBAL
 10
10.95525943835243
 20
-0.1106174265738833
 30
0.0
1001
AVE_MATERIAL
1002
{
1000
*GLOBAL*
1000
1
1000
Global finish.
1002
{
1002
}
1002
{
1070
    63
1002
{
1002
{
1010
-1.0
1020
-1.0
1030
-1.0
1002
}
1040
0.1000000014901161
1000

1040
0.0
1002
{
1002
}
1040
0.0
1002
{
1002
}
1040
0.0
1002
}
1002
{
1002
{
1010
-1.0
1020
-1.0
1030
-1.0
1002
}
1040
0.6999999880790711
1000

1040
0.0
1002
{
1002
}
1040
0.0
1002
{
1002
}
1040
0.0
1002
}
1002
{
1002
{
1010
-1.0
1020
-1.0
1030
-1.0
1002
}
1040
0.2000000029802322
1000

1040
0.0
1002
{
1002
}
1040
0.0
1002
{
1002
}
1040
0.0
1002
}
1002
{
1070
     0
1002
{
1070
     1
1002
{
1040
1.0
1040
1.0
1000

1040
0.0
1002
{
1002
}
1040
0.0
1002
{
1002
}
1040
0.0
1002
}
1002
}
1040
1.0
1040
0.0
1040
0.0
1002
}
1002
{
1040
1.0
1040
1.0
1000

1040
0.0
1002
{
1002
}
1040
0.0
1002
{
1002
}
1040
0.0
1002
}
1002
{
1040
0.5
1040
1.0
1000

1040
0.0
1002
{
1002
}
1040
0.0
1002
{
1002
}
1040
0.0
1002
}
1002
{
1070
     0
1040
0.0
1002
{
1002
}
1040
1.0
1002
{
1002
}
1040
0.0
1002
}
1002
{
1040
0.0
1002
{
1002
{
1010
0.0
1020
0.0
1030
0.0
1002
}
1040
1.0
1000

1040
0.0
1002
{
1002
}
1040
0.0
1002
{
1002
}
1040
0.0
1002
}
1002
}
1002
{
1002
{
1070
     1
1002
{
1040
0.0
1040
1.0
1000

1040
0.0
1002
{
1002
}
1040
0.0
1002
{
1002
}
1040
0.0
1002
}
1002
}
1040
0.0
1002
{
1002
}
1010
1.0
1020
0.0
1030
0.0
1010
0.0
1020
1.0
1030
0.0
1010
0.0
1020
0.0
1030
1.0
1070
     0
1002
}
1002
{
1002
{
1040
1.0
1040
1.0
1002
{
1070
     1
1002
{
1040
1.0
1040
1.0
1000

1040
0.0
1002
{
1002
}
1040
0.0
1002
{
1002
}
1040
0.0
1002
}
1002
}
1002
}
1070
     0
1040
0.0
1002
{
1002
}
1002
}
1002
{
1002
}
1002
}
1002
{
1071
        3
1070
     3
1070
     0
1002
{
1070
     2
1070
     0
1070
     0
1040
0.0
1002
}
1070
     0
1070
     2
1002
{
1002
}
1002
}
1002
{
1040
8030.0
1040
190.3000030517578
1040
0.3050000071525574
1040
228.0
1040
545.0
1040
14.0
1040
17.39999961853027
1040
0.4560000002384186
1002
}
1002
}
  0
INSERT
  5
E106
330
1E
100
AcDbEntity
  8
ASHADE
 62
     1
100
AcDbBlockReference
  2
AVE_RENDER
 10
7023.16239356687
 20
1073.225980547647
 30
0.0
1001
AVE_RENDER
1002
{
1070
     7
1000
Pref
1070
    30
1070
    20
1070
     1
1070
     0
1000

1070
    10
1070
     1
1070
    10
1040
1.0
1070
     1
1040
0.3
1040
0.7
1040
0.0
1040
10.0
1010
-1.0
1020
-1.0
1030
-1.0
1040
0.3
1070
    49
1070
     0
1070
     0
1010
1.0
1020
1.0
1030
1.0
1040
45.0
1070
     1
1070
     0
1000
WCS
1040
0.0
1070
     0
1040
10.0
1002
}
  0
INSERT
  5
E107
330
1E
100
AcDbEntity
  8
ASHADE
 62
     3
100
AcDbBlockReference
  2
AVE_RENDER
 10
7023.16239356687
 20
1073.225980547647
 30
0.0
1001
AVE_RENDER
1002
{
1070
     0
1000
Full Opt
1070
     0
1070
     1
1070
     1
1070
     1
1070
     0
1070
     0
1070
     0
1070
     1
1070
     1
1040
0.0001
1040
0.0001
1002
}
  0
INSERT
  5
E108
330
1E
100
AcDbEntity
  8
ASHADE
 62
     4
100
AcDbBlockReference
  2
AVE_RENDER
 10
7023.16239356687
 20
1073.225980547647
 30
0.0
1001
AVE_RENDER
1002
{
1070
     0
1000
Quick Opt
1070
     0
1070
     1
1070
     1
1070
     1
1070
     0
1070
     0
1070
     1
1002
}
  0
INSERT
  5
E109
330
1E
100
AcDbEntity
  8
ASHADE
 62
     5
100
AcDbBlockReference
  2
AVE_RENDER
 10
7023.16239356687
 20
1073.225980547647
 30
0.0
1001
AVE_RENDER
1002
{
1070
     1
1000
Scanl Opt
1070
     2
1070
     0
1070
     2
1040
2.0
1040
4.0
1070
     0
1070
     1
1070
     0
1040
0.03
1002
}
  0
INSERT
  5
E10A
330
1E
100
AcDbEntity
  8
ASHADE
 62
     6
100
AcDbBlockReference
  2
AVE_RENDER
 10
7023.16239356687
 20
1073.225980547647
 30
0.0
1001
AVE_RENDER
1002
{
1070
     2
1000
Raytr Opt
1070
     2
1070
     0
1070
     2
1040
2.0
1040
4.0
1070
     0
1070
     1
1070
     1
1040
0.03
1070
     3
1040
0.03
1002
}
  0
INSERT
  5
E10B
330
1E
100
AcDbEntity
  8
ASHADE
 62
     7
100
AcDbBlockReference
  2
AVE_RENDER
 10
7023.16239356687
 20
1073.225980547647
 30
0.0
1001
AVE_RENDER
1002
{
1070
     0
1000
RFile Opt
1070
     1
1070
   640
1070
   480
1070
 10000
1070
     1
1070
     8
1070
     8
1070
     0
1070
     0
1070
     0
1070
     0
1070
     0
1070
     0
1070
     0
1002
}
  0
INSERT
  5
E10C
330
1E
100
AcDbEntity
  8
ASHADE
 62
     8
100
AcDbBlockReference
  2
AVE_RENDER
 10
7023.16239356687
 20
1073.225980547647
 30
0.0
1001
AVE_RENDER
1002
{
1070
     0
1000
Fog Opt
1070
     0
1070
     0
1040
0.0
1040
1.0
1040
0.0
1040
1.0
1010
0.5
1020
0.5
1030
0.5
1002
}
  0
INSERT
  5
E10D
330
1E
100
AcDbEntity
  8
ASHADE
 62
     9
100
AcDbBlockReference
  2
AVE_RENDER
 10
7023.16239356687
 20
1073.225980547647
 30
0.0
1001
AVE_RENDER
1002
{
1070
     0
1000
BG Opt
1070
     0
1070
     1
1010
0.0
1020
0.0
1030
0.0
1010
1.0
1020
0.0
1030
0.0
1010
0.0
1020
1.0
1030
0.0
1010
0.0
1020
0.0
1030
1.0
1040
0.5
1040
0.33
1040
0.0
1000

1070
     1
1000

1070
     1
1070
     1
1040
1.0
1040
1.0
1040
0.0
1040
0.0
1070
     0
1002
}
  0
INSERT
  5
E10E
330
1E
100
AcDbEntity
  8
ASHADE
 62
     1
100
AcDbBlockReference
  2
AVE_GLOBAL
 10
7023.16239356687
 20
1073.225980547647
 30
0.0
1001
AVE_MATERIAL
1002
{
1000
*GLOBAL*
1000
1
1000
Global finish.
1002
{
1002
}
1002
{
1070
    63
1002
{
1002
{
1010
-1.0
1020
-1.0
1030
-1.0
1002
}
1040
0.1000000014901161
1000

1040
0.0
1002
{
1002
}
1040
0.0
1002
{
1002
}
1040
0.0
1002
}
1002
{
1002
{
1010
-1.0
1020
-1.0
1030
-1.0
1002
}
1040
0.6999999880790711
1000

1040
0.0
1002
{
1002
}
1040
0.0
1002
{
1002
}
1040
0.0
1002
}
1002
{
1002
{
1010
-1.0
1020
-1.0
1030
-1.0
1002
}
1040
0.2000000029802322
1000

1040
0.0
1002
{
1002
}
1040
0.0
1002
{
1002
}
1040
0.0
1002
}
1002
{
1070
     0
1002
{
1070
     1
1002
{
1040
1.0
1040
1.0
1000

1040
0.0
1002
{
1002
}
1040
0.0
1002
{
1002
}
1040
0.0
1002
}
1002
}
1040
1.0
1040
0.0
1040
0.0
1002
}
1002
{
1040
1.0
1040
1.0
1000

1040
0.0
1002
{
1002
}
1040
0.0
1002
{
1002
}
1040
0.0
1002
}
1002
{
1040
0.5
1040
1.0
1000

1040
0.0
1002
{
1002
}
1040
0.0
1002
{
1002
}
1040
0.0
1002
}
1002
{
1070
     0
1040
0.0
1002
{
1002
}
1040
1.0
1002
{
1002
}
1040
0.0
1002
}
1002
{
1040
0.0
1002
{
1002
{
1010
0.0
1020
0.0
1030
0.0
1002
}
1040
1.0
1000

1040
0.0
1002
{
1002
}
1040
0.0
1002
{
1002
}
1040
0.0
1002
}
1002
}
1002
{
1002
{
1070
     1
1002
{
1040
0.0
1040
1.0
1000

1040
0.0
1002
{
1002
}
1040
0.0
1002
{
1002
}
1040
0.0
1002
}
1002
}
1040
0.0
1002
{
1002
}
1010
1.0
1020
0.0
1030
0.0
1010
0.0
1020
1.0
1030
0.0
1010
0.0
1020
0.0
1030
1.0
1070
     0
1002
}
1002
{
1002
{
1040
1.0
1040
1.0
1002
{
1070
     1
1002
{
1040
1.0
1040
1.0
1000

1040
0.0
1002
{
1002
}
1040
0.0
1002
{
1002
}
1040
0.0
1002
}
1002
}
1002
}
1070
     0
1040
0.0
1002
{
1002
}
1002
}
1002
{
1002
}
1002
}
1002
{
1071
        3
1070
     3
1070
     0
1002
{
1070
     2
1070
     0
1070
     0
1040
0.0
1002
}
1070
     0
1070
     2
1002
{
1002
}
1002
}
1002
{
1040
8030.0
1040
190.3000030517578
1040
0.3050000071525574
1040
228.0
1040
545.0
1040
14.0
1040
17.39999961853027
1040
0.4560000002384186
1002
}
1002
}
  0
MTEXT
  5
E10F
330
1E
100
AcDbEntity
  8
0
100
AcDbMText
 10
12595.02586701873
 20
3514.356159635752
 30
0.0
 40
2.0
 41
0.0
 71
     6
 72
     1
  1
\A1;
  7
STANDARD
1001
ACAD
1000
MTEXTBEGIN
1070
    73
1070
     1
1070
    44
1040
1.0
1070
    74
1070
     0
1000
MTEXTEND
  0
TEXT
  5
11D61
330
1E
100
AcDbEntity
  8
OBJECT
100
AcDbText
 10
1.915274069096788
 20
1.674787848970932
 30
0.0
 40
0.030999999921
  1
BRACKETS - ABS/PC PLASTIC
 41
0.75
100
AcDbText
  0
TEXT
  5
11D62
330
1E
100
AcDbEntity
  8
OBJECT
100
AcDbText
 10
1.915274069096788
 20
1.623121182435932
 30
0.0
 40
0.030999999921
  1
SCREWS - STEEL
 41
0.75
100
AcDbText
  0
LINE
  5
11D9E
330
1E
100
AcDbEntity
  8
OBJECT
100
AcDbLine
 10
2.523041068185719
 20
0.7866164942371859
 30
0.0000000000000002
 11
2.148052068347059
 21
0.5701164942371877
 31
0.0000000000000002
  0
LINE
  5
11D9F
330
1E
100
AcDbEntity
  8
OBJECT
100
AcDbLine
 10
2.148052068347059
 20
0.9053709746477096
 30
0.0000000000000005
 11
2.148052068347059
 21
0.5701164942371877
 31
0.0000000000000005
  0
LINE
  5
11DA0
330
1E
100
AcDbEntity
  8
OBJECT
100
AcDbLine
 10
1.855223129582702
 20
0.9887533068252833
 30
0.000000000000001
 11
1.855223129582702
 21
0.8248638953038444
 31
0.000000000000001
  0
POLYLINE
  5
11DA1
330
1E
100
AcDbEntity
  8
OBJECT
100
AcDb3dPolyline
 66
     1
 10
0.0
 20
0.0
 30
0.0
 70
     8
  0
VERTEX
  5
11DA2
330
11DA1
100
AcDbEntity
  8
OBJECT
100
AcDbVertex
100
AcDb3dPolylineVertex
 10
1.942123706034353
 20
0.8566365298574641
 30
0.000000000000001
 70
    32
1001
ACAD
1000
R13OBJECT
1002
{
1005
1024E
1002
}
  0
VERTEX
  5
11DA3
330
11DA1
100
AcDbEntity
  8
OBJECT
100
AcDbVertex
100
AcDb3dPolylineVertex
 10
1.943510893569307
 20
0.8431561934425502
 30
0.000000000000001
 70
    32
1001
ACAD
1000
R13OBJECT
1002
{
1005
1024E
1002
}
  0
VERTEX
  5
11DA4
330
11DA1
100
AcDbEntity
  8
OBJECT
100
AcDbVertex
100
AcDb3dPolylineVertex
 10
1.947585294079585
 20
0.8289210899483585
 30
0.000000000000001
 70
    32
1001
ACAD
1000
R13OBJECT
1002
{
1005
1024E
1002
}
  0
VERTEX
  5
11DA5
330
11DA1
100
AcDbEntity
  8
OBJECT
100
AcDbVertex
100
AcDb3dPolylineVertex
 10
1.954090897996559
 20
0.8148256632804821
 30
0.000000000000001
 70
    32
1001
ACAD
1000
R13OBJECT
1002
{
1005
1024E
1002
}
  0
VERTEX
  5
11DA6
330
11DA1
100
AcDbEntity
  8
OBJECT
100
AcDbVertex
100
AcDb3dPolylineVertex
 10
1.962618934300188
 20
0.8017555809358178
 30
0.000000000000001
 70
    32
1001
ACAD
1000
R13OBJECT
1002
{
1005
1024E
1002
}
  0
VERTEX
  5
11DA7
330
11DA1
100
AcDbEntity
  8
OBJECT
100
AcDbVertex
100
AcDb3dPolylineVertex
 10
1.97263355510558
 20
0.7905320842564808
 30
0.000000000000001
 70
    32
1001
ACAD
1000
R13OBJECT
1002
{
1005
1024E
1002
}
  0
VERTEX
  5
11DA8
330
11DA1
100
AcDbEntity
  8
OBJECT
100
AcDbVertex
100
AcDb3dPolylineVertex
 10
1.983505504956335
 20
0.7818603868159677
 30
0.000000000000001
 70
    32
1001
ACAD
1000
R13OBJECT
1002
{
1005
1024E
1002
}
  0
VERTEX
  5
11DA9
330
11DA1
100
AcDbEntity
  8
OBJECT
100
AcDbVertex
100
AcDb3dPolylineVertex
 10
1.994551659259095
 20
0.7762853632567364
 30
0.000000000000001
 70
    32
1001
ACAD
1000
R13OBJECT
1002
{
1005
1024E
1002
}
  0
VERTEX
  5
11DAA
330
11DA1
100
AcDbEntity
  8
OBJECT
100
AcDbVertex
100
AcDb3dPolylineVertex
 10
2.005077947514104
 20
0.7741573128125184
 30
0.000000000000001
 70
    32
1001
ACAD
1000
R13OBJECT
1002
{
1005
1024E
1002
}
  0
VERTEX
  5
11DAB
330
11DA1
100
AcDbEntity
  8
OBJECT
100
AcDbVertex
100
AcDb3dPolylineVertex
 10
2.014422964317319
 20
0.7756099487191446
 30
0.000000000000001
 70
    32
1001
ACAD
1000
R13OBJECT
1002
{
1005
1024E
1002
}
  0
VERTEX
  5
11DAC
330
11DA1
100
AcDbEntity
  8
OBJECT
100
AcDbVertex
100
AcDb3dPolylineVertex
 10
2.021999527894442
 20
0.7805519965201797
 30
0.000000000000001
 70
    32
1001
ACAD
1000
R13OBJECT
1002
{
1005
1024E
1002
}
  0
VERTEX
  5
11DAD
330
11DA1
100
AcDbEntity
  8
OBJECT
100
AcDbVertex
100
AcDb3dPolylineVertex
 10
2.027331574891249
 20
0.7886729291767083
 30
0.000000000000001
 70
    32
1001
ACAD
1000
R13OBJECT
1002
{
1005
1024E
1002
}
  0
VERTEX
  5
11DAE
330
11DA1
100
AcDbEntity
  8
OBJECT
100
AcDbVertex
100
AcDb3dPolylineVertex
 10
2.030084073185046
 20
0.7994624786232139
 30
0.000000000000001
 70
    32
1001
ACAD
1000
R13OBJECT
1002
{
1005
1024E
1002
}
  0
VERTEX
  5
11DAF
330
11DA1
100
AcDbEntity
  8
OBJECT
100
AcDbVertex
100
AcDb3dPolylineVertex
 10
2.030084073185034
 20
0.8122426977867876
 30
0.000000000000001
 70
    32
1001
ACAD
1000
R13OBJECT
1002
{
1005
1024E
1002
}
  0
VERTEX
  5
11DB0
330
11DA1
100
AcDbEntity
  8
OBJECT
100
AcDbVertex
100
AcDb3dPolylineVertex
 10
2.027331574891249
 20
0.8262105584950242
 30
0.000000000000001
 70
    32
1001
ACAD
1000
R13OBJECT
1002
{
1005
1024E
1002
}
  0
VERTEX
  5
11DB1
330
11DA1
100
AcDbEntity
  8
OBJECT
100
AcDbVertex
100
AcDb3dPolylineVertex
 10
2.021999527894442
 20
0.8404884086894295
 30
0.000000000000001
 70
    32
1001
ACAD
1000
R13OBJECT
1002
{
1005
1024E
1002
}
  0
VERTEX
  5
11DB2
330
11DA1
100
AcDbEntity
  8
OBJECT
100
AcDbVertex
100
AcDb3dPolylineVertex
 10
2.014422964317319
 20
0.8541791185320221
 30
0.000000000000001
 70
    32
1001
ACAD
1000
R13OBJECT
1002
{
1005
1024E
1002
}
  0
VERTEX
  5
11DB3
330
11DA1
100
AcDbEntity
  8
OBJECT
100
AcDbVertex
100
AcDb3dPolylineVertex
 10
2.005077947514104
 20
0.8664224503724922
 30
0.000000000000001
 70
    32
1001
ACAD
1000
R13OBJECT
1002
{
1005
1024E
1002
}
  0
VERTEX
  5
11DB4
330
11DA1
100
AcDbEntity
  8
OBJECT
100
AcDbVertex
100
AcDb3dPolylineVertex
 10
1.994551659259095
 20
0.8764491106434714
 30
0.000000000000001
 70
    32
1001
ACAD
1000
R13OBJECT
1002
{
1005
1024E
1002
}
  0
VERTEX
  5
11DB5
330
11DA1
100
AcDbEntity
  8
OBJECT
100
AcDbVertex
100
AcDb3dPolylineVertex
 10
1.983505504956335
 20
0.8836290874046582
 30
0.000000000000001
 70
    32
1001
ACAD
1000
R13OBJECT
1002
{
1005
1024E
1002
}
  0
VERTEX
  5
11DB6
330
11DA1
100
AcDbEntity
  8
OBJECT
100
AcDbVertex
100
AcDb3dPolylineVertex
 10
1.97263355510558
 20
0.8875112363100438
 30
0.000000000000001
 70
    32
1001
ACAD
1000
R13OBJECT
1002
{
1005
1024E
1002
}
  0
VERTEX
  5
11DB7
330
11DA1
100
AcDbEntity
  8
OBJECT
100
AcDbVertex
100
AcDb3dPolylineVertex
 10
1.962618934300188
 20
0.8878516276663527
 30
0.000000000000001
 70
    32
1001
ACAD
1000
R13OBJECT
1002
{
1005
1024E
1002
}
  0
VERTEX
  5
11DB8
330
11DA1
100
AcDbEntity
  8
OBJECT
100
AcDbVertex
100
AcDb3dPolylineVertex
 10
1.954090897996571
 20
0.8846288734328028
 30
0.000000000000001
 70
    32
1001
ACAD
1000
R13OBJECT
1002
{
1005
1024E
1002
}
  0
VERTEX
  5
11DB9
330
11DA1
100
AcDbEntity
  8
OBJECT
100
AcDbVertex
100
AcDb3dPolylineVertex
 10
1.947585294079597
 20
0.8780454711103423
 30
0.000000000000001
 70
    32
1001
ACAD
1000
R13OBJECT
1002
{
1005
1024E
1002
}
  0
VERTEX
  5
11DBA
330
11DA1
100
AcDbEntity
  8
OBJECT
100
AcDbVertex
100
AcDb3dPolylineVertex
 10
1.943510893569295
 20
0.8685150800789532
 30
0.000000000000001
 70
    32
1001
ACAD
1000
R13OBJECT
1002
{
1005
1024E
1002
}
  0
VERTEX
  5
11DBB
330
11DA1
100
AcDbEntity
  8
OBJECT
100
AcDbVertex
100
AcDb3dPolylineVertex
 10
1.942123706034353
 20
0.8566365298574641
 30
0.000000000000001
 70
    32
1001
ACAD
1000
R13OBJECT
1002
{
1005
1024E
1002
}
  0
SEQEND
  5
11DBC
330
11DA1
100
AcDbEntity
  8
OBJECT
  0
POLYLINE
  5
11DBD
330
1E
100
AcDbEntity
  8
OBJECT
100
AcDb3dPolyline
 66
     1
 10
0.0
 20
0.0
 30
0.0
 70
     8
  0
VERTEX
  5
11DBE
330
11DBD
100
AcDbEntity
  8
OBJECT
100
AcDbVertex
100
AcDb3dPolylineVertex
 10
1.855223129582702
 20
0.8248638953038485
 30
0.0000000000000005
 70
    32
1001
ACAD
1000
R13OBJECT
1002
{
1005
10256
1002
}
  0
VERTEX
  5
11DBF
330
11DBD
100
AcDbEntity
  8
OBJECT
100
AcDbVertex
100
AcDb3dPolylineVertex
 10
1.856384337842503
 20
0.812293118008402
 30
0.0000000000000005
 70
    32
1001
ACAD
1000
R13OBJECT
1002
{
1005
10256
1002
}
  0
VERTEX
  5
11DC0
330
11DBD
100
AcDbEntity
  8
OBJECT
100
AcDbVertex
100
AcDb3dPolylineVertex
 10
1.859809734790968
 20
0.7990118441747831
 30
0.0000000000000005
 70
    32
1001
ACAD
1000
R13OBJECT
1002
{
1005
10256
1002
}
  0
VERTEX
  5
11DC1
330
11DBD
100
AcDbEntity
  8
OBJECT
100
AcDbVertex
100
AcDb3dPolylineVertex
 10
1.865327556721891
 20
0.785686052330779
 30
0.0000000000000005
 70
    32
1001
ACAD
1000
R13OBJECT
1002
{
1005
10256
1002
}
  0
VERTEX
  5
11DC2
330
11DBD
100
AcDbEntity
  8
OBJECT
100
AcDbVertex
100
AcDb3dPolylineVertex
 10
1.872661117003245
 20
0.7729839533231129
 30
0.0000000000000005
 70
    32
1001
ACAD
1000
R13OBJECT
1002
{
1005
10256
1002
}
  0
VERTEX
  5
11DC3
330
11DBD
100
AcDbEntity
  8
OBJECT
100
AcDbVertex
100
AcDb3dPolylineVertex
 10
1.881442680300224
 20
0.7615424834353713
 30
0.0000000000000005
 70
    32
1001
ACAD
1000
R13OBJECT
1002
{
1005
10256
1002
}
  0
VERTEX
  5
11DC4
330
11DBD
100
AcDbEntity
  8
OBJECT
100
AcDbVertex
100
AcDb3dPolylineVertex
 10
1.891231902360521
 20
0.7519353657431461
 30
0.0000000000000005
 70
    32
1001
ACAD
1000
R13OBJECT
1002
{
1005
10256
1002
}
  0
VERTEX
  5
11DC5
330
11DBD
100
AcDbEntity
  8
OBJECT
100
AcDbVertex
100
AcDb3dPolylineVertex
 10
1.901537910713797
 20
0.744644341243351
 30
0.0000000000000005
 70
    32
1001
ACAD
1000
R13OBJECT
1002
{
1005
10256
1002
}
  0
SEQEND
  5
11DC6
330
11DBD
100
AcDbEntity
  8
OBJECT
  0
LINE
  5
11DC7
330
1E
100
AcDbEntity
  8
OBJECT
100
AcDbLine
 10
1.901537910713797
 20
0.744644341243351
 30
0.000000000000001
 11
2.069366741264469
 21
0.6477483207471391
 31
0.000000000000001
  0
LINE
  5
11DCA
330
1E
100
AcDbEntity
  8
OBJECT
100
AcDbLine
 10
2.523041068185719
 20
1.12187097464771
 30
0.0000000000000007
 11
2.148052068347059
 21
0.9053709746477117
 31
0.0000000000000007
  0
POLYLINE
  5
11DCC
330
1E
100
AcDbEntity
  8
OBJECT
100
AcDb3dPolyline
 66
     1
 10
0.0
 20
0.0
 30
0.0
 70
     8
  0
VERTEX
  5
11DCD
330
11DCC
100
AcDbEntity
  8
OBJECT
100
AcDbVertex
100
AcDb3dPolylineVertex
 10
1.901537910713797
 20
1.015493158178784
 30
0.0000000000000015
 70
    32
1001
ACAD
1000
R13OBJECT
1002
{
1005
1024F
1002
}
  0
VERTEX
  5
11DCE
330
11DCC
100
AcDbEntity
  8
OBJECT
100
AcDbVertex
100
AcDb3dPolylineVertex
 10
1.89123190236053
 20
1.020102487073056
 30
0.0000000000000015
 70
    32
1001
ACAD
1000
R13OBJECT
1002
{
1005
1024F
1002
}
  0
VERTEX
  5
11DCF
330
11DCC
100
AcDbEntity
  8
OBJECT
100
AcDbVertex
100
AcDb3dPolylineVertex
 10
1.881442680300224
 20
1.021798989364171
 30
0.0000000000000015
 70
    32
1001
ACAD
1000
R13OBJECT
1002
{
1005
1024F
1002
}
  0
VERTEX
  5
11DD0
330
11DCC
100
AcDbEntity
  8
OBJECT
100
AcDbVertex
100
AcDb3dPolylineVertex
 10
1.872661117003245
 20
1.020497595343273
 30
0.0000000000000015
 70
    32
1001
ACAD
1000
R13OBJECT
1002
{
1005
1024F
1002
}
  0
VERTEX
  5
11DD1
330
11DCC
100
AcDbEntity
  8
OBJECT
100
AcDbVertex
100
AcDb3dPolylineVertex
 10
1.865327556721891
 20
1.016263562340715
 30
0.0000000000000015
 70
    32
1001
ACAD
1000
R13OBJECT
1002
{
1005
1024F
1002
}
  0
VERTEX
  5
11DD2
330
11DCC
100
AcDbEntity
  8
OBJECT
100
AcDbVertex
100
AcDb3dPolylineVertex
 10
1.859809734790968
 20
1.009309202451034
 30
0.0000000000000015
 70
    32
1001
ACAD
1000
R13OBJECT
1002
{
1005
1024F
1002
}
  0
VERTEX
  5
11DD3
330
11DCC
100
AcDbEntity
  8
OBJECT
100
AcDbVertex
100
AcDb3dPolylineVertex
 10
1.856384337842503
 20
0.9999832363179725
 30
0.0000000000000015
 70
    32
1001
ACAD
1000
R13OBJECT
1002
{
1005
1024F
1002
}
  0
VERTEX
  5
11DD4
330
11DCC
100
AcDbEntity
  8
OBJECT
100
AcDbVertex
100
AcDb3dPolylineVertex
 10
1.855223129582702
 20
0.9887533068252857
 30
0.0000000000000015
 70
    32
1001
ACAD
1000
R13OBJECT
1002
{
1005
1024F
1002
}
  0
SEQEND
  5
11DD5
330
11DCC
100
AcDbEntity
  8
OBJECT
  0
LINE
  5
11DD7
330
1E
100
AcDbEntity
  8
OBJECT
100
AcDbLine
 10
2.069366741263775
 20
0.9185971376829739
 30
0.000000000000001
 11
1.901537910713797
 21
1.015493158178784
 31
0.000000000000001
  0
LINE
  5
11DD8
330
1E
100
AcDbEntity
  8
OBJECT
100
AcDbLine
 10
2.02207491137667
 20
1.107237246131722
 30
0.000000000000001
 11
1.868788414906827
 21
1.018737246131723
 31
0.000000000000001
  0
LINE
  5
11DE3
330
1E
100
AcDbEntity
  8
OBJECT
100
AcDbLine
 10
2.222653237733621
 20
1.007097137682972
 30
0.000000000000001
 11
2.054824407183643
 21
1.103993158178783
 31
0.000000000000001
  0
POLYLINE
  5
11DE4
330
1E
100
AcDbEntity
  8
OBJECT
100
AcDb3dPolyline
 66
     1
 10
0.0
 20
0.0
 30
0.0
 70
     8
  0
VERTEX
  5
11DE5
330
11DE4
100
AcDbEntity
  8
OBJECT
100
AcDbVertex
100
AcDb3dPolylineVertex
 10
2.054824407183643
 20
1.103993158178783
 30
0.000000000000001
 70
    32
1001
ACAD
1000
R13OBJECT
1002
{
1005
10251
1002
}
  0
VERTEX
  5
11DE6
330
11DE4
100
AcDbEntity
  8
OBJECT
100
AcDbVertex
100
AcDb3dPolylineVertex
 10
2.042837259757163
 20
1.109091664292231
 30
0.000000000000001
 70
    32
1001
ACAD
1000
R13OBJECT
1002
{
1005
10251
1002
}
  0
VERTEX
  5
11DE7
330
11DE4
100
AcDbEntity
  8
OBJECT
100
AcDbVertex
100
AcDb3dPolylineVertex
 10
2.031667016618101
 20
1.110198162279633
 30
0.000000000000001
 70
    32
1001
ACAD
1000
R13OBJECT
1002
{
1005
10251
1002
}
  0
VERTEX
  5
11DE8
330
11DE4
100
AcDbEntity
  8
OBJECT
100
AcDbVertex
100
AcDb3dPolylineVertex
 10
2.022074911376673
 20
1.107237246131723
 30
0.000000000000001
 70
    32
1001
ACAD
1000
R13OBJECT
1002
{
1005
10251
1002
}
  0
SEQEND
  5
11DE9
330
11DE4
100
AcDbEntity
  8
OBJECT
  0
LINE
  5
11DEA
330
1E
100
AcDbEntity
  8
OBJECT
100
AcDbLine
 10
2.523041068185721
 20
1.121870974647709
 30
0.0000000000000005
 11
2.523041068185721
 21
0.7866164942371876
 31
0.0000000000000005
  0
LINE
  5
11DEF
330
1E
100
AcDbEntity
  8
OBJECT
100
AcDbLine
 10
1.03401532871252
 20
0.3074902137299332
 30
0.0
 11
1.03401532871252
 21
0.5214902137299329
 31
0.0
  0
LINE
  5
11DF0
330
1E
100
AcDbEntity
  8
OBJECT
100
AcDbLine
 10
1.06501532871252
 20
0.552490213729933
 30
0.0
 11
1.27501532871252
 21
0.552490213729933
 31
0.0
  0
LINE
  5
11DF2
330
1E
100
AcDbEntity
  8
OBJECT
100
AcDbLine
 10
1.06501532871252
 20
0.2764902137299332
 30
0.0
 11
1.27501532871252
 21
0.2764902137299332
 31
0.0
  0
CIRCLE
  5
11DF4
330
1E
100
AcDbEntity
  8
OBJECT
100
AcDbCircle
 10
1.17001532871252
 20
0.4144902137299331
 30
0.0
 40
0.049
  0
LINE
  5
11DF7
330
1E
100
AcDbEntity
  8
OBJECT
100
AcDbLine
 10
1.37301532871252
 20
0.5819902137299331
 30
0.0
 11
1.37301532871252
 21
0.2469902137299331
 31
0.0
  0
LINE
  5
11DFA
330
1E
100
AcDbEntity
  8
OBJECT
100
AcDbLine
 10
1.37301532871252
 20
0.5819902137299331
 30
0.0
 11
1.30601532871252
 21
0.5175671368075206
 31
0.0
  0
LINE
  5
11DFB
330
1E
100
AcDbEntity
  8
OBJECT
100
AcDbLine
 10
1.30601532871252
 20
0.5214902137299329
 30
0.0
 11
1.30601532871252
 21
0.5175671368075215
 31
0.0
  0
LINE
  5
11DFC
330
1E
100
AcDbEntity
  8
OBJECT
100
AcDbLine
 10
1.37301532871252
 20
0.2469902137299331
 30
0.0
 11
1.30601532871252
 21
0.3114132906523457
 31
0.0
  0
LINE
  5
11DFD
330
1E
100
AcDbEntity
  8
OBJECT
100
AcDbLine
 10
1.30601532871252
 20
0.3114132906523457
 30
0.0
 11
1.30601532871252
 21
0.3074902137299333
 31
0.0
  0
LINE
  5
11DFE
330
1E
100
AcDbEntity
  8
OBJECT
100
AcDbLine
 10
1.03401532871252
 20
1.088136152818994
 30
0.0
 11
1.37301532871252
 21
1.088136152818994
 31
0.0
  0
LINE
  5
11DFF
330
1E
100
AcDbEntity
  8
OBJECT
100
AcDbLine
 10
1.03401532871252
 20
1.088136152818994
 30
0.0
 11
1.03401532871252
 21
1.265136152818994
 31
0.0
  0
LINE
  5
11E00
330
1E
100
AcDbEntity
  8
OBJECT
100
AcDbLine
 10
1.373015328712521
 20
1.088136152818994
 30
0.0
 11
1.373015328712521
 21
1.521136152818994
 31
0.0
  0
LINE
  5
11E01
330
1E
100
AcDbEntity
  8
OBJECT
100
AcDbLine
 10
1.03401532871252
 20
1.265136152818994
 30
0.0
 11
1.306015328712521
 21
1.265136152818993
 31
0.0
  0
LINE
  5
11E02
330
1E
100
AcDbEntity
  8
OBJECT
100
AcDbLine
 10
1.306015328712521
 20
1.088136152818994
 30
0.0
 11
1.306015328712521
 21
1.521136152818994
 31
0.0
  0
LINE
  5
11E03
330
1E
100
AcDbEntity
  8
OBJECT
100
AcDbLine
 10
1.306015328712521
 20
1.521136152818994
 30
0.0
 11
1.37301532871252
 21
1.521136152818994
 31
0.0
  0
LINE
  5
11E05
330
1E
100
AcDbEntity
  8
OBJECT
100
AcDbLine
 10
0.6619672605694236
 20
1.088136152818994
 30
0.0
 11
0.6619672605694236
 21
1.521136152818994
 31
0.0
  0
LINE
  5
11E06
330
1E
100
AcDbEntity
  8
OBJECT
100
AcDbLine
 10
0.3564672605694197
 20
1.265136152818994
 30
0.0
 11
0.6324672605694182
 21
1.265136152818993
 31
0.0
  0
LINE
  5
11E07
330
1E
100
AcDbEntity
  8
OBJECT
100
AcDbLine
 10
0.3269672605694192
 20
1.088136152818994
 30
0.0
 11
0.6619672605694232
 21
1.088136152818994
 31
0.0
  0
LINE
  5
11E0D
330
1E
100
AcDbEntity
  8
OBJECT
100
AcDbLine
 10
0.6324672605694186
 20
1.088136152818994
 30
0.0
 11
0.6324672605694182
 21
1.265136152818993
 31
0.0
  0
LINE
  5
11E0E
330
1E
100
AcDbEntity
  8
OBJECT
100
AcDbLine
 10
0.3564672605694188
 20
1.088136152818994
 30
0.0
 11
0.3564672605694192
 21
1.265136152818993
 31
0.0
  0
LINE
  5
11E10
330
1E
100
AcDbEntity
  8
OBJECT
100
AcDbLine
 10
0.3269672605694192
 20
1.088136152818994
 30
0.0
 11
0.3269672605694192
 21
1.521136152818994
 31
0.0
  0
LINE
  5
11E12
330
1E
100
AcDbEntity
  8
OBJECT
100
AcDbLine
 10
0.6619672605694236
 20
1.521136152818994
 30
0.0
 11
0.3269672605694192
 21
1.521136152818994
 31
0.0
  0
LINE
  5
11E13
330
1E
100
AcDbEntity
  8
OBJECT
100
AcDbLine
 10
0.5975441836470066
 20
1.265136152818993
 30
0.0
 11
0.5975441836470062
 21
1.521136152818994
 31
0.0
  0
LINE
  5
11E14
330
1E
100
AcDbEntity
  8
OBJECT
100
AcDbLine
 10
0.3913903374918308
 20
1.265136152818993
 30
0.0
 11
0.3913903374918313
 21
1.521136152818994
 31
0.0
  0
LINE
  5
11E1A
330
1E
100
AcDbEntity
  8
OBJECT
100
AcDbLine
 10
0.4649672605694218
 20
1.265136152818993
 30
0.0
 11
0.4454672605694215
 21
1.088136152818994
 31
0.0
  0
LINE
  5
11E1B
330
1E
100
AcDbEntity
  8
OBJECT
100
AcDbLine
 10
0.5239672605694219
 20
1.265136152818993
 30
0.0
 11
0.5434672605694213
 21
1.088136152818994
 31
0.0
  0
DIMENSION
  5
11E39
330
1E
100
AcDbEntity
  8
OBJECT
100
AcDbDimension
  2
*D3
 10
1.522320128763787
 20
1.088136152818994
 30
0.0
 11
1.522320128763787
 21
1.304636152818994
 31
0.0
 70
    32
  3
23NSTD
100
AcDbAlignedDimension
 13
1.373015328712521
 23
1.521136152818994
 33
0.0
 14
1.373015328712521
 24
1.088136152818994
 34
0.0
 50
90.0
100
AcDbRotatedDimension
  0
DIMENSION
  5
11E77
330
1E
100
AcDbEntity
  8
OBJECT
100
AcDbDimension
  2
*D4
 10
0.9057845795766167
 20
1.265136152818994
 30
0.0
 11
0.9057845795766164
 21
1.176636152818994
 31
0.0
 70
    32
  3
23NSTDI
100
AcDbAlignedDimension
 13
1.03401532871252
 23
1.088136152818994
 33
0.0
 14
1.03401532871252
 24
1.265136152818994
 34
0.0
 50
90.0
100
AcDbRotatedDimension
  0
DIMENSION
  5
11E9A
330
1E
100
AcDbEntity
  8
OBJECT
100
AcDbDimension
  2
*D5
 10
1.37301532871252
 20
0.8540109935607498
 30
0.0
 11
1.20351532871252
 21
0.8540109935607498
 31
0.0
 70
    32
  3
23NSTDI
100
AcDbAlignedDimension
 13
1.03401532871252
 23
1.088136152818994
 33
0.0
 14
1.37301532871252
 24
1.088136152818994
 34
0.0
100
AcDbRotatedDimension
  0
DIMENSION
  5
11EA8
330
1E
100
AcDbEntity
  8
OBJECT
100
AcDbDimension
  2
*D6
 10
1.03401532871252
 20
0.6710896808297955
 30
0.0
 11
0.8258122037125204
 21
0.6710896808297955
 31
0.0
 70
    32
  3
23NSTD
100
AcDbAlignedDimension
 13
1.17001532871252
 23
0.4144902137299331
 33
0.0
 14
1.03401532871252
 24
0.552490213729933
 34
0.0
100
AcDbRotatedDimension
  0
DIMENSION
  5
11EB6
330
1E
100
AcDbEntity
  8
OBJECT
100
AcDbDimension
  2
*D7
 10
0.9057845795766166
 20
0.2764902137299332
 30
0.0
 11
0.9057845795766164
 21
0.3454902137299333
 31
0.0
 70
    32
  3
23NSTDI
100
AcDbAlignedDimension
 13
1.17001532871252
 23
0.4144902137299331
 33
0.0
 14
1.03401532871252
 24
0.2764902137299332
 34
0.0
 50
90.0
100
AcDbRotatedDimension
  0
DIMENSION
  5
11F40
330
1E
100
AcDbEntity
  8
OBJECT
100
AcDbDimension
  2
*D8
 10
1.37301532871252
 20
1.636933000855027
 30
0.0
 11
1.57926532871252
 21
1.636933000855027
 31
0.0
 70
    32
  3
23NSTD
100
AcDbAlignedDimension
 13
1.306015328712521
 23
1.521136152818994
 33
0.0
 14
1.37301532871252
 24
1.521136152818994
 34
0.0
100
AcDbRotatedDimension
  0
DIMENSION
  5
11F98
330
1E
100
AcDbEntity
  8
OBJECT
100
AcDbDimension
  2
*D9
 10
0.3269672605694192
 20
1.636933000855027
 30
0.0
 11
0.4775446636616456
 21
1.636933000855027
 31
0.0
 70
   160
  3
23NSTD
100
AcDbAlignedDimension
 13
0.6619672605694236
 23
1.521136152818994
 33
0.0
 14
0.3269672605694192
 24
1.521136152818994
 34
0.0
100
AcDbRotatedDimension
  0
DIMENSION
  5
11FA6
330
1E
100
AcDbEntity
  8
OBJECT
100
AcDbDimension
  2
*D10
 10
0.3564672605694188
 20
0.9571408358048021
 30
0.0
 11
0.4944672605694187
 21
0.9571408358048021
 31
0.0
 70
    32
  3
23NSTDI
100
AcDbAlignedDimension
 13
0.6324672605694186
 23
1.088136152818994
 33
0.0
 14
0.3564672605694188
 24
1.088136152818994
 34
0.0
100
AcDbRotatedDimension
  0
LINE
  5
11FDF
330
1E
100
AcDbEntity
  8
OBJECT
100
AcDbLine
 10
1.140515328712521
 20
1.265136152818993
 30
0.0
 11
1.12101532871252
 21
1.088136152818994
 31
0.0
  0
LINE
  5
11FE0
330
1E
100
AcDbEntity
  8
OBJECT
100
AcDbLine
 10
1.199515328712521
 20
1.265136152818993
 30
0.0
 11
1.21901532871252
 21
1.088136152818994
 31
0.0
  0
DIMENSION
  5
11FE1
330
1E
100
AcDbEntity
  8
OBJECT
100
AcDbDimension
  2
*D11
 10
1.21901532871252
 20
0.9571408358048021
 30
0.0
 11
1.52924121115179
 21
0.9571408358048021
 31
0.0
 70
   160
  1
%%c<>
  3
23NSTD
100
AcDbAlignedDimension
 13
1.12101532871252
 23
1.088136152818994
 33
0.0
 14
1.21901532871252
 24
1.088136152818994
 34
0.0
100
AcDbRotatedDimension
  0
DIMENSION
  5
11FEF
330
1E
100
AcDbEntity
  8
OBJECT
100
AcDbDimension
  2
*D12
 10
1.140515328712521
 20
1.416505338273098
 30
0.0
 11
0.9225465787125211
 21
1.416505338273098
 31
0.0
 70
    32
  1
%%c<>
  3
23NSTD
100
AcDbAlignedDimension
 13
1.199515328712521
 23
1.265136152818993
 33
0.0
 14
1.140515328712521
 24
1.265136152818993
 34
0.0
100
AcDbRotatedDimension
  0
TEXT
  5
12353
330
1E
100
AcDbEntity
  8
OBJECT
100
AcDbText
 10
1.529997063730027
 20
1.89606185236306
 30
0.0
 40
0.046
  1
NBX-10930
 41
0.75
 72
     1
 11
1.667997063730027
 21
1.89606185236306
 31
0.0
100
AcDbText
  0
TEXT
  5
12354
330
1E
100
AcDbEntity
  8
OBJECT
100
AcDbText
 10
2.383951808029122
 20
1.89606185236306
 30
0.0
 40
0.046
  1
9-28-10
 41
0.75
 72
     1
 11
2.490326808029122
 21
1.89606185236306
 31
0.0
100
AcDbText
  0
TEXT
  5
12355
330
1E
100
AcDbEntity
  8
OBJECT
100
AcDbText
 10
0.3051568169648948
 20
1.89606185236306
 30
0.0
 40
0.046
  1
PANEL BRACKET KIT
 41
0.75
 72
     1
 11
0.5869068169648948
 21
1.89606185236306
 31
0.0
100
AcDbText
  0
ARC
  5
1235B
330
1E
100
AcDbEntity
  8
OBJECT
100
AcDbCircle
 10
1.06501532871252
 20
0.5214902137299329
 30
0.0
 40
0.031
100
AcDbArc
 50
90.0
 51
180.0
  0
ARC
  5
1235C
330
1E
100
AcDbEntity
  8
OBJECT
100
AcDbCircle
 10
1.27501532871252
 20
0.5214902137299329
 30
0.0
 40
0.031
100
AcDbArc
 50
0.0
 51
90.0
  0
ARC
  5
1235D
330
1E
100
AcDbEntity
  8
OBJECT
100
AcDbCircle
 10
1.27501532871252
 20
0.3074902137299333
 30
0.0
 40
0.031
100
AcDbArc
 50
270.0
 51
0.0
  0
ARC
  5
1235E
330
1E
100
AcDbEntity
  8
OBJECT
100
AcDbCircle
 10
1.06501532871252
 20
0.3074902137299333
 30
0.0
 40
0.031
100
AcDbArc
 50
180.0
 51
270.0
  0
POLYLINE
  5
123A0
330
1E
100
AcDbEntity
  8
OBJECT
100
AcDb3dPolyline
 66
     1
 10
0.0
 20
0.0
 30
0.0
 70
     8
  0
VERTEX
  5
123A1
330
123A0
100
AcDbEntity
  8
OBJECT
100
AcDbVertex
100
AcDb3dPolylineVertex
 10
2.069366741264124
 20
0.6477483207472936
 30
0.0000000000000021
 70
    32
1001
ACAD
1000
R13OBJECT
1002
{
1005
1024F
1002
}
  0
VERTEX
  5
123A2
330
123A0
100
AcDbEntity
  8
OBJECT
100
AcDbVertex
100
AcDb3dPolylineVertex
 10
2.07967274961739
 20
0.6431389918530215
 30
0.000000000000002
 70
    32
1001
ACAD
1000
R13OBJECT
1002
{
1005
1024F
1002
}
  0
VERTEX
  5
123A3
330
123A0
100
AcDbEntity
  8
OBJECT
100
AcDbVertex
100
AcDb3dPolylineVertex
 10
2.089461971677696
 20
0.6414424895619067
 30
0.000000000000002
 70
    32
1001
ACAD
1000
R13OBJECT
1002
{
1005
1024F
1002
}
  0
VERTEX
  5
123A4
330
123A0
100
AcDbEntity
  8
OBJECT
100
AcDbVertex
100
AcDb3dPolylineVertex
 10
2.098243534974676
 20
0.6427438835828046
 30
0.000000000000002
 70
    32
1001
ACAD
1000
R13OBJECT
1002
{
1005
1024F
1002
}
  0
VERTEX
  5
123A5
330
123A0
100
AcDbEntity
  8
OBJECT
100
AcDbVertex
100
AcDb3dPolylineVertex
 10
2.105577095256029
 20
0.646977916585362
 30
0.000000000000002
 70
    32
1001
ACAD
1000
R13OBJECT
1002
{
1005
1024F
1002
}
  0
VERTEX
  5
123A6
330
123A0
100
AcDbEntity
  8
OBJECT
100
AcDbVertex
100
AcDb3dPolylineVertex
 10
2.111094917186952
 20
0.6539322764750431
 30
0.000000000000002
 70
    32
1001
ACAD
1000
R13OBJECT
1002
{
1005
1024F
1002
}
  0
VERTEX
  5
123A7
330
123A0
100
AcDbEntity
  8
OBJECT
100
AcDbVertex
100
AcDb3dPolylineVertex
 10
2.114520314135417
 20
0.6632582426081051
 30
0.000000000000002
 70
    32
1001
ACAD
1000
R13OBJECT
1002
{
1005
1024F
1002
}
  0
VERTEX
  5
123A8
330
123A0
100
AcDbEntity
  8
OBJECT
100
AcDbVertex
100
AcDb3dPolylineVertex
 10
2.115681522395219
 20
0.6744881721007921
 30
0.000000000000002
 70
    32
1001
ACAD
1000
R13OBJECT
1002
{
1005
1024F
1002
}
  0
SEQEND
  5
123A9
330
123A0
100
AcDbEntity
  8
OBJECT
  0
POLYLINE
  5
123AA
330
1E
100
AcDbEntity
  8
OBJECT
100
AcDb3dPolyline
 66
     1
 10
0.0
 20
0.0
 30
0.0
 70
     8
  0
VERTEX
  5
123AB
330
123AA
100
AcDbEntity
  8
OBJECT
100
AcDbVertex
100
AcDb3dPolylineVertex
 10
2.115681522395219
 20
0.8383775836222291
 30
0.000000000000001
 70
    32
1001
ACAD
1000
R13OBJECT
1002
{
1005
10256
1002
}
  0
VERTEX
  5
123AC
330
123AA
100
AcDbEntity
  8
OBJECT
100
AcDbVertex
100
AcDb3dPolylineVertex
 10
2.114520314135417
 20
0.8509483609176754
 30
0.000000000000001
 70
    32
1001
ACAD
1000
R13OBJECT
1002
{
1005
10256
1002
}
  0
VERTEX
  5
123AD
330
123AA
100
AcDbEntity
  8
OBJECT
100
AcDbVertex
100
AcDb3dPolylineVertex
 10
2.111094917186952
 20
0.8642296347512946
 30
0.000000000000001
 70
    32
1001
ACAD
1000
R13OBJECT
1002
{
1005
10256
1002
}
  0
VERTEX
  5
123AE
330
123AA
100
AcDbEntity
  8
OBJECT
100
AcDbVertex
100
AcDb3dPolylineVertex
 10
2.105577095256029
 20
0.8775554265952987
 30
0.000000000000001
 70
    32
1001
ACAD
1000
R13OBJECT
1002
{
1005
10256
1002
}
  0
VERTEX
  5
123AF
330
123AA
100
AcDbEntity
  8
OBJECT
100
AcDbVertex
100
AcDb3dPolylineVertex
 10
2.098243534974676
 20
0.8902575256029647
 30
0.000000000000001
 70
    32
1001
ACAD
1000
R13OBJECT
1002
{
1005
10256
1002
}
  0
VERTEX
  5
123B0
330
123AA
100
AcDbEntity
  8
OBJECT
100
AcDbVertex
100
AcDb3dPolylineVertex
 10
2.089461971677696
 20
0.9016989954907064
 30
0.000000000000001
 70
    32
1001
ACAD
1000
R13OBJECT
1002
{
1005
10256
1002
}
  0
VERTEX
  5
123B1
330
123AA
100
AcDbEntity
  8
OBJECT
100
AcDbVertex
100
AcDb3dPolylineVertex
 10
2.079672749617399
 20
0.9113061131829315
 30
0.000000000000001
 70
    32
1001
ACAD
1000
R13OBJECT
1002
{
1005
10256
1002
}
  0
VERTEX
  5
123B2
330
123AA
100
AcDbEntity
  8
OBJECT
100
AcDbVertex
100
AcDb3dPolylineVertex
 10
2.069366741264124
 20
0.9185971376827266
 30
0.000000000000001
 70
    32
1001
ACAD
1000
R13OBJECT
1002
{
1005
10256
1002
}
  0
SEQEND
  5
123B3
330
123AA
100
AcDbEntity
  8
OBJECT
  0
LINE
  5
123B7
330
1E
100
AcDbEntity
  8
OBJECT
100
AcDbLine
 10
2.115681522395219
 20
0.8383775836222291
 30
0.000000000000001
 11
2.148052068347059
 21
0.9053709746477096
 31
0.0000000000000005
  0
LINE
  5
123B8
330
1E
100
AcDbEntity
  8
OBJECT
100
AcDbLine
 10
2.148052068347059
 20
0.5701164942371877
 30
0.0000000000000002
 11
2.115681522395219
 21
0.6744881721007921
 31
0.000000000000002
  0
POLYLINE
  5
123C3
330
1E
100
AcDbEntity
  8
OBJECT
100
AcDb3dPolyline
 66
     1
 10
0.0
 20
0.0
 30
0.0
 70
     8
  0
VERTEX
  5
123C4
330
123C3
100
AcDbEntity
  8
OBJECT
100
AcDbVertex
100
AcDb3dPolylineVertex
 10
2.257437849381844
 20
0.9685248847736623
 30
0.000000000000001
 70
    32
  0
VERTEX
  5
123C5
330
123C3
100
AcDbEntity
  8
OBJECT
100
AcDbVertex
100
AcDb3dPolylineVertex
 10
2.251530031444522
 20
0.9787575256029645
 30
0.000000000000001
 70
    32
  0
VERTEX
  5
123C6
330
123C3
100
AcDbEntity
  8
OBJECT
100
AcDbVertex
100
AcDb3dPolylineVertex
 10
2.242748468147542
 20
0.9901989954907062
 30
0.000000000000001
 70
    32
  0
VERTEX
  5
123C7
330
123C3
100
AcDbEntity
  8
OBJECT
100
AcDbVertex
100
AcDb3dPolylineVertex
 10
2.232959246087245
 20
0.9998061131829313
 30
0.000000000000001
 70
    32
  0
VERTEX
  5
123C8
330
123C3
100
AcDbEntity
  8
OBJECT
100
AcDbVertex
100
AcDb3dPolylineVertex
 10
2.22265323773397
 20
1.007097137682726
 30
0.000000000000001
 70
    32
  0
SEQEND
  5
123C9
330
123C3
100
AcDbEntity
  8
OBJECT
  0
LINE
  5
123CA
330
1E
100
AcDbEntity
  8
OBJECT
100
AcDbLine
 10
2.121383409437926
 20
0.6561036963331763
 30
0.000000000000002
 11
2.098243534974676
 21
0.6427438835828046
 31
0.000000000000002
  0
TEXT
  5
123DE
330
1E
100
AcDbEntity
  8
OBJECT
100
AcDbText
 10
1.882995665771524
 20
1.354870577894299
 30
0.0
 40
0.030999999921
  1
KIT CONTAINS QTY. (4) BRACKETS
 41
0.75
100
AcDbText
  0
TEXT
  5
123DF
330
1E
100
AcDbEntity
  8
OBJECT
100
AcDbText
 10
1.882995665771524
 20
1.303203911359299
 30
0.0
 40
0.030999999921
  1
 AND QTY. (4) M3.5 x 6mm LG.
 41
0.75
100
AcDbText
  0
TEXT
  5
123E0
330
1E
100
AcDbEntity
  8
OBJECT
100
AcDbText
 10
1.915274069096788
 20
1.437187903507442
 30
0.0
 40
0.030999999921
  1
SCREWS - ZINC PLATED
 41
0.75
100
AcDbText
  0
TEXT
  5
123E1
330
1E
100
AcDbEntity
  8
OBJECT
100
AcDbText
 10
1.915274069096788
 20
1.488854570042442
 30
0.0
 40
0.030999999921
  1
BRACKETS - LIGHT GRAY
 41
0.75
100
AcDbText
  0
TEXT
  5
123E2
330
1E
100
AcDbEntity
  8
OBJECT
100
AcDbText
 10
1.882995665771524
 20
1.540521236577442
 30
0.0
 40
0.030999999921
  1
%%UFINISH:
 41
0.75
100
AcDbText
  0
TEXT
  5
123E3
330
1E
100
AcDbEntity
  8
OBJECT
100
AcDbText
 10
1.882995665771524
 20
1.726454515505932
 30
0.0
 40
0.030999999921
  1
%%UMATERIAL:
 41
0.75
100
AcDbText
  0
TEXT
  5
123E6
330
1E
100
AcDbEntity
  8
OBJECT
100
AcDbText
 10
1.882995665771524
 20
1.251537244824298
 30
0.0
 40
0.030999999921
  1
 SELF-THREADING PAN HD. SCREWS
 41
0.75
100
AcDbText
  0
TEXT
  5
124F8
330
1E
100
AcDbEntity
  8
OBJECT
100
AcDbText
 10
1.059966870355637
 20
1.87501979891002
 30
0.0
 40
0.03125
  1
No.
 72
     1
 11
1.091216870355637
 21
1.87501979891002
 31
0.0
100
AcDbText
  0
TEXT
  5
124F9
330
1E
100
AcDbEntity
  8
OBJECT
100
AcDbText
 10
1.03392520368897
 20
1.927103132243353
 30
0.0
 40
0.03125
  1
PART
 72
     1
 11
1.091216870355637
 21
1.927103132243353
 31
0.0
100
AcDbText
  0
LINE
  5
124FA
330
1E
100
AcDbEntity
  8
OBJECT
100
AcDbLine
 10
0.0154999999999994
 20
1.865
 30
0.0
 11
2.6345
 21
1.865
 31
0.0
  0
LINE
  5
124FB
330
1E
100
AcDbEntity
  8
OBJECT
100
AcDbLine
 10
0.0154999999999994
 20
1.969499999999999
 30
0.0
 11
2.6345
 21
1.969499999999999
 31
0.0
  0
LINE
  5
124FC
330
1E
100
AcDbEntity
  8
OBJECT
100
AcDbLine
 10
0.0
 20
1.985
 30
0.0
 11
2.649999999999999
 21
1.984999999999999
 31
0.0
  0
LINE
  5
124FD
330
1E
100
AcDbEntity
  8
OBJECT
100
AcDbLine
 10
0.0
 20
0.0
 30
0.0
 11
-0.0000000000000009
 21
1.985
 31
0.0
  0
LINE
  5
124FE
330
1E
100
AcDbEntity
  8
OBJECT
100
AcDbLine
 10
0.0154999999999994
 20
0.0155000000000003
 30
0.0
 11
0.0154999999999994
 21
1.969499999999999
 31
0.0
  0
LINE
  5
124FF
330
1E
100
AcDbEntity
  8
OBJECT
100
AcDbLine
 10
0.2030000000000012
 20
1.865
 30
0.0
 11
0.2029999999999994
 21
1.969499999999999
 31
0.0
  0
TEXT
  5
12500
330
1E
100
AcDbEntity
  8
OBJECT
100
AcDbText
 10
0.0519583333333345
 20
1.927103132243353
 30
0.0
 40
0.03125
  1
PART
 72
     1
 11
0.1092500000000012
 21
1.927103132243353
 31
0.0
100
AcDbText
  0
TEXT
  5
12501
330
1E
100
AcDbEntity
  8
OBJECT
100
AcDbText
 10
0.0519583333333345
 20
1.87501979891002
 30
0.0
 40
0.03125
  1
NAME
 72
     1
 11
0.1092500000000012
 21
1.87501979891002
 31
0.0
100
AcDbText
  0
LINE
  5
12502
330
1E
100
AcDbEntity
  8
OBJECT
100
AcDbLine
 10
0.9974668703556391
 20
1.969499999999999
 30
0.0
 11
0.9974668703556391
 21
1.865
 31
0.0
  0
LINE
  5
12503
330
1E
100
AcDbEntity
  8
OBJECT
100
AcDbLine
 10
0.9819668703556381
 20
1.969499999999999
 30
0.0
 11
0.9819668703556381
 21
1.865
 31
0.0
  0
LINE
  5
12504
330
1E
100
AcDbEntity
  8
OBJECT
100
AcDbLine
 10
2.649999999999999
 20
-0.0000000000000005
 30
0.0
 11
2.649999999999997
 21
1.984999999999999
 31
0.0
  0
LINE
  5
12505
330
1E
100
AcDbEntity
  8
OBJECT
100
AcDbLine
 10
2.6345
 20
0.0154999999999999
 30
0.0
 11
2.6345
 21
1.969499999999999
 31
0.0
  0
LINE
  5
12506
330
1E
100
AcDbEntity
  8
OBJECT
100
AcDbLine
 10
1.184966870355639
 20
1.969499999999999
 30
0.0
 11
1.184966870355639
 21
1.865
 31
0.0
  0
LINE
  5
12507
330
1E
100
AcDbEntity
  8
OBJECT
100
AcDbLine
 10
2.6345
 20
0.0154999999999999
 30
0.0
 11
0.0154999999999994
 21
0.0155000000000003
 31
0.0
  0
LINE
  5
12508
330
1E
100
AcDbEntity
  8
OBJECT
100
AcDbLine
 10
2.649999999999999
 20
-0.0000000000000005
 30
0.0
 11
0.0
 21
0.0
 31
0.0
  0
LINE
  5
12509
330
1E
100
AcDbEntity
  8
OBJECT
100
AcDbLine
 10
2.14231371751237
 20
1.969499999999999
 30
0.0
 11
2.14231371751237
 21
1.865
 31
0.0
  0
LINE
  5
1250A
330
1E
100
AcDbEntity
  8
OBJECT
100
AcDbLine
 10
2.157813717512372
 20
1.969499999999999
 30
0.0
 11
2.157813717512372
 21
1.865
 31
0.0
  0
TEXT
  5
1250B
330
1E
100
AcDbEntity
  8
OBJECT
100
AcDbText
 10
2.199480384179036
 20
1.927103132243353
 30
0.0
 40
0.03125
  1
REV.
 72
     1
 11
2.25156371751237
 21
1.927103132243353
 31
0.0
100
AcDbText
  0
TEXT
  5
1250C
330
1E
100
AcDbEntity
  8
OBJECT
100
AcDbText
 10
2.194272050845703
 20
1.87501979891002
 30
0.0
 40
0.03125
  1
DATE
 72
     1
 11
2.25156371751237
 21
1.87501979891002
 31
0.0
100
AcDbText
  0
LINE
  5
1250D
330
1E
100
AcDbEntity
  8
OBJECT
100
AcDbLine
 10
2.345313717512372
 20
1.969499999999999
 30
0.0
 11
2.345313717512372
 21
1.865
 31
0.0
  0
ENDSEC
  0
SECTION
  2
OBJECTS
  0
DICTIONARY
  5
C
330
0
100
AcDbDictionary
  3
ACAD_GROUP
350
D
  3
ACAD_LAYOUT
350
19
  3
ACAD_MLINESTYLE
350
16
  3
ACAD_PLOTSETTINGS
350
18
  3
ACAD_PLOTSTYLENAME
350
E
  3
ACADDIM
350
56
  3
ACDBHEADERROUNDTRIPXREC
350
1250F
  0
DICTIONARY
  5
12532
330
1E
100
AcDbDictionary
280
     1
  3
ACAD_LAYOUTSELFREF
360
12533
  0
DICTIONARY
  5
12530
330
1A
100
AcDbDictionary
280
     1
  3
ACAD_LAYOUTSELFREF
360
12531
  0
DICTIONARY
  5
D
102
{ACAD_REACTORS
330
C
102
}
330
C
100
AcDbDictionary
  0
DICTIONARY
  5
19
102
{ACAD_REACTORS
330
C
102
}
330
C
100
AcDbDictionary
  0
DICTIONARY
  5
16
102
{ACAD_REACTORS
330
C
102
}
330
C
100
AcDbDictionary
  3
STANDARD
350
17
  0
DICTIONARY
  5
18
102
{ACAD_REACTORS
330
C
102
}
330
C
100
AcDbDictionary
  0
ACDBDICTIONARYWDFLT
  5
E
102
{ACAD_REACTORS
330
C
102
}
330
C
100
AcDbDictionary
281
     1
  3
Normal
350
F
100
AcDbDictionaryWithDefault
340
F
  0
XRECORD
  5
56
102
{ACAD_REACTORS
330
C
102
}
330
C
100
AcDbXrecord
 90
   990106
  3

 60
     0
 61
     0
 62
     1
 63
     1
 64
     0
 65
     0
 66
     0
 67
     3
 68
     1
 69
     0
 70
     0
 71
     0
 72
     0
 40
0.0
170
     2
340
0
  0
DICTIONARY
  5
1250F
102
{ACAD_REACTORS
330
C
102
}
330
C
100
AcDbDictionary
  3
TSTACKALIGN
350
12510
  3
TSTACKSIZE
350
12511
  3
HYPERLINKBASE
350
12512
  3
STYLESHEET
350
12513
  3
LAYOUTDICT
350
12514
  3
PLOTSETDICT
350
12515
  3
PLOTSTYLNAMDICT
350
12516
  3
LWETCUNION
350
12517
  3
INSUNITS
350
12518
  3
CEPSNTYPE
350
12519
  3
FINGERPRINTGUID
350
1251A
  3
VERSIONGUID
350
1251B
  3
PSVPSCALE
350
1251C
  3
DIMSTYLEDATA
350
1251D
  3
PUCSORTHOREF
350
1251E
  3
PUCSORTHOVIEW
350
1251F
  3
PUCSBASE
350
12520
  3
PUCSORGTOP
350
12521
  3
PUCSORGBOTTOM
350
12522
  3
PUCSORGLEFT
350
12523
  3
PUCSORGRIGHT
350
12524
  3
PUCSORGFRONT
350
12525
  3
PUCSORGBACK
350
12526
  3
UCSORTHOREF
350
12527
  3
UCSORTHOVIEW
350
12528
  3
UCSBASE
350
12529
  3
UCSORGTOP
350
1252A
  3
UCSORGBOTTOM
350
1252B
  3
UCSORGLEFT
350
1252C
  3
UCSORGRIGHT
350
1252D
  3
UCSORGFRONT
350
1252E
  3
UCSORGBACK
350
1252F
  0
XRECORD
  5
12533
102
{ACAD_REACTORS
330
12532
102
}
330
12532
100
AcDbXrecord
340
1E
  0
XRECORD
  5
12531
102
{ACAD_REACTORS
330
12530
102
}
330
12530
100
AcDbXrecord
340
1A
  0
MLINESTYLE
  5
17
102
{ACAD_REACTORS
330
16
102
}
330
16
100
AcDbMlineStyle
  2
STANDARD
 70
     0
  3

 62
   256
 51
90.0
 52
90.0
 71
     2
 49
0.5
 62
   256
  6
BYLAYER
 49
-0.5
 62
   256
  6
BYLAYER
  0
ACDBPLACEHOLDER
  5
F
102
{ACAD_REACTORS
330
E
102
}
330
E
100
AcDbPlaceHolder
280
     0
  0
XRECORD
  5
12510
102
{ACAD_REACTORS
330
1250F
102
}
330
1250F
100
AcDbXrecord
 90
        1
  0
XRECORD
  5
12511
102
{ACAD_REACTORS
330
1250F
102
}
330
1250F
100
AcDbXrecord
 90
       70
  0
XRECORD
  5
12512
102
{ACAD_REACTORS
330
1250F
102
}
330
1250F
100
AcDbXrecord
  1

  0
XRECORD
  5
12513
102
{ACAD_REACTORS
330
1250F
102
}
330
1250F
100
AcDbXrecord
  1
monochrome.ctb
  0
XRECORD
  5
12514
102
{ACAD_REACTORS
330
1250F
102
}
330
1250F
100
AcDbXrecord
340
19
  0
XRECORD
  5
12515
102
{ACAD_REACTORS
330
1250F
102
}
330
1250F
100
AcDbXrecord
340
18
  0
XRECORD
  5
12516
102
{ACAD_REACTORS
330
1250F
102
}
330
1250F
100
AcDbXrecord
340
E
  0
XRECORD
  5
12517
102
{ACAD_REACTORS
330
1250F
102
}
330
1250F
100
AcDbXrecord
 90
    10781
  0
XRECORD
  5
12518
102
{ACAD_REACTORS
330
1250F
102
}
330
1250F
100
AcDbXrecord
 90
        0
  0
XRECORD
  5
12519
102
{ACAD_REACTORS
330
1250F
102
}
330
1250F
100
AcDbXrecord
 90
        0
  0
XRECORD
  5
1251A
102
{ACAD_REACTORS
330
1250F
102
}
330
1250F
100
AcDbXrecord
  1
{5F9F434B-8232-11D3-80AD-00C04F604D1B}
  0
XRECORD
  5
1251B
102
{ACAD_REACTORS
330
1250F
102
}
330
1250F
100
AcDbXrecord
  1
{B863BC3F-49F9-412F-9B0A-905A67A57696}
  0
XRECORD
  5
1251C
102
{ACAD_REACTORS
330
1250F
102
}
330
1250F
100
AcDbXrecord
 40
0.0
  0
XRECORD
  5
1251D
102
{ACAD_REACTORS
330
1250F
102
}
330
1250F
100
AcDbXrecord
1000
DSTYLE
1002
{
1070
   289
 70
     0
1002
}
  0
XRECORD
  5
1251E
102
{ACAD_REACTORS
330
1250F
102
}
330
1250F
100
AcDbXrecord
340
0
  0
XRECORD
  5
1251F
102
{ACAD_REACTORS
330
1250F
102
}
330
1250F
100
AcDbXrecord
 70
     0
  0
XRECORD
  5
12520
102
{ACAD_REACTORS
330
1250F
102
}
330
1250F
100
AcDbXrecord
340
0
  0
XRECORD
  5
12521
102
{ACAD_REACTORS
330
1250F
102
}
330
1250F
100
AcDbXrecord
 10
0.0
 20
0.0
 30
0.0
  0
XRECORD
  5
12522
102
{ACAD_REACTORS
330
1250F
102
}
330
1250F
100
AcDbXrecord
 10
0.0
 20
0.0
 30
0.0
  0
XRECORD
  5
12523
102
{ACAD_REACTORS
330
1250F
102
}
330
1250F
100
AcDbXrecord
 10
0.0
 20
0.0
 30
0.0
  0
XRECORD
  5
12524
102
{ACAD_REACTORS
330
1250F
102
}
330
1250F
100
AcDbXrecord
 10
0.0
 20
0.0
 30
0.0
  0
XRECORD
  5
12525
102
{ACAD_REACTORS
330
1250F
102
}
330
1250F
100
AcDbXrecord
 10
0.0
 20
0.0
 30
0.0
  0
XRECORD
  5
12526
102
{ACAD_REACTORS
330
1250F
102
}
330
1250F
100
AcDbXrecord
 10
0.0
 20
0.0
 30
0.0
  0
XRECORD
  5
12527
102
{ACAD_REACTORS
330
1250F
102
}
330
1250F
100
AcDbXrecord
340
0
  0
XRECORD
  5
12528
102
{ACAD_REACTORS
330
1250F
102
}
330
1250F
100
AcDbXrecord
 70
     0
  0
XRECORD
  5
12529
102
{ACAD_REACTORS
330
1250F
102
}
330
1250F
100
AcDbXrecord
340
0
  0
XRECORD
  5
1252A
102
{ACAD_REACTORS
330
1250F
102
}
330
1250F
100
AcDbXrecord
 10
0.0
 20
0.0
 30
0.0
  0
XRECORD
  5
1252B
102
{ACAD_REACTORS
330
1250F
102
}
330
1250F
100
AcDbXrecord
 10
0.0
 20
0.0
 30
0.0
  0
XRECORD
  5
1252C
102
{ACAD_REACTORS
330
1250F
102
}
330
1250F
100
AcDbXrecord
 10
0.0
 20
0.0
 30
0.0
  0
XRECORD
  5
1252D
102
{ACAD_REACTORS
330
1250F
102
}
330
1250F
100
AcDbXrecord
 10
0.0
 20
0.0
 30
0.0
  0
XRECORD
  5
1252E
102
{ACAD_REACTORS
330
1250F
102
}
330
1250F
100
AcDbXrecord
 10
0.0
 20
0.0
 30
0.0
  0
XRECORD
  5
1252F
102
{ACAD_REACTORS
330
1250F
102
}
330
1250F
100
AcDbXrecord
 10
0.0
 20
0.0
 30
0.0
  0
ENDSEC
  0
EOF
