  0
SECTION
  2
HEADER
  9
$ACADVER
  1
AC1009
  9
$INSBASE
 10
0.0
 20
0.0
 30
0.0
  9
$EXTMIN
 10
0.0
 20
0.0
 30
0.0
  9
$EXTMAX
 10
15.18
 20
23.25
 30
0.0
  9
$LIMMIN
 10
0.0
 20
0.0
  9
$LIMMAX
 10
75.0
 20
50.0
  9
$ORTHOMODE
 70
     1
  9
$REGENMODE
 70
     1
  9
$FILLMODE
 70
     1
  9
$QTEXTMODE
 70
     0
  9
$MIRRTEXT
 70
     0
  9
$DRAGMODE
 70
     2
  9
$LTSCALE
 40
0.5
  9
$OSMODE
 70
     0
  9
$ATTMODE
 70
     1
  9
$TEXTSIZE
 40
0.188
  9
$TRACEWID
 40
0.05
  9
$TEXTSTYLE
  7
TXT
  9
$CLAYER
  8
DIM
  9
$CELTYPE
  6
BYLAYER
  9
$CECOLOR
 62
   256
  9
$DIMSCALE
 40
1.5
  9
$DIMASZ
 40
0.18
  9
$DIMEXO
 40
0.063
  9
$DIMDLI
 40
0.281
  9
$DIMRND
 40
0.0
  9
$DIMDLE
 40
0.0
  9
$DIMEXE
 40
0.093
  9
$DIMTP
 40
0.0
  9
$DIMTM
 40
0.0
  9
$DIMTXT
 40
0.125
  9
$DIMCEN
 40
0.09
  9
$DIMTSZ
 40
0.0
  9
$DIMTOL
 70
     0
  9
$DIMLIM
 70
     0
  9
$DIMTIH
 70
     1
  9
$DIMTOH
 70
     1
  9
$DIMSE1
 70
     0
  9
$DIMSE2
 70
     0
  9
$DIMTAD
 70
     0
  9
$DIMZIN
 70
     0
  9
$DIMBLK
  1

  9
$DIMASO
 70
     1
  9
$DIMSHO
 70
     1
  9
$DIMPOST
  1

  9
$DIMAPOST
  1

  9
$DIMALT
 70
     0
  9
$DIMALTD
 70
     2
  9
$DIMALTF
 40
25.4
  9
$DIMLFAC
 40
1.0
  9
$DIMTOFL
 70
     0
  9
$DIMTVP
 40
0.0
  9
$DIMTIX
 70
     0
  9
$DIMSOXD
 70
     0
  9
$DIMSAH
 70
     0
  9
$DIMBLK1
  1

  9
$DIMBLK2
  1

  9
$DIMSTYLE
  2
23NSTD
  9
$DIMCLRD
 70
     0
  9
$DIMCLRE
 70
     0
  9
$DIMCLRT
 70
     0
  9
$DIMTFAC
 40
1.0
  9
$DIMGAP
 40
0.09
  9
$LUNITS
 70
     2
  9
$LUPREC
 70
     3
  9
$SKETCHINC
 40
0.1
  9
$FILLETRAD
 40
0.0
  9
$AUNITS
 70
     0
  9
$AUPREC
 70
     0
  9
$MENU
  1
acad
  9
$ELEVATION
 40
0.0
  9
$PELEVATION
 40
0.0
  9
$THICKNESS
 40
0.0
  9
$LIMCHECK
 70
     0
  9
$BLIPMODE
 70
     1
  9
$CHAMFERA
 40
0.0
  9
$CHAMFERB
 40
0.0
  9
$SKPOLY
 70
     0
  9
$TDCREATE
 40
2450186.434615740
  9
$TDUPDATE
 40
2450189.364945486
  9
$TDINDWG
 40
0.0355109954
  9
$TDUSRTIMER
 40
0.0355109954
  9
$USRTIMER
 70
     1
  9
$ANGBASE
 50
0.0
  9
$ANGDIR
 70
     0
  9
$PDMODE
 70
     0
  9
$PDSIZE
 40
0.0
  9
$PLINEWID
 40
0.0
  9
$COORDS
 70
     0
  9
$SPLFRAME
 70
     0
  9
$SPLINETYPE
 70
     6
  9
$SPLINESEGS
 70
     8
  9
$ATTDIA
 70
     0
  9
$ATTREQ
 70
     1
  9
$HANDLING
 70
     0
  9
$HANDSEED
  5
0
  9
$SURFTAB1
 70
     6
  9
$SURFTAB2
 70
     6
  9
$SURFTYPE
 70
     6
  9
$SURFU
 70
     6
  9
$SURFV
 70
     6
  9
$UCSNAME
  2

  9
$UCSORG
 10
0.0
 20
0.0
 30
0.0
  9
$UCSXDIR
 10
1.0
 20
0.0
 30
0.0
  9
$UCSYDIR
 10
0.0
 20
1.0
 30
0.0
  9
$PUCSNAME
  2

  9
$PUCSORG
 10
0.0
 20
0.0
 30
0.0
  9
$PUCSXDIR
 10
1.0
 20
0.0
 30
0.0
  9
$PUCSYDIR
 10
0.0
 20
1.0
 30
0.0
  9
$USERI1
 70
     0
  9
$USERI2
 70
     0
  9
$USERI3
 70
     0
  9
$USERI4
 70
     0
  9
$USERI5
 70
     0
  9
$USERR1
 40
0.0
  9
$USERR2
 40
0.0
  9
$USERR3
 40
0.0
  9
$USERR4
 40
0.0
  9
$USERR5
 40
0.0
  9
$WORLDVIEW
 70
     1
  9
$SHADEDGE
 70
     3
  9
$SHADEDIF
 70
    70
  9
$TILEMODE
 70
     1
  9
$MAXACTVP
 70
    16
  9
$PINSBASE
 10
0.0
 20
0.0
 30
0.0
  9
$PLIMCHECK
 70
     0
  9
$PEXTMIN
 10
1.000000E+20
 20
1.000000E+20
 30
1.000000E+20
  9
$PEXTMAX
 10
-1.000000E+20
 20
-1.000000E+20
 30
-1.000000E+20
  9
$PLIMMIN
 10
0.0
 20
0.0
  9
$PLIMMAX
 10
12.0
 20
9.0
  9
$UNITMODE
 70
     0
  9
$VISRETAIN
 70
     0
  9
$PLINEGEN
 70
     0
  9
$PSLTSCALE
 70
     1
  9
$TREEDEPTH
 70
  3020
  9
$DWGCODEPAGE
  3
ascii
  0
ENDSEC
  0
SECTION
  2
TABLES
  0
TABLE
  2
VPORT
 70
     2
  0
VPORT
  2
*ACTIVE
 70
     0
 10
0.0
 20
0.0
 11
1.0
 21
1.0
 12
15.837197
 22
11.625
 13
0.0
 23
0.0
 14
1.0
 24
1.0
 15
0.0
 25
0.0
 16
0.0
 26
0.0
 36
1.0
 17
0.0
 27
0.0
 37
0.0
 40
23.25
 41
1.36234
 42
50.0
 43
0.0
 44
0.0
 50
0.0
 51
0.0
 71
     0
 72
   100
 73
     1
 74
     0
 75
     0
 76
     0
 77
     0
 78
     0
  0
ENDTAB
  0
TABLE
  2
LTYPE
 70
     4
  0
LTYPE
  2
CONTINUOUS
 70
    64
  3
Solid line
 72
    65
 73
     0
 40
0.0
  0
LTYPE
  2
HIDDEN
 70
    64
  3
_ _ _ _ _ _ _ _ _ _ _ _ _ _ _ _ _ _ _ _ _ _ _
 72
    65
 73
     2
 40
0.375
 49
0.25
 49
-0.125
  0
LTYPE
  2
PHANTOM
 70
    64
  3
_____ _ _ _____ _ _ _____ _ _ _____ _ _ ____
 72
    65
 73
     6
 40
2.5
 49
1.25
 49
-0.25
 49
0.25
 49
-0.25
 49
0.25
 49
-0.25
  0
LTYPE
  2
CENTER
 70
    64
  3
____ _ ____ _ ____ _ ____ _ ____ _ ____ _ ____
 72
    65
 73
     4
 40
2.0
 49
1.25
 49
-0.25
 49
0.25
 49
-0.25
  0
ENDTAB
  0
TABLE
  2
LAYER
 70
     9
  0
LAYER
  2
0
 70
    64
 62
     7
  6
CONTINUOUS
  0
LAYER
  2
OBJECT
 70
    64
 62
     7
  6
CONTINUOUS
  0
LAYER
  2
DIM
 70
    64
 62
     7
  6
CONTINUOUS
  0
LAYER
  2
HIDDEN
 70
    64
 62
     7
  6
HIDDEN
  0
LAYER
  2
BEND
 70
    64
 62
     7
  6
PHANTOM
  0
LAYER
  2
TEXT
 70
    64
 62
     7
  6
CONTINUOUS
  0
LAYER
  2
TITLE
 70
    64
 62
     7
  6
CONTINUOUS
  0
LAYER
  2
CENTER
 70
    64
 62
     7
  6
CENTER
  0
LAYER
  2
DEFPOINTS
 70
    64
 62
     7
  6
CONTINUOUS
  0
ENDTAB
  0
TABLE
  2
STYLE
 70
     2
  0
STYLE
  2
STANDARD
 70
    64
 40
0.0
 41
1.0
 50
0.0
 71
     0
 42
0.2
  3
txt
  4

  0
STYLE
  2
TXT
 70
    64
 40
0.0
 41
0.75
 50
0.0
 71
     0
 42
0.188
  3
TXT.shx
  4

  0
ENDTAB
  0
TABLE
  2
VIEW
 70
     0
  0
ENDTAB
  0
TABLE
  2
UCS
 70
     0
  0
ENDTAB
  0
TABLE
  2
APPID
 70
     1
  0
APPID
  2
ACAD
 70
    64
  0
ENDTAB
  0
TABLE
  2
DIMSTYLE
 70
     2
  0
DIMSTYLE
  2
23NSTD
 70
    64
  3

  4

  5

  6

  7

 40
1.5
 41
0.18
 42
0.063
 43
0.281
 44
0.093
 45
0.0
 46
0.0
 47
0.0
 48
0.0
140
0.125
141
0.09
142
0.0
143
25.4
144
1.0
145
0.0
146
1.0
147
0.09
 71
     0
 72
     0
 73
     1
 74
     1
 75
     0
 76
     0
 77
     0
 78
     0
170
     0
171
     2
172
     0
173
     0
174
     0
175
     0
176
     0
177
     0
178
     0
  0
DIMSTYLE
  2
23NSTDI
 70
    64
  3

  4

  5

  6

  7

 40
1.5
 41
0.18
 42
0.063
 43
0.281
 44
0.093
 45
0.0
 46
0.0
 47
0.0
 48
0.0
140
0.125
141
0.09
142
0.0
143
25.4
144
1.0
145
0.0
146
1.0
147
0.09
 71
     0
 72
     0
 73
     1
 74
     1
 75
     0
 76
     0
 77
     0
 78
     0
170
     0
171
     2
172
     0
173
     0
174
     1
175
     0
176
     0
177
     0
178
     0
  0
ENDTAB
  0
ENDSEC
  0
SECTION
  2
BLOCKS
  0
BLOCK
  8
0
  2
HB
 70
    64
 10
0.0
 20
0.0
 30
0.0
  3
HB
  0
TEXT
  8
TEXT
 10
0.207833
 20
15.060079
 30
0.0
 40
0.125
  1
NAME
 72
     1
 11
0.437
 21
15.060079
 31
0.0
  0
TEXT
  8
TEXT
 10
0.207833
 20
15.268413
 30
0.0
 40
0.125
  1
PART
 72
     1
 11
0.437
 21
15.268413
 31
0.0
  0
TEXT
  8
TEXT
 10
5.372
 20
15.060079
 30
0.0
 40
0.125
  1
No.
 72
     1
 11
5.497
 21
15.060079
 31
0.0
  0
TEXT
  8
TEXT
 10
5.267833
 20
15.268413
 30
0.0
 40
0.125
  1
PART
 72
     1
 11
5.497
 21
15.268413
 31
0.0
  0
LINE
  8
TITLE
 10
5.872
 20
15.438
 30
0.0
 11
5.872
 21
15.02
 31
0.0
  0
LINE
  8
TITLE
 10
5.122
 20
15.438
 30
0.0
 11
5.122
 21
15.02
 31
0.0
  0
LINE
  8
TITLE
 10
5.06
 20
15.438
 30
0.0
 11
5.06
 21
15.02
 31
0.0
  0
LINE
  8
TITLE
 10
0.812
 20
15.02
 30
0.0
 11
0.812
 21
15.438
 31
0.0
  0
LINE
  8
TITLE
 10
0.062
 20
15.02
 30
0.0
 11
10.058
 21
15.02
 31
0.0
  0
LINE
  8
TITLE
 10
10.058
 20
0.062
 30
0.0
 11
0.062
 21
0.062
 31
0.0
  0
LINE
  8
TITLE
 10
10.058
 20
15.438
 30
0.0
 11
10.058
 21
0.062
 31
0.0
  0
LINE
  8
TITLE
 10
0.062
 20
15.438
 30
0.0
 11
10.058
 21
15.438
 31
0.0
  0
LINE
  8
TITLE
 10
0.062
 20
0.062
 30
0.0
 11
0.062
 21
15.438
 31
0.0
  0
LINE
  8
TITLE
 10
0.0
 20
0.0
 30
0.0
 11
0.0
 21
15.5
 31
0.0
  0
LINE
  8
TITLE
 10
10.12
 20
0.0
 30
0.0
 11
0.0
 21
0.0
 31
0.0
  0
LINE
  8
TITLE
 10
10.12
 20
15.5
 30
0.0
 11
10.12
 21
0.0
 31
0.0
  0
LINE
  8
TITLE
 10
0.0
 20
15.5
 30
0.0
 11
10.12
 21
15.5
 31
0.0
  0
ENDBLK
  8
0
  0
BLOCK
  8
0
  2
*D1
 70
    65
 10
0.0
 20
0.0
 30
0.0
  3
*D
  0
LINE
  8
0
  6
BYBLOCK
 62
     0
 10
2.037145
 20
5.404829
 30
0.0
 11
2.037145
 21
6.699258
 31
0.0
  0
LINE
  8
0
  6
BYBLOCK
 62
     0
 10
4.787145
 20
5.404829
 30
0.0
 11
4.787145
 21
6.699258
 31
0.0
  0
LINE
  8
0
  6
BYBLOCK
 62
     0
 10
2.307145
 20
6.559758
 30
0.0
 11
3.007614
 21
6.559758
 31
0.0
  0
LINE
  8
0
  6
BYBLOCK
 62
     0
 10
4.517145
 20
6.559758
 30
0.0
 11
3.816676
 21
6.559758
 31
0.0
  0
SOLID
  8
0
  6
BYBLOCK
 62
     0
 10
2.307145
 20
6.604758
 30
0.0
 11
2.307145
 21
6.514758
 31
0.0
 12
2.037145
 22
6.559758
 32
0.0
 13
2.037145
 23
6.559758
 33
0.0
  0
SOLID
  8
0
  6
BYBLOCK
 62
     0
 10
4.517145
 20
6.604758
 30
0.0
 11
4.517145
 21
6.514758
 31
0.0
 12
4.787145
 22
6.559758
 32
0.0
 13
4.787145
 23
6.559758
 33
0.0
  0
TEXT
  8
0
  6
BYBLOCK
 62
     0
 10
3.142614
 20
6.466008
 30
0.0
 40
0.1875
  1
2.750
 41
0.75
  7
TXT
 72
     1
 11
3.412145
 21
6.559758
 31
0.0
 73
     2
  0
POINT
  8
DEFPOINTS
  6
BYBLOCK
 62
     0
 10
2.037145
 20
5.310329
 30
0.0
  0
POINT
  8
DEFPOINTS
  6
BYBLOCK
 62
     0
 10
4.787145
 20
5.310329
 30
0.0
  0
POINT
  8
DEFPOINTS
  6
BYBLOCK
 62
     0
 10
4.787145
 20
6.559758
 30
0.0
  0
ENDBLK
  8
0
  0
BLOCK
  8
0
  2
*D2
 70
    65
 10
0.0
 20
0.0
 30
0.0
  3
*D
  0
LINE
  8
0
  6
BYBLOCK
 62
     0
 10
2.412145
 20
4.654829
 30
0.0
 11
2.412145
 21
6.188196
 31
0.0
  0
LINE
  8
0
  6
BYBLOCK
 62
     0
 10
2.037145
 20
5.404829
 30
0.0
 11
2.037145
 21
6.188196
 31
0.0
  0
LINE
  8
0
  6
BYBLOCK
 62
     0
 10
2.682145
 20
6.048696
 30
0.0
 11
2.952145
 21
6.048696
 31
0.0
  0
LINE
  8
0
  6
BYBLOCK
 62
     0
 10
1.767145
 20
6.048696
 30
0.0
 11
1.497145
 21
6.048696
 31
0.0
  0
SOLID
  8
0
  6
BYBLOCK
 62
     0
 10
2.682145
 20
6.093696
 30
0.0
 11
2.682145
 21
6.003696
 31
0.0
 12
2.412145
 22
6.048696
 32
0.0
 13
2.412145
 23
6.048696
 33
0.0
  0
SOLID
  8
0
  6
BYBLOCK
 62
     0
 10
1.767145
 20
6.093696
 30
0.0
 11
1.767145
 21
6.003696
 31
0.0
 12
2.037145
 22
6.048696
 32
0.0
 13
2.037145
 23
6.048696
 33
0.0
  0
TEXT
  8
0
  6
BYBLOCK
 62
     0
 10
0.823082
 20
5.954946
 30
0.0
 40
0.1875
  1
0.375
 41
0.75
  7
TXT
 72
     1
 11
1.092614
 21
6.048696
 31
0.0
 73
     2
  0
POINT
  8
DEFPOINTS
  6
BYBLOCK
 62
     0
 10
2.412145
 20
4.560329
 30
0.0
  0
POINT
  8
DEFPOINTS
  6
BYBLOCK
 62
     0
 10
2.037145
 20
5.310329
 30
0.0
  0
POINT
  8
DEFPOINTS
  6
BYBLOCK
 62
     0
 10
2.037145
 20
6.048696
 30
0.0
  0
ENDBLK
  8
0
  0
BLOCK
  8
0
  2
*D3
 70
    65
 10
0.0
 20
0.0
 30
0.0
  3
*D
  0
LINE
  8
0
  6
BYBLOCK
 62
     0
 10
1.942645
 20
5.310329
 30
0.0
 11
0.7416
 21
5.310329
 31
0.0
  0
LINE
  8
0
  6
BYBLOCK
 62
     0
 10
1.942645
 20
3.810329
 30
0.0
 11
0.7416
 21
3.810329
 31
0.0
  0
LINE
  8
0
  6
BYBLOCK
 62
     0
 10
0.8811
 20
5.040329
 30
0.0
 11
0.8811
 21
4.789079
 31
0.0
  0
LINE
  8
0
  6
BYBLOCK
 62
     0
 10
0.8811
 20
4.080329
 30
0.0
 11
0.8811
 21
4.331579
 31
0.0
  0
SOLID
  8
0
  6
BYBLOCK
 62
     0
 10
0.8361
 20
5.040329
 30
0.0
 11
0.9261
 21
5.040329
 31
0.0
 12
0.8811
 22
5.310329
 32
0.0
 13
0.8811
 23
5.310329
 33
0.0
  0
SOLID
  8
0
  6
BYBLOCK
 62
     0
 10
0.8361
 20
4.080329
 30
0.0
 11
0.9261
 21
4.080329
 31
0.0
 12
0.8811
 22
3.810329
 32
0.0
 13
0.8811
 23
3.810329
 33
0.0
  0
TEXT
  8
0
  6
BYBLOCK
 62
     0
 10
0.646725
 20
4.466579
 30
0.0
 40
0.1875
  1
1.500
 41
0.75
  7
TXT
 72
     1
 11
0.8811
 21
4.560329
 31
0.0
 73
     2
  0
POINT
  8
DEFPOINTS
  6
BYBLOCK
 62
     0
 10
2.037145
 20
5.310329
 30
0.0
  0
POINT
  8
DEFPOINTS
  6
BYBLOCK
 62
     0
 10
2.037145
 20
3.810329
 30
0.0
  0
POINT
  8
DEFPOINTS
  6
BYBLOCK
 62
     0
 10
0.8811
 20
3.810329
 30
0.0
  0
ENDBLK
  8
0
  0
BLOCK
  8
0
  2
*D4
 70
    65
 10
0.0
 20
0.0
 30
0.0
  3
*D
  0
LINE
  8
0
  6
BYBLOCK
 62
     0
 10
2.412145
 20
4.654829
 30
0.0
 11
2.412145
 21
6.188196
 31
0.0
  0
LINE
  8
0
  6
BYBLOCK
 62
     0
 10
4.412145
 20
4.654829
 30
0.0
 11
4.412145
 21
6.188196
 31
0.0
  0
LINE
  8
0
  6
BYBLOCK
 62
     0
 10
2.682145
 20
6.048696
 30
0.0
 11
3.031051
 21
6.048696
 31
0.0
  0
LINE
  8
0
  6
BYBLOCK
 62
     0
 10
4.142145
 20
6.048696
 30
0.0
 11
3.793239
 21
6.048696
 31
0.0
  0
SOLID
  8
0
  6
BYBLOCK
 62
     0
 10
2.682145
 20
6.093696
 30
0.0
 11
2.682145
 21
6.003696
 31
0.0
 12
2.412145
 22
6.048696
 32
0.0
 13
2.412145
 23
6.048696
 33
0.0
  0
SOLID
  8
0
  6
BYBLOCK
 62
     0
 10
4.142145
 20
6.093696
 30
0.0
 11
4.142145
 21
6.003696
 31
0.0
 12
4.412145
 22
6.048696
 32
0.0
 13
4.412145
 23
6.048696
 33
0.0
  0
TEXT
  8
0
  6
BYBLOCK
 62
     0
 10
3.166051
 20
5.954946
 30
0.0
 40
0.1875
  1
2.000
 41
0.75
  7
TXT
 72
     1
 11
3.412145
 21
6.048696
 31
0.0
 73
     2
  0
POINT
  8
DEFPOINTS
  6
BYBLOCK
 62
     0
 10
2.412145
 20
4.560329
 30
0.0
  0
POINT
  8
DEFPOINTS
  6
BYBLOCK
 62
     0
 10
4.412145
 20
4.560329
 30
0.0
  0
POINT
  8
DEFPOINTS
  6
BYBLOCK
 62
     0
 10
4.412145
 20
6.048696
 30
0.0
  0
ENDBLK
  8
0
  0
BLOCK
  8
0
  2
*D5
 70
    65
 10
0.0
 20
0.0
 30
0.0
  3
*D
  0
LINE
  8
0
  6
BYBLOCK
 62
     0
 10
4.412145
 20
4.465829
 30
0.0
 11
4.412145
 21
3.085195
 31
0.0
  0
LINE
  8
0
  6
BYBLOCK
 62
     0
 10
4.272145
 20
3.715829
 30
0.0
 11
4.272145
 21
3.085195
 31
0.0
  0
LINE
  8
0
  6
BYBLOCK
 62
     0
 10
4.682145
 20
3.224695
 30
0.0
 11
4.952145
 21
3.224695
 31
0.0
  0
LINE
  8
0
  6
BYBLOCK
 62
     0
 10
4.002145
 20
3.224695
 30
0.0
 11
3.732145
 21
3.224695
 31
0.0
  0
SOLID
  8
0
  6
BYBLOCK
 62
     0
 10
4.682145
 20
3.269695
 30
0.0
 11
4.682145
 21
3.179695
 31
0.0
 12
4.412145
 22
3.224695
 32
0.0
 13
4.412145
 23
3.224695
 33
0.0
  0
SOLID
  8
0
  6
BYBLOCK
 62
     0
 10
4.002145
 20
3.269695
 30
0.0
 11
4.002145
 21
3.179695
 31
0.0
 12
4.272145
 22
3.224695
 32
0.0
 13
4.272145
 23
3.224695
 33
0.0
  0
TEXT
  8
0
  6
BYBLOCK
 62
     0
 10
3.128395
 20
3.130945
 30
0.0
 40
0.1875
  1
0.140
 41
0.75
  7
TXT
 72
     1
 11
3.36277
 21
3.224695
 31
0.0
 73
     2
  0
POINT
  8
DEFPOINTS
  6
BYBLOCK
 62
     0
 10
4.412145
 20
4.560329
 30
0.0
  0
POINT
  8
DEFPOINTS
  6
BYBLOCK
 62
     0
 10
4.272145
 20
3.810329
 30
0.0
  0
POINT
  8
DEFPOINTS
  6
BYBLOCK
 62
     0
 10
4.272145
 20
3.224695
 30
0.0
  0
ENDBLK
  8
0
  0
BLOCK
  8
0
  2
*D6
 70
    65
 10
0.0
 20
0.0
 30
0.0
  3
*D
  0
LINE
  8
0
  6
BYBLOCK
 62
     0
 10
4.552145
 20
3.715829
 30
0.0
 11
4.552145
 21
2.648047
 31
0.0
  0
LINE
  8
0
  6
BYBLOCK
 62
     0
 10
4.272145
 20
3.715829
 30
0.0
 11
4.272145
 21
2.648047
 31
0.0
  0
LINE
  8
0
  6
BYBLOCK
 62
     0
 10
4.822145
 20
2.787547
 30
0.0
 11
5.092145
 21
2.787547
 31
0.0
  0
LINE
  8
0
  6
BYBLOCK
 62
     0
 10
4.002145
 20
2.787547
 30
0.0
 11
3.732145
 21
2.787547
 31
0.0
  0
SOLID
  8
0
  6
BYBLOCK
 62
     0
 10
4.822145
 20
2.832547
 30
0.0
 11
4.822145
 21
2.742547
 31
0.0
 12
4.552145
 22
2.787547
 32
0.0
 13
4.552145
 23
2.787547
 33
0.0
  0
SOLID
  8
0
  6
BYBLOCK
 62
     0
 10
4.002145
 20
2.832547
 30
0.0
 11
4.002145
 21
2.742547
 31
0.0
 12
4.272145
 22
2.787547
 32
0.0
 13
4.272145
 23
2.787547
 33
0.0
  0
TEXT
  8
0
  6
BYBLOCK
 62
     0
 10
3.08152
 20
2.693797
 30
0.0
 40
0.1875
  1
0.280
 41
0.75
  7
TXT
 72
     1
 11
3.339332
 21
2.787547
 31
0.0
 73
     2
  0
POINT
  8
DEFPOINTS
  6
BYBLOCK
 62
     0
 10
4.552145
 20
3.810329
 30
0.0
  0
POINT
  8
DEFPOINTS
  6
BYBLOCK
 62
     0
 10
4.272145
 20
3.810329
 30
0.0
  0
POINT
  8
DEFPOINTS
  6
BYBLOCK
 62
     0
 10
4.272145
 20
2.787547
 30
0.0
  0
ENDBLK
  8
0
  0
BLOCK
  8
0
  2
*D7
 70
    65
 10
0.0
 20
0.0
 30
0.0
  3
*D
  0
LINE
  8
0
  6
BYBLOCK
 62
     0
 10
4.506645
 20
4.700329
 30
0.0
 11
5.445277
 21
4.700329
 31
0.0
  0
LINE
  8
0
  6
BYBLOCK
 62
     0
 10
4.881645
 20
3.810329
 30
0.0
 11
5.445277
 21
3.810329
 31
0.0
  0
LINE
  8
0
  6
BYBLOCK
 62
     0
 10
5.305777
 20
4.970329
 30
0.0
 11
5.305777
 21
5.240329
 31
0.0
  0
LINE
  8
0
  6
BYBLOCK
 62
     0
 10
5.305777
 20
3.540329
 30
0.0
 11
5.305777
 21
3.270329
 31
0.0
  0
SOLID
  8
0
  6
BYBLOCK
 62
     0
 10
5.260777
 20
4.970329
 30
0.0
 11
5.350777
 21
4.970329
 31
0.0
 12
5.305777
 22
4.700329
 32
0.0
 13
5.305777
 23
4.700329
 33
0.0
  0
SOLID
  8
0
  6
BYBLOCK
 62
     0
 10
5.260777
 20
3.540329
 30
0.0
 11
5.350777
 21
3.540329
 31
0.0
 12
5.305777
 22
3.810329
 32
0.0
 13
5.305777
 23
3.810329
 33
0.0
  0
TEXT
  8
0
  6
BYBLOCK
 62
     0
 10
5.047965
 20
4.161579
 30
0.0
 40
0.1875
  1
0.890
 41
0.75
  7
TXT
 72
     1
 11
5.305777
 21
4.255329
 31
0.0
 73
     2
  0
POINT
  8
DEFPOINTS
  6
BYBLOCK
 62
     0
 10
4.412145
 20
4.700329
 30
0.0
  0
POINT
  8
DEFPOINTS
  6
BYBLOCK
 62
     0
 10
4.787145
 20
3.810329
 30
0.0
  0
POINT
  8
DEFPOINTS
  6
BYBLOCK
 62
     0
 10
5.305777
 20
3.810329
 30
0.0
  0
ENDBLK
  8
0
  0
BLOCK
  8
0
  2
*D8
 70
    65
 10
0.0
 20
0.0
 30
0.0
  3
*D
  0
LINE
  8
0
  6
BYBLOCK
 62
     0
 10
4.317645
 20
4.560329
 30
0.0
 11
1.339427
 21
4.560329
 31
0.0
  0
LINE
  8
0
  6
BYBLOCK
 62
     0
 10
1.942645
 20
5.310329
 30
0.0
 11
1.339427
 21
5.310329
 31
0.0
  0
LINE
  8
0
  6
BYBLOCK
 62
     0
 10
1.478927
 20
4.290329
 30
0.0
 11
1.478927
 21
4.020329
 31
0.0
  0
LINE
  8
0
  6
BYBLOCK
 62
     0
 10
1.478927
 20
5.580329
 30
0.0
 11
1.478927
 21
5.850329
 31
0.0
  0
SOLID
  8
0
  6
BYBLOCK
 62
     0
 10
1.433927
 20
4.290329
 30
0.0
 11
1.523927
 21
4.290329
 31
0.0
 12
1.478927
 22
4.560329
 32
0.0
 13
1.478927
 23
4.560329
 33
0.0
  0
SOLID
  8
0
  6
BYBLOCK
 62
     0
 10
1.433927
 20
5.580329
 30
0.0
 11
1.523927
 21
5.580329
 31
0.0
 12
1.478927
 22
5.310329
 32
0.0
 13
1.478927
 23
5.310329
 33
0.0
  0
TEXT
  8
0
  6
BYBLOCK
 62
     0
 10
1.221114
 20
4.841579
 30
0.0
 40
0.1875
  1
0.750
 41
0.75
  7
TXT
 72
     1
 11
1.478927
 21
4.935329
 31
0.0
 73
     2
  0
POINT
  8
DEFPOINTS
  6
BYBLOCK
 62
     0
 10
4.412145
 20
4.560329
 30
0.0
  0
POINT
  8
DEFPOINTS
  6
BYBLOCK
 62
     0
 10
2.037145
 20
5.310329
 30
0.0
  0
POINT
  8
DEFPOINTS
  6
BYBLOCK
 62
     0
 10
1.478927
 20
5.310329
 30
0.0
  0
ENDBLK
  8
0
  0
BLOCK
  8
0
  2
*D9
 70
    65
 10
0.0
 20
0.0
 30
0.0
  3
*D
  0
LINE
  8
0
  6
BYBLOCK
 62
     0
 10
4.912145
 20
17.181004
 30
0.0
 11
4.912145
 21
17.719341
 31
0.0
  0
LINE
  8
0
  6
BYBLOCK
 62
     0
 10
1.912145
 20
17.181004
 30
0.0
 11
1.912145
 21
17.719341
 31
0.0
  0
LINE
  8
0
  6
BYBLOCK
 62
     0
 10
4.642145
 20
17.579841
 30
0.0
 11
3.793239
 21
17.579841
 31
0.0
  0
LINE
  8
0
  6
BYBLOCK
 62
     0
 10
2.182145
 20
17.579841
 30
0.0
 11
3.031051
 21
17.579841
 31
0.0
  0
SOLID
  8
0
  6
BYBLOCK
 62
     0
 10
4.642145
 20
17.624841
 30
0.0
 11
4.642145
 21
17.534841
 31
0.0
 12
4.912145
 22
17.579841
 32
0.0
 13
4.912145
 23
17.579841
 33
0.0
  0
SOLID
  8
0
  6
BYBLOCK
 62
     0
 10
2.182145
 20
17.624841
 30
0.0
 11
2.182145
 21
17.534841
 31
0.0
 12
1.912145
 22
17.579841
 32
0.0
 13
1.912145
 23
17.579841
 33
0.0
  0
TEXT
  8
0
  6
BYBLOCK
 62
     0
 10
3.166051
 20
17.486091
 30
0.0
 40
0.1875
  1
3.000
 41
0.75
  7
TXT
 72
     1
 11
3.412145
 21
17.579841
 31
0.0
 73
     2
  0
POINT
  8
DEFPOINTS
  6
BYBLOCK
 62
     0
 10
4.912145
 20
17.086504
 30
0.0
  0
POINT
  8
DEFPOINTS
  6
BYBLOCK
 62
     0
 10
1.912145
 20
17.086504
 30
0.0
  0
POINT
  8
DEFPOINTS
  6
BYBLOCK
 62
     0
 10
1.912145
 20
17.579841
 30
0.0
  0
ENDBLK
  8
0
  0
BLOCK
  8
0
  2
*D10
 70
    65
 10
0.0
 20
0.0
 30
0.0
  3
*D
  0
LINE
  8
0
  6
BYBLOCK
 62
     0
 10
2.662145
 20
12.992004
 30
0.0
 11
2.662145
 21
12.403848
 31
0.0
  0
LINE
  8
0
  6
BYBLOCK
 62
     0
 10
1.912145
 20
12.992004
 30
0.0
 11
1.912145
 21
12.403848
 31
0.0
  0
LINE
  8
0
  6
BYBLOCK
 62
     0
 10
2.932145
 20
12.543348
 30
0.0
 11
3.202145
 21
12.543348
 31
0.0
  0
LINE
  8
0
  6
BYBLOCK
 62
     0
 10
1.642145
 20
12.543348
 30
0.0
 11
1.372145
 21
12.543348
 31
0.0
  0
SOLID
  8
0
  6
BYBLOCK
 62
     0
 10
2.932145
 20
12.588348
 30
0.0
 11
2.932145
 21
12.498348
 31
0.0
 12
2.662145
 22
12.543348
 32
0.0
 13
2.662145
 23
12.543348
 33
0.0
  0
SOLID
  8
0
  6
BYBLOCK
 62
     0
 10
1.642145
 20
12.588348
 30
0.0
 11
1.642145
 21
12.498348
 31
0.0
 12
1.912145
 22
12.543348
 32
0.0
 13
1.912145
 23
12.543348
 33
0.0
  0
TEXT
  8
0
  6
BYBLOCK
 62
     0
 10
2.029332
 20
12.449598
 30
0.0
 40
0.1875
  1
0.750
 41
0.75
  7
TXT
 72
     1
 11
2.287145
 21
12.543348
 31
0.0
 73
     2
  0
POINT
  8
DEFPOINTS
  6
BYBLOCK
 62
     0
 10
2.662145
 20
13.086504
 30
0.0
  0
POINT
  8
DEFPOINTS
  6
BYBLOCK
 62
     0
 10
1.912145
 20
13.086504
 30
0.0
  0
POINT
  8
DEFPOINTS
  6
BYBLOCK
 62
     0
 10
1.912145
 20
12.543348
 30
0.0
  0
ENDBLK
  8
0
  0
BLOCK
  8
0
  2
*D11
 70
    65
 10
0.0
 20
0.0
 30
0.0
  3
*D
  0
LINE
  8
0
  6
BYBLOCK
 62
     0
 10
4.162145
 20
12.992004
 30
0.0
 11
4.162145
 21
12.403848
 31
0.0
  0
LINE
  8
0
  6
BYBLOCK
 62
     0
 10
4.912145
 20
12.992004
 30
0.0
 11
4.912145
 21
12.403848
 31
0.0
  0
LINE
  8
0
  6
BYBLOCK
 62
     0
 10
3.892145
 20
12.543348
 30
0.0
 11
3.622145
 21
12.543348
 31
0.0
  0
LINE
  8
0
  6
BYBLOCK
 62
     0
 10
5.182145
 20
12.543348
 30
0.0
 11
5.452145
 21
12.543348
 31
0.0
  0
SOLID
  8
0
  6
BYBLOCK
 62
     0
 10
3.892145
 20
12.588348
 30
0.0
 11
3.892145
 21
12.498348
 31
0.0
 12
4.162145
 22
12.543348
 32
0.0
 13
4.162145
 23
12.543348
 33
0.0
  0
SOLID
  8
0
  6
BYBLOCK
 62
     0
 10
5.182145
 20
12.588348
 30
0.0
 11
5.182145
 21
12.498348
 31
0.0
 12
4.912145
 22
12.543348
 32
0.0
 13
4.912145
 23
12.543348
 33
0.0
  0
TEXT
  8
0
  6
BYBLOCK
 62
     0
 10
4.279332
 20
12.449598
 30
0.0
 40
0.1875
  1
0.750
 41
0.75
  7
TXT
 72
     1
 11
4.537145
 21
12.543348
 31
0.0
 73
     2
  0
POINT
  8
DEFPOINTS
  6
BYBLOCK
 62
     0
 10
4.162145
 20
13.086504
 30
0.0
  0
POINT
  8
DEFPOINTS
  6
BYBLOCK
 62
     0
 10
4.912145
 20
13.086504
 30
0.0
  0
POINT
  8
DEFPOINTS
  6
BYBLOCK
 62
     0
 10
4.912145
 20
12.543348
 30
0.0
  0
ENDBLK
  8
0
  0
BLOCK
  8
0
  2
*D12
 70
    65
 10
0.0
 20
0.0
 30
0.0
  3
*D
  0
LINE
  8
0
  6
BYBLOCK
 62
     0
 10
12.147942
 20
9.685231
 30
0.0
 11
12.147942
 21
8.698336
 31
0.0
  0
LINE
  8
0
  6
BYBLOCK
 62
     0
 10
13.647942
 20
9.685231
 30
0.0
 11
13.647942
 21
8.698336
 31
0.0
  0
LINE
  8
0
  6
BYBLOCK
 62
     0
 10
11.877942
 20
8.837836
 30
0.0
 11
11.607942
 21
8.837836
 31
0.0
  0
LINE
  8
0
  6
BYBLOCK
 62
     0
 10
13.917942
 20
8.837836
 30
0.0
 11
14.187942
 21
8.837836
 31
0.0
  0
SOLID
  8
0
  6
BYBLOCK
 62
     0
 10
11.877942
 20
8.882836
 30
0.0
 11
11.877942
 21
8.792836
 31
0.0
 12
12.147942
 22
8.837836
 32
0.0
 13
12.147942
 23
8.837836
 33
0.0
  0
SOLID
  8
0
  6
BYBLOCK
 62
     0
 10
13.917942
 20
8.882836
 30
0.0
 11
13.917942
 21
8.792836
 31
0.0
 12
13.647942
 22
8.837836
 32
0.0
 13
13.647942
 23
8.837836
 33
0.0
  0
TEXT
  8
0
  6
BYBLOCK
 62
     0
 10
12.663567
 20
8.744086
 30
0.0
 40
0.1875
  1
1.500
 41
0.75
  7
TXT
 72
     1
 11
12.897942
 21
8.837836
 31
0.0
 73
     2
  0
POINT
  8
DEFPOINTS
  6
BYBLOCK
 62
     0
 10
12.147942
 20
9.779731
 30
0.0
  0
POINT
  8
DEFPOINTS
  6
BYBLOCK
 62
     0
 10
13.647942
 20
9.779731
 30
0.0
  0
POINT
  8
DEFPOINTS
  6
BYBLOCK
 62
     0
 10
13.647942
 20
8.837836
 30
0.0
  0
ENDBLK
  8
0
  0
BLOCK
  8
0
  2
*D13
 70
    65
 10
0.0
 20
0.0
 30
0.0
  3
*D
  0
LINE
  8
0
  6
BYBLOCK
 62
     0
 10
12.147942
 20
9.685231
 30
0.0
 11
12.147942
 21
8.202599
 31
0.0
  0
LINE
  8
0
  6
BYBLOCK
 62
     0
 10
11.397942
 20
9.310231
 30
0.0
 11
11.397942
 21
8.202599
 31
0.0
  0
LINE
  8
0
  6
BYBLOCK
 62
     0
 10
12.417942
 20
8.342099
 30
0.0
 11
12.687942
 21
8.342099
 31
0.0
  0
LINE
  8
0
  6
BYBLOCK
 62
     0
 10
11.127942
 20
8.342099
 30
0.0
 11
10.857942
 21
8.342099
 31
0.0
  0
SOLID
  8
0
  6
BYBLOCK
 62
     0
 10
12.417942
 20
8.387099
 30
0.0
 11
12.417942
 21
8.297099
 31
0.0
 12
12.147942
 22
8.342099
 32
0.0
 13
12.147942
 23
8.342099
 33
0.0
  0
SOLID
  8
0
  6
BYBLOCK
 62
     0
 10
11.127942
 20
8.387099
 30
0.0
 11
11.127942
 21
8.297099
 31
0.0
 12
11.397942
 22
8.342099
 32
0.0
 13
11.397942
 23
8.342099
 33
0.0
  0
TEXT
  8
0
  6
BYBLOCK
 62
     0
 10
11.515129
 20
8.248349
 30
0.0
 40
0.1875
  1
0.750
 41
0.75
  7
TXT
 72
     1
 11
11.772942
 21
8.342099
 31
0.0
 73
     2
  0
POINT
  8
DEFPOINTS
  6
BYBLOCK
 62
     0
 10
12.147942
 20
9.779731
 30
0.0
  0
POINT
  8
DEFPOINTS
  6
BYBLOCK
 62
     0
 10
11.397942
 20
9.404731
 30
0.0
  0
POINT
  8
DEFPOINTS
  6
BYBLOCK
 62
     0
 10
11.397942
 20
8.342099
 30
0.0
  0
ENDBLK
  8
0
  0
BLOCK
  8
0
  2
*D14
 70
    65
 10
0.0
 20
0.0
 30
0.0
  3
*D
  0
LINE
  8
0
  6
BYBLOCK
 62
     0
 10
2.412145
 20
10.249231
 30
0.0
 11
2.412145
 21
11.579952
 31
0.0
  0
LINE
  8
0
  6
BYBLOCK
 62
     0
 10
1.912145
 20
10.999231
 30
0.0
 11
1.912145
 21
11.579952
 31
0.0
  0
LINE
  8
0
  6
BYBLOCK
 62
     0
 10
2.682145
 20
11.440452
 30
0.0
 11
2.952145
 21
11.440452
 31
0.0
  0
LINE
  8
0
  6
BYBLOCK
 62
     0
 10
1.642145
 20
11.440452
 30
0.0
 11
1.372145
 21
11.440452
 31
0.0
  0
SOLID
  8
0
  6
BYBLOCK
 62
     0
 10
2.682145
 20
11.485452
 30
0.0
 11
2.682145
 21
11.395452
 31
0.0
 12
2.412145
 22
11.440452
 32
0.0
 13
2.412145
 23
11.440452
 33
0.0
  0
SOLID
  8
0
  6
BYBLOCK
 62
     0
 10
1.642145
 20
11.485452
 30
0.0
 11
1.642145
 21
11.395452
 31
0.0
 12
1.912145
 22
11.440452
 32
0.0
 13
1.912145
 23
11.440452
 33
0.0
  0
TEXT
  8
0
  6
BYBLOCK
 62
     0
 10
0.744957
 20
11.346702
 30
0.0
 40
0.1875
  1
0.500
 41
0.75
  7
TXT
 72
     1
 11
0.991051
 21
11.440452
 31
0.0
 73
     2
  0
POINT
  8
DEFPOINTS
  6
BYBLOCK
 62
     0
 10
2.412145
 20
10.154731
 30
0.0
  0
POINT
  8
DEFPOINTS
  6
BYBLOCK
 62
     0
 10
1.912145
 20
10.904731
 30
0.0
  0
POINT
  8
DEFPOINTS
  6
BYBLOCK
 62
     0
 10
1.912145
 20
11.440452
 30
0.0
  0
ENDBLK
  8
0
  0
BLOCK
  8
0
  2
*D15
 70
    65
 10
0.0
 20
0.0
 30
0.0
  3
*D
  0
LINE
  8
0
  6
BYBLOCK
 62
     0
 10
4.412145
 20
10.249231
 30
0.0
 11
4.412145
 21
11.579952
 31
0.0
  0
LINE
  8
0
  6
BYBLOCK
 62
     0
 10
2.412145
 20
10.249231
 30
0.0
 11
2.412145
 21
11.579952
 31
0.0
  0
LINE
  8
0
  6
BYBLOCK
 62
     0
 10
4.142145
 20
11.440452
 30
0.0
 11
3.793239
 21
11.440452
 31
0.0
  0
LINE
  8
0
  6
BYBLOCK
 62
     0
 10
2.682145
 20
11.440452
 30
0.0
 11
3.031051
 21
11.440452
 31
0.0
  0
SOLID
  8
0
  6
BYBLOCK
 62
     0
 10
4.142145
 20
11.485452
 30
0.0
 11
4.142145
 21
11.395452
 31
0.0
 12
4.412145
 22
11.440452
 32
0.0
 13
4.412145
 23
11.440452
 33
0.0
  0
SOLID
  8
0
  6
BYBLOCK
 62
     0
 10
2.682145
 20
11.485452
 30
0.0
 11
2.682145
 21
11.395452
 31
0.0
 12
2.412145
 22
11.440452
 32
0.0
 13
2.412145
 23
11.440452
 33
0.0
  0
TEXT
  8
0
  6
BYBLOCK
 62
     0
 10
3.166051
 20
11.346702
 30
0.0
 40
0.1875
  1
2.000
 41
0.75
  7
TXT
 72
     1
 11
3.412145
 21
11.440452
 31
0.0
 73
     2
  0
POINT
  8
DEFPOINTS
  6
BYBLOCK
 62
     0
 10
4.412145
 20
10.154731
 30
0.0
  0
POINT
  8
DEFPOINTS
  6
BYBLOCK
 62
     0
 10
2.412145
 20
10.154731
 30
0.0
  0
POINT
  8
DEFPOINTS
  6
BYBLOCK
 62
     0
 10
2.412145
 20
11.440452
 30
0.0
  0
ENDBLK
  8
0
  0
BLOCK
  8
0
  2
*D16
 70
    65
 10
0.0
 20
0.0
 30
0.0
  3
*D
  0
LINE
  8
0
  6
BYBLOCK
 62
     0
 10
11.897942
 20
10.249231
 30
0.0
 11
11.897942
 21
11.579952
 31
0.0
  0
LINE
  8
0
  6
BYBLOCK
 62
     0
 10
13.897942
 20
10.249231
 30
0.0
 11
13.897942
 21
11.579952
 31
0.0
  0
LINE
  8
0
  6
BYBLOCK
 62
     0
 10
12.167942
 20
11.440452
 30
0.0
 11
12.516848
 21
11.440452
 31
0.0
  0
LINE
  8
0
  6
BYBLOCK
 62
     0
 10
13.627942
 20
11.440452
 30
0.0
 11
13.279036
 21
11.440452
 31
0.0
  0
SOLID
  8
0
  6
BYBLOCK
 62
     0
 10
12.167942
 20
11.485452
 30
0.0
 11
12.167942
 21
11.395452
 31
0.0
 12
11.897942
 22
11.440452
 32
0.0
 13
11.897942
 23
11.440452
 33
0.0
  0
SOLID
  8
0
  6
BYBLOCK
 62
     0
 10
13.627942
 20
11.485452
 30
0.0
 11
13.627942
 21
11.395452
 31
0.0
 12
13.897942
 22
11.440452
 32
0.0
 13
13.897942
 23
11.440452
 33
0.0
  0
TEXT
  8
0
  6
BYBLOCK
 62
     0
 10
12.651848
 20
11.346702
 30
0.0
 40
0.1875
  1
2.000
 41
0.75
  7
TXT
 72
     1
 11
12.897942
 21
11.440452
 31
0.0
 73
     2
  0
POINT
  8
DEFPOINTS
  6
BYBLOCK
 62
     0
 10
11.897942
 20
10.154731
 30
0.0
  0
POINT
  8
DEFPOINTS
  6
BYBLOCK
 62
     0
 10
13.897942
 20
10.154731
 30
0.0
  0
POINT
  8
DEFPOINTS
  6
BYBLOCK
 62
     0
 10
13.897942
 20
11.440452
 30
0.0
  0
ENDBLK
  8
0
  0
BLOCK
  8
0
  2
*D17
 70
    65
 10
0.0
 20
0.0
 30
0.0
  3
*D
  0
LINE
  8
0
  6
BYBLOCK
 62
     0
 10
1.817645
 20
9.404731
 30
0.0
 11
1.256362
 21
9.404731
 31
0.0
  0
LINE
  8
0
  6
BYBLOCK
 62
     0
 10
1.817645
 20
10.904731
 30
0.0
 11
1.256362
 21
10.904731
 31
0.0
  0
LINE
  8
0
  6
BYBLOCK
 62
     0
 10
1.395862
 20
9.674731
 30
0.0
 11
1.395862
 21
9.925981
 31
0.0
  0
LINE
  8
0
  6
BYBLOCK
 62
     0
 10
1.395862
 20
10.634731
 30
0.0
 11
1.395862
 21
10.383481
 31
0.0
  0
SOLID
  8
0
  6
BYBLOCK
 62
     0
 10
1.350862
 20
9.674731
 30
0.0
 11
1.440862
 21
9.674731
 31
0.0
 12
1.395862
 22
9.404731
 32
0.0
 13
1.395862
 23
9.404731
 33
0.0
  0
SOLID
  8
0
  6
BYBLOCK
 62
     0
 10
1.350862
 20
10.634731
 30
0.0
 11
1.440862
 21
10.634731
 31
0.0
 12
1.395862
 22
10.904731
 32
0.0
 13
1.395862
 23
10.904731
 33
0.0
  0
TEXT
  8
0
  6
BYBLOCK
 62
     0
 10
1.161487
 20
10.060981
 30
0.0
 40
0.1875
  1
1.500
 41
0.75
  7
TXT
 72
     1
 11
1.395862
 21
10.154731
 31
0.0
 73
     2
  0
POINT
  8
DEFPOINTS
  6
BYBLOCK
 62
     0
 10
1.912145
 20
9.404731
 30
0.0
  0
POINT
  8
DEFPOINTS
  6
BYBLOCK
 62
     0
 10
1.912145
 20
10.904731
 30
0.0
  0
POINT
  8
DEFPOINTS
  6
BYBLOCK
 62
     0
 10
1.395862
 20
10.904731
 30
0.0
  0
ENDBLK
  8
0
  0
BLOCK
  8
0
  2
*D18
 70
    65
 10
0.0
 20
0.0
 30
0.0
  3
*D
  0
LINE
  8
0
  6
BYBLOCK
 62
     0
 10
5.446734
 20
10.154731
 30
0.0
 11
5.553722
 21
10.154731
 31
0.0
  0
LINE
  8
0
  6
BYBLOCK
 62
     0
 10
5.006645
 20
10.904731
 30
0.0
 11
5.553722
 21
10.904731
 31
0.0
  0
LINE
  8
0
  6
BYBLOCK
 62
     0
 10
5.414222
 20
9.884731
 30
0.0
 11
5.414222
 21
9.614731
 31
0.0
  0
LINE
  8
0
  6
BYBLOCK
 62
     0
 10
5.414222
 20
11.174731
 30
0.0
 11
5.414222
 21
11.444731
 31
0.0
  0
SOLID
  8
0
  6
BYBLOCK
 62
     0
 10
5.369222
 20
9.884731
 30
0.0
 11
5.459222
 21
9.884731
 31
0.0
 12
5.414222
 22
10.154731
 32
0.0
 13
5.414222
 23
10.154731
 33
0.0
  0
SOLID
  8
0
  6
BYBLOCK
 62
     0
 10
5.369222
 20
11.174731
 30
0.0
 11
5.459222
 21
11.174731
 31
0.0
 12
5.414222
 22
10.904731
 32
0.0
 13
5.414222
 23
10.904731
 33
0.0
  0
TEXT
  8
0
  6
BYBLOCK
 62
     0
 10
5.15641
 20
10.435981
 30
0.0
 40
0.1875
  1
0.750
 41
0.75
  7
TXT
 72
     1
 11
5.414222
 21
10.529731
 31
0.0
 73
     2
  0
POINT
  8
DEFPOINTS
  6
BYBLOCK
 62
     0
 10
5.352234
 20
10.154731
 30
0.0
  0
POINT
  8
DEFPOINTS
  6
BYBLOCK
 62
     0
 10
4.912145
 20
10.904731
 30
0.0
  0
POINT
  8
DEFPOINTS
  6
BYBLOCK
 62
     0
 10
5.414222
 20
10.904731
 30
0.0
  0
ENDBLK
  8
0
  0
BLOCK
  8
0
  2
*D19
 70
    65
 10
0.0
 20
0.0
 30
0.0
  3
*D
  0
LINE
  8
0
  6
BYBLOCK
 62
     0
 10
13.14322
 20
10.529731
 30
0.0
 11
14.452436
 21
10.529731
 31
0.0
  0
LINE
  8
0
  6
BYBLOCK
 62
     0
 10
13.14322
 20
9.779731
 30
0.0
 11
14.452436
 21
9.779731
 31
0.0
  0
LINE
  8
0
  6
BYBLOCK
 62
     0
 10
14.312936
 20
10.799731
 30
0.0
 11
14.312936
 21
11.069731
 31
0.0
  0
LINE
  8
0
  6
BYBLOCK
 62
     0
 10
14.312936
 20
9.509731
 30
0.0
 11
14.312936
 21
9.239731
 31
0.0
  0
SOLID
  8
0
  6
BYBLOCK
 62
     0
 10
14.267936
 20
10.799731
 30
0.0
 11
14.357936
 21
10.799731
 31
0.0
 12
14.312936
 22
10.529731
 32
0.0
 13
14.312936
 23
10.529731
 33
0.0
  0
SOLID
  8
0
  6
BYBLOCK
 62
     0
 10
14.267936
 20
9.509731
 30
0.0
 11
14.357936
 21
9.509731
 31
0.0
 12
14.312936
 22
9.779731
 32
0.0
 13
14.312936
 23
9.779731
 33
0.0
  0
TEXT
  8
0
  6
BYBLOCK
 62
     0
 10
14.055124
 20
10.060981
 30
0.0
 40
0.1875
  1
0.750
 41
0.75
  7
TXT
 72
     1
 11
14.312936
 21
10.154731
 31
0.0
 73
     2
  0
POINT
  8
DEFPOINTS
  6
BYBLOCK
 62
     0
 10
13.04872
 20
10.529731
 30
0.0
  0
POINT
  8
DEFPOINTS
  6
BYBLOCK
 62
     0
 10
13.04872
 20
9.779731
 30
0.0
  0
POINT
  8
DEFPOINTS
  6
BYBLOCK
 62
     0
 10
14.312936
 20
9.779731
 30
0.0
  0
ENDBLK
  8
0
  0
BLOCK
  8
0
  2
*D20
 70
    65
 10
0.0
 20
0.0
 30
0.0
  3
*D
  0
LINE
  8
0
  6
BYBLOCK
 62
     0
 10
11.460684
 20
10.249231
 30
0.0
 11
11.460684
 21
11.579952
 31
0.0
  0
LINE
  8
0
  6
BYBLOCK
 62
     0
 10
10.960684
 20
10.999231
 30
0.0
 11
10.960684
 21
11.579952
 31
0.0
  0
LINE
  8
0
  6
BYBLOCK
 62
     0
 10
11.730684
 20
11.440452
 30
0.0
 11
12.000684
 21
11.440452
 31
0.0
  0
LINE
  8
0
  6
BYBLOCK
 62
     0
 10
10.690684
 20
11.440452
 30
0.0
 11
10.420684
 21
11.440452
 31
0.0
  0
SOLID
  8
0
  6
BYBLOCK
 62
     0
 10
11.730684
 20
11.485452
 30
0.0
 11
11.730684
 21
11.395452
 31
0.0
 12
11.460684
 22
11.440452
 32
0.0
 13
11.460684
 23
11.440452
 33
0.0
  0
SOLID
  8
0
  6
BYBLOCK
 62
     0
 10
10.690684
 20
11.485452
 30
0.0
 11
10.690684
 21
11.395452
 31
0.0
 12
10.960684
 22
11.440452
 32
0.0
 13
10.960684
 23
11.440452
 33
0.0
  0
TEXT
  8
0
  6
BYBLOCK
 62
     0
 10
9.793496
 20
11.346702
 30
0.0
 40
0.1875
  1
0.500
 41
0.75
  7
TXT
 72
     1
 11
10.03959
 21
11.440452
 31
0.0
 73
     2
  0
POINT
  8
DEFPOINTS
  6
BYBLOCK
 62
     0
 10
11.460684
 20
10.154731
 30
0.0
  0
POINT
  8
DEFPOINTS
  6
BYBLOCK
 62
     0
 10
10.960684
 20
10.904731
 30
0.0
  0
POINT
  8
DEFPOINTS
  6
BYBLOCK
 62
     0
 10
10.960684
 20
11.440452
 30
0.0
  0
ENDBLK
  8
0
  0
BLOCK
  8
0
  2
*D21
 70
    65
 10
0.0
 20
0.0
 30
0.0
  3
*D
  0
LINE
  8
0
  6
BYBLOCK
 62
     0
 10
11.616184
 20
9.779731
 30
0.0
 11
10.321639
 21
9.779731
 31
0.0
  0
LINE
  8
0
  6
BYBLOCK
 62
     0
 10
10.866184
 20
9.404731
 30
0.0
 11
10.321639
 21
9.404731
 31
0.0
  0
LINE
  8
0
  6
BYBLOCK
 62
     0
 10
10.461139
 20
10.049731
 30
0.0
 11
10.461139
 21
10.319731
 31
0.0
  0
LINE
  8
0
  6
BYBLOCK
 62
     0
 10
10.461139
 20
9.134731
 30
0.0
 11
10.461139
 21
8.864731
 31
0.0
  0
SOLID
  8
0
  6
BYBLOCK
 62
     0
 10
10.416139
 20
10.049731
 30
0.0
 11
10.506139
 21
10.049731
 31
0.0
 12
10.461139
 22
9.779731
 32
0.0
 13
10.461139
 23
9.779731
 33
0.0
  0
SOLID
  8
0
  6
BYBLOCK
 62
     0
 10
10.416139
 20
9.134731
 30
0.0
 11
10.506139
 21
9.134731
 31
0.0
 12
10.461139
 22
9.404731
 32
0.0
 13
10.461139
 23
9.404731
 33
0.0
  0
TEXT
  8
0
  6
BYBLOCK
 62
     0
 10
10.191608
 20
9.498481
 30
0.0
 40
0.1875
  1
0.375
 41
0.75
  7
TXT
 72
     1
 11
10.461139
 21
9.592231
 31
0.0
 73
     2
  0
POINT
  8
DEFPOINTS
  6
BYBLOCK
 62
     0
 10
11.710684
 20
9.779731
 30
0.0
  0
POINT
  8
DEFPOINTS
  6
BYBLOCK
 62
     0
 10
10.960684
 20
9.404731
 30
0.0
  0
POINT
  8
DEFPOINTS
  6
BYBLOCK
 62
     0
 10
10.461139
 20
9.404731
 30
0.0
  0
ENDBLK
  8
0
  0
BLOCK
  8
0
  2
*D22
 70
    65
 10
0.0
 20
0.0
 30
0.0
  3
*D
  0
LINE
  8
0
  6
BYBLOCK
 62
     0
 10
1.558502
 20
17.086504
 30
0.0
 11
0.997219
 21
17.086504
 31
0.0
  0
LINE
  8
0
  6
BYBLOCK
 62
     0
 10
1.558502
 20
13.086504
 30
0.0
 11
0.997219
 21
13.086504
 31
0.0
  0
LINE
  8
0
  6
BYBLOCK
 62
     0
 10
1.136719
 20
16.816504
 30
0.0
 11
1.136719
 21
15.315254
 31
0.0
  0
LINE
  8
0
  6
BYBLOCK
 62
     0
 10
1.136719
 20
13.356504
 30
0.0
 11
1.136719
 21
14.857754
 31
0.0
  0
SOLID
  8
0
  6
BYBLOCK
 62
     0
 10
1.091719
 20
16.816504
 30
0.0
 11
1.181719
 21
16.816504
 31
0.0
 12
1.136719
 22
17.086504
 32
0.0
 13
1.136719
 23
17.086504
 33
0.0
  0
SOLID
  8
0
  6
BYBLOCK
 62
     0
 10
1.091719
 20
13.356504
 30
0.0
 11
1.181719
 21
13.356504
 31
0.0
 12
1.136719
 22
13.086504
 32
0.0
 13
1.136719
 23
13.086504
 33
0.0
  0
TEXT
  8
0
  6
BYBLOCK
 62
     0
 10
1.089844
 20
14.992754
 30
0.0
 40
0.1875
  1
A
 41
0.75
  7
TXT
 72
     1
 11
1.136719
 21
15.086504
 31
0.0
 73
     2
  0
POINT
  8
DEFPOINTS
  6
BYBLOCK
 62
     0
 10
1.653002
 20
17.086504
 30
0.0
  0
POINT
  8
DEFPOINTS
  6
BYBLOCK
 62
     0
 10
1.653002
 20
13.086504
 30
0.0
  0
POINT
  8
DEFPOINTS
  6
BYBLOCK
 62
     0
 10
1.136719
 20
13.086504
 30
0.0
  0
ENDBLK
  8
0
  0
BLOCK
  8
0
  2
*D23
 70
    65
 10
0.0
 20
0.0
 30
0.0
  3
*D
  0
LINE
  8
0
  6
BYBLOCK
 62
     0
 10
7.849037
 20
10.249231
 30
0.0
 11
7.849037
 21
11.579952
 31
0.0
  0
LINE
  8
0
  6
BYBLOCK
 62
     0
 10
5.849037
 20
10.999231
 30
0.0
 11
5.849037
 21
11.579952
 31
0.0
  0
LINE
  8
0
  6
BYBLOCK
 62
     0
 10
7.579037
 20
11.440452
 30
0.0
 11
7.030912
 21
11.440452
 31
0.0
  0
LINE
  8
0
  6
BYBLOCK
 62
     0
 10
6.119037
 20
11.440452
 30
0.0
 11
6.667162
 21
11.440452
 31
0.0
  0
SOLID
  8
0
  6
BYBLOCK
 62
     0
 10
7.579037
 20
11.485452
 30
0.0
 11
7.579037
 21
11.395452
 31
0.0
 12
7.849037
 22
11.440452
 32
0.0
 13
7.849037
 23
11.440452
 33
0.0
  0
SOLID
  8
0
  6
BYBLOCK
 62
     0
 10
6.119037
 20
11.485452
 30
0.0
 11
6.119037
 21
11.395452
 31
0.0
 12
5.849037
 22
11.440452
 32
0.0
 13
5.849037
 23
11.440452
 33
0.0
  0
TEXT
  8
0
  6
BYBLOCK
 62
     0
 10
6.802162
 20
11.346702
 30
0.0
 40
0.1875
  1
B
 41
0.75
  7
TXT
 72
     1
 11
6.849037
 21
11.440452
 31
0.0
 73
     2
  0
POINT
  8
DEFPOINTS
  6
BYBLOCK
 62
     0
 10
7.849037
 20
10.154731
 30
0.0
  0
POINT
  8
DEFPOINTS
  6
BYBLOCK
 62
     0
 10
5.849037
 20
10.904731
 30
0.0
  0
POINT
  8
DEFPOINTS
  6
BYBLOCK
 62
     0
 10
5.849037
 20
11.440452
 30
0.0
  0
ENDBLK
  8
0
  0
ENDSEC
  0
SECTION
  2
ENTITIES
  0
LINE
  8
OBJECT
 10
1.778002
 20
5.018895
 30
0.0
 11
4.528002
 21
5.018895
 31
0.0
  0
LINE
  8
OBJECT
 10
4.528002
 20
5.018895
 30
0.0
 11
4.528002
 21
3.518895
 31
0.0
  0
LINE
  8
OBJECT
 10
4.528002
 20
3.518895
 30
0.0
 11
4.293002
 21
3.518895
 31
0.0
  0
LINE
  8
OBJECT
 10
1.778002
 20
3.518895
 30
0.0
 11
1.778002
 21
5.018895
 31
0.0
  0
CIRCLE
  8
OBJECT
 10
2.153002
 20
4.268895
 30
0.0
 40
0.14
  0
LINE
  8
OBJECT
 10
4.013002
 20
3.518895
 30
0.0
 11
1.778002
 21
3.518895
 31
0.0
  0
DIMENSION
  8
DIM
  2
*D2
 10
1.778002
 20
5.757262
 30
0.0
 11
1.092614
 21
5.757262
 31
0.0
 12
-0.259143
 22
-0.291435
 32
0.0
 13
2.153002
 23
4.268895
 33
0.0
 14
1.778002
 24
5.018895
 34
0.0
  3
23NSTD
  0
DIMENSION
  8
DIM
  2
*D1
 10
4.528002
 20
6.268324
 30
0.0
 11
3.412145
 21
6.268324
 31
0.0
 12
-0.259143
 22
-0.291435
 32
0.0
 13
1.778002
 23
5.018895
 33
0.0
 14
4.528002
 24
5.018895
 34
0.0
  3
23NSTD
  0
DIMENSION
  8
DIM
  2
*D4
 10
4.153002
 20
5.757262
 30
0.0
 11
3.412145
 21
5.757262
 31
0.0
 12
-0.259143
 22
-0.291435
 32
0.0
 13
2.153002
 23
4.268895
 33
0.0
 14
4.153002
 24
4.268895
 34
0.0
  3
23NSTD
  0
DIMENSION
  8
DIM
  2
*D8
 10
1.219784
 20
5.018895
 30
0.0
 11
1.478927
 21
4.643895
 31
0.0
 12
-0.259143
 22
-0.291435
 32
0.0
 13
4.153002
 23
4.268895
 33
0.0
 14
1.778002
 24
5.018895
 34
0.0
 50
90.0
  3
23NSTDI
  0
DIMENSION
  8
DIM
  2
*D3
 10
0.621957
 20
3.518895
 30
0.0
 11
0.8811
 21
4.268895
 31
0.0
 12
-0.259143
 22
-0.291435
 32
0.0
 13
1.778002
 23
5.018895
 33
0.0
 14
1.778002
 24
3.518895
 34
0.0
 50
90.0
  3
23NSTD
  0
ARC
  8
OBJECT
 10
4.153002
 20
4.268895
 30
0.0
 40
0.14
 50
0.0
 51
180.0
  0
LINE
  8
OBJECT
 10
4.293002
 20
4.268895
 30
0.0
 11
4.293002
 21
3.518895
 31
0.0
  0
LINE
  8
OBJECT
 10
4.013002
 20
4.268895
 30
0.0
 11
4.013002
 21
3.518895
 31
0.0
  0
DIMENSION
  8
DIM
  2
*D7
 10
5.046634
 20
3.518895
 30
0.0
 11
5.305777
 21
3.963895
 31
0.0
 12
-0.259143
 22
-0.291435
 32
0.0
 13
4.153002
 23
4.408895
 33
0.0
 14
4.528002
 24
3.518895
 34
0.0
 50
90.0
  3
23NSTDI
  0
DIMENSION
  8
DIM
  2
*D5
 10
4.013002
 20
2.93326
 30
0.0
 11
3.36277
 21
2.93326
 31
0.0
 12
-0.259143
 22
-0.291435
 32
0.0
 13
4.153002
 23
4.268895
 33
0.0
 14
4.013002
 24
3.518895
 34
0.0
  3
23NSTD
  0
DIMENSION
  8
DIM
  2
*D6
 10
4.013002
 20
2.496113
 30
0.0
 11
3.339332
 21
2.496113
 31
0.0
 12
-0.259143
 22
-0.291435
 32
0.0
 13
4.293002
 23
3.518895
 33
0.0
 14
4.013002
 24
3.518895
 34
0.0
  3
23NSTD
  0
LINE
  8
OBJECT
 10
4.653002
 20
17.086504
 30
0.0
 11
1.653002
 21
17.086504
 31
0.0
  0
LINE
  8
OBJECT
 10
4.653002
 20
13.086504
 30
0.0
 11
3.903002
 21
13.086504
 31
0.0
  0
LINE
  8
OBJECT
 10
4.653002
 20
13.086504
 30
0.0
 11
4.653002
 21
17.086504
 31
0.0
  0
LINE
  8
OBJECT
 10
1.653002
 20
17.086504
 30
0.0
 11
1.653002
 21
13.086504
 31
0.0
  0
LINE
  8
OBJECT
 10
2.403002
 20
13.164504
 30
0.0
 11
2.403002
 21
13.086504
 31
0.0
  0
LINE
  8
OBJECT
 10
3.903002
 20
13.086504
 30
0.0
 11
3.903002
 21
13.164504
 31
0.0
  0
LINE
  8
OBJECT
 10
4.575002
 20
13.164504
 30
0.0
 11
3.903002
 21
13.164504
 31
0.0
  0
LINE
  8
OBJECT
 10
4.575002
 20
13.164504
 30
0.0
 11
4.575002
 21
17.008504
 31
0.0
  0
LINE
  8
OBJECT
 10
4.575002
 20
17.008504
 30
0.0
 11
1.731002
 21
17.008504
 31
0.0
  0
LINE
  8
OBJECT
 10
1.731002
 20
17.008504
 30
0.0
 11
1.731002
 21
13.164504
 31
0.0
  0
LINE
  8
OBJECT
 10
2.403002
 20
13.086504
 30
0.0
 11
1.653002
 21
13.086504
 31
0.0
  0
LINE
  8
OBJECT
 10
2.403002
 20
13.164504
 30
0.0
 11
1.731002
 21
13.164504
 31
0.0
  0
DIMENSION
  8
DIM
  2
*D9
 10
1.653002
 20
17.579841
 30
0.0
 11
3.412145
 21
17.579841
 31
0.0
 12
-0.259143
 22
0.0
 32
0.0
 13
4.653002
 23
17.086504
 33
0.0
 14
1.653002
 24
17.086504
 34
0.0
 50
180.0
  3
23NSTD
  0
DIMENSION
  8
DIM
  2
*D22
 10
1.136719
 20
13.086504
 30
0.0
 11
1.136719
 21
15.086504
 31
0.0
  1
A
 13
1.653002
 23
17.086504
 33
0.0
 14
1.653002
 24
13.086504
 34
0.0
 50
270.0
  3
23NSTD
  0
DIMENSION
  8
DIM
  2
*D10
 10
1.653002
 20
12.543348
 30
0.0
 11
2.287145
 21
12.543348
 31
0.0
 12
-0.259143
 22
0.0
 32
0.0
 13
2.403002
 23
13.086504
 33
0.0
 14
1.653002
 24
13.086504
 34
0.0
 50
180.0
  3
23NSTDI
  0
DIMENSION
  8
DIM
  2
*D11
 10
4.653002
 20
12.543348
 30
0.0
 11
4.537145
 21
12.543348
 31
0.0
 12
-0.259143
 22
0.0
 32
0.0
 13
3.903002
 23
13.086504
 33
0.0
 14
4.653002
 24
13.086504
 34
0.0
 50
180.0
  3
23NSTDI
  0
LINE
  8
OBJECT
 10
1.653002
 20
10.904731
 30
0.0
 11
4.653002
 21
10.904731
 31
0.0
  0
LINE
  8
OBJECT
 10
1.653002
 20
9.404731
 30
0.0
 11
4.653002
 21
9.404731
 31
0.0
  0
LINE
  8
OBJECT
 10
4.653002
 20
10.904731
 30
0.0
 11
4.653002
 21
9.404731
 31
0.0
  0
LINE
  8
OBJECT
 10
3.903002
 20
9.654731
 30
0.0
 11
4.153002
 21
9.404731
 31
0.0
  0
CIRCLE
  8
OBJECT
 10
4.153002
 20
10.154731
 30
0.0
 40
0.1405
  0
LINE
  8
OBJECT
 10
3.903002
 20
9.654731
 30
0.0
 11
3.903002
 21
10.654731
 31
0.0
  0
LINE
  8
OBJECT
 10
3.903002
 20
10.654731
 30
0.0
 11
4.153002
 21
10.904731
 31
0.0
  0
LINE
  8
HIDDEN
 10
4.575002
 20
10.904731
 30
0.0
 11
4.575002
 21
9.404731
 31
0.0
  0
LINE
  8
HIDDEN
 10
1.731002
 20
10.904731
 30
0.0
 11
1.731002
 21
9.404731
 31
0.0
  0
LINE
  8
OBJECT
 10
2.403002
 20
9.654731
 30
0.0
 11
2.403002
 21
10.654731
 31
0.0
  0
LINE
  8
OBJECT
 10
1.653002
 20
10.904731
 30
0.0
 11
1.653002
 21
9.404731
 31
0.0
  0
LINE
  8
OBJECT
 10
2.403002
 20
9.654731
 30
0.0
 11
2.153002
 21
9.404731
 31
0.0
  0
LINE
  8
OBJECT
 10
2.403002
 20
10.654731
 30
0.0
 11
2.153002
 21
10.904731
 31
0.0
  0
CIRCLE
  8
OBJECT
 10
2.153002
 20
10.154731
 30
0.0
 40
0.1405
  0
CIRCLE
  8
OBJECT
 10
11.460684
 20
10.154731
 30
0.0
 40
0.1405
  0
LINE
  8
OBJECT
 10
10.960684
 20
9.404731
 30
0.0
 11
13.960684
 21
9.404731
 31
0.0
  0
LINE
  8
OBJECT
 10
10.960684
 20
10.904731
 30
0.0
 11
13.960684
 21
10.904731
 31
0.0
  0
LINE
  8
OBJECT
 10
10.960684
 20
10.904731
 30
0.0
 11
10.960684
 21
9.404731
 31
0.0
  0
LINE
  8
HIDDEN
 10
11.038684
 20
10.904731
 30
0.0
 11
11.038684
 21
9.404731
 31
0.0
  0
LINE
  8
HIDDEN
 10
13.882684
 20
10.904731
 30
0.0
 11
13.882684
 21
9.404731
 31
0.0
  0
LINE
  8
OBJECT
 10
13.960684
 20
10.904731
 30
0.0
 11
13.960684
 21
9.404731
 31
0.0
  0
CIRCLE
  8
OBJECT
 10
13.460684
 20
10.154731
 30
0.0
 40
0.1405
  0
POLYLINE
  8
OBJECT
 66
     1
 10
0.0
 20
0.0
 30
0.0
  0
VERTEX
  8
OBJECT
 10
11.710684
 20
9.779731
 30
0.0
  0
VERTEX
  8
OBJECT
 10
13.210684
 20
9.779731
 30
0.0
  0
VERTEX
  8
OBJECT
 10
13.210684
 20
10.529731
 30
0.0
  0
VERTEX
  8
OBJECT
 10
11.710684
 20
10.529731
 30
0.0
  0
VERTEX
  8
OBJECT
 10
11.710684
 20
9.779731
 30
0.0
  0
SEQEND
  8
OBJECT
  0
LINE
  8
OBJECT
 10
5.849037
 20
9.404731
 30
0.0
 11
9.849037
 21
9.404731
 31
0.0
  0
LINE
  8
OBJECT
 10
5.849037
 20
10.904731
 30
0.0
 11
9.849037
 21
10.904731
 31
0.0
  0
LINE
  8
OBJECT
 10
5.849037
 20
10.904731
 30
0.0
 11
5.849037
 21
9.404731
 31
0.0
  0
LINE
  8
HIDDEN
 10
5.927037
 20
10.904731
 30
0.0
 11
5.927037
 21
9.404731
 31
0.0
  0
LINE
  8
HIDDEN
 10
9.771037
 20
10.904731
 30
0.0
 11
9.771037
 21
9.404731
 31
0.0
  0
LINE
  8
OBJECT
 10
9.849037
 20
10.904731
 30
0.0
 11
9.849037
 21
9.404731
 31
0.0
  0
CIRCLE
  8
OBJECT
 10
7.849037
 20
10.154731
 30
0.0
 40
0.1405
  0
LINE
  8
OBJECT
 10
2.403002
 20
9.779731
 30
0.0
 11
3.903002
 21
9.779731
 31
0.0
  0
LINE
  8
OBJECT
 10
3.903002
 20
10.529731
 30
0.0
 11
2.403002
 21
10.529731
 31
0.0
  0
INSERT
  8
OBJECT
  2
HB
 10
0.0
 20
0.0
 30
0.0
 41
1.5
 42
1.5
 43
1.5
  0
LINE
  8
OBJECT
 10
8.330076
 20
18.906132
 30
0.0
 11
8.763089
 21
18.656132
 31
0.0
  0
LINE
  8
OBJECT
 10
8.330076
 20
18.906132
 30
0.0
 11
11.794178
 21
20.906132
 31
0.0
  0
LINE
  8
OBJECT
 10
11.794178
 20
20.906132
 30
0.0
 11
14.392254
 21
19.406132
 31
0.0
  0
LINE
  8
OBJECT
 10
10.928152
 20
17.406132
 30
0.0
 11
14.392254
 21
19.406132
 31
0.0
  0
LINE
  8
OBJECT
 10
8.330076
 20
17.406132
 30
0.0
 11
8.763089
 21
17.156132
 31
0.0
  0
LINE
  8
OBJECT
 10
10.928152
 20
15.906132
 30
0.0
 11
14.392254
 21
17.906132
 31
0.0
  0
LINE
  8
OBJECT
 10
8.330076
 20
18.906132
 30
0.0
 11
8.330076
 21
17.406132
 31
0.0
  0
LINE
  8
OBJECT
 10
10.928152
 20
17.406132
 30
0.0
 11
10.928152
 21
15.906132
 31
0.0
  0
LINE
  8
OBJECT
 10
14.392254
 20
19.406132
 30
0.0
 11
14.392254
 21
17.906132
 31
0.0
  0
LINE
  8
OBJECT
 10
11.794178
 20
20.828132
 30
0.0
 11
14.257154
 21
19.406132
 31
0.0
  0
LINE
  8
OBJECT
 10
8.465176
 20
18.906132
 30
0.0
 11
11.794178
 21
20.828132
 31
0.0
  0
LINE
  8
OBJECT
 10
10.928152
 20
17.484132
 30
0.0
 11
14.257154
 21
19.406132
 31
0.0
  0
LINE
  8
OBJECT
 10
8.465176
 20
18.906132
 30
0.0
 11
8.830639
 21
18.695132
 31
0.0
  0
LINE
  8
OBJECT
 10
11.794178
 20
20.828132
 30
0.0
 11
11.794178
 21
19.328132
 31
0.0
  0
LINE
  8
OBJECT
 10
11.794178
 20
19.328132
 30
0.0
 11
12.958116
 21
18.656132
 31
0.0
  0
LINE
  8
OBJECT
 10
9.047145
 20
17.742132
 30
0.0
 11
11.794178
 21
19.328132
 31
0.0
  0
LINE
  8
OBJECT
 10
8.979595
 20
18.281132
 30
0.0
 11
8.979595
 21
17.281132
 31
0.0
  0
LINE
  8
OBJECT
 10
10.278633
 20
17.531132
 30
0.0
 11
10.278633
 21
16.531132
 31
0.0
  0
POLYLINE
  8
OBJECT
 66
     1
 10
0.0
 20
0.0
 30
0.0
 70
     1
  0
VERTEX
  8
OBJECT
 10
8.677051
 20
17.856458
 30
0.0
 42
0.058752
  0
VERTEX
  8
OBJECT
 10
8.718653
 20
17.800695
 30
0.0
 42
0.072341
  0
VERTEX
  8
OBJECT
 10
8.763089
 20
17.765632
 30
0.0
 42
0.106617
 70
     2
 50
330.0
  0
VERTEX
  8
OBJECT
 10
8.813489
 20
17.749423
 30
0.0
 42
0.156851
 50
330.0
  0
VERTEX
  8
OBJECT
 10
8.849127
 20
17.75711
 30
0.0
 42
0.156851
  0
VERTEX
  8
OBJECT
 10
8.873603
 20
17.78413
 30
0.0
 42
0.106617
  0
VERTEX
  8
OBJECT
 10
8.884766
 20
17.835882
 30
0.0
 42
0.072341
 70
     2
 50
90.0
  0
VERTEX
  8
OBJECT
 10
8.876619
 20
17.891897
 30
0.0
 42
0.058752
 50
90.0
  0
VERTEX
  8
OBJECT
 10
8.849127
 20
17.955807
 30
0.0
 42
0.058752
  0
VERTEX
  8
OBJECT
 10
8.807525
 20
18.01157
 30
0.0
 42
0.072341
  0
VERTEX
  8
OBJECT
 10
8.763089
 20
18.046632
 30
0.0
 42
0.106617
 70
     2
 50
150.0
  0
VERTEX
  8
OBJECT
 10
8.712689
 20
18.062842
 30
0.0
 42
0.156851
 50
150.0
  0
VERTEX
  8
OBJECT
 10
8.677051
 20
18.055155
 30
0.0
 42
0.156851
  0
VERTEX
  8
OBJECT
 10
8.652575
 20
18.028135
 30
0.0
 42
0.106617
  0
VERTEX
  8
OBJECT
 10
8.641412
 20
17.976382
 30
0.0
 42
0.072341
 70
     2
 50
270.0
  0
VERTEX
  8
OBJECT
 10
8.649559
 20
17.920368
 30
0.0
 42
0.058752
 50
270.0
  0
SEQEND
  8
OBJECT
  0
POLYLINE
  8
OBJECT
 66
     1
 10
0.0
 20
0.0
 30
0.0
 70
     1
  0
VERTEX
  8
OBJECT
 10
10.409101
 20
16.856458
 30
0.0
 42
0.058752
  0
VERTEX
  8
OBJECT
 10
10.450704
 20
16.800695
 30
0.0
 42
0.072341
  0
VERTEX
  8
OBJECT
 10
10.49514
 20
16.765632
 30
0.0
 42
0.106617
 70
     2
 50
330.0
  0
VERTEX
  8
OBJECT
 10
10.54554
 20
16.749423
 30
0.0
 42
0.156851
 50
330.0
  0
VERTEX
  8
OBJECT
 10
10.581178
 20
16.75711
 30
0.0
 42
0.156851
  0
VERTEX
  8
OBJECT
 10
10.605654
 20
16.78413
 30
0.0
 42
0.106617
  0
VERTEX
  8
OBJECT
 10
10.616816
 20
16.835882
 30
0.0
 42
0.072341
 70
     2
 50
90.0
  0
VERTEX
  8
OBJECT
 10
10.608669
 20
16.891897
 30
0.0
 42
0.058752
 50
90.0
  0
VERTEX
  8
OBJECT
 10
10.581178
 20
16.955807
 30
0.0
 42
0.058752
  0
VERTEX
  8
OBJECT
 10
10.539576
 20
17.01157
 30
0.0
 42
0.072341
  0
VERTEX
  8
OBJECT
 10
10.49514
 20
17.046632
 30
0.0
 42
0.106617
 70
     2
 50
150.0
  0
VERTEX
  8
OBJECT
 10
10.44474
 20
17.062842
 30
0.0
 42
0.156851
 50
150.0
  0
VERTEX
  8
OBJECT
 10
10.409101
 20
17.055155
 30
0.0
 42
0.156851
  0
VERTEX
  8
OBJECT
 10
10.384625
 20
17.028135
 30
0.0
 42
0.106617
  0
VERTEX
  8
OBJECT
 10
10.373463
 20
16.976382
 30
0.0
 42
0.072341
 70
     2
 50
270.0
  0
VERTEX
  8
OBJECT
 10
10.38161
 20
16.920368
 30
0.0
 42
0.058752
 50
270.0
  0
SEQEND
  8
OBJECT
  0
LINE
  8
OBJECT
 10
8.979595
 20
18.281132
 30
0.0
 11
8.763089
 21
18.656132
 31
0.0
  0
LINE
  8
OBJECT
 10
8.979595
 20
17.281132
 30
0.0
 11
8.763089
 21
17.156132
 31
0.0
  0
LINE
  8
OBJECT
 10
10.278633
 20
17.531132
 30
0.0
 11
10.49514
 21
17.656132
 31
0.0
  0
LINE
  8
OBJECT
 10
10.278633
 20
16.531132
 30
0.0
 11
10.49514
 21
16.156132
 31
0.0
  0
LINE
  8
OBJECT
 10
10.49514
 20
17.656132
 30
0.0
 11
10.56269
 21
17.695132
 31
0.0
  0
LINE
  8
OBJECT
 10
8.763089
 20
18.656132
 30
0.0
 11
8.830639
 21
18.695132
 31
0.0
  0
LINE
  8
OBJECT
 10
8.979595
 20
18.281132
 30
0.0
 11
9.047145
 21
18.320132
 31
0.0
  0
LINE
  8
OBJECT
 10
8.979595
 20
17.281132
 30
0.0
 11
9.047145
 21
17.320132
 31
0.0
  0
LINE
  8
OBJECT
 10
10.49514
 20
16.156132
 30
0.0
 11
10.928152
 21
15.906132
 31
0.0
  0
LINE
  8
OBJECT
 10
9.047145
 20
18.320132
 30
0.0
 11
9.047145
 21
17.320132
 31
0.0
  0
LINE
  8
OBJECT
 10
8.830639
 20
18.695132
 30
0.0
 11
9.047145
 21
18.320132
 31
0.0
  0
LINE
  8
OBJECT
 10
10.49514
 20
17.656132
 30
0.0
 11
10.928152
 21
17.406132
 31
0.0
  0
LINE
  8
OBJECT
 10
10.56269
 20
17.695132
 30
0.0
 11
10.928152
 21
17.484132
 31
0.0
  0
POLYLINE
  8
OBJECT
 66
     1
 10
0.0
 20
0.0
 30
0.0
  0
VERTEX
  8
OBJECT
 10
8.744601
 20
17.895458
 30
0.0
 42
0.058752
  0
VERTEX
  8
OBJECT
 10
8.786203
 20
17.839695
 30
0.0
 42
0.072341
  0
VERTEX
  8
OBJECT
 10
8.830639
 20
17.804632
 30
0.0
 42
0.09582
 70
     2
 50
330.0
  0
VERTEX
  8
OBJECT
 10
8.875711
 20
17.789066
 30
0.0
 42
0.156851
 50
330.0
  0
SEQEND
  8
OBJECT
  0
POLYLINE
  8
OBJECT
 66
     1
 10
0.0
 20
0.0
 30
0.0
  0
VERTEX
  8
OBJECT
 10
8.718017
 20
18.062199
 30
0.0
 42
0.09582
  0
VERTEX
  8
OBJECT
 10
8.708962
 20
18.015382
 30
0.0
 42
0.072341
 70
     2
 50
270.0
  0
VERTEX
  8
OBJECT
 10
8.717109
 20
17.959368
 30
0.0
 42
0.058752
 50
270.0
  0
VERTEX
  8
OBJECT
 10
8.744601
 20
17.895458
 30
0.0
 42
0.058752
  0
SEQEND
  8
OBJECT
  0
POLYLINE
  8
OBJECT
 66
     1
 10
0.0
 20
0.0
 30
0.0
  0
VERTEX
  8
OBJECT
 10
10.476651
 20
16.895458
 30
0.0
 42
0.058752
  0
VERTEX
  8
OBJECT
 10
10.518254
 20
16.839695
 30
0.0
 42
0.072341
  0
VERTEX
  8
OBJECT
 10
10.56269
 20
16.804632
 30
0.0
 42
0.09582
 70
     2
 50
330.0
  0
VERTEX
  8
OBJECT
 10
10.607761
 20
16.789066
 30
0.0
 42
0.156851
 50
330.0
  0
SEQEND
  8
OBJECT
  0
POLYLINE
  8
OBJECT
 66
     1
 10
0.0
 20
0.0
 30
0.0
  0
VERTEX
  8
OBJECT
 10
10.450068
 20
17.062199
 30
0.0
 42
0.09582
  0
VERTEX
  8
OBJECT
 10
10.441013
 20
17.015382
 30
0.0
 42
0.072341
 70
     2
 50
270.0
  0
VERTEX
  8
OBJECT
 10
10.44916
 20
16.959368
 30
0.0
 42
0.058752
 50
270.0
  0
VERTEX
  8
OBJECT
 10
10.476651
 20
16.895458
 30
0.0
 42
0.058752
  0
SEQEND
  8
OBJECT
  0
POLYLINE
  8
OBJECT
 66
     1
 10
0.0
 20
0.0
 30
0.0
 70
     1
  0
VERTEX
  8
OBJECT
 10
12.574165
 20
17.705807
 30
0.0
 42
0.058752
  0
VERTEX
  8
OBJECT
 10
12.546674
 20
17.641897
 30
0.0
 42
0.072341
  0
VERTEX
  8
OBJECT
 10
12.538527
 20
17.585882
 30
0.0
 42
0.106617
 70
     2
 50
270.0
  0
VERTEX
  8
OBJECT
 10
12.549689
 20
17.53413
 30
0.0
 42
0.156851
 50
270.0
  0
VERTEX
  8
OBJECT
 10
12.574165
 20
17.50711
 30
0.0
 42
0.156851
  0
VERTEX
  8
OBJECT
 10
12.609803
 20
17.499423
 30
0.0
 42
0.106617
  0
VERTEX
  8
OBJECT
 10
12.660203
 20
17.515632
 30
0.0
 42
0.072341
 70
     2
 50
30.0
  0
VERTEX
  8
OBJECT
 10
12.704639
 20
17.550695
 30
0.0
 42
0.058752
 50
30.0
  0
VERTEX
  8
OBJECT
 10
12.746242
 20
17.606458
 30
0.0
 42
0.058752
  0
VERTEX
  8
OBJECT
 10
12.773733
 20
17.670368
 30
0.0
 42
0.072341
  0
VERTEX
  8
OBJECT
 10
12.78188
 20
17.726382
 30
0.0
 42
0.106617
 70
     2
 50
90.0
  0
VERTEX
  8
OBJECT
 10
12.770718
 20
17.778135
 30
0.0
 42
0.156851
 50
90.0
  0
VERTEX
  8
OBJECT
 10
12.746242
 20
17.805155
 30
0.0
 42
0.156851
  0
VERTEX
  8
OBJECT
 10
12.710603
 20
17.812842
 30
0.0
 42
0.106617
  0
VERTEX
  8
OBJECT
 10
12.660203
 20
17.796632
 30
0.0
 42
0.072341
 70
     2
 50
210.0
  0
VERTEX
  8
OBJECT
 10
12.615767
 20
17.76157
 30
0.0
 42
0.058752
 50
210.0
  0
SEQEND
  8
OBJECT
  0
POLYLINE
  8
OBJECT
 66
     1
 10
0.0
 20
0.0
 30
0.0
  0
VERTEX
  8
OBJECT
 10
12.547582
 20
17.539066
 30
0.0
 42
0.09582
  0
VERTEX
  8
OBJECT
 10
12.592653
 20
17.554632
 30
0.0
 42
0.072341
 70
     2
 50
30.0
  0
VERTEX
  8
OBJECT
 10
12.637089
 20
17.589695
 30
0.0
 42
0.058752
 50
30.0
  0
VERTEX
  8
OBJECT
 10
12.678692
 20
17.645458
 30
0.0
 42
0.058752
  0
VERTEX
  8
OBJECT
 10
12.706183
 20
17.709368
 30
0.0
 42
0.072341
  0
VERTEX
  8
OBJECT
 10
12.71433
 20
17.765382
 30
0.0
 42
0.09582
 70
     2
 50
90.0
  0
VERTEX
  8
OBJECT
 10
12.705275
 20
17.812199
 30
0.0
 42
0.156851
 50
90.0
  0
SEQEND
  8
OBJECT
  0
POLYLINE
  8
OBJECT
 66
     1
 10
0.0
 20
0.0
 30
0.0
  0
VERTEX
  8
OBJECT
 10
10.017055
 20
19.000066
 30
0.0
 42
0.09582
  0
VERTEX
  8
OBJECT
 10
10.062127
 20
19.015632
 30
0.0
 42
0.072341
 70
     2
 50
30.0
  0
VERTEX
  8
OBJECT
 10
10.106563
 20
19.050695
 30
0.0
 42
0.058752
 50
30.0
  0
VERTEX
  8
OBJECT
 10
10.148165
 20
19.106458
 30
0.0
 42
0.058752
  0
VERTEX
  8
OBJECT
 10
10.175657
 20
19.170368
 30
0.0
 42
0.072341
  0
VERTEX
  8
OBJECT
 10
10.183804
 20
19.226382
 30
0.0
 42
0.09582
 70
     2
 50
90.0
  0
VERTEX
  8
OBJECT
 10
10.174749
 20
19.273199
 30
0.0
 42
0.156851
 50
90.0
  0
SEQEND
  8
OBJECT
  0
POLYLINE
  8
OBJECT
 66
     1
 10
0.0
 20
0.0
 30
0.0
 70
     1
  0
VERTEX
  8
OBJECT
 10
10.043639
 20
19.166807
 30
0.0
 42
0.058752
  0
VERTEX
  8
OBJECT
 10
10.016147
 20
19.102897
 30
0.0
 42
0.072341
  0
VERTEX
  8
OBJECT
 10
10.008
 20
19.046882
 30
0.0
 42
0.106617
 70
     2
 50
270.0
  0
VERTEX
  8
OBJECT
 10
10.019163
 20
18.99513
 30
0.0
 42
0.156851
 50
270.0
  0
VERTEX
  8
OBJECT
 10
10.043639
 20
18.96811
 30
0.0
 42
0.156851
  0
VERTEX
  8
OBJECT
 10
10.079277
 20
18.960423
 30
0.0
 42
0.106617
  0
VERTEX
  8
OBJECT
 10
10.129677
 20
18.976632
 30
0.0
 42
0.072341
 70
     2
 50
30.0
  0
VERTEX
  8
OBJECT
 10
10.174113
 20
19.011695
 30
0.0
 42
0.058752
 50
30.0
  0
VERTEX
  8
OBJECT
 10
10.215715
 20
19.067458
 30
0.0
 42
0.058752
  0
VERTEX
  8
OBJECT
 10
10.243207
 20
19.131368
 30
0.0
 42
0.072341
  0
VERTEX
  8
OBJECT
 10
10.251354
 20
19.187382
 30
0.0
 42
0.106617
 70
     2
 50
90.0
  0
VERTEX
  8
OBJECT
 10
10.240191
 20
19.239135
 30
0.0
 42
0.156851
 50
90.0
  0
VERTEX
  8
OBJECT
 10
10.215715
 20
19.266155
 30
0.0
 42
0.156851
  0
VERTEX
  8
OBJECT
 10
10.180077
 20
19.273842
 30
0.0
 42
0.106617
  0
VERTEX
  8
OBJECT
 10
10.129677
 20
19.257632
 30
0.0
 42
0.072341
 70
     2
 50
210.0
  0
VERTEX
  8
OBJECT
 10
10.085241
 20
19.22257
 30
0.0
 42
0.058752
 50
210.0
  0
SEQEND
  8
OBJECT
  0
POLYLINE
  8
OBJECT
 66
     1
 10
0.0
 20
0.0
 30
0.0
  0
VERTEX
  8
OBJECT
 10
12.141152
 20
19.856458
 30
0.0
 42
0.058752
  0
VERTEX
  8
OBJECT
 10
12.182754
 20
19.800695
 30
0.0
 42
0.072341
  0
VERTEX
  8
OBJECT
 10
12.227191
 20
19.765632
 30
0.0
 42
0.09582
 70
     2
 50
330.0
  0
VERTEX
  8
OBJECT
 10
12.272262
 20
19.750066
 30
0.0
 42
0.156851
 50
330.0
  0
SEQEND
  8
OBJECT
  0
POLYLINE
  8
OBJECT
 66
     1
 10
0.0
 20
0.0
 30
0.0
 70
     1
  0
VERTEX
  8
OBJECT
 10
12.073602
 20
19.817458
 30
0.0
 42
0.058752
  0
VERTEX
  8
OBJECT
 10
12.115204
 20
19.761695
 30
0.0
 42
0.072341
  0
VERTEX
  8
OBJECT
 10
12.159641
 20
19.726632
 30
0.0
 42
0.106617
 70
     2
 50
330.0
  0
VERTEX
  8
OBJECT
 10
12.210041
 20
19.710423
 30
0.0
 42
0.156851
 50
330.0
  0
VERTEX
  8
OBJECT
 10
12.245679
 20
19.71811
 30
0.0
 42
0.156851
  0
VERTEX
  8
OBJECT
 10
12.270155
 20
19.74513
 30
0.0
 42
0.106617
  0
VERTEX
  8
OBJECT
 10
12.281317
 20
19.796882
 30
0.0
 42
0.072341
 70
     2
 50
90.0
  0
VERTEX
  8
OBJECT
 10
12.27317
 20
19.852897
 30
0.0
 42
0.058752
 50
90.0
  0
VERTEX
  8
OBJECT
 10
12.245679
 20
19.916807
 30
0.0
 42
0.058752
  0
VERTEX
  8
OBJECT
 10
12.204077
 20
19.97257
 30
0.0
 42
0.072341
  0
VERTEX
  8
OBJECT
 10
12.159641
 20
20.007632
 30
0.0
 42
0.106617
 70
     2
 50
150.0
  0
VERTEX
  8
OBJECT
 10
12.10924
 20
20.023842
 30
0.0
 42
0.156851
 50
150.0
  0
VERTEX
  8
OBJECT
 10
12.073602
 20
20.016155
 30
0.0
 42
0.156851
  0
VERTEX
  8
OBJECT
 10
12.049126
 20
19.989135
 30
0.0
 42
0.106617
  0
VERTEX
  8
OBJECT
 10
12.037964
 20
19.937382
 30
0.0
 42
0.072341
 70
     2
 50
270.0
  0
VERTEX
  8
OBJECT
 10
12.046111
 20
19.881368
 30
0.0
 42
0.058752
 50
270.0
  0
SEQEND
  8
OBJECT
  0
POLYLINE
  8
OBJECT
 66
     1
 10
0.0
 20
0.0
 30
0.0
  0
VERTEX
  8
OBJECT
 10
12.114569
 20
20.023199
 30
0.0
 42
0.09582
  0
VERTEX
  8
OBJECT
 10
12.105514
 20
19.976382
 30
0.0
 42
0.072341
 70
     2
 50
270.0
  0
VERTEX
  8
OBJECT
 10
12.113661
 20
19.920368
 30
0.0
 42
0.058752
 50
270.0
  0
VERTEX
  8
OBJECT
 10
12.141152
 20
19.856458
 30
0.0
 42
0.058752
  0
SEQEND
  8
OBJECT
  0
LINE
  8
OBJECT
 10
12.376147
 20
20.117132
 30
0.0
 11
12.376147
 21
19.367132
 31
0.0
  0
LINE
  8
OBJECT
 10
13.675185
 20
19.367132
 30
0.0
 11
13.675185
 21
19.070132
 31
0.0
  0
LINE
  8
OBJECT
 10
12.376147
 20
20.117132
 30
0.0
 11
13.675185
 21
19.367132
 31
0.0
  0
LINE
  8
OBJECT
 10
12.376147
 20
19.367132
 30
0.0
 11
13.282876
 21
18.843632
 31
0.0
  0
LINE
  8
OBJECT
 10
12.443697
 20
20.078132
 30
0.0
 11
12.443697
 21
19.406132
 31
0.0
  0
LINE
  8
OBJECT
 10
12.443697
 20
19.406132
 30
0.0
 11
13.350426
 21
18.882632
 31
0.0
  0
LINE
  8
OBJECT
 10
12.443697
 20
19.406132
 30
0.0
 11
12.376147
 21
19.367132
 31
0.0
  0
LINE
  8
OBJECT
 10
6.355936
 20
16.141362
 30
0.0
 11
8.29107
 21
15.024112
 31
0.0
  0
LINE
  8
OBJECT
 10
6.423486
 20
17.680362
 30
0.0
 11
8.805056
 21
16.305362
 31
0.0
  0
LINE
  8
OBJECT
 10
6.355936
 20
17.641362
 30
0.0
 11
8.737506
 21
16.266362
 31
0.0
  0
POLYLINE
  8
OBJECT
 66
     1
 10
0.0
 20
0.0
 30
0.0
  0
VERTEX
  8
OBJECT
 10
6.635624
 20
16.859928
 30
0.0
 42
0.09582
  0
VERTEX
  8
OBJECT
 10
6.626569
 20
16.813112
 30
0.0
 42
0.072341
 70
     2
 50
270.0
  0
VERTEX
  8
OBJECT
 10
6.634716
 20
16.757098
 30
0.0
 42
0.058752
 50
270.0
  0
VERTEX
  8
OBJECT
 10
6.662207
 20
16.693188
 30
0.0
 42
0.058752
  0
SEQEND
  8
OBJECT
  0
POLYLINE
  8
OBJECT
 66
     1
 10
0.0
 20
0.0
 30
0.0
 70
     1
  0
VERTEX
  8
OBJECT
 10
6.594657
 20
16.654188
 30
0.0
 42
0.058752
  0
VERTEX
  8
OBJECT
 10
6.636259
 20
16.598424
 30
0.0
 42
0.072341
  0
VERTEX
  8
OBJECT
 10
6.680695
 20
16.563362
 30
0.0
 42
0.106617
 70
     2
 50
330.0
  0
VERTEX
  8
OBJECT
 10
6.731096
 20
16.547153
 30
0.0
 42
0.156851
 50
330.0
  0
VERTEX
  8
OBJECT
 10
6.766734
 20
16.554839
 30
0.0
 42
0.156851
  0
VERTEX
  8
OBJECT
 10
6.79121
 20
16.58186
 30
0.0
 42
0.106617
  0
VERTEX
  8
OBJECT
 10
6.802372
 20
16.633612
 30
0.0
 42
0.072341
 70
     2
 50
90.0
  0
VERTEX
  8
OBJECT
 10
6.794225
 20
16.689626
 30
0.0
 42
0.058752
 50
90.0
  0
VERTEX
  8
OBJECT
 10
6.766734
 20
16.753536
 30
0.0
 42
0.058752
  0
VERTEX
  8
OBJECT
 10
6.725132
 20
16.8093
 30
0.0
 42
0.072341
  0
VERTEX
  8
OBJECT
 10
6.680695
 20
16.844362
 30
0.0
 42
0.106617
 70
     2
 50
150.0
  0
VERTEX
  8
OBJECT
 10
6.630295
 20
16.860571
 30
0.0
 42
0.156851
 50
150.0
  0
VERTEX
  8
OBJECT
 10
6.594657
 20
16.852885
 30
0.0
 42
0.156851
  0
VERTEX
  8
OBJECT
 10
6.570181
 20
16.825864
 30
0.0
 42
0.106617
  0
VERTEX
  8
OBJECT
 10
6.559019
 20
16.774112
 30
0.0
 42
0.072341
 70
     2
 50
270.0
  0
VERTEX
  8
OBJECT
 10
6.567166
 20
16.718098
 30
0.0
 42
0.058752
 50
270.0
  0
SEQEND
  8
OBJECT
  0
POLYLINE
  8
OBJECT
 66
     1
 10
0.0
 20
0.0
 30
0.0
  0
VERTEX
  8
OBJECT
 10
6.662207
 20
16.693188
 30
0.0
 42
0.058752
  0
VERTEX
  8
OBJECT
 10
6.703809
 20
16.637424
 30
0.0
 42
0.072341
  0
VERTEX
  8
OBJECT
 10
6.748245
 20
16.602362
 30
0.0
 42
0.09582
 70
     2
 50
330.0
  0
VERTEX
  8
OBJECT
 10
6.793317
 20
16.586796
 30
0.0
 42
0.156851
 50
330.0
  0
SEQEND
  8
OBJECT
  0
LINE
  8
OBJECT
 10
8.534423
 20
15.633612
 30
0.0
 11
8.534423
 21
14.883612
 31
0.0
  0
LINE
  8
OBJECT
 10
8.29107
 20
15.774112
 30
0.0
 11
8.29107
 21
15.024112
 31
0.0
  0
LINE
  8
OBJECT
 10
8.35862
 20
15.813112
 30
0.0
 11
8.35862
 21
15.063112
 31
0.0
  0
LINE
  8
OBJECT
 10
8.29107
 20
15.024112
 30
0.0
 11
8.35862
 21
15.063112
 31
0.0
  0
POLYLINE
  8
OBJECT
 66
     1
 10
0.0
 20
0.0
 30
0.0
  0
VERTEX
  8
OBJECT
 10
8.367675
 20
15.859928
 30
0.0
 42
0.09582
  0
VERTEX
  8
OBJECT
 10
8.35862
 20
15.813112
 30
0.0
 42
0.072341
 70
     2
 50
270.0
  0
SEQEND
  8
OBJECT
  0
POLYLINE
  8
OBJECT
 66
     1
 10
0.0
 20
0.0
 30
0.0
  0
VERTEX
  8
OBJECT
 10
8.534423
 20
15.633612
 30
0.0
 42
0.072341
 70
     2
 50
90.0
  0
VERTEX
  8
OBJECT
 10
8.526276
 20
15.689626
 30
0.0
 42
0.058752
 50
90.0
  0
VERTEX
  8
OBJECT
 10
8.498785
 20
15.753536
 30
0.0
 42
0.058752
  0
VERTEX
  8
OBJECT
 10
8.457182
 20
15.8093
 30
0.0
 42
0.072341
  0
VERTEX
  8
OBJECT
 10
8.412746
 20
15.844362
 30
0.0
 42
0.106617
 70
     2
 50
150.0
  0
VERTEX
  8
OBJECT
 10
8.362346
 20
15.860571
 30
0.0
 42
0.156851
 50
150.0
  0
VERTEX
  8
OBJECT
 10
8.326708
 20
15.852885
 30
0.0
 42
0.156851
  0
VERTEX
  8
OBJECT
 10
8.302232
 20
15.825864
 30
0.0
 42
0.106617
  0
VERTEX
  8
OBJECT
 10
8.29107
 20
15.774112
 30
0.0
 42
0.072341
 70
     2
 50
270.0
  0
SEQEND
  8
OBJECT
  0
LINE
  8
OBJECT
 10
8.534423
 20
14.883612
 30
0.0
 11
8.737506
 21
14.766362
 31
0.0
  0
LINE
  8
OBJECT
 10
6.355936
 20
17.641362
 30
0.0
 11
6.355936
 21
16.141362
 31
0.0
  0
LINE
  8
OBJECT
 10
8.737506
 20
16.266362
 30
0.0
 11
8.737506
 21
14.766362
 31
0.0
  0
LINE
  8
OBJECT
 10
8.737506
 20
16.266362
 30
0.0
 11
8.805056
 21
16.305362
 31
0.0
  0
LINE
  8
OBJECT
 10
8.805056
 20
16.305362
 30
0.0
 11
8.805056
 21
14.805362
 31
0.0
  0
LINE
  8
OBJECT
 10
8.737506
 20
14.766362
 30
0.0
 11
8.805056
 21
14.805362
 31
0.0
  0
LINE
  8
OBJECT
 10
6.355936
 20
17.641362
 30
0.0
 11
6.423486
 21
17.680362
 31
0.0
  0
LINE
  8
CENTER
 10
4.293502
 20
10.154731
 30
0.0
 11
7.708537
 21
10.154731
 31
0.0
  0
LINE
  8
CENTER
 10
7.989537
 20
10.154731
 30
0.0
 11
11.320184
 21
10.154731
 31
0.0
  0
DIMENSION
  8
DIM
  2
*D12
 10
13.210684
 20
8.837836
 30
0.0
 11
12.897942
 21
8.837836
 31
0.0
 12
-0.437258
 22
0.0
 32
0.0
 13
11.710684
 23
9.779731
 33
0.0
 14
13.210684
 24
9.779731
 34
0.0
  3
23NSTDI
  0
DIMENSION
  8
DIM
  2
*D13
 10
10.960684
 20
8.342099
 30
0.0
 11
11.772942
 21
8.342099
 31
0.0
 12
-0.437258
 22
0.0
 32
0.0
 13
11.710684
 23
9.779731
 33
0.0
 14
10.960684
 24
9.404731
 34
0.0
  3
23NSTDI
  0
DIMENSION
  8
DIM
  2
*D16
 10
13.460684
 20
11.440452
 30
0.0
 11
12.897942
 21
11.440452
 31
0.0
 12
-0.437258
 22
0.0
 32
0.0
 13
11.460684
 23
10.154731
 33
0.0
 14
13.460684
 24
10.154731
 34
0.0
  3
23NSTD
  0
DIMENSION
  8
DIM
  2
*D20
 10
10.960684
 20
11.440452
 30
0.0
 11
10.03959
 21
11.440452
 31
0.0
 13
11.460684
 23
10.154731
 33
0.0
 14
10.960684
 24
10.904731
 34
0.0
  3
23NSTD
  0
DIMENSION
  8
DIM
  2
*D23
 10
5.849037
 20
11.440452
 30
0.0
 11
6.849037
 21
11.440452
 31
0.0
  1
B
 13
7.849037
 23
10.154731
 33
0.0
 14
5.849037
 24
10.904731
 34
0.0
  3
23NSTD
  0
DIMENSION
  8
DIM
  2
*D15
 10
2.153002
 20
11.440452
 30
0.0
 11
3.412145
 21
11.440452
 31
0.0
 12
-0.259143
 22
0.0
 32
0.0
 13
4.153002
 23
10.154731
 33
0.0
 14
2.153002
 24
10.154731
 34
0.0
  3
23NSTD
  0
DIMENSION
  8
DIM
  2
*D14
 10
1.653002
 20
11.440452
 30
0.0
 11
0.991051
 21
11.440452
 31
0.0
 12
-0.259143
 22
0.0
 32
0.0
 13
2.153002
 23
10.154731
 33
0.0
 14
1.653002
 24
10.904731
 34
0.0
  3
23NSTD
  0
DIMENSION
  8
DIM
  2
*D17
 10
1.136719
 20
10.904731
 30
0.0
 11
1.395862
 21
10.154731
 31
0.0
 12
-0.259143
 22
0.0
 32
0.0
 13
1.653002
 23
9.404731
 33
0.0
 14
1.653002
 24
10.904731
 34
0.0
 50
90.0
  3
23NSTD
  0
DIMENSION
  8
DIM
  2
*D18
 10
5.15508
 20
10.904731
 30
0.0
 11
5.414222
 21
10.529731
 31
0.0
 12
-0.259143
 22
0.0
 32
0.0
 13
5.093091
 23
10.154731
 33
0.0
 14
4.653002
 24
10.904731
 34
0.0
 50
90.0
  3
23NSTDI
  0
DIMENSION
  8
DIM
  2
*D19
 10
14.4749
 20
9.779731
 30
0.0
 11
14.312936
 21
10.154731
 31
0.0
 12
0.161964
 22
0.0
 32
0.0
 13
13.210684
 23
10.529731
 33
0.0
 14
13.210684
 24
9.779731
 34
0.0
 50
90.0
  3
23NSTDI
  0
DIMENSION
  8
DIM
  2
*D21
 10
10.461139
 20
9.404731
 30
0.0
 11
10.461139
 21
9.592231
 31
0.0
 13
11.710684
 23
9.779731
 33
0.0
 14
10.960684
 24
9.404731
 34
0.0
 50
90.0
  3
23NSTDI
  0
POLYLINE
  8
DIM
 66
     1
 10
0.0
 20
0.0
 30
0.0
 41
0.10125
  0
VERTEX
  8
DIM
 10
4.247502
 20
4.408895
 30
0.0
  0
VERTEX
  8
DIM
 10
4.412619
 20
4.622521
 30
0.0
 41
0.0
  0
VERTEX
  8
DIM
 10
5.009711
 20
5.395031
 30
0.0
 41
0.0
  0
VERTEX
  8
DIM
 10
5.279711
 20
5.395031
 30
0.0
 41
0.0
  0
SEQEND
  8
DIM
  0
TEXT
  8
DIM
 10
5.414711
 20
5.301281
 30
0.0
 40
0.1875
  1
FULL RADIUS
 41
0.75
  7
TXT
 11
5.414711
 21
5.395031
 31
0.0
 73
     2
  0
POLYLINE
  8
DIM
 66
     1
 10
0.0
 20
0.0
 30
0.0
 41
0.10125
  0
VERTEX
  8
DIM
 10
2.132913
 20
4.130344
 30
0.0
  0
VERTEX
  8
DIM
 10
2.040648
 20
3.876597
 30
0.0
 41
0.0
  0
VERTEX
  8
DIM
 10
1.684444
 20
2.896968
 30
0.0
 41
0.0
  0
VERTEX
  8
DIM
 10
1.414444
 20
2.896968
 30
0.0
 41
0.0
  0
SEQEND
  8
DIM
  0
TEXT
  8
DIM
 10
0.224756
 20
2.803218
 30
0.0
 40
0.1875
  1
0.281 DIA.
 41
0.75
  7
TXT
 72
     2
 11
1.279444
 21
2.896968
 31
0.0
 73
     2
  0
POLYLINE
  8
DIM
 66
     1
 10
0.0
 20
0.0
 30
0.0
 41
0.10125
  0
VERTEX
  8
DIM
 10
4.262388
 20
10.242907
 30
0.0
  0
VERTEX
  8
DIM
 10
4.347128
 20
10.499264
 30
0.0
 41
0.0
  0
VERTEX
  8
DIM
 10
4.83981
 20
11.989726
 30
0.0
 41
0.0
  0
VERTEX
  8
DIM
 10
5.10981
 20
11.989726
 30
0.0
 41
0.0
  0
SEQEND
  8
DIM
  0
TEXT
  8
DIM
 10
5.24481
 20
11.895976
 30
0.0
 40
0.1875
  1
0.281 DIA. (6) HOLES
 41
0.75
  7
TXT
 11
5.24481
 21
11.989726
 31
0.0
 73
     2
  0
POLYLINE
  8
DIM
 66
     1
 10
0.0
 20
0.0
 30
0.0
 41
0.10125
  0
VERTEX
  8
DIM
 10
2.308073
 20
9.559802
 30
0.0
  0
VERTEX
  8
DIM
 10
2.426726
 20
9.31727
 30
0.0
 41
0.0
  0
VERTEX
  8
DIM
 10
2.720404
 20
8.716978
 30
0.0
 41
0.0
  0
VERTEX
  8
DIM
 10
2.990404
 20
8.716978
 30
0.0
 41
0.0
  0
SEQEND
  8
DIM
  0
TEXT
  8
DIM
 10
3.125404
 20
8.623228
 30
0.0
 40
0.1875
  1
0.250 x 0.250 CHAMFER
 41
0.75
  7
TXT
 11
3.125404
 21
8.716978
 31
0.0
 73
     2
  0
TEXT
  8
DIM
 10
3.125404
 20
8.310728
 30
0.0
 40
0.1875
  1
(4) PLACES
 41
0.75
  7
TXT
 11
3.125404
 21
8.404478
 31
0.0
 73
     2
  0
TEXT
  8
TEXT
 10
1.946055
 20
22.710702
 30
0.0
 40
0.281
  1
VERTICAL CABLEWAY RING
 41
0.75
  7
TXT
 72
     1
 11
4.22918
 21
22.710702
 31
0.0
  0
TEXT
  8
TEXT
 10
9.944194
 20
22.710702
 30
0.0
 40
0.281
  1
CM-1195   &   CM-1196
 41
0.75
  7
TXT
 72
     1
 11
11.981444
 21
22.710702
 31
0.0
  0
TEXT
  8
TEXT
 10
1.571052
 20
21.11439
 30
0.0
 40
0.188
  1
%%UMATERIAL:%%U  14 GA. STEEL
 41
0.75
  7
TXT
  0
TEXT
  8
TEXT
 10
1.571052
 20
20.524236
 30
0.0
 40
0.188
  1
%%UFINISH:%%U SMOOTH BLACK
 41
0.75
  7
TXT
  0
TEXT
  8
TEXT
 10
1.570272
 20
19.489443
 30
0.0
 40
0.188
  1
SUPPLIED WITH QTY. (4)
 41
0.75
  7
TXT
  0
TEXT
  8
TEXT
 10
1.570272
 20
19.17611
 30
0.0
 40
0.188
  1
 #12-24 x 1/2 LG. SCREWS
 41
0.75
  7
TXT
  0
TEXT
  8
TEXT
 10
1.833695
 20
0.794622
 30
0.0
 40
0.188
  1
PART No.
 41
0.75
  7
TXT
 72
     1
 11
2.327195
 21
0.794622
 31
0.0
  0
TEXT
  8
TEXT
 10
1.904195
 20
0.481289
 30
0.0
 40
0.188
  1
CM-1195
 41
0.75
  7
TXT
 72
     1
 11
2.327195
 21
0.481289
 31
0.0
  0
TEXT
  8
TEXT
 10
1.904195
 20
0.167955
 30
0.0
 40
0.188
  1
CM-1196
 41
0.75
  7
TXT
 72
     1
 11
2.327195
 21
0.167955
 31
0.0
  0
TEXT
  8
TEXT
 10
7.424413
 20
0.167955
 30
0.0
 40
0.188
  1
6.000
 41
0.75
  7
TXT
 72
     1
 11
7.671163
 21
0.167955
 31
0.0
  0
TEXT
  8
TEXT
 10
7.424413
 20
0.481289
 30
0.0
 40
0.188
  1
4.000
 41
0.75
  7
TXT
 72
     1
 11
7.671163
 21
0.481289
 31
0.0
  0
TEXT
  8
TEXT
 10
6.872163
 20
0.794622
 30
0.0
 40
0.188
  1
DIMENSION "A"
 41
0.75
  7
TXT
 72
     1
 11
7.671163
 21
0.794622
 31
0.0
  0
TEXT
  8
TEXT
 10
12.040599
 20
0.794622
 30
0.0
 40
0.188
  1
DIMENSION "B"
 41
0.75
  7
TXT
 72
     1
 11
12.839599
 21
0.794622
 31
0.0
  0
TEXT
  8
TEXT
 10
12.592849
 20
0.481289
 30
0.0
 40
0.188
  1
2.000
 41
0.75
  7
TXT
 72
     1
 11
12.839599
 21
0.481289
 31
0.0
  0
TEXT
  8
TEXT
 10
12.592849
 20
0.167955
 30
0.0
 40
0.188
  1
3.000
 41
0.75
  7
TXT
 72
     1
 11
12.839599
 21
0.167955
 31
0.0
  0
LINE
  8
TITLE
 10
15.087
 20
0.405
 30
0.0
 11
0.093
 21
0.405
 31
0.0
  0
LINE
  8
TITLE
 10
15.087
 20
0.717
 30
0.0
 11
0.093
 21
0.717
 31
0.0
  0
LINE
  8
TITLE
 10
15.087
 20
1.029
 30
0.0
 11
0.093
 21
1.029
 31
0.0
  0
LINE
  8
TITLE
 10
5.091
 20
0.093
 30
0.0
 11
5.091
 21
1.029
 31
0.0
  0
LINE
  8
TITLE
 10
10.089
 20
0.093
 30
0.0
 11
10.089
 21
1.029
 31
0.0
  0
TEXT
  8
TEXT
 10
2.92095
 20
7.82016
 30
0.0
 40
0.188
  1
%%URING
 41
0.75
  7
TXT
 72
     1
 11
3.1583
 21
7.82016
 31
0.0
  0
TEXT
  8
TEXT
 10
2.89745
 20
1.861943
 30
0.0
 40
0.188
  1
%%UGATE
 41
0.75
  7
TXT
 72
     1
 11
3.1583
 21
1.861943
 31
0.0
  0
TEXT
  8
TEXT
 10
1.570272
 20
18.871738
 30
0.0
 40
0.188
  1
 & QTY. (2) #12-24 CLIP NUTS
 41
0.75
  7
TXT
  0
ENDSEC
  0
EOF
