  0
SECTION
  2
HEADER
  9
$ACADVER
  1
AC1009
  9
$INSBASE
 10
0.0
 20
0.0
 30
0.0
  9
$EXTMIN
 10
0.0
 20
0.0
 30
0.0
  9
$EXTMAX
 10
60.72
 20
93.0
 30
0.0
  9
$LIMMIN
 10
0.0
 20
0.0
  9
$LIMMAX
 10
75.0
 20
50.0
  9
$ORTHOMODE
 70
     1
  9
$REGENMODE
 70
     1
  9
$FILLMODE
 70
     1
  9
$QTEXTMODE
 70
     0
  9
$MIRRTEXT
 70
     0
  9
$DRAGMODE
 70
     2
  9
$LTSCALE
 40
3.0
  9
$OSMODE
 70
     0
  9
$ATTMODE
 70
     1
  9
$TEXTSIZE
 40
0.75
  9
$TRACEWID
 40
0.05
  9
$TEXTSTYLE
  7
TXT
  9
$CLAYER
  8
OBJECT
  9
$CELTYPE
  6
BYLAYER
  9
$CECOLOR
 62
   256
  9
$DIMSCALE
 40
6.0
  9
$DIMASZ
 40
0.18
  9
$DIMEXO
 40
0.063
  9
$DIMDLI
 40
0.281
  9
$DIMRND
 40
0.0
  9
$DIMDLE
 40
0.0
  9
$DIMEXE
 40
0.093
  9
$DIMTP
 40
0.0
  9
$DIMTM
 40
0.0
  9
$DIMTXT
 40
0.125
  9
$DIMCEN
 40
0.09
  9
$DIMTSZ
 40
0.0
  9
$DIMTOL
 70
     0
  9
$DIMLIM
 70
     0
  9
$DIMTIH
 70
     1
  9
$DIMTOH
 70
     1
  9
$DIMSE1
 70
     0
  9
$DIMSE2
 70
     0
  9
$DIMTAD
 70
     0
  9
$DIMZIN
 70
     0
  9
$DIMBLK
  1

  9
$DIMASO
 70
     1
  9
$DIMSHO
 70
     1
  9
$DIMPOST
  1

  9
$DIMAPOST
  1

  9
$DIMALT
 70
     0
  9
$DIMALTD
 70
     2
  9
$DIMALTF
 40
25.4
  9
$DIMLFAC
 40
1.0
  9
$DIMTOFL
 70
     0
  9
$DIMTVP
 40
0.0
  9
$DIMTIX
 70
     0
  9
$DIMSOXD
 70
     0
  9
$DIMSAH
 70
     0
  9
$DIMBLK1
  1

  9
$DIMBLK2
  1

  9
$DIMSTYLE
  2
23NSTD
  9
$DIMCLRD
 70
     0
  9
$DIMCLRE
 70
     0
  9
$DIMCLRT
 70
     0
  9
$DIMTFAC
 40
1.0
  9
$DIMGAP
 40
0.09
  9
$LUNITS
 70
     2
  9
$LUPREC
 70
     3
  9
$SKETCHINC
 40
0.1
  9
$FILLETRAD
 40
0.0
  9
$AUNITS
 70
     0
  9
$AUPREC
 70
     0
  9
$MENU
  1
acad
  9
$ELEVATION
 40
0.0
  9
$PELEVATION
 40
0.0
  9
$THICKNESS
 40
0.0
  9
$LIMCHECK
 70
     0
  9
$BLIPMODE
 70
     1
  9
$CHAMFERA
 40
0.0
  9
$CHAMFERB
 40
0.0
  9
$SKPOLY
 70
     0
  9
$TDCREATE
 40
2450186.468670139
  9
$TDUPDATE
 40
2450189.364999536
  9
$TDINDWG
 40
0.0291517361
  9
$TDUSRTIMER
 40
0.0291517361
  9
$USRTIMER
 70
     1
  9
$ANGBASE
 50
0.0
  9
$ANGDIR
 70
     0
  9
$PDMODE
 70
     0
  9
$PDSIZE
 40
0.0
  9
$PLINEWID
 40
0.0
  9
$COORDS
 70
     0
  9
$SPLFRAME
 70
     0
  9
$SPLINETYPE
 70
     6
  9
$SPLINESEGS
 70
     8
  9
$ATTDIA
 70
     0
  9
$ATTREQ
 70
     1
  9
$HANDLING
 70
     0
  9
$HANDSEED
  5
0
  9
$SURFTAB1
 70
     6
  9
$SURFTAB2
 70
     6
  9
$SURFTYPE
 70
     6
  9
$SURFU
 70
     6
  9
$SURFV
 70
     6
  9
$UCSNAME
  2

  9
$UCSORG
 10
0.0
 20
0.0
 30
0.0
  9
$UCSXDIR
 10
1.0
 20
0.0
 30
0.0
  9
$UCSYDIR
 10
0.0
 20
1.0
 30
0.0
  9
$PUCSNAME
  2

  9
$PUCSORG
 10
0.0
 20
0.0
 30
0.0
  9
$PUCSXDIR
 10
1.0
 20
0.0
 30
0.0
  9
$PUCSYDIR
 10
0.0
 20
1.0
 30
0.0
  9
$USERI1
 70
     0
  9
$USERI2
 70
     0
  9
$USERI3
 70
     0
  9
$USERI4
 70
     0
  9
$USERI5
 70
     0
  9
$USERR1
 40
0.0
  9
$USERR2
 40
0.0
  9
$USERR3
 40
0.0
  9
$USERR4
 40
0.0
  9
$USERR5
 40
0.0
  9
$WORLDVIEW
 70
     1
  9
$SHADEDGE
 70
     3
  9
$SHADEDIF
 70
    70
  9
$TILEMODE
 70
     1
  9
$MAXACTVP
 70
    16
  9
$PINSBASE
 10
0.0
 20
0.0
 30
0.0
  9
$PLIMCHECK
 70
     0
  9
$PEXTMIN
 10
1.000000E+20
 20
1.000000E+20
 30
1.000000E+20
  9
$PEXTMAX
 10
-1.000000E+20
 20
-1.000000E+20
 30
-1.000000E+20
  9
$PLIMMIN
 10
0.0
 20
0.0
  9
$PLIMMAX
 10
12.0
 20
9.0
  9
$UNITMODE
 70
     0
  9
$VISRETAIN
 70
     0
  9
$PLINEGEN
 70
     0
  9
$PSLTSCALE
 70
     1
  9
$TREEDEPTH
 70
  3020
  9
$DWGCODEPAGE
  3
ascii
  0
ENDSEC
  0
SECTION
  2
TABLES
  0
TABLE
  2
VPORT
 70
     2
  0
VPORT
  2
*ACTIVE
 70
     0
 10
0.0
 20
0.0
 11
1.0
 21
1.0
 12
63.348787
 22
46.5
 13
0.0
 23
0.0
 14
0.5
 24
0.5
 15
0.0
 25
0.0
 16
0.0
 26
0.0
 36
1.0
 17
0.0
 27
0.0
 37
0.0
 40
93.0
 41
1.36234
 42
50.0
 43
0.0
 44
0.0
 50
0.0
 51
0.0
 71
     0
 72
   100
 73
     1
 74
     0
 75
     0
 76
     0
 77
     0
 78
     0
  0
ENDTAB
  0
TABLE
  2
LTYPE
 70
     6
  0
LTYPE
  2
CONTINUOUS
 70
    64
  3
Solid line
 72
    65
 73
     0
 40
0.0
  0
LTYPE
  2
HIDDEN
 70
    64
  3
_ _ _ _ _ _ _ _ _ _ _ _ _ _ _ _ _ _ _ _ _ _ _
 72
    65
 73
     2
 40
0.375
 49
0.25
 49
-0.125
  0
LTYPE
  2
PHANTOM
 70
    64
  3
_____ _ _ _____ _ _ _____ _ _ _____ _ _ ____
 72
    65
 73
     6
 40
2.5
 49
1.25
 49
-0.25
 49
0.25
 49
-0.25
 49
0.25
 49
-0.25
  0
LTYPE
  2
CENTER
 70
    64
  3
____ _ ____ _ ____ _ ____ _ ____ _ ____ _ ____
 72
    65
 73
     4
 40
2.0
 49
1.25
 49
-0.25
 49
0.25
 49
-0.25
  0
LTYPE
  2
HIDDEN2
 70
     0
  3
_ _ _ _ _ _ _ _ _ _ _ _ _ _ _ _ _ _ _ _ _ _ _ _
 72
    65
 73
     2
 40
0.1875
 49
0.125
 49
-0.0625
  0
LTYPE
  2
PHANTOM2
 70
     0
  3
___ _ _ ___ _ _ ___ _ _ ___ _ _ ___ _ _ ___ _ _
 72
    65
 73
     6
 40
1.25
 49
0.625
 49
-0.125
 49
0.125
 49
-0.125
 49
0.125
 49
-0.125
  0
ENDTAB
  0
TABLE
  2
LAYER
 70
     9
  0
LAYER
  2
0
 70
    64
 62
     7
  6
CONTINUOUS
  0
LAYER
  2
OBJECT
 70
    64
 62
     7
  6
CONTINUOUS
  0
LAYER
  2
DIM
 70
    64
 62
     7
  6
CONTINUOUS
  0
LAYER
  2
HIDDEN
 70
    64
 62
     7
  6
HIDDEN
  0
LAYER
  2
BEND
 70
    64
 62
     7
  6
PHANTOM
  0
LAYER
  2
TEXT
 70
    64
 62
     7
  6
CONTINUOUS
  0
LAYER
  2
TITLE
 70
    64
 62
     7
  6
CONTINUOUS
  0
LAYER
  2
CENTER
 70
    64
 62
     7
  6
CENTER
  0
LAYER
  2
DEFPOINTS
 70
    64
 62
     7
  6
CONTINUOUS
  0
ENDTAB
  0
TABLE
  2
STYLE
 70
     2
  0
STYLE
  2
STANDARD
 70
    64
 40
0.0
 41
1.0
 50
0.0
 71
     0
 42
0.2
  3
txt
  4

  0
STYLE
  2
TXT
 70
    64
 40
0.0
 41
0.75
 50
0.0
 71
     0
 42
0.75
  3
TXT.shx
  4

  0
ENDTAB
  0
TABLE
  2
VIEW
 70
     0
  0
ENDTAB
  0
TABLE
  2
UCS
 70
     0
  0
ENDTAB
  0
TABLE
  2
APPID
 70
     1
  0
APPID
  2
ACAD
 70
    64
  0
ENDTAB
  0
TABLE
  2
DIMSTYLE
 70
     2
  0
DIMSTYLE
  2
23NSTD
 70
    64
  3

  4

  5

  6

  7

 40
6.0
 41
0.18
 42
0.063
 43
0.281
 44
0.093
 45
0.0
 46
0.0
 47
0.0
 48
0.0
140
0.125
141
0.09
142
0.0
143
25.4
144
1.0
145
0.0
146
1.0
147
0.09
 71
     0
 72
     0
 73
     1
 74
     1
 75
     0
 76
     0
 77
     0
 78
     0
170
     0
171
     2
172
     0
173
     0
174
     0
175
     0
176
     0
177
     0
178
     0
  0
DIMSTYLE
  2
23NSTDI
 70
    64
  3

  4

  5

  6

  7

 40
6.0
 41
0.18
 42
0.063
 43
0.281
 44
0.093
 45
0.0
 46
0.0
 47
0.0
 48
0.0
140
0.125
141
0.09
142
0.0
143
25.4
144
1.0
145
0.0
146
1.0
147
0.09
 71
     0
 72
     0
 73
     1
 74
     1
 75
     0
 76
     0
 77
     0
 78
     0
170
     0
171
     2
172
     0
173
     0
174
     1
175
     0
176
     0
177
     0
178
     0
  0
ENDTAB
  0
ENDSEC
  0
SECTION
  2
BLOCKS
  0
BLOCK
  8
0
  2
HB
 70
    64
 10
0.0
 20
0.0
 30
0.0
  3
HB
  0
TEXT
  8
TEXT
 10
0.207833
 20
15.060079
 30
0.0
 40
0.125
  1
NAME
 72
     1
 11
0.437
 21
15.060079
 31
0.0
  0
TEXT
  8
TEXT
 10
0.207833
 20
15.268413
 30
0.0
 40
0.125
  1
PART
 72
     1
 11
0.437
 21
15.268413
 31
0.0
  0
TEXT
  8
TEXT
 10
5.372
 20
15.060079
 30
0.0
 40
0.125
  1
No.
 72
     1
 11
5.497
 21
15.060079
 31
0.0
  0
TEXT
  8
TEXT
 10
5.267833
 20
15.268413
 30
0.0
 40
0.125
  1
PART
 72
     1
 11
5.497
 21
15.268413
 31
0.0
  0
LINE
  8
TITLE
 10
5.872
 20
15.438
 30
0.0
 11
5.872
 21
15.02
 31
0.0
  0
LINE
  8
TITLE
 10
5.122
 20
15.438
 30
0.0
 11
5.122
 21
15.02
 31
0.0
  0
LINE
  8
TITLE
 10
5.06
 20
15.438
 30
0.0
 11
5.06
 21
15.02
 31
0.0
  0
LINE
  8
TITLE
 10
0.812
 20
15.02
 30
0.0
 11
0.812
 21
15.438
 31
0.0
  0
LINE
  8
TITLE
 10
0.062
 20
15.02
 30
0.0
 11
10.058
 21
15.02
 31
0.0
  0
LINE
  8
TITLE
 10
10.058
 20
0.062
 30
0.0
 11
0.062
 21
0.062
 31
0.0
  0
LINE
  8
TITLE
 10
10.058
 20
15.438
 30
0.0
 11
10.058
 21
0.062
 31
0.0
  0
LINE
  8
TITLE
 10
0.062
 20
15.438
 30
0.0
 11
10.058
 21
15.438
 31
0.0
  0
LINE
  8
TITLE
 10
0.062
 20
0.062
 30
0.0
 11
0.062
 21
15.438
 31
0.0
  0
LINE
  8
TITLE
 10
0.0
 20
0.0
 30
0.0
 11
0.0
 21
15.5
 31
0.0
  0
LINE
  8
TITLE
 10
10.12
 20
0.0
 30
0.0
 11
0.0
 21
0.0
 31
0.0
  0
LINE
  8
TITLE
 10
10.12
 20
15.5
 30
0.0
 11
10.12
 21
0.0
 31
0.0
  0
LINE
  8
TITLE
 10
0.0
 20
15.5
 30
0.0
 11
10.12
 21
15.5
 31
0.0
  0
ENDBLK
  8
0
  0
BLOCK
  8
0
  2
*D1
 70
    65
 10
0.0
 20
0.0
 30
0.0
  3
*D
  0
LINE
  8
0
  6
BYBLOCK
 62
     0
 10
41.384434
 20
88.713072
 30
0.0
 11
41.384434
 21
87.140505
 31
0.0
  0
LINE
  8
0
  6
BYBLOCK
 62
     0
 10
38.259434
 20
88.713072
 30
0.0
 11
38.259434
 21
87.140505
 31
0.0
  0
LINE
  8
0
  6
BYBLOCK
 62
     0
 10
42.464434
 20
87.698505
 30
0.0
 11
43.544434
 21
87.698505
 31
0.0
  0
LINE
  8
0
  6
BYBLOCK
 62
     0
 10
37.179434
 20
87.698505
 30
0.0
 11
36.099434
 21
87.698505
 31
0.0
  0
SOLID
  8
0
  6
BYBLOCK
 62
     0
 10
42.464434
 20
87.878505
 30
0.0
 11
42.464434
 21
87.518505
 31
0.0
 12
41.384434
 22
87.698505
 32
0.0
 13
41.384434
 23
87.698505
 33
0.0
  0
SOLID
  8
0
  6
BYBLOCK
 62
     0
 10
37.179434
 20
87.878505
 30
0.0
 11
37.179434
 21
87.518505
 31
0.0
 12
38.259434
 22
87.698505
 32
0.0
 13
38.259434
 23
87.698505
 33
0.0
  0
TEXT
  8
0
  6
BYBLOCK
 62
     0
 10
38.790684
 20
87.323505
 30
0.0
 40
0.75
  1
3.125
 41
0.75
  7
TXT
 72
     1
 11
39.821934
 21
87.698505
 31
0.0
 73
     2
  0
POINT
  8
DEFPOINTS
  6
BYBLOCK
 62
     0
 10
41.384434
 20
89.091072
 30
0.0
  0
POINT
  8
DEFPOINTS
  6
BYBLOCK
 62
     0
 10
38.259434
 20
89.091072
 30
0.0
  0
POINT
  8
DEFPOINTS
  6
BYBLOCK
 62
     0
 10
38.259434
 20
87.698505
 30
0.0
  0
ENDBLK
  8
0
  0
BLOCK
  8
0
  2
*D2
 70
    65
 10
0.0
 20
0.0
 30
0.0
  3
*D
  0
LINE
  8
0
  6
BYBLOCK
 62
     0
 10
37.912434
 20
87.689576
 30
0.0
 11
34.838179
 21
87.689576
 31
0.0
  0
LINE
  8
0
  6
BYBLOCK
 62
     0
 10
37.881434
 20
87.189576
 30
0.0
 11
34.838179
 21
87.189576
 31
0.0
  0
LINE
  8
0
  6
BYBLOCK
 62
     0
 10
35.396179
 20
88.769576
 30
0.0
 11
35.396179
 21
89.849576
 31
0.0
  0
LINE
  8
0
  6
BYBLOCK
 62
     0
 10
35.396179
 20
86.109576
 30
0.0
 11
35.396179
 21
85.029576
 31
0.0
  0
LINE
  8
0
  6
BYBLOCK
 62
     0
 10
35.396179
 20
85.029576
 30
0.0
 11
34.316179
 21
85.029576
 31
0.0
  0
SOLID
  8
0
  6
BYBLOCK
 62
     0
 10
35.216179
 20
88.769576
 30
0.0
 11
35.576179
 21
88.769576
 31
0.0
 12
35.396179
 22
87.689576
 32
0.0
 13
35.396179
 23
87.689576
 33
0.0
  0
SOLID
  8
0
  6
BYBLOCK
 62
     0
 10
35.216179
 20
86.109576
 30
0.0
 11
35.576179
 21
86.109576
 31
0.0
 12
35.396179
 22
87.189576
 32
0.0
 13
35.396179
 23
87.189576
 33
0.0
  0
TEXT
  8
0
  6
BYBLOCK
 62
     0
 10
31.807429
 20
84.654576
 30
0.0
 40
0.75
  1
0.500
 41
0.75
  7
TXT
 72
     1
 11
32.791804
 21
85.029576
 31
0.0
 73
     2
  0
POINT
  8
DEFPOINTS
  6
BYBLOCK
 62
     0
 10
38.290434
 20
87.689576
 30
0.0
  0
POINT
  8
DEFPOINTS
  6
BYBLOCK
 62
     0
 10
38.259434
 20
87.189576
 30
0.0
  0
POINT
  8
DEFPOINTS
  6
BYBLOCK
 62
     0
 10
35.396179
 20
87.189576
 30
0.0
  0
ENDBLK
  8
0
  0
BLOCK
  8
0
  2
*D3
 70
    65
 10
0.0
 20
0.0
 30
0.0
  3
*D
  0
LINE
  8
0
  6
BYBLOCK
 62
     0
 10
16.023101
 20
48.946645
 30
0.0
 11
19.693522
 21
48.946645
 31
0.0
  0
LINE
  8
0
  6
BYBLOCK
 62
     0
 10
16.023101
 20
36.946645
 30
0.0
 11
19.693522
 21
36.946645
 31
0.0
  0
LINE
  8
0
  6
BYBLOCK
 62
     0
 10
19.135522
 20
47.866645
 30
0.0
 11
19.135522
 21
43.861645
 31
0.0
  0
LINE
  8
0
  6
BYBLOCK
 62
     0
 10
19.135522
 20
38.026645
 30
0.0
 11
19.135522
 21
42.031645
 31
0.0
  0
SOLID
  8
0
  6
BYBLOCK
 62
     0
 10
18.955522
 20
47.866645
 30
0.0
 11
19.315522
 21
47.866645
 31
0.0
 12
19.135522
 22
48.946645
 32
0.0
 13
19.135522
 23
48.946645
 33
0.0
  0
SOLID
  8
0
  6
BYBLOCK
 62
     0
 10
18.955522
 20
38.026645
 30
0.0
 11
19.315522
 21
38.026645
 31
0.0
 12
19.135522
 22
36.946645
 32
0.0
 13
19.135522
 23
36.946645
 33
0.0
  0
TEXT
  8
0
  6
BYBLOCK
 62
     0
 10
17.963647
 20
42.571645
 30
0.0
 40
0.75
  1
12.000
 41
0.75
  7
TXT
 72
     1
 11
19.135522
 21
42.946645
 31
0.0
 73
     2
  0
POINT
  8
DEFPOINTS
  6
BYBLOCK
 62
     0
 10
15.645101
 20
48.946645
 30
0.0
  0
POINT
  8
DEFPOINTS
  6
BYBLOCK
 62
     0
 10
15.645101
 20
36.946645
 30
0.0
  0
POINT
  8
DEFPOINTS
  6
BYBLOCK
 62
     0
 10
19.135522
 20
36.946645
 30
0.0
  0
ENDBLK
  8
0
  0
BLOCK
  8
0
  2
*D4
 70
    65
 10
0.0
 20
0.0
 30
0.0
  3
*D
  0
LINE
  8
0
  6
BYBLOCK
 62
     0
 10
16.585101
 20
1.446645
 30
0.0
 11
22.749951
 21
1.446645
 31
0.0
  0
LINE
  8
0
  6
BYBLOCK
 62
     0
 10
16.585101
 20
84.446645
 30
0.0
 11
22.749951
 21
84.446645
 31
0.0
  0
LINE
  8
0
  6
BYBLOCK
 62
     0
 10
22.191951
 20
2.526645
 30
0.0
 11
22.191951
 21
45.134631
 31
0.0
  0
LINE
  8
0
  6
BYBLOCK
 62
     0
 10
22.191951
 20
83.366645
 30
0.0
 11
22.191951
 21
46.964631
 31
0.0
  0
SOLID
  8
0
  6
BYBLOCK
 62
     0
 10
22.011951
 20
2.526645
 30
0.0
 11
22.371951
 21
2.526645
 31
0.0
 12
22.191951
 22
1.446645
 32
0.0
 13
22.191951
 23
1.446645
 33
0.0
  0
SOLID
  8
0
  6
BYBLOCK
 62
     0
 10
22.011951
 20
83.366645
 30
0.0
 11
22.371951
 21
83.366645
 31
0.0
 12
22.191951
 22
84.446645
 32
0.0
 13
22.191951
 23
84.446645
 33
0.0
  0
TEXT
  8
0
  6
BYBLOCK
 62
     0
 10
20.926326
 20
45.674631
 30
0.0
 40
0.75
  1
83.000
 41
0.75
  7
TXT
 72
     1
 11
22.191951
 21
46.049631
 31
0.0
 73
     2
  0
POINT
  8
DEFPOINTS
  6
BYBLOCK
 62
     0
 10
16.207101
 20
1.446645
 30
0.0
  0
POINT
  8
DEFPOINTS
  6
BYBLOCK
 62
     0
 10
16.207101
 20
84.446645
 30
0.0
  0
POINT
  8
DEFPOINTS
  6
BYBLOCK
 62
     0
 10
22.191951
 20
84.446645
 30
0.0
  0
ENDBLK
  8
0
  0
BLOCK
  8
0
  2
*D5
 70
    65
 10
0.0
 20
0.0
 30
0.0
  3
*D
  0
LINE
  8
0
  6
BYBLOCK
 62
     0
 10
16.023101
 20
24.946645
 30
0.0
 11
19.693522
 21
24.946645
 31
0.0
  0
LINE
  8
0
  6
BYBLOCK
 62
     0
 10
16.023101
 20
12.946645
 30
0.0
 11
19.693522
 21
12.946645
 31
0.0
  0
LINE
  8
0
  6
BYBLOCK
 62
     0
 10
19.135522
 20
23.866645
 30
0.0
 11
19.135522
 21
19.861645
 31
0.0
  0
LINE
  8
0
  6
BYBLOCK
 62
     0
 10
19.135522
 20
14.026645
 30
0.0
 11
19.135522
 21
18.031645
 31
0.0
  0
SOLID
  8
0
  6
BYBLOCK
 62
     0
 10
18.955522
 20
23.866645
 30
0.0
 11
19.315522
 21
23.866645
 31
0.0
 12
19.135522
 22
24.946645
 32
0.0
 13
19.135522
 23
24.946645
 33
0.0
  0
SOLID
  8
0
  6
BYBLOCK
 62
     0
 10
18.955522
 20
14.026645
 30
0.0
 11
19.315522
 21
14.026645
 31
0.0
 12
19.135522
 22
12.946645
 32
0.0
 13
19.135522
 23
12.946645
 33
0.0
  0
TEXT
  8
0
  6
BYBLOCK
 62
     0
 10
17.963647
 20
18.571645
 30
0.0
 40
0.75
  1
12.000
 41
0.75
  7
TXT
 72
     1
 11
19.135522
 21
18.946645
 31
0.0
 73
     2
  0
POINT
  8
DEFPOINTS
  6
BYBLOCK
 62
     0
 10
15.645101
 20
24.946645
 30
0.0
  0
POINT
  8
DEFPOINTS
  6
BYBLOCK
 62
     0
 10
15.645101
 20
12.946645
 30
0.0
  0
POINT
  8
DEFPOINTS
  6
BYBLOCK
 62
     0
 10
19.135522
 20
12.946645
 30
0.0
  0
ENDBLK
  8
0
  0
BLOCK
  8
0
  2
*D6
 70
    65
 10
0.0
 20
0.0
 30
0.0
  3
*D
  0
LINE
  8
0
  6
BYBLOCK
 62
     0
 10
16.023101
 20
36.946645
 30
0.0
 11
19.693522
 21
36.946645
 31
0.0
  0
LINE
  8
0
  6
BYBLOCK
 62
     0
 10
16.023101
 20
24.946645
 30
0.0
 11
19.693522
 21
24.946645
 31
0.0
  0
LINE
  8
0
  6
BYBLOCK
 62
     0
 10
19.135522
 20
35.866645
 30
0.0
 11
19.135522
 21
31.861645
 31
0.0
  0
LINE
  8
0
  6
BYBLOCK
 62
     0
 10
19.135522
 20
26.026645
 30
0.0
 11
19.135522
 21
30.031645
 31
0.0
  0
SOLID
  8
0
  6
BYBLOCK
 62
     0
 10
18.955522
 20
35.866645
 30
0.0
 11
19.315522
 21
35.866645
 31
0.0
 12
19.135522
 22
36.946645
 32
0.0
 13
19.135522
 23
36.946645
 33
0.0
  0
SOLID
  8
0
  6
BYBLOCK
 62
     0
 10
18.955522
 20
26.026645
 30
0.0
 11
19.315522
 21
26.026645
 31
0.0
 12
19.135522
 22
24.946645
 32
0.0
 13
19.135522
 23
24.946645
 33
0.0
  0
TEXT
  8
0
  6
BYBLOCK
 62
     0
 10
17.963647
 20
30.571645
 30
0.0
 40
0.75
  1
12.000
 41
0.75
  7
TXT
 72
     1
 11
19.135522
 21
30.946645
 31
0.0
 73
     2
  0
POINT
  8
DEFPOINTS
  6
BYBLOCK
 62
     0
 10
15.645101
 20
36.946645
 30
0.0
  0
POINT
  8
DEFPOINTS
  6
BYBLOCK
 62
     0
 10
15.645101
 20
24.946645
 30
0.0
  0
POINT
  8
DEFPOINTS
  6
BYBLOCK
 62
     0
 10
19.135522
 20
24.946645
 30
0.0
  0
ENDBLK
  8
0
  0
BLOCK
  8
0
  2
*D7
 70
    65
 10
0.0
 20
0.0
 30
0.0
  3
*D
  0
LINE
  8
0
  6
BYBLOCK
 62
     0
 10
16.023101
 20
72.946645
 30
0.0
 11
19.693522
 21
72.946645
 31
0.0
  0
LINE
  8
0
  6
BYBLOCK
 62
     0
 10
16.585101
 20
84.446645
 30
0.0
 11
19.693522
 21
84.446645
 31
0.0
  0
LINE
  8
0
  6
BYBLOCK
 62
     0
 10
19.135522
 20
74.026645
 30
0.0
 11
19.135522
 21
77.781645
 31
0.0
  0
LINE
  8
0
  6
BYBLOCK
 62
     0
 10
19.135522
 20
83.366645
 30
0.0
 11
19.135522
 21
79.611645
 31
0.0
  0
SOLID
  8
0
  6
BYBLOCK
 62
     0
 10
18.955522
 20
74.026645
 30
0.0
 11
19.315522
 21
74.026645
 31
0.0
 12
19.135522
 22
72.946645
 32
0.0
 13
19.135522
 23
72.946645
 33
0.0
  0
SOLID
  8
0
  6
BYBLOCK
 62
     0
 10
18.955522
 20
83.366645
 30
0.0
 11
19.315522
 21
83.366645
 31
0.0
 12
19.135522
 22
84.446645
 32
0.0
 13
19.135522
 23
84.446645
 33
0.0
  0
TEXT
  8
0
  6
BYBLOCK
 62
     0
 10
18.010522
 20
78.321645
 30
0.0
 40
0.75
  1
11.500
 41
0.75
  7
TXT
 72
     1
 11
19.135522
 21
78.696645
 31
0.0
 73
     2
  0
POINT
  8
DEFPOINTS
  6
BYBLOCK
 62
     0
 10
15.645101
 20
72.946645
 30
0.0
  0
POINT
  8
DEFPOINTS
  6
BYBLOCK
 62
     0
 10
16.207101
 20
84.446645
 30
0.0
  0
POINT
  8
DEFPOINTS
  6
BYBLOCK
 62
     0
 10
19.135522
 20
84.446645
 30
0.0
  0
ENDBLK
  8
0
  0
BLOCK
  8
0
  2
*D8
 70
    65
 10
0.0
 20
0.0
 30
0.0
  3
*D
  0
LINE
  8
0
  6
BYBLOCK
 62
     0
 10
16.023101
 20
72.946645
 30
0.0
 11
19.693522
 21
72.946645
 31
0.0
  0
LINE
  8
0
  6
BYBLOCK
 62
     0
 10
16.023101
 20
60.946645
 30
0.0
 11
19.693522
 21
60.946645
 31
0.0
  0
LINE
  8
0
  6
BYBLOCK
 62
     0
 10
19.135522
 20
71.866645
 30
0.0
 11
19.135522
 21
67.861645
 31
0.0
  0
LINE
  8
0
  6
BYBLOCK
 62
     0
 10
19.135522
 20
62.026645
 30
0.0
 11
19.135522
 21
66.031645
 31
0.0
  0
SOLID
  8
0
  6
BYBLOCK
 62
     0
 10
18.955522
 20
71.866645
 30
0.0
 11
19.315522
 21
71.866645
 31
0.0
 12
19.135522
 22
72.946645
 32
0.0
 13
19.135522
 23
72.946645
 33
0.0
  0
SOLID
  8
0
  6
BYBLOCK
 62
     0
 10
18.955522
 20
62.026645
 30
0.0
 11
19.315522
 21
62.026645
 31
0.0
 12
19.135522
 22
60.946645
 32
0.0
 13
19.135522
 23
60.946645
 33
0.0
  0
TEXT
  8
0
  6
BYBLOCK
 62
     0
 10
17.963647
 20
66.571645
 30
0.0
 40
0.75
  1
12.000
 41
0.75
  7
TXT
 72
     1
 11
19.135522
 21
66.946645
 31
0.0
 73
     2
  0
POINT
  8
DEFPOINTS
  6
BYBLOCK
 62
     0
 10
15.645101
 20
72.946645
 30
0.0
  0
POINT
  8
DEFPOINTS
  6
BYBLOCK
 62
     0
 10
15.645101
 20
60.946645
 30
0.0
  0
POINT
  8
DEFPOINTS
  6
BYBLOCK
 62
     0
 10
19.135522
 20
60.946645
 30
0.0
  0
ENDBLK
  8
0
  0
BLOCK
  8
0
  2
*D9
 70
    65
 10
0.0
 20
0.0
 30
0.0
  3
*D
  0
LINE
  8
0
  6
BYBLOCK
 62
     0
 10
16.023101
 20
60.946645
 30
0.0
 11
19.693522
 21
60.946645
 31
0.0
  0
LINE
  8
0
  6
BYBLOCK
 62
     0
 10
16.023101
 20
48.946645
 30
0.0
 11
19.693522
 21
48.946645
 31
0.0
  0
LINE
  8
0
  6
BYBLOCK
 62
     0
 10
19.135522
 20
59.866645
 30
0.0
 11
19.135522
 21
55.861645
 31
0.0
  0
LINE
  8
0
  6
BYBLOCK
 62
     0
 10
19.135522
 20
50.026645
 30
0.0
 11
19.135522
 21
54.031645
 31
0.0
  0
SOLID
  8
0
  6
BYBLOCK
 62
     0
 10
18.955522
 20
59.866645
 30
0.0
 11
19.315522
 21
59.866645
 31
0.0
 12
19.135522
 22
60.946645
 32
0.0
 13
19.135522
 23
60.946645
 33
0.0
  0
SOLID
  8
0
  6
BYBLOCK
 62
     0
 10
18.955522
 20
50.026645
 30
0.0
 11
19.315522
 21
50.026645
 31
0.0
 12
19.135522
 22
48.946645
 32
0.0
 13
19.135522
 23
48.946645
 33
0.0
  0
TEXT
  8
0
  6
BYBLOCK
 62
     0
 10
17.963647
 20
54.571645
 30
0.0
 40
0.75
  1
12.000
 41
0.75
  7
TXT
 72
     1
 11
19.135522
 21
54.946645
 31
0.0
 73
     2
  0
POINT
  8
DEFPOINTS
  6
BYBLOCK
 62
     0
 10
15.645101
 20
60.946645
 30
0.0
  0
POINT
  8
DEFPOINTS
  6
BYBLOCK
 62
     0
 10
15.645101
 20
48.946645
 30
0.0
  0
POINT
  8
DEFPOINTS
  6
BYBLOCK
 62
     0
 10
19.135522
 20
48.946645
 30
0.0
  0
ENDBLK
  8
0
  0
BLOCK
  8
0
  2
*D10
 70
    65
 10
0.0
 20
0.0
 30
0.0
  3
*D
  0
LINE
  8
0
  6
BYBLOCK
 62
     0
 10
13.645101
 20
12.568645
 30
0.0
 11
13.645101
 21
7.627791
 31
0.0
  0
LINE
  8
0
  6
BYBLOCK
 62
     0
 10
13.082101
 20
8.276458
 30
0.0
 11
13.082101
 21
7.627791
 31
0.0
  0
LINE
  8
0
  6
BYBLOCK
 62
     0
 10
14.725101
 20
8.185791
 30
0.0
 11
15.805101
 21
8.185791
 31
0.0
  0
LINE
  8
0
  6
BYBLOCK
 62
     0
 10
12.002101
 20
8.185791
 30
0.0
 11
10.922101
 21
8.185791
 31
0.0
  0
SOLID
  8
0
  6
BYBLOCK
 62
     0
 10
14.725101
 20
8.365791
 30
0.0
 11
14.725101
 21
8.005791
 31
0.0
 12
13.645101
 22
8.185791
 32
0.0
 13
13.645101
 23
8.185791
 33
0.0
  0
SOLID
  8
0
  6
BYBLOCK
 62
     0
 10
12.002101
 20
8.365791
 30
0.0
 11
12.002101
 21
8.005791
 31
0.0
 12
13.082101
 22
8.185791
 32
0.0
 13
13.082101
 23
8.185791
 33
0.0
  0
TEXT
  8
0
  6
BYBLOCK
 62
     0
 10
8.225851
 20
7.810791
 30
0.0
 40
0.75
  1
0.563
 41
0.75
  7
TXT
 72
     1
 11
9.303976
 21
8.185791
 31
0.0
 73
     2
  0
POINT
  8
DEFPOINTS
  6
BYBLOCK
 62
     0
 10
13.645101
 20
12.946645
 30
0.0
  0
POINT
  8
DEFPOINTS
  6
BYBLOCK
 62
     0
 10
13.082101
 20
8.654458
 30
0.0
  0
POINT
  8
DEFPOINTS
  6
BYBLOCK
 62
     0
 10
13.082101
 20
8.185791
 30
0.0
  0
ENDBLK
  8
0
  0
BLOCK
  8
0
  2
*D11
 70
    65
 10
0.0
 20
0.0
 30
0.0
  3
*D
  0
LINE
  8
0
  6
BYBLOCK
 62
     0
 10
13.645101
 20
12.568645
 30
0.0
 11
13.645101
 21
9.596194
 31
0.0
  0
LINE
  8
0
  6
BYBLOCK
 62
     0
 10
15.645101
 20
12.568645
 30
0.0
 11
15.645101
 21
9.596194
 31
0.0
  0
LINE
  8
0
  6
BYBLOCK
 62
     0
 10
12.565101
 20
10.154194
 30
0.0
 11
11.485101
 21
10.154194
 31
0.0
  0
LINE
  8
0
  6
BYBLOCK
 62
     0
 10
16.725101
 20
10.154194
 30
0.0
 11
17.805101
 21
10.154194
 31
0.0
  0
SOLID
  8
0
  6
BYBLOCK
 62
     0
 10
12.565101
 20
10.334194
 30
0.0
 11
12.565101
 21
9.974194
 31
0.0
 12
13.645101
 22
10.154194
 32
0.0
 13
13.645101
 23
10.154194
 33
0.0
  0
SOLID
  8
0
  6
BYBLOCK
 62
     0
 10
16.725101
 20
10.334194
 30
0.0
 11
16.725101
 21
9.974194
 31
0.0
 12
15.645101
 22
10.154194
 32
0.0
 13
15.645101
 23
10.154194
 33
0.0
  0
TEXT
  8
0
  6
BYBLOCK
 62
     0
 10
18.345101
 20
9.779194
 30
0.0
 40
0.75
  1
2.000
 41
0.75
  7
TXT
 72
     1
 11
19.329476
 21
10.154194
 31
0.0
 73
     2
  0
POINT
  8
DEFPOINTS
  6
BYBLOCK
 62
     0
 10
13.645101
 20
12.946645
 30
0.0
  0
POINT
  8
DEFPOINTS
  6
BYBLOCK
 62
     0
 10
15.645101
 20
12.946645
 30
0.0
  0
POINT
  8
DEFPOINTS
  6
BYBLOCK
 62
     0
 10
15.645101
 20
10.154194
 30
0.0
  0
ENDBLK
  8
0
  0
ENDSEC
  0
SECTION
  2
ENTITIES
  0
LINE
  8
OBJECT
 10
16.207101
 20
1.446645
 30
0.0
 11
13.082101
 21
1.446645
 31
0.0
  0
LINE
  8
OBJECT
 10
13.082101
 20
84.446645
 30
0.0
 11
16.207101
 21
84.446645
 31
0.0
  0
CIRCLE
  8
OBJECT
 10
15.645101
 20
12.946645
 30
0.0
 40
0.1405
  0
CIRCLE
  8
OBJECT
 10
13.645101
 20
12.946645
 30
0.0
 40
0.1405
  0
CIRCLE
  8
OBJECT
 10
13.645101
 20
24.946645
 30
0.0
 40
0.1405
  0
CIRCLE
  8
OBJECT
 10
15.645101
 20
24.946645
 30
0.0
 40
0.1405
  0
CIRCLE
  8
OBJECT
 10
13.645101
 20
36.946645
 30
0.0
 40
0.1405
  0
CIRCLE
  8
OBJECT
 10
15.645101
 20
36.946645
 30
0.0
 40
0.1405
  0
CIRCLE
  8
OBJECT
 10
13.645101
 20
48.946645
 30
0.0
 40
0.1405
  0
CIRCLE
  8
OBJECT
 10
15.645101
 20
48.946645
 30
0.0
 40
0.1405
  0
CIRCLE
  8
OBJECT
 10
13.645101
 20
60.946645
 30
0.0
 40
0.1405
  0
CIRCLE
  8
OBJECT
 10
15.645101
 20
60.946645
 30
0.0
 40
0.1405
  0
CIRCLE
  8
OBJECT
 10
13.645101
 20
72.946645
 30
0.0
 40
0.1405
  0
CIRCLE
  8
OBJECT
 10
15.645101
 20
72.946645
 30
0.0
 40
0.1405
  0
LINE
  8
OBJECT
 10
16.207601
 20
87.189576
 30
0.0
 11
13.082601
 21
87.189576
 31
0.0
  0
LINE
  8
OBJECT
 10
13.082601
 20
87.189576
 30
0.0
 11
13.082601
 21
87.658576
 31
0.0
  0
LINE
  8
OBJECT
 10
13.113601
 20
87.220576
 30
0.0
 11
13.113601
 21
87.658576
 31
0.0
  0
LINE
  8
OBJECT
 10
16.176601
 20
87.220576
 30
0.0
 11
13.113601
 21
87.220576
 31
0.0
  0
LINE
  8
OBJECT
 10
13.144601
 20
87.220576
 30
0.0
 11
13.144601
 21
87.658576
 31
0.0
  0
ARC
  8
OBJECT
 10
13.113601
 20
87.658576
 30
0.0
 40
0.031
 50
0.0
 51
180.0
  0
ARC
  8
OBJECT
 10
16.176601
 20
87.658576
 30
0.0
 40
0.031
 50
0.0
 51
180.0
  0
LINE
  8
OBJECT
 10
16.176601
 20
87.220576
 30
0.0
 11
16.176601
 21
87.658576
 31
0.0
  0
LINE
  8
OBJECT
 10
16.145601
 20
87.220576
 30
0.0
 11
16.145601
 21
87.658576
 31
0.0
  0
LINE
  8
OBJECT
 10
16.207601
 20
87.189576
 30
0.0
 11
16.207601
 21
87.658576
 31
0.0
  0
DIMENSION
  8
DIM
  2
*D1
 10
13.082601
 20
85.797009
 30
0.0
 11
14.645101
 21
85.797009
 31
0.0
 12
-25.176834
 22
-1.901496
 32
0.0
 13
16.207601
 23
87.189576
 33
0.0
 14
13.082601
 24
87.189576
 34
0.0
 50
180.0
  3
23NSTDI
  0
LINE
  8
OBJECT
 10
16.207101
 20
1.446645
 30
0.0
 11
16.207101
 21
84.446645
 31
0.0
  0
LINE
  8
OBJECT
 10
13.082101
 20
1.446645
 30
0.0
 11
13.082101
 21
84.446645
 31
0.0
  0
LINE
  8
HIDDEN
 10
16.145101
 20
1.446645
 30
0.0
 11
16.145101
 21
84.446645
 31
0.0
  0
LINE
  8
HIDDEN
 10
13.144101
 20
1.446645
 30
0.0
 11
13.144101
 21
84.446645
 31
0.0
  0
INSERT
  8
OBJECT
  2
HB
 10
0.0
 20
0.0
 30
0.0
 41
6.0
 42
6.0
 43
6.0
  0
DIMENSION
  8
DIM
  2
*D2
 10
10.219345
 20
87.189576
 30
0.0
 11
7.61497
 21
85.029576
 31
0.0
 12
-25.176834
 22
0.0
 32
0.0
 13
13.113601
 23
87.689576
 33
0.0
 14
13.082601
 24
87.189576
 34
0.0
 50
90.0
  3
23NSTD
  0
DIMENSION
  8
DIM
  2
*D7
 10
19.135522
 20
84.446645
 30
0.0
 11
19.135522
 21
78.696645
 31
0.0
 13
15.645101
 23
72.946645
 33
0.0
 14
16.207101
 24
84.446645
 34
0.0
 50
90.0
  3
23NSTD
  0
DIMENSION
  8
DIM
  2
*D8
 10
19.135522
 20
60.946645
 30
0.0
 11
19.135522
 21
66.946645
 31
0.0
 13
15.645101
 23
72.946645
 33
0.0
 14
15.645101
 24
60.946645
 34
0.0
 50
90.0
  3
23NSTD
  0
DIMENSION
  8
DIM
  2
*D9
 10
19.135522
 20
48.946645
 30
0.0
 11
19.135522
 21
54.946645
 31
0.0
 13
15.645101
 23
60.946645
 33
0.0
 14
15.645101
 24
48.946645
 34
0.0
 50
90.0
  3
23NSTD
  0
DIMENSION
  8
DIM
  2
*D3
 10
19.135522
 20
36.946645
 30
0.0
 11
19.135522
 21
42.946645
 31
0.0
 13
15.645101
 23
48.946645
 33
0.0
 14
15.645101
 24
36.946645
 34
0.0
 50
90.0
  3
23NSTD
  0
DIMENSION
  8
DIM
  2
*D6
 10
19.135522
 20
24.946645
 30
0.0
 11
19.135522
 21
30.946645
 31
0.0
 13
15.645101
 23
36.946645
 33
0.0
 14
15.645101
 24
24.946645
 34
0.0
 50
90.0
  3
23NSTD
  0
DIMENSION
  8
DIM
  2
*D5
 10
19.135522
 20
12.946645
 30
0.0
 11
19.135522
 21
18.946645
 31
0.0
 13
15.645101
 23
24.946645
 33
0.0
 14
15.645101
 24
12.946645
 34
0.0
 50
90.0
  3
23NSTD
  0
DIMENSION
  8
DIM
  2
*D11
 10
15.645101
 20
10.154194
 30
0.0
 11
19.329476
 21
10.154194
 31
0.0
 13
13.645101
 23
12.946645
 33
0.0
 14
15.645101
 24
12.946645
 34
0.0
  3
23NSTD
  0
DIMENSION
  8
DIM
  2
*D10
 10
13.082101
 20
8.185791
 30
0.0
 11
9.303976
 21
8.185791
 31
0.0
 13
13.645101
 23
12.946645
 33
0.0
 14
13.082101
 24
8.654458
 34
0.0
  3
23NSTD
  0
DIMENSION
  8
DIM
  2
*D4
 10
22.191951
 20
84.446645
 30
0.0
 11
22.191951
 21
46.049631
 31
0.0
 70
   128
 13
16.207101
 23
1.446645
 33
0.0
 14
16.207101
 24
84.446645
 34
0.0
 50
90.0
  3
23NSTD
  0
LINE
  8
OBJECT
 10
41.617892
 20
86.959425
 30
0.0
 11
41.617892
 21
3.959425
 31
0.0
  0
LINE
  8
OBJECT
 10
44.730387
 20
85.631425
 30
0.0
 11
44.324221
 21
85.396925
 31
0.0
  0
LINE
  8
OBJECT
 10
44.324221
 20
85.396925
 30
0.0
 11
41.617892
 21
86.959425
 31
0.0
  0
LINE
  8
OBJECT
 10
42.024057
 20
87.193925
 30
0.0
 11
41.617892
 21
86.959425
 31
0.0
  0
LINE
  8
OBJECT
 10
44.324221
 20
85.427925
 30
0.0
 11
41.671585
 21
86.959425
 31
0.0
  0
LINE
  8
OBJECT
 10
42.050904
 20
87.178425
 30
0.0
 11
41.671585
 21
86.959425
 31
0.0
  0
LINE
  8
OBJECT
 10
44.70354
 20
85.646925
 30
0.0
 11
44.324221
 21
85.427925
 31
0.0
  0
LINE
  8
OBJECT
 10
42.077751
 20
87.162925
 30
0.0
 11
41.698432
 21
86.943925
 31
0.0
  0
LINE
  8
OBJECT
 10
44.676693
 20
85.662425
 30
0.0
 11
44.297374
 21
85.443425
 31
0.0
  0
LINE
  8
OBJECT
 10
44.324221
 20
2.396925
 30
0.0
 11
41.617892
 21
3.959425
 31
0.0
  0
POLYLINE
  8
OBJECT
 66
     1
 10
0.0
 20
0.0
 30
0.0
 70
     1
  0
VERTEX
  8
OBJECT
 10
42.018992
 20
15.1285
 30
0.0
 42
0.058752
  0
VERTEX
  8
OBJECT
 10
42.060595
 20
15.072737
 30
0.0
 42
0.072341
  0
VERTEX
  8
OBJECT
 10
42.105031
 20
15.037675
 30
0.0
 42
0.106617
 70
     2
 50
330.0
  0
VERTEX
  8
OBJECT
 10
42.155431
 20
15.021465
 30
0.0
 42
0.156851
 50
330.0
  0
VERTEX
  8
OBJECT
 10
42.191069
 20
15.029152
 30
0.0
 42
0.156851
  0
VERTEX
  8
OBJECT
 10
42.215545
 20
15.056172
 30
0.0
 42
0.106617
  0
VERTEX
  8
OBJECT
 10
42.226707
 20
15.107925
 30
0.0
 42
0.072341
 70
     2
 50
90.0
  0
VERTEX
  8
OBJECT
 10
42.21856
 20
15.163939
 30
0.0
 42
0.058752
 50
90.0
  0
VERTEX
  8
OBJECT
 10
42.191069
 20
15.227849
 30
0.0
 42
0.058752
  0
VERTEX
  8
OBJECT
 10
42.149467
 20
15.283612
 30
0.0
 42
0.072341
  0
VERTEX
  8
OBJECT
 10
42.105031
 20
15.318675
 30
0.0
 42
0.106617
 70
     2
 50
150.0
  0
VERTEX
  8
OBJECT
 10
42.054631
 20
15.334884
 30
0.0
 42
0.156851
 50
150.0
  0
VERTEX
  8
OBJECT
 10
42.018992
 20
15.327197
 30
0.0
 42
0.156851
  0
VERTEX
  8
OBJECT
 10
41.994517
 20
15.300177
 30
0.0
 42
0.106617
  0
VERTEX
  8
OBJECT
 10
41.983354
 20
15.248425
 30
0.0
 42
0.072341
 70
     2
 50
270.0
  0
VERTEX
  8
OBJECT
 10
41.991501
 20
15.19241
 30
0.0
 42
0.058752
 50
270.0
  0
SEQEND
  8
OBJECT
  0
POLYLINE
  8
OBJECT
 66
     1
 10
0.0
 20
0.0
 30
0.0
 70
     1
  0
VERTEX
  8
OBJECT
 10
43.751043
 20
14.1285
 30
0.0
 42
0.058752
  0
VERTEX
  8
OBJECT
 10
43.792645
 20
14.072737
 30
0.0
 42
0.072341
  0
VERTEX
  8
OBJECT
 10
43.837082
 20
14.037675
 30
0.0
 42
0.106617
 70
     2
 50
330.0
  0
VERTEX
  8
OBJECT
 10
43.887482
 20
14.021465
 30
0.0
 42
0.156851
 50
330.0
  0
VERTEX
  8
OBJECT
 10
43.92312
 20
14.029152
 30
0.0
 42
0.156851
  0
VERTEX
  8
OBJECT
 10
43.947596
 20
14.056172
 30
0.0
 42
0.106617
  0
VERTEX
  8
OBJECT
 10
43.958758
 20
14.107925
 30
0.0
 42
0.072341
 70
     2
 50
90.0
  0
VERTEX
  8
OBJECT
 10
43.950611
 20
14.163939
 30
0.0
 42
0.058752
 50
90.0
  0
VERTEX
  8
OBJECT
 10
43.92312
 20
14.227849
 30
0.0
 42
0.058752
  0
VERTEX
  8
OBJECT
 10
43.881518
 20
14.283612
 30
0.0
 42
0.072341
  0
VERTEX
  8
OBJECT
 10
43.837082
 20
14.318675
 30
0.0
 42
0.106617
 70
     2
 50
150.0
  0
VERTEX
  8
OBJECT
 10
43.786682
 20
14.334884
 30
0.0
 42
0.156851
 50
150.0
  0
VERTEX
  8
OBJECT
 10
43.751043
 20
14.327197
 30
0.0
 42
0.156851
  0
VERTEX
  8
OBJECT
 10
43.726567
 20
14.300177
 30
0.0
 42
0.106617
  0
VERTEX
  8
OBJECT
 10
43.715405
 20
14.248425
 30
0.0
 42
0.072341
 70
     2
 50
270.0
  0
VERTEX
  8
OBJECT
 10
43.723552
 20
14.19241
 30
0.0
 42
0.058752
 50
270.0
  0
SEQEND
  8
OBJECT
  0
POLYLINE
  8
OBJECT
 66
     1
 10
0.0
 20
0.0
 30
0.0
 70
     1
  0
VERTEX
  8
OBJECT
 10
42.018992
 20
27.1285
 30
0.0
 42
0.058752
  0
VERTEX
  8
OBJECT
 10
42.060595
 20
27.072737
 30
0.0
 42
0.072341
  0
VERTEX
  8
OBJECT
 10
42.105031
 20
27.037675
 30
0.0
 42
0.106617
 70
     2
 50
330.0
  0
VERTEX
  8
OBJECT
 10
42.155431
 20
27.021465
 30
0.0
 42
0.156851
 50
330.0
  0
VERTEX
  8
OBJECT
 10
42.191069
 20
27.029152
 30
0.0
 42
0.156851
  0
VERTEX
  8
OBJECT
 10
42.215545
 20
27.056172
 30
0.0
 42
0.106617
  0
VERTEX
  8
OBJECT
 10
42.226707
 20
27.107925
 30
0.0
 42
0.072341
 70
     2
 50
90.0
  0
VERTEX
  8
OBJECT
 10
42.21856
 20
27.163939
 30
0.0
 42
0.058752
 50
90.0
  0
VERTEX
  8
OBJECT
 10
42.191069
 20
27.227849
 30
0.0
 42
0.058752
  0
VERTEX
  8
OBJECT
 10
42.149467
 20
27.283612
 30
0.0
 42
0.072341
  0
VERTEX
  8
OBJECT
 10
42.105031
 20
27.318675
 30
0.0
 42
0.106617
 70
     2
 50
150.0
  0
VERTEX
  8
OBJECT
 10
42.054631
 20
27.334884
 30
0.0
 42
0.156851
 50
150.0
  0
VERTEX
  8
OBJECT
 10
42.018992
 20
27.327197
 30
0.0
 42
0.156851
  0
VERTEX
  8
OBJECT
 10
41.994517
 20
27.300177
 30
0.0
 42
0.106617
  0
VERTEX
  8
OBJECT
 10
41.983354
 20
27.248425
 30
0.0
 42
0.072341
 70
     2
 50
270.0
  0
VERTEX
  8
OBJECT
 10
41.991501
 20
27.19241
 30
0.0
 42
0.058752
 50
270.0
  0
SEQEND
  8
OBJECT
  0
POLYLINE
  8
OBJECT
 66
     1
 10
0.0
 20
0.0
 30
0.0
 70
     1
  0
VERTEX
  8
OBJECT
 10
43.751043
 20
26.1285
 30
0.0
 42
0.058752
  0
VERTEX
  8
OBJECT
 10
43.792645
 20
26.072737
 30
0.0
 42
0.072341
  0
VERTEX
  8
OBJECT
 10
43.837082
 20
26.037675
 30
0.0
 42
0.106617
 70
     2
 50
330.0
  0
VERTEX
  8
OBJECT
 10
43.887482
 20
26.021465
 30
0.0
 42
0.156851
 50
330.0
  0
VERTEX
  8
OBJECT
 10
43.92312
 20
26.029152
 30
0.0
 42
0.156851
  0
VERTEX
  8
OBJECT
 10
43.947596
 20
26.056172
 30
0.0
 42
0.106617
  0
VERTEX
  8
OBJECT
 10
43.958758
 20
26.107925
 30
0.0
 42
0.072341
 70
     2
 50
90.0
  0
VERTEX
  8
OBJECT
 10
43.950611
 20
26.163939
 30
0.0
 42
0.058752
 50
90.0
  0
VERTEX
  8
OBJECT
 10
43.92312
 20
26.227849
 30
0.0
 42
0.058752
  0
VERTEX
  8
OBJECT
 10
43.881518
 20
26.283612
 30
0.0
 42
0.072341
  0
VERTEX
  8
OBJECT
 10
43.837082
 20
26.318675
 30
0.0
 42
0.106617
 70
     2
 50
150.0
  0
VERTEX
  8
OBJECT
 10
43.786682
 20
26.334884
 30
0.0
 42
0.156851
 50
150.0
  0
VERTEX
  8
OBJECT
 10
43.751043
 20
26.327197
 30
0.0
 42
0.156851
  0
VERTEX
  8
OBJECT
 10
43.726567
 20
26.300177
 30
0.0
 42
0.106617
  0
VERTEX
  8
OBJECT
 10
43.715405
 20
26.248425
 30
0.0
 42
0.072341
 70
     2
 50
270.0
  0
VERTEX
  8
OBJECT
 10
43.723552
 20
26.19241
 30
0.0
 42
0.058752
 50
270.0
  0
SEQEND
  8
OBJECT
  0
POLYLINE
  8
OBJECT
 66
     1
 10
0.0
 20
0.0
 30
0.0
 70
     1
  0
VERTEX
  8
OBJECT
 10
42.018992
 20
39.1285
 30
0.0
 42
0.058752
  0
VERTEX
  8
OBJECT
 10
42.060595
 20
39.072737
 30
0.0
 42
0.072341
  0
VERTEX
  8
OBJECT
 10
42.105031
 20
39.037675
 30
0.0
 42
0.106617
 70
     2
 50
330.0
  0
VERTEX
  8
OBJECT
 10
42.155431
 20
39.021465
 30
0.0
 42
0.156851
 50
330.0
  0
VERTEX
  8
OBJECT
 10
42.191069
 20
39.029152
 30
0.0
 42
0.156851
  0
VERTEX
  8
OBJECT
 10
42.215545
 20
39.056172
 30
0.0
 42
0.106617
  0
VERTEX
  8
OBJECT
 10
42.226707
 20
39.107925
 30
0.0
 42
0.072341
 70
     2
 50
90.0
  0
VERTEX
  8
OBJECT
 10
42.21856
 20
39.163939
 30
0.0
 42
0.058752
 50
90.0
  0
VERTEX
  8
OBJECT
 10
42.191069
 20
39.227849
 30
0.0
 42
0.058752
  0
VERTEX
  8
OBJECT
 10
42.149467
 20
39.283612
 30
0.0
 42
0.072341
  0
VERTEX
  8
OBJECT
 10
42.105031
 20
39.318675
 30
0.0
 42
0.106617
 70
     2
 50
150.0
  0
VERTEX
  8
OBJECT
 10
42.054631
 20
39.334884
 30
0.0
 42
0.156851
 50
150.0
  0
VERTEX
  8
OBJECT
 10
42.018992
 20
39.327197
 30
0.0
 42
0.156851
  0
VERTEX
  8
OBJECT
 10
41.994517
 20
39.300177
 30
0.0
 42
0.106617
  0
VERTEX
  8
OBJECT
 10
41.983354
 20
39.248425
 30
0.0
 42
0.072341
 70
     2
 50
270.0
  0
VERTEX
  8
OBJECT
 10
41.991501
 20
39.19241
 30
0.0
 42
0.058752
 50
270.0
  0
SEQEND
  8
OBJECT
  0
POLYLINE
  8
OBJECT
 66
     1
 10
0.0
 20
0.0
 30
0.0
 70
     1
  0
VERTEX
  8
OBJECT
 10
43.751043
 20
38.1285
 30
0.0
 42
0.058752
  0
VERTEX
  8
OBJECT
 10
43.792645
 20
38.072737
 30
0.0
 42
0.072341
  0
VERTEX
  8
OBJECT
 10
43.837082
 20
38.037675
 30
0.0
 42
0.106617
 70
     2
 50
330.0
  0
VERTEX
  8
OBJECT
 10
43.887482
 20
38.021465
 30
0.0
 42
0.156851
 50
330.0
  0
VERTEX
  8
OBJECT
 10
43.92312
 20
38.029152
 30
0.0
 42
0.156851
  0
VERTEX
  8
OBJECT
 10
43.947596
 20
38.056172
 30
0.0
 42
0.106617
  0
VERTEX
  8
OBJECT
 10
43.958758
 20
38.107925
 30
0.0
 42
0.072341
 70
     2
 50
90.0
  0
VERTEX
  8
OBJECT
 10
43.950611
 20
38.163939
 30
0.0
 42
0.058752
 50
90.0
  0
VERTEX
  8
OBJECT
 10
43.92312
 20
38.227849
 30
0.0
 42
0.058752
  0
VERTEX
  8
OBJECT
 10
43.881518
 20
38.283612
 30
0.0
 42
0.072341
  0
VERTEX
  8
OBJECT
 10
43.837082
 20
38.318675
 30
0.0
 42
0.106617
 70
     2
 50
150.0
  0
VERTEX
  8
OBJECT
 10
43.786682
 20
38.334884
 30
0.0
 42
0.156851
 50
150.0
  0
VERTEX
  8
OBJECT
 10
43.751043
 20
38.327197
 30
0.0
 42
0.156851
  0
VERTEX
  8
OBJECT
 10
43.726567
 20
38.300177
 30
0.0
 42
0.106617
  0
VERTEX
  8
OBJECT
 10
43.715405
 20
38.248425
 30
0.0
 42
0.072341
 70
     2
 50
270.0
  0
VERTEX
  8
OBJECT
 10
43.723552
 20
38.19241
 30
0.0
 42
0.058752
 50
270.0
  0
SEQEND
  8
OBJECT
  0
POLYLINE
  8
OBJECT
 66
     1
 10
0.0
 20
0.0
 30
0.0
 70
     1
  0
VERTEX
  8
OBJECT
 10
42.018992
 20
51.1285
 30
0.0
 42
0.058752
  0
VERTEX
  8
OBJECT
 10
42.060595
 20
51.072737
 30
0.0
 42
0.072341
  0
VERTEX
  8
OBJECT
 10
42.105031
 20
51.037675
 30
0.0
 42
0.106617
 70
     2
 50
330.0
  0
VERTEX
  8
OBJECT
 10
42.155431
 20
51.021465
 30
0.0
 42
0.156851
 50
330.0
  0
VERTEX
  8
OBJECT
 10
42.191069
 20
51.029152
 30
0.0
 42
0.156851
  0
VERTEX
  8
OBJECT
 10
42.215545
 20
51.056172
 30
0.0
 42
0.106617
  0
VERTEX
  8
OBJECT
 10
42.226707
 20
51.107925
 30
0.0
 42
0.072341
 70
     2
 50
90.0
  0
VERTEX
  8
OBJECT
 10
42.21856
 20
51.163939
 30
0.0
 42
0.058752
 50
90.0
  0
VERTEX
  8
OBJECT
 10
42.191069
 20
51.227849
 30
0.0
 42
0.058752
  0
VERTEX
  8
OBJECT
 10
42.149467
 20
51.283612
 30
0.0
 42
0.072341
  0
VERTEX
  8
OBJECT
 10
42.105031
 20
51.318675
 30
0.0
 42
0.106617
 70
     2
 50
150.0
  0
VERTEX
  8
OBJECT
 10
42.054631
 20
51.334884
 30
0.0
 42
0.156851
 50
150.0
  0
VERTEX
  8
OBJECT
 10
42.018992
 20
51.327197
 30
0.0
 42
0.156851
  0
VERTEX
  8
OBJECT
 10
41.994517
 20
51.300177
 30
0.0
 42
0.106617
  0
VERTEX
  8
OBJECT
 10
41.983354
 20
51.248425
 30
0.0
 42
0.072341
 70
     2
 50
270.0
  0
VERTEX
  8
OBJECT
 10
41.991501
 20
51.19241
 30
0.0
 42
0.058752
 50
270.0
  0
SEQEND
  8
OBJECT
  0
POLYLINE
  8
OBJECT
 66
     1
 10
0.0
 20
0.0
 30
0.0
 70
     1
  0
VERTEX
  8
OBJECT
 10
43.751043
 20
50.1285
 30
0.0
 42
0.058752
  0
VERTEX
  8
OBJECT
 10
43.792645
 20
50.072737
 30
0.0
 42
0.072341
  0
VERTEX
  8
OBJECT
 10
43.837082
 20
50.037675
 30
0.0
 42
0.106617
 70
     2
 50
330.0
  0
VERTEX
  8
OBJECT
 10
43.887482
 20
50.021465
 30
0.0
 42
0.156851
 50
330.0
  0
VERTEX
  8
OBJECT
 10
43.92312
 20
50.029152
 30
0.0
 42
0.156851
  0
VERTEX
  8
OBJECT
 10
43.947596
 20
50.056172
 30
0.0
 42
0.106617
  0
VERTEX
  8
OBJECT
 10
43.958758
 20
50.107925
 30
0.0
 42
0.072341
 70
     2
 50
90.0
  0
VERTEX
  8
OBJECT
 10
43.950611
 20
50.163939
 30
0.0
 42
0.058752
 50
90.0
  0
VERTEX
  8
OBJECT
 10
43.92312
 20
50.227849
 30
0.0
 42
0.058752
  0
VERTEX
  8
OBJECT
 10
43.881518
 20
50.283612
 30
0.0
 42
0.072341
  0
VERTEX
  8
OBJECT
 10
43.837082
 20
50.318675
 30
0.0
 42
0.106617
 70
     2
 50
150.0
  0
VERTEX
  8
OBJECT
 10
43.786682
 20
50.334884
 30
0.0
 42
0.156851
 50
150.0
  0
VERTEX
  8
OBJECT
 10
43.751043
 20
50.327197
 30
0.0
 42
0.156851
  0
VERTEX
  8
OBJECT
 10
43.726567
 20
50.300177
 30
0.0
 42
0.106617
  0
VERTEX
  8
OBJECT
 10
43.715405
 20
50.248425
 30
0.0
 42
0.072341
 70
     2
 50
270.0
  0
VERTEX
  8
OBJECT
 10
43.723552
 20
50.19241
 30
0.0
 42
0.058752
 50
270.0
  0
SEQEND
  8
OBJECT
  0
POLYLINE
  8
OBJECT
 66
     1
 10
0.0
 20
0.0
 30
0.0
 70
     1
  0
VERTEX
  8
OBJECT
 10
42.018992
 20
63.1285
 30
0.0
 42
0.058752
  0
VERTEX
  8
OBJECT
 10
42.060595
 20
63.072737
 30
0.0
 42
0.072341
  0
VERTEX
  8
OBJECT
 10
42.105031
 20
63.037675
 30
0.0
 42
0.106617
 70
     2
 50
330.0
  0
VERTEX
  8
OBJECT
 10
42.155431
 20
63.021465
 30
0.0
 42
0.156851
 50
330.0
  0
VERTEX
  8
OBJECT
 10
42.191069
 20
63.029152
 30
0.0
 42
0.156851
  0
VERTEX
  8
OBJECT
 10
42.215545
 20
63.056172
 30
0.0
 42
0.106617
  0
VERTEX
  8
OBJECT
 10
42.226707
 20
63.107925
 30
0.0
 42
0.072341
 70
     2
 50
90.0
  0
VERTEX
  8
OBJECT
 10
42.21856
 20
63.163939
 30
0.0
 42
0.058752
 50
90.0
  0
VERTEX
  8
OBJECT
 10
42.191069
 20
63.227849
 30
0.0
 42
0.058752
  0
VERTEX
  8
OBJECT
 10
42.149467
 20
63.283612
 30
0.0
 42
0.072341
  0
VERTEX
  8
OBJECT
 10
42.105031
 20
63.318675
 30
0.0
 42
0.106617
 70
     2
 50
150.0
  0
VERTEX
  8
OBJECT
 10
42.054631
 20
63.334884
 30
0.0
 42
0.156851
 50
150.0
  0
VERTEX
  8
OBJECT
 10
42.018992
 20
63.327197
 30
0.0
 42
0.156851
  0
VERTEX
  8
OBJECT
 10
41.994517
 20
63.300177
 30
0.0
 42
0.106617
  0
VERTEX
  8
OBJECT
 10
41.983354
 20
63.248425
 30
0.0
 42
0.072341
 70
     2
 50
270.0
  0
VERTEX
  8
OBJECT
 10
41.991501
 20
63.19241
 30
0.0
 42
0.058752
 50
270.0
  0
SEQEND
  8
OBJECT
  0
POLYLINE
  8
OBJECT
 66
     1
 10
0.0
 20
0.0
 30
0.0
 70
     1
  0
VERTEX
  8
OBJECT
 10
43.751043
 20
62.1285
 30
0.0
 42
0.058752
  0
VERTEX
  8
OBJECT
 10
43.792645
 20
62.072737
 30
0.0
 42
0.072341
  0
VERTEX
  8
OBJECT
 10
43.837082
 20
62.037675
 30
0.0
 42
0.106617
 70
     2
 50
330.0
  0
VERTEX
  8
OBJECT
 10
43.887482
 20
62.021465
 30
0.0
 42
0.156851
 50
330.0
  0
VERTEX
  8
OBJECT
 10
43.92312
 20
62.029152
 30
0.0
 42
0.156851
  0
VERTEX
  8
OBJECT
 10
43.947596
 20
62.056172
 30
0.0
 42
0.106617
  0
VERTEX
  8
OBJECT
 10
43.958758
 20
62.107925
 30
0.0
 42
0.072341
 70
     2
 50
90.0
  0
VERTEX
  8
OBJECT
 10
43.950611
 20
62.163939
 30
0.0
 42
0.058752
 50
90.0
  0
VERTEX
  8
OBJECT
 10
43.92312
 20
62.227849
 30
0.0
 42
0.058752
  0
VERTEX
  8
OBJECT
 10
43.881518
 20
62.283612
 30
0.0
 42
0.072341
  0
VERTEX
  8
OBJECT
 10
43.837082
 20
62.318675
 30
0.0
 42
0.106617
 70
     2
 50
150.0
  0
VERTEX
  8
OBJECT
 10
43.786682
 20
62.334884
 30
0.0
 42
0.156851
 50
150.0
  0
VERTEX
  8
OBJECT
 10
43.751043
 20
62.327197
 30
0.0
 42
0.156851
  0
VERTEX
  8
OBJECT
 10
43.726567
 20
62.300177
 30
0.0
 42
0.106617
  0
VERTEX
  8
OBJECT
 10
43.715405
 20
62.248425
 30
0.0
 42
0.072341
 70
     2
 50
270.0
  0
VERTEX
  8
OBJECT
 10
43.723552
 20
62.19241
 30
0.0
 42
0.058752
 50
270.0
  0
SEQEND
  8
OBJECT
  0
POLYLINE
  8
OBJECT
 66
     1
 10
0.0
 20
0.0
 30
0.0
 70
     1
  0
VERTEX
  8
OBJECT
 10
42.018992
 20
75.1285
 30
0.0
 42
0.058752
  0
VERTEX
  8
OBJECT
 10
42.060595
 20
75.072737
 30
0.0
 42
0.072341
  0
VERTEX
  8
OBJECT
 10
42.105031
 20
75.037675
 30
0.0
 42
0.106617
 70
     2
 50
330.0
  0
VERTEX
  8
OBJECT
 10
42.155431
 20
75.021465
 30
0.0
 42
0.156851
 50
330.0
  0
VERTEX
  8
OBJECT
 10
42.191069
 20
75.029152
 30
0.0
 42
0.156851
  0
VERTEX
  8
OBJECT
 10
42.215545
 20
75.056172
 30
0.0
 42
0.106617
  0
VERTEX
  8
OBJECT
 10
42.226707
 20
75.107925
 30
0.0
 42
0.072341
 70
     2
 50
90.0
  0
VERTEX
  8
OBJECT
 10
42.21856
 20
75.163939
 30
0.0
 42
0.058752
 50
90.0
  0
VERTEX
  8
OBJECT
 10
42.191069
 20
75.227849
 30
0.0
 42
0.058752
  0
VERTEX
  8
OBJECT
 10
42.149467
 20
75.283612
 30
0.0
 42
0.072341
  0
VERTEX
  8
OBJECT
 10
42.105031
 20
75.318675
 30
0.0
 42
0.106617
 70
     2
 50
150.0
  0
VERTEX
  8
OBJECT
 10
42.054631
 20
75.334884
 30
0.0
 42
0.156851
 50
150.0
  0
VERTEX
  8
OBJECT
 10
42.018992
 20
75.327197
 30
0.0
 42
0.156851
  0
VERTEX
  8
OBJECT
 10
41.994517
 20
75.300177
 30
0.0
 42
0.106617
  0
VERTEX
  8
OBJECT
 10
41.983354
 20
75.248425
 30
0.0
 42
0.072341
 70
     2
 50
270.0
  0
VERTEX
  8
OBJECT
 10
41.991501
 20
75.19241
 30
0.0
 42
0.058752
 50
270.0
  0
SEQEND
  8
OBJECT
  0
POLYLINE
  8
OBJECT
 66
     1
 10
0.0
 20
0.0
 30
0.0
 70
     1
  0
VERTEX
  8
OBJECT
 10
43.751043
 20
74.1285
 30
0.0
 42
0.058752
  0
VERTEX
  8
OBJECT
 10
43.792645
 20
74.072737
 30
0.0
 42
0.072341
  0
VERTEX
  8
OBJECT
 10
43.837082
 20
74.037675
 30
0.0
 42
0.106617
 70
     2
 50
330.0
  0
VERTEX
  8
OBJECT
 10
43.887482
 20
74.021465
 30
0.0
 42
0.156851
 50
330.0
  0
VERTEX
  8
OBJECT
 10
43.92312
 20
74.029152
 30
0.0
 42
0.156851
  0
VERTEX
  8
OBJECT
 10
43.947596
 20
74.056172
 30
0.0
 42
0.106617
  0
VERTEX
  8
OBJECT
 10
43.958758
 20
74.107925
 30
0.0
 42
0.072341
 70
     2
 50
90.0
  0
VERTEX
  8
OBJECT
 10
43.950611
 20
74.163939
 30
0.0
 42
0.058752
 50
90.0
  0
VERTEX
  8
OBJECT
 10
43.92312
 20
74.227849
 30
0.0
 42
0.058752
  0
VERTEX
  8
OBJECT
 10
43.881518
 20
74.283612
 30
0.0
 42
0.072341
  0
VERTEX
  8
OBJECT
 10
43.837082
 20
74.318675
 30
0.0
 42
0.106617
 70
     2
 50
150.0
  0
VERTEX
  8
OBJECT
 10
43.786682
 20
74.334884
 30
0.0
 42
0.156851
 50
150.0
  0
VERTEX
  8
OBJECT
 10
43.751043
 20
74.327197
 30
0.0
 42
0.156851
  0
VERTEX
  8
OBJECT
 10
43.726567
 20
74.300177
 30
0.0
 42
0.106617
  0
VERTEX
  8
OBJECT
 10
43.715405
 20
74.248425
 30
0.0
 42
0.072341
 70
     2
 50
270.0
  0
VERTEX
  8
OBJECT
 10
43.723552
 20
74.19241
 30
0.0
 42
0.058752
 50
270.0
  0
SEQEND
  8
OBJECT
  0
LINE
  8
OBJECT
 10
44.741507
 20
85.646925
 30
0.0
 11
44.741507
 21
2.646925
 31
0.0
  0
POLYLINE
  8
OBJECT
 66
     1
 10
0.0
 20
0.0
 30
0.0
  0
VERTEX
  8
OBJECT
 10
44.70354
 20
85.668845
 30
0.0
 42
0.058752
  0
VERTEX
  8
OBJECT
 10
44.688295
 20
85.667047
 30
0.0
 42
0.072341
  0
VERTEX
  8
OBJECT
 10
44.676693
 20
85.662425
 30
0.0
 42
0.106617
 70
     2
 50
210.0
  0
SEQEND
  8
OBJECT
  0
POLYLINE
  8
OBJECT
 66
     1
 10
0.0
 20
0.0
 30
0.0
  0
VERTEX
  8
OBJECT
 10
44.730387
 20
85.631425
 30
0.0
 42
0.106617
 70
     2
 50
30.0
  0
VERTEX
  8
OBJECT
 10
44.739044
 20
85.639267
 30
0.0
 42
0.156851
 50
30.0
  0
VERTEX
  8
OBJECT
 10
44.741507
 20
85.646925
 30
0.0
 42
0.156851
  0
VERTEX
  8
OBJECT
 10
44.739044
 20
85.654582
 30
0.0
 42
0.106617
  0
VERTEX
  8
OBJECT
 10
44.730387
 20
85.662425
 30
0.0
 42
0.072341
 70
     2
 50
150.0
  0
VERTEX
  8
OBJECT
 10
44.718785
 20
85.667047
 30
0.0
 42
0.058752
 50
150.0
  0
VERTEX
  8
OBJECT
 10
44.70354
 20
85.668845
 30
0.0
 42
0.058752
  0
SEQEND
  8
OBJECT
  0
POLYLINE
  8
OBJECT
 66
     1
 10
0.0
 20
0.0
 30
0.0
  0
VERTEX
  8
OBJECT
 10
42.050904
 20
87.200345
 30
0.0
 42
0.058752
  0
VERTEX
  8
OBJECT
 10
42.035659
 20
87.198547
 30
0.0
 42
0.072341
  0
VERTEX
  8
OBJECT
 10
42.024057
 20
87.193925
 30
0.0
 42
0.106617
 70
     2
 50
210.0
  0
SEQEND
  8
OBJECT
  0
POLYLINE
  8
OBJECT
 66
     1
 10
0.0
 20
0.0
 30
0.0
  0
VERTEX
  8
OBJECT
 10
42.077751
 20
87.162925
 30
0.0
 42
0.106617
 70
     2
 50
30.0
  0
VERTEX
  8
OBJECT
 10
42.086408
 20
87.170767
 30
0.0
 42
0.156851
 50
30.0
  0
VERTEX
  8
OBJECT
 10
42.088871
 20
87.178425
 30
0.0
 42
0.156851
  0
VERTEX
  8
OBJECT
 10
42.086408
 20
87.186082
 30
0.0
 42
0.106617
  0
VERTEX
  8
OBJECT
 10
42.077751
 20
87.193925
 30
0.0
 42
0.072341
 70
     2
 50
150.0
  0
VERTEX
  8
OBJECT
 10
42.066149
 20
87.198547
 30
0.0
 42
0.058752
 50
150.0
  0
VERTEX
  8
OBJECT
 10
42.050904
 20
87.200345
 30
0.0
 42
0.058752
  0
SEQEND
  8
OBJECT
  0
LINE
  8
OBJECT
 10
42.088871
 20
87.178425
 30
0.0
 11
42.088871
 21
86.718504
 31
0.0
  0
LINE
  8
OBJECT
 10
44.730387
 20
2.631425
 30
0.0
 11
44.324221
 21
2.396925
 31
0.0
  0
POLYLINE
  8
OBJECT
 66
     1
 10
0.0
 20
0.0
 30
0.0
  0
VERTEX
  8
OBJECT
 10
44.730387
 20
2.631425
 30
0.0
 42
0.106617
 70
     2
 50
30.0
  0
VERTEX
  8
OBJECT
 10
44.739044
 20
2.639267
 30
0.0
 42
0.156851
 50
30.0
  0
VERTEX
  8
OBJECT
 10
44.741507
 20
2.646925
 30
0.0
 42
0.156851
  0
SEQEND
  8
OBJECT
  0
LINE
  8
OBJECT
 10
44.324221
 20
85.396925
 30
0.0
 11
44.324221
 21
2.396925
 31
0.0
  0
LINE
  8
OBJECT
 10
46.771036
 20
79.121594
 30
0.0
 11
47.204049
 21
78.871594
 31
0.0
  0
LINE
  8
OBJECT
 10
46.771036
 20
79.121594
 30
0.0
 11
50.235137
 21
81.121594
 31
0.0
  0
LINE
  8
OBJECT
 10
50.235137
 20
81.121594
 30
0.0
 11
52.833214
 21
79.621594
 31
0.0
  0
LINE
  8
OBJECT
 10
49.369112
 20
77.621594
 30
0.0
 11
52.833214
 21
79.621594
 31
0.0
  0
LINE
  8
OBJECT
 10
46.771036
 20
77.621594
 30
0.0
 11
47.204049
 21
77.371594
 31
0.0
  0
LINE
  8
OBJECT
 10
49.369112
 20
76.121594
 30
0.0
 11
52.833214
 21
78.121594
 31
0.0
  0
LINE
  8
OBJECT
 10
46.771036
 20
79.121594
 30
0.0
 11
46.771036
 21
77.621594
 31
0.0
  0
LINE
  8
OBJECT
 10
49.369112
 20
77.621594
 30
0.0
 11
49.369112
 21
76.121594
 31
0.0
  0
LINE
  8
OBJECT
 10
52.833214
 20
79.621594
 30
0.0
 11
52.833214
 21
78.121594
 31
0.0
  0
LINE
  8
OBJECT
 10
50.235137
 20
81.043594
 30
0.0
 11
52.698114
 21
79.621594
 31
0.0
  0
LINE
  8
OBJECT
 10
46.906136
 20
79.121594
 30
0.0
 11
50.235137
 21
81.043594
 31
0.0
  0
LINE
  8
OBJECT
 10
49.369112
 20
77.699594
 30
0.0
 11
52.698114
 21
79.621594
 31
0.0
  0
LINE
  8
OBJECT
 10
46.906136
 20
79.121594
 30
0.0
 11
47.271599
 21
78.910594
 31
0.0
  0
LINE
  8
OBJECT
 10
50.235137
 20
81.043594
 30
0.0
 11
50.235137
 21
79.543594
 31
0.0
  0
LINE
  8
OBJECT
 10
50.235137
 20
79.543594
 30
0.0
 11
51.399076
 21
78.871594
 31
0.0
  0
LINE
  8
OBJECT
 10
47.488105
 20
77.957594
 30
0.0
 11
50.235137
 21
79.543594
 31
0.0
  0
LINE
  8
OBJECT
 10
47.420555
 20
78.496594
 30
0.0
 11
47.420555
 21
77.496594
 31
0.0
  0
LINE
  8
OBJECT
 10
48.719593
 20
77.746594
 30
0.0
 11
48.719593
 21
76.746594
 31
0.0
  0
POLYLINE
  8
OBJECT
 66
     1
 10
0.0
 20
0.0
 30
0.0
 70
     1
  0
VERTEX
  8
OBJECT
 10
47.11801
 20
78.07192
 30
0.0
 42
0.058752
  0
VERTEX
  8
OBJECT
 10
47.159612
 20
78.016156
 30
0.0
 42
0.072341
  0
VERTEX
  8
OBJECT
 10
47.204049
 20
77.981094
 30
0.0
 42
0.106617
 70
     2
 50
330.0
  0
VERTEX
  8
OBJECT
 10
47.254449
 20
77.964884
 30
0.0
 42
0.156851
 50
330.0
  0
VERTEX
  8
OBJECT
 10
47.290087
 20
77.972571
 30
0.0
 42
0.156851
  0
VERTEX
  8
OBJECT
 10
47.314563
 20
77.999591
 30
0.0
 42
0.106617
  0
VERTEX
  8
OBJECT
 10
47.325725
 20
78.051344
 30
0.0
 42
0.072341
 70
     2
 50
90.0
  0
VERTEX
  8
OBJECT
 10
47.317578
 20
78.107358
 30
0.0
 42
0.058752
 50
90.0
  0
VERTEX
  8
OBJECT
 10
47.290087
 20
78.171268
 30
0.0
 42
0.058752
  0
VERTEX
  8
OBJECT
 10
47.248485
 20
78.227031
 30
0.0
 42
0.072341
  0
VERTEX
  8
OBJECT
 10
47.204049
 20
78.262094
 30
0.0
 42
0.106617
 70
     2
 50
150.0
  0
VERTEX
  8
OBJECT
 10
47.153648
 20
78.278303
 30
0.0
 42
0.156851
 50
150.0
  0
VERTEX
  8
OBJECT
 10
47.11801
 20
78.270617
 30
0.0
 42
0.156851
  0
VERTEX
  8
OBJECT
 10
47.093534
 20
78.243596
 30
0.0
 42
0.106617
  0
VERTEX
  8
OBJECT
 10
47.082372
 20
78.191844
 30
0.0
 42
0.072341
 70
     2
 50
270.0
  0
VERTEX
  8
OBJECT
 10
47.090519
 20
78.13583
 30
0.0
 42
0.058752
 50
270.0
  0
SEQEND
  8
OBJECT
  0
POLYLINE
  8
OBJECT
 66
     1
 10
0.0
 20
0.0
 30
0.0
 70
     1
  0
VERTEX
  8
OBJECT
 10
48.850061
 20
77.07192
 30
0.0
 42
0.058752
  0
VERTEX
  8
OBJECT
 10
48.891663
 20
77.016156
 30
0.0
 42
0.072341
  0
VERTEX
  8
OBJECT
 10
48.936099
 20
76.981094
 30
0.0
 42
0.106617
 70
     2
 50
330.0
  0
VERTEX
  8
OBJECT
 10
48.986499
 20
76.964884
 30
0.0
 42
0.156851
 50
330.0
  0
VERTEX
  8
OBJECT
 10
49.022138
 20
76.972571
 30
0.0
 42
0.156851
  0
VERTEX
  8
OBJECT
 10
49.046614
 20
76.999591
 30
0.0
 42
0.106617
  0
VERTEX
  8
OBJECT
 10
49.057776
 20
77.051344
 30
0.0
 42
0.072341
 70
     2
 50
90.0
  0
VERTEX
  8
OBJECT
 10
49.049629
 20
77.107358
 30
0.0
 42
0.058752
 50
90.0
  0
VERTEX
  8
OBJECT
 10
49.022138
 20
77.171268
 30
0.0
 42
0.058752
  0
VERTEX
  8
OBJECT
 10
48.980536
 20
77.227031
 30
0.0
 42
0.072341
  0
VERTEX
  8
OBJECT
 10
48.936099
 20
77.262094
 30
0.0
 42
0.106617
 70
     2
 50
150.0
  0
VERTEX
  8
OBJECT
 10
48.885699
 20
77.278303
 30
0.0
 42
0.156851
 50
150.0
  0
VERTEX
  8
OBJECT
 10
48.850061
 20
77.270617
 30
0.0
 42
0.156851
  0
VERTEX
  8
OBJECT
 10
48.825585
 20
77.243596
 30
0.0
 42
0.106617
  0
VERTEX
  8
OBJECT
 10
48.814423
 20
77.191844
 30
0.0
 42
0.072341
 70
     2
 50
270.0
  0
VERTEX
  8
OBJECT
 10
48.82257
 20
77.13583
 30
0.0
 42
0.058752
 50
270.0
  0
SEQEND
  8
OBJECT
  0
LINE
  8
OBJECT
 10
47.420555
 20
78.496594
 30
0.0
 11
47.204049
 21
78.871594
 31
0.0
  0
LINE
  8
OBJECT
 10
47.420555
 20
77.496594
 30
0.0
 11
47.204049
 21
77.371594
 31
0.0
  0
LINE
  8
OBJECT
 10
48.719593
 20
77.746594
 30
0.0
 11
48.936099
 21
77.871594
 31
0.0
  0
LINE
  8
OBJECT
 10
48.719593
 20
76.746594
 30
0.0
 11
48.936099
 21
76.371594
 31
0.0
  0
LINE
  8
OBJECT
 10
48.936099
 20
77.871594
 30
0.0
 11
49.003649
 21
77.910594
 31
0.0
  0
LINE
  8
OBJECT
 10
47.204049
 20
78.871594
 30
0.0
 11
47.271599
 21
78.910594
 31
0.0
  0
LINE
  8
OBJECT
 10
47.420555
 20
78.496594
 30
0.0
 11
47.488105
 21
78.535594
 31
0.0
  0
LINE
  8
OBJECT
 10
47.420555
 20
77.496594
 30
0.0
 11
47.488105
 21
77.535594
 31
0.0
  0
LINE
  8
OBJECT
 10
48.936099
 20
76.371594
 30
0.0
 11
49.369112
 21
76.121594
 31
0.0
  0
LINE
  8
OBJECT
 10
47.488105
 20
78.535594
 30
0.0
 11
47.488105
 21
77.535594
 31
0.0
  0
LINE
  8
OBJECT
 10
47.271599
 20
78.910594
 30
0.0
 11
47.488105
 21
78.535594
 31
0.0
  0
LINE
  8
OBJECT
 10
48.936099
 20
77.871594
 30
0.0
 11
49.369112
 21
77.621594
 31
0.0
  0
LINE
  8
OBJECT
 10
49.003649
 20
77.910594
 30
0.0
 11
49.369112
 21
77.699594
 31
0.0
  0
POLYLINE
  8
OBJECT
 66
     1
 10
0.0
 20
0.0
 30
0.0
  0
VERTEX
  8
OBJECT
 10
47.18556
 20
78.11092
 30
0.0
 42
0.058752
  0
VERTEX
  8
OBJECT
 10
47.227162
 20
78.055156
 30
0.0
 42
0.072341
  0
VERTEX
  8
OBJECT
 10
47.271599
 20
78.020094
 30
0.0
 42
0.09582
 70
     2
 50
330.0
  0
VERTEX
  8
OBJECT
 10
47.31667
 20
78.004527
 30
0.0
 42
0.156851
 50
330.0
  0
SEQEND
  8
OBJECT
  0
POLYLINE
  8
OBJECT
 66
     1
 10
0.0
 20
0.0
 30
0.0
  0
VERTEX
  8
OBJECT
 10
47.158977
 20
78.27766
 30
0.0
 42
0.09582
  0
VERTEX
  8
OBJECT
 10
47.149922
 20
78.230844
 30
0.0
 42
0.072341
 70
     2
 50
270.0
  0
VERTEX
  8
OBJECT
 10
47.158069
 20
78.17483
 30
0.0
 42
0.058752
 50
270.0
  0
VERTEX
  8
OBJECT
 10
47.18556
 20
78.11092
 30
0.0
 42
0.058752
  0
SEQEND
  8
OBJECT
  0
POLYLINE
  8
OBJECT
 66
     1
 10
0.0
 20
0.0
 30
0.0
  0
VERTEX
  8
OBJECT
 10
48.917611
 20
77.11092
 30
0.0
 42
0.058752
  0
VERTEX
  8
OBJECT
 10
48.959213
 20
77.055156
 30
0.0
 42
0.072341
  0
VERTEX
  8
OBJECT
 10
49.003649
 20
77.020094
 30
0.0
 42
0.09582
 70
     2
 50
330.0
  0
VERTEX
  8
OBJECT
 10
49.048721
 20
77.004527
 30
0.0
 42
0.156851
 50
330.0
  0
SEQEND
  8
OBJECT
  0
POLYLINE
  8
OBJECT
 66
     1
 10
0.0
 20
0.0
 30
0.0
  0
VERTEX
  8
OBJECT
 10
48.891028
 20
77.27766
 30
0.0
 42
0.09582
  0
VERTEX
  8
OBJECT
 10
48.881973
 20
77.230844
 30
0.0
 42
0.072341
 70
     2
 50
270.0
  0
VERTEX
  8
OBJECT
 10
48.89012
 20
77.17483
 30
0.0
 42
0.058752
 50
270.0
  0
VERTEX
  8
OBJECT
 10
48.917611
 20
77.11092
 30
0.0
 42
0.058752
  0
SEQEND
  8
OBJECT
  0
POLYLINE
  8
OBJECT
 66
     1
 10
0.0
 20
0.0
 30
0.0
 70
     1
  0
VERTEX
  8
OBJECT
 10
51.015125
 20
77.921268
 30
0.0
 42
0.058752
  0
VERTEX
  8
OBJECT
 10
50.987633
 20
77.857358
 30
0.0
 42
0.072341
  0
VERTEX
  8
OBJECT
 10
50.979486
 20
77.801344
 30
0.0
 42
0.106617
 70
     2
 50
270.0
  0
VERTEX
  8
OBJECT
 10
50.990649
 20
77.749591
 30
0.0
 42
0.156851
 50
270.0
  0
VERTEX
  8
OBJECT
 10
51.015125
 20
77.722571
 30
0.0
 42
0.156851
  0
VERTEX
  8
OBJECT
 10
51.050763
 20
77.714884
 30
0.0
 42
0.106617
  0
VERTEX
  8
OBJECT
 10
51.101163
 20
77.731094
 30
0.0
 42
0.072341
 70
     2
 50
30.0
  0
VERTEX
  8
OBJECT
 10
51.145599
 20
77.766156
 30
0.0
 42
0.058752
 50
30.0
  0
VERTEX
  8
OBJECT
 10
51.187201
 20
77.82192
 30
0.0
 42
0.058752
  0
VERTEX
  8
OBJECT
 10
51.214693
 20
77.88583
 30
0.0
 42
0.072341
  0
VERTEX
  8
OBJECT
 10
51.222839
 20
77.941844
 30
0.0
 42
0.106617
 70
     2
 50
90.0
  0
VERTEX
  8
OBJECT
 10
51.211677
 20
77.993596
 30
0.0
 42
0.156851
 50
90.0
  0
VERTEX
  8
OBJECT
 10
51.187201
 20
78.020617
 30
0.0
 42
0.156851
  0
VERTEX
  8
OBJECT
 10
51.151563
 20
78.028303
 30
0.0
 42
0.106617
  0
VERTEX
  8
OBJECT
 10
51.101163
 20
78.012094
 30
0.0
 42
0.072341
 70
     2
 50
210.0
  0
VERTEX
  8
OBJECT
 10
51.056727
 20
77.977031
 30
0.0
 42
0.058752
 50
210.0
  0
SEQEND
  8
OBJECT
  0
POLYLINE
  8
OBJECT
 66
     1
 10
0.0
 20
0.0
 30
0.0
  0
VERTEX
  8
OBJECT
 10
50.988541
 20
77.754527
 30
0.0
 42
0.09582
  0
VERTEX
  8
OBJECT
 10
51.033613
 20
77.770094
 30
0.0
 42
0.072341
 70
     2
 50
30.0
  0
VERTEX
  8
OBJECT
 10
51.078049
 20
77.805156
 30
0.0
 42
0.058752
 50
30.0
  0
VERTEX
  8
OBJECT
 10
51.119651
 20
77.86092
 30
0.0
 42
0.058752
  0
VERTEX
  8
OBJECT
 10
51.147143
 20
77.92483
 30
0.0
 42
0.072341
  0
VERTEX
  8
OBJECT
 10
51.155289
 20
77.980844
 30
0.0
 42
0.09582
 70
     2
 50
90.0
  0
VERTEX
  8
OBJECT
 10
51.146234
 20
78.02766
 30
0.0
 42
0.156851
 50
90.0
  0
SEQEND
  8
OBJECT
  0
POLYLINE
  8
OBJECT
 66
     1
 10
0.0
 20
0.0
 30
0.0
  0
VERTEX
  8
OBJECT
 10
48.458015
 20
79.215527
 30
0.0
 42
0.09582
  0
VERTEX
  8
OBJECT
 10
48.503087
 20
79.231094
 30
0.0
 42
0.072341
 70
     2
 50
30.0
  0
VERTEX
  8
OBJECT
 10
48.547523
 20
79.266156
 30
0.0
 42
0.058752
 50
30.0
  0
VERTEX
  8
OBJECT
 10
48.589125
 20
79.32192
 30
0.0
 42
0.058752
  0
VERTEX
  8
OBJECT
 10
48.616616
 20
79.38583
 30
0.0
 42
0.072341
  0
VERTEX
  8
OBJECT
 10
48.624763
 20
79.441844
 30
0.0
 42
0.09582
 70
     2
 50
90.0
  0
VERTEX
  8
OBJECT
 10
48.615708
 20
79.48866
 30
0.0
 42
0.156851
 50
90.0
  0
SEQEND
  8
OBJECT
  0
POLYLINE
  8
OBJECT
 66
     1
 10
0.0
 20
0.0
 30
0.0
 70
     1
  0
VERTEX
  8
OBJECT
 10
48.484598
 20
79.382268
 30
0.0
 42
0.058752
  0
VERTEX
  8
OBJECT
 10
48.457107
 20
79.318358
 30
0.0
 42
0.072341
  0
VERTEX
  8
OBJECT
 10
48.44896
 20
79.262344
 30
0.0
 42
0.106617
 70
     2
 50
270.0
  0
VERTEX
  8
OBJECT
 10
48.460122
 20
79.210591
 30
0.0
 42
0.156851
 50
270.0
  0
VERTEX
  8
OBJECT
 10
48.484598
 20
79.183571
 30
0.0
 42
0.156851
  0
VERTEX
  8
OBJECT
 10
48.520237
 20
79.175884
 30
0.0
 42
0.106617
  0
VERTEX
  8
OBJECT
 10
48.570637
 20
79.192094
 30
0.0
 42
0.072341
 70
     2
 50
30.0
  0
VERTEX
  8
OBJECT
 10
48.615073
 20
79.227156
 30
0.0
 42
0.058752
 50
30.0
  0
VERTEX
  8
OBJECT
 10
48.656675
 20
79.28292
 30
0.0
 42
0.058752
  0
VERTEX
  8
OBJECT
 10
48.684166
 20
79.34683
 30
0.0
 42
0.072341
  0
VERTEX
  8
OBJECT
 10
48.692313
 20
79.402844
 30
0.0
 42
0.106617
 70
     2
 50
90.0
  0
VERTEX
  8
OBJECT
 10
48.681151
 20
79.454596
 30
0.0
 42
0.156851
 50
90.0
  0
VERTEX
  8
OBJECT
 10
48.656675
 20
79.481617
 30
0.0
 42
0.156851
  0
VERTEX
  8
OBJECT
 10
48.621037
 20
79.489303
 30
0.0
 42
0.106617
  0
VERTEX
  8
OBJECT
 10
48.570637
 20
79.473094
 30
0.0
 42
0.072341
 70
     2
 50
210.0
  0
VERTEX
  8
OBJECT
 10
48.5262
 20
79.438031
 30
0.0
 42
0.058752
 50
210.0
  0
SEQEND
  8
OBJECT
  0
POLYLINE
  8
OBJECT
 66
     1
 10
0.0
 20
0.0
 30
0.0
  0
VERTEX
  8
OBJECT
 10
50.582112
 20
80.07192
 30
0.0
 42
0.058752
  0
VERTEX
  8
OBJECT
 10
50.623714
 20
80.016156
 30
0.0
 42
0.072341
  0
VERTEX
  8
OBJECT
 10
50.66815
 20
79.981094
 30
0.0
 42
0.09582
 70
     2
 50
330.0
  0
VERTEX
  8
OBJECT
 10
50.713222
 20
79.965527
 30
0.0
 42
0.156851
 50
330.0
  0
SEQEND
  8
OBJECT
  0
POLYLINE
  8
OBJECT
 66
     1
 10
0.0
 20
0.0
 30
0.0
 70
     1
  0
VERTEX
  8
OBJECT
 10
50.514562
 20
80.03292
 30
0.0
 42
0.058752
  0
VERTEX
  8
OBJECT
 10
50.556164
 20
79.977156
 30
0.0
 42
0.072341
  0
VERTEX
  8
OBJECT
 10
50.6006
 20
79.942094
 30
0.0
 42
0.106617
 70
     2
 50
330.0
  0
VERTEX
  8
OBJECT
 10
50.651
 20
79.925884
 30
0.0
 42
0.156851
 50
330.0
  0
VERTEX
  8
OBJECT
 10
50.686639
 20
79.933571
 30
0.0
 42
0.156851
  0
VERTEX
  8
OBJECT
 10
50.711114
 20
79.960591
 30
0.0
 42
0.106617
  0
VERTEX
  8
OBJECT
 10
50.722277
 20
80.012344
 30
0.0
 42
0.072341
 70
     2
 50
90.0
  0
VERTEX
  8
OBJECT
 10
50.71413
 20
80.068358
 30
0.0
 42
0.058752
 50
90.0
  0
VERTEX
  8
OBJECT
 10
50.686639
 20
80.132268
 30
0.0
 42
0.058752
  0
VERTEX
  8
OBJECT
 10
50.645036
 20
80.188031
 30
0.0
 42
0.072341
  0
VERTEX
  8
OBJECT
 10
50.6006
 20
80.223094
 30
0.0
 42
0.106617
 70
     2
 50
150.0
  0
VERTEX
  8
OBJECT
 10
50.5502
 20
80.239303
 30
0.0
 42
0.156851
 50
150.0
  0
VERTEX
  8
OBJECT
 10
50.514562
 20
80.231617
 30
0.0
 42
0.156851
  0
VERTEX
  8
OBJECT
 10
50.490086
 20
80.204596
 30
0.0
 42
0.106617
  0
VERTEX
  8
OBJECT
 10
50.478924
 20
80.152844
 30
0.0
 42
0.072341
 70
     2
 50
270.0
  0
VERTEX
  8
OBJECT
 10
50.48707
 20
80.09683
 30
0.0
 42
0.058752
 50
270.0
  0
SEQEND
  8
OBJECT
  0
POLYLINE
  8
OBJECT
 66
     1
 10
0.0
 20
0.0
 30
0.0
  0
VERTEX
  8
OBJECT
 10
50.555529
 20
80.23866
 30
0.0
 42
0.09582
  0
VERTEX
  8
OBJECT
 10
50.546474
 20
80.191844
 30
0.0
 42
0.072341
 70
     2
 50
270.0
  0
VERTEX
  8
OBJECT
 10
50.55462
 20
80.13583
 30
0.0
 42
0.058752
 50
270.0
  0
VERTEX
  8
OBJECT
 10
50.582112
 20
80.07192
 30
0.0
 42
0.058752
  0
SEQEND
  8
OBJECT
  0
LINE
  8
OBJECT
 10
50.817107
 20
80.332594
 30
0.0
 11
50.817107
 21
79.582594
 31
0.0
  0
LINE
  8
OBJECT
 10
52.116145
 20
79.582594
 30
0.0
 11
52.116145
 21
79.285594
 31
0.0
  0
LINE
  8
OBJECT
 10
50.817107
 20
80.332594
 30
0.0
 11
52.116145
 21
79.582594
 31
0.0
  0
LINE
  8
OBJECT
 10
50.817107
 20
79.582594
 30
0.0
 11
51.723835
 21
79.059094
 31
0.0
  0
LINE
  8
OBJECT
 10
50.884657
 20
80.293594
 30
0.0
 11
50.884657
 21
79.621594
 31
0.0
  0
LINE
  8
OBJECT
 10
50.884657
 20
79.621594
 30
0.0
 11
51.791385
 21
79.098094
 31
0.0
  0
LINE
  8
OBJECT
 10
50.884657
 20
79.621594
 30
0.0
 11
50.817107
 21
79.582594
 31
0.0
  0
LINE
  8
OBJECT
 10
47.488105
 20
17.957594
 30
0.0
 11
50.235137
 21
19.543594
 31
0.0
  0
LINE
  8
OBJECT
 10
46.771036
 20
19.121594
 30
0.0
 11
50.235137
 21
21.121594
 31
0.0
  0
LINE
  8
OBJECT
 10
46.906136
 20
19.121594
 30
0.0
 11
50.235137
 21
21.043594
 31
0.0
  0
LINE
  8
OBJECT
 10
46.771036
 20
19.121594
 30
0.0
 11
46.771036
 21
17.621594
 31
0.0
  0
LINE
  8
OBJECT
 10
47.420555
 20
18.496594
 30
0.0
 11
47.420555
 21
17.496594
 31
0.0
  0
LINE
  8
OBJECT
 10
47.488105
 20
18.535594
 30
0.0
 11
47.488105
 21
17.535594
 31
0.0
  0
LINE
  8
OBJECT
 10
46.771036
 20
17.621594
 30
0.0
 11
47.204049
 21
17.371594
 31
0.0
  0
LINE
  8
OBJECT
 10
47.420555
 20
17.496594
 30
0.0
 11
47.488105
 21
17.535594
 31
0.0
  0
LINE
  8
OBJECT
 10
47.420555
 20
17.496594
 30
0.0
 11
47.204049
 21
17.371594
 31
0.0
  0
LINE
  8
OBJECT
 10
46.771036
 20
19.121594
 30
0.0
 11
47.204049
 21
18.871594
 31
0.0
  0
LINE
  8
OBJECT
 10
47.420555
 20
18.496594
 30
0.0
 11
47.488105
 21
18.535594
 31
0.0
  0
LINE
  8
OBJECT
 10
47.271599
 20
18.910594
 30
0.0
 11
47.488105
 21
18.535594
 31
0.0
  0
LINE
  8
OBJECT
 10
47.420555
 20
18.496594
 30
0.0
 11
47.204049
 21
18.871594
 31
0.0
  0
LINE
  8
OBJECT
 10
47.204049
 20
18.871594
 30
0.0
 11
47.271599
 21
18.910594
 31
0.0
  0
LINE
  8
OBJECT
 10
46.906136
 20
19.121594
 30
0.0
 11
47.271599
 21
18.910594
 31
0.0
  0
POLYLINE
  8
OBJECT
 66
     1
 10
0.0
 20
0.0
 30
0.0
  0
VERTEX
  8
OBJECT
 10
47.18556
 20
18.11092
 30
0.0
 42
0.058752
  0
VERTEX
  8
OBJECT
 10
47.227162
 20
18.055156
 30
0.0
 42
0.072341
  0
VERTEX
  8
OBJECT
 10
47.271599
 20
18.020094
 30
0.0
 42
0.09582
 70
     2
 50
330.0
  0
VERTEX
  8
OBJECT
 10
47.31667
 20
18.004527
 30
0.0
 42
0.156851
 50
330.0
  0
SEQEND
  8
OBJECT
  0
POLYLINE
  8
OBJECT
 66
     1
 10
0.0
 20
0.0
 30
0.0
 70
     1
  0
VERTEX
  8
OBJECT
 10
47.11801
 20
18.07192
 30
0.0
 42
0.058752
  0
VERTEX
  8
OBJECT
 10
47.159612
 20
18.016156
 30
0.0
 42
0.072341
  0
VERTEX
  8
OBJECT
 10
47.204049
 20
17.981094
 30
0.0
 42
0.106617
 70
     2
 50
330.0
  0
VERTEX
  8
OBJECT
 10
47.254449
 20
17.964884
 30
0.0
 42
0.156851
 50
330.0
  0
VERTEX
  8
OBJECT
 10
47.290087
 20
17.972571
 30
0.0
 42
0.156851
  0
VERTEX
  8
OBJECT
 10
47.314563
 20
17.999591
 30
0.0
 42
0.106617
  0
VERTEX
  8
OBJECT
 10
47.325725
 20
18.051344
 30
0.0
 42
0.072341
 70
     2
 50
90.0
  0
VERTEX
  8
OBJECT
 10
47.317578
 20
18.107358
 30
0.0
 42
0.058752
 50
90.0
  0
VERTEX
  8
OBJECT
 10
47.290087
 20
18.171268
 30
0.0
 42
0.058752
  0
VERTEX
  8
OBJECT
 10
47.248485
 20
18.227031
 30
0.0
 42
0.072341
  0
VERTEX
  8
OBJECT
 10
47.204049
 20
18.262094
 30
0.0
 42
0.106617
 70
     2
 50
150.0
  0
VERTEX
  8
OBJECT
 10
47.153648
 20
18.278303
 30
0.0
 42
0.156851
 50
150.0
  0
VERTEX
  8
OBJECT
 10
47.11801
 20
18.270617
 30
0.0
 42
0.156851
  0
VERTEX
  8
OBJECT
 10
47.093534
 20
18.243596
 30
0.0
 42
0.106617
  0
VERTEX
  8
OBJECT
 10
47.082372
 20
18.191844
 30
0.0
 42
0.072341
 70
     2
 50
270.0
  0
VERTEX
  8
OBJECT
 10
47.090519
 20
18.13583
 30
0.0
 42
0.058752
 50
270.0
  0
SEQEND
  8
OBJECT
  0
POLYLINE
  8
OBJECT
 66
     1
 10
0.0
 20
0.0
 30
0.0
  0
VERTEX
  8
OBJECT
 10
47.158977
 20
18.27766
 30
0.0
 42
0.09582
  0
VERTEX
  8
OBJECT
 10
47.149922
 20
18.230844
 30
0.0
 42
0.072341
 70
     2
 50
270.0
  0
VERTEX
  8
OBJECT
 10
47.158069
 20
18.17483
 30
0.0
 42
0.058752
 50
270.0
  0
VERTEX
  8
OBJECT
 10
47.18556
 20
18.11092
 30
0.0
 42
0.058752
  0
SEQEND
  8
OBJECT
  0
LINE
  8
OBJECT
 10
48.936099
 20
17.871594
 30
0.0
 11
49.369112
 21
17.621594
 31
0.0
  0
LINE
  8
OBJECT
 10
48.719593
 20
17.746594
 30
0.0
 11
48.719593
 21
16.746594
 31
0.0
  0
LINE
  8
OBJECT
 10
49.369112
 20
17.621594
 30
0.0
 11
52.833214
 21
19.621594
 31
0.0
  0
LINE
  8
OBJECT
 10
49.369112
 20
16.121594
 30
0.0
 11
52.833214
 21
18.121594
 31
0.0
  0
LINE
  8
OBJECT
 10
48.719593
 20
16.746594
 30
0.0
 11
48.936099
 21
16.371594
 31
0.0
  0
POLYLINE
  8
OBJECT
 66
     1
 10
0.0
 20
0.0
 30
0.0
 70
     1
  0
VERTEX
  8
OBJECT
 10
48.850061
 20
17.07192
 30
0.0
 42
0.058752
  0
VERTEX
  8
OBJECT
 10
48.891663
 20
17.016156
 30
0.0
 42
0.072341
  0
VERTEX
  8
OBJECT
 10
48.936099
 20
16.981094
 30
0.0
 42
0.106617
 70
     2
 50
330.0
  0
VERTEX
  8
OBJECT
 10
48.986499
 20
16.964884
 30
0.0
 42
0.156851
 50
330.0
  0
VERTEX
  8
OBJECT
 10
49.022138
 20
16.972571
 30
0.0
 42
0.156851
  0
VERTEX
  8
OBJECT
 10
49.046614
 20
16.999591
 30
0.0
 42
0.106617
  0
VERTEX
  8
OBJECT
 10
49.057776
 20
17.051344
 30
0.0
 42
0.072341
 70
     2
 50
90.0
  0
VERTEX
  8
OBJECT
 10
49.049629
 20
17.107358
 30
0.0
 42
0.058752
 50
90.0
  0
VERTEX
  8
OBJECT
 10
49.022138
 20
17.171268
 30
0.0
 42
0.058752
  0
VERTEX
  8
OBJECT
 10
48.980536
 20
17.227031
 30
0.0
 42
0.072341
  0
VERTEX
  8
OBJECT
 10
48.936099
 20
17.262094
 30
0.0
 42
0.106617
 70
     2
 50
150.0
  0
VERTEX
  8
OBJECT
 10
48.885699
 20
17.278303
 30
0.0
 42
0.156851
 50
150.0
  0
VERTEX
  8
OBJECT
 10
48.850061
 20
17.270617
 30
0.0
 42
0.156851
  0
VERTEX
  8
OBJECT
 10
48.825585
 20
17.243596
 30
0.0
 42
0.106617
  0
VERTEX
  8
OBJECT
 10
48.814423
 20
17.191844
 30
0.0
 42
0.072341
 70
     2
 50
270.0
  0
VERTEX
  8
OBJECT
 10
48.82257
 20
17.13583
 30
0.0
 42
0.058752
 50
270.0
  0
SEQEND
  8
OBJECT
  0
POLYLINE
  8
OBJECT
 66
     1
 10
0.0
 20
0.0
 30
0.0
  0
VERTEX
  8
OBJECT
 10
48.917611
 20
17.11092
 30
0.0
 42
0.058752
  0
VERTEX
  8
OBJECT
 10
48.959213
 20
17.055156
 30
0.0
 42
0.072341
  0
VERTEX
  8
OBJECT
 10
49.003649
 20
17.020094
 30
0.0
 42
0.09582
 70
     2
 50
330.0
  0
VERTEX
  8
OBJECT
 10
49.048721
 20
17.004527
 30
0.0
 42
0.156851
 50
330.0
  0
SEQEND
  8
OBJECT
  0
POLYLINE
  8
OBJECT
 66
     1
 10
0.0
 20
0.0
 30
0.0
  0
VERTEX
  8
OBJECT
 10
48.891028
 20
17.27766
 30
0.0
 42
0.09582
  0
VERTEX
  8
OBJECT
 10
48.881973
 20
17.230844
 30
0.0
 42
0.072341
 70
     2
 50
270.0
  0
VERTEX
  8
OBJECT
 10
48.89012
 20
17.17483
 30
0.0
 42
0.058752
 50
270.0
  0
VERTEX
  8
OBJECT
 10
48.917611
 20
17.11092
 30
0.0
 42
0.058752
  0
SEQEND
  8
OBJECT
  0
LINE
  8
OBJECT
 10
49.369112
 20
17.621594
 30
0.0
 11
49.369112
 21
16.121594
 31
0.0
  0
LINE
  8
OBJECT
 10
48.936099
 20
16.371594
 30
0.0
 11
49.369112
 21
16.121594
 31
0.0
  0
LINE
  8
OBJECT
 10
50.235137
 20
21.121594
 30
0.0
 11
52.833214
 21
19.621594
 31
0.0
  0
LINE
  8
OBJECT
 10
50.235137
 20
21.043594
 30
0.0
 11
52.698114
 21
19.621594
 31
0.0
  0
LINE
  8
OBJECT
 10
50.817107
 20
20.332594
 30
0.0
 11
52.116145
 21
19.582594
 31
0.0
  0
LINE
  8
OBJECT
 10
49.369112
 20
17.699594
 30
0.0
 11
52.698114
 21
19.621594
 31
0.0
  0
LINE
  8
OBJECT
 10
50.235137
 20
19.543594
 30
0.0
 11
51.399076
 21
18.871594
 31
0.0
  0
LINE
  8
OBJECT
 10
50.817107
 20
19.582594
 30
0.0
 11
51.723835
 21
19.059094
 31
0.0
  0
LINE
  8
OBJECT
 10
50.884657
 20
19.621594
 30
0.0
 11
51.791385
 21
19.098094
 31
0.0
  0
POLYLINE
  8
OBJECT
 66
     1
 10
0.0
 20
0.0
 30
0.0
  0
VERTEX
  8
OBJECT
 10
48.458015
 20
19.215527
 30
0.0
 42
0.09582
  0
VERTEX
  8
OBJECT
 10
48.503087
 20
19.231094
 30
0.0
 42
0.072341
 70
     2
 50
30.0
  0
VERTEX
  8
OBJECT
 10
48.547523
 20
19.266156
 30
0.0
 42
0.058752
 50
30.0
  0
VERTEX
  8
OBJECT
 10
48.589125
 20
19.32192
 30
0.0
 42
0.058752
  0
VERTEX
  8
OBJECT
 10
48.616616
 20
19.38583
 30
0.0
 42
0.072341
  0
VERTEX
  8
OBJECT
 10
48.624763
 20
19.441844
 30
0.0
 42
0.09582
 70
     2
 50
90.0
  0
VERTEX
  8
OBJECT
 10
48.615708
 20
19.48866
 30
0.0
 42
0.156851
 50
90.0
  0
SEQEND
  8
OBJECT
  0
POLYLINE
  8
OBJECT
 66
     1
 10
0.0
 20
0.0
 30
0.0
 70
     1
  0
VERTEX
  8
OBJECT
 10
48.484598
 20
19.382268
 30
0.0
 42
0.058752
  0
VERTEX
  8
OBJECT
 10
48.457107
 20
19.318358
 30
0.0
 42
0.072341
  0
VERTEX
  8
OBJECT
 10
48.44896
 20
19.262344
 30
0.0
 42
0.106617
 70
     2
 50
270.0
  0
VERTEX
  8
OBJECT
 10
48.460122
 20
19.210591
 30
0.0
 42
0.156851
 50
270.0
  0
VERTEX
  8
OBJECT
 10
48.484598
 20
19.183571
 30
0.0
 42
0.156851
  0
VERTEX
  8
OBJECT
 10
48.520237
 20
19.175884
 30
0.0
 42
0.106617
  0
VERTEX
  8
OBJECT
 10
48.570637
 20
19.192094
 30
0.0
 42
0.072341
 70
     2
 50
30.0
  0
VERTEX
  8
OBJECT
 10
48.615073
 20
19.227156
 30
0.0
 42
0.058752
 50
30.0
  0
VERTEX
  8
OBJECT
 10
48.656675
 20
19.28292
 30
0.0
 42
0.058752
  0
VERTEX
  8
OBJECT
 10
48.684166
 20
19.34683
 30
0.0
 42
0.072341
  0
VERTEX
  8
OBJECT
 10
48.692313
 20
19.402844
 30
0.0
 42
0.106617
 70
     2
 50
90.0
  0
VERTEX
  8
OBJECT
 10
48.681151
 20
19.454596
 30
0.0
 42
0.156851
 50
90.0
  0
VERTEX
  8
OBJECT
 10
48.656675
 20
19.481617
 30
0.0
 42
0.156851
  0
VERTEX
  8
OBJECT
 10
48.621037
 20
19.489303
 30
0.0
 42
0.106617
  0
VERTEX
  8
OBJECT
 10
48.570637
 20
19.473094
 30
0.0
 42
0.072341
 70
     2
 50
210.0
  0
VERTEX
  8
OBJECT
 10
48.5262
 20
19.438031
 30
0.0
 42
0.058752
 50
210.0
  0
SEQEND
  8
OBJECT
  0
LINE
  8
OBJECT
 10
49.003649
 20
17.910594
 30
0.0
 11
49.369112
 21
17.699594
 31
0.0
  0
LINE
  8
OBJECT
 10
48.719593
 20
17.746594
 30
0.0
 11
48.936099
 21
17.871594
 31
0.0
  0
LINE
  8
OBJECT
 10
48.936099
 20
17.871594
 30
0.0
 11
49.003649
 21
17.910594
 31
0.0
  0
POLYLINE
  8
OBJECT
 66
     1
 10
0.0
 20
0.0
 30
0.0
  0
VERTEX
  8
OBJECT
 10
50.555529
 20
20.23866
 30
0.0
 42
0.09582
  0
VERTEX
  8
OBJECT
 10
50.546474
 20
20.191844
 30
0.0
 42
0.072341
 70
     2
 50
270.0
  0
VERTEX
  8
OBJECT
 10
50.55462
 20
20.13583
 30
0.0
 42
0.058752
 50
270.0
  0
VERTEX
  8
OBJECT
 10
50.582112
 20
20.07192
 30
0.0
 42
0.058752
  0
SEQEND
  8
OBJECT
  0
LINE
  8
OBJECT
 10
50.884657
 20
19.621594
 30
0.0
 11
50.817107
 21
19.582594
 31
0.0
  0
POLYLINE
  8
OBJECT
 66
     1
 10
0.0
 20
0.0
 30
0.0
 70
     1
  0
VERTEX
  8
OBJECT
 10
50.514562
 20
20.03292
 30
0.0
 42
0.058752
  0
VERTEX
  8
OBJECT
 10
50.556164
 20
19.977156
 30
0.0
 42
0.072341
  0
VERTEX
  8
OBJECT
 10
50.6006
 20
19.942094
 30
0.0
 42
0.106617
 70
     2
 50
330.0
  0
VERTEX
  8
OBJECT
 10
50.651
 20
19.925884
 30
0.0
 42
0.156851
 50
330.0
  0
VERTEX
  8
OBJECT
 10
50.686639
 20
19.933571
 30
0.0
 42
0.156851
  0
VERTEX
  8
OBJECT
 10
50.711114
 20
19.960591
 30
0.0
 42
0.106617
  0
VERTEX
  8
OBJECT
 10
50.722277
 20
20.012344
 30
0.0
 42
0.072341
 70
     2
 50
90.0
  0
VERTEX
  8
OBJECT
 10
50.71413
 20
20.068358
 30
0.0
 42
0.058752
 50
90.0
  0
VERTEX
  8
OBJECT
 10
50.686639
 20
20.132268
 30
0.0
 42
0.058752
  0
VERTEX
  8
OBJECT
 10
50.645036
 20
20.188031
 30
0.0
 42
0.072341
  0
VERTEX
  8
OBJECT
 10
50.6006
 20
20.223094
 30
0.0
 42
0.106617
 70
     2
 50
150.0
  0
VERTEX
  8
OBJECT
 10
50.5502
 20
20.239303
 30
0.0
 42
0.156851
 50
150.0
  0
VERTEX
  8
OBJECT
 10
50.514562
 20
20.231617
 30
0.0
 42
0.156851
  0
VERTEX
  8
OBJECT
 10
50.490086
 20
20.204596
 30
0.0
 42
0.106617
  0
VERTEX
  8
OBJECT
 10
50.478924
 20
20.152844
 30
0.0
 42
0.072341
 70
     2
 50
270.0
  0
VERTEX
  8
OBJECT
 10
50.48707
 20
20.09683
 30
0.0
 42
0.058752
 50
270.0
  0
SEQEND
  8
OBJECT
  0
LINE
  8
OBJECT
 10
50.235137
 20
21.043594
 30
0.0
 11
50.235137
 21
19.543594
 31
0.0
  0
LINE
  8
OBJECT
 10
50.817107
 20
20.332594
 30
0.0
 11
50.817107
 21
19.582594
 31
0.0
  0
LINE
  8
OBJECT
 10
50.884657
 20
20.293594
 30
0.0
 11
50.884657
 21
19.621594
 31
0.0
  0
POLYLINE
  8
OBJECT
 66
     1
 10
0.0
 20
0.0
 30
0.0
  0
VERTEX
  8
OBJECT
 10
50.582112
 20
20.07192
 30
0.0
 42
0.058752
  0
VERTEX
  8
OBJECT
 10
50.623714
 20
20.016156
 30
0.0
 42
0.072341
  0
VERTEX
  8
OBJECT
 10
50.66815
 20
19.981094
 30
0.0
 42
0.09582
 70
     2
 50
330.0
  0
VERTEX
  8
OBJECT
 10
50.713222
 20
19.965527
 30
0.0
 42
0.156851
 50
330.0
  0
SEQEND
  8
OBJECT
  0
LINE
  8
OBJECT
 10
52.116145
 20
19.582594
 30
0.0
 11
52.116145
 21
19.285594
 31
0.0
  0
LINE
  8
OBJECT
 10
52.833214
 20
19.621594
 30
0.0
 11
52.833214
 21
18.121594
 31
0.0
  0
POLYLINE
  8
OBJECT
 66
     1
 10
0.0
 20
0.0
 30
0.0
 70
     1
  0
VERTEX
  8
OBJECT
 10
51.015125
 20
17.921268
 30
0.0
 42
0.058752
  0
VERTEX
  8
OBJECT
 10
50.987633
 20
17.857358
 30
0.0
 42
0.072341
  0
VERTEX
  8
OBJECT
 10
50.979486
 20
17.801344
 30
0.0
 42
0.106617
 70
     2
 50
270.0
  0
VERTEX
  8
OBJECT
 10
50.990649
 20
17.749591
 30
0.0
 42
0.156851
 50
270.0
  0
VERTEX
  8
OBJECT
 10
51.015125
 20
17.722571
 30
0.0
 42
0.156851
  0
VERTEX
  8
OBJECT
 10
51.050763
 20
17.714884
 30
0.0
 42
0.106617
  0
VERTEX
  8
OBJECT
 10
51.101163
 20
17.731094
 30
0.0
 42
0.072341
 70
     2
 50
30.0
  0
VERTEX
  8
OBJECT
 10
51.145599
 20
17.766156
 30
0.0
 42
0.058752
 50
30.0
  0
VERTEX
  8
OBJECT
 10
51.187201
 20
17.82192
 30
0.0
 42
0.058752
  0
VERTEX
  8
OBJECT
 10
51.214693
 20
17.88583
 30
0.0
 42
0.072341
  0
VERTEX
  8
OBJECT
 10
51.222839
 20
17.941844
 30
0.0
 42
0.106617
 70
     2
 50
90.0
  0
VERTEX
  8
OBJECT
 10
51.211677
 20
17.993596
 30
0.0
 42
0.156851
 50
90.0
  0
VERTEX
  8
OBJECT
 10
51.187201
 20
18.020617
 30
0.0
 42
0.156851
  0
VERTEX
  8
OBJECT
 10
51.151563
 20
18.028303
 30
0.0
 42
0.106617
  0
VERTEX
  8
OBJECT
 10
51.101163
 20
18.012094
 30
0.0
 42
0.072341
 70
     2
 50
210.0
  0
VERTEX
  8
OBJECT
 10
51.056727
 20
17.977031
 30
0.0
 42
0.058752
 50
210.0
  0
SEQEND
  8
OBJECT
  0
POLYLINE
  8
OBJECT
 66
     1
 10
0.0
 20
0.0
 30
0.0
  0
VERTEX
  8
OBJECT
 10
50.988541
 20
17.754527
 30
0.0
 42
0.09582
  0
VERTEX
  8
OBJECT
 10
51.033613
 20
17.770094
 30
0.0
 42
0.072341
 70
     2
 50
30.0
  0
VERTEX
  8
OBJECT
 10
51.078049
 20
17.805156
 30
0.0
 42
0.058752
 50
30.0
  0
VERTEX
  8
OBJECT
 10
51.119651
 20
17.86092
 30
0.0
 42
0.058752
  0
VERTEX
  8
OBJECT
 10
51.147143
 20
17.92483
 30
0.0
 42
0.072341
  0
VERTEX
  8
OBJECT
 10
51.155289
 20
17.980844
 30
0.0
 42
0.09582
 70
     2
 50
90.0
  0
VERTEX
  8
OBJECT
 10
51.146234
 20
18.02766
 30
0.0
 42
0.156851
 50
90.0
  0
SEQEND
  8
OBJECT
  0
TEXT
  8
TEXT
 10
7.464092
 20
90.794155
 30
0.0
 40
1.125
  1
VERTICAL CABLEWAY COVER
 41
0.75
  7
TXT
 72
     1
 11
17.307842
 21
90.794155
 31
0.0
  0
TEXT
  8
TEXT
 10
45.670305
 20
90.794155
 30
0.0
 40
1.125
  1
CM-1197
 41
0.75
  7
TXT
 72
     1
 11
48.201555
 21
90.794155
 31
0.0
  0
TEXT
  8
TEXT
 10
25.460759
 20
70.656685
 30
0.0
 40
0.75
  1
%%UMATERIAL:%%U  20 GA. STEEL
 41
0.75
  7
TXT
  0
TEXT
  8
TEXT
 10
25.460759
 20
67.599582
 30
0.0
 40
0.75
  1
%%UFINISH:%%U  SMOOTH BLACK
 41
0.75
  7
TXT
  0
POLYLINE
  8
DIM
 66
     1
 10
0.0
 20
0.0
 30
0.0
 41
0.405
  0
VERTEX
  8
DIM
 10
13.529117
 20
73.025941
 30
0.0
  0
VERTEX
  8
DIM
 10
12.892986
 20
73.898717
 30
0.0
 41
0.0
  0
VERTEX
  8
DIM
 10
10.447516
 20
77.253922
 30
0.0
 41
0.0
  0
VERTEX
  8
DIM
 10
9.367516
 20
77.253922
 30
0.0
 41
0.0
  0
SEQEND
  8
DIM
  0
TEXT
  8
DIM
 10
4.608766
 20
76.878922
 30
0.0
 40
0.75
  1
0.281 DIA.
 41
0.75
  7
TXT
 72
     2
 11
8.827516
 21
77.253922
 31
0.0
 73
     2
  0
TEXT
  8
DIM
 10
3.952516
 20
75.628922
 30
0.0
 40
0.75
  1
(12) HOLES
 41
0.75
  7
TXT
 72
     2
 11
8.827516
 21
76.003922
 31
0.0
 73
     2
  0
POLYLINE
  8
DIM
 66
     1
 10
0.0
 20
0.0
 30
0.0
 41
0.405
  0
VERTEX
  8
DIM
 10
52.053242
 20
77.671277
 30
0.0
  0
VERTEX
  8
DIM
 10
52.700311
 20
76.80658
 30
0.0
 41
0.0
  0
VERTEX
  8
DIM
 10
57.839201
 20
69.939339
 30
0.0
 41
0.0
  0
VERTEX
  8
DIM
 10
56.95676
 20
69.939339
 30
0.0
 41
0.0
  0
VERTEX
  8
DIM
 10
55.87676
 20
69.939339
 30
0.0
 41
0.0
  0
SEQEND
  8
DIM
  0
TEXT
  8
DIM
 10
48.58676
 20
69.564339
 30
0.0
 40
0.75
  1
REF. VERTICAL
 41
0.75
  7
TXT
 72
     2
 11
55.33676
 21
69.939339
 31
0.0
 73
     2
  0
TEXT
  8
DIM
 10
48.21176
 20
68.314339
 30
0.0
 40
0.75
  1
CABLEWAY RING
 41
0.75
  7
TXT
 72
     2
 11
55.33676
 21
68.689339
 31
0.0
 73
     2
  0
TEXT
  8
DIM
 10
49.71176
 20
67.064339
 30
0.0
 40
0.75
  1
#CM-1195 OR
 41
0.75
  7
TXT
 72
     2
 11
55.33676
 21
67.439339
 31
0.0
 73
     2
  0
TEXT
  8
DIM
 10
51.39926
 20
65.850089
 30
0.0
 40
0.75
  1
#CM-1196
 41
0.75
  7
TXT
 72
     2
 11
55.33676
 21
66.225089
 31
0.0
 73
     2
  0
TEXT
  8
TEXT
 10
25.409779
 20
62.520421
 30
0.0
 40
0.75
  1
SUPPLIED WITH QTY. (12)
 41
0.75
  7
TXT
  0
TEXT
  8
TEXT
 10
25.409779
 20
61.270421
 30
0.0
 40
0.75
  1
 #12-24 x 1/2 LG. SCREWS
 41
0.75
  7
TXT
  0
TEXT
  8
TEXT
 10
25.409779
 20
60.020421
 30
0.0
 40
0.75
  1
 & QTY. (12) #12-24 CLIP NUTS
 41
0.75
  7
TXT
  0
ENDSEC
  0
EOF
