  0
SECTION
  2
HEADER
  9
$ACADVER
  1
AC1009
  9
$INSBASE
 10
0.0
 20
0.0
 30
0.0
  9
$EXTMIN
 10
0.0
 20
0.0
 30
0.0
  9
$EXTMAX
 10
13.915
 20
21.3125
 30
0.0
  9
$LIMMIN
 10
0.0
 20
0.0
  9
$LIMMAX
 10
75.0
 20
50.0
  9
$ORTHOMODE
 70
     1
  9
$REGENMODE
 70
     1
  9
$FILLMODE
 70
     1
  9
$QTEXTMODE
 70
     0
  9
$MIRRTEXT
 70
     0
  9
$DRAGMODE
 70
     2
  9
$LTSCALE
 40
0.375
  9
$OSMODE
 70
     0
  9
$ATTMODE
 70
     1
  9
$TEXTSIZE
 40
0.172
  9
$TRACEWID
 40
0.05
  9
$TEXTSTYLE
  7
TXT
  9
$CLAYER
  8
DIM
  9
$CELTYPE
  6
BYLAYER
  9
$CECOLOR
 62
   256
  9
$DIMSCALE
 40
1.375
  9
$DIMASZ
 40
0.18
  9
$DIMEXO
 40
0.063
  9
$DIMDLI
 40
0.281
  9
$DIMRND
 40
0.0
  9
$DIMDLE
 40
0.0
  9
$DIMEXE
 40
0.093
  9
$DIMTP
 40
0.0
  9
$DIMTM
 40
0.0
  9
$DIMTXT
 40
0.125
  9
$DIMCEN
 40
0.09
  9
$DIMTSZ
 40
0.0
  9
$DIMTOL
 70
     0
  9
$DIMLIM
 70
     0
  9
$DIMTIH
 70
     1
  9
$DIMTOH
 70
     1
  9
$DIMSE1
 70
     0
  9
$DIMSE2
 70
     0
  9
$DIMTAD
 70
     0
  9
$DIMZIN
 70
     0
  9
$DIMBLK
  1

  9
$DIMASO
 70
     1
  9
$DIMSHO
 70
     1
  9
$DIMPOST
  1

  9
$DIMAPOST
  1

  9
$DIMALT
 70
     0
  9
$DIMALTD
 70
     2
  9
$DIMALTF
 40
25.4
  9
$DIMLFAC
 40
1.0
  9
$DIMTOFL
 70
     0
  9
$DIMTVP
 40
0.0
  9
$DIMTIX
 70
     1
  9
$DIMSOXD
 70
     0
  9
$DIMSAH
 70
     0
  9
$DIMBLK1
  1

  9
$DIMBLK2
  1

  9
$DIMSTYLE
  2
23NSTDI
  9
$DIMCLRD
 70
     0
  9
$DIMCLRE
 70
     0
  9
$DIMCLRT
 70
     0
  9
$DIMTFAC
 40
1.0
  9
$DIMGAP
 40
0.09
  9
$LUNITS
 70
     2
  9
$LUPREC
 70
     3
  9
$SKETCHINC
 40
0.1
  9
$FILLETRAD
 40
0.0
  9
$AUNITS
 70
     0
  9
$AUPREC
 70
     0
  9
$MENU
  1
acad
  9
$ELEVATION
 40
0.0
  9
$PELEVATION
 40
0.0
  9
$THICKNESS
 40
0.0
  9
$LIMCHECK
 70
     0
  9
$BLIPMODE
 70
     1
  9
$CHAMFERA
 40
0.0
  9
$CHAMFERB
 40
0.0
  9
$SKPOLY
 70
     0
  9
$TDCREATE
 40
2450186.524935069
  9
$TDUPDATE
 40
2450189.368965162
  9
$TDINDWG
 40
0.0689872685
  9
$TDUSRTIMER
 40
0.0689872685
  9
$USRTIMER
 70
     1
  9
$ANGBASE
 50
0.0
  9
$ANGDIR
 70
     0
  9
$PDMODE
 70
     0
  9
$PDSIZE
 40
0.0
  9
$PLINEWID
 40
0.0
  9
$COORDS
 70
     0
  9
$SPLFRAME
 70
     0
  9
$SPLINETYPE
 70
     6
  9
$SPLINESEGS
 70
     8
  9
$ATTDIA
 70
     0
  9
$ATTREQ
 70
     1
  9
$HANDLING
 70
     0
  9
$HANDSEED
  5
0
  9
$SURFTAB1
 70
     6
  9
$SURFTAB2
 70
     6
  9
$SURFTYPE
 70
     6
  9
$SURFU
 70
     6
  9
$SURFV
 70
     6
  9
$UCSNAME
  2

  9
$UCSORG
 10
0.0
 20
0.0
 30
0.0
  9
$UCSXDIR
 10
1.0
 20
0.0
 30
0.0
  9
$UCSYDIR
 10
0.0
 20
1.0
 30
0.0
  9
$PUCSNAME
  2

  9
$PUCSORG
 10
0.0
 20
0.0
 30
0.0
  9
$PUCSXDIR
 10
1.0
 20
0.0
 30
0.0
  9
$PUCSYDIR
 10
0.0
 20
1.0
 30
0.0
  9
$USERI1
 70
     0
  9
$USERI2
 70
     0
  9
$USERI3
 70
     0
  9
$USERI4
 70
     0
  9
$USERI5
 70
     0
  9
$USERR1
 40
0.0
  9
$USERR2
 40
0.0
  9
$USERR3
 40
0.0
  9
$USERR4
 40
0.0
  9
$USERR5
 40
0.0
  9
$WORLDVIEW
 70
     1
  9
$SHADEDGE
 70
     3
  9
$SHADEDIF
 70
    70
  9
$TILEMODE
 70
     1
  9
$MAXACTVP
 70
    16
  9
$PINSBASE
 10
0.0
 20
0.0
 30
0.0
  9
$PLIMCHECK
 70
     0
  9
$PEXTMIN
 10
1.000000E+20
 20
1.000000E+20
 30
1.000000E+20
  9
$PEXTMAX
 10
-1.000000E+20
 20
-1.000000E+20
 30
-1.000000E+20
  9
$PLIMMIN
 10
0.0
 20
0.0
  9
$PLIMMAX
 10
12.0
 20
9.0
  9
$UNITMODE
 70
     0
  9
$VISRETAIN
 70
     0
  9
$PLINEGEN
 70
     0
  9
$PSLTSCALE
 70
     1
  9
$TREEDEPTH
 70
  3020
  9
$DWGCODEPAGE
  3
ascii
  0
ENDSEC
  0
SECTION
  2
TABLES
  0
TABLE
  2
VPORT
 70
     2
  0
VPORT
  2
*ACTIVE
 70
     0
 10
0.0
 20
0.0
 11
1.0
 21
1.0
 12
14.51743
 22
10.65625
 13
0.0
 23
0.0
 14
1.0
 24
1.0
 15
0.0
 25
0.0
 16
0.0
 26
0.0
 36
1.0
 17
0.0
 27
0.0
 37
0.0
 40
21.3125
 41
1.36234
 42
50.0
 43
0.0
 44
0.0
 50
0.0
 51
0.0
 71
     0
 72
   100
 73
     1
 74
     0
 75
     0
 76
     0
 77
     0
 78
     0
  0
ENDTAB
  0
TABLE
  2
LTYPE
 70
     6
  0
LTYPE
  2
CONTINUOUS
 70
    64
  3
Solid line
 72
    65
 73
     0
 40
0.0
  0
LTYPE
  2
HIDDEN
 70
    64
  3
_ _ _ _ _ _ _ _ _ _ _ _ _ _ _ _ _ _ _ _ _ _ _
 72
    65
 73
     2
 40
0.375
 49
0.25
 49
-0.125
  0
LTYPE
  2
PHANTOM
 70
    64
  3
_____ _ _ _____ _ _ _____ _ _ _____ _ _ ____
 72
    65
 73
     6
 40
2.5
 49
1.25
 49
-0.25
 49
0.25
 49
-0.25
 49
0.25
 49
-0.25
  0
LTYPE
  2
CENTER
 70
    64
  3
____ _ ____ _ ____ _ ____ _ ____ _ ____ _ ____
 72
    65
 73
     4
 40
2.0
 49
1.25
 49
-0.25
 49
0.25
 49
-0.25
  0
LTYPE
  2
HIDDEN2
 70
     0
  3
_ _ _ _ _ _ _ _ _ _ _ _ _ _ _ _ _ _ _ _ _ _ _ _
 72
    65
 73
     2
 40
0.1875
 49
0.125
 49
-0.0625
  0
LTYPE
  2
PHANTOM2
 70
     0
  3
___ _ _ ___ _ _ ___ _ _ ___ _ _ ___ _ _ ___ _ _
 72
    65
 73
     6
 40
1.25
 49
0.625
 49
-0.125
 49
0.125
 49
-0.125
 49
0.125
 49
-0.125
  0
ENDTAB
  0
TABLE
  2
LAYER
 70
     9
  0
LAYER
  2
0
 70
    64
 62
     7
  6
CONTINUOUS
  0
LAYER
  2
OBJECT
 70
    64
 62
     7
  6
CONTINUOUS
  0
LAYER
  2
DIM
 70
    64
 62
     7
  6
CONTINUOUS
  0
LAYER
  2
HIDDEN
 70
    64
 62
     7
  6
HIDDEN
  0
LAYER
  2
BEND
 70
    64
 62
     7
  6
PHANTOM
  0
LAYER
  2
TEXT
 70
    64
 62
     7
  6
CONTINUOUS
  0
LAYER
  2
TITLE
 70
    64
 62
     7
  6
CONTINUOUS
  0
LAYER
  2
CENTER
 70
    64
 62
     7
  6
CENTER
  0
LAYER
  2
DEFPOINTS
 70
    64
 62
     7
  6
CONTINUOUS
  0
ENDTAB
  0
TABLE
  2
STYLE
 70
     2
  0
STYLE
  2
STANDARD
 70
    64
 40
0.0
 41
1.0
 50
0.0
 71
     0
 42
0.2
  3
txt
  4

  0
STYLE
  2
TXT
 70
    64
 40
0.0
 41
0.75
 50
0.0
 71
     0
 42
0.172
  3
TXT.shx
  4

  0
ENDTAB
  0
TABLE
  2
VIEW
 70
     0
  0
ENDTAB
  0
TABLE
  2
UCS
 70
     0
  0
ENDTAB
  0
TABLE
  2
APPID
 70
     1
  0
APPID
  2
ACAD
 70
    64
  0
ENDTAB
  0
TABLE
  2
DIMSTYLE
 70
     2
  0
DIMSTYLE
  2
23NSTD
 70
    64
  3

  4

  5

  6

  7

 40
1.375
 41
0.18
 42
0.063
 43
0.281
 44
0.093
 45
0.0
 46
0.0
 47
0.0
 48
0.0
140
0.125
141
0.09
142
0.0
143
25.4
144
1.0
145
0.0
146
1.0
147
0.09
 71
     0
 72
     0
 73
     1
 74
     1
 75
     0
 76
     0
 77
     0
 78
     0
170
     0
171
     2
172
     0
173
     0
174
     0
175
     0
176
     0
177
     0
178
     0
  0
DIMSTYLE
  2
23NSTDI
 70
    64
  3

  4

  5

  6

  7

 40
1.375
 41
0.18
 42
0.063
 43
0.281
 44
0.093
 45
0.0
 46
0.0
 47
0.0
 48
0.0
140
0.125
141
0.09
142
0.0
143
25.4
144
1.0
145
0.0
146
1.0
147
0.09
 71
     0
 72
     0
 73
     1
 74
     1
 75
     0
 76
     0
 77
     0
 78
     0
170
     0
171
     2
172
     0
173
     0
174
     1
175
     0
176
     0
177
     0
178
     0
  0
ENDTAB
  0
ENDSEC
  0
SECTION
  2
BLOCKS
  0
BLOCK
  8
0
  2
HB
 70
    64
 10
0.0
 20
0.0
 30
0.0
  3
HB
  0
TEXT
  8
TEXT
 10
0.207833
 20
15.060079
 30
0.0
 40
0.125
  1
NAME
 72
     1
 11
0.437
 21
15.060079
 31
0.0
  0
TEXT
  8
TEXT
 10
0.207833
 20
15.268413
 30
0.0
 40
0.125
  1
PART
 72
     1
 11
0.437
 21
15.268413
 31
0.0
  0
TEXT
  8
TEXT
 10
5.372
 20
15.060079
 30
0.0
 40
0.125
  1
No.
 72
     1
 11
5.497
 21
15.060079
 31
0.0
  0
TEXT
  8
TEXT
 10
5.267833
 20
15.268413
 30
0.0
 40
0.125
  1
PART
 72
     1
 11
5.497
 21
15.268413
 31
0.0
  0
LINE
  8
TITLE
 10
5.872
 20
15.438
 30
0.0
 11
5.872
 21
15.02
 31
0.0
  0
LINE
  8
TITLE
 10
5.122
 20
15.438
 30
0.0
 11
5.122
 21
15.02
 31
0.0
  0
LINE
  8
TITLE
 10
5.06
 20
15.438
 30
0.0
 11
5.06
 21
15.02
 31
0.0
  0
LINE
  8
TITLE
 10
0.812
 20
15.02
 30
0.0
 11
0.812
 21
15.438
 31
0.0
  0
LINE
  8
TITLE
 10
0.062
 20
15.02
 30
0.0
 11
10.058
 21
15.02
 31
0.0
  0
LINE
  8
TITLE
 10
10.058
 20
0.062
 30
0.0
 11
0.062
 21
0.062
 31
0.0
  0
LINE
  8
TITLE
 10
10.058
 20
15.438
 30
0.0
 11
10.058
 21
0.062
 31
0.0
  0
LINE
  8
TITLE
 10
0.062
 20
15.438
 30
0.0
 11
10.058
 21
15.438
 31
0.0
  0
LINE
  8
TITLE
 10
0.062
 20
0.062
 30
0.0
 11
0.062
 21
15.438
 31
0.0
  0
LINE
  8
TITLE
 10
0.0
 20
0.0
 30
0.0
 11
0.0
 21
15.5
 31
0.0
  0
LINE
  8
TITLE
 10
10.12
 20
0.0
 30
0.0
 11
0.0
 21
0.0
 31
0.0
  0
LINE
  8
TITLE
 10
10.12
 20
15.5
 30
0.0
 11
10.12
 21
0.0
 31
0.0
  0
LINE
  8
TITLE
 10
0.0
 20
15.5
 30
0.0
 11
10.12
 21
15.5
 31
0.0
  0
ENDBLK
  8
0
  0
BLOCK
  8
0
  2
*D1
 70
    65
 10
0.0
 20
0.0
 30
0.0
  3
*D
  0
LINE
  8
0
  6
BYBLOCK
 62
     0
 10
9.835544
 20
2.604504
 30
0.0
 11
8.821329
 21
2.604504
 31
0.0
  0
LINE
  8
0
  6
BYBLOCK
 62
     0
 10
9.835544
 20
1.979504
 30
0.0
 11
8.821329
 21
1.979504
 31
0.0
  0
LINE
  8
0
  6
BYBLOCK
 62
     0
 10
8.949204
 20
2.852004
 30
0.0
 11
8.949204
 21
3.099504
 31
0.0
  0
LINE
  8
0
  6
BYBLOCK
 62
     0
 10
8.949204
 20
1.732004
 30
0.0
 11
8.949204
 21
1.484504
 31
0.0
  0
SOLID
  8
0
  6
BYBLOCK
 62
     0
 10
8.907954
 20
2.852004
 30
0.0
 11
8.990454
 21
2.852004
 31
0.0
 12
8.949204
 22
2.604504
 32
0.0
 13
8.949204
 23
2.604504
 33
0.0
  0
SOLID
  8
0
  6
BYBLOCK
 62
     0
 10
8.907954
 20
1.732004
 30
0.0
 11
8.990454
 21
1.732004
 31
0.0
 12
8.949204
 22
1.979504
 32
0.0
 13
8.949204
 23
1.979504
 33
0.0
  0
TEXT
  8
0
  6
BYBLOCK
 62
     0
 10
8.702134
 20
2.206067
 30
0.0
 40
0.171875
  1
0.625
 41
0.75
  7
TXT
 72
     1
 11
8.949204
 21
2.292004
 31
0.0
 73
     2
  0
POINT
  8
DEFPOINTS
  6
BYBLOCK
 62
     0
 10
9.922169
 20
2.604504
 30
0.0
  0
POINT
  8
DEFPOINTS
  6
BYBLOCK
 62
     0
 10
9.922169
 20
1.979504
 30
0.0
  0
POINT
  8
DEFPOINTS
  6
BYBLOCK
 62
     0
 10
8.949204
 20
1.979504
 30
0.0
  0
ENDBLK
  8
0
  0
BLOCK
  8
0
  2
*D2
 70
    65
 10
0.0
 20
0.0
 30
0.0
  3
*D
  0
LINE
  8
0
  6
BYBLOCK
 62
     0
 10
9.835544
 20
1.979504
 30
0.0
 11
9.243013
 21
1.979504
 31
0.0
  0
LINE
  8
0
  6
BYBLOCK
 62
     0
 10
9.835544
 20
1.354504
 30
0.0
 11
9.243013
 21
1.354504
 31
0.0
  0
LINE
  8
0
  6
BYBLOCK
 62
     0
 10
9.370888
 20
2.227004
 30
0.0
 11
9.370888
 21
2.474504
 31
0.0
  0
LINE
  8
0
  6
BYBLOCK
 62
     0
 10
9.370888
 20
1.107004
 30
0.0
 11
9.370888
 21
0.859504
 31
0.0
  0
SOLID
  8
0
  6
BYBLOCK
 62
     0
 10
9.329638
 20
2.227004
 30
0.0
 11
9.412138
 21
2.227004
 31
0.0
 12
9.370888
 22
1.979504
 32
0.0
 13
9.370888
 23
1.979504
 33
0.0
  0
SOLID
  8
0
  6
BYBLOCK
 62
     0
 10
9.329638
 20
1.107004
 30
0.0
 11
9.412138
 21
1.107004
 31
0.0
 12
9.370888
 22
1.354504
 32
0.0
 13
9.370888
 23
1.354504
 33
0.0
  0
TEXT
  8
0
  6
BYBLOCK
 62
     0
 10
9.123817
 20
1.581067
 30
0.0
 40
0.171875
  1
0.625
 41
0.75
  7
TXT
 72
     1
 11
9.370888
 21
1.667004
 31
0.0
 73
     2
  0
POINT
  8
DEFPOINTS
  6
BYBLOCK
 62
     0
 10
9.922169
 20
1.979504
 30
0.0
  0
POINT
  8
DEFPOINTS
  6
BYBLOCK
 62
     0
 10
9.922169
 20
1.354504
 30
0.0
  0
POINT
  8
DEFPOINTS
  6
BYBLOCK
 62
     0
 10
9.370888
 20
1.354504
 30
0.0
  0
ENDBLK
  8
0
  0
BLOCK
  8
0
  2
*D3
 70
    65
 10
0.0
 20
0.0
 30
0.0
  3
*D
  0
LINE
  8
0
  6
BYBLOCK
 62
     0
 10
1.733092
 20
4.442693
 30
0.0
 11
1.733092
 21
4.000515
 31
0.0
  0
LINE
  8
0
  6
BYBLOCK
 62
     0
 10
0.421092
 20
4.442693
 30
0.0
 11
0.421092
 21
4.000515
 31
0.0
  0
LINE
  8
0
  6
BYBLOCK
 62
     0
 10
1.980592
 20
4.12839
 30
0.0
 11
2.228092
 21
4.12839
 31
0.0
  0
LINE
  8
0
  6
BYBLOCK
 62
     0
 10
0.173592
 20
4.12839
 30
0.0
 11
-0.073908
 21
4.12839
 31
0.0
  0
SOLID
  8
0
  6
BYBLOCK
 62
     0
 10
1.980592
 20
4.16964
 30
0.0
 11
1.980592
 21
4.08714
 31
0.0
 12
1.733092
 22
4.12839
 32
0.0
 13
1.733092
 23
4.12839
 33
0.0
  0
SOLID
  8
0
  6
BYBLOCK
 62
     0
 10
0.173592
 20
4.16964
 30
0.0
 11
0.173592
 21
4.08714
 31
0.0
 12
0.421092
 22
4.12839
 32
0.0
 13
0.421092
 23
4.12839
 33
0.0
  0
TEXT
  8
0
  6
BYBLOCK
 62
     0
 10
0.862248
 20
4.042452
 30
0.0
 40
0.171875
  1
1.312
 41
0.75
  7
TXT
 72
     1
 11
1.077092
 21
4.12839
 31
0.0
 73
     2
  0
POINT
  8
DEFPOINTS
  6
BYBLOCK
 62
     0
 10
1.733092
 20
4.529318
 30
0.0
  0
POINT
  8
DEFPOINTS
  6
BYBLOCK
 62
     0
 10
0.421092
 20
4.529318
 30
0.0
  0
POINT
  8
DEFPOINTS
  6
BYBLOCK
 62
     0
 10
0.421092
 20
4.12839
 30
0.0
  0
ENDBLK
  8
0
  0
BLOCK
  8
0
  2
*D4
 70
    65
 10
0.0
 20
0.0
 30
0.0
  3
*D
  0
LINE
  8
0
  6
BYBLOCK
 62
     0
 10
3.047703
 20
16.419778
 30
0.0
 11
3.047703
 21
15.647336
 31
0.0
  0
LINE
  8
0
  6
BYBLOCK
 62
     0
 10
3.484703
 20
16.419778
 30
0.0
 11
3.484703
 21
15.647336
 31
0.0
  0
LINE
  8
0
  6
BYBLOCK
 62
     0
 10
2.800203
 20
15.775211
 30
0.0
 11
2.552703
 21
15.775211
 31
0.0
  0
LINE
  8
0
  6
BYBLOCK
 62
     0
 10
3.732203
 20
15.775211
 30
0.0
 11
3.979703
 21
15.775211
 31
0.0
  0
SOLID
  8
0
  6
BYBLOCK
 62
     0
 10
2.800203
 20
15.816461
 30
0.0
 11
2.800203
 21
15.733961
 31
0.0
 12
3.047703
 22
15.775211
 32
0.0
 13
3.047703
 23
15.775211
 33
0.0
  0
SOLID
  8
0
  6
BYBLOCK
 62
     0
 10
3.732203
 20
15.816461
 30
0.0
 11
3.732203
 21
15.733961
 31
0.0
 12
3.484703
 22
15.775211
 32
0.0
 13
3.484703
 23
15.775211
 33
0.0
  0
TEXT
  8
0
  6
BYBLOCK
 62
     0
 10
4.103453
 20
15.689273
 30
0.0
 40
0.171875
  1
0.437
 41
0.75
  7
TXT
 72
     1
 11
4.350524
 21
15.775211
 31
0.0
 73
     2
  0
POINT
  8
DEFPOINTS
  6
BYBLOCK
 62
     0
 10
3.047703
 20
16.506403
 30
0.0
  0
POINT
  8
DEFPOINTS
  6
BYBLOCK
 62
     0
 10
3.484703
 20
16.506403
 30
0.0
  0
POINT
  8
DEFPOINTS
  6
BYBLOCK
 62
     0
 10
3.484703
 20
15.775211
 30
0.0
  0
ENDBLK
  8
0
  0
BLOCK
  8
0
  2
*D5
 70
    65
 10
0.0
 20
0.0
 30
0.0
  3
*D
  0
LINE
  8
0
  6
BYBLOCK
 62
     0
 10
2.671703
 20
16.419778
 30
0.0
 11
2.671703
 21
15.960706
 31
0.0
  0
LINE
  8
0
  6
BYBLOCK
 62
     0
 10
2.234703
 20
16.419778
 30
0.0
 11
2.234703
 21
15.960706
 31
0.0
  0
LINE
  8
0
  6
BYBLOCK
 62
     0
 10
2.919203
 20
16.088581
 30
0.0
 11
3.166703
 21
16.088581
 31
0.0
  0
LINE
  8
0
  6
BYBLOCK
 62
     0
 10
1.987203
 20
16.088581
 30
0.0
 11
1.739703
 21
16.088581
 31
0.0
  0
SOLID
  8
0
  6
BYBLOCK
 62
     0
 10
2.919203
 20
16.129831
 30
0.0
 11
2.919203
 21
16.047331
 31
0.0
 12
2.671703
 22
16.088581
 32
0.0
 13
2.671703
 23
16.088581
 33
0.0
  0
SOLID
  8
0
  6
BYBLOCK
 62
     0
 10
1.987203
 20
16.129831
 30
0.0
 11
1.987203
 21
16.047331
 31
0.0
 12
2.234703
 22
16.088581
 32
0.0
 13
2.234703
 23
16.088581
 33
0.0
  0
TEXT
  8
0
  6
BYBLOCK
 62
     0
 10
1.121813
 20
16.002644
 30
0.0
 40
0.171875
  1
0.437
 41
0.75
  7
TXT
 72
     1
 11
1.368883
 21
16.088581
 31
0.0
 73
     2
  0
POINT
  8
DEFPOINTS
  6
BYBLOCK
 62
     0
 10
2.671703
 20
16.506403
 30
0.0
  0
POINT
  8
DEFPOINTS
  6
BYBLOCK
 62
     0
 10
2.234703
 20
16.506403
 30
0.0
  0
POINT
  8
DEFPOINTS
  6
BYBLOCK
 62
     0
 10
2.234703
 20
16.088581
 30
0.0
  0
ENDBLK
  8
0
  0
BLOCK
  8
0
  2
*D6
 70
    65
 10
0.0
 20
0.0
 30
0.0
  3
*D
  0
LINE
  8
0
  6
BYBLOCK
 62
     0
 10
2.821734
 20
4.442693
 30
0.0
 11
2.821734
 21
3.655355
 31
0.0
  0
LINE
  8
0
  6
BYBLOCK
 62
     0
 10
4.133734
 20
4.442693
 30
0.0
 11
4.133734
 21
3.655355
 31
0.0
  0
LINE
  8
0
  6
BYBLOCK
 62
     0
 10
2.574234
 20
3.78323
 30
0.0
 11
2.326734
 21
3.78323
 31
0.0
  0
LINE
  8
0
  6
BYBLOCK
 62
     0
 10
4.381234
 20
3.78323
 30
0.0
 11
4.628734
 21
3.78323
 31
0.0
  0
SOLID
  8
0
  6
BYBLOCK
 62
     0
 10
2.574234
 20
3.82448
 30
0.0
 11
2.574234
 21
3.74198
 31
0.0
 12
2.821734
 22
3.78323
 32
0.0
 13
2.821734
 23
3.78323
 33
0.0
  0
SOLID
  8
0
  6
BYBLOCK
 62
     0
 10
4.381234
 20
3.82448
 30
0.0
 11
4.381234
 21
3.74198
 31
0.0
 12
4.133734
 22
3.78323
 32
0.0
 13
4.133734
 23
3.78323
 33
0.0
  0
TEXT
  8
0
  6
BYBLOCK
 62
     0
 10
3.26289
 20
3.697293
 30
0.0
 40
0.171875
  1
1.312
 41
0.75
  7
TXT
 72
     1
 11
3.477734
 21
3.78323
 31
0.0
 73
     2
  0
POINT
  8
DEFPOINTS
  6
BYBLOCK
 62
     0
 10
2.821734
 20
4.529318
 30
0.0
  0
POINT
  8
DEFPOINTS
  6
BYBLOCK
 62
     0
 10
4.133734
 20
4.529318
 30
0.0
  0
POINT
  8
DEFPOINTS
  6
BYBLOCK
 62
     0
 10
4.133734
 20
3.78323
 30
0.0
  0
ENDBLK
  8
0
  0
BLOCK
  8
0
  2
*D7
 70
    65
 10
0.0
 20
0.0
 30
0.0
  3
*D
  0
LINE
  8
0
  6
BYBLOCK
 62
     0
 10
11.134811
 20
1.142879
 30
0.0
 11
11.134811
 21
0.541483
 31
0.0
  0
LINE
  8
0
  6
BYBLOCK
 62
     0
 10
12.884811
 20
1.767879
 30
0.0
 11
12.884811
 21
0.541483
 31
0.0
  0
LINE
  8
0
  6
BYBLOCK
 62
     0
 10
11.382311
 20
0.669358
 30
0.0
 11
11.660475
 21
0.669358
 31
0.0
  0
LINE
  8
0
  6
BYBLOCK
 62
     0
 10
12.637311
 20
0.669358
 30
0.0
 11
12.359147
 21
0.669358
 31
0.0
  0
SOLID
  8
0
  6
BYBLOCK
 62
     0
 10
11.382311
 20
0.710608
 30
0.0
 11
11.382311
 21
0.628108
 31
0.0
 12
11.134811
 22
0.669358
 32
0.0
 13
11.134811
 23
0.669358
 33
0.0
  0
SOLID
  8
0
  6
BYBLOCK
 62
     0
 10
12.637311
 20
0.710608
 30
0.0
 11
12.637311
 21
0.628108
 31
0.0
 12
12.884811
 22
0.669358
 32
0.0
 13
12.884811
 23
0.669358
 33
0.0
  0
TEXT
  8
0
  6
BYBLOCK
 62
     0
 10
11.784225
 20
0.583421
 30
0.0
 40
0.171875
  1
1.750
 41
0.75
  7
TXT
 72
     1
 11
12.009811
 21
0.669358
 31
0.0
 73
     2
  0
POINT
  8
DEFPOINTS
  6
BYBLOCK
 62
     0
 10
11.134811
 20
1.229504
 30
0.0
  0
POINT
  8
DEFPOINTS
  6
BYBLOCK
 62
     0
 10
12.884811
 20
1.854504
 30
0.0
  0
POINT
  8
DEFPOINTS
  6
BYBLOCK
 62
     0
 10
12.884811
 20
0.669358
 30
0.0
  0
ENDBLK
  8
0
  0
BLOCK
  8
0
  2
*D8
 70
    65
 10
0.0
 20
0.0
 30
0.0
  3
*D
  0
LINE
  8
0
  6
BYBLOCK
 62
     0
 10
11.134811
 20
1.142879
 30
0.0
 11
11.134811
 21
0.541483
 31
0.0
  0
LINE
  8
0
  6
BYBLOCK
 62
     0
 10
10.509811
 20
1.017879
 30
0.0
 11
10.509811
 21
0.541483
 31
0.0
  0
LINE
  8
0
  6
BYBLOCK
 62
     0
 10
11.382311
 20
0.669358
 30
0.0
 11
11.629811
 21
0.669358
 31
0.0
  0
LINE
  8
0
  6
BYBLOCK
 62
     0
 10
10.262311
 20
0.669358
 30
0.0
 11
10.014811
 21
0.669358
 31
0.0
  0
SOLID
  8
0
  6
BYBLOCK
 62
     0
 10
11.382311
 20
0.710608
 30
0.0
 11
11.382311
 21
0.628108
 31
0.0
 12
11.134811
 22
0.669358
 32
0.0
 13
11.134811
 23
0.669358
 33
0.0
  0
SOLID
  8
0
  6
BYBLOCK
 62
     0
 10
10.262311
 20
0.710608
 30
0.0
 11
10.262311
 21
0.628108
 31
0.0
 12
10.509811
 22
0.669358
 32
0.0
 13
10.509811
 23
0.669358
 33
0.0
  0
TEXT
  8
0
  6
BYBLOCK
 62
     0
 10
10.575241
 20
0.583421
 30
0.0
 40
0.171875
  1
0.625
 41
0.75
  7
TXT
 72
     1
 11
10.822311
 21
0.669358
 31
0.0
 73
     2
  0
POINT
  8
DEFPOINTS
  6
BYBLOCK
 62
     0
 10
11.134811
 20
1.229504
 30
0.0
  0
POINT
  8
DEFPOINTS
  6
BYBLOCK
 62
     0
 10
10.509811
 20
1.104504
 30
0.0
  0
POINT
  8
DEFPOINTS
  6
BYBLOCK
 62
     0
 10
10.509811
 20
0.669358
 30
0.0
  0
ENDBLK
  8
0
  0
BLOCK
  8
0
  2
*D9
 70
    65
 10
0.0
 20
0.0
 30
0.0
  3
*D
  0
LINE
  8
0
  6
BYBLOCK
 62
     0
 10
11.759811
 20
2.941129
 30
0.0
 11
11.759811
 21
3.438751
 31
0.0
  0
LINE
  8
0
  6
BYBLOCK
 62
     0
 10
10.509811
 20
2.941129
 30
0.0
 11
10.509811
 21
3.438751
 31
0.0
  0
LINE
  8
0
  6
BYBLOCK
 62
     0
 10
12.007311
 20
3.310876
 30
0.0
 11
12.254811
 21
3.310876
 31
0.0
  0
LINE
  8
0
  6
BYBLOCK
 62
     0
 10
10.262311
 20
3.310876
 30
0.0
 11
10.014811
 21
3.310876
 31
0.0
  0
SOLID
  8
0
  6
BYBLOCK
 62
     0
 10
12.007311
 20
3.352126
 30
0.0
 11
12.007311
 21
3.269626
 31
0.0
 12
11.759811
 22
3.310876
 32
0.0
 13
11.759811
 23
3.310876
 33
0.0
  0
SOLID
  8
0
  6
BYBLOCK
 62
     0
 10
10.262311
 20
3.352126
 30
0.0
 11
10.262311
 21
3.269626
 31
0.0
 12
10.509811
 22
3.310876
 32
0.0
 13
10.509811
 23
3.310876
 33
0.0
  0
TEXT
  8
0
  6
BYBLOCK
 62
     0
 10
10.909225
 20
3.224939
 30
0.0
 40
0.171875
  1
1.250
 41
0.75
  7
TXT
 72
     1
 11
11.134811
 21
3.310876
 31
0.0
 73
     2
  0
POINT
  8
DEFPOINTS
  6
BYBLOCK
 62
     0
 10
11.759811
 20
2.854504
 30
0.0
  0
POINT
  8
DEFPOINTS
  6
BYBLOCK
 62
     0
 10
10.509811
 20
2.854504
 30
0.0
  0
POINT
  8
DEFPOINTS
  6
BYBLOCK
 62
     0
 10
10.509811
 20
3.310876
 30
0.0
  0
ENDBLK
  8
0
  0
BLOCK
  8
0
  2
*D10
 70
    65
 10
0.0
 20
0.0
 30
0.0
  3
*D
  0
LINE
  8
0
  6
BYBLOCK
 62
     0
 10
3.860067
 20
4.529318
 30
0.0
 11
4.367741
 21
4.529318
 31
0.0
  0
LINE
  8
0
  6
BYBLOCK
 62
     0
 10
3.860067
 20
8.029318
 30
0.0
 11
4.367741
 21
8.029318
 31
0.0
  0
LINE
  8
0
  6
BYBLOCK
 62
     0
 10
4.239866
 20
4.776818
 30
0.0
 11
4.239866
 21
6.06963
 31
0.0
  0
LINE
  8
0
  6
BYBLOCK
 62
     0
 10
4.239866
 20
7.781818
 30
0.0
 11
4.239866
 21
6.489005
 31
0.0
  0
SOLID
  8
0
  6
BYBLOCK
 62
     0
 10
4.198616
 20
4.776818
 30
0.0
 11
4.281116
 21
4.776818
 31
0.0
 12
4.239866
 22
4.529318
 32
0.0
 13
4.239866
 23
4.529318
 33
0.0
  0
SOLID
  8
0
  6
BYBLOCK
 62
     0
 10
4.198616
 20
7.781818
 30
0.0
 11
4.281116
 21
7.781818
 31
0.0
 12
4.239866
 22
8.029318
 32
0.0
 13
4.239866
 23
8.029318
 33
0.0
  0
TEXT
  8
0
  6
BYBLOCK
 62
     0
 10
4.003538
 20
6.19338
 30
0.0
 40
0.171875
  1
3.500
 41
0.75
  7
TXT
 72
     1
 11
4.239866
 21
6.279318
 31
0.0
 73
     2
  0
POINT
  8
DEFPOINTS
  6
BYBLOCK
 62
     0
 10
3.773442
 20
4.529318
 30
0.0
  0
POINT
  8
DEFPOINTS
  6
BYBLOCK
 62
     0
 10
3.773442
 20
8.029318
 30
0.0
  0
POINT
  8
DEFPOINTS
  6
BYBLOCK
 62
     0
 10
4.239866
 20
8.029318
 30
0.0
  0
ENDBLK
  8
0
  0
BLOCK
  8
0
  2
*D11
 70
    65
 10
0.0
 20
0.0
 30
0.0
  3
*D
  0
LINE
  8
0
  6
BYBLOCK
 62
     0
 10
0.773442
 20
8.115943
 30
0.0
 11
0.773442
 21
8.581631
 31
0.0
  0
LINE
  8
0
  6
BYBLOCK
 62
     0
 10
3.773442
 20
8.115943
 30
0.0
 11
3.773442
 21
8.581631
 31
0.0
  0
LINE
  8
0
  6
BYBLOCK
 62
     0
 10
1.020942
 20
8.453756
 30
0.0
 11
1.924107
 21
8.453756
 31
0.0
  0
LINE
  8
0
  6
BYBLOCK
 62
     0
 10
3.525942
 20
8.453756
 30
0.0
 11
2.622778
 21
8.453756
 31
0.0
  0
SOLID
  8
0
  6
BYBLOCK
 62
     0
 10
1.020942
 20
8.495006
 30
0.0
 11
1.020942
 21
8.412506
 31
0.0
 12
0.773442
 22
8.453756
 32
0.0
 13
0.773442
 23
8.453756
 33
0.0
  0
SOLID
  8
0
  6
BYBLOCK
 62
     0
 10
3.525942
 20
8.495006
 30
0.0
 11
3.525942
 21
8.412506
 31
0.0
 12
3.773442
 22
8.453756
 32
0.0
 13
3.773442
 23
8.453756
 33
0.0
  0
TEXT
  8
0
  6
BYBLOCK
 62
     0
 10
2.047857
 20
8.367819
 30
0.0
 40
0.171875
  1
3.000
 41
0.75
  7
TXT
 72
     1
 11
2.273442
 21
8.453756
 31
0.0
 73
     2
  0
POINT
  8
DEFPOINTS
  6
BYBLOCK
 62
     0
 10
0.773442
 20
8.029318
 30
0.0
  0
POINT
  8
DEFPOINTS
  6
BYBLOCK
 62
     0
 10
3.773442
 20
8.029318
 30
0.0
  0
POINT
  8
DEFPOINTS
  6
BYBLOCK
 62
     0
 10
3.773442
 20
8.453756
 30
0.0
  0
ENDBLK
  8
0
  0
BLOCK
  8
0
  2
*D12
 70
    65
 10
0.0
 20
0.0
 30
0.0
  3
*D
  0
LINE
  8
0
  6
BYBLOCK
 62
     0
 10
4.67752
 20
2.479504
 30
0.0
 11
4.240317
 21
2.479504
 31
0.0
  0
LINE
  8
0
  6
BYBLOCK
 62
     0
 10
4.67752
 20
1.479504
 30
0.0
 11
4.240317
 21
1.479504
 31
0.0
  0
LINE
  8
0
  6
BYBLOCK
 62
     0
 10
4.368192
 20
2.727004
 30
0.0
 11
4.368192
 21
2.974504
 31
0.0
  0
LINE
  8
0
  6
BYBLOCK
 62
     0
 10
4.368192
 20
1.232004
 30
0.0
 11
4.368192
 21
0.984504
 31
0.0
  0
SOLID
  8
0
  6
BYBLOCK
 62
     0
 10
4.326942
 20
2.727004
 30
0.0
 11
4.409442
 21
2.727004
 31
0.0
 12
4.368192
 22
2.479504
 32
0.0
 13
4.368192
 23
2.479504
 33
0.0
  0
SOLID
  8
0
  6
BYBLOCK
 62
     0
 10
4.326942
 20
1.232004
 30
0.0
 11
4.409442
 21
1.232004
 31
0.0
 12
4.368192
 22
1.479504
 32
0.0
 13
4.368192
 23
1.479504
 33
0.0
  0
TEXT
  8
0
  6
BYBLOCK
 62
     0
 10
4.16409
 20
1.893567
 30
0.0
 40
0.171875
  1
1.000
 41
0.75
  7
TXT
 72
     1
 11
4.368192
 21
1.979504
 31
0.0
 73
     2
  0
POINT
  8
DEFPOINTS
  6
BYBLOCK
 62
     0
 10
4.764145
 20
2.479504
 30
0.0
  0
POINT
  8
DEFPOINTS
  6
BYBLOCK
 62
     0
 10
4.764145
 20
1.479504
 30
0.0
  0
POINT
  8
DEFPOINTS
  6
BYBLOCK
 62
     0
 10
4.368192
 20
1.479504
 30
0.0
  0
ENDBLK
  8
0
  0
BLOCK
  8
0
  2
*D13
 70
    65
 10
0.0
 20
0.0
 30
0.0
  3
*D
  0
LINE
  8
0
  6
BYBLOCK
 62
     0
 10
8.35077
 20
2.854504
 30
0.0
 11
8.816642
 21
2.854504
 31
0.0
  0
LINE
  8
0
  6
BYBLOCK
 62
     0
 10
8.35077
 20
1.104504
 30
0.0
 11
8.816642
 21
1.104504
 31
0.0
  0
LINE
  8
0
  6
BYBLOCK
 62
     0
 10
8.688767
 20
2.607004
 30
0.0
 11
8.688767
 21
2.189192
 31
0.0
  0
LINE
  8
0
  6
BYBLOCK
 62
     0
 10
8.688767
 20
1.352004
 30
0.0
 11
8.688767
 21
1.769817
 31
0.0
  0
SOLID
  8
0
  6
BYBLOCK
 62
     0
 10
8.647517
 20
2.607004
 30
0.0
 11
8.730017
 21
2.607004
 31
0.0
 12
8.688767
 22
2.854504
 32
0.0
 13
8.688767
 23
2.854504
 33
0.0
  0
SOLID
  8
0
  6
BYBLOCK
 62
     0
 10
8.647517
 20
1.352004
 30
0.0
 11
8.730017
 21
1.352004
 31
0.0
 12
8.688767
 22
1.104504
 32
0.0
 13
8.688767
 23
1.104504
 33
0.0
  0
TEXT
  8
0
  6
BYBLOCK
 62
     0
 10
8.463181
 20
1.893567
 30
0.0
 40
0.171875
  1
1.750
 41
0.75
  7
TXT
 72
     1
 11
8.688767
 21
1.979504
 31
0.0
 73
     2
  0
POINT
  8
DEFPOINTS
  6
BYBLOCK
 62
     0
 10
8.264145
 20
2.854504
 30
0.0
  0
POINT
  8
DEFPOINTS
  6
BYBLOCK
 62
     0
 10
8.264145
 20
1.104504
 30
0.0
  0
POINT
  8
DEFPOINTS
  6
BYBLOCK
 62
     0
 10
8.688767
 20
1.104504
 30
0.0
  0
ENDBLK
  8
0
  0
BLOCK
  8
0
  2
*D14
 70
    65
 10
0.0
 20
0.0
 30
0.0
  3
*D
  0
LINE
  8
0
  6
BYBLOCK
 62
     0
 10
10.548186
 20
2.604504
 30
0.0
 11
9.056186
 21
2.604504
 31
0.0
  0
LINE
  8
0
  6
BYBLOCK
 62
     0
 10
10.423186
 20
2.854504
 30
0.0
 11
9.056186
 21
2.854504
 31
0.0
  0
LINE
  8
0
  6
BYBLOCK
 62
     0
 10
9.184061
 20
2.357004
 30
0.0
 11
9.184061
 21
2.109504
 31
0.0
  0
LINE
  8
0
  6
BYBLOCK
 62
     0
 10
9.184061
 20
3.102004
 30
0.0
 11
9.184061
 21
3.349504
 31
0.0
  0
SOLID
  8
0
  6
BYBLOCK
 62
     0
 10
9.142811
 20
2.357004
 30
0.0
 11
9.225311
 21
2.357004
 31
0.0
 12
9.184061
 22
2.604504
 32
0.0
 13
9.184061
 23
2.604504
 33
0.0
  0
SOLID
  8
0
  6
BYBLOCK
 62
     0
 10
9.142811
 20
3.102004
 30
0.0
 11
9.225311
 21
3.102004
 31
0.0
 12
9.184061
 22
2.854504
 32
0.0
 13
9.184061
 23
2.854504
 33
0.0
  0
TEXT
  8
0
  6
BYBLOCK
 62
     0
 10
8.422893
 20
3.263567
 30
0.0
 40
0.171875
  1
0.250
 41
0.75
  7
TXT
 72
     1
 11
8.659221
 21
3.349504
 31
0.0
 73
     2
  0
POINT
  8
DEFPOINTS
  6
BYBLOCK
 62
     0
 10
10.634811
 20
2.604504
 30
0.0
  0
POINT
  8
DEFPOINTS
  6
BYBLOCK
 62
     0
 10
10.509811
 20
2.854504
 30
0.0
  0
POINT
  8
DEFPOINTS
  6
BYBLOCK
 62
     0
 10
9.184061
 20
2.854504
 30
0.0
  0
ENDBLK
  8
0
  0
BLOCK
  8
0
  2
*D15
 70
    65
 10
0.0
 20
0.0
 30
0.0
  3
*D
  0
LINE
  8
0
  6
BYBLOCK
 62
     0
 10
1.700222
 20
18.816652
 30
0.0
 11
1.700222
 21
19.301364
 31
0.0
  0
LINE
  8
0
  6
BYBLOCK
 62
     0
 10
2.950222
 20
18.816652
 30
0.0
 11
2.950222
 21
19.301364
 31
0.0
  0
LINE
  8
0
  6
BYBLOCK
 62
     0
 10
1.452722
 20
19.173489
 30
0.0
 11
1.205222
 21
19.173489
 31
0.0
  0
LINE
  8
0
  6
BYBLOCK
 62
     0
 10
3.197722
 20
19.173489
 30
0.0
 11
3.445222
 21
19.173489
 31
0.0
  0
SOLID
  8
0
  6
BYBLOCK
 62
     0
 10
1.452722
 20
19.214739
 30
0.0
 11
1.452722
 21
19.132239
 31
0.0
 12
1.700222
 22
19.173489
 32
0.0
 13
1.700222
 23
19.173489
 33
0.0
  0
SOLID
  8
0
  6
BYBLOCK
 62
     0
 10
3.197722
 20
19.214739
 30
0.0
 11
3.197722
 21
19.132239
 31
0.0
 12
2.950222
 22
19.173489
 32
0.0
 13
2.950222
 23
19.173489
 33
0.0
  0
TEXT
  8
0
  6
BYBLOCK
 62
     0
 10
2.099636
 20
19.087551
 30
0.0
 40
0.171875
  1
1.250
 41
0.75
  7
TXT
 72
     1
 11
2.325222
 21
19.173489
 31
0.0
 73
     2
  0
POINT
  8
DEFPOINTS
  6
BYBLOCK
 62
     0
 10
1.700222
 20
18.730027
 30
0.0
  0
POINT
  8
DEFPOINTS
  6
BYBLOCK
 62
     0
 10
2.950222
 20
18.730027
 30
0.0
  0
POINT
  8
DEFPOINTS
  6
BYBLOCK
 62
     0
 10
2.950222
 20
19.173489
 30
0.0
  0
ENDBLK
  8
0
  0
BLOCK
  8
0
  2
*D16
 70
    65
 10
0.0
 20
0.0
 30
0.0
  3
*D
  0
LINE
  8
0
  6
BYBLOCK
 62
     0
 10
3.036847
 20
15.230027
 30
0.0
 11
3.61989
 21
15.230027
 31
0.0
  0
LINE
  8
0
  6
BYBLOCK
 62
     0
 10
3.036847
 20
18.730027
 30
0.0
 11
3.61989
 21
18.730027
 31
0.0
  0
LINE
  8
0
  6
BYBLOCK
 62
     0
 10
3.492015
 20
15.477527
 30
0.0
 11
3.492015
 21
16.77034
 31
0.0
  0
LINE
  8
0
  6
BYBLOCK
 62
     0
 10
3.492015
 20
18.482527
 30
0.0
 11
3.492015
 21
17.189715
 31
0.0
  0
SOLID
  8
0
  6
BYBLOCK
 62
     0
 10
3.450765
 20
15.477527
 30
0.0
 11
3.533265
 21
15.477527
 31
0.0
 12
3.492015
 22
15.230027
 32
0.0
 13
3.492015
 23
15.230027
 33
0.0
  0
SOLID
  8
0
  6
BYBLOCK
 62
     0
 10
3.450765
 20
18.482527
 30
0.0
 11
3.533265
 21
18.482527
 31
0.0
 12
3.492015
 22
18.730027
 32
0.0
 13
3.492015
 23
18.730027
 33
0.0
  0
TEXT
  8
0
  6
BYBLOCK
 62
     0
 10
3.255687
 20
16.89409
 30
0.0
 40
0.171875
  1
3.500
 41
0.75
  7
TXT
 72
     1
 11
3.492015
 21
16.980027
 31
0.0
 73
     2
  0
POINT
  8
DEFPOINTS
  6
BYBLOCK
 62
     0
 10
2.950222
 20
15.230027
 30
0.0
  0
POINT
  8
DEFPOINTS
  6
BYBLOCK
 62
     0
 10
2.950222
 20
18.730027
 30
0.0
  0
POINT
  8
DEFPOINTS
  6
BYBLOCK
 62
     0
 10
3.492015
 20
18.730027
 30
0.0
  0
ENDBLK
  8
0
  0
BLOCK
  8
0
  2
*D17
 70
    65
 10
0.0
 20
0.0
 30
0.0
  3
*D
  0
LINE
  8
0
  6
BYBLOCK
 62
     0
 10
4.722162
 20
12.98732
 30
0.0
 11
4.259653
 21
12.98732
 31
0.0
  0
LINE
  8
0
  6
BYBLOCK
 62
     0
 10
4.722162
 20
11.98732
 30
0.0
 11
4.259653
 21
11.98732
 31
0.0
  0
LINE
  8
0
  6
BYBLOCK
 62
     0
 10
4.387528
 20
13.23482
 30
0.0
 11
4.387528
 21
13.48232
 31
0.0
  0
LINE
  8
0
  6
BYBLOCK
 62
     0
 10
4.387528
 20
11.73982
 30
0.0
 11
4.387528
 21
11.49232
 31
0.0
  0
SOLID
  8
0
  6
BYBLOCK
 62
     0
 10
4.346278
 20
13.23482
 30
0.0
 11
4.428778
 21
13.23482
 31
0.0
 12
4.387528
 22
12.98732
 32
0.0
 13
4.387528
 23
12.98732
 33
0.0
  0
SOLID
  8
0
  6
BYBLOCK
 62
     0
 10
4.346278
 20
11.73982
 30
0.0
 11
4.428778
 21
11.73982
 31
0.0
 12
4.387528
 22
11.98732
 32
0.0
 13
4.387528
 23
11.98732
 33
0.0
  0
TEXT
  8
0
  6
BYBLOCK
 62
     0
 10
4.183427
 20
12.401383
 30
0.0
 40
0.171875
  1
1.000
 41
0.75
  7
TXT
 72
     1
 11
4.387528
 21
12.48732
 31
0.0
 73
     2
  0
POINT
  8
DEFPOINTS
  6
BYBLOCK
 62
     0
 10
4.808787
 20
12.98732
 30
0.0
  0
POINT
  8
DEFPOINTS
  6
BYBLOCK
 62
     0
 10
4.808787
 20
11.98732
 30
0.0
  0
POINT
  8
DEFPOINTS
  6
BYBLOCK
 62
     0
 10
4.387528
 20
11.98732
 30
0.0
  0
ENDBLK
  8
0
  0
BLOCK
  8
0
  2
*D18
 70
    65
 10
0.0
 20
0.0
 30
0.0
  3
*D
  0
LINE
  8
0
  6
BYBLOCK
 62
     0
 10
8.395412
 20
13.36232
 30
0.0
 11
8.968134
 21
13.36232
 31
0.0
  0
LINE
  8
0
  6
BYBLOCK
 62
     0
 10
8.395412
 20
11.61232
 30
0.0
 11
8.968134
 21
11.61232
 31
0.0
  0
LINE
  8
0
  6
BYBLOCK
 62
     0
 10
8.840259
 20
13.11482
 30
0.0
 11
8.840259
 21
12.697008
 31
0.0
  0
LINE
  8
0
  6
BYBLOCK
 62
     0
 10
8.840259
 20
11.85982
 30
0.0
 11
8.840259
 21
12.277633
 31
0.0
  0
SOLID
  8
0
  6
BYBLOCK
 62
     0
 10
8.799009
 20
13.11482
 30
0.0
 11
8.881509
 21
13.11482
 31
0.0
 12
8.840259
 22
13.36232
 32
0.0
 13
8.840259
 23
13.36232
 33
0.0
  0
SOLID
  8
0
  6
BYBLOCK
 62
     0
 10
8.799009
 20
11.85982
 30
0.0
 11
8.881509
 21
11.85982
 31
0.0
 12
8.840259
 22
11.61232
 32
0.0
 13
8.840259
 23
11.61232
 33
0.0
  0
TEXT
  8
0
  6
BYBLOCK
 62
     0
 10
8.614673
 20
12.401383
 30
0.0
 40
0.171875
  1
1.750
 41
0.75
  7
TXT
 72
     1
 11
8.840259
 21
12.48732
 31
0.0
 73
     2
  0
POINT
  8
DEFPOINTS
  6
BYBLOCK
 62
     0
 10
8.308787
 20
13.36232
 30
0.0
  0
POINT
  8
DEFPOINTS
  6
BYBLOCK
 62
     0
 10
8.308787
 20
11.61232
 30
0.0
  0
POINT
  8
DEFPOINTS
  6
BYBLOCK
 62
     0
 10
8.840259
 20
11.61232
 30
0.0
  0
ENDBLK
  8
0
  0
BLOCK
  8
0
  2
*D19
 70
    65
 10
0.0
 20
0.0
 30
0.0
  3
*D
  0
LINE
  8
0
  6
BYBLOCK
 62
     0
 10
10.815347
 20
13.323945
 30
0.0
 11
10.815347
 21
13.955479
 31
0.0
  0
LINE
  8
0
  6
BYBLOCK
 62
     0
 10
10.190347
 20
13.448945
 30
0.0
 11
10.190347
 21
13.955479
 31
0.0
  0
LINE
  8
0
  6
BYBLOCK
 62
     0
 10
11.062847
 20
13.827604
 30
0.0
 11
11.310347
 21
13.827604
 31
0.0
  0
LINE
  8
0
  6
BYBLOCK
 62
     0
 10
9.942847
 20
13.827604
 30
0.0
 11
9.695347
 21
13.827604
 31
0.0
  0
SOLID
  8
0
  6
BYBLOCK
 62
     0
 10
11.062847
 20
13.868854
 30
0.0
 11
11.062847
 21
13.786354
 31
0.0
 12
10.815347
 22
13.827604
 32
0.0
 13
10.815347
 23
13.827604
 33
0.0
  0
SOLID
  8
0
  6
BYBLOCK
 62
     0
 10
9.942847
 20
13.868854
 30
0.0
 11
9.942847
 21
13.786354
 31
0.0
 12
10.190347
 22
13.827604
 32
0.0
 13
10.190347
 23
13.827604
 33
0.0
  0
TEXT
  8
0
  6
BYBLOCK
 62
     0
 10
10.255777
 20
13.741666
 30
0.0
 40
0.171875
  1
0.625
 41
0.75
  7
TXT
 72
     1
 11
10.502847
 21
13.827604
 31
0.0
 73
     2
  0
POINT
  8
DEFPOINTS
  6
BYBLOCK
 62
     0
 10
10.815347
 20
13.23732
 30
0.0
  0
POINT
  8
DEFPOINTS
  6
BYBLOCK
 62
     0
 10
10.190347
 20
13.36232
 30
0.0
  0
POINT
  8
DEFPOINTS
  6
BYBLOCK
 62
     0
 10
10.190347
 20
13.827604
 30
0.0
  0
ENDBLK
  8
0
  0
BLOCK
  8
0
  2
*D20
 70
    65
 10
0.0
 20
0.0
 30
0.0
  3
*D
  0
LINE
  8
0
  6
BYBLOCK
 62
     0
 10
11.401972
 20
12.48732
 30
0.0
 11
12.077564
 21
12.48732
 31
0.0
  0
LINE
  8
0
  6
BYBLOCK
 62
     0
 10
11.401972
 20
11.86232
 30
0.0
 11
12.077564
 21
11.86232
 31
0.0
  0
LINE
  8
0
  6
BYBLOCK
 62
     0
 10
11.949689
 20
12.73482
 30
0.0
 11
11.949689
 21
12.98232
 31
0.0
  0
LINE
  8
0
  6
BYBLOCK
 62
     0
 10
11.949689
 20
11.61482
 30
0.0
 11
11.949689
 21
11.36732
 31
0.0
  0
SOLID
  8
0
  6
BYBLOCK
 62
     0
 10
11.908439
 20
12.73482
 30
0.0
 11
11.990939
 21
12.73482
 31
0.0
 12
11.949689
 22
12.48732
 32
0.0
 13
11.949689
 23
12.48732
 33
0.0
  0
SOLID
  8
0
  6
BYBLOCK
 62
     0
 10
11.908439
 20
11.61482
 30
0.0
 11
11.990939
 21
11.61482
 31
0.0
 12
11.949689
 22
11.86232
 32
0.0
 13
11.949689
 23
11.86232
 33
0.0
  0
TEXT
  8
0
  6
BYBLOCK
 62
     0
 10
11.702619
 20
12.088883
 30
0.0
 40
0.171875
  1
0.625
 41
0.75
  7
TXT
 72
     1
 11
11.949689
 21
12.17482
 31
0.0
 73
     2
  0
POINT
  8
DEFPOINTS
  6
BYBLOCK
 62
     0
 10
11.315347
 20
12.48732
 30
0.0
  0
POINT
  8
DEFPOINTS
  6
BYBLOCK
 62
     0
 10
11.315347
 20
11.86232
 30
0.0
  0
POINT
  8
DEFPOINTS
  6
BYBLOCK
 62
     0
 10
11.949689
 20
11.86232
 30
0.0
  0
ENDBLK
  8
0
  0
BLOCK
  8
0
  2
*D21
 70
    65
 10
0.0
 20
0.0
 30
0.0
  3
*D
  0
LINE
  8
0
  6
BYBLOCK
 62
     0
 10
11.401972
 20
12.48732
 30
0.0
 11
12.628076
 21
12.48732
 31
0.0
  0
LINE
  8
0
  6
BYBLOCK
 62
     0
 10
11.401972
 20
13.11232
 30
0.0
 11
12.628076
 21
13.11232
 31
0.0
  0
LINE
  8
0
  6
BYBLOCK
 62
     0
 10
12.500201
 20
12.23982
 30
0.0
 11
12.500201
 21
11.99232
 31
0.0
  0
LINE
  8
0
  6
BYBLOCK
 62
     0
 10
12.500201
 20
13.35982
 30
0.0
 11
12.500201
 21
13.60732
 31
0.0
  0
SOLID
  8
0
  6
BYBLOCK
 62
     0
 10
12.458951
 20
12.23982
 30
0.0
 11
12.541451
 21
12.23982
 31
0.0
 12
12.500201
 22
12.48732
 32
0.0
 13
12.500201
 23
12.48732
 33
0.0
  0
SOLID
  8
0
  6
BYBLOCK
 62
     0
 10
12.458951
 20
13.35982
 30
0.0
 11
12.541451
 21
13.35982
 31
0.0
 12
12.500201
 22
13.11232
 32
0.0
 13
12.500201
 23
13.11232
 33
0.0
  0
TEXT
  8
0
  6
BYBLOCK
 62
     0
 10
12.253131
 20
12.713883
 30
0.0
 40
0.171875
  1
0.625
 41
0.75
  7
TXT
 72
     1
 11
12.500201
 21
12.79982
 31
0.0
 73
     2
  0
POINT
  8
DEFPOINTS
  6
BYBLOCK
 62
     0
 10
11.315347
 20
12.48732
 30
0.0
  0
POINT
  8
DEFPOINTS
  6
BYBLOCK
 62
     0
 10
11.315347
 20
13.11232
 30
0.0
  0
POINT
  8
DEFPOINTS
  6
BYBLOCK
 62
     0
 10
12.500201
 20
13.11232
 30
0.0
  0
ENDBLK
  8
0
  0
BLOCK
  8
0
  2
*D22
 70
    65
 10
0.0
 20
0.0
 30
0.0
  3
*D
  0
LINE
  8
0
  6
BYBLOCK
 62
     0
 10
11.401972
 20
13.11232
 30
0.0
 11
13.249865
 21
13.11232
 31
0.0
  0
LINE
  8
0
  6
BYBLOCK
 62
     0
 10
11.526972
 20
13.36232
 30
0.0
 11
13.249865
 21
13.36232
 31
0.0
  0
LINE
  8
0
  6
BYBLOCK
 62
     0
 10
13.12199
 20
12.86482
 30
0.0
 11
13.12199
 21
12.61732
 31
0.0
  0
LINE
  8
0
  6
BYBLOCK
 62
     0
 10
13.12199
 20
13.60982
 30
0.0
 11
13.12199
 21
13.85732
 31
0.0
  0
LINE
  8
0
  6
BYBLOCK
 62
     0
 10
13.12199
 20
13.85732
 30
0.0
 11
13.36949
 21
13.85732
 31
0.0
  0
SOLID
  8
0
  6
BYBLOCK
 62
     0
 10
13.08074
 20
12.86482
 30
0.0
 11
13.16324
 21
12.86482
 31
0.0
 12
13.12199
 22
13.11232
 32
0.0
 13
13.12199
 23
13.11232
 33
0.0
  0
SOLID
  8
0
  6
BYBLOCK
 62
     0
 10
13.08074
 20
13.60982
 30
0.0
 11
13.16324
 21
13.60982
 31
0.0
 12
13.12199
 22
13.36232
 32
0.0
 13
13.12199
 23
13.36232
 33
0.0
  0
TEXT
  8
0
  6
BYBLOCK
 62
     0
 10
13.49324
 20
13.771383
 30
0.0
 40
0.171875
  1
0.250
 41
0.75
  7
TXT
 72
     1
 11
13.729569
 21
13.85732
 31
0.0
 73
     2
  0
POINT
  8
DEFPOINTS
  6
BYBLOCK
 62
     0
 10
11.315347
 20
13.11232
 30
0.0
  0
POINT
  8
DEFPOINTS
  6
BYBLOCK
 62
     0
 10
11.440347
 20
13.36232
 30
0.0
  0
POINT
  8
DEFPOINTS
  6
BYBLOCK
 62
     0
 10
13.12199
 20
13.36232
 30
0.0
  0
ENDBLK
  8
0
  0
ENDSEC
  0
SECTION
  2
ENTITIES
  0
LINE
  8
OBJECT
 10
3.35685
 20
15.224987
 30
0.0
 11
3.35685
 21
18.724987
 31
0.0
  0
LINE
  8
OBJECT
 10
3.35685
 20
18.724987
 30
0.0
 11
2.10685
 21
18.724987
 31
0.0
  0
LINE
  8
OBJECT
 10
2.10685
 20
18.724987
 30
0.0
 11
2.10685
 21
15.224987
 31
0.0
  0
LINE
  8
OBJECT
 10
2.91985
 20
15.224987
 30
0.0
 11
2.91985
 21
15.302987
 31
0.0
  0
LINE
  8
OBJECT
 10
3.35685
 20
15.224987
 30
0.0
 11
2.91985
 21
15.224987
 31
0.0
  0
LINE
  8
OBJECT
 10
3.27885
 20
15.302987
 30
0.0
 11
2.91985
 21
15.302987
 31
0.0
  0
LINE
  8
OBJECT
 10
3.27885
 20
15.302987
 30
0.0
 11
3.27885
 21
18.646987
 31
0.0
  0
LINE
  8
OBJECT
 10
3.35685
 20
18.646987
 30
0.0
 11
2.10685
 21
18.646987
 31
0.0
  0
LINE
  8
OBJECT
 10
2.18485
 20
15.302987
 30
0.0
 11
2.18485
 21
18.646987
 31
0.0
  0
LINE
  8
OBJECT
 10
2.18485
 20
15.302987
 30
0.0
 11
2.54385
 21
15.302987
 31
0.0
  0
LINE
  8
OBJECT
 10
2.54385
 20
15.224987
 30
0.0
 11
2.54385
 21
15.302987
 31
0.0
  0
LINE
  8
OBJECT
 10
2.10685
 20
15.224987
 30
0.0
 11
2.54385
 21
15.224987
 31
0.0
  0
DIMENSION
  8
DIM
  2
*D15
 10
3.35685
 20
19.168448
 30
0.0
 11
2.73185
 21
19.168448
 31
0.0
 12
0.406629
 22
-0.005041
 32
0.0
 13
2.10685
 23
18.724987
 33
0.0
 14
3.35685
 24
18.724987
 34
0.0
 50
180.0
  3
23NSTDI
  0
DIMENSION
  8
DIM
  2
*D5
 10
2.10685
 20
14.807165
 30
0.0
 11
1.24103
 21
14.807165
 31
0.0
 12
-0.127853
 22
-1.281416
 32
0.0
 13
2.54385
 23
15.224987
 33
0.0
 14
2.10685
 24
15.224987
 34
0.0
 50
180.0
  3
23NSTD
  0
DIMENSION
  8
DIM
  2
*D4
 10
3.35685
 20
14.493795
 30
0.0
 11
4.222671
 21
14.493795
 31
0.0
 12
-0.127853
 22
-1.281416
 32
0.0
 13
2.91985
 23
15.224987
 33
0.0
 14
3.35685
 24
15.224987
 34
0.0
 50
180.0
  3
23NSTD
  0
DIMENSION
  8
DIM
  2
*D16
 10
3.898644
 20
18.724987
 30
0.0
 11
3.898644
 21
16.974987
 31
0.0
 12
0.406629
 22
-0.005041
 32
0.0
 13
3.35685
 23
15.224987
 33
0.0
 14
3.35685
 24
18.724987
 34
0.0
 50
270.0
  3
23NSTD
  0
LINE
  8
OBJECT
 10
3.35685
 20
12.263528
 30
0.0
 11
2.10685
 21
12.263528
 31
0.0
  0
ARC
  8
OBJECT
 10
3.10685
 20
12.513528
 30
0.0
 40
0.125
 50
269.999981
 51
89.999981
  0
LINE
  8
OBJECT
 10
2.356851
 20
12.388528
 30
0.0
 11
3.106851
 21
12.388528
 31
0.0
  0
LINE
  8
OBJECT
 10
2.356851
 20
12.638528
 30
0.0
 11
3.106851
 21
12.638528
 31
0.0
  0
ARC
  8
OBJECT
 10
2.35685
 20
12.513528
 30
0.0
 40
0.125
 50
89.999981
 51
269.999981
  0
LINE
  8
OBJECT
 10
2.10685
 20
14.013528
 30
0.0
 11
3.35685
 21
14.013528
 31
0.0
  0
ARC
  8
OBJECT
 10
3.10685
 20
13.763528
 30
0.0
 40
0.125
 50
269.999981
 51
89.999981
  0
LINE
  8
OBJECT
 10
2.356851
 20
13.638528
 30
0.0
 11
3.106851
 21
13.638528
 31
0.0
  0
LINE
  8
OBJECT
 10
2.356851
 20
13.888528
 30
0.0
 11
3.106851
 21
13.888528
 31
0.0
  0
ARC
  8
OBJECT
 10
2.35685
 20
13.763528
 30
0.0
 40
0.125
 50
89.999981
 51
269.999981
  0
LINE
  8
OBJECT
 10
2.10685
 20
13.638528
 30
0.0
 11
2.29385
 21
13.638528
 31
0.0
  0
LINE
  8
OBJECT
 10
2.29385
 20
13.638528
 30
0.0
 11
2.54385
 21
13.388528
 31
0.0
  0
LINE
  8
OBJECT
 10
2.54385
 20
13.388528
 30
0.0
 11
2.54385
 21
12.888528
 31
0.0
  0
LINE
  8
OBJECT
 10
2.54385
 20
12.888528
 30
0.0
 11
2.29385
 21
12.638528
 31
0.0
  0
LINE
  8
OBJECT
 10
2.29385
 20
12.638528
 30
0.0
 11
2.10685
 21
12.638528
 31
0.0
  0
LINE
  8
OBJECT
 10
2.10685
 20
14.013528
 30
0.0
 11
2.10685
 21
12.263528
 31
0.0
  0
LINE
  8
HIDDEN
 10
2.18485
 20
13.638528
 30
0.0
 11
2.18485
 21
12.638528
 31
0.0
  0
LINE
  8
OBJECT
 10
3.16985
 20
12.638528
 30
0.0
 11
3.35685
 21
12.638528
 31
0.0
  0
LINE
  8
HIDDEN
 10
3.27885
 20
13.638528
 30
0.0
 11
3.27885
 21
12.638528
 31
0.0
  0
LINE
  8
OBJECT
 10
2.91985
 20
12.888528
 30
0.0
 11
3.16985
 21
12.638528
 31
0.0
  0
LINE
  8
OBJECT
 10
2.91985
 20
13.388528
 30
0.0
 11
2.91985
 21
12.888528
 31
0.0
  0
LINE
  8
OBJECT
 10
3.16985
 20
13.638528
 30
0.0
 11
2.91985
 21
13.388528
 31
0.0
  0
LINE
  8
OBJECT
 10
3.35685
 20
13.638528
 30
0.0
 11
3.16985
 21
13.638528
 31
0.0
  0
LINE
  8
OBJECT
 10
3.35685
 20
14.013528
 30
0.0
 11
3.35685
 21
12.263528
 31
0.0
  0
LINE
  8
OBJECT
 10
4.543449
 20
13.638528
 30
0.0
 11
8.043449
 21
13.638528
 31
0.0
  0
LINE
  8
OBJECT
 10
4.543449
 20
12.638528
 30
0.0
 11
8.043449
 21
12.638528
 31
0.0
  0
LINE
  8
OBJECT
 10
4.543449
 20
13.638528
 30
0.0
 11
4.543449
 21
12.638528
 31
0.0
  0
LINE
  8
OBJECT
 10
8.043449
 20
14.013528
 30
0.0
 11
8.043449
 21
12.263528
 31
0.0
  0
LINE
  8
OBJECT
 10
7.965449
 20
14.013528
 30
0.0
 11
8.043449
 21
14.013528
 31
0.0
  0
LINE
  8
OBJECT
 10
7.965449
 20
12.263528
 30
0.0
 11
8.043449
 21
12.263528
 31
0.0
  0
LINE
  8
OBJECT
 10
7.965449
 20
14.013528
 30
0.0
 11
7.965449
 21
13.638528
 31
0.0
  0
LINE
  8
HIDDEN
 10
4.621449
 20
13.638528
 30
0.0
 11
4.621449
 21
12.638528
 31
0.0
  0
LINE
  8
OBJECT
 10
7.965449
 20
12.638528
 30
0.0
 11
7.965449
 21
12.263528
 31
0.0
  0
LINE
  8
HIDDEN
 10
7.965449
 20
13.574958
 30
0.0
 11
7.965449
 21
12.693579
 31
0.0
  0
LINE
  8
OBJECT
 10
9.255874
 20
12.263528
 30
0.0
 11
10.505874
 21
12.263528
 31
0.0
  0
LINE
  8
OBJECT
 10
10.505874
 20
14.013528
 30
0.0
 11
9.255874
 21
14.013528
 31
0.0
  0
LINE
  8
OBJECT
 10
10.505874
 20
14.013528
 30
0.0
 11
10.505874
 21
12.263528
 31
0.0
  0
ARC
  8
OBJECT
 10
10.255874
 20
13.763528
 30
0.0
 40
0.125
 50
270.000019
 51
90.000019
  0
ARC
  8
OBJECT
 10
9.505874
 20
13.763528
 30
0.0
 40
0.125
 50
90.000019
 51
270.000019
  0
LINE
  8
OBJECT
 10
9.255874
 20
14.013528
 30
0.0
 11
9.255874
 21
12.263528
 31
0.0
  0
ARC
  8
OBJECT
 10
9.505874
 20
13.138528
 30
0.0
 40
0.125
 50
90.000019
 51
270.000019
  0
ARC
  8
OBJECT
 10
9.505874
 20
12.513528
 30
0.0
 40
0.125
 50
90.000019
 51
270.000019
  0
LINE
  8
OBJECT
 10
10.255874
 20
12.638528
 30
0.0
 11
9.505874
 21
12.638528
 31
0.0
  0
LINE
  8
OBJECT
 10
10.255874
 20
13.263528
 30
0.0
 11
9.505874
 21
13.263528
 31
0.0
  0
LINE
  8
OBJECT
 10
10.255874
 20
13.013528
 30
0.0
 11
9.505874
 21
13.013528
 31
0.0
  0
LINE
  8
OBJECT
 10
10.255874
 20
13.638528
 30
0.0
 11
9.505874
 21
13.638528
 31
0.0
  0
ARC
  8
OBJECT
 10
10.255874
 20
13.138528
 30
0.0
 40
0.125
 50
270.000019
 51
90.000019
  0
LINE
  8
OBJECT
 10
10.255874
 20
12.388528
 30
0.0
 11
9.505874
 21
12.388528
 31
0.0
  0
ARC
  8
OBJECT
 10
10.255874
 20
12.513528
 30
0.0
 40
0.125
 50
270.000019
 51
90.000019
  0
LINE
  8
OBJECT
 10
10.255874
 20
13.888528
 30
0.0
 11
9.505874
 21
13.888528
 31
0.0
  0
LINE
  8
OBJECT
 10
2.54385
 20
13.263528
 30
0.0
 11
2.91985
 21
13.263528
 31
0.0
  0
LINE
  8
OBJECT
 10
2.54385
 20
13.013528
 30
0.0
 11
2.91985
 21
13.013528
 31
0.0
  0
LINE
  8
HIDDEN
 10
9.333874
 20
13.638528
 30
0.0
 11
9.333874
 21
12.638528
 31
0.0
  0
LINE
  8
HIDDEN
 10
9.255874
 20
13.638528
 30
0.0
 11
9.333874
 21
13.638528
 31
0.0
  0
LINE
  8
HIDDEN
 10
9.333874
 20
12.638528
 30
0.0
 11
9.255874
 21
12.638528
 31
0.0
  0
LINE
  8
HIDDEN
 10
10.427874
 20
13.638528
 30
0.0
 11
10.427874
 21
12.638528
 31
0.0
  0
LINE
  8
HIDDEN
 10
10.427874
 20
12.638528
 30
0.0
 11
10.505874
 21
12.638528
 31
0.0
  0
LINE
  8
HIDDEN
 10
10.505874
 20
13.638528
 30
0.0
 11
10.427874
 21
13.638528
 31
0.0
  0
LINE
  8
OBJECT
 10
13.509811
 20
1.776336
 30
0.0
 11
11.759811
 21
1.776336
 31
0.0
  0
LINE
  8
OBJECT
 10
10.509811
 20
1.401336
 30
0.0
 11
10.509811
 21
3.151336
 31
0.0
  0
LINE
  8
OBJECT
 10
11.759811
 20
2.776336
 30
0.0
 11
11.759811
 21
3.151336
 31
0.0
  0
LINE
  8
OBJECT
 10
10.509811
 20
3.151336
 30
0.0
 11
11.759811
 21
3.151336
 31
0.0
  0
LINE
  8
OBJECT
 10
11.759811
 20
1.401336
 30
0.0
 11
10.509811
 21
1.401336
 31
0.0
  0
LINE
  8
OBJECT
 10
11.759811
 20
1.776336
 30
0.0
 11
11.759811
 21
1.401336
 31
0.0
  0
LINE
  8
OBJECT
 10
10.759811
 20
2.401336
 30
0.0
 11
11.509811
 21
2.401336
 31
0.0
  0
LINE
  8
OBJECT
 10
10.759811
 20
2.151336
 30
0.0
 11
11.509811
 21
2.151336
 31
0.0
  0
ARC
  8
OBJECT
 10
10.759811
 20
2.276336
 30
0.0
 40
0.125
 50
89.999981
 51
269.999981
  0
ARC
  8
OBJECT
 10
11.509811
 20
2.276336
 30
0.0
 40
0.125
 50
269.999981
 51
89.999981
  0
LINE
  8
OBJECT
 10
11.759811
 20
2.776336
 30
0.0
 11
13.509811
 21
2.776336
 31
0.0
  0
LINE
  8
OBJECT
 10
10.759811
 20
2.776336
 30
0.0
 11
11.509811
 21
2.776336
 31
0.0
  0
LINE
  8
OBJECT
 10
10.759811
 20
3.026336
 30
0.0
 11
11.509811
 21
3.026336
 31
0.0
  0
ARC
  8
OBJECT
 10
10.759811
 20
2.901336
 30
0.0
 40
0.125
 50
89.999981
 51
269.999981
  0
ARC
  8
OBJECT
 10
11.509811
 20
2.901336
 30
0.0
 40
0.125
 50
269.999981
 51
89.999981
  0
LINE
  8
OBJECT
 10
10.759811
 20
1.526336
 30
0.0
 11
11.509811
 21
1.526336
 31
0.0
  0
LINE
  8
OBJECT
 10
10.759811
 20
1.776336
 30
0.0
 11
11.509811
 21
1.776336
 31
0.0
  0
ARC
  8
OBJECT
 10
10.759811
 20
1.651336
 30
0.0
 40
0.125
 50
89.999981
 51
269.999981
  0
ARC
  8
OBJECT
 10
11.509811
 20
1.651336
 30
0.0
 40
0.125
 50
269.999981
 51
89.999981
  0
LINE
  8
OBJECT
 10
3.773442
 20
4.826149
 30
0.0
 11
3.773442
 21
8.326149
 31
0.0
  0
LINE
  8
OBJECT
 10
3.773442
 20
8.326149
 30
0.0
 11
0.773442
 21
8.326149
 31
0.0
  0
LINE
  8
OBJECT
 10
0.773442
 20
8.326149
 30
0.0
 11
0.773442
 21
4.826149
 31
0.0
  0
LINE
  8
OBJECT
 10
2.461442
 20
4.826149
 30
0.0
 11
2.461442
 21
4.904149
 31
0.0
  0
LINE
  8
OBJECT
 10
3.773442
 20
4.826149
 30
0.0
 11
2.461442
 21
4.826149
 31
0.0
  0
LINE
  8
OBJECT
 10
3.695442
 20
4.904149
 30
0.0
 11
2.461442
 21
4.904149
 31
0.0
  0
LINE
  8
OBJECT
 10
3.695442
 20
4.904149
 30
0.0
 11
3.695442
 21
8.248149
 31
0.0
  0
LINE
  8
OBJECT
 10
3.695442
 20
8.248149
 30
0.0
 11
0.851442
 21
8.248149
 31
0.0
  0
LINE
  8
OBJECT
 10
0.851442
 20
4.904149
 30
0.0
 11
0.851442
 21
8.248149
 31
0.0
  0
LINE
  8
OBJECT
 10
0.851442
 20
4.904149
 30
0.0
 11
2.085442
 21
4.904149
 31
0.0
  0
LINE
  8
OBJECT
 10
2.085442
 20
4.826149
 30
0.0
 11
2.085442
 21
4.904149
 31
0.0
  0
LINE
  8
OBJECT
 10
0.773442
 20
4.826149
 30
0.0
 11
2.085442
 21
4.826149
 31
0.0
  0
DIMENSION
  8
DIM
  2
*D11
 10
3.773442
 20
8.750588
 30
0.0
 11
2.273442
 21
8.750588
 31
0.0
 12
0.0
 22
0.296831
 32
0.0
 13
0.773442
 23
8.326149
 33
0.0
 14
3.773442
 24
8.326149
 34
0.0
 50
180.0
  3
23NSTDI
  0
DIMENSION
  8
DIM
  2
*D3
 10
0.773442
 20
4.425221
 30
0.0
 11
1.429442
 21
4.425221
 31
0.0
 12
0.352351
 22
0.296831
 32
0.0
 13
2.085442
 23
4.826149
 33
0.0
 14
0.773442
 24
4.826149
 34
0.0
 50
180.0
  3
23NSTDI
  0
DIMENSION
  8
DIM
  2
*D6
 10
3.773442
 20
4.080062
 30
0.0
 11
3.117442
 21
4.080062
 31
0.0
 12
-0.360291
 22
0.296831
 32
0.0
 13
2.461442
 23
4.826149
 33
0.0
 14
3.773442
 24
4.826149
 34
0.0
 50
180.0
  3
23NSTDI
  0
DIMENSION
  8
DIM
  2
*D10
 10
4.239866
 20
8.326149
 30
0.0
 11
4.239866
 21
6.576149
 31
0.0
 12
0.0
 22
0.296831
 32
0.0
 13
3.773442
 23
4.826149
 33
0.0
 14
3.773442
 24
8.326149
 34
0.0
 50
270.0
  3
23NSTD
  0
ARC
  8
OBJECT
 10
13.259811
 20
2.276336
 30
0.0
 40
0.125
 50
269.999981
 51
89.999981
  0
LINE
  8
OBJECT
 10
12.509811
 20
2.151336
 30
0.0
 11
13.259811
 21
2.151336
 31
0.0
  0
LINE
  8
OBJECT
 10
12.509811
 20
2.401336
 30
0.0
 11
13.259811
 21
2.401336
 31
0.0
  0
ARC
  8
OBJECT
 10
12.509811
 20
2.276336
 30
0.0
 40
0.125
 50
89.999981
 51
269.999981
  0
LINE
  8
OBJECT
 10
4.764145
 20
2.776336
 30
0.0
 11
8.264145
 21
2.776336
 31
0.0
  0
LINE
  8
OBJECT
 10
4.764145
 20
1.776336
 30
0.0
 11
8.264145
 21
1.776336
 31
0.0
  0
LINE
  8
OBJECT
 10
4.764145
 20
2.776336
 30
0.0
 11
4.764145
 21
1.776336
 31
0.0
  0
LINE
  8
HIDDEN
 10
4.842145
 20
2.776336
 30
0.0
 11
4.842145
 21
1.776336
 31
0.0
  0
LINE
  8
OBJECT
 10
8.264145
 20
3.151336
 30
0.0
 11
8.264145
 21
1.401336
 31
0.0
  0
LINE
  8
OBJECT
 10
8.186145
 20
1.401336
 30
0.0
 11
8.264145
 21
1.401336
 31
0.0
  0
LINE
  8
OBJECT
 10
8.186145
 20
1.776336
 30
0.0
 11
8.186145
 21
1.401336
 31
0.0
  0
LINE
  8
OBJECT
 10
8.186145
 20
3.151336
 30
0.0
 11
8.264145
 21
3.151336
 31
0.0
  0
LINE
  8
HIDDEN
 10
8.186145
 20
2.712766
 30
0.0
 11
8.186145
 21
1.831388
 31
0.0
  0
LINE
  8
OBJECT
 10
8.186145
 20
3.151336
 30
0.0
 11
8.186145
 21
2.776336
 31
0.0
  0
LINE
  8
OBJECT
 10
13.509811
 20
1.776336
 30
0.0
 11
13.509811
 21
2.776336
 31
0.0
  0
LINE
  8
HIDDEN
 10
13.431811
 20
1.776336
 30
0.0
 11
13.431811
 21
2.776336
 31
0.0
  0
LINE
  8
HIDDEN
 10
10.587811
 20
1.776336
 30
0.0
 11
10.587811
 21
2.776336
 31
0.0
  0
LINE
  8
HIDDEN
 10
10.587811
 20
2.776336
 30
0.0
 11
10.509811
 21
2.776336
 31
0.0
  0
LINE
  8
HIDDEN
 10
10.587811
 20
1.776336
 30
0.0
 11
10.509811
 21
1.776336
 31
0.0
  0
LINE
  8
OBJECT
 10
0.773442
 20
1.776336
 30
0.0
 11
2.523442
 21
1.776336
 31
0.0
  0
LINE
  8
OBJECT
 10
2.523442
 20
2.776336
 30
0.0
 11
0.773442
 21
2.776336
 31
0.0
  0
LINE
  8
OBJECT
 10
2.461442
 20
2.026336
 30
0.0
 11
2.711442
 21
1.776336
 31
0.0
  0
LINE
  8
OBJECT
 10
2.085442
 20
2.026336
 30
0.0
 11
1.835442
 21
1.776336
 31
0.0
  0
LINE
  8
HIDDEN
 10
3.695442
 20
1.776336
 30
0.0
 11
3.695442
 21
2.776336
 31
0.0
  0
LINE
  8
OBJECT
 10
3.773442
 20
1.401336
 30
0.0
 11
3.773442
 21
3.151336
 31
0.0
  0
LINE
  8
OBJECT
 10
2.523442
 20
1.401336
 30
0.0
 11
3.773442
 21
1.401336
 31
0.0
  0
LINE
  8
OBJECT
 10
3.523442
 20
1.526336
 30
0.0
 11
2.773442
 21
1.526336
 31
0.0
  0
LINE
  8
OBJECT
 10
2.711442
 20
1.776336
 30
0.0
 11
3.773442
 21
1.776336
 31
0.0
  0
ARC
  8
OBJECT
 10
3.523442
 20
1.651336
 30
0.0
 40
0.125
 50
270.000019
 51
90.000019
  0
LINE
  8
OBJECT
 10
2.523442
 20
1.776336
 30
0.0
 11
2.523442
 21
1.401336
 31
0.0
  0
ARC
  8
OBJECT
 10
2.773442
 20
1.651336
 30
0.0
 40
0.125
 50
90.000019
 51
270.000019
  0
LINE
  8
OBJECT
 10
3.773442
 20
3.151336
 30
0.0
 11
2.523442
 21
3.151336
 31
0.0
  0
LINE
  8
OBJECT
 10
3.523442
 20
3.026336
 30
0.0
 11
2.773442
 21
3.026336
 31
0.0
  0
LINE
  8
OBJECT
 10
2.711442
 20
2.776336
 30
0.0
 11
3.773442
 21
2.776336
 31
0.0
  0
ARC
  8
OBJECT
 10
3.523442
 20
2.901336
 30
0.0
 40
0.125
 50
270.000019
 51
90.000019
  0
LINE
  8
OBJECT
 10
2.711442
 20
2.776336
 30
0.0
 11
2.461442
 21
2.526336
 31
0.0
  0
LINE
  8
OBJECT
 10
2.461442
 20
2.526336
 30
0.0
 11
2.461442
 21
2.026336
 31
0.0
  0
LINE
  8
OBJECT
 10
2.523442
 20
2.776336
 30
0.0
 11
2.523442
 21
3.151336
 31
0.0
  0
ARC
  8
OBJECT
 10
2.773442
 20
2.901336
 30
0.0
 40
0.125
 50
90.000019
 51
270.000019
  0
LINE
  8
OBJECT
 10
2.085442
 20
2.526336
 30
0.0
 11
2.085442
 21
2.026336
 31
0.0
  0
LINE
  8
OBJECT
 10
1.835442
 20
2.776336
 30
0.0
 11
2.085442
 21
2.526336
 31
0.0
  0
LINE
  8
OBJECT
 10
0.773442
 20
1.776336
 30
0.0
 11
0.773442
 21
2.776336
 31
0.0
  0
LINE
  8
HIDDEN
 10
0.851442
 20
1.776336
 30
0.0
 11
0.851442
 21
2.776336
 31
0.0
  0
LINE
  8
OBJECT
 10
6.161992
 20
18.259663
 30
0.0
 11
6.161992
 21
17.884663
 31
0.0
  0
LINE
  8
OBJECT
 10
7.244524
 20
18.884663
 30
0.0
 11
7.244524
 21
18.509663
 31
0.0
  0
LINE
  8
OBJECT
 10
9.193081
 20
16.134663
 30
0.0
 11
9.193081
 21
15.134663
 31
0.0
  0
LINE
  8
OBJECT
 10
10.275613
 20
16.759663
 30
0.0
 11
10.275613
 21
15.759663
 31
0.0
  0
LINE
  8
OBJECT
 10
6.161992
 20
18.259663
 30
0.0
 11
7.244524
 21
18.884663
 31
0.0
  0
LINE
  8
OBJECT
 10
6.161992
 20
16.509663
 30
0.0
 11
6.486752
 21
16.697163
 31
0.0
  0
LINE
  8
OBJECT
 10
6.094442
 20
18.298663
 30
0.0
 11
6.094442
 21
16.548663
 31
0.0
  0
LINE
  8
OBJECT
 10
7.176974
 20
18.470663
 30
0.0
 11
7.176974
 21
17.470663
 31
0.0
  0
LINE
  8
OBJECT
 10
6.161992
 20
18.259663
 30
0.0
 11
6.094442
 21
18.298663
 31
0.0
  0
LINE
  8
OBJECT
 10
6.094442
 20
18.298663
 30
0.0
 11
7.176974
 21
18.923663
 31
0.0
  0
LINE
  8
OBJECT
 10
6.161992
 20
16.509663
 30
0.0
 11
6.094442
 21
16.548663
 31
0.0
  0
LINE
  8
OBJECT
 10
9.193081
 20
16.134663
 30
0.0
 11
6.161992
 21
17.884663
 31
0.0
  0
LINE
  8
OBJECT
 10
9.193081
 20
15.134663
 30
0.0
 11
6.161992
 21
16.884663
 31
0.0
  0
LINE
  8
OBJECT
 10
9.193081
 20
16.134663
 30
0.0
 11
9.355028
 21
16.228163
 31
0.0
  0
LINE
  8
OBJECT
 10
9.193081
 20
15.134663
 30
0.0
 11
9.355028
 21
15.228163
 31
0.0
  0
LINE
  8
OBJECT
 10
6.161992
 20
17.884663
 30
0.0
 11
6.229542
 21
17.923663
 31
0.0
  0
LINE
  8
OBJECT
 10
10.275613
 20
16.759663
 30
0.0
 11
7.244524
 21
18.509663
 31
0.0
  0
LINE
  8
OBJECT
 10
7.244524
 20
18.884663
 30
0.0
 11
7.176974
 21
18.923663
 31
0.0
  0
LINE
  8
OBJECT
 10
9.193081
 20
16.212663
 30
0.0
 11
6.229542
 21
17.923663
 31
0.0
  0
LINE
  8
OBJECT
 10
10.140513
 20
16.759663
 30
0.0
 11
7.176974
 21
18.470663
 31
0.0
  0
LINE
  8
OBJECT
 10
9.82961
 20
15.939163
 30
0.0
 11
9.571534
 21
16.088163
 31
0.0
  0
LINE
  8
OBJECT
 10
6.161992
 20
16.884663
 30
0.0
 11
6.161992
 21
16.509663
 31
0.0
  0
LINE
  8
OBJECT
 10
7.176974
 20
18.470663
 30
0.0
 11
7.244524
 21
18.509663
 31
0.0
  0
LINE
  8
OBJECT
 10
7.244524
 20
17.431663
 30
0.0
 11
7.244524
 21
17.337663
 31
0.0
  0
LINE
  8
OBJECT
 10
9.193081
 20
16.212663
 30
0.0
 11
9.287478
 21
16.267163
 31
0.0
  0
LINE
  8
OBJECT
 10
9.571534
 20
16.103163
 30
0.0
 11
9.571534
 21
15.603163
 31
0.0
  0
LINE
  8
OBJECT
 10
9.89716
 20
16.291163
 30
0.0
 11
9.89716
 21
15.791163
 31
0.0
  0
LINE
  8
OBJECT
 10
9.82961
 20
16.330163
 30
0.0
 11
9.82961
 21
15.830163
 31
0.0
  0
LINE
  8
OBJECT
 10
10.113666
 20
15.666163
 30
0.0
 11
10.275613
 21
15.759663
 31
0.0
  0
LINE
  8
OBJECT
 10
9.355028
 20
16.228163
 30
0.0
 11
9.571534
 21
16.103163
 31
0.0
  0
LINE
  8
OBJECT
 10
9.89716
 20
16.291163
 30
0.0
 11
10.113666
 21
16.666163
 31
0.0
  0
LINE
  8
OBJECT
 10
9.355028
 20
15.228163
 30
0.0
 11
9.571534
 21
15.603163
 31
0.0
  0
LINE
  8
OBJECT
 10
9.89716
 20
15.791163
 30
0.0
 11
10.113666
 21
15.666163
 31
0.0
  0
LINE
  8
OBJECT
 10
9.89716
 20
15.791163
 30
0.0
 11
9.82961
 21
15.830163
 31
0.0
  0
LINE
  8
OBJECT
 10
9.89716
 20
16.291163
 30
0.0
 11
9.82961
 21
16.330163
 31
0.0
  0
LINE
  8
OBJECT
 10
9.355028
 20
16.228163
 30
0.0
 11
9.287478
 21
16.267163
 31
0.0
  0
LINE
  8
OBJECT
 10
10.113666
 20
16.666163
 30
0.0
 11
10.275613
 21
16.759663
 31
0.0
  0
LINE
  8
OBJECT
 10
10.113666
 20
16.666163
 30
0.0
 11
10.046116
 21
16.705163
 31
0.0
  0
LINE
  8
OBJECT
 10
9.82961
 20
16.330163
 30
0.0
 11
10.046116
 21
16.705163
 31
0.0
  0
LINE
  8
OBJECT
 10
10.046116
 20
16.705163
 30
0.0
 11
10.140513
 21
16.759663
 31
0.0
  0
LINE
  8
OBJECT
 10
9.274487
 20
16.259663
 30
0.0
 11
7.176974
 21
17.470663
 31
0.0
  0
LINE
  8
OBJECT
 10
6.378498
 20
18.259663
 30
0.0
 11
7.028018
 21
18.634663
 31
0.0
  0
LINE
  8
OBJECT
 10
6.378498
 20
18.009663
 30
0.0
 11
7.028018
 21
18.384663
 31
0.0
  0
LINE
  8
OBJECT
 10
6.27853
 20
18.029946
 30
0.0
 11
6.960468
 21
18.423663
 31
0.0
  0
POLYLINE
  8
OBJECT
 66
     1
 10
0.0
 20
0.0
 30
0.0
  0
VERTEX
  8
OBJECT
 10
6.301952
 20
18.178857
 30
0.0
 42
0.058752
  0
VERTEX
  8
OBJECT
 10
6.277493
 20
18.121998
 30
0.0
 42
0.072341
  0
VERTEX
  8
OBJECT
 10
6.270245
 20
18.072163
 30
0.0
 42
0.106617
 70
     2
 50
270.0
  0
VERTEX
  8
OBJECT
 10
6.280176
 20
18.02612
 30
0.0
 42
0.156851
 50
270.0
  0
VERTEX
  8
OBJECT
 10
6.301952
 20
18.002081
 30
0.0
 42
0.156851
  0
VERTEX
  8
OBJECT
 10
6.333659
 20
17.995242
 30
0.0
 42
0.106617
  0
VERTEX
  8
OBJECT
 10
6.378498
 20
18.009663
 30
0.0
 42
0.072341
 70
     2
 50
30.0
  0
SEQEND
  8
OBJECT
  0
POLYLINE
  8
OBJECT
 66
     1
 10
0.0
 20
0.0
 30
0.0
  0
VERTEX
  8
OBJECT
 10
6.378498
 20
18.259663
 30
0.0
 42
0.072341
 70
     2
 50
210.0
  0
VERTEX
  8
OBJECT
 10
6.338965
 20
18.228469
 30
0.0
 42
0.058752
 50
210.0
  0
VERTEX
  8
OBJECT
 10
6.301952
 20
18.178857
 30
0.0
 42
0.058752
  0
SEQEND
  8
OBJECT
  0
POLYLINE
  8
OBJECT
 66
     1
 10
0.0
 20
0.0
 30
0.0
  0
VERTEX
  8
OBJECT
 10
7.028018
 20
18.384663
 30
0.0
 42
0.072341
 70
     2
 50
30.0
  0
VERTEX
  8
OBJECT
 10
7.067551
 20
18.415857
 30
0.0
 42
0.058752
 50
30.0
  0
VERTEX
  8
OBJECT
 10
7.104564
 20
18.465469
 30
0.0
 42
0.058752
  0
VERTEX
  8
OBJECT
 10
7.129023
 20
18.522329
 30
0.0
 42
0.072341
  0
VERTEX
  8
OBJECT
 10
7.136271
 20
18.572163
 30
0.0
 42
0.106617
 70
     2
 50
90.0
  0
VERTEX
  8
OBJECT
 10
7.12634
 20
18.618206
 30
0.0
 42
0.156851
 50
90.0
  0
VERTEX
  8
OBJECT
 10
7.104564
 20
18.642246
 30
0.0
 42
0.156851
  0
VERTEX
  8
OBJECT
 10
7.072857
 20
18.649084
 30
0.0
 42
0.106617
  0
VERTEX
  8
OBJECT
 10
7.028018
 20
18.634663
 30
0.0
 42
0.072341
 70
     2
 50
210.0
  0
SEQEND
  8
OBJECT
  0
POLYLINE
  8
OBJECT
 66
     1
 10
0.0
 20
0.0
 30
0.0
  0
VERTEX
  8
OBJECT
 10
6.960468
 20
18.423663
 30
0.0
 42
0.072341
 70
     2
 50
30.0
  0
VERTEX
  8
OBJECT
 10
7.000001
 20
18.454857
 30
0.0
 42
0.058752
 50
30.0
  0
VERTEX
  8
OBJECT
 10
7.037014
 20
18.504469
 30
0.0
 42
0.058752
  0
VERTEX
  8
OBJECT
 10
7.061473
 20
18.561329
 30
0.0
 42
0.072341
  0
VERTEX
  8
OBJECT
 10
7.068721
 20
18.611163
 30
0.0
 42
0.083232
 70
     2
 50
90.0
  0
VERTEX
  8
OBJECT
 10
7.062615
 20
18.647588
 30
0.0
 42
0.156851
 50
90.0
  0
SEQEND
  8
OBJECT
  0
LINE
  8
OBJECT
 10
6.703258
 20
17.650163
 30
0.0
 11
6.960468
 21
17.798663
 31
0.0
  0
LINE
  8
OBJECT
 10
6.554302
 20
17.736163
 30
0.0
 11
7.028018
 21
18.009663
 31
0.0
  0
LINE
  8
OBJECT
 10
6.770808
 20
17.611163
 30
0.0
 11
7.028018
 21
17.759663
 31
0.0
  0
POLYLINE
  8
OBJECT
 66
     1
 10
0.0
 20
0.0
 30
0.0
  0
VERTEX
  8
OBJECT
 10
6.960468
 20
17.798663
 30
0.0
 42
0.072341
 70
     2
 50
30.0
  0
VERTEX
  8
OBJECT
 10
7.000001
 20
17.829857
 30
0.0
 42
0.058752
 50
30.0
  0
VERTEX
  8
OBJECT
 10
7.037014
 20
17.879469
 30
0.0
 42
0.058752
  0
VERTEX
  8
OBJECT
 10
7.061473
 20
17.936329
 30
0.0
 42
0.072341
  0
VERTEX
  8
OBJECT
 10
7.068721
 20
17.986163
 30
0.0
 42
0.083232
 70
     2
 50
90.0
  0
VERTEX
  8
OBJECT
 10
7.062615
 20
18.022588
 30
0.0
 42
0.156851
 50
90.0
  0
SEQEND
  8
OBJECT
  0
POLYLINE
  8
OBJECT
 66
     1
 10
0.0
 20
0.0
 30
0.0
  0
VERTEX
  8
OBJECT
 10
7.028018
 20
17.759663
 30
0.0
 42
0.072341
 70
     2
 50
30.0
  0
VERTEX
  8
OBJECT
 10
7.067551
 20
17.790857
 30
0.0
 42
0.058752
 50
30.0
  0
VERTEX
  8
OBJECT
 10
7.104564
 20
17.840469
 30
0.0
 42
0.058752
  0
VERTEX
  8
OBJECT
 10
7.129023
 20
17.897329
 30
0.0
 42
0.072341
  0
VERTEX
  8
OBJECT
 10
7.136271
 20
17.947163
 30
0.0
 42
0.106617
 70
     2
 50
90.0
  0
VERTEX
  8
OBJECT
 10
7.12634
 20
17.993206
 30
0.0
 42
0.156851
 50
90.0
  0
VERTEX
  8
OBJECT
 10
7.104564
 20
18.017246
 30
0.0
 42
0.156851
  0
VERTEX
  8
OBJECT
 10
7.072857
 20
18.024084
 30
0.0
 42
0.106617
  0
VERTEX
  8
OBJECT
 10
7.028018
 20
18.009663
 30
0.0
 42
0.072341
 70
     2
 50
210.0
  0
SEQEND
  8
OBJECT
  0
LINE
  8
OBJECT
 10
6.27853
 20
16.779946
 30
0.0
 11
6.310948
 21
16.798663
 31
0.0
  0
POLYLINE
  8
OBJECT
 66
     1
 10
0.0
 20
0.0
 30
0.0
  0
VERTEX
  8
OBJECT
 10
6.270245
 20
16.822163
 30
0.0
 42
0.106617
 70
     2
 50
270.0
  0
VERTEX
  8
OBJECT
 10
6.280176
 20
16.77612
 30
0.0
 42
0.156851
 50
270.0
  0
VERTEX
  8
OBJECT
 10
6.301952
 20
16.752081
 30
0.0
 42
0.156851
  0
VERTEX
  8
OBJECT
 10
6.333659
 20
16.745242
 30
0.0
 42
0.106617
  0
VERTEX
  8
OBJECT
 10
6.378498
 20
16.759663
 30
0.0
 42
0.072341
 70
     2
 50
30.0
  0
SEQEND
  8
OBJECT
  0
LINE
  8
OBJECT
 10
7.303483
 20
8.370745
 30
0.0
 11
7.303483
 21
7.995745
 31
0.0
  0
LINE
  8
OBJECT
 10
8.386015
 20
8.995745
 30
0.0
 11
8.386015
 21
8.620745
 31
0.0
  0
LINE
  8
OBJECT
 10
11.417104
 20
6.870745
 30
0.0
 11
11.417104
 21
5.870745
 31
0.0
  0
LINE
  8
OBJECT
 10
7.303483
 20
8.370745
 30
0.0
 11
8.386015
 21
8.995745
 31
0.0
  0
LINE
  8
OBJECT
 10
7.303483
 20
6.620745
 30
0.0
 11
8.386015
 21
7.245745
 31
0.0
  0
LINE
  8
OBJECT
 10
7.235933
 20
8.409745
 30
0.0
 11
7.235933
 21
8.034745
 31
0.0
  0
LINE
  8
OBJECT
 10
8.318465
 20
8.581745
 30
0.0
 11
8.318465
 21
7.581745
 31
0.0
  0
LINE
  8
OBJECT
 10
7.303483
 20
8.370745
 30
0.0
 11
7.235933
 21
8.409745
 31
0.0
  0
LINE
  8
OBJECT
 10
7.235933
 20
8.409745
 30
0.0
 11
8.318465
 21
9.034745
 31
0.0
  0
LINE
  8
OBJECT
 10
7.303483
 20
6.620745
 30
0.0
 11
7.235933
 21
6.659745
 31
0.0
  0
LINE
  8
OBJECT
 10
7.303483
 20
7.995745
 30
0.0
 11
7.235933
 21
8.034745
 31
0.0
  0
LINE
  8
OBJECT
 10
11.417104
 20
6.870745
 30
0.0
 11
8.386015
 21
8.620745
 31
0.0
  0
LINE
  8
OBJECT
 10
8.386015
 20
8.995745
 30
0.0
 11
8.318465
 21
9.034745
 31
0.0
  0
LINE
  8
OBJECT
 10
11.282004
 20
6.870745
 30
0.0
 11
8.318465
 21
8.581745
 31
0.0
  0
LINE
  8
OBJECT
 10
7.303483
 20
6.995745
 30
0.0
 11
7.303483
 21
6.620745
 31
0.0
  0
LINE
  8
OBJECT
 10
8.318465
 20
8.581745
 30
0.0
 11
8.386015
 21
8.620745
 31
0.0
  0
LINE
  8
OBJECT
 10
8.386015
 20
7.542745
 30
0.0
 11
8.386015
 21
7.245745
 31
0.0
  0
LINE
  8
OBJECT
 10
10.496519
 20
5.339245
 30
0.0
 11
11.417104
 21
5.870745
 31
0.0
  0
LINE
  8
OBJECT
 10
10.496519
 20
6.339245
 30
0.0
 11
11.417104
 21
6.870745
 31
0.0
  0
LINE
  8
OBJECT
 10
10.428969
 20
6.378245
 30
0.0
 11
11.282004
 21
6.870745
 31
0.0
  0
LINE
  8
OBJECT
 10
10.422473
 20
6.366995
 30
0.0
 11
8.318465
 21
7.581745
 31
0.0
  0
LINE
  8
OBJECT
 10
7.519989
 20
8.370745
 30
0.0
 11
8.169508
 21
8.745745
 31
0.0
  0
LINE
  8
OBJECT
 10
7.519989
 20
8.120745
 30
0.0
 11
8.169508
 21
8.495745
 31
0.0
  0
LINE
  8
OBJECT
 10
7.420021
 20
8.141029
 30
0.0
 11
8.101958
 21
8.534745
 31
0.0
  0
POLYLINE
  8
OBJECT
 66
     1
 10
0.0
 20
0.0
 30
0.0
  0
VERTEX
  8
OBJECT
 10
7.443443
 20
8.28994
 30
0.0
 42
0.058752
  0
VERTEX
  8
OBJECT
 10
7.418984
 20
8.23308
 30
0.0
 42
0.072341
  0
VERTEX
  8
OBJECT
 10
7.411736
 20
8.183245
 30
0.0
 42
0.106617
 70
     2
 50
270.0
  0
VERTEX
  8
OBJECT
 10
7.421667
 20
8.137202
 30
0.0
 42
0.156851
 50
270.0
  0
VERTEX
  8
OBJECT
 10
7.443443
 20
8.113163
 30
0.0
 42
0.156851
  0
VERTEX
  8
OBJECT
 10
7.475149
 20
8.106324
 30
0.0
 42
0.106617
  0
VERTEX
  8
OBJECT
 10
7.519989
 20
8.120745
 30
0.0
 42
0.072341
 70
     2
 50
30.0
  0
SEQEND
  8
OBJECT
  0
POLYLINE
  8
OBJECT
 66
     1
 10
0.0
 20
0.0
 30
0.0
  0
VERTEX
  8
OBJECT
 10
7.519989
 20
8.370745
 30
0.0
 42
0.072341
 70
     2
 50
210.0
  0
VERTEX
  8
OBJECT
 10
7.480455
 20
8.339551
 30
0.0
 42
0.058752
 50
210.0
  0
VERTEX
  8
OBJECT
 10
7.443443
 20
8.28994
 30
0.0
 42
0.058752
  0
SEQEND
  8
OBJECT
  0
POLYLINE
  8
OBJECT
 66
     1
 10
0.0
 20
0.0
 30
0.0
  0
VERTEX
  8
OBJECT
 10
8.169508
 20
8.495745
 30
0.0
 42
0.072341
 70
     2
 50
30.0
  0
VERTEX
  8
OBJECT
 10
8.209042
 20
8.52694
 30
0.0
 42
0.058752
 50
30.0
  0
VERTEX
  8
OBJECT
 10
8.246055
 20
8.576551
 30
0.0
 42
0.058752
  0
VERTEX
  8
OBJECT
 10
8.270513
 20
8.633411
 30
0.0
 42
0.072341
  0
VERTEX
  8
OBJECT
 10
8.277761
 20
8.683245
 30
0.0
 42
0.106617
 70
     2
 50
90.0
  0
VERTEX
  8
OBJECT
 10
8.267831
 20
8.729289
 30
0.0
 42
0.156851
 50
90.0
  0
VERTEX
  8
OBJECT
 10
8.246055
 20
8.753328
 30
0.0
 42
0.156851
  0
VERTEX
  8
OBJECT
 10
8.214348
 20
8.760167
 30
0.0
 42
0.106617
  0
VERTEX
  8
OBJECT
 10
8.169508
 20
8.745745
 30
0.0
 42
0.072341
 70
     2
 50
210.0
  0
SEQEND
  8
OBJECT
  0
POLYLINE
  8
OBJECT
 66
     1
 10
0.0
 20
0.0
 30
0.0
  0
VERTEX
  8
OBJECT
 10
8.101958
 20
8.534745
 30
0.0
 42
0.072341
 70
     2
 50
30.0
  0
VERTEX
  8
OBJECT
 10
8.141492
 20
8.56594
 30
0.0
 42
0.058752
 50
30.0
  0
VERTEX
  8
OBJECT
 10
8.178505
 20
8.615551
 30
0.0
 42
0.058752
  0
VERTEX
  8
OBJECT
 10
8.202963
 20
8.672411
 30
0.0
 42
0.072341
  0
VERTEX
  8
OBJECT
 10
8.210211
 20
8.722245
 30
0.0
 42
0.083232
 70
     2
 50
90.0
  0
VERTEX
  8
OBJECT
 10
8.204106
 20
8.75867
 30
0.0
 42
0.156851
 50
90.0
  0
SEQEND
  8
OBJECT
  0
POLYLINE
  8
OBJECT
 66
     1
 10
0.0
 20
0.0
 30
0.0
  0
VERTEX
  8
OBJECT
 10
7.443443
 20
7.66494
 30
0.0
 42
0.058752
  0
VERTEX
  8
OBJECT
 10
7.418984
 20
7.60808
 30
0.0
 42
0.072341
  0
VERTEX
  8
OBJECT
 10
7.411736
 20
7.558245
 30
0.0
 42
0.106617
 70
     2
 50
270.0
  0
VERTEX
  8
OBJECT
 10
7.421667
 20
7.512202
 30
0.0
 42
0.156851
 50
270.0
  0
VERTEX
  8
OBJECT
 10
7.443443
 20
7.488163
 30
0.0
 42
0.156851
  0
VERTEX
  8
OBJECT
 10
7.475149
 20
7.481324
 30
0.0
 42
0.106617
  0
VERTEX
  8
OBJECT
 10
7.519989
 20
7.495745
 30
0.0
 42
0.072341
 70
     2
 50
30.0
  0
SEQEND
  8
OBJECT
  0
LINE
  8
OBJECT
 10
7.420021
 20
7.516029
 30
0.0
 11
8.101958
 21
7.909745
 31
0.0
  0
LINE
  8
OBJECT
 10
7.519989
 20
7.745745
 30
0.0
 11
8.169508
 21
8.120745
 31
0.0
  0
LINE
  8
OBJECT
 10
7.519989
 20
7.495745
 30
0.0
 11
8.169508
 21
7.870745
 31
0.0
  0
POLYLINE
  8
OBJECT
 66
     1
 10
0.0
 20
0.0
 30
0.0
  0
VERTEX
  8
OBJECT
 10
7.519989
 20
7.745745
 30
0.0
 42
0.072341
 70
     2
 50
210.0
  0
VERTEX
  8
OBJECT
 10
7.480455
 20
7.714551
 30
0.0
 42
0.058752
 50
210.0
  0
VERTEX
  8
OBJECT
 10
7.443443
 20
7.66494
 30
0.0
 42
0.058752
  0
SEQEND
  8
OBJECT
  0
POLYLINE
  8
OBJECT
 66
     1
 10
0.0
 20
0.0
 30
0.0
  0
VERTEX
  8
OBJECT
 10
8.101958
 20
7.909745
 30
0.0
 42
0.072341
 70
     2
 50
30.0
  0
VERTEX
  8
OBJECT
 10
8.141492
 20
7.94094
 30
0.0
 42
0.058752
 50
30.0
  0
VERTEX
  8
OBJECT
 10
8.178505
 20
7.990551
 30
0.0
 42
0.058752
  0
VERTEX
  8
OBJECT
 10
8.202963
 20
8.047411
 30
0.0
 42
0.072341
  0
VERTEX
  8
OBJECT
 10
8.210211
 20
8.097245
 30
0.0
 42
0.083232
 70
     2
 50
90.0
  0
VERTEX
  8
OBJECT
 10
8.204106
 20
8.13367
 30
0.0
 42
0.156851
 50
90.0
  0
SEQEND
  8
OBJECT
  0
POLYLINE
  8
OBJECT
 66
     1
 10
0.0
 20
0.0
 30
0.0
  0
VERTEX
  8
OBJECT
 10
8.169508
 20
7.870745
 30
0.0
 42
0.072341
 70
     2
 50
30.0
  0
VERTEX
  8
OBJECT
 10
8.209042
 20
7.90194
 30
0.0
 42
0.058752
 50
30.0
  0
VERTEX
  8
OBJECT
 10
8.246055
 20
7.951551
 30
0.0
 42
0.058752
  0
VERTEX
  8
OBJECT
 10
8.270513
 20
8.008411
 30
0.0
 42
0.072341
  0
VERTEX
  8
OBJECT
 10
8.277761
 20
8.058245
 30
0.0
 42
0.106617
 70
     2
 50
90.0
  0
VERTEX
  8
OBJECT
 10
8.267831
 20
8.104289
 30
0.0
 42
0.156851
 50
90.0
  0
VERTEX
  8
OBJECT
 10
8.246055
 20
8.128328
 30
0.0
 42
0.156851
  0
VERTEX
  8
OBJECT
 10
8.214348
 20
8.135167
 30
0.0
 42
0.106617
  0
VERTEX
  8
OBJECT
 10
8.169508
 20
8.120745
 30
0.0
 42
0.072341
 70
     2
 50
210.0
  0
SEQEND
  8
OBJECT
  0
POLYLINE
  8
OBJECT
 66
     1
 10
0.0
 20
0.0
 30
0.0
  0
VERTEX
  8
OBJECT
 10
8.169508
 20
7.245745
 30
0.0
 42
0.072341
 70
     2
 50
30.0
  0
VERTEX
  8
OBJECT
 10
8.209042
 20
7.27694
 30
0.0
 42
0.058752
 50
30.0
  0
VERTEX
  8
OBJECT
 10
8.246055
 20
7.326551
 30
0.0
 42
0.058752
  0
VERTEX
  8
OBJECT
 10
8.270513
 20
7.383411
 30
0.0
 42
0.072341
  0
VERTEX
  8
OBJECT
 10
8.277761
 20
7.433245
 30
0.0
 42
0.106617
 70
     2
 50
90.0
  0
VERTEX
  8
OBJECT
 10
8.267831
 20
7.479289
 30
0.0
 42
0.156851
 50
90.0
  0
VERTEX
  8
OBJECT
 10
8.246055
 20
7.503328
 30
0.0
 42
0.156851
  0
VERTEX
  8
OBJECT
 10
8.214348
 20
7.510167
 30
0.0
 42
0.106617
  0
VERTEX
  8
OBJECT
 10
8.169508
 20
7.495745
 30
0.0
 42
0.072341
 70
     2
 50
210.0
  0
SEQEND
  8
OBJECT
  0
POLYLINE
  8
OBJECT
 66
     1
 10
0.0
 20
0.0
 30
0.0
  0
VERTEX
  8
OBJECT
 10
8.101958
 20
7.284745
 30
0.0
 42
0.072341
 70
     2
 50
30.0
  0
VERTEX
  8
OBJECT
 10
8.141492
 20
7.31594
 30
0.0
 42
0.058752
 50
30.0
  0
VERTEX
  8
OBJECT
 10
8.178505
 20
7.365551
 30
0.0
 42
0.058752
  0
VERTEX
  8
OBJECT
 10
8.202963
 20
7.422411
 30
0.0
 42
0.072341
  0
VERTEX
  8
OBJECT
 10
8.210211
 20
7.472245
 30
0.0
 42
0.083232
 70
     2
 50
90.0
  0
VERTEX
  8
OBJECT
 10
8.204106
 20
7.50867
 30
0.0
 42
0.156851
 50
90.0
  0
SEQEND
  8
OBJECT
  0
LINE
  8
OBJECT
 10
7.519989
 20
7.120745
 30
0.0
 11
8.169508
 21
7.495745
 31
0.0
  0
LINE
  8
OBJECT
 10
7.519989
 20
6.870745
 30
0.0
 11
8.169508
 21
7.245745
 31
0.0
  0
LINE
  8
OBJECT
 10
7.420021
 20
6.891029
 30
0.0
 11
8.101958
 21
7.284745
 31
0.0
  0
POLYLINE
  8
OBJECT
 66
     1
 10
0.0
 20
0.0
 30
0.0
  0
VERTEX
  8
OBJECT
 10
7.519989
 20
7.120745
 30
0.0
 42
0.072341
 70
     2
 50
210.0
  0
VERTEX
  8
OBJECT
 10
7.480455
 20
7.089551
 30
0.0
 42
0.058752
 50
210.0
  0
VERTEX
  8
OBJECT
 10
7.443443
 20
7.03994
 30
0.0
 42
0.058752
  0
SEQEND
  8
OBJECT
  0
POLYLINE
  8
OBJECT
 66
     1
 10
0.0
 20
0.0
 30
0.0
  0
VERTEX
  8
OBJECT
 10
7.443443
 20
7.03994
 30
0.0
 42
0.058752
  0
VERTEX
  8
OBJECT
 10
7.418984
 20
6.98308
 30
0.0
 42
0.072341
  0
VERTEX
  8
OBJECT
 10
7.411736
 20
6.933245
 30
0.0
 42
0.106617
 70
     2
 50
270.0
  0
VERTEX
  8
OBJECT
 10
7.421667
 20
6.887202
 30
0.0
 42
0.156851
 50
270.0
  0
VERTEX
  8
OBJECT
 10
7.443443
 20
6.863163
 30
0.0
 42
0.156851
  0
VERTEX
  8
OBJECT
 10
7.475149
 20
6.856324
 30
0.0
 42
0.106617
  0
VERTEX
  8
OBJECT
 10
7.519989
 20
6.870745
 30
0.0
 42
0.072341
 70
     2
 50
30.0
  0
SEQEND
  8
OBJECT
  0
LINE
  8
OBJECT
 10
8.819027
 20
5.370745
 30
0.0
 11
8.819027
 21
4.370745
 31
0.0
  0
LINE
  8
OBJECT
 10
8.819027
 20
4.370745
 30
0.0
 11
5.720388
 21
6.159745
 31
0.0
  0
LINE
  8
OBJECT
 10
8.819027
 20
4.370745
 30
0.0
 11
9.739612
 21
4.902245
 31
0.0
  0
LINE
  8
OBJECT
 10
9.739612
 20
5.902245
 30
0.0
 11
9.672062
 21
5.941245
 31
0.0
  0
LINE
  8
OBJECT
 10
8.819027
 20
5.448745
 30
0.0
 11
9.672062
 21
5.941245
 31
0.0
  0
LINE
  8
OBJECT
 10
8.819027
 20
5.370745
 30
0.0
 11
9.739612
 21
5.902245
 31
0.0
  0
LINE
  8
OBJECT
 10
8.819027
 20
5.448745
 30
0.0
 11
5.855488
 21
7.159745
 31
0.0
  0
LINE
  8
OBJECT
 10
8.819027
 20
5.370745
 30
0.0
 11
5.720388
 21
7.159745
 31
0.0
  0
LINE
  8
OBJECT
 10
5.720388
 20
7.159745
 30
0.0
 11
7.235933
 21
8.034745
 31
0.0
  0
LINE
  8
OBJECT
 10
5.720388
 20
7.159745
 30
0.0
 11
5.720388
 21
6.159745
 31
0.0
  0
LINE
  8
OBJECT
 10
5.855488
 20
7.159745
 30
0.0
 11
7.303483
 21
7.995745
 31
0.0
  0
LINE
  8
OBJECT
 10
6.721514
 20
6.659745
 30
0.0
 11
7.303483
 21
6.995745
 31
0.0
  0
LINE
  8
OBJECT
 10
7.235933
 20
6.956745
 30
0.0
 11
7.235933
 21
6.659745
 31
0.0
  0
LINE
  8
OBJECT
 10
10.280012
 20
5.464245
 30
0.0
 11
10.496519
 21
5.339245
 31
0.0
  0
LINE
  8
OBJECT
 10
10.212462
 20
6.003245
 30
0.0
 11
10.212462
 21
5.503245
 31
0.0
  0
LINE
  8
OBJECT
 10
10.280012
 20
5.964245
 30
0.0
 11
10.280012
 21
5.464245
 31
0.0
  0
LINE
  8
OBJECT
 10
10.280012
 20
5.464245
 30
0.0
 11
10.212462
 21
5.503245
 31
0.0
  0
LINE
  8
OBJECT
 10
10.280012
 20
5.964245
 30
0.0
 11
10.212462
 21
6.003245
 31
0.0
  0
LINE
  8
OBJECT
 10
10.212462
 20
6.003245
 30
0.0
 11
10.428969
 21
6.378245
 31
0.0
  0
LINE
  8
OBJECT
 10
10.280012
 20
5.964245
 30
0.0
 11
10.496519
 21
6.339245
 31
0.0
  0
LINE
  8
OBJECT
 10
9.739612
 20
4.902245
 30
0.0
 11
9.956119
 21
5.277245
 31
0.0
  0
LINE
  8
OBJECT
 10
9.956119
 20
5.777245
 30
0.0
 11
9.956119
 21
5.277245
 31
0.0
  0
LINE
  8
OBJECT
 10
9.739612
 20
5.902245
 30
0.0
 11
9.956119
 21
5.777245
 31
0.0
  0
LINE
  8
OBJECT
 10
10.496519
 20
6.339245
 30
0.0
 11
10.428969
 21
6.378245
 31
0.0
  0
POLYLINE
  8
OBJECT
 66
     1
 10
0.0
 20
0.0
 30
0.0
  0
VERTEX
  8
OBJECT
 10
6.653964
 20
6.995745
 30
0.0
 42
0.072341
 70
     2
 50
30.0
  0
VERTEX
  8
OBJECT
 10
6.693498
 20
7.02694
 30
0.0
 42
0.058752
 50
30.0
  0
VERTEX
  8
OBJECT
 10
6.73051
 20
7.076551
 30
0.0
 42
0.058752
  0
VERTEX
  8
OBJECT
 10
6.754969
 20
7.133411
 30
0.0
 42
0.072341
  0
VERTEX
  8
OBJECT
 10
6.762217
 20
7.183245
 30
0.0
 42
0.106617
 70
     2
 50
90.0
  0
VERTEX
  8
OBJECT
 10
6.752286
 20
7.229289
 30
0.0
 42
0.156851
 50
90.0
  0
VERTEX
  8
OBJECT
 10
6.73051
 20
7.253328
 30
0.0
 42
0.156851
  0
VERTEX
  8
OBJECT
 10
6.698804
 20
7.260167
 30
0.0
 42
0.106617
  0
VERTEX
  8
OBJECT
 10
6.653964
 20
7.245745
 30
0.0
 42
0.072341
 70
     2
 50
210.0
  0
SEQEND
  8
OBJECT
  0
POLYLINE
  8
OBJECT
 66
     1
 10
0.0
 20
0.0
 30
0.0
  0
VERTEX
  8
OBJECT
 10
6.586414
 20
7.034745
 30
0.0
 42
0.072341
 70
     2
 50
30.0
  0
VERTEX
  8
OBJECT
 10
6.625948
 20
7.06594
 30
0.0
 42
0.058752
 50
30.0
  0
VERTEX
  8
OBJECT
 10
6.66296
 20
7.115551
 30
0.0
 42
0.058752
  0
VERTEX
  8
OBJECT
 10
6.687419
 20
7.172411
 30
0.0
 42
0.072341
  0
VERTEX
  8
OBJECT
 10
6.694667
 20
7.222245
 30
0.0
 42
0.083232
 70
     2
 50
90.0
  0
VERTEX
  8
OBJECT
 10
6.688561
 20
7.25867
 30
0.0
 42
0.156851
 50
90.0
  0
SEQEND
  8
OBJECT
  0
LINE
  8
OBJECT
 10
6.180248
 20
6.972245
 30
0.0
 11
6.653964
 21
7.245745
 31
0.0
  0
LINE
  8
OBJECT
 10
6.329204
 20
6.886245
 30
0.0
 11
6.586414
 21
7.034745
 31
0.0
  0
LINE
  8
OBJECT
 10
6.396754
 20
6.847245
 30
0.0
 11
6.653964
 21
6.995745
 31
0.0
  0
LINE
  8
OBJECT
 10
2.523442
 20
8.248149
 30
0.0
 11
2.523442
 21
8.326149
 31
0.0
  0
DIMENSION
  8
DIM
  2
*D17
 10
4.12219
 20
12.638528
 30
0.0
 11
4.12219
 21
13.138528
 31
0.0
 12
-0.265338
 22
0.651208
 32
0.0
 13
4.543449
 23
13.638528
 33
0.0
 14
4.543449
 24
12.638528
 34
0.0
 50
90.0
  3
23NSTDI
  0
DIMENSION
  8
DIM
  2
*D18
 10
8.574921
 20
12.263528
 30
0.0
 11
8.574921
 21
13.138528
 31
0.0
 12
-0.265338
 22
0.651208
 32
0.0
 13
8.043449
 23
14.013528
 33
0.0
 14
8.043449
 24
12.263528
 34
0.0
 50
90.0
  3
23NSTD
  0
DIMENSION
  8
DIM
  2
*D20
 10
11.015215
 20
12.513528
 30
0.0
 11
11.015215
 21
12.826028
 31
0.0
 12
-0.934474
 22
0.651208
 32
0.0
 13
10.380874
 23
13.138528
 33
0.0
 14
10.380874
 24
12.513528
 34
0.0
 50
90.0
  3
23NSTDI
  0
DIMENSION
  8
DIM
  2
*D21
 10
11.565728
 20
13.763528
 30
0.0
 11
11.565728
 21
13.451028
 31
0.0
 12
-0.934474
 22
0.651208
 32
0.0
 13
10.380874
 23
13.138528
 33
0.0
 14
10.380874
 24
13.763528
 34
0.0
 50
90.0
  3
23NSTDI
  0
DIMENSION
  8
DIM
  2
*D22
 10
12.187517
 20
14.013528
 30
0.0
 11
12.795095
 21
14.508528
 31
0.0
 12
-0.934474
 22
0.651208
 32
0.0
 13
10.380874
 23
13.763528
 33
0.0
 14
10.505874
 24
14.013528
 34
0.0
 50
90.0
  3
23NSTD
  0
DIMENSION
  8
DIM
  2
*D19
 10
9.255874
 20
14.478811
 30
0.0
 11
9.568374
 21
14.478811
 31
0.0
 12
-0.934474
 22
0.651208
 32
0.0
 13
9.880874
 23
13.888528
 33
0.0
 14
9.255874
 24
14.013528
 34
0.0
  3
23NSTDI
  0
DIMENSION
  8
DIM
  2
*D13
 10
8.688767
 20
1.401336
 30
0.0
 11
8.688767
 21
2.276336
 31
0.0
 12
0.0
 22
0.296831
 32
0.0
 13
8.264145
 23
3.151336
 33
0.0
 14
8.264145
 24
1.401336
 34
0.0
 50
90.0
  3
23NSTD
  0
DIMENSION
  8
DIM
  2
*D12
 10
4.368192
 20
1.776336
 30
0.0
 11
4.368192
 21
2.276336
 31
0.0
 12
0.0
 22
0.296831
 32
0.0
 13
4.764145
 23
2.776336
 33
0.0
 14
4.764145
 24
1.776336
 34
0.0
 50
90.0
  3
23NSTDI
  0
DIMENSION
  8
DIM
  2
*D2
 10
10.08353
 20
1.651336
 30
0.0
 11
10.08353
 21
1.963836
 31
0.0
 12
0.712642
 22
0.296831
 32
0.0
 13
10.634811
 23
2.276336
 33
0.0
 14
10.634811
 24
1.651336
 34
0.0
 50
90.0
  3
23NSTDI
  0
DIMENSION
  8
DIM
  2
*D1
 10
9.661846
 20
2.276336
 30
0.0
 11
9.661846
 21
2.588836
 31
0.0
 12
0.712642
 22
0.296831
 32
0.0
 13
10.634811
 23
2.901336
 33
0.0
 14
10.634811
 24
2.276336
 34
0.0
 50
90.0
  3
23NSTDI
  0
DIMENSION
  8
DIM
  2
*D14
 10
9.184061
 20
3.151336
 30
0.0
 11
8.659221
 21
3.646336
 31
0.0
 12
0.0
 22
0.296831
 32
0.0
 70
   128
 13
10.634811
 23
2.901336
 33
0.0
 14
10.509811
 24
3.151336
 34
0.0
 50
90.0
  3
23NSTD
  0
DIMENSION
  8
DIM
  2
*D9
 10
10.509811
 20
3.607708
 30
0.0
 11
11.134811
 21
3.607708
 31
0.0
 12
0.0
 22
0.296831
 32
0.0
 13
11.759811
 23
3.151336
 33
0.0
 14
10.509811
 24
3.151336
 34
0.0
  3
23NSTDI
  0
DIMENSION
  8
DIM
  2
*D8
 10
10.509811
 20
0.96619
 30
0.0
 11
10.822311
 21
0.96619
 31
0.0
 12
0.0
 22
0.296831
 32
0.0
 13
11.134811
 23
1.526336
 33
0.0
 14
10.509811
 24
1.401336
 34
0.0
  3
23NSTDI
  0
DIMENSION
  8
DIM
  2
*D7
 10
12.884811
 20
0.96619
 30
0.0
 11
12.009811
 21
0.96619
 31
0.0
 12
0.0
 22
0.296831
 32
0.0
 13
11.134811
 23
1.526336
 33
0.0
 14
12.884811
 24
2.151336
 34
0.0
  3
23NSTD
  0
LINE
  8
DIM
 10
9.184061
 20
3.646336
 30
0.0
 11
8.987075
 21
3.646336
 31
0.0
  0
INSERT
  8
DIM
  2
HB
 10
0.0
 20
0.0
 30
0.0
 41
1.375
 42
1.375
 43
1.375
  0
LINE
  8
TITLE
 10
0.08525
 20
10.36875
 30
0.0
 11
13.82975
 21
10.36875
 31
0.0
  0
LINE
  8
TITLE
 10
0.08525
 20
10.94375
 30
0.0
 11
13.82975
 21
10.94375
 31
0.0
  0
LINE
  8
TITLE
 10
0.08525
 20
11.02875
 30
0.0
 11
13.82975
 21
11.02875
 31
0.0
  0
LINE
  8
TITLE
 10
8.074
 20
10.94375
 30
0.0
 11
8.074
 21
10.36875
 31
0.0
  0
LINE
  8
TITLE
 10
7.04275
 20
10.94375
 30
0.0
 11
7.04275
 21
10.36875
 31
0.0
  0
LINE
  8
TITLE
 10
6.9575
 20
10.94375
 30
0.0
 11
6.9575
 21
10.36875
 31
0.0
  0
LINE
  8
TITLE
 10
1.1165
 20
10.94375
 30
0.0
 11
1.1165
 21
10.36875
 31
0.0
  0
TEXT
  8
TEXT
 10
1.148455
 20
20.001251
 30
0.0
 40
0.172
  1
%%UMATERIAL:%%U  14 GA. STEEL
 41
0.75
  7
TXT
  0
TEXT
  8
TEXT
 10
1.148455
 20
19.536486
 30
0.0
 40
0.172
  1
%%UFINISH:%%U  SMOOTH BLACK
 41
0.75
  7
TXT
  0
TEXT
  8
TEXT
 10
1.106677
 20
9.738898
 30
0.0
 40
0.172
  1
%%UMATERIAL:%%U  14 GA. STEEL
 41
0.75
  7
TXT
  0
TEXT
  8
TEXT
 10
1.106677
 20
9.274133
 30
0.0
 40
0.172
  1
%%UFINISH:%%U  SMOOTH BLACK
 41
0.75
  7
TXT
  0
TEXT
  8
TEXT
 10
7.289583
 20
10.700845
 30
0.0
 40
0.172
  1
PART
 41
0.75
  7
TXT
 72
     1
 11
7.526083
 21
10.700845
 31
0.0
  0
TEXT
  8
TEXT
 10
7.397083
 20
10.414178
 30
0.0
 40
0.172
  1
No.
 41
0.75
  7
TXT
 72
     1
 11
7.526083
 21
10.414178
 31
0.0
  0
TEXT
  8
TEXT
 10
0.375161
 20
10.414178
 30
0.0
 40
0.172
  1
NAME
 41
0.75
  7
TXT
 72
     1
 11
0.611661
 21
10.414178
 31
0.0
  0
TEXT
  8
TEXT
 10
0.375161
 20
10.700845
 30
0.0
 40
0.172
  1
PART
 41
0.75
  7
TXT
 72
     1
 11
0.611661
 21
10.700845
 31
0.0
  0
TEXT
  8
TEXT
 10
2.771342
 20
20.800266
 30
0.0
 40
0.258
  1
CABLE RING
 41
0.75
  7
TXT
 72
     1
 11
3.674342
 21
20.800266
 31
0.0
  0
TEXT
  8
TEXT
 10
10.249743
 20
20.800266
 30
0.0
 40
0.258
  1
CM-1220
 41
0.75
  7
TXT
 72
     1
 11
10.846368
 21
20.800266
 31
0.0
  0
TEXT
  8
TEXT
 10
2.771342
 20
10.516516
 30
0.0
 40
0.258
  1
CABLE RING
 41
0.75
  7
TXT
 72
     1
 11
3.674342
 21
10.516516
 31
0.0
  0
TEXT
  8
TEXT
 10
10.265868
 20
10.516516
 30
0.0
 40
0.258
  1
CM-1221
 41
0.75
  7
TXT
 72
     1
 11
10.846368
 21
10.516516
 31
0.0
  0
TEXT
  8
TEXT
 10
9.013076
 20
19.989744
 30
0.0
 40
0.172
  1
SUPPLIED WITH:
 41
0.75
  7
TXT
  0
TEXT
  8
TEXT
 10
9.205608
 20
19.711276
 30
0.0
 40
0.172
  1
QTY. (2) #10-32 x 5/8 LG. SCREWS
 41
0.75
  7
TXT
  0
TEXT
  8
TEXT
 10
9.205608
 20
19.42461
 30
0.0
 40
0.172
  1
QTY. (2) #12-24 x 1/2 LG. SCREWS
 41
0.75
  7
TXT
  0
TEXT
  8
TEXT
 10
9.205608
 20
19.137943
 30
0.0
 40
0.172
  1
QTY. (2) #12-24 HEX NUTS
 41
0.75
  7
TXT
  0
TEXT
  8
TEXT
 10
9.652348
 20
9.17487
 30
0.0
 40
0.172
  1
QTY. (2) #12-24 x 1/2 LG. SCREWS
 41
0.75
  7
TXT
  0
TEXT
  8
TEXT
 10
9.652348
 20
9.461537
 30
0.0
 40
0.172
  1
QTY. (2) #10-32 x 5/8 LG. SCREWS
 41
0.75
  7
TXT
  0
TEXT
  8
TEXT
 10
9.652348
 20
8.888203
 30
0.0
 40
0.172
  1
QTY. (2) #12-24 HEX NUTS
 41
0.75
  7
TXT
  0
TEXT
  8
TEXT
 10
9.459816
 20
9.740005
 30
0.0
 40
0.172
  1
SUPPLIED WITH:
 41
0.75
  7
TXT
  0
POLYLINE
  8
DIM
 66
     1
 10
0.0
 20
0.0
 30
0.0
 41
0.092813
  0
VERTEX
  8
DIM
 10
2.417819
 20
12.762496
 30
0.0
  0
VERTEX
  8
DIM
 10
2.525301
 20
12.539553
 30
0.0
 41
0.0
  0
VERTEX
  8
DIM
 10
2.875376
 20
11.813413
 30
0.0
 41
0.0
  0
VERTEX
  8
DIM
 10
3.122876
 20
11.813413
 30
0.0
 41
0.0
  0
SEQEND
  8
DIM
  0
TEXT
  8
DIM
 10
3.246626
 20
11.727475
 30
0.0
 40
0.171875
  1
0.250 x 0.250 CHAMFER
 41
0.75
  7
TXT
 11
3.246626
 21
11.813413
 31
0.0
 73
     2
  0
TEXT
  8
DIM
 10
3.246626
 20
11.441017
 30
0.0
 40
0.171875
  1
(4) PLACES
 41
0.75
  7
TXT
 11
3.246626
 21
11.526954
 31
0.0
 73
     2
  0
POLYLINE
  8
DIM
 66
     1
 10
0.0
 20
0.0
 30
0.0
 41
0.092813
  0
VERTEX
  8
DIM
 10
10.249755
 20
13.881915
 30
0.0
  0
VERTEX
  8
DIM
 10
10.37045
 20
14.097992
 30
0.0
 41
0.0
  0
VERTEX
  8
DIM
 10
11.033442
 20
15.284929
 30
0.0
 41
0.0
  0
VERTEX
  8
DIM
 10
11.280942
 20
15.284929
 30
0.0
 41
0.0
  0
SEQEND
  8
DIM
  0
TEXT
  8
DIM
 10
11.404692
 20
15.198992
 30
0.0
 40
0.171875
  1
0.250 x 1.000 OBLONG
 41
0.75
  7
TXT
 11
11.404692
 21
15.284929
 31
0.0
 73
     2
  0
TEXT
  8
DIM
 10
11.404692
 20
14.912533
 30
0.0
 40
0.171875
  1
(3) HOLES
 41
0.75
  7
TXT
 11
11.404692
 21
14.998471
 31
0.0
 73
     2
  0
TEXT
  8
DIM
 10
2.788218
 20
0.865284
 30
0.0
 40
0.171875
  1
0.250 x 0.250 CHAMFER
 41
0.75
  7
TXT
 11
2.788218
 21
0.951221
 31
0.0
 73
     2
  0
TEXT
  8
DIM
 10
2.788218
 20
0.578825
 30
0.0
 40
0.171875
  1
(4) PLACES
 41
0.75
  7
TXT
 11
2.788218
 21
0.664763
 31
0.0
 73
     2
  0
POLYLINE
  8
DIM
 66
     1
 10
0.0
 20
0.0
 30
0.0
 41
0.092813
  0
VERTEX
  8
DIM
 10
1.959411
 20
1.900304
 30
0.0
  0
VERTEX
  8
DIM
 10
2.066893
 20
1.677361
 30
0.0
 41
0.0
  0
VERTEX
  8
DIM
 10
2.416968
 20
0.951221
 30
0.0
 41
0.0
  0
VERTEX
  8
DIM
 10
2.664468
 20
0.951221
 30
0.0
 41
0.0
  0
SEQEND
  8
DIM
  0
POLYLINE
  8
DIM
 66
     1
 10
0.0
 20
0.0
 30
0.0
 41
0.092813
  0
VERTEX
  8
DIM
 10
13.178586
 20
2.401336
 30
0.0
  0
VERTEX
  8
DIM
 10
13.126045
 20
2.643195
 30
0.0
 41
0.0
  0
VERTEX
  8
DIM
 10
12.754772
 20
4.352261
 30
0.0
 41
0.0
  0
VERTEX
  8
DIM
 10
12.507272
 20
4.352261
 30
0.0
 41
0.0
  0
SEQEND
  8
DIM
  0
TEXT
  8
DIM
 10
10.170631
 20
4.266323
 30
0.0
 40
0.171875
  1
0.250 x 1.000 OBLONG
 41
0.75
  7
TXT
 72
     2
 11
12.383522
 21
4.352261
 31
0.0
 73
     2
  0
TEXT
  8
DIM
 10
11.352272
 20
3.979865
 30
0.0
 40
0.171875
  1
(4) HOLES
 41
0.75
  7
TXT
 72
     2
 11
12.383522
 21
4.065802
 31
0.0
 73
     2
  0
LINE
  8
CENTER
 10
9.790874
 20
13.763528
 30
0.0
 11
9.970874
 21
13.763528
 31
0.0
  0
LINE
  8
CENTER
 10
9.880874
 20
13.673528
 30
0.0
 11
9.880874
 21
13.853528
 31
0.0
  0
LINE
  8
CENTER
 10
9.880874
 20
13.048528
 30
0.0
 11
9.880874
 21
13.228528
 31
0.0
  0
LINE
  8
CENTER
 10
9.790874
 20
13.138528
 30
0.0
 11
9.970874
 21
13.138528
 31
0.0
  0
LINE
  8
CENTER
 10
9.880874
 20
12.423528
 30
0.0
 11
9.880874
 21
12.603528
 31
0.0
  0
LINE
  8
CENTER
 10
9.790874
 20
12.513528
 30
0.0
 11
9.970874
 21
12.513528
 31
0.0
  0
LINE
  8
CENTER
 10
2.64185
 20
12.513528
 30
0.0
 11
2.82185
 21
12.513528
 31
0.0
  0
LINE
  8
CENTER
 10
2.73185
 20
12.423528
 30
0.0
 11
2.73185
 21
12.603528
 31
0.0
  0
LINE
  8
CENTER
 10
2.64185
 20
13.138528
 30
0.0
 11
2.82185
 21
13.138528
 31
0.0
  0
LINE
  8
CENTER
 10
2.73185
 20
13.048528
 30
0.0
 11
2.73185
 21
13.228528
 31
0.0
  0
LINE
  8
CENTER
 10
2.73185
 20
13.673528
 30
0.0
 11
2.73185
 21
13.853528
 31
0.0
  0
LINE
  8
CENTER
 10
2.64185
 20
13.763528
 30
0.0
 11
2.82185
 21
13.763528
 31
0.0
  0
LINE
  8
CENTER
 10
11.134811
 20
2.811336
 30
0.0
 11
11.134811
 21
2.991336
 31
0.0
  0
LINE
  8
CENTER
 10
11.044811
 20
2.901336
 30
0.0
 11
11.224811
 21
2.901336
 31
0.0
  0
LINE
  8
CENTER
 10
11.044811
 20
2.276336
 30
0.0
 11
11.224811
 21
2.276336
 31
0.0
  0
LINE
  8
CENTER
 10
11.134811
 20
2.186336
 30
0.0
 11
11.134811
 21
2.366336
 31
0.0
  0
LINE
  8
CENTER
 10
11.044811
 20
1.651336
 30
0.0
 11
11.224811
 21
1.651336
 31
0.0
  0
LINE
  8
CENTER
 10
11.134811
 20
1.561336
 30
0.0
 11
11.134811
 21
1.741336
 31
0.0
  0
LINE
  8
CENTER
 10
12.794811
 20
2.276336
 30
0.0
 11
12.974811
 21
2.276336
 31
0.0
  0
LINE
  8
CENTER
 10
12.884811
 20
2.186336
 30
0.0
 11
12.884811
 21
2.366336
 31
0.0
  0
LINE
  8
CENTER
 10
3.058442
 20
2.901336
 30
0.0
 11
3.238442
 21
2.901336
 31
0.0
  0
LINE
  8
CENTER
 10
3.148442
 20
2.811336
 30
0.0
 11
3.148442
 21
2.991336
 31
0.0
  0
LINE
  8
CENTER
 10
3.148442
 20
1.561336
 30
0.0
 11
3.148442
 21
1.741336
 31
0.0
  0
LINE
  8
CENTER
 10
3.058442
 20
1.651336
 30
0.0
 11
3.238442
 21
1.651336
 31
0.0
  0
ENDSEC
  0
EOF
