  0
SECTION
  2
HEADER
  9
$ACADVER
  1
AC1009
  9
$INSBASE
 10
0.0
 20
0.0
 30
0.0
  9
$EXTMIN
 10
0.0
 20
0.0
 30
0.0
  9
$EXTMAX
 10
27.125
 20
17.71
 30
0.0
  9
$LIMMIN
 10
0.0
 20
0.0
  9
$LIMMAX
 10
75.0
 20
50.0
  9
$ORTHOMODE
 70
     1
  9
$REGENMODE
 70
     1
  9
$FILLMODE
 70
     1
  9
$QTEXTMODE
 70
     0
  9
$MIRRTEXT
 70
     0
  9
$DRAGMODE
 70
     2
  9
$LTSCALE
 40
1.0
  9
$OSMODE
 70
     0
  9
$ATTMODE
 70
     1
  9
$TEXTSIZE
 40
0.218
  9
$TRACEWID
 40
0.05
  9
$TEXTSTYLE
  7
TXT
  9
$CLAYER
  8
OBJECT
  9
$CELTYPE
  6
BYLAYER
  9
$CECOLOR
 62
   256
  9
$DIMSCALE
 40
1.75
  9
$DIMASZ
 40
0.18
  9
$DIMEXO
 40
0.063
  9
$DIMDLI
 40
0.281
  9
$DIMRND
 40
0.0
  9
$DIMDLE
 40
0.0
  9
$DIMEXE
 40
0.093
  9
$DIMTP
 40
0.0
  9
$DIMTM
 40
0.0
  9
$DIMTXT
 40
0.125
  9
$DIMCEN
 40
0.09
  9
$DIMTSZ
 40
0.0
  9
$DIMTOL
 70
     0
  9
$DIMLIM
 70
     0
  9
$DIMTIH
 70
     1
  9
$DIMTOH
 70
     1
  9
$DIMSE1
 70
     0
  9
$DIMSE2
 70
     0
  9
$DIMTAD
 70
     0
  9
$DIMZIN
 70
     0
  9
$DIMBLK
  1

  9
$DIMASO
 70
     1
  9
$DIMSHO
 70
     1
  9
$DIMPOST
  1

  9
$DIMAPOST
  1

  9
$DIMALT
 70
     0
  9
$DIMALTD
 70
     2
  9
$DIMALTF
 40
25.4
  9
$DIMLFAC
 40
1.0
  9
$DIMTOFL
 70
     0
  9
$DIMTVP
 40
0.0
  9
$DIMTIX
 70
     0
  9
$DIMSOXD
 70
     0
  9
$DIMSAH
 70
     0
  9
$DIMBLK1
  1

  9
$DIMBLK2
  1

  9
$DIMSTYLE
  2
23NSTD
  9
$DIMCLRD
 70
     0
  9
$DIMCLRE
 70
     0
  9
$DIMCLRT
 70
     0
  9
$DIMTFAC
 40
1.0
  9
$DIMGAP
 40
0.09
  9
$LUNITS
 70
     2
  9
$LUPREC
 70
     3
  9
$SKETCHINC
 40
0.1
  9
$FILLETRAD
 40
0.0
  9
$AUNITS
 70
     0
  9
$AUPREC
 70
     0
  9
$MENU
  1
acad
  9
$ELEVATION
 40
0.0
  9
$PELEVATION
 40
0.0
  9
$THICKNESS
 40
0.0
  9
$LIMCHECK
 70
     0
  9
$BLIPMODE
 70
     1
  9
$CHAMFERA
 40
0.0
  9
$CHAMFERB
 40
0.0
  9
$SKPOLY
 70
     0
  9
$TDCREATE
 40
2450186.606083680
  9
$TDUPDATE
 40
2450189.393029976
  9
$TDINDWG
 40
0.0512046296
  9
$TDUSRTIMER
 40
0.0512046296
  9
$USRTIMER
 70
     1
  9
$ANGBASE
 50
0.0
  9
$ANGDIR
 70
     0
  9
$PDMODE
 70
     0
  9
$PDSIZE
 40
0.0
  9
$PLINEWID
 40
0.0
  9
$COORDS
 70
     2
  9
$SPLFRAME
 70
     0
  9
$SPLINETYPE
 70
     6
  9
$SPLINESEGS
 70
     8
  9
$ATTDIA
 70
     0
  9
$ATTREQ
 70
     1
  9
$HANDLING
 70
     0
  9
$HANDSEED
  5
0
  9
$SURFTAB1
 70
     6
  9
$SURFTAB2
 70
     6
  9
$SURFTYPE
 70
     6
  9
$SURFU
 70
     6
  9
$SURFV
 70
     6
  9
$UCSNAME
  2

  9
$UCSORG
 10
0.0
 20
0.0
 30
0.0
  9
$UCSXDIR
 10
1.0
 20
0.0
 30
0.0
  9
$UCSYDIR
 10
0.0
 20
1.0
 30
0.0
  9
$PUCSNAME
  2

  9
$PUCSORG
 10
0.0
 20
0.0
 30
0.0
  9
$PUCSXDIR
 10
1.0
 20
0.0
 30
0.0
  9
$PUCSYDIR
 10
0.0
 20
1.0
 30
0.0
  9
$USERI1
 70
     0
  9
$USERI2
 70
     0
  9
$USERI3
 70
     0
  9
$USERI4
 70
     0
  9
$USERI5
 70
     0
  9
$USERR1
 40
0.0
  9
$USERR2
 40
0.0
  9
$USERR3
 40
0.0
  9
$USERR4
 40
0.0
  9
$USERR5
 40
0.0
  9
$WORLDVIEW
 70
     1
  9
$SHADEDGE
 70
     3
  9
$SHADEDIF
 70
    70
  9
$TILEMODE
 70
     1
  9
$MAXACTVP
 70
    16
  9
$PINSBASE
 10
0.0
 20
0.0
 30
0.0
  9
$PLIMCHECK
 70
     0
  9
$PEXTMIN
 10
1.000000E+20
 20
1.000000E+20
 30
1.000000E+20
  9
$PEXTMAX
 10
-1.000000E+20
 20
-1.000000E+20
 30
-1.000000E+20
  9
$PLIMMIN
 10
0.0
 20
0.0
  9
$PLIMMAX
 10
12.0
 20
9.0
  9
$UNITMODE
 70
     0
  9
$VISRETAIN
 70
     0
  9
$PLINEGEN
 70
     0
  9
$PSLTSCALE
 70
     1
  9
$TREEDEPTH
 70
  3020
  9
$DWGCODEPAGE
  3
ascii
  0
ENDSEC
  0
SECTION
  2
TABLES
  0
TABLE
  2
VPORT
 70
     2
  0
VPORT
  2
*ACTIVE
 70
     0
 10
0.0
 20
0.0
 11
1.0
 21
1.0
 12
13.5625
 22
9.955301
 13
0.0
 23
0.0
 14
0.5
 24
0.5
 15
0.0
 25
0.0
 16
0.0
 26
0.0
 36
1.0
 17
0.0
 27
0.0
 37
0.0
 40
19.910602
 41
1.36234
 42
50.0
 43
0.0
 44
0.0
 50
0.0
 51
0.0
 71
     0
 72
   100
 73
     1
 74
     0
 75
     0
 76
     0
 77
     0
 78
     0
  0
ENDTAB
  0
TABLE
  2
LTYPE
 70
     6
  0
LTYPE
  2
CONTINUOUS
 70
    64
  3
Solid line
 72
    65
 73
     0
 40
0.0
  0
LTYPE
  2
HIDDEN
 70
    64
  3
_ _ _ _ _ _ _ _ _ _ _ _ _ _ _ _ _ _ _ _ _ _ _
 72
    65
 73
     2
 40
0.375
 49
0.25
 49
-0.125
  0
LTYPE
  2
PHANTOM
 70
    64
  3
_____ _ _ _____ _ _ _____ _ _ _____ _ _ ____
 72
    65
 73
     6
 40
2.5
 49
1.25
 49
-0.25
 49
0.25
 49
-0.25
 49
0.25
 49
-0.25
  0
LTYPE
  2
CENTER
 70
    64
  3
____ _ ____ _ ____ _ ____ _ ____ _ ____ _ ____
 72
    65
 73
     4
 40
2.0
 49
1.25
 49
-0.25
 49
0.25
 49
-0.25
  0
LTYPE
  2
HIDDEN2
 70
     0
  3
_ _ _ _ _ _ _ _ _ _ _ _ _ _ _ _ _ _ _ _ _ _ _ _
 72
    65
 73
     2
 40
0.1875
 49
0.125
 49
-0.0625
  0
LTYPE
  2
PHANTOM2
 70
     0
  3
___ _ _ ___ _ _ ___ _ _ ___ _ _ ___ _ _ ___ _ _
 72
    65
 73
     6
 40
1.25
 49
0.625
 49
-0.125
 49
0.125
 49
-0.125
 49
0.125
 49
-0.125
  0
ENDTAB
  0
TABLE
  2
LAYER
 70
     9
  0
LAYER
  2
0
 70
    64
 62
     7
  6
CONTINUOUS
  0
LAYER
  2
OBJECT
 70
    64
 62
     7
  6
CONTINUOUS
  0
LAYER
  2
DIM
 70
    64
 62
     7
  6
CONTINUOUS
  0
LAYER
  2
HIDDEN
 70
    64
 62
     7
  6
HIDDEN
  0
LAYER
  2
BEND
 70
    64
 62
     7
  6
PHANTOM
  0
LAYER
  2
TEXT
 70
    64
 62
     7
  6
CONTINUOUS
  0
LAYER
  2
TITLE
 70
    64
 62
     7
  6
CONTINUOUS
  0
LAYER
  2
CENTER
 70
    64
 62
     7
  6
CENTER
  0
LAYER
  2
DEFPOINTS
 70
    64
 62
     7
  6
CONTINUOUS
  0
ENDTAB
  0
TABLE
  2
STYLE
 70
     2
  0
STYLE
  2
STANDARD
 70
     0
 40
0.0
 41
1.0
 50
0.0
 71
     0
 42
0.2
  3
txt
  4

  0
STYLE
  2
TXT
 70
    64
 40
0.0
 41
0.75
 50
0.0
 71
     0
 42
0.218
  3
TXT.shx
  4

  0
ENDTAB
  0
TABLE
  2
VIEW
 70
     0
  0
ENDTAB
  0
TABLE
  2
UCS
 70
     0
  0
ENDTAB
  0
TABLE
  2
APPID
 70
     1
  0
APPID
  2
ACAD
 70
    64
  0
ENDTAB
  0
TABLE
  2
DIMSTYLE
 70
     2
  0
DIMSTYLE
  2
23NSTD
 70
    64
  3

  4

  5

  6

  7

 40
1.75
 41
0.18
 42
0.063
 43
0.281
 44
0.093
 45
0.0
 46
0.0
 47
0.0
 48
0.0
140
0.125
141
0.09
142
0.0
143
25.4
144
1.0
145
0.0
146
1.0
147
0.09
 71
     0
 72
     0
 73
     1
 74
     1
 75
     0
 76
     0
 77
     0
 78
     0
170
     0
171
     2
172
     0
173
     0
174
     0
175
     0
176
     0
177
     0
178
     0
  0
DIMSTYLE
  2
23NSTDI
 70
    64
  3

  4

  5

  6

  7

 40
1.75
 41
0.18
 42
0.063
 43
0.281
 44
0.093
 45
0.0
 46
0.0
 47
0.0
 48
0.0
140
0.125
141
0.09
142
0.0
143
25.4
144
1.0
145
0.0
146
1.0
147
0.09
 71
     0
 72
     0
 73
     1
 74
     1
 75
     0
 76
     0
 77
     0
 78
     0
170
     0
171
     2
172
     0
173
     0
174
     1
175
     0
176
     0
177
     0
178
     0
  0
ENDTAB
  0
ENDSEC
  0
SECTION
  2
BLOCKS
  0
BLOCK
  8
0
  2
*D0
 70
    65
 10
0.0
 20
0.0
 30
0.0
  3
*D
  0
LINE
  8
0
  6
BYBLOCK
 62
     0
 10
1.443108
 20
22.211817
 30
0.0
 11
0.631515
 21
22.211817
 31
0.0
  0
LINE
  8
0
  6
BYBLOCK
 62
     0
 10
1.443108
 20
21.933817
 30
0.0
 11
0.631515
 21
21.933817
 31
0.0
  0
LINE
  8
0
  6
BYBLOCK
 62
     0
 10
0.794265
 20
22.526817
 30
0.0
 11
0.794265
 21
22.841817
 31
0.0
  0
LINE
  8
0
  6
BYBLOCK
 62
     0
 10
0.794265
 20
21.618817
 30
0.0
 11
0.794265
 21
21.303817
 31
0.0
  0
LINE
  8
0
  6
BYBLOCK
 62
     0
 10
0.794265
 20
21.303817
 30
0.0
 11
0.479265
 21
21.303817
 31
0.0
  0
SOLID
  8
0
  6
BYBLOCK
 62
     0
 10
0.741765
 20
22.526817
 30
0.0
 11
0.846765
 21
22.526817
 31
0.0
 12
0.794265
 22
22.211817
 32
0.0
 13
0.794265
 23
22.211817
 33
0.0
  0
SOLID
  8
0
  6
BYBLOCK
 62
     0
 10
0.741765
 20
21.618817
 30
0.0
 11
0.846765
 21
21.618817
 31
0.0
 12
0.794265
 22
21.933817
 32
0.0
 13
0.794265
 23
21.933817
 33
0.0
  0
TEXT
  8
0
  6
BYBLOCK
 62
     0
 10
-0.334485
 20
21.194442
 30
0.0
 40
0.21875
  1
 REF.
 41
0.75
  7
TXT
 72
     1
 11
-0.00636
 21
21.303817
 31
0.0
 73
     2
  0
TEXT
  8
0
  6
BYBLOCK
 62
     0
 10
-1.018078
 20
21.194442
 30
0.0
 40
0.21875
  1
0.278
 41
0.75
  7
TXT
 72
     1
 11
-0.703625
 21
21.303817
 31
0.0
 73
     2
  0
POINT
  8
DEFPOINTS
  6
BYBLOCK
 62
     0
 10
1.553358
 20
22.211817
 30
0.0
  0
POINT
  8
DEFPOINTS
  6
BYBLOCK
 62
     0
 10
1.553358
 20
21.933817
 30
0.0
  0
POINT
  8
DEFPOINTS
  6
BYBLOCK
 62
     0
 10
0.794265
 20
21.933817
 30
0.0
  0
ENDBLK
  8
0
  0
BLOCK
  8
0
  2
*D1
 70
    65
 10
0.0
 20
0.0
 30
0.0
  3
*D
  0
LINE
  8
0
  6
BYBLOCK
 62
     0
 10
21.533298
 20
8.989749
 30
0.0
 11
22.41433
 21
8.989749
 31
0.0
  0
LINE
  8
0
  6
BYBLOCK
 62
     0
 10
21.533298
 20
10.239749
 30
0.0
 11
22.41433
 21
10.239749
 31
0.0
  0
LINE
  8
0
  6
BYBLOCK
 62
     0
 10
22.25158
 20
8.674749
 30
0.0
 11
22.25158
 21
8.359749
 31
0.0
  0
LINE
  8
0
  6
BYBLOCK
 62
     0
 10
22.25158
 20
10.554749
 30
0.0
 11
22.25158
 21
10.869749
 31
0.0
  0
SOLID
  8
0
  6
BYBLOCK
 62
     0
 10
22.19908
 20
8.674749
 30
0.0
 11
22.30408
 21
8.674749
 31
0.0
 12
22.25158
 22
8.989749
 32
0.0
 13
22.25158
 23
8.989749
 33
0.0
  0
SOLID
  8
0
  6
BYBLOCK
 62
     0
 10
22.19908
 20
10.554749
 30
0.0
 11
22.30408
 21
10.554749
 31
0.0
 12
22.25158
 22
10.239749
 32
0.0
 13
22.25158
 23
10.239749
 33
0.0
  0
TEXT
  8
0
  6
BYBLOCK
 62
     0
 10
21.964471
 20
9.505374
 30
0.0
 40
0.21875
  1
1.250
 41
0.75
  7
TXT
 72
     1
 11
22.25158
 21
9.614749
 31
0.0
 73
     2
  0
POINT
  8
DEFPOINTS
  6
BYBLOCK
 62
     0
 10
21.423048
 20
8.989749
 30
0.0
  0
POINT
  8
DEFPOINTS
  6
BYBLOCK
 62
     0
 10
21.423048
 20
10.239749
 30
0.0
  0
POINT
  8
DEFPOINTS
  6
BYBLOCK
 62
     0
 10
22.25158
 20
10.239749
 30
0.0
  0
ENDBLK
  8
0
  0
BLOCK
  8
0
  2
*D2
 70
    65
 10
0.0
 20
0.0
 30
0.0
  3
*D
  0
LINE
  8
0
  6
BYBLOCK
 62
     0
 10
2.661048
 20
10.583999
 30
0.0
 11
2.661048
 21
12.584379
 31
0.0
  0
LINE
  8
0
  6
BYBLOCK
 62
     0
 10
21.661048
 20
10.583999
 30
0.0
 11
21.661048
 21
12.584379
 31
0.0
  0
LINE
  8
0
  6
BYBLOCK
 62
     0
 10
2.976048
 20
12.421629
 30
0.0
 11
11.661751
 21
12.421629
 31
0.0
  0
LINE
  8
0
  6
BYBLOCK
 62
     0
 10
21.346048
 20
12.421629
 30
0.0
 11
12.660344
 21
12.421629
 31
0.0
  0
SOLID
  8
0
  6
BYBLOCK
 62
     0
 10
2.976048
 20
12.474129
 30
0.0
 11
2.976048
 21
12.369129
 31
0.0
 12
2.661048
 22
12.421629
 32
0.0
 13
2.661048
 23
12.421629
 33
0.0
  0
SOLID
  8
0
  6
BYBLOCK
 62
     0
 10
21.346048
 20
12.474129
 30
0.0
 11
21.346048
 21
12.369129
 31
0.0
 12
21.661048
 22
12.421629
 32
0.0
 13
21.661048
 23
12.421629
 33
0.0
  0
TEXT
  8
0
  6
BYBLOCK
 62
     0
 10
11.819251
 20
12.312254
 30
0.0
 40
0.21875
  1
19.000
 41
0.75
  7
TXT
 72
     1
 11
12.161048
 21
12.421629
 31
0.0
 73
     2
  0
POINT
  8
DEFPOINTS
  6
BYBLOCK
 62
     0
 10
2.661048
 20
10.473749
 30
0.0
  0
POINT
  8
DEFPOINTS
  6
BYBLOCK
 62
     0
 10
21.661048
 20
10.473749
 30
0.0
  0
POINT
  8
DEFPOINTS
  6
BYBLOCK
 62
     0
 10
21.661048
 20
12.421629
 30
0.0
  0
ENDBLK
  8
0
  0
BLOCK
  8
0
  2
*D3
 70
    65
 10
0.0
 20
0.0
 30
0.0
  3
*D
  0
LINE
  8
0
  6
BYBLOCK
 62
     0
 10
19.661048
 20
9.724999
 30
0.0
 11
19.661048
 21
12.101704
 31
0.0
  0
LINE
  8
0
  6
BYBLOCK
 62
     0
 10
4.661048
 20
9.724999
 30
0.0
 11
4.661048
 21
12.101704
 31
0.0
  0
LINE
  8
0
  6
BYBLOCK
 62
     0
 10
19.346048
 20
11.938954
 30
0.0
 11
14.287298
 21
11.938954
 31
0.0
  0
LINE
  8
0
  6
BYBLOCK
 62
     0
 10
4.976048
 20
11.938954
 30
0.0
 11
10.034798
 21
11.938954
 31
0.0
  0
SOLID
  8
0
  6
BYBLOCK
 62
     0
 10
19.346048
 20
11.991454
 30
0.0
 11
19.346048
 21
11.886454
 31
0.0
 12
19.661048
 22
11.938954
 32
0.0
 13
19.661048
 23
11.938954
 33
0.0
  0
SOLID
  8
0
  6
BYBLOCK
 62
     0
 10
4.976048
 20
11.991454
 30
0.0
 11
4.976048
 21
11.886454
 31
0.0
 12
4.661048
 22
11.938954
 32
0.0
 13
4.661048
 23
11.938954
 33
0.0
  0
TEXT
  8
0
  6
BYBLOCK
 62
     0
 10
10.192298
 20
11.829579
 30
0.0
 40
0.21875
  1
(15) SPACES @ 1.000 = 
 41
0.75
  7
TXT
 72
     1
 11
11.791907
 21
11.938954
 31
0.0
 73
     2
  0
TEXT
  8
0
  6
BYBLOCK
 62
     0
 10
13.446204
 20
11.829579
 30
0.0
 40
0.21875
  1
15.000
 41
0.75
  7
TXT
 72
     1
 11
13.788001
 21
11.938954
 31
0.0
 73
     2
  0
POINT
  8
DEFPOINTS
  6
BYBLOCK
 62
     0
 10
19.661048
 20
9.614749
 30
0.0
  0
POINT
  8
DEFPOINTS
  6
BYBLOCK
 62
     0
 10
4.661048
 20
9.614749
 30
0.0
  0
POINT
  8
DEFPOINTS
  6
BYBLOCK
 62
     0
 10
4.661048
 20
11.938954
 30
0.0
  0
ENDBLK
  8
0
  0
BLOCK
  8
0
  2
*D4
 70
    65
 10
0.0
 20
0.0
 30
0.0
  3
*D
  0
LINE
  8
0
  6
BYBLOCK
 62
     0
 10
4.661048
 20
9.724999
 30
0.0
 11
4.661048
 21
12.101704
 31
0.0
  0
LINE
  8
0
  6
BYBLOCK
 62
     0
 10
2.661048
 20
10.583999
 30
0.0
 11
2.661048
 21
12.101704
 31
0.0
  0
LINE
  8
0
  6
BYBLOCK
 62
     0
 10
4.346048
 20
11.938954
 30
0.0
 11
4.105657
 21
11.938954
 31
0.0
  0
LINE
  8
0
  6
BYBLOCK
 62
     0
 10
2.976048
 20
11.938954
 30
0.0
 11
3.216438
 21
11.938954
 31
0.0
  0
SOLID
  8
0
  6
BYBLOCK
 62
     0
 10
4.346048
 20
11.991454
 30
0.0
 11
4.346048
 21
11.886454
 31
0.0
 12
4.661048
 22
11.938954
 32
0.0
 13
4.661048
 23
11.938954
 33
0.0
  0
SOLID
  8
0
  6
BYBLOCK
 62
     0
 10
2.976048
 20
11.991454
 30
0.0
 11
2.976048
 21
11.886454
 31
0.0
 12
2.661048
 22
11.938954
 32
0.0
 13
2.661048
 23
11.938954
 33
0.0
  0
TEXT
  8
0
  6
BYBLOCK
 62
     0
 10
3.373938
 20
11.829579
 30
0.0
 40
0.21875
  1
2.000
 41
0.75
  7
TXT
 72
     1
 11
3.661048
 21
11.938954
 31
0.0
 73
     2
  0
POINT
  8
DEFPOINTS
  6
BYBLOCK
 62
     0
 10
4.661048
 20
9.614749
 30
0.0
  0
POINT
  8
DEFPOINTS
  6
BYBLOCK
 62
     0
 10
2.661048
 20
10.473749
 30
0.0
  0
POINT
  8
DEFPOINTS
  6
BYBLOCK
 62
     0
 10
2.661048
 20
11.938954
 30
0.0
  0
ENDBLK
  8
0
  0
BLOCK
  8
0
  2
*D5
 70
    65
 10
0.0
 20
0.0
 30
0.0
  3
*D
  0
LINE
  8
0
  6
BYBLOCK
 62
     0
 10
2.989048
 20
10.439999
 30
0.0
 11
2.989048
 21
11.659144
 31
0.0
  0
LINE
  8
0
  6
BYBLOCK
 62
     0
 10
2.661048
 20
10.583999
 30
0.0
 11
2.661048
 21
11.659144
 31
0.0
  0
LINE
  8
0
  6
BYBLOCK
 62
     0
 10
3.304048
 20
11.496394
 30
0.0
 11
3.619048
 21
11.496394
 31
0.0
  0
LINE
  8
0
  6
BYBLOCK
 62
     0
 10
2.346048
 20
11.496394
 30
0.0
 11
2.031048
 21
11.496394
 31
0.0
  0
SOLID
  8
0
  6
BYBLOCK
 62
     0
 10
3.304048
 20
11.548894
 30
0.0
 11
3.304048
 21
11.443894
 31
0.0
 12
2.989048
 22
11.496394
 32
0.0
 13
2.989048
 23
11.496394
 33
0.0
  0
SOLID
  8
0
  6
BYBLOCK
 62
     0
 10
2.346048
 20
11.548894
 30
0.0
 11
2.346048
 21
11.443894
 31
0.0
 12
2.661048
 22
11.496394
 32
0.0
 13
2.661048
 23
11.496394
 33
0.0
  0
TEXT
  8
0
  6
BYBLOCK
 62
     0
 10
1.244641
 20
11.387019
 30
0.0
 40
0.21875
  1
0.328
 41
0.75
  7
TXT
 72
     1
 11
1.559094
 21
11.496394
 31
0.0
 73
     2
  0
POINT
  8
DEFPOINTS
  6
BYBLOCK
 62
     0
 10
2.989048
 20
10.329749
 30
0.0
  0
POINT
  8
DEFPOINTS
  6
BYBLOCK
 62
     0
 10
2.661048
 20
10.473749
 30
0.0
  0
POINT
  8
DEFPOINTS
  6
BYBLOCK
 62
     0
 10
2.661048
 20
11.496394
 30
0.0
  0
ENDBLK
  8
0
  0
BLOCK
  8
0
  2
*D6
 70
    65
 10
0.0
 20
0.0
 30
0.0
  3
*D
  0
LINE
  8
0
  6
BYBLOCK
 62
     0
 10
21.333048
 20
10.439999
 30
0.0
 11
21.333048
 21
11.659144
 31
0.0
  0
LINE
  8
0
  6
BYBLOCK
 62
     0
 10
21.661048
 20
10.583999
 30
0.0
 11
21.661048
 21
11.659144
 31
0.0
  0
LINE
  8
0
  6
BYBLOCK
 62
     0
 10
21.018048
 20
11.496394
 30
0.0
 11
20.703048
 21
11.496394
 31
0.0
  0
LINE
  8
0
  6
BYBLOCK
 62
     0
 10
21.976048
 20
11.496394
 30
0.0
 11
22.291048
 21
11.496394
 31
0.0
  0
SOLID
  8
0
  6
BYBLOCK
 62
     0
 10
21.018048
 20
11.548894
 30
0.0
 11
21.018048
 21
11.443894
 31
0.0
 12
21.333048
 22
11.496394
 32
0.0
 13
21.333048
 23
11.496394
 33
0.0
  0
SOLID
  8
0
  6
BYBLOCK
 62
     0
 10
21.976048
 20
11.548894
 30
0.0
 11
21.976048
 21
11.443894
 31
0.0
 12
21.661048
 22
11.496394
 32
0.0
 13
21.661048
 23
11.496394
 33
0.0
  0
TEXT
  8
0
  6
BYBLOCK
 62
     0
 10
22.448548
 20
11.387019
 30
0.0
 40
0.21875
  1
0.328
 41
0.75
  7
TXT
 72
     1
 11
22.763001
 21
11.496394
 31
0.0
 73
     2
  0
POINT
  8
DEFPOINTS
  6
BYBLOCK
 62
     0
 10
21.333048
 20
10.329749
 30
0.0
  0
POINT
  8
DEFPOINTS
  6
BYBLOCK
 62
     0
 10
21.661048
 20
10.473749
 30
0.0
  0
POINT
  8
DEFPOINTS
  6
BYBLOCK
 62
     0
 10
21.661048
 20
11.496394
 30
0.0
  0
ENDBLK
  8
0
  0
BLOCK
  8
0
  2
*D7
 70
    65
 10
0.0
 20
0.0
 30
0.0
  3
*D
  0
LINE
  8
0
  6
BYBLOCK
 62
     0
 10
21.646298
 20
10.239749
 30
0.0
 11
23.08994
 21
10.239749
 31
0.0
  0
LINE
  8
0
  6
BYBLOCK
 62
     0
 10
21.771298
 20
10.473749
 30
0.0
 11
23.08994
 21
10.473749
 31
0.0
  0
LINE
  8
0
  6
BYBLOCK
 62
     0
 10
22.92719
 20
9.924749
 30
0.0
 11
22.92719
 21
9.609749
 31
0.0
  0
LINE
  8
0
  6
BYBLOCK
 62
     0
 10
22.92719
 20
10.788749
 30
0.0
 11
22.92719
 21
11.103749
 31
0.0
  0
LINE
  8
0
  6
BYBLOCK
 62
     0
 10
22.92719
 20
11.103749
 30
0.0
 11
23.24219
 21
11.103749
 31
0.0
  0
SOLID
  8
0
  6
BYBLOCK
 62
     0
 10
22.87469
 20
9.924749
 30
0.0
 11
22.97969
 21
9.924749
 31
0.0
 12
22.92719
 22
10.239749
 32
0.0
 13
22.92719
 23
10.239749
 33
0.0
  0
SOLID
  8
0
  6
BYBLOCK
 62
     0
 10
22.87469
 20
10.788749
 30
0.0
 11
22.97969
 21
10.788749
 31
0.0
 12
22.92719
 22
10.473749
 32
0.0
 13
22.92719
 23
10.473749
 33
0.0
  0
TEXT
  8
0
  6
BYBLOCK
 62
     0
 10
23.39969
 20
10.994374
 30
0.0
 40
0.21875
  1
0.234
 41
0.75
  7
TXT
 72
     1
 11
23.714143
 21
11.103749
 31
0.0
 73
     2
  0
POINT
  8
DEFPOINTS
  6
BYBLOCK
 62
     0
 10
21.536048
 20
10.239749
 30
0.0
  0
POINT
  8
DEFPOINTS
  6
BYBLOCK
 62
     0
 10
21.661048
 20
10.473749
 30
0.0
  0
POINT
  8
DEFPOINTS
  6
BYBLOCK
 62
     0
 10
22.92719
 20
10.473749
 30
0.0
  0
ENDBLK
  8
0
  0
BLOCK
  8
0
  2
*D8
 70
    65
 10
0.0
 20
0.0
 30
0.0
  3
*D
  0
LINE
  8
0
  6
BYBLOCK
 62
     0
 10
21.771298
 20
10.473749
 30
0.0
 11
23.771475
 21
10.473749
 31
0.0
  0
LINE
  8
0
  6
BYBLOCK
 62
     0
 10
21.771298
 20
8.755749
 30
0.0
 11
23.771475
 21
8.755749
 31
0.0
  0
LINE
  8
0
  6
BYBLOCK
 62
     0
 10
23.608725
 20
10.158749
 30
0.0
 11
23.608725
 21
9.881624
 31
0.0
  0
LINE
  8
0
  6
BYBLOCK
 62
     0
 10
23.608725
 20
9.070749
 30
0.0
 11
23.608725
 21
9.347874
 31
0.0
  0
SOLID
  8
0
  6
BYBLOCK
 62
     0
 10
23.556225
 20
10.158749
 30
0.0
 11
23.661225
 21
10.158749
 31
0.0
 12
23.608725
 22
10.473749
 32
0.0
 13
23.608725
 23
10.473749
 33
0.0
  0
SOLID
  8
0
  6
BYBLOCK
 62
     0
 10
23.556225
 20
9.070749
 30
0.0
 11
23.661225
 21
9.070749
 31
0.0
 12
23.608725
 22
8.755749
 32
0.0
 13
23.608725
 23
8.755749
 33
0.0
  0
TEXT
  8
0
  6
BYBLOCK
 62
     0
 10
23.335288
 20
9.505374
 30
0.0
 40
0.21875
  1
1.718
 41
0.75
  7
TXT
 72
     1
 11
23.608725
 21
9.614749
 31
0.0
 73
     2
  0
POINT
  8
DEFPOINTS
  6
BYBLOCK
 62
     0
 10
21.661048
 20
10.473749
 30
0.0
  0
POINT
  8
DEFPOINTS
  6
BYBLOCK
 62
     0
 10
21.661048
 20
8.755749
 30
0.0
  0
POINT
  8
DEFPOINTS
  6
BYBLOCK
 62
     0
 10
23.608725
 20
8.755749
 30
0.0
  0
ENDBLK
  8
0
  0
BLOCK
  8
0
  2
*D9
 70
    65
 10
0.0
 20
0.0
 30
0.0
  3
*D
  0
LINE
  8
0
  6
BYBLOCK
 62
     0
 10
6.886605
 20
4.072822
 30
0.0
 11
7.633276
 21
4.072822
 31
0.0
  0
LINE
  8
0
  6
BYBLOCK
 62
     0
 10
6.759605
 20
5.384822
 30
0.0
 11
7.633276
 21
5.384822
 31
0.0
  0
LINE
  8
0
  6
BYBLOCK
 62
     0
 10
7.470526
 20
3.757822
 30
0.0
 11
7.470526
 21
3.442822
 31
0.0
  0
LINE
  8
0
  6
BYBLOCK
 62
     0
 10
7.470526
 20
5.699822
 30
0.0
 11
7.470526
 21
6.014822
 31
0.0
  0
SOLID
  8
0
  6
BYBLOCK
 62
     0
 10
7.418026
 20
3.757822
 30
0.0
 11
7.523026
 21
3.757822
 31
0.0
 12
7.470526
 22
4.072822
 32
0.0
 13
7.470526
 23
4.072822
 33
0.0
  0
SOLID
  8
0
  6
BYBLOCK
 62
     0
 10
7.418026
 20
5.699822
 30
0.0
 11
7.523026
 21
5.699822
 31
0.0
 12
7.470526
 22
5.384822
 32
0.0
 13
7.470526
 23
5.384822
 33
0.0
  0
TEXT
  8
0
  6
BYBLOCK
 62
     0
 10
7.197089
 20
4.619447
 30
0.0
 40
0.21875
  1
1.312
 41
0.75
  7
TXT
 72
     1
 11
7.470526
 21
4.728822
 31
0.0
 73
     2
  0
POINT
  8
DEFPOINTS
  6
BYBLOCK
 62
     0
 10
6.776355
 20
4.072822
 30
0.0
  0
POINT
  8
DEFPOINTS
  6
BYBLOCK
 62
     0
 10
6.649355
 20
5.384822
 30
0.0
  0
POINT
  8
DEFPOINTS
  6
BYBLOCK
 62
     0
 10
7.470526
 20
5.384822
 30
0.0
  0
ENDBLK
  8
0
  0
BLOCK
  8
0
  2
*D10
 70
    65
 10
0.0
 20
0.0
 30
0.0
  3
*D
  0
LINE
  8
0
  6
BYBLOCK
 62
     0
 10
6.121105
 20
4.150822
 30
0.0
 11
5.304342
 21
4.150822
 31
0.0
  0
LINE
  8
0
  6
BYBLOCK
 62
     0
 10
6.121105
 20
5.337822
 30
0.0
 11
5.304342
 21
5.337822
 31
0.0
  0
LINE
  8
0
  6
BYBLOCK
 62
     0
 10
5.467092
 20
3.835822
 30
0.0
 11
5.467092
 21
3.520822
 31
0.0
  0
LINE
  8
0
  6
BYBLOCK
 62
     0
 10
5.467092
 20
5.652822
 30
0.0
 11
5.467092
 21
5.967822
 31
0.0
  0
SOLID
  8
0
  6
BYBLOCK
 62
     0
 10
5.414592
 20
3.835822
 30
0.0
 11
5.519592
 21
3.835822
 31
0.0
 12
5.467092
 22
4.150822
 32
0.0
 13
5.467092
 23
4.150822
 33
0.0
  0
SOLID
  8
0
  6
BYBLOCK
 62
     0
 10
5.414592
 20
5.652822
 30
0.0
 11
5.519592
 21
5.652822
 31
0.0
 12
5.467092
 22
5.337822
 32
0.0
 13
5.467092
 23
5.337822
 33
0.0
  0
TEXT
  8
0
  6
BYBLOCK
 62
     0
 10
5.193654
 20
4.634947
 30
0.0
 40
0.21875
  1
1.187
 41
0.75
  7
TXT
 72
     1
 11
5.467092
 21
4.744322
 31
0.0
 73
     2
  0
POINT
  8
DEFPOINTS
  6
BYBLOCK
 62
     0
 10
6.231355
 20
4.150822
 30
0.0
  0
POINT
  8
DEFPOINTS
  6
BYBLOCK
 62
     0
 10
6.231355
 20
5.337822
 30
0.0
  0
POINT
  8
DEFPOINTS
  6
BYBLOCK
 62
     0
 10
5.467092
 20
5.337822
 30
0.0
  0
ENDBLK
  8
0
  0
BLOCK
  8
0
  2
*D11
 70
    65
 10
0.0
 20
0.0
 30
0.0
  3
*D
  0
LINE
  8
0
  6
BYBLOCK
 62
     0
 10
6.815355
 20
4.001572
 30
0.0
 11
6.815355
 21
3.079444
 31
0.0
  0
LINE
  8
0
  6
BYBLOCK
 62
     0
 10
6.065355
 20
4.001572
 30
0.0
 11
6.065355
 21
3.079444
 31
0.0
  0
LINE
  8
0
  6
BYBLOCK
 62
     0
 10
7.130355
 20
3.242194
 30
0.0
 11
7.445355
 21
3.242194
 31
0.0
  0
LINE
  8
0
  6
BYBLOCK
 62
     0
 10
5.750355
 20
3.242194
 30
0.0
 11
5.435355
 21
3.242194
 31
0.0
  0
SOLID
  8
0
  6
BYBLOCK
 62
     0
 10
7.130355
 20
3.294694
 30
0.0
 11
7.130355
 21
3.189694
 31
0.0
 12
6.815355
 22
3.242194
 32
0.0
 13
6.815355
 23
3.242194
 33
0.0
  0
SOLID
  8
0
  6
BYBLOCK
 62
     0
 10
5.750355
 20
3.294694
 30
0.0
 11
5.750355
 21
3.189694
 31
0.0
 12
6.065355
 22
3.242194
 32
0.0
 13
6.065355
 23
3.242194
 33
0.0
  0
TEXT
  8
0
  6
BYBLOCK
 62
     0
 10
6.139573
 20
3.132819
 30
0.0
 40
0.21875
  1
0.750
 41
0.75
  7
TXT
 72
     1
 11
6.440355
 21
3.242194
 31
0.0
 73
     2
  0
POINT
  8
DEFPOINTS
  6
BYBLOCK
 62
     0
 10
6.815355
 20
4.111822
 30
0.0
  0
POINT
  8
DEFPOINTS
  6
BYBLOCK
 62
     0
 10
6.065355
 20
4.111822
 30
0.0
  0
POINT
  8
DEFPOINTS
  6
BYBLOCK
 62
     0
 10
6.065355
 20
3.242194
 30
0.0
  0
ENDBLK
  8
0
  0
BLOCK
  8
0
  2
*D12
 70
    65
 10
0.0
 20
0.0
 30
0.0
  3
*D
  0
LINE
  8
0
  6
BYBLOCK
 62
     0
 10
6.200355
 20
5.417072
 30
0.0
 11
6.200355
 21
6.431302
 31
0.0
  0
LINE
  8
0
  6
BYBLOCK
 62
     0
 10
6.680355
 20
5.417072
 30
0.0
 11
6.680355
 21
6.431302
 31
0.0
  0
LINE
  8
0
  6
BYBLOCK
 62
     0
 10
5.885355
 20
6.268552
 30
0.0
 11
5.570355
 21
6.268552
 31
0.0
  0
LINE
  8
0
  6
BYBLOCK
 62
     0
 10
6.995355
 20
6.268552
 30
0.0
 11
7.310355
 21
6.268552
 31
0.0
  0
SOLID
  8
0
  6
BYBLOCK
 62
     0
 10
5.885355
 20
6.321052
 30
0.0
 11
5.885355
 21
6.216052
 31
0.0
 12
6.200355
 22
6.268552
 32
0.0
 13
6.200355
 23
6.268552
 33
0.0
  0
SOLID
  8
0
  6
BYBLOCK
 62
     0
 10
6.995355
 20
6.321052
 30
0.0
 11
6.995355
 21
6.216052
 31
0.0
 12
6.680355
 22
6.268552
 32
0.0
 13
6.680355
 23
6.268552
 33
0.0
  0
TEXT
  8
0
  6
BYBLOCK
 62
     0
 10
4.797067
 20
6.159177
 30
0.0
 40
0.21875
  1
0.480
 41
0.75
  7
TXT
 72
     1
 11
5.097848
 21
6.268552
 31
0.0
 73
     2
  0
POINT
  8
DEFPOINTS
  6
BYBLOCK
 62
     0
 10
6.200355
 20
5.306822
 30
0.0
  0
POINT
  8
DEFPOINTS
  6
BYBLOCK
 62
     0
 10
6.680355
 20
5.306822
 30
0.0
  0
POINT
  8
DEFPOINTS
  6
BYBLOCK
 62
     0
 10
6.680355
 20
6.268552
 30
0.0
  0
ENDBLK
  8
0
  0
BLOCK
  8
0
  2
*D13
 70
    65
 10
0.0
 20
0.0
 30
0.0
  3
*D
  0
LINE
  8
0
  6
BYBLOCK
 62
     0
 10
10.676896
 20
5.384822
 30
0.0
 11
11.472428
 21
5.384822
 31
0.0
  0
LINE
  8
0
  6
BYBLOCK
 62
     0
 10
10.467896
 20
3.572822
 30
0.0
 11
11.472428
 21
3.572822
 31
0.0
  0
LINE
  8
0
  6
BYBLOCK
 62
     0
 10
11.309678
 20
5.069822
 30
0.0
 11
11.309678
 21
4.745697
 31
0.0
  0
LINE
  8
0
  6
BYBLOCK
 62
     0
 10
11.309678
 20
3.887822
 30
0.0
 11
11.309678
 21
4.211947
 31
0.0
  0
SOLID
  8
0
  6
BYBLOCK
 62
     0
 10
11.257178
 20
5.069822
 30
0.0
 11
11.362178
 21
5.069822
 31
0.0
 12
11.309678
 22
5.384822
 32
0.0
 13
11.309678
 23
5.384822
 33
0.0
  0
SOLID
  8
0
  6
BYBLOCK
 62
     0
 10
11.257178
 20
3.887822
 30
0.0
 11
11.362178
 21
3.887822
 31
0.0
 12
11.309678
 22
3.572822
 32
0.0
 13
11.309678
 23
3.572822
 33
0.0
  0
TEXT
  8
0
  6
BYBLOCK
 62
     0
 10
11.03624
 20
4.369447
 30
0.0
 40
0.21875
  1
1.812
 41
0.75
  7
TXT
 72
     1
 11
11.309678
 21
4.478822
 31
0.0
 73
     2
  0
POINT
  8
DEFPOINTS
  6
BYBLOCK
 62
     0
 10
10.566646
 20
5.384822
 30
0.0
  0
POINT
  8
DEFPOINTS
  6
BYBLOCK
 62
     0
 10
10.357646
 20
3.572822
 30
0.0
  0
POINT
  8
DEFPOINTS
  6
BYBLOCK
 62
     0
 10
11.309678
 20
3.572822
 30
0.0
  0
ENDBLK
  8
0
  0
BLOCK
  8
0
  2
*D14
 70
    65
 10
0.0
 20
0.0
 30
0.0
  3
*D
  0
LINE
  8
0
  6
BYBLOCK
 62
     0
 10
8.986945
 20
5.495072
 30
0.0
 11
8.986945
 21
6.431302
 31
0.0
  0
LINE
  8
0
  6
BYBLOCK
 62
     0
 10
9.236945
 20
5.495072
 30
0.0
 11
9.236945
 21
6.431302
 31
0.0
  0
LINE
  8
0
  6
BYBLOCK
 62
     0
 10
8.671945
 20
6.268552
 30
0.0
 11
8.356945
 21
6.268552
 31
0.0
  0
LINE
  8
0
  6
BYBLOCK
 62
     0
 10
9.551945
 20
6.268552
 30
0.0
 11
9.866945
 21
6.268552
 31
0.0
  0
SOLID
  8
0
  6
BYBLOCK
 62
     0
 10
8.671945
 20
6.321052
 30
0.0
 11
8.671945
 21
6.216052
 31
0.0
 12
8.986945
 22
6.268552
 32
0.0
 13
8.986945
 23
6.268552
 33
0.0
  0
SOLID
  8
0
  6
BYBLOCK
 62
     0
 10
9.551945
 20
6.321052
 30
0.0
 11
9.551945
 21
6.216052
 31
0.0
 12
9.236945
 22
6.268552
 32
0.0
 13
9.236945
 23
6.268552
 33
0.0
  0
TEXT
  8
0
  6
BYBLOCK
 62
     0
 10
10.680695
 20
6.159177
 30
0.0
 40
0.21875
  1
 REF.
 41
0.75
  7
TXT
 72
     1
 11
11.00882
 21
6.268552
 31
0.0
 73
     2
  0
TEXT
  8
0
  6
BYBLOCK
 62
     0
 10
10.024445
 20
6.159177
 30
0.0
 40
0.21875
  1
0.250
 41
0.75
  7
TXT
 72
     1
 11
10.325226
 21
6.268552
 31
0.0
 73
     2
  0
POINT
  8
DEFPOINTS
  6
BYBLOCK
 62
     0
 10
8.986945
 20
5.384822
 30
0.0
  0
POINT
  8
DEFPOINTS
  6
BYBLOCK
 62
     0
 10
9.236945
 20
5.384822
 30
0.0
  0
POINT
  8
DEFPOINTS
  6
BYBLOCK
 62
     0
 10
9.236945
 20
6.268552
 30
0.0
  0
ENDBLK
  8
0
  0
BLOCK
  8
0
  2
*D15
 70
    65
 10
0.0
 20
0.0
 30
0.0
  3
*D
  0
LINE
  8
0
  6
BYBLOCK
 62
     0
 10
3.286048
 20
13.778362
 30
0.0
 11
3.286048
 21
14.348075
 31
0.0
  0
LINE
  8
0
  6
BYBLOCK
 62
     0
 10
2.661048
 20
13.325362
 30
0.0
 11
2.661048
 21
14.348075
 31
0.0
  0
LINE
  8
0
  6
BYBLOCK
 62
     0
 10
3.601048
 20
14.185325
 30
0.0
 11
3.916048
 21
14.185325
 31
0.0
  0
LINE
  8
0
  6
BYBLOCK
 62
     0
 10
2.346048
 20
14.185325
 30
0.0
 11
2.031048
 21
14.185325
 31
0.0
  0
SOLID
  8
0
  6
BYBLOCK
 62
     0
 10
3.601048
 20
14.237825
 30
0.0
 11
3.601048
 21
14.132825
 31
0.0
 12
3.286048
 22
14.185325
 32
0.0
 13
3.286048
 23
14.185325
 33
0.0
  0
SOLID
  8
0
  6
BYBLOCK
 62
     0
 10
2.346048
 20
14.237825
 30
0.0
 11
2.346048
 21
14.132825
 31
0.0
 12
2.661048
 22
14.185325
 32
0.0
 13
2.661048
 23
14.185325
 33
0.0
  0
TEXT
  8
0
  6
BYBLOCK
 62
     0
 10
1.244641
 20
14.07595
 30
0.0
 40
0.21875
  1
0.625
 41
0.75
  7
TXT
 72
     1
 11
1.559094
 21
14.185325
 31
0.0
 73
     2
  0
POINT
  8
DEFPOINTS
  6
BYBLOCK
 62
     0
 10
3.286048
 20
13.668112
 30
0.0
  0
POINT
  8
DEFPOINTS
  6
BYBLOCK
 62
     0
 10
2.661048
 20
13.215112
 30
0.0
  0
POINT
  8
DEFPOINTS
  6
BYBLOCK
 62
     0
 10
2.661048
 20
14.185325
 30
0.0
  0
ENDBLK
  8
0
  0
BLOCK
  8
0
  2
*D16
 70
    65
 10
0.0
 20
0.0
 30
0.0
  3
*D
  0
LINE
  8
0
  6
BYBLOCK
 62
     0
 10
21.036048
 20
13.778362
 30
0.0
 11
21.036048
 21
14.348075
 31
0.0
  0
LINE
  8
0
  6
BYBLOCK
 62
     0
 10
21.661048
 20
13.325362
 30
0.0
 11
21.661048
 21
14.348075
 31
0.0
  0
LINE
  8
0
  6
BYBLOCK
 62
     0
 10
20.721048
 20
14.185325
 30
0.0
 11
20.406048
 21
14.185325
 31
0.0
  0
LINE
  8
0
  6
BYBLOCK
 62
     0
 10
21.976048
 20
14.185325
 30
0.0
 11
22.291048
 21
14.185325
 31
0.0
  0
SOLID
  8
0
  6
BYBLOCK
 62
     0
 10
20.721048
 20
14.237825
 30
0.0
 11
20.721048
 21
14.132825
 31
0.0
 12
21.036048
 22
14.185325
 32
0.0
 13
21.036048
 23
14.185325
 33
0.0
  0
SOLID
  8
0
  6
BYBLOCK
 62
     0
 10
21.976048
 20
14.237825
 30
0.0
 11
21.976048
 21
14.132825
 31
0.0
 12
21.661048
 22
14.185325
 32
0.0
 13
21.661048
 23
14.185325
 33
0.0
  0
TEXT
  8
0
  6
BYBLOCK
 62
     0
 10
22.448548
 20
14.07595
 30
0.0
 40
0.21875
  1
0.625
 41
0.75
  7
TXT
 72
     1
 11
22.763001
 21
14.185325
 31
0.0
 73
     2
  0
POINT
  8
DEFPOINTS
  6
BYBLOCK
 62
     0
 10
21.036048
 20
13.668112
 30
0.0
  0
POINT
  8
DEFPOINTS
  6
BYBLOCK
 62
     0
 10
21.661048
 20
13.215112
 30
0.0
  0
POINT
  8
DEFPOINTS
  6
BYBLOCK
 62
     0
 10
21.661048
 20
14.185325
 30
0.0
  0
ENDBLK
  8
0
  0
BLOCK
  8
0
  2
*D17
 70
    65
 10
0.0
 20
0.0
 30
0.0
  3
*D
  0
LINE
  8
0
  6
BYBLOCK
 62
     0
 10
4.550798
 20
10.636908
 30
0.0
 11
1.413624
 21
10.636908
 31
0.0
  0
LINE
  8
0
  6
BYBLOCK
 62
     0
 10
2.550798
 20
11.495908
 30
0.0
 11
1.413624
 21
11.495908
 31
0.0
  0
LINE
  8
0
  6
BYBLOCK
 62
     0
 10
1.576374
 20
10.321908
 30
0.0
 11
1.576374
 21
10.006908
 31
0.0
  0
LINE
  8
0
  6
BYBLOCK
 62
     0
 10
1.576374
 20
11.810908
 30
0.0
 11
1.576374
 21
12.125908
 31
0.0
  0
SOLID
  8
0
  6
BYBLOCK
 62
     0
 10
1.523874
 20
10.321908
 30
0.0
 11
1.628874
 21
10.321908
 31
0.0
 12
1.576374
 22
10.636908
 32
0.0
 13
1.576374
 23
10.636908
 33
0.0
  0
SOLID
  8
0
  6
BYBLOCK
 62
     0
 10
1.523874
 20
11.810908
 30
0.0
 11
1.628874
 21
11.810908
 31
0.0
 12
1.576374
 22
11.495908
 32
0.0
 13
1.576374
 23
11.495908
 33
0.0
  0
TEXT
  8
0
  6
BYBLOCK
 62
     0
 10
1.261921
 20
10.957033
 30
0.0
 40
0.21875
  1
0.859
 41
0.75
  7
TXT
 72
     1
 11
1.576374
 21
11.066408
 31
0.0
 73
     2
  0
POINT
  8
DEFPOINTS
  6
BYBLOCK
 62
     0
 10
4.661048
 20
10.636908
 30
0.0
  0
POINT
  8
DEFPOINTS
  6
BYBLOCK
 62
     0
 10
2.661048
 20
11.495908
 30
0.0
  0
POINT
  8
DEFPOINTS
  6
BYBLOCK
 62
     0
 10
1.576374
 20
11.495908
 30
0.0
  0
ENDBLK
  8
0
  0
BLOCK
  8
0
  2
ACAD
 70
    64
 10
0.0
 20
0.0
 30
0.0
  3
ACAD
  0
ENDBLK
  8
0
  0
BLOCK
  8
0
  2
*D19
 70
    65
 10
0.0
 20
0.0
 30
0.0
  3
*D
  0
LINE
  8
0
  6
BYBLOCK
 62
     0
 10
25.181221
 20
11.606158
 30
0.0
 11
25.181221
 21
12.681303
 31
0.0
  0
LINE
  8
0
  6
BYBLOCK
 62
     0
 10
24.681221
 20
11.606158
 30
0.0
 11
24.681221
 21
12.681303
 31
0.0
  0
LINE
  8
0
  6
BYBLOCK
 62
     0
 10
25.496221
 20
12.518553
 30
0.0
 11
25.811221
 21
12.518553
 31
0.0
  0
LINE
  8
0
  6
BYBLOCK
 62
     0
 10
24.366221
 20
12.518553
 30
0.0
 11
24.051221
 21
12.518553
 31
0.0
  0
SOLID
  8
0
  6
BYBLOCK
 62
     0
 10
25.496221
 20
12.571053
 30
0.0
 11
25.496221
 21
12.466053
 31
0.0
 12
25.181221
 22
12.518553
 32
0.0
 13
25.181221
 23
12.518553
 33
0.0
  0
SOLID
  8
0
  6
BYBLOCK
 62
     0
 10
24.366221
 20
12.571053
 30
0.0
 11
24.366221
 21
12.466053
 31
0.0
 12
24.681221
 22
12.518553
 32
0.0
 13
24.681221
 23
12.518553
 33
0.0
  0
TEXT
  8
0
  6
BYBLOCK
 62
     0
 10
25.958383
 20
12.409178
 30
0.0
 40
0.21875
  1
0.500
 41
0.75
  7
TXT
 72
     1
 11
26.245492
 21
12.518553
 31
0.0
 73
     2
  0
POINT
  8
DEFPOINTS
  6
BYBLOCK
 62
     0
 10
25.181221
 20
11.495908
 30
0.0
  0
POINT
  8
DEFPOINTS
  6
BYBLOCK
 62
     0
 10
24.681221
 20
11.495908
 30
0.0
  0
POINT
  8
DEFPOINTS
  6
BYBLOCK
 62
     0
 10
24.681221
 20
12.518553
 30
0.0
  0
ENDBLK
  8
0
  0
ENDSEC
  0
SECTION
  2
ENTITIES
  0
LINE
  8
OBJECT
 10
21.661048
 20
10.118628
 30
0.0
 11
21.661048
 21
11.836628
 31
0.0
  0
LINE
  8
OBJECT
 10
21.661048
 20
11.836628
 30
0.0
 11
2.661048
 21
11.836628
 31
0.0
  0
LINE
  8
OBJECT
 10
2.661048
 20
11.836628
 30
0.0
 11
2.661048
 21
10.118628
 31
0.0
  0
DIMENSION
  8
DIM
  2
*D5
 10
2.661048
 20
12.859273
 30
0.0
 11
1.559094
 21
12.859273
 31
0.0
 12
0.0
 22
1.362879
 32
0.0
 13
2.989048
 23
11.692628
 33
0.0
 14
2.661048
 24
11.836628
 34
0.0
  3
23NSTD
  0
DIMENSION
  8
DIM
  2
*D6
 10
21.661048
 20
12.859273
 30
0.0
 11
22.763001
 21
12.859273
 31
0.0
 12
0.0
 22
1.362879
 32
0.0
 13
21.333048
 23
11.692628
 33
0.0
 14
21.661048
 24
11.836628
 34
0.0
  3
23NSTD
  0
DIMENSION
  8
DIM
  2
*D2
 10
21.661048
 20
13.784508
 30
0.0
 11
12.161048
 21
13.784508
 31
0.0
 12
0.0
 22
1.362879
 32
0.0
 13
2.661048
 23
11.836628
 33
0.0
 14
21.661048
 24
11.836628
 34
0.0
  3
23NSTD
  0
DIMENSION
  8
DIM
  2
*D1
 10
22.25158
 20
11.602628
 30
0.0
 11
22.25158
 21
10.977628
 31
0.0
 12
0.0
 22
1.362879
 32
0.0
 13
21.423048
 23
10.352628
 33
0.0
 14
21.423048
 24
11.602628
 34
0.0
 50
90.0
  3
23NSTDI
  0
DIMENSION
  8
DIM
  2
*D0
 10
2.165955
 20
10.213628
 30
0.0
 11
1.023533
 21
9.583628
 31
0.0
 12
1.37169
 22
-11.720189
 32
0.0
  1
<> REF.
 13
2.925048
 23
10.491628
 33
0.0
 14
2.925048
 24
10.213628
 34
0.0
 50
90.0
  3
23NSTD
  0
LINE
  8
HIDDEN
 10
3.286048
 20
11.789628
 30
0.0
 11
3.286048
 21
11.836628
 31
0.0
  0
LINE
  8
HIDDEN
 10
21.036048
 20
11.789628
 30
0.0
 11
21.036048
 21
11.836628
 31
0.0
  0
POLYLINE
  8
OBJECT
 66
     1
 10
0.0
 20
0.0
 30
0.0
 70
     1
  0
VERTEX
  8
OBJECT
 10
3.053048
 20
11.741628
 30
0.0
  0
VERTEX
  8
OBJECT
 10
2.925048
 20
11.741628
 30
0.0
 42
1.0
  0
VERTEX
  8
OBJECT
 10
2.925048
 20
11.463628
 30
0.0
  0
VERTEX
  8
OBJECT
 10
3.053048
 20
11.463628
 30
0.0
 42
1.0
  0
SEQEND
  8
OBJECT
  0
POLYLINE
  8
OBJECT
 66
     1
 10
0.0
 20
0.0
 30
0.0
 70
     1
  0
VERTEX
  8
OBJECT
 10
21.269048
 20
11.741628
 30
0.0
  0
VERTEX
  8
OBJECT
 10
21.397048
 20
11.741628
 30
0.0
 42
-1.0
  0
VERTEX
  8
OBJECT
 10
21.397048
 20
11.463628
 30
0.0
  0
VERTEX
  8
OBJECT
 10
21.269048
 20
11.463628
 30
0.0
 42
-1.0
  0
SEQEND
  8
OBJECT
  0
POLYLINE
  8
OBJECT
 66
     1
 10
0.0
 20
0.0
 30
0.0
 70
     1
  0
VERTEX
  8
OBJECT
 10
3.053048
 20
10.213628
 30
0.0
  0
VERTEX
  8
OBJECT
 10
2.925048
 20
10.213628
 30
0.0
 42
-1.0
  0
VERTEX
  8
OBJECT
 10
2.925048
 20
10.491628
 30
0.0
  0
VERTEX
  8
OBJECT
 10
3.053048
 20
10.491628
 30
0.0
 42
-1.0
  0
SEQEND
  8
OBJECT
  0
LINE
  8
HIDDEN
 10
3.286048
 20
10.165628
 30
0.0
 11
3.286048
 21
10.118628
 31
0.0
  0
POLYLINE
  8
OBJECT
 66
     1
 10
0.0
 20
0.0
 30
0.0
 70
     1
  0
VERTEX
  8
OBJECT
 10
21.269048
 20
10.213628
 30
0.0
  0
VERTEX
  8
OBJECT
 10
21.397048
 20
10.213628
 30
0.0
 42
1.0
  0
VERTEX
  8
OBJECT
 10
21.397048
 20
10.491628
 30
0.0
  0
VERTEX
  8
OBJECT
 10
21.269048
 20
10.491628
 30
0.0
 42
1.0
  0
SEQEND
  8
OBJECT
  0
LINE
  8
OBJECT
 10
21.661048
 20
10.118628
 30
0.0
 11
2.661048
 21
10.118628
 31
0.0
  0
LINE
  8
HIDDEN
 10
21.036048
 20
10.165628
 30
0.0
 11
21.036048
 21
10.118628
 31
0.0
  0
DIMENSION
  8
DIM
  2
*D19
 10
24.435442
 20
12.859273
 30
0.0
 11
25.999714
 21
12.859273
 31
0.0
 12
-0.245778
 22
0.34072
 32
0.0
 70
   128
 13
24.935442
 23
11.836628
 33
0.0
 14
24.435442
 24
11.836628
 34
0.0
  3
23NSTD
  0
CIRCLE
  8
OBJECT
 10
4.661048
 20
10.977628
 30
0.0
 40
0.094
  0
CIRCLE
  8
OBJECT
 10
7.661048
 20
10.977628
 30
0.0
 40
0.094
  0
CIRCLE
  8
OBJECT
 10
8.661048
 20
10.977628
 30
0.0
 40
0.094
  0
CIRCLE
  8
OBJECT
 10
9.661048
 20
10.977628
 30
0.0
 40
0.094
  0
CIRCLE
  8
OBJECT
 10
10.661048
 20
10.977628
 30
0.0
 40
0.094
  0
CIRCLE
  8
OBJECT
 10
11.661048
 20
10.977628
 30
0.0
 40
0.094
  0
CIRCLE
  8
OBJECT
 10
12.661048
 20
10.977628
 30
0.0
 40
0.094
  0
CIRCLE
  8
OBJECT
 10
13.661048
 20
10.977628
 30
0.0
 40
0.094
  0
CIRCLE
  8
OBJECT
 10
14.661048
 20
10.977628
 30
0.0
 40
0.094
  0
CIRCLE
  8
OBJECT
 10
15.661048
 20
10.977628
 30
0.0
 40
0.094
  0
CIRCLE
  8
OBJECT
 10
16.661048
 20
10.977628
 30
0.0
 40
0.094
  0
CIRCLE
  8
OBJECT
 10
19.661048
 20
10.977628
 30
0.0
 40
0.094
  0
DIMENSION
  8
DIM
  2
*D3
 10
4.661048
 20
13.301833
 30
0.0
 11
12.161048
 21
13.301833
 31
0.0
 12
0.0
 22
1.362879
 32
0.0
  1
(15) SPACES @ 1.000 = <>
 13
19.661048
 23
10.977628
 33
0.0
 14
4.661048
 24
10.977628
 34
0.0
 50
180.0
  3
23NSTD
  0
DIMENSION
  8
DIM
  2
*D4
 10
2.661048
 20
13.301833
 30
0.0
 11
3.661048
 21
13.301833
 31
0.0
 12
0.0
 22
1.362879
 32
0.0
 13
4.661048
 23
10.977628
 33
0.0
 14
2.661048
 24
11.836628
 34
0.0
 50
180.0
  3
23NSTDI
  0
CIRCLE
  8
OBJECT
 10
6.661048
 20
10.977628
 30
0.0
 40
0.094
  0
CIRCLE
  8
OBJECT
 10
17.661048
 20
10.977628
 30
0.0
 40
0.094
  0
CIRCLE
  8
OBJECT
 10
18.661048
 20
10.977628
 30
0.0
 40
0.094
  0
CIRCLE
  8
OBJECT
 10
5.661048
 20
10.977628
 30
0.0
 40
0.094
  0
LINE
  8
HIDDEN
 10
21.036048
 20
11.789628
 30
0.0
 11
3.286048
 21
11.789628
 31
0.0
  0
LINE
  8
HIDDEN
 10
21.036048
 20
10.165628
 30
0.0
 11
3.286048
 21
10.165628
 31
0.0
  0
LINE
  8
OBJECT
 10
24.935442
 20
10.118628
 30
0.0
 11
24.435442
 21
10.118628
 31
0.0
  0
LINE
  8
OBJECT
 10
24.435442
 20
10.118628
 30
0.0
 11
24.435442
 21
11.836628
 31
0.0
  0
LINE
  8
OBJECT
 10
24.435442
 20
11.836628
 30
0.0
 11
24.935442
 21
11.836628
 31
0.0
  0
LINE
  8
OBJECT
 10
24.935442
 20
11.836628
 30
0.0
 11
24.935442
 21
11.789628
 31
0.0
  0
LINE
  8
OBJECT
 10
24.935442
 20
11.789628
 30
0.0
 11
24.482442
 21
11.789628
 31
0.0
  0
LINE
  8
OBJECT
 10
24.482442
 20
11.836628
 30
0.0
 11
24.482442
 21
10.118628
 31
0.0
  0
LINE
  8
OBJECT
 10
24.482442
 20
10.165628
 30
0.0
 11
24.935442
 21
10.165628
 31
0.0
  0
LINE
  8
OBJECT
 10
24.935442
 20
10.165628
 30
0.0
 11
24.935442
 21
10.118628
 31
0.0
  0
LINE
  8
OBJECT
 10
3.974119
 20
2.312436
 30
0.0
 11
4.216619
 21
2.312436
 31
0.0
  0
LINE
  8
OBJECT
 10
4.101119
 20
2.390436
 30
0.0
 11
4.519119
 21
2.390436
 31
0.0
  0
LINE
  8
OBJECT
 10
4.216619
 20
2.219436
 30
0.0
 11
4.279119
 21
2.219436
 31
0.0
  0
LINE
  8
OBJECT
 10
4.216619
 20
2.312436
 30
0.0
 11
4.216619
 21
2.300593
 31
0.0
  0
LINE
  8
OBJECT
 10
4.403619
 20
2.312436
 30
0.0
 11
4.403619
 21
2.300593
 31
0.0
  0
LINE
  8
OBJECT
 10
4.185119
 20
2.188436
 30
0.0
 11
4.247619
 21
2.188436
 31
0.0
  0
LINE
  8
OBJECT
 10
4.060119
 20
2.216945
 30
0.0
 11
4.060119
 21
2.173732
 31
0.0
  0
LINE
  8
OBJECT
 10
4.560119
 20
2.216945
 30
0.0
 11
4.560119
 21
2.173732
 31
0.0
  0
ARC
  8
OBJECT
 10
4.310119
 20
1.937436
 30
0.0
 40
0.344
 50
43.385862
 51
136.614138
  0
ARC
  8
OBJECT
 10
4.310119
 20
1.937436
 30
0.0
 40
0.375
 50
48.189685
 51
75.561934
  0
LINE
  8
OBJECT
 10
4.403619
 20
2.268486
 30
0.0
 11
4.403619
 21
2.219436
 31
0.0
  0
LINE
  8
OBJECT
 10
4.216619
 20
2.268486
 30
0.0
 11
4.216619
 21
2.219436
 31
0.0
  0
ARC
  8
OBJECT
 10
4.310119
 20
1.937436
 30
0.0
 40
0.375
 50
104.438066
 51
131.810315
  0
LINE
  8
OBJECT
 10
4.403619
 20
2.312436
 30
0.0
 11
4.646119
 21
2.312436
 31
0.0
  0
ARC
  8
OBJECT
 10
4.310119
 20
1.890436
 30
0.0
 40
0.078
 50
188.788813
 51
351.211187
  0
LINE
  8
OBJECT
 10
4.435119
 20
2.188436
 30
0.0
 11
4.387203
 21
1.878518
 31
0.0
  0
LINE
  8
OBJECT
 10
4.185119
 20
2.188436
 30
0.0
 11
4.233035
 21
1.878518
 31
0.0
  0
LINE
  8
OBJECT
 10
4.247619
 20
2.219436
 30
0.0
 11
4.247619
 21
2.188436
 31
0.0
  0
LINE
  8
OBJECT
 10
4.372619
 20
2.219436
 30
0.0
 11
4.372619
 21
2.188436
 31
0.0
  0
LINE
  8
OBJECT
 10
4.372619
 20
2.188436
 30
0.0
 11
4.435119
 21
2.188436
 31
0.0
  0
LINE
  8
OBJECT
 10
4.341119
 20
2.219436
 30
0.0
 11
4.341119
 21
1.944213
 31
0.0
  0
LINE
  8
OBJECT
 10
4.403751
 20
2.188436
 30
0.0
 11
4.36644
 21
1.94711
 31
0.0
  0
LINE
  8
OBJECT
 10
4.341119
 20
2.219436
 30
0.0
 11
4.403619
 21
2.219436
 31
0.0
  0
ARC
  8
OBJECT
 10
4.353585
 20
1.947357
 30
0.0
 40
0.012857
 50
194.155404
 51
358.89591
  0
LINE
  8
OBJECT
 10
4.216487
 20
2.188436
 30
0.0
 11
4.253798
 21
1.94711
 31
0.0
  0
LINE
  8
OBJECT
 10
4.279119
 20
2.219436
 30
0.0
 11
4.279119
 21
1.944213
 31
0.0
  0
ARC
  8
OBJECT
 10
4.266653
 20
1.947357
 30
0.0
 40
0.012857
 50
181.10409
 51
345.844596
  0
CIRCLE
  8
OBJECT
 10
4.349119
 20
3.445436
 30
0.0
 40
0.039
  0
CIRCLE
  8
OBJECT
 10
4.271119
 20
3.445436
 30
0.0
 40
0.039
  0
ARC
  8
OBJECT
 10
4.101119
 20
3.546436
 30
0.0
 40
0.078
 50
47.909743
 51
180.0
  0
LINE
  8
OBJECT
 10
4.070119
 20
2.421436
 30
0.0
 11
4.070119
 21
3.546436
 31
0.0
  0
ARC
  8
OBJECT
 10
4.101119
 20
3.546436
 30
0.0
 40
0.031
 50
47.909743
 51
180.0
  0
LINE
  8
OBJECT
 10
4.297261
 20
3.474378
 30
0.0
 11
4.153402
 21
3.604319
 31
0.0
  0
LINE
  8
OBJECT
 10
4.237431
 20
3.465085
 30
0.0
 11
4.121898
 21
3.569441
 31
0.0
  0
LINE
  8
OBJECT
 10
4.008511
 20
2.421518
 30
0.0
 11
4.015371
 21
2.964757
 31
0.0
  0
ARC
  8
OBJECT
 10
3.974119
 20
2.351436
 30
0.0
 40
0.039
 50
90.0
 51
270.0
  0
ARC
  8
OBJECT
 10
3.970324
 20
2.429436
 30
0.0
 40
0.039
 50
270.0
 51
348.28626
  0
LINE
  8
OBJECT
 10
4.020947
 20
3.406436
 30
0.0
 11
3.935248
 21
2.354603
 31
0.0
  0
ARC
  8
OBJECT
 10
4.101119
 20
2.421436
 30
0.0
 40
0.031
 50
180.0
 51
270.0
  0
ARC
  8
OBJECT
 10
4.519119
 20
2.421436
 30
0.0
 40
0.031
 50
270.0
 51
360.0
  0
ARC
  8
OBJECT
 10
4.649914
 20
2.429436
 30
0.0
 40
0.039
 50
191.71374
 51
270.0
  0
ARC
  8
OBJECT
 10
4.646119
 20
2.351436
 30
0.0
 40
0.039
 50
270.0
 51
90.0
  0
LINE
  8
OBJECT
 10
4.550119
 20
2.421436
 30
0.0
 11
4.550119
 21
3.546436
 31
0.0
  0
LINE
  8
OBJECT
 10
4.599291
 20
3.406436
 30
0.0
 11
4.68499
 21
2.354603
 31
0.0
  0
LINE
  8
OBJECT
 10
4.611727
 20
2.421518
 30
0.0
 11
4.604867
 21
2.964757
 31
0.0
  0
ARC
  8
OBJECT
 10
4.519119
 20
3.546436
 30
0.0
 40
0.031
 50
0.0
 51
132.090257
  0
LINE
  8
OBJECT
 10
4.322977
 20
3.474378
 30
0.0
 11
4.466836
 21
3.604319
 31
0.0
  0
ARC
  8
OBJECT
 10
4.519119
 20
3.546436
 30
0.0
 40
0.078
 50
0.0
 51
132.090257
  0
LINE
  8
OBJECT
 10
4.382807
 20
3.465085
 30
0.0
 11
4.49834
 21
3.569441
 31
0.0
  0
ARC
  8
OBJECT
 10
4.589119
 20
3.000436
 30
0.0
 40
0.039
 50
293.816386
 51
67.6304
  0
LINE
  8
OBJECT
 10
4.603962
 20
3.036501
 30
0.0
 11
4.597119
 21
3.546436
 31
0.0
  0
ARC
  8
OBJECT
 10
4.031119
 20
3.000436
 30
0.0
 40
0.039
 50
112.3696
 51
246.183614
  0
LINE
  8
OBJECT
 10
4.016276
 20
3.036501
 30
0.0
 11
4.023119
 21
3.546436
 31
0.0
  0
LINE
  8
OBJECT
 10
8.389379
 20
3.036501
 30
0.0
 11
8.382536
 21
3.546436
 31
0.0
  0
LINE
  8
OBJECT
 10
7.801694
 20
3.036501
 30
0.0
 11
7.808536
 21
3.546436
 31
0.0
  0
LINE
  8
OBJECT
 10
7.806365
 20
3.406436
 30
0.0
 11
7.720665
 21
2.354603
 31
0.0
  0
LINE
  8
OBJECT
 10
7.855536
 20
2.421436
 30
0.0
 11
7.855536
 21
3.546436
 31
0.0
  0
LINE
  8
OBJECT
 10
8.335536
 20
2.421436
 30
0.0
 11
8.335536
 21
3.546436
 31
0.0
  0
LINE
  8
OBJECT
 10
8.384708
 20
3.406436
 30
0.0
 11
8.470407
 21
2.354603
 31
0.0
  0
ARC
  8
OBJECT
 10
7.816536
 20
3.000436
 30
0.0
 40
0.039
 50
112.3696
 51
246.183614
  0
LINE
  8
OBJECT
 10
8.002036
 20
2.312436
 30
0.0
 11
7.759536
 21
2.312436
 31
0.0
  0
ARC
  8
OBJECT
 10
7.755741
 20
2.429436
 30
0.0
 40
0.039
 50
270.0
 51
348.28626
  0
ARC
  8
OBJECT
 10
8.095536
 20
1.937436
 30
0.0
 40
0.375
 50
48.189685
 51
75.561934
  0
LINE
  8
OBJECT
 10
8.189036
 20
2.268486
 30
0.0
 11
8.189036
 21
2.219436
 31
0.0
  0
LINE
  8
OBJECT
 10
8.002036
 20
2.268486
 30
0.0
 11
8.002036
 21
2.219436
 31
0.0
  0
ARC
  8
OBJECT
 10
8.095536
 20
1.937436
 30
0.0
 40
0.375
 50
104.438066
 51
131.810315
  0
ARC
  8
OBJECT
 10
8.095536
 20
1.937436
 30
0.0
 40
0.344
 50
43.385862
 51
136.614138
  0
LINE
  8
OBJECT
 10
8.033036
 20
2.219436
 30
0.0
 11
8.002036
 21
2.219436
 31
0.0
  0
LINE
  8
OBJECT
 10
8.033036
 20
2.188436
 30
0.0
 11
7.970536
 21
2.188436
 31
0.0
  0
LINE
  8
OBJECT
 10
8.033036
 20
2.219436
 30
0.0
 11
8.033036
 21
2.188436
 31
0.0
  0
LINE
  8
OBJECT
 10
8.158036
 20
2.219436
 30
0.0
 11
8.158036
 21
2.188436
 31
0.0
  0
LINE
  8
OBJECT
 10
8.220536
 20
2.188436
 30
0.0
 11
8.17262
 21
1.878518
 31
0.0
  0
LINE
  8
OBJECT
 10
7.970536
 20
2.188436
 30
0.0
 11
8.018452
 21
1.878518
 31
0.0
  0
ARC
  8
OBJECT
 10
8.095536
 20
1.890436
 30
0.0
 40
0.078
 50
188.788813
 51
351.211187
  0
LINE
  8
OBJECT
 10
7.845536
 20
2.216945
 30
0.0
 11
7.845536
 21
2.173732
 31
0.0
  0
LINE
  8
OBJECT
 10
8.345536
 20
2.216945
 30
0.0
 11
8.345536
 21
2.173732
 31
0.0
  0
LINE
  8
OBJECT
 10
8.220536
 20
2.188436
 30
0.0
 11
8.158036
 21
2.188436
 31
0.0
  0
LINE
  8
OBJECT
 10
8.189036
 20
2.219436
 30
0.0
 11
8.158036
 21
2.219436
 31
0.0
  0
LINE
  8
OBJECT
 10
8.397144
 20
2.421518
 30
0.0
 11
8.390285
 21
2.964757
 31
0.0
  0
ARC
  8
OBJECT
 10
8.374536
 20
3.000436
 30
0.0
 40
0.039
 50
293.816386
 51
67.6304
  0
LINE
  8
OBJECT
 10
7.793929
 20
2.421518
 30
0.0
 11
7.800788
 21
2.964757
 31
0.0
  0
LINE
  8
OBJECT
 10
8.304536
 20
2.390436
 30
0.0
 11
7.886536
 21
2.390436
 31
0.0
  0
ARC
  8
OBJECT
 10
7.886536
 20
2.421436
 30
0.0
 40
0.031
 50
180.0
 51
270.0
  0
ARC
  8
OBJECT
 10
8.304536
 20
2.421436
 30
0.0
 40
0.031
 50
270.0
 51
360.0
  0
ARC
  8
OBJECT
 10
8.435332
 20
2.429436
 30
0.0
 40
0.039
 50
191.71374
 51
270.0
  0
ARC
  8
OBJECT
 10
8.431536
 20
2.351436
 30
0.0
 40
0.039
 50
270.0
 51
90.0
  0
LINE
  8
OBJECT
 10
8.431536
 20
2.312436
 30
0.0
 11
8.189036
 21
2.312436
 31
0.0
  0
LINE
  8
OBJECT
 10
8.002036
 20
2.312436
 30
0.0
 11
8.002036
 21
2.300593
 31
0.0
  0
LINE
  8
OBJECT
 10
8.189036
 20
2.312436
 30
0.0
 11
8.189036
 21
2.300593
 31
0.0
  0
ARC
  8
OBJECT
 10
7.759536
 20
2.351436
 30
0.0
 40
0.039
 50
90.0
 51
270.0
  0
LINE
  8
OBJECT
 10
8.022848
 20
3.465085
 30
0.0
 11
7.907316
 21
3.569441
 31
0.0
  0
ARC
  8
OBJECT
 10
7.886536
 20
3.546436
 30
0.0
 40
0.078
 50
47.909743
 51
180.0
  0
LINE
  8
OBJECT
 10
8.082678
 20
3.474378
 30
0.0
 11
7.93882
 21
3.604319
 31
0.0
  0
ARC
  8
OBJECT
 10
7.886536
 20
3.546436
 30
0.0
 40
0.031
 50
47.909743
 51
180.0
  0
ARC
  8
OBJECT
 10
8.304536
 20
3.546436
 30
0.0
 40
0.078
 50
0.0
 51
132.090257
  0
ARC
  8
OBJECT
 10
8.304536
 20
3.546436
 30
0.0
 40
0.031
 50
0.0
 51
132.090257
  0
LINE
  8
OBJECT
 10
8.168225
 20
3.465085
 30
0.0
 11
8.283757
 21
3.569441
 31
0.0
  0
LINE
  8
OBJECT
 10
8.108395
 20
3.474378
 30
0.0
 11
8.252253
 21
3.604319
 31
0.0
  0
CIRCLE
  8
OBJECT
 10
8.134536
 20
3.445436
 30
0.0
 40
0.039
  0
CIRCLE
  8
OBJECT
 10
8.056536
 20
3.445436
 30
0.0
 40
0.039
  0
LINE
  8
OBJECT
 10
6.151122
 20
3.624436
 30
0.0
 11
6.151122
 21
2.173732
 31
0.0
  0
LINE
  8
OBJECT
 10
6.401122
 20
3.624436
 30
0.0
 11
6.401122
 21
2.173732
 31
0.0
  0
LINE
  8
OBJECT
 10
6.151122
 20
3.624436
 30
0.0
 11
6.401122
 21
3.624436
 31
0.0
  0
LINE
  8
OBJECT
 10
6.151122
 20
2.312436
 30
0.0
 11
6.401122
 21
2.312436
 31
0.0
  0
LINE
  8
OBJECT
 10
6.151122
 20
2.390436
 30
0.0
 11
6.245122
 21
2.390436
 31
0.0
  0
LINE
  8
OBJECT
 10
6.276122
 20
1.812436
 30
0.0
 11
6.276122
 21
2.173732
 31
0.0
  0
LINE
  8
OBJECT
 10
6.245122
 20
2.390436
 30
0.0
 11
6.245122
 21
2.964757
 31
0.0
  0
LINE
  8
OBJECT
 10
6.307122
 20
2.390436
 30
0.0
 11
6.307122
 21
2.964757
 31
0.0
  0
LINE
  8
OBJECT
 10
6.245122
 20
3.406436
 30
0.0
 11
6.307122
 21
3.406436
 31
0.0
  0
LINE
  8
OBJECT
 10
6.151122
 20
3.036501
 30
0.0
 11
6.245122
 21
3.036501
 31
0.0
  0
LINE
  8
OBJECT
 10
6.151122
 20
2.964757
 30
0.0
 11
6.245122
 21
2.964757
 31
0.0
  0
LINE
  8
OBJECT
 10
6.307122
 20
3.036501
 30
0.0
 11
6.307122
 21
3.406436
 31
0.0
  0
LINE
  8
OBJECT
 10
6.245122
 20
3.036501
 30
0.0
 11
6.245122
 21
3.406436
 31
0.0
  0
LINE
  8
OBJECT
 10
6.307122
 20
3.036501
 30
0.0
 11
6.401122
 21
3.036501
 31
0.0
  0
LINE
  8
OBJECT
 10
6.307122
 20
2.964757
 30
0.0
 11
6.401122
 21
2.964757
 31
0.0
  0
ARC
  8
OBJECT
 10
6.20973
 20
3.000629
 30
0.0
 40
0.050393
 50
314.614229
 51
45.385771
  0
ARC
  8
OBJECT
 10
6.342514
 20
3.000629
 30
0.0
 40
0.050393
 50
134.614229
 51
225.385771
  0
LINE
  8
OBJECT
 10
6.307122
 20
2.390436
 30
0.0
 11
6.401122
 21
2.390436
 31
0.0
  0
LINE
  8
OBJECT
 10
6.151122
 20
2.421518
 30
0.0
 11
6.245122
 21
2.421518
 31
0.0
  0
LINE
  8
OBJECT
 10
6.307122
 20
2.421518
 30
0.0
 11
6.401122
 21
2.421518
 31
0.0
  0
LINE
  8
OBJECT
 10
6.369622
 20
2.173732
 30
0.0
 11
6.369622
 21
1.896754
 31
0.0
  0
ARC
  8
OBJECT
 10
6.276122
 20
1.906436
 30
0.0
 40
0.094
 50
270.0
 51
5.912231
  0
LINE
  8
OBJECT
 10
6.401122
 20
2.173732
 30
0.0
 11
6.151122
 21
2.173732
 31
0.0
  0
LINE
  8
OBJECT
 10
6.401122
 20
2.216945
 30
0.0
 11
6.151122
 21
2.216945
 31
0.0
  0
LINE
  8
OBJECT
 10
6.401122
 20
2.300593
 30
0.0
 11
6.151122
 21
2.300593
 31
0.0
  0
LINE
  8
OBJECT
 10
6.247194
 20
2.173732
 30
0.0
 11
6.276122
 21
1.968436
 31
0.0
  0
LINE
  8
OBJECT
 10
6.182622
 20
2.173732
 30
0.0
 11
6.182622
 21
2.063436
 31
0.0
  0
LINE
  8
OBJECT
 10
4.279119
 20
2.063436
 30
0.0
 11
4.341119
 21
2.063436
 31
0.0
  0
LINE
  8
OBJECT
 10
6.182622
 20
2.063436
 30
0.0
 11
6.276122
 21
1.934501
 31
0.0
  0
DIMENSION
  8
DIM
  2
*D12
 10
4.550119
 20
4.508166
 30
0.0
 11
2.967613
 21
4.508166
 31
0.0
 12
-2.130236
 22
-1.760385
 32
0.0
 70
   128
 13
4.070119
 23
3.546436
 33
0.0
 14
4.550119
 24
3.546436
 34
0.0
  3
23NSTD
  0
DIMENSION
  8
DIM
  2
*D10
 10
3.336856
 20
3.577436
 30
0.0
 11
3.336856
 21
2.983936
 31
0.0
 12
-2.130236
 22
-1.760385
 32
0.0
 13
4.101119
 23
2.390436
 33
0.0
 14
4.101119
 24
3.577436
 34
0.0
 50
90.0
  3
23NSTDI
  0
DIMENSION
  8
DIM
  2
*D9
 10
5.340291
 20
3.624436
 30
0.0
 11
5.340291
 21
2.968436
 31
0.0
 12
-2.130236
 22
-1.760385
 32
0.0
  1
<>
 13
4.646119
 23
2.312436
 33
0.0
 14
4.519119
 24
3.624436
 34
0.0
 50
90.0
  3
23NSTDI
  0
DIMENSION
  8
DIM
  2
*D14
 10
6.401122
 20
4.508166
 30
0.0
 11
7.844872
 21
4.508166
 31
0.0
 12
-2.835823
 22
-1.760385
 32
0.0
  1
<> REF.
 13
6.151122
 23
3.624436
 33
0.0
 14
6.401122
 24
3.624436
 34
0.0
  3
23NSTD
  0
DIMENSION
  8
DIM
  2
*D13
 10
9.047569
 20
1.812436
 30
0.0
 11
9.047569
 21
2.718436
 31
0.0
 12
-2.262109
 22
-1.760385
 32
0.0
  1
<>
 13
8.304536
 23
3.624436
 33
0.0
 14
8.095536
 24
1.812436
 34
0.0
 50
90.0
  3
23NSTD
  0
DIMENSION
  8
DIM
  2
*D11
 10
3.935119
 20
1.481808
 30
0.0
 11
4.310119
 21
1.481808
 31
0.0
 12
-2.130236
 22
-1.760385
 32
0.0
  1
<>
 13
4.685119
 23
2.351436
 33
0.0
 14
3.935119
 24
2.351436
 34
0.0
  3
23NSTDI
  0
DIMENSION
  8
DIM
  2
*D8
 10
23.608725
 20
10.118628
 30
0.0
 11
23.608725
 21
10.977628
 31
0.0
 12
0.0
 22
1.362879
 32
0.0
 13
21.661048
 23
11.836628
 33
0.0
 14
21.661048
 24
10.118628
 34
0.0
 50
90.0
  3
23NSTDI
  0
LINE
  8
TITLE
 10
27.0165
 20
17.6015
 30
0.0
 11
27.0165
 21
0.1085
 31
0.0
  0
LINE
  8
TITLE
 10
0.1085
 20
17.6015
 30
0.0
 11
27.0165
 21
17.6015
 31
0.0
  0
LINE
  8
TITLE
 10
0.1085
 20
0.1085
 30
0.0
 11
0.1085
 21
17.6015
 31
0.0
  0
LINE
  8
TITLE
 10
27.0165
 20
0.1085
 30
0.0
 11
0.1085
 21
0.1085
 31
0.0
  0
LINE
  8
TITLE
 10
27.125
 20
0.0
 30
0.0
 11
0.0
 21
0.0
 31
0.0
  0
LINE
  8
TITLE
 10
27.125
 20
17.71
 30
0.0
 11
27.125
 21
0.0
 31
0.0
  0
LINE
  8
TITLE
 10
0.0
 20
17.71
 30
0.0
 11
27.125
 21
17.71
 31
0.0
  0
LINE
  8
TITLE
 10
0.0
 20
0.0
 30
0.0
 11
0.0
 21
17.71
 31
0.0
  0
LINE
  8
TITLE
 10
1.460522
 20
16.87
 30
0.0
 11
1.460522
 21
17.6015
 31
0.0
  0
TEXT
  8
TEXT
 10
0.50349
 20
16.940139
 30
0.0
 40
0.21875
  1
NAME
 41
0.75
  7
TXT
 72
     1
 11
0.804272
 21
16.940139
 31
0.0
  0
TEXT
  8
TEXT
 10
0.50349
 20
17.304722
 30
0.0
 40
0.21875
  1
PART
 41
0.75
  7
TXT
 72
     1
 11
0.804272
 21
17.304722
 31
0.0
  0
LINE
  8
TITLE
 10
14.9835
 20
17.6015
 30
0.0
 11
14.9835
 21
16.87
 31
0.0
  0
TEXT
  8
TEXT
 10
14.163188
 20
16.940139
 30
0.0
 40
0.21875
  1
No.
 41
0.75
  7
TXT
 72
     1
 11
14.32725
 21
16.940139
 31
0.0
  0
LINE
  8
TITLE
 10
13.5625
 20
17.6015
 30
0.0
 11
13.5625
 21
16.87
 31
0.0
  0
LINE
  8
TITLE
 10
13.671
 20
17.6015
 30
0.0
 11
13.671
 21
16.87
 31
0.0
  0
TEXT
  8
TEXT
 10
14.026469
 20
17.304722
 30
0.0
 40
0.21875
  1
PART
 41
0.75
  7
TXT
 72
     1
 11
14.32725
 21
17.304722
 31
0.0
  0
LINE
  8
TITLE
 10
0.1085
 20
16.87
 30
0.0
 11
27.0165
 21
16.87
 31
0.0
  0
DIMENSION
  8
DIM
  2
*D7
 10
22.92719
 20
11.836628
 30
0.0
 11
23.714143
 21
12.466628
 31
0.0
 12
0.0
 22
1.362879
 32
0.0
 13
21.536048
 23
11.602628
 33
0.0
 14
21.661048
 24
11.836628
 34
0.0
 50
90.0
  3
23NSTD
  0
LINE
  8
OBJECT
 10
2.661048
 20
14.530991
 30
0.0
 11
2.661048
 21
14.577991
 31
0.0
  0
LINE
  8
OBJECT
 10
2.661048
 20
14.530991
 30
0.0
 11
21.661048
 21
14.530991
 31
0.0
  0
LINE
  8
OBJECT
 10
3.286048
 20
15.030991
 30
0.0
 11
21.036048
 21
15.030991
 31
0.0
  0
LINE
  8
OBJECT
 10
2.661048
 20
14.577991
 30
0.0
 11
3.286048
 21
14.577991
 31
0.0
  0
LINE
  8
OBJECT
 10
3.286048
 20
14.530991
 30
0.0
 11
3.286048
 21
15.030991
 31
0.0
  0
LINE
  8
OBJECT
 10
21.661048
 20
14.530991
 30
0.0
 11
21.661048
 21
14.577991
 31
0.0
  0
LINE
  8
OBJECT
 10
21.036048
 20
14.530991
 30
0.0
 11
21.036048
 21
15.030991
 31
0.0
  0
LINE
  8
HIDDEN
 10
3.402573
 20
14.577991
 30
0.0
 11
20.954097
 21
14.577991
 31
0.0
  0
LINE
  8
OBJECT
 10
21.036048
 20
14.577991
 30
0.0
 11
21.661048
 21
14.577991
 31
0.0
  0
DIMENSION
  8
DIM
  2
*D15
 10
2.661048
 20
15.548204
 30
0.0
 11
1.559094
 21
15.548204
 31
0.0
 12
0.0
 22
1.362879
 32
0.0
 13
3.286048
 23
15.030991
 33
0.0
 14
2.661048
 24
14.577991
 34
0.0
  3
23NSTD
  0
DIMENSION
  8
DIM
  2
*D16
 10
21.661048
 20
15.548204
 30
0.0
 11
22.763001
 21
15.548204
 31
0.0
 12
0.0
 22
1.362879
 32
0.0
 13
21.036048
 23
15.030991
 33
0.0
 14
21.661048
 24
14.577991
 34
0.0
  3
23NSTD
  0
DIMENSION
  8
DIM
  2
*D17
 10
1.576374
 20
11.836628
 30
0.0
 11
1.576374
 21
11.407128
 31
0.0
 12
0.0
 22
0.34072
 32
0.0
 13
4.661048
 23
10.977628
 33
0.0
 14
2.661048
 24
11.836628
 34
0.0
 50
90.0
  3
23NSTDI
  0
POLYLINE
  8
DIM
 66
     1
 10
0.0
 20
0.0
 30
0.0
 41
0.118125
  0
VERTEX
  8
DIM
 10
19.719611
 20
10.904101
 30
0.0
  0
VERTEX
  8
DIM
 10
19.864578
 20
10.624441
 30
0.0
 41
0.0
  0
VERTEX
  8
DIM
 10
20.492867
 20
9.412384
 30
0.0
 41
0.0
  0
VERTEX
  8
DIM
 10
20.807867
 20
9.412384
 30
0.0
 41
0.0
  0
SEQEND
  8
DIM
  0
TEXT
  8
DIM
 10
20.965367
 20
9.303009
 30
0.0
 40
0.21875
  1
0.188 DIA.
 41
0.75
  7
TXT
 11
20.965367
 21
9.412384
 31
0.0
 73
     2
  0
TEXT
  8
DIM
 10
20.965367
 20
8.938425
 30
0.0
 40
0.21875
  1
(16) HOLES
 41
0.75
  7
TXT
 11
20.965367
 21
9.0478
 31
0.0
 73
     2
  0
POLYLINE
  8
DIM
 66
     1
 10
0.0
 20
0.0
 30
0.0
 41
0.118125
  0
VERTEX
  8
DIM
 10
3.095941
 20
10.220412
 30
0.0
  0
VERTEX
  8
DIM
 10
3.235091
 20
9.937812
 30
0.0
 41
0.0
  0
VERTEX
  8
DIM
 10
3.507788
 20
9.38399
 30
0.0
 41
0.0
  0
VERTEX
  8
DIM
 10
3.822788
 20
9.38399
 30
0.0
 41
0.0
  0
SEQEND
  8
DIM
  0
TEXT
  8
DIM
 10
3.980288
 20
9.274615
 30
0.0
 40
0.21875
  1
0.278 x 0.406 OBLONG
 41
0.75
  7
TXT
 11
3.980288
 21
9.38399
 31
0.0
 73
     2
  0
TEXT
  8
DIM
 10
3.980288
 20
8.910032
 30
0.0
 40
0.21875
  1
(4) HOLES
 41
0.75
  7
TXT
 11
3.980288
 21
9.019407
 31
0.0
 73
     2
  0
LINE
  8
OBJECT
 10
15.675245
 20
2.740348
 30
0.0
 11
15.675245
 21
1.022348
 31
0.0
  0
LINE
  8
OBJECT
 10
15.675245
 20
2.740348
 30
0.0
 11
23.949896
 21
7.51772
 31
0.0
  0
LINE
  8
OBJECT
 10
15.675245
 20
1.022348
 30
0.0
 11
17.786182
 21
2.241098
 31
0.0
  0
INSERT
  8
0
  2
ACAD
 10
29.718841
 20
29.00637
 30
0.0
  0
LINE
  8
OBJECT
 10
15.634542
 20
2.763848
 30
0.0
 11
15.634542
 21
1.045848
 31
0.0
  0
LINE
  8
OBJECT
 10
15.634542
 20
2.763848
 30
0.0
 11
15.675245
 21
2.740348
 31
0.0
  0
LINE
  8
OBJECT
 10
15.634542
 20
1.045848
 30
0.0
 11
15.675245
 21
1.022348
 31
0.0
  0
LINE
  8
OBJECT
 10
15.634542
 20
2.763848
 30
0.0
 11
16.175807
 21
3.076348
 31
0.0
  0
LINE
  8
OBJECT
 10
15.783498
 20
3.302848
 30
0.0
 11
23.383354
 21
7.690627
 31
0.0
  0
LINE
  8
OBJECT
 10
15.783498
 20
3.302848
 30
0.0
 11
16.175807
 21
3.076348
 31
0.0
  0
LINE
  8
OBJECT
 10
15.783498
 20
3.255848
 30
0.0
 11
16.135104
 21
3.052848
 31
0.0
  0
LINE
  8
OBJECT
 10
15.783498
 20
3.302848
 30
0.0
 11
15.783498
 21
3.255848
 31
0.0
  0
POLYLINE
  8
OBJECT
 66
     1
 10
0.0
 20
0.0
 30
0.0
  0
VERTEX
  8
OBJECT
 10
15.974024
 20
2.586848
 30
0.0
 42
0.072341
 70
     2
 50
30.0
  0
VERTEX
  8
OBJECT
 10
16.017985
 20
2.621536
 30
0.0
 42
0.058752
 50
30.0
  0
VERTEX
  8
OBJECT
 10
16.059143
 20
2.676704
 30
0.0
 42
0.058752
  0
VERTEX
  8
OBJECT
 10
16.086341
 20
2.739932
 30
0.0
 42
0.072341
  0
VERTEX
  8
OBJECT
 10
16.094401
 20
2.795348
 30
0.0
 42
0.106617
 70
     2
 50
90.0
  0
VERTEX
  8
OBJECT
 10
16.083358
 20
2.846548
 30
0.0
 42
0.053037
 50
90.0
  0
VERTEX
  8
OBJECT
 10
16.077049
 20
2.857294
 30
0.0
 42
0.156851
  0
SEQEND
  8
OBJECT
  0
POLYLINE
  8
OBJECT
 66
     1
 10
0.0
 20
0.0
 30
0.0
  0
VERTEX
  8
OBJECT
 10
16.014727
 20
2.563348
 30
0.0
 42
0.072341
 70
     2
 50
30.0
  0
VERTEX
  8
OBJECT
 10
16.058689
 20
2.598036
 30
0.0
 42
0.058752
 50
30.0
  0
VERTEX
  8
OBJECT
 10
16.099847
 20
2.653204
 30
0.0
 42
0.058752
  0
VERTEX
  8
OBJECT
 10
16.127044
 20
2.716432
 30
0.0
 42
0.072341
  0
VERTEX
  8
OBJECT
 10
16.135104
 20
2.771848
 30
0.0
 42
0.106617
 70
     2
 50
90.0
  0
VERTEX
  8
OBJECT
 10
16.124061
 20
2.823048
 30
0.0
 42
0.156851
 50
90.0
  0
VERTEX
  8
OBJECT
 10
16.099847
 20
2.84978
 30
0.0
 42
0.156851
  0
VERTEX
  8
OBJECT
 10
16.064589
 20
2.857385
 30
0.0
 42
0.106617
  0
VERTEX
  8
OBJECT
 10
16.014727
 20
2.841348
 30
0.0
 42
0.072341
 70
     2
 50
210.0
  0
SEQEND
  8
OBJECT
  0
LINE
  8
OBJECT
 10
15.903876
 20
2.777348
 30
0.0
 11
16.014727
 21
2.841348
 31
0.0
  0
LINE
  8
OBJECT
 10
15.903876
 20
2.499348
 30
0.0
 11
16.014727
 21
2.563348
 31
0.0
  0
LINE
  8
OBJECT
 10
15.863172
 20
2.522848
 30
0.0
 11
15.974024
 21
2.586848
 31
0.0
  0
POLYLINE
  8
OBJECT
 66
     1
 10
0.0
 20
0.0
 30
0.0
  0
VERTEX
  8
OBJECT
 10
15.80085
 20
2.506902
 30
0.0
 42
0.053037
  0
VERTEX
  8
OBJECT
 10
15.81331
 20
2.506812
 30
0.0
 42
0.106617
  0
VERTEX
  8
OBJECT
 10
15.863172
 20
2.522848
 30
0.0
 42
0.072341
 70
     2
 50
30.0
  0
SEQEND
  8
OBJECT
  0
POLYLINE
  8
OBJECT
 66
     1
 10
0.0
 20
0.0
 30
0.0
  0
VERTEX
  8
OBJECT
 10
15.903876
 20
2.777348
 30
0.0
 42
0.072341
 70
     2
 50
210.0
  0
VERTEX
  8
OBJECT
 10
15.859914
 20
2.74266
 30
0.0
 42
0.058752
 50
210.0
  0
VERTEX
  8
OBJECT
 10
15.818756
 20
2.687492
 30
0.0
 42
0.058752
  0
SEQEND
  8
OBJECT
  0
POLYLINE
  8
OBJECT
 66
     1
 10
0.0
 20
0.0
 30
0.0
  0
VERTEX
  8
OBJECT
 10
15.818756
 20
2.687492
 30
0.0
 42
0.058752
  0
VERTEX
  8
OBJECT
 10
15.791558
 20
2.624264
 30
0.0
 42
0.072341
  0
VERTEX
  8
OBJECT
 10
15.783498
 20
2.568848
 30
0.0
 42
0.106617
 70
     2
 50
270.0
  0
VERTEX
  8
OBJECT
 10
15.794541
 20
2.517648
 30
0.0
 42
0.156851
 50
270.0
  0
VERTEX
  8
OBJECT
 10
15.818756
 20
2.490916
 30
0.0
 42
0.156851
  0
VERTEX
  8
OBJECT
 10
15.854013
 20
2.483312
 30
0.0
 42
0.106617
  0
VERTEX
  8
OBJECT
 10
15.903876
 20
2.499348
 30
0.0
 42
0.072341
 70
     2
 50
30.0
  0
SEQEND
  8
OBJECT
  0
LINE
  8
OBJECT
 10
15.903876
 20
1.249348
 30
0.0
 11
16.014727
 21
1.313348
 31
0.0
  0
LINE
  8
OBJECT
 10
15.903876
 20
1.527348
 30
0.0
 11
16.014727
 21
1.591348
 31
0.0
  0
POLYLINE
  8
OBJECT
 66
     1
 10
0.0
 20
0.0
 30
0.0
  0
VERTEX
  8
OBJECT
 10
15.974024
 20
1.336848
 30
0.0
 42
0.072341
 70
     2
 50
30.0
  0
VERTEX
  8
OBJECT
 10
16.017985
 20
1.371536
 30
0.0
 42
0.058752
 50
30.0
  0
VERTEX
  8
OBJECT
 10
16.059143
 20
1.426704
 30
0.0
 42
0.058752
  0
VERTEX
  8
OBJECT
 10
16.086341
 20
1.489932
 30
0.0
 42
0.072341
  0
VERTEX
  8
OBJECT
 10
16.094401
 20
1.545348
 30
0.0
 42
0.106617
 70
     2
 50
90.0
  0
VERTEX
  8
OBJECT
 10
16.083358
 20
1.596548
 30
0.0
 42
0.053037
 50
90.0
  0
VERTEX
  8
OBJECT
 10
16.077049
 20
1.607294
 30
0.0
 42
0.156851
  0
SEQEND
  8
OBJECT
  0
POLYLINE
  8
OBJECT
 66
     1
 10
0.0
 20
0.0
 30
0.0
  0
VERTEX
  8
OBJECT
 10
15.818756
 20
1.437492
 30
0.0
 42
0.058752
  0
VERTEX
  8
OBJECT
 10
15.791558
 20
1.374264
 30
0.0
 42
0.072341
  0
VERTEX
  8
OBJECT
 10
15.783498
 20
1.318848
 30
0.0
 42
0.106617
 70
     2
 50
270.0
  0
VERTEX
  8
OBJECT
 10
15.794541
 20
1.267648
 30
0.0
 42
0.156851
 50
270.0
  0
VERTEX
  8
OBJECT
 10
15.818756
 20
1.240916
 30
0.0
 42
0.156851
  0
VERTEX
  8
OBJECT
 10
15.854013
 20
1.233312
 30
0.0
 42
0.106617
  0
VERTEX
  8
OBJECT
 10
15.903876
 20
1.249348
 30
0.0
 42
0.072341
 70
     2
 50
30.0
  0
SEQEND
  8
OBJECT
  0
POLYLINE
  8
OBJECT
 66
     1
 10
0.0
 20
0.0
 30
0.0
  0
VERTEX
  8
OBJECT
 10
15.903876
 20
1.527348
 30
0.0
 42
0.072341
 70
     2
 50
210.0
  0
VERTEX
  8
OBJECT
 10
15.859914
 20
1.49266
 30
0.0
 42
0.058752
 50
210.0
  0
VERTEX
  8
OBJECT
 10
15.818756
 20
1.437492
 30
0.0
 42
0.058752
  0
SEQEND
  8
OBJECT
  0
POLYLINE
  8
OBJECT
 66
     1
 10
0.0
 20
0.0
 30
0.0
  0
VERTEX
  8
OBJECT
 10
15.80085
 20
1.256902
 30
0.0
 42
0.053037
  0
VERTEX
  8
OBJECT
 10
15.81331
 20
1.256812
 30
0.0
 42
0.106617
  0
VERTEX
  8
OBJECT
 10
15.863172
 20
1.272848
 30
0.0
 42
0.072341
 70
     2
 50
30.0
  0
SEQEND
  8
OBJECT
  0
LINE
  8
OBJECT
 10
15.863172
 20
1.272848
 30
0.0
 11
15.974024
 21
1.336848
 31
0.0
  0
POLYLINE
  8
OBJECT
 66
     1
 10
0.0
 20
0.0
 30
0.0
  0
VERTEX
  8
OBJECT
 10
16.014727
 20
1.313348
 30
0.0
 42
0.072341
 70
     2
 50
30.0
  0
VERTEX
  8
OBJECT
 10
16.058689
 20
1.348036
 30
0.0
 42
0.058752
 50
30.0
  0
VERTEX
  8
OBJECT
 10
16.099847
 20
1.403204
 30
0.0
 42
0.058752
  0
VERTEX
  8
OBJECT
 10
16.127044
 20
1.466432
 30
0.0
 42
0.072341
  0
VERTEX
  8
OBJECT
 10
16.135104
 20
1.521848
 30
0.0
 42
0.106617
 70
     2
 50
90.0
  0
VERTEX
  8
OBJECT
 10
16.124061
 20
1.573048
 30
0.0
 42
0.156851
 50
90.0
  0
VERTEX
  8
OBJECT
 10
16.099847
 20
1.59978
 30
0.0
 42
0.156851
  0
VERTEX
  8
OBJECT
 10
16.064589
 20
1.607385
 30
0.0
 42
0.106617
  0
VERTEX
  8
OBJECT
 10
16.014727
 20
1.591348
 30
0.0
 42
0.072341
 70
     2
 50
210.0
  0
SEQEND
  8
OBJECT
  0
LINE
  8
OBJECT
 10
19.910975
 20
4.639348
 30
0.0
 11
20.099769
 21
4.748348
 31
0.0
  0
LINE
  8
OBJECT
 10
21.290554
 20
4.060848
 30
0.0
 11
20.099769
 21
4.748348
 31
0.0
  0
LINE
  8
OBJECT
 10
21.10176
 20
3.951848
 30
0.0
 11
20.993507
 21
3.701848
 31
0.0
  0
LINE
  8
OBJECT
 10
20.993507
 20
3.701848
 30
0.0
 11
21.1823
 21
3.810848
 31
0.0
  0
LINE
  8
OBJECT
 10
21.026243
 20
3.588448
 30
0.0
 11
20.099769
 21
4.123348
 31
0.0
  0
LINE
  8
OBJECT
 10
19.910975
 20
4.639348
 30
0.0
 11
21.10176
 21
3.951848
 31
0.0
  0
LINE
  8
OBJECT
 10
19.910975
 20
4.014348
 30
0.0
 11
20.099769
 21
4.123348
 31
0.0
  0
LINE
  8
OBJECT
 10
20.099769
 20
4.530348
 30
0.0
 11
20.099769
 21
4.123348
 31
0.0
  0
LINE
  8
OBJECT
 10
19.910975
 20
4.014348
 30
0.0
 11
19.910975
 21
4.639348
 31
0.0
  0
LINE
  8
OBJECT
 10
21.1823
 20
3.810848
 30
0.0
 11
21.290554
 21
3.435848
 31
0.0
  0
LINE
  8
OBJECT
 10
21.1823
 20
3.810848
 30
0.0
 11
21.290554
 21
4.060848
 31
0.0
  0
LINE
  8
OBJECT
 10
21.10176
 20
3.951848
 30
0.0
 11
21.290554
 21
4.060848
 31
0.0
  0
LINE
  8
OBJECT
 10
20.993507
 20
3.701848
 30
0.0
 11
21.10176
 21
3.326848
 31
0.0
  0
LINE
  8
OBJECT
 10
19.910975
 20
4.014348
 30
0.0
 11
21.10176
 21
3.326848
 31
0.0
  0
LINE
  8
OBJECT
 10
21.10176
 20
3.326848
 30
0.0
 11
21.290554
 21
3.435848
 31
0.0
  0
LINE
  8
OBJECT
 10
20.777
 20
5.139348
 30
0.0
 11
20.965794
 21
5.248348
 31
0.0
  0
LINE
  8
OBJECT
 10
22.156579
 20
4.560848
 30
0.0
 11
20.965794
 21
5.248348
 31
0.0
  0
LINE
  8
OBJECT
 10
21.967785
 20
4.451848
 30
0.0
 11
21.859532
 21
4.201848
 31
0.0
  0
LINE
  8
OBJECT
 10
21.859532
 20
4.201848
 30
0.0
 11
22.048326
 21
4.310848
 31
0.0
  0
LINE
  8
OBJECT
 10
21.859532
 20
4.201848
 30
0.0
 11
21.967785
 21
3.826848
 31
0.0
  0
LINE
  8
OBJECT
 10
20.777
 20
4.514348
 30
0.0
 11
21.967785
 21
3.826848
 31
0.0
  0
LINE
  8
OBJECT
 10
21.892268
 20
4.088448
 30
0.0
 11
20.965794
 21
4.623348
 31
0.0
  0
LINE
  8
OBJECT
 10
20.777
 20
5.139348
 30
0.0
 11
21.967785
 21
4.451848
 31
0.0
  0
LINE
  8
OBJECT
 10
20.777
 20
4.514348
 30
0.0
 11
20.965794
 21
4.623348
 31
0.0
  0
LINE
  8
OBJECT
 10
20.965794
 20
5.030348
 30
0.0
 11
20.965794
 21
4.623348
 31
0.0
  0
LINE
  8
OBJECT
 10
20.777
 20
4.514348
 30
0.0
 11
20.777
 21
5.139348
 31
0.0
  0
LINE
  8
OBJECT
 10
22.048326
 20
4.310848
 30
0.0
 11
22.156579
 21
3.935848
 31
0.0
  0
LINE
  8
OBJECT
 10
21.967785
 20
3.826848
 30
0.0
 11
22.156579
 21
3.935848
 31
0.0
  0
LINE
  8
OBJECT
 10
22.048326
 20
4.310848
 30
0.0
 11
22.156579
 21
4.560848
 31
0.0
  0
LINE
  8
OBJECT
 10
21.967785
 20
4.451848
 30
0.0
 11
22.156579
 21
4.560848
 31
0.0
  0
LINE
  8
OBJECT
 10
21.980343
 20
4.662598
 30
0.0
 11
22.982334
 21
5.241098
 31
0.0
  0
LINE
  8
OBJECT
 10
21.439077
 20
4.350098
 30
0.0
 11
21.791549
 21
4.553598
 31
0.0
  0
LINE
  8
OBJECT
 10
21.114317
 20
4.162598
 30
0.0
 11
21.250283
 21
4.241098
 31
0.0
  0
LINE
  8
OBJECT
 10
20.573051
 20
3.850098
 30
0.0
 11
20.925524
 21
4.053598
 31
0.0
  0
LINE
  8
OBJECT
 10
19.382267
 20
3.162598
 30
0.0
 11
20.384258
 21
3.741098
 31
0.0
  0
LINE
  8
OBJECT
 10
18.503684
 20
2.451848
 30
0.0
 11
18.395431
 21
2.201848
 31
0.0
  0
LINE
  8
OBJECT
 10
18.395431
 20
2.201848
 30
0.0
 11
18.584224
 21
2.310848
 31
0.0
  0
LINE
  8
OBJECT
 10
18.395431
 20
2.201848
 30
0.0
 11
18.503684
 21
1.826848
 31
0.0
  0
LINE
  8
OBJECT
 10
17.312899
 20
2.514348
 30
0.0
 11
18.503684
 21
1.826848
 31
0.0
  0
LINE
  8
OBJECT
 10
18.428166
 20
2.088448
 30
0.0
 11
17.501692
 21
2.623348
 31
0.0
  0
LINE
  8
OBJECT
 10
18.584224
 20
2.310848
 30
0.0
 11
18.692477
 21
1.935848
 31
0.0
  0
LINE
  8
OBJECT
 10
18.503684
 20
1.826848
 30
0.0
 11
18.692477
 21
1.935848
 31
0.0
  0
LINE
  8
OBJECT
 10
18.584224
 20
2.310848
 30
0.0
 11
18.692477
 21
2.560848
 31
0.0
  0
LINE
  8
OBJECT
 10
18.178924
 20
3.014348
 30
0.0
 11
19.369709
 21
2.326848
 31
0.0
  0
LINE
  8
OBJECT
 10
19.294192
 20
2.588448
 30
0.0
 11
18.367718
 21
3.123348
 31
0.0
  0
LINE
  8
OBJECT
 10
19.369709
 20
2.951848
 30
0.0
 11
19.261456
 21
2.701848
 31
0.0
  0
LINE
  8
OBJECT
 10
19.369709
 20
2.326848
 30
0.0
 11
19.558503
 21
2.435848
 31
0.0
  0
LINE
  8
OBJECT
 10
19.261456
 20
2.701848
 30
0.0
 11
19.369709
 21
2.326848
 31
0.0
  0
LINE
  8
OBJECT
 10
19.45025
 20
2.810848
 30
0.0
 11
19.558503
 21
2.435848
 31
0.0
  0
LINE
  8
OBJECT
 10
19.261456
 20
2.701848
 30
0.0
 11
19.45025
 21
2.810848
 31
0.0
  0
LINE
  8
OBJECT
 10
19.45025
 20
2.810848
 30
0.0
 11
19.558503
 21
3.060848
 31
0.0
  0
LINE
  8
OBJECT
 10
18.178924
 20
3.639348
 30
0.0
 11
19.369709
 21
2.951848
 31
0.0
  0
LINE
  8
OBJECT
 10
19.369709
 20
2.951848
 30
0.0
 11
19.558503
 21
3.060848
 31
0.0
  0
LINE
  8
OBJECT
 10
19.558503
 20
3.060848
 30
0.0
 11
18.367718
 21
3.748348
 31
0.0
  0
LINE
  8
OBJECT
 10
18.178924
 20
3.014348
 30
0.0
 11
18.178924
 21
3.639348
 31
0.0
  0
LINE
  8
OBJECT
 10
18.367718
 20
3.530348
 30
0.0
 11
18.367718
 21
3.123348
 31
0.0
  0
LINE
  8
OBJECT
 10
17.501692
 20
3.030348
 30
0.0
 11
17.501692
 21
2.623348
 31
0.0
  0
LINE
  8
OBJECT
 10
17.312899
 20
2.514348
 30
0.0
 11
17.312899
 21
3.139348
 31
0.0
  0
LINE
  8
OBJECT
 10
17.312899
 20
2.514348
 30
0.0
 11
17.501692
 21
2.623348
 31
0.0
  0
LINE
  8
OBJECT
 10
17.312899
 20
3.139348
 30
0.0
 11
17.501692
 21
3.248348
 31
0.0
  0
LINE
  8
OBJECT
 10
18.178924
 20
3.014348
 30
0.0
 11
18.367718
 21
3.123348
 31
0.0
  0
LINE
  8
OBJECT
 10
18.178924
 20
3.639348
 30
0.0
 11
18.367718
 21
3.748348
 31
0.0
  0
LINE
  8
OBJECT
 10
17.312899
 20
3.139348
 30
0.0
 11
18.503684
 21
2.451848
 31
0.0
  0
LINE
  8
OBJECT
 10
18.692477
 20
2.560848
 30
0.0
 11
17.501692
 21
3.248348
 31
0.0
  0
LINE
  8
OBJECT
 10
18.503684
 20
2.451848
 30
0.0
 11
18.692477
 21
2.560848
 31
0.0
  0
LINE
  8
OBJECT
 10
17.974975
 20
2.350098
 30
0.0
 11
18.327448
 21
2.553598
 31
0.0
  0
LINE
  8
OBJECT
 10
18.516241
 20
2.662598
 30
0.0
 11
18.652207
 21
2.741098
 31
0.0
  0
LINE
  8
OBJECT
 10
18.841001
 20
2.850098
 30
0.0
 11
19.193473
 21
3.053598
 31
0.0
  0
POLYLINE
  8
OBJECT
 66
     1
 10
0.0
 20
0.0
 30
0.0
 70
     1
  0
VERTEX
  8
OBJECT
 10
19.081783
 20
3.914582
 30
0.0
 42
0.058752
  0
VERTEX
  8
OBJECT
 10
19.063391
 20
3.871824
 30
0.0
 42
0.072341
  0
VERTEX
  8
OBJECT
 10
19.05794
 20
3.834348
 30
0.0
 42
0.106617
 70
     2
 50
270.0
  0
VERTEX
  8
OBJECT
 10
19.065408
 20
3.799724
 30
0.0
 42
0.156851
 50
270.0
  0
VERTEX
  8
OBJECT
 10
19.081783
 20
3.781646
 30
0.0
 42
0.156851
  0
VERTEX
  8
OBJECT
 10
19.105627
 20
3.776503
 30
0.0
 42
0.106617
  0
VERTEX
  8
OBJECT
 10
19.139346
 20
3.787348
 30
0.0
 42
0.072341
 70
     2
 50
30.0
  0
VERTEX
  8
OBJECT
 10
19.169076
 20
3.810806
 30
0.0
 42
0.058752
 50
30.0
  0
VERTEX
  8
OBJECT
 10
19.196909
 20
3.848114
 30
0.0
 42
0.058752
  0
VERTEX
  8
OBJECT
 10
19.215302
 20
3.890873
 30
0.0
 42
0.072341
  0
VERTEX
  8
OBJECT
 10
19.220753
 20
3.928348
 30
0.0
 42
0.106617
 70
     2
 50
90.0
  0
VERTEX
  8
OBJECT
 10
19.213285
 20
3.962973
 30
0.0
 42
0.156851
 50
90.0
  0
VERTEX
  8
OBJECT
 10
19.196909
 20
3.98105
 30
0.0
 42
0.156851
  0
VERTEX
  8
OBJECT
 10
19.173066
 20
3.986193
 30
0.0
 42
0.106617
  0
VERTEX
  8
OBJECT
 10
19.139346
 20
3.975348
 30
0.0
 42
0.072341
 70
     2
 50
210.0
  0
VERTEX
  8
OBJECT
 10
19.109617
 20
3.95189
 30
0.0
 42
0.058752
 50
210.0
  0
SEQEND
  8
OBJECT
  0
POLYLINE
  8
OBJECT
 66
     1
 10
0.0
 20
0.0
 30
0.0
  0
VERTEX
  8
OBJECT
 10
19.065267
 20
3.800038
 30
0.0
 42
0.10558
  0
VERTEX
  8
OBJECT
 10
19.098643
 20
3.810848
 30
0.0
 42
0.072341
 70
     2
 50
30.0
  0
VERTEX
  8
OBJECT
 10
19.128373
 20
3.834306
 30
0.0
 42
0.058752
 50
30.0
  0
VERTEX
  8
OBJECT
 10
19.156206
 20
3.871614
 30
0.0
 42
0.058752
  0
VERTEX
  8
OBJECT
 10
19.174599
 20
3.914373
 30
0.0
 42
0.072341
  0
VERTEX
  8
OBJECT
 10
19.18005
 20
3.951848
 30
0.0
 42
0.10558
 70
     2
 50
90.0
  0
VERTEX
  8
OBJECT
 10
19.172723
 20
3.986158
 30
0.0
 42
0.156851
 50
90.0
  0
SEQEND
  8
OBJECT
  0
LINE
  8
OBJECT
 10
23.5236
 20
4.928598
 30
0.0
 11
22.332815
 21
5.616098
 31
0.0
  0
LINE
  8
OBJECT
 10
22.332815
 20
5.834098
 30
0.0
 11
23.5236
 21
5.146598
 31
0.0
  0
LINE
  8
OBJECT
 10
24.064866
 20
5.459098
 30
0.0
 11
24.064866
 21
5.241098
 31
0.0
  0
LINE
  8
OBJECT
 10
23.5236
 20
5.146598
 30
0.0
 11
23.68598
 21
5.365348
 31
0.0
  0
LINE
  8
OBJECT
 10
23.68598
 20
5.365348
 30
0.0
 11
23.68598
 21
5.147348
 31
0.0
  0
LINE
  8
OBJECT
 10
23.68598
 20
5.147348
 30
0.0
 11
23.5236
 21
4.928598
 31
0.0
  0
LINE
  8
OBJECT
 10
23.5236
 20
5.146598
 30
0.0
 11
23.5236
 21
4.928598
 31
0.0
  0
LINE
  8
OBJECT
 10
23.68598
 20
5.147348
 30
0.0
 11
24.064866
 21
5.241098
 31
0.0
  0
LINE
  8
OBJECT
 10
23.800555
 20
5.393698
 30
0.0
 11
22.874081
 21
5.928598
 31
0.0
  0
LINE
  8
OBJECT
 10
22.874081
 20
6.146598
 30
0.0
 11
24.064866
 21
5.459098
 31
0.0
  0
LINE
  8
OBJECT
 10
23.68598
 20
5.365348
 30
0.0
 11
24.064866
 21
5.459098
 31
0.0
  0
LINE
  8
OBJECT
 10
22.521609
 20
5.725098
 30
0.0
 11
22.874081
 21
5.928598
 31
0.0
  0
LINE
  8
OBJECT
 10
22.874081
 20
6.146598
 30
0.0
 11
22.874081
 21
5.928598
 31
0.0
  0
LINE
  8
OBJECT
 10
22.874081
 20
6.146598
 30
0.0
 11
22.332815
 21
5.834098
 31
0.0
  0
LINE
  8
OBJECT
 10
22.332815
 20
5.834098
 30
0.0
 11
22.332815
 21
5.616098
 31
0.0
  0
POLYLINE
  8
OBJECT
 66
     1
 10
0.0
 20
0.0
 30
0.0
 70
     1
  0
VERTEX
  8
OBJECT
 10
21.67986
 20
5.414582
 30
0.0
 42
0.058752
  0
VERTEX
  8
OBJECT
 10
21.661467
 20
5.371824
 30
0.0
 42
0.072341
  0
VERTEX
  8
OBJECT
 10
21.656016
 20
5.334348
 30
0.0
 42
0.106617
 70
     2
 50
270.0
  0
VERTEX
  8
OBJECT
 10
21.663484
 20
5.299724
 30
0.0
 42
0.156851
 50
270.0
  0
VERTEX
  8
OBJECT
 10
21.67986
 20
5.281646
 30
0.0
 42
0.156851
  0
VERTEX
  8
OBJECT
 10
21.703703
 20
5.276503
 30
0.0
 42
0.106617
  0
VERTEX
  8
OBJECT
 10
21.737423
 20
5.287348
 30
0.0
 42
0.072341
 70
     2
 50
30.0
  0
VERTEX
  8
OBJECT
 10
21.767152
 20
5.310806
 30
0.0
 42
0.058752
 50
30.0
  0
VERTEX
  8
OBJECT
 10
21.794986
 20
5.348114
 30
0.0
 42
0.058752
  0
VERTEX
  8
OBJECT
 10
21.813378
 20
5.390873
 30
0.0
 42
0.072341
  0
VERTEX
  8
OBJECT
 10
21.818829
 20
5.428348
 30
0.0
 42
0.106617
 70
     2
 50
90.0
  0
VERTEX
  8
OBJECT
 10
21.811361
 20
5.462973
 30
0.0
 42
0.156851
 50
90.0
  0
VERTEX
  8
OBJECT
 10
21.794986
 20
5.48105
 30
0.0
 42
0.156851
  0
VERTEX
  8
OBJECT
 10
21.771142
 20
5.486193
 30
0.0
 42
0.106617
  0
VERTEX
  8
OBJECT
 10
21.737423
 20
5.475348
 30
0.0
 42
0.072341
 70
     2
 50
210.0
  0
VERTEX
  8
OBJECT
 10
21.707693
 20
5.45189
 30
0.0
 42
0.058752
 50
210.0
  0
SEQEND
  8
OBJECT
  0
POLYLINE
  8
OBJECT
 66
     1
 10
0.0
 20
0.0
 30
0.0
  0
VERTEX
  8
OBJECT
 10
21.663343
 20
5.300038
 30
0.0
 42
0.10558
  0
VERTEX
  8
OBJECT
 10
21.696719
 20
5.310848
 30
0.0
 42
0.072341
 70
     2
 50
30.0
  0
VERTEX
  8
OBJECT
 10
21.726449
 20
5.334306
 30
0.0
 42
0.058752
 50
30.0
  0
VERTEX
  8
OBJECT
 10
21.754282
 20
5.371614
 30
0.0
 42
0.058752
  0
VERTEX
  8
OBJECT
 10
21.772675
 20
5.414373
 30
0.0
 42
0.072341
  0
VERTEX
  8
OBJECT
 10
21.778126
 20
5.451848
 30
0.0
 42
0.10558
 70
     2
 50
90.0
  0
VERTEX
  8
OBJECT
 10
21.770799
 20
5.486158
 30
0.0
 42
0.156851
 50
90.0
  0
SEQEND
  8
OBJECT
  0
LINE
  8
OBJECT
 10
23.171128
 20
5.350098
 30
0.0
 11
23.5236
 21
5.553598
 31
0.0
  0
LINE
  8
OBJECT
 10
23.712394
 20
5.662598
 30
0.0
 11
23.84836
 21
5.741098
 31
0.0
  0
LINE
  8
OBJECT
 10
23.375077
 20
6.639348
 30
0.0
 11
24.565862
 21
5.951848
 31
0.0
  0
LINE
  8
OBJECT
 10
24.754655
 20
6.060848
 30
0.0
 11
23.56387
 21
6.748348
 31
0.0
  0
LINE
  8
OBJECT
 10
23.375077
 20
6.014348
 30
0.0
 11
24.565862
 21
5.326848
 31
0.0
  0
LINE
  8
OBJECT
 10
24.490344
 20
5.588448
 30
0.0
 11
23.56387
 21
6.123348
 31
0.0
  0
LINE
  8
OBJECT
 10
23.56387
 20
6.530348
 30
0.0
 11
23.56387
 21
6.123348
 31
0.0
  0
LINE
  8
OBJECT
 10
23.375077
 20
6.014348
 30
0.0
 11
23.375077
 21
6.639348
 31
0.0
  0
LINE
  8
OBJECT
 10
23.375077
 20
6.014348
 30
0.0
 11
23.56387
 21
6.123348
 31
0.0
  0
LINE
  8
OBJECT
 10
23.375077
 20
6.639348
 30
0.0
 11
23.56387
 21
6.748348
 31
0.0
  0
LINE
  8
OBJECT
 10
24.646402
 20
5.810848
 30
0.0
 11
24.754655
 21
6.060848
 31
0.0
  0
LINE
  8
OBJECT
 10
24.565862
 20
5.951848
 30
0.0
 11
24.754655
 21
6.060848
 31
0.0
  0
LINE
  8
OBJECT
 10
24.565862
 20
5.326848
 30
0.0
 11
24.754655
 21
5.435848
 31
0.0
  0
LINE
  8
OBJECT
 10
24.457608
 20
5.701848
 30
0.0
 11
24.565862
 21
5.326848
 31
0.0
  0
LINE
  8
OBJECT
 10
24.565862
 20
5.951848
 30
0.0
 11
24.457608
 21
5.701848
 31
0.0
  0
LINE
  8
OBJECT
 10
24.646402
 20
5.810848
 30
0.0
 11
24.754655
 21
5.435848
 31
0.0
  0
LINE
  8
OBJECT
 10
24.457608
 20
5.701848
 30
0.0
 11
24.646402
 21
5.810848
 31
0.0
  0
LINE
  8
OBJECT
 10
24.037153
 20
5.850098
 30
0.0
 11
24.133535
 21
5.905744
 31
0.0
  0
POLYLINE
  8
OBJECT
 66
     1
 10
0.0
 20
0.0
 30
0.0
  0
VERTEX
  8
OBJECT
 10
23.383354
 20
7.690627
 30
0.0
  0
VERTEX
  8
OBJECT
 10
23.685538
 20
7.64341
 30
0.0
  0
VERTEX
  8
OBJECT
 10
23.949896
 20
7.51772
 30
0.0
  0
VERTEX
  8
OBJECT
 10
23.937346
 20
7.099367
 30
0.0
  0
VERTEX
  8
OBJECT
 10
24.067312
 20
6.807046
 30
0.0
  0
VERTEX
  8
OBJECT
 10
24.037126
 20
6.475114
 30
0.0
  0
SEQEND
  8
OBJECT
  0
POLYLINE
  8
OBJECT
 66
     1
 10
0.0
 20
0.0
 30
0.0
  0
VERTEX
  8
OBJECT
 10
24.05315
 20
6.247862
 30
0.0
  0
VERTEX
  8
OBJECT
 10
24.133535
 20
5.905744
 30
0.0
  0
SEQEND
  8
OBJECT
  0
TEXT
  8
TEXT
 10
5.411958
 20
0.780816
 30
0.0
 40
0.218
  1
%%UCABLE CLIP
 41
0.75
  7
TXT
 72
     1
 11
6.177683
 21
0.780816
 31
0.0
  0
TEXT
  8
TEXT
 10
4.396631
 20
17.050185
 30
0.0
 40
0.328
  1
CABLE MANAGEMENT PANEL  1U
 41
0.75
  7
TXT
 72
     1
 11
7.512631
 21
17.050185
 31
0.0
  0
TEXT
  8
TEXT
 10
20.65117
 20
17.050185
 30
0.0
 40
0.328
  1
CM-1225
 41
0.75
  7
TXT
 72
     1
 11
21.43017
 21
17.050185
 31
0.0
  0
TEXT
  8
TEXT
 10
2.627291
 20
7.566818
 30
0.0
 40
0.218
  1
%%uMATERIAL:
 41
0.75
  7
TXT
  0
TEXT
  8
TEXT
 10
2.627291
 20
6.246288
 30
0.0
 40
0.218
  1
%%UFINISH:
 41
0.75
  7
TXT
  0
TEXT
  8
TEXT
 10
10.296139
 20
7.566818
 30
0.0
 40
0.218
  1
SUPPLIED WITH:
 41
0.75
  7
TXT
  0
TEXT
  8
TEXT
 10
10.58017
 20
7.203485
 30
0.0
 40
0.218
  1
QTY. (4) #10-32 x 5/8 LG. SCREWS
 41
0.75
  7
TXT
  0
TEXT
  8
TEXT
 10
10.58017
 20
6.840151
 30
0.0
 40
0.218
  1
QTY. (4) #12-24 x 1/2 LG. SCREWS
 41
0.75
  7
TXT
  0
TEXT
  8
TEXT
 10
10.58017
 20
6.476818
 30
0.0
 40
0.218
  1
QTY. (12) CABLE CLIPS (PKG. #CM-1229)
 41
0.75
  7
TXT
  0
TEXT
  8
TEXT
 10
2.977051
 20
7.213876
 30
0.0
 40
0.218
  1
PANEL
 41
0.75
  7
TXT
  0
TEXT
  8
TEXT
 10
2.977051
 20
6.850543
 30
0.0
 40
0.218
  1
CABLE CLIPS
 41
0.75
  7
TXT
  0
TEXT
  8
TEXT
 10
2.977051
 20
5.893346
 30
0.0
 40
0.218
  1
PANEL
 41
0.75
  7
TXT
  0
TEXT
  8
TEXT
 10
2.977051
 20
5.530013
 30
0.0
 40
0.218
  1
CABLE CLIPS
 41
0.75
  7
TXT
  0
TEXT
  8
TEXT
 10
5.87808
 20
7.228923
 30
0.0
 40
0.218
  1
18 GA. STEEL
 41
0.75
  7
TXT
 72
     2
 11
7.62208
 21
7.228923
 31
0.0
  0
TEXT
  8
TEXT
 10
6.85908
 20
6.86559
 30
0.0
 40
0.218
  1
NYLON
 41
0.75
  7
TXT
 72
     2
 11
7.62208
 21
6.86559
 31
0.0
  0
TEXT
  8
TEXT
 10
5.71458
 20
5.905289
 30
0.0
 40
0.218
  1
SMOOTH BLACK
 41
0.75
  7
TXT
 72
     2
 11
7.62208
 21
5.905289
 31
0.0
  0
TEXT
  8
TEXT
 10
6.85908
 20
5.541956
 30
0.0
 40
0.218
  1
WHITE
 41
0.75
  7
TXT
 72
     2
 11
7.62208
 21
5.541956
 31
0.0
  0
LINE
  8
TEXT
 10
3.846395
 20
7.220152
 30
0.0
 11
5.789705
 21
7.220152
 31
0.0
  0
LINE
  8
TEXT
 10
3.846395
 20
5.895626
 30
0.0
 11
5.63267
 21
5.895626
 31
0.0
  0
LINE
  8
TEXT
 10
4.747042
 20
6.847323
 30
0.0
 11
6.731916
 21
6.847323
 31
0.0
  0
LINE
  8
TEXT
 10
4.747042
 20
5.532608
 30
0.0
 11
6.76136
 21
5.532608
 31
0.0
  0
ENDSEC
  0
EOF
