  0
SECTION
  2
HEADER
  9
$ACADVER
  1
AC1009
  9
$INSBASE
 10
0.0
 20
0.0
 30
0.0
  9
$EXTMIN
 10
7.276392
 20
3.585591
 30
0.0
  9
$EXTMAX
 10
34.401392
 20
21.295591
 30
0.0
  9
$LIMMIN
 10
0.0
 20
0.0
  9
$LIMMAX
 10
75.0
 20
50.0
  9
$ORTHOMODE
 70
     1
  9
$REGENMODE
 70
     1
  9
$FILLMODE
 70
     1
  9
$QTEXTMODE
 70
     0
  9
$MIRRTEXT
 70
     0
  9
$DRAGMODE
 70
     2
  9
$LTSCALE
 40
1.0
  9
$OSMODE
 70
     0
  9
$ATTMODE
 70
     1
  9
$TEXTSIZE
 40
0.218
  9
$TRACEWID
 40
0.05
  9
$TEXTSTYLE
  7
TXT
  9
$CLAYER
  8
OBJECT
  9
$CELTYPE
  6
BYLAYER
  9
$CECOLOR
 62
   256
  9
$DIMSCALE
 40
1.75
  9
$DIMASZ
 40
0.18
  9
$DIMEXO
 40
0.063
  9
$DIMDLI
 40
0.281
  9
$DIMRND
 40
0.0
  9
$DIMDLE
 40
0.0
  9
$DIMEXE
 40
0.093
  9
$DIMTP
 40
0.0
  9
$DIMTM
 40
0.0
  9
$DIMTXT
 40
0.125
  9
$DIMCEN
 40
0.09
  9
$DIMTSZ
 40
0.0
  9
$DIMTOL
 70
     0
  9
$DIMLIM
 70
     0
  9
$DIMTIH
 70
     1
  9
$DIMTOH
 70
     1
  9
$DIMSE1
 70
     0
  9
$DIMSE2
 70
     0
  9
$DIMTAD
 70
     0
  9
$DIMZIN
 70
     0
  9
$DIMBLK
  1

  9
$DIMASO
 70
     1
  9
$DIMSHO
 70
     1
  9
$DIMPOST
  1

  9
$DIMAPOST
  1

  9
$DIMALT
 70
     0
  9
$DIMALTD
 70
     2
  9
$DIMALTF
 40
25.4
  9
$DIMLFAC
 40
1.0
  9
$DIMTOFL
 70
     0
  9
$DIMTVP
 40
0.0
  9
$DIMTIX
 70
     0
  9
$DIMSOXD
 70
     0
  9
$DIMSAH
 70
     0
  9
$DIMBLK1
  1

  9
$DIMBLK2
  1

  9
$DIMSTYLE
  2
23NSTD
  9
$DIMCLRD
 70
     0
  9
$DIMCLRE
 70
     0
  9
$DIMCLRT
 70
     0
  9
$DIMTFAC
 40
1.0
  9
$DIMGAP
 40
0.09
  9
$LUNITS
 70
     2
  9
$LUPREC
 70
     3
  9
$SKETCHINC
 40
0.1
  9
$FILLETRAD
 40
0.0
  9
$AUNITS
 70
     0
  9
$AUPREC
 70
     0
  9
$MENU
  1
acad
  9
$ELEVATION
 40
0.0
  9
$PELEVATION
 40
0.0
  9
$THICKNESS
 40
0.0
  9
$LIMCHECK
 70
     0
  9
$BLIPMODE
 70
     1
  9
$CHAMFERA
 40
0.0
  9
$CHAMFERB
 40
0.0
  9
$SKPOLY
 70
     0
  9
$TDCREATE
 40
2450186.361811458
  9
$TDUPDATE
 40
2450189.406812268
  9
$TDINDWG
 40
0.1052730324
  9
$TDUSRTIMER
 40
0.1052730324
  9
$USRTIMER
 70
     1
  9
$ANGBASE
 50
0.0
  9
$ANGDIR
 70
     0
  9
$PDMODE
 70
     0
  9
$PDSIZE
 40
0.0
  9
$PLINEWID
 40
0.0
  9
$COORDS
 70
     0
  9
$SPLFRAME
 70
     0
  9
$SPLINETYPE
 70
     6
  9
$SPLINESEGS
 70
     8
  9
$ATTDIA
 70
     0
  9
$ATTREQ
 70
     1
  9
$HANDLING
 70
     0
  9
$HANDSEED
  5
0
  9
$SURFTAB1
 70
     6
  9
$SURFTAB2
 70
     6
  9
$SURFTYPE
 70
     6
  9
$SURFU
 70
     6
  9
$SURFV
 70
     6
  9
$UCSNAME
  2

  9
$UCSORG
 10
0.0
 20
0.0
 30
0.0
  9
$UCSXDIR
 10
1.0
 20
0.0
 30
0.0
  9
$UCSYDIR
 10
0.0
 20
1.0
 30
0.0
  9
$PUCSNAME
  2

  9
$PUCSORG
 10
0.0
 20
0.0
 30
0.0
  9
$PUCSXDIR
 10
1.0
 20
0.0
 30
0.0
  9
$PUCSYDIR
 10
0.0
 20
1.0
 30
0.0
  9
$USERI1
 70
     0
  9
$USERI2
 70
     0
  9
$USERI3
 70
     0
  9
$USERI4
 70
     0
  9
$USERI5
 70
     0
  9
$USERR1
 40
0.0
  9
$USERR2
 40
0.0
  9
$USERR3
 40
0.0
  9
$USERR4
 40
0.0
  9
$USERR5
 40
0.0
  9
$WORLDVIEW
 70
     1
  9
$SHADEDGE
 70
     3
  9
$SHADEDIF
 70
    70
  9
$TILEMODE
 70
     1
  9
$MAXACTVP
 70
    16
  9
$PINSBASE
 10
0.0
 20
0.0
 30
0.0
  9
$PLIMCHECK
 70
     0
  9
$PEXTMIN
 10
1.000000E+20
 20
1.000000E+20
 30
1.000000E+20
  9
$PEXTMAX
 10
-1.000000E+20
 20
-1.000000E+20
 30
-1.000000E+20
  9
$PLIMMIN
 10
0.0
 20
0.0
  9
$PLIMMAX
 10
12.0
 20
9.0
  9
$UNITMODE
 70
     0
  9
$VISRETAIN
 70
     0
  9
$PLINEGEN
 70
     0
  9
$PSLTSCALE
 70
     1
  9
$TREEDEPTH
 70
  3020
  9
$DWGCODEPAGE
  3
ascii
  0
ENDSEC
  0
SECTION
  2
TABLES
  0
TABLE
  2
VPORT
 70
     2
  0
VPORT
  2
*ACTIVE
 70
     0
 10
0.0
 20
0.0
 11
1.0
 21
1.0
 12
20.838892
 22
13.540892
 13
0.0
 23
0.0
 14
1.0
 24
1.0
 15
0.0
 25
0.0
 16
0.0
 26
0.0
 36
1.0
 17
0.0
 27
0.0
 37
0.0
 40
19.910602
 41
1.36234
 42
50.0
 43
0.0
 44
0.0
 50
0.0
 51
0.0
 71
     0
 72
   100
 73
     1
 74
     0
 75
     0
 76
     0
 77
     0
 78
     0
  0
ENDTAB
  0
TABLE
  2
LTYPE
 70
     6
  0
LTYPE
  2
CONTINUOUS
 70
    64
  3
Solid line
 72
    65
 73
     0
 40
0.0
  0
LTYPE
  2
HIDDEN
 70
    64
  3
_ _ _ _ _ _ _ _ _ _ _ _ _ _ _ _ _ _ _ _ _ _ _
 72
    65
 73
     2
 40
0.375
 49
0.25
 49
-0.125
  0
LTYPE
  2
PHANTOM
 70
    64
  3
_____ _ _ _____ _ _ _____ _ _ _____ _ _ ____
 72
    65
 73
     6
 40
2.5
 49
1.25
 49
-0.25
 49
0.25
 49
-0.25
 49
0.25
 49
-0.25
  0
LTYPE
  2
CENTER
 70
    64
  3
____ _ ____ _ ____ _ ____ _ ____ _ ____ _ ____
 72
    65
 73
     4
 40
2.0
 49
1.25
 49
-0.25
 49
0.25
 49
-0.25
  0
LTYPE
  2
HIDDEN2
 70
     0
  3
_ _ _ _ _ _ _ _ _ _ _ _ _ _ _ _ _ _ _ _ _ _ _ _
 72
    65
 73
     2
 40
0.1875
 49
0.125
 49
-0.0625
  0
LTYPE
  2
PHANTOM2
 70
     0
  3
___ _ _ ___ _ _ ___ _ _ ___ _ _ ___ _ _ ___ _ _
 72
    65
 73
     6
 40
1.25
 49
0.625
 49
-0.125
 49
0.125
 49
-0.125
 49
0.125
 49
-0.125
  0
ENDTAB
  0
TABLE
  2
LAYER
 70
     9
  0
LAYER
  2
0
 70
    64
 62
     7
  6
CONTINUOUS
  0
LAYER
  2
OBJECT
 70
    64
 62
     7
  6
CONTINUOUS
  0
LAYER
  2
DIM
 70
    64
 62
     7
  6
CONTINUOUS
  0
LAYER
  2
HIDDEN
 70
    64
 62
     7
  6
HIDDEN
  0
LAYER
  2
BEND
 70
    64
 62
     7
  6
PHANTOM
  0
LAYER
  2
TEXT
 70
    64
 62
     7
  6
CONTINUOUS
  0
LAYER
  2
TITLE
 70
    64
 62
     7
  6
CONTINUOUS
  0
LAYER
  2
CENTER
 70
    64
 62
     7
  6
CENTER
  0
LAYER
  2
DEFPOINTS
 70
    64
 62
     7
  6
CONTINUOUS
  0
ENDTAB
  0
TABLE
  2
STYLE
 70
     2
  0
STYLE
  2
STANDARD
 70
    64
 40
0.0
 41
1.0
 50
0.0
 71
     0
 42
0.2
  3
txt
  4

  0
STYLE
  2
TXT
 70
    64
 40
0.0
 41
0.75
 50
0.0
 71
     0
 42
0.218
  3
TXT.shx
  4

  0
ENDTAB
  0
TABLE
  2
VIEW
 70
     0
  0
ENDTAB
  0
TABLE
  2
UCS
 70
     0
  0
ENDTAB
  0
TABLE
  2
APPID
 70
     1
  0
APPID
  2
ACAD
 70
    64
  0
ENDTAB
  0
TABLE
  2
DIMSTYLE
 70
     4
  0
DIMSTYLE
  2
23NSTD
 70
    64
  3

  4

  5

  6

  7

 40
1.75
 41
0.18
 42
0.063
 43
0.281
 44
0.093
 45
0.0
 46
0.0
 47
0.0
 48
0.0
140
0.125
141
0.09
142
0.0
143
25.4
144
1.0
145
0.0
146
1.0
147
0.09
 71
     0
 72
     0
 73
     1
 74
     1
 75
     0
 76
     0
 77
     0
 78
     0
170
     0
171
     2
172
     0
173
     0
174
     0
175
     0
176
     0
177
     0
178
     0
  0
DIMSTYLE
  2
23NSTDI
 70
    64
  3

  4

  5

  6

  7

 40
1.75
 41
0.18
 42
0.063
 43
0.281
 44
0.093
 45
0.0
 46
0.0
 47
0.0
 48
0.0
140
0.125
141
0.09
142
0.0
143
25.4
144
1.0
145
0.0
146
1.0
147
0.09
 71
     0
 72
     0
 73
     1
 74
     1
 75
     0
 76
     0
 77
     0
 78
     0
170
     0
171
     2
172
     0
173
     0
174
     1
175
     0
176
     0
177
     0
178
     0
  0
DIMSTYLE
  2
STD
 70
     0
  3

  4

  5

  6

  7

 40
1.0
 41
0.18
 42
0.063
 43
0.281
 44
0.093
 45
0.0
 46
0.0
 47
0.0
 48
0.0
140
0.125
141
0.09
142
0.0
143
25.4
144
1.0
145
0.0
146
1.0
147
0.09
 71
     0
 72
     0
 73
     1
 74
     1
 75
     0
 76
     0
 77
     0
 78
     0
170
     0
171
     2
172
     0
173
     0
174
     0
175
     0
176
     0
177
     0
178
     0
  0
DIMSTYLE
  2
DIM
 70
     0
  3

  4

  5

  6

  7

 40
1.0
 41
0.18
 42
0.063
 43
0.281
 44
0.093
 45
0.0
 46
0.0
 47
0.0
 48
0.0
140
0.125
141
0.09
142
0.0
143
25.4
144
1.0
145
0.0
146
1.0
147
0.09
 71
     0
 72
     0
 73
     1
 74
     1
 75
     0
 76
     0
 77
     0
 78
     0
170
     0
171
     2
172
     0
173
     0
174
     1
175
     0
176
     0
177
     0
178
     0
  0
ENDTAB
  0
ENDSEC
  0
SECTION
  2
BLOCKS
  0
BLOCK
  8
0
  2
HB
 70
     0
 10
0.0
 20
0.0
 30
0.0
  3
HB
  0
TEXT
  8
TEXT
 10
0.207833
 20
15.060079
 30
0.0
 40
0.125
  1
NAME
 72
     1
 11
0.437
 21
15.060079
 31
0.0
  0
TEXT
  8
TEXT
 10
0.207833
 20
15.268413
 30
0.0
 40
0.125
  1
PART
 72
     1
 11
0.437
 21
15.268413
 31
0.0
  0
TEXT
  8
TEXT
 10
5.372
 20
15.060079
 30
0.0
 40
0.125
  1
No.
 72
     1
 11
5.497
 21
15.060079
 31
0.0
  0
TEXT
  8
TEXT
 10
5.267833
 20
15.268413
 30
0.0
 40
0.125
  1
PART
 72
     1
 11
5.497
 21
15.268413
 31
0.0
  0
LINE
  8
TITLE
 10
5.872
 20
15.438
 30
0.0
 11
5.872
 21
15.02
 31
0.0
  0
LINE
  8
TITLE
 10
5.122
 20
15.438
 30
0.0
 11
5.122
 21
15.02
 31
0.0
  0
LINE
  8
TITLE
 10
5.06
 20
15.438
 30
0.0
 11
5.06
 21
15.02
 31
0.0
  0
LINE
  8
TITLE
 10
0.812
 20
15.02
 30
0.0
 11
0.812
 21
15.438
 31
0.0
  0
LINE
  8
TITLE
 10
0.062
 20
15.02
 30
0.0
 11
10.058
 21
15.02
 31
0.0
  0
LINE
  8
TITLE
 10
10.058
 20
0.062
 30
0.0
 11
0.062
 21
0.062
 31
0.0
  0
LINE
  8
TITLE
 10
10.058
 20
15.438
 30
0.0
 11
10.058
 21
0.062
 31
0.0
  0
LINE
  8
TITLE
 10
0.062
 20
15.438
 30
0.0
 11
10.058
 21
15.438
 31
0.0
  0
LINE
  8
TITLE
 10
0.062
 20
0.062
 30
0.0
 11
0.062
 21
15.438
 31
0.0
  0
LINE
  8
TITLE
 10
0.0
 20
0.0
 30
0.0
 11
0.0
 21
15.5
 31
0.0
  0
LINE
  8
TITLE
 10
10.12
 20
0.0
 30
0.0
 11
0.0
 21
0.0
 31
0.0
  0
LINE
  8
TITLE
 10
10.12
 20
15.5
 30
0.0
 11
10.12
 21
0.0
 31
0.0
  0
LINE
  8
TITLE
 10
0.0
 20
15.5
 30
0.0
 11
10.12
 21
15.5
 31
0.0
  0
ENDBLK
  8
0
  0
BLOCK
  8
0
  2
*D5
 70
    65
 10
0.0
 20
0.0
 30
0.0
  3
*D
  0
LINE
  8
0
  6
BYBLOCK
 62
     0
 10
14.791417
 20
9.215023
 30
0.0
 11
15.635488
 21
9.215023
 31
0.0
  0
LINE
  8
0
  6
BYBLOCK
 62
     0
 10
14.582417
 20
7.403023
 30
0.0
 11
15.635488
 21
7.403023
 31
0.0
  0
LINE
  8
0
  6
BYBLOCK
 62
     0
 10
15.472738
 20
8.900023
 30
0.0
 11
15.472738
 21
8.575898
 31
0.0
  0
LINE
  8
0
  6
BYBLOCK
 62
     0
 10
15.472738
 20
7.718023
 30
0.0
 11
15.472738
 21
8.042148
 31
0.0
  0
SOLID
  8
0
  6
BYBLOCK
 62
     0
 10
15.420238
 20
8.900023
 30
0.0
 11
15.525238
 21
8.900023
 31
0.0
 12
15.472738
 22
9.215023
 32
0.0
 13
15.472738
 23
9.215023
 33
0.0
  0
SOLID
  8
0
  6
BYBLOCK
 62
     0
 10
15.420238
 20
7.718023
 30
0.0
 11
15.525238
 21
7.718023
 31
0.0
 12
15.472738
 22
7.403023
 32
0.0
 13
15.472738
 23
7.403023
 33
0.0
  0
TEXT
  8
0
  6
BYBLOCK
 62
     0
 10
15.1993
 20
8.199648
 30
0.0
 40
0.21875
  1
1.812
 41
0.75
  7
TXT
 72
     1
 11
15.472738
 21
8.309023
 31
0.0
 73
     2
  0
POINT
  8
DEFPOINTS
  6
BYBLOCK
 62
     0
 10
14.681167
 20
9.215023
 30
0.0
  0
POINT
  8
DEFPOINTS
  6
BYBLOCK
 62
     0
 10
14.472167
 20
7.403023
 30
0.0
  0
POINT
  8
DEFPOINTS
  6
BYBLOCK
 62
     0
 10
15.472738
 20
7.403023
 30
0.0
  0
ENDBLK
  8
0
  0
BLOCK
  8
0
  2
*D6
 70
    65
 10
0.0
 20
0.0
 30
0.0
  3
*D
  0
LINE
  8
0
  6
BYBLOCK
 62
     0
 10
11.758679
 20
7.903023
 30
0.0
 11
12.427369
 21
7.903023
 31
0.0
  0
LINE
  8
0
  6
BYBLOCK
 62
     0
 10
11.631679
 20
9.215023
 30
0.0
 11
12.427369
 21
9.215023
 31
0.0
  0
LINE
  8
0
  6
BYBLOCK
 62
     0
 10
12.264619
 20
7.588023
 30
0.0
 11
12.264619
 21
7.273023
 31
0.0
  0
LINE
  8
0
  6
BYBLOCK
 62
     0
 10
12.264619
 20
9.530023
 30
0.0
 11
12.264619
 21
9.845023
 31
0.0
  0
SOLID
  8
0
  6
BYBLOCK
 62
     0
 10
12.212119
 20
7.588023
 30
0.0
 11
12.317119
 21
7.588023
 31
0.0
 12
12.264619
 22
7.903023
 32
0.0
 13
12.264619
 23
7.903023
 33
0.0
  0
SOLID
  8
0
  6
BYBLOCK
 62
     0
 10
12.212119
 20
9.530023
 30
0.0
 11
12.317119
 21
9.530023
 31
0.0
 12
12.264619
 22
9.215023
 32
0.0
 13
12.264619
 23
9.215023
 33
0.0
  0
TEXT
  8
0
  6
BYBLOCK
 62
     0
 10
11.991181
 20
8.449648
 30
0.0
 40
0.21875
  1
1.312
 41
0.75
  7
TXT
 72
     1
 11
12.264619
 21
8.559023
 31
0.0
 73
     2
  0
POINT
  8
DEFPOINTS
  6
BYBLOCK
 62
     0
 10
11.648429
 20
7.903023
 30
0.0
  0
POINT
  8
DEFPOINTS
  6
BYBLOCK
 62
     0
 10
11.521429
 20
9.215023
 30
0.0
  0
POINT
  8
DEFPOINTS
  6
BYBLOCK
 62
     0
 10
12.264619
 20
9.215023
 30
0.0
  0
ENDBLK
  8
0
  0
BLOCK
  8
0
  2
*D7
 70
    65
 10
0.0
 20
0.0
 30
0.0
  3
*D
  0
LINE
  8
0
  6
BYBLOCK
 62
     0
 10
10.993179
 20
7.981023
 30
0.0
 11
10.194648
 21
7.981023
 31
0.0
  0
LINE
  8
0
  6
BYBLOCK
 62
     0
 10
10.993179
 20
9.168023
 30
0.0
 11
10.194648
 21
9.168023
 31
0.0
  0
LINE
  8
0
  6
BYBLOCK
 62
     0
 10
10.357398
 20
7.666023
 30
0.0
 11
10.357398
 21
7.351023
 31
0.0
  0
LINE
  8
0
  6
BYBLOCK
 62
     0
 10
10.357398
 20
9.483023
 30
0.0
 11
10.357398
 21
9.798023
 31
0.0
  0
SOLID
  8
0
  6
BYBLOCK
 62
     0
 10
10.304898
 20
7.666023
 30
0.0
 11
10.409898
 21
7.666023
 31
0.0
 12
10.357398
 22
7.981023
 32
0.0
 13
10.357398
 23
7.981023
 33
0.0
  0
SOLID
  8
0
  6
BYBLOCK
 62
     0
 10
10.304898
 20
9.483023
 30
0.0
 11
10.409898
 21
9.483023
 31
0.0
 12
10.357398
 22
9.168023
 32
0.0
 13
10.357398
 23
9.168023
 33
0.0
  0
TEXT
  8
0
  6
BYBLOCK
 62
     0
 10
10.083961
 20
8.465148
 30
0.0
 40
0.21875
  1
1.187
 41
0.75
  7
TXT
 72
     1
 11
10.357398
 21
8.574523
 31
0.0
 73
     2
  0
POINT
  8
DEFPOINTS
  6
BYBLOCK
 62
     0
 10
11.103429
 20
7.981023
 30
0.0
  0
POINT
  8
DEFPOINTS
  6
BYBLOCK
 62
     0
 10
11.103429
 20
9.168023
 30
0.0
  0
POINT
  8
DEFPOINTS
  6
BYBLOCK
 62
     0
 10
10.357398
 20
9.168023
 30
0.0
  0
ENDBLK
  8
0
  0
BLOCK
  8
0
  2
*D8
 70
    65
 10
0.0
 20
0.0
 30
0.0
  3
*D
  0
LINE
  8
0
  6
BYBLOCK
 62
     0
 10
9.948422
 20
15.820508
 30
0.0
 11
9.948422
 21
18.01559
 31
0.0
  0
LINE
  8
0
  6
BYBLOCK
 62
     0
 10
28.948422
 20
15.820508
 30
0.0
 11
28.948422
 21
18.01559
 31
0.0
  0
LINE
  8
0
  6
BYBLOCK
 62
     0
 10
10.263422
 20
17.85284
 30
0.0
 11
18.949125
 21
17.85284
 31
0.0
  0
LINE
  8
0
  6
BYBLOCK
 62
     0
 10
28.633422
 20
17.85284
 30
0.0
 11
19.947719
 21
17.85284
 31
0.0
  0
SOLID
  8
0
  6
BYBLOCK
 62
     0
 10
10.263422
 20
17.90534
 30
0.0
 11
10.263422
 21
17.80034
 31
0.0
 12
9.948422
 22
17.85284
 32
0.0
 13
9.948422
 23
17.85284
 33
0.0
  0
SOLID
  8
0
  6
BYBLOCK
 62
     0
 10
28.633422
 20
17.90534
 30
0.0
 11
28.633422
 21
17.80034
 31
0.0
 12
28.948422
 22
17.85284
 32
0.0
 13
28.948422
 23
17.85284
 33
0.0
  0
TEXT
  8
0
  6
BYBLOCK
 62
     0
 10
19.106625
 20
17.743465
 30
0.0
 40
0.21875
  1
19.000
 41
0.75
  7
TXT
 72
     1
 11
19.448422
 21
17.85284
 31
0.0
 73
     2
  0
POINT
  8
DEFPOINTS
  6
BYBLOCK
 62
     0
 10
9.948422
 20
15.710258
 30
0.0
  0
POINT
  8
DEFPOINTS
  6
BYBLOCK
 62
     0
 10
28.948422
 20
15.710258
 30
0.0
  0
POINT
  8
DEFPOINTS
  6
BYBLOCK
 62
     0
 10
28.948422
 20
17.85284
 30
0.0
  0
ENDBLK
  8
0
  0
BLOCK
  8
0
  2
*D9
 70
    65
 10
0.0
 20
0.0
 30
0.0
  3
*D
  0
LINE
  8
0
  6
BYBLOCK
 62
     0
 10
11.323422
 20
14.711508
 30
0.0
 11
11.323422
 21
17.45359
 31
0.0
  0
LINE
  8
0
  6
BYBLOCK
 62
     0
 10
27.573422
 20
14.711508
 30
0.0
 11
27.573422
 21
17.45359
 31
0.0
  0
LINE
  8
0
  6
BYBLOCK
 62
     0
 10
11.638422
 20
17.29084
 30
0.0
 11
16.419828
 21
17.29084
 31
0.0
  0
LINE
  8
0
  6
BYBLOCK
 62
     0
 10
27.258422
 20
17.29084
 30
0.0
 11
22.477016
 21
17.29084
 31
0.0
  0
SOLID
  8
0
  6
BYBLOCK
 62
     0
 10
11.638422
 20
17.34334
 30
0.0
 11
11.638422
 21
17.23834
 31
0.0
 12
11.323422
 22
17.29084
 32
0.0
 13
11.323422
 23
17.29084
 33
0.0
  0
SOLID
  8
0
  6
BYBLOCK
 62
     0
 10
27.258422
 20
17.34334
 30
0.0
 11
27.258422
 21
17.23834
 31
0.0
 12
27.573422
 22
17.29084
 32
0.0
 13
27.573422
 23
17.29084
 33
0.0
  0
TEXT
  8
0
  6
BYBLOCK
 62
     0
 10
20.678891
 20
17.181465
 30
0.0
 40
0.21875
  1
 (2 PLACES)
 41
0.75
  7
TXT
 72
     1
 11
21.499203
 21
17.29084
 31
0.0
 73
     2
  0
TEXT
  8
0
  6
BYBLOCK
 62
     0
 10
16.577328
 20
17.181465
 30
0.0
 40
0.21875
  1
(13) SPACES @ 1.250 = 
 41
0.75
  7
TXT
 72
     1
 11
18.204281
 21
17.29084
 31
0.0
 73
     2
  0
TEXT
  8
0
  6
BYBLOCK
 62
     0
 10
19.885922
 20
17.181465
 30
0.0
 40
0.21875
  1
16.250
 41
0.75
  7
TXT
 72
     1
 11
20.255062
 21
17.29084
 31
0.0
 73
     2
  0
POINT
  8
DEFPOINTS
  6
BYBLOCK
 62
     0
 10
11.323422
 20
14.601258
 30
0.0
  0
POINT
  8
DEFPOINTS
  6
BYBLOCK
 62
     0
 10
27.573422
 20
14.601258
 30
0.0
  0
POINT
  8
DEFPOINTS
  6
BYBLOCK
 62
     0
 10
27.573422
 20
17.29084
 30
0.0
  0
ENDBLK
  8
0
  0
BLOCK
  8
0
  2
*D10
 70
    65
 10
0.0
 20
0.0
 30
0.0
  3
*D
  0
LINE
  8
0
  6
BYBLOCK
 62
     0
 10
9.948422
 20
15.820508
 30
0.0
 11
9.948422
 21
17.45359
 31
0.0
  0
LINE
  8
0
  6
BYBLOCK
 62
     0
 10
11.323422
 20
14.711508
 30
0.0
 11
11.323422
 21
17.45359
 31
0.0
  0
LINE
  8
0
  6
BYBLOCK
 62
     0
 10
9.633422
 20
17.29084
 30
0.0
 11
9.318422
 21
17.29084
 31
0.0
  0
LINE
  8
0
  6
BYBLOCK
 62
     0
 10
11.638422
 20
17.29084
 30
0.0
 11
11.953422
 21
17.29084
 31
0.0
  0
SOLID
  8
0
  6
BYBLOCK
 62
     0
 10
9.633422
 20
17.34334
 30
0.0
 11
9.633422
 21
17.23834
 31
0.0
 12
9.948422
 22
17.29084
 32
0.0
 13
9.948422
 23
17.29084
 33
0.0
  0
SOLID
  8
0
  6
BYBLOCK
 62
     0
 10
11.638422
 20
17.34334
 30
0.0
 11
11.638422
 21
17.23834
 31
0.0
 12
11.323422
 22
17.29084
 32
0.0
 13
11.323422
 23
17.29084
 33
0.0
  0
TEXT
  8
0
  6
BYBLOCK
 62
     0
 10
10.335141
 20
17.181465
 30
0.0
 40
0.21875
  1
1.375
 41
0.75
  7
TXT
 72
     1
 11
10.635922
 21
17.29084
 31
0.0
 73
     2
  0
POINT
  8
DEFPOINTS
  6
BYBLOCK
 62
     0
 10
9.948422
 20
15.710258
 30
0.0
  0
POINT
  8
DEFPOINTS
  6
BYBLOCK
 62
     0
 10
11.323422
 20
14.601258
 30
0.0
  0
POINT
  8
DEFPOINTS
  6
BYBLOCK
 62
     0
 10
11.323422
 20
17.29084
 30
0.0
  0
ENDBLK
  8
0
  0
BLOCK
  8
0
  2
*D11
 70
    65
 10
0.0
 20
0.0
 30
0.0
  3
*D
  0
LINE
  8
0
  6
BYBLOCK
 62
     0
 10
10.276422
 20
15.676508
 30
0.0
 11
10.276422
 21
16.89159
 31
0.0
  0
LINE
  8
0
  6
BYBLOCK
 62
     0
 10
9.948422
 20
15.820508
 30
0.0
 11
9.948422
 21
16.89159
 31
0.0
  0
LINE
  8
0
  6
BYBLOCK
 62
     0
 10
10.591422
 20
16.72884
 30
0.0
 11
10.906422
 21
16.72884
 31
0.0
  0
LINE
  8
0
  6
BYBLOCK
 62
     0
 10
9.633422
 20
16.72884
 30
0.0
 11
9.318422
 21
16.72884
 31
0.0
  0
SOLID
  8
0
  6
BYBLOCK
 62
     0
 10
10.591422
 20
16.78134
 30
0.0
 11
10.591422
 21
16.67634
 31
0.0
 12
10.276422
 22
16.72884
 32
0.0
 13
10.276422
 23
16.72884
 33
0.0
  0
SOLID
  8
0
  6
BYBLOCK
 62
     0
 10
9.633422
 20
16.78134
 30
0.0
 11
9.633422
 21
16.67634
 31
0.0
 12
9.948422
 22
16.72884
 32
0.0
 13
9.948422
 23
16.72884
 33
0.0
  0
TEXT
  8
0
  6
BYBLOCK
 62
     0
 10
8.532016
 20
16.619465
 30
0.0
 40
0.21875
  1
0.328
 41
0.75
  7
TXT
 72
     1
 11
8.846469
 21
16.72884
 31
0.0
 73
     2
  0
POINT
  8
DEFPOINTS
  6
BYBLOCK
 62
     0
 10
10.276422
 20
15.566258
 30
0.0
  0
POINT
  8
DEFPOINTS
  6
BYBLOCK
 62
     0
 10
9.948422
 20
15.710258
 30
0.0
  0
POINT
  8
DEFPOINTS
  6
BYBLOCK
 62
     0
 10
9.948422
 20
16.72884
 30
0.0
  0
ENDBLK
  8
0
  0
BLOCK
  8
0
  2
*D12
 70
    65
 10
0.0
 20
0.0
 30
0.0
  3
*D
  0
LINE
  8
0
  6
BYBLOCK
 62
     0
 10
28.620422
 20
15.676508
 30
0.0
 11
28.620422
 21
16.89159
 31
0.0
  0
LINE
  8
0
  6
BYBLOCK
 62
     0
 10
28.948422
 20
15.820508
 30
0.0
 11
28.948422
 21
16.89159
 31
0.0
  0
LINE
  8
0
  6
BYBLOCK
 62
     0
 10
28.305422
 20
16.72884
 30
0.0
 11
27.990422
 21
16.72884
 31
0.0
  0
LINE
  8
0
  6
BYBLOCK
 62
     0
 10
29.263422
 20
16.72884
 30
0.0
 11
29.578422
 21
16.72884
 31
0.0
  0
SOLID
  8
0
  6
BYBLOCK
 62
     0
 10
28.305422
 20
16.78134
 30
0.0
 11
28.305422
 21
16.67634
 31
0.0
 12
28.620422
 22
16.72884
 32
0.0
 13
28.620422
 23
16.72884
 33
0.0
  0
SOLID
  8
0
  6
BYBLOCK
 62
     0
 10
29.263422
 20
16.78134
 30
0.0
 11
29.263422
 21
16.67634
 31
0.0
 12
28.948422
 22
16.72884
 32
0.0
 13
28.948422
 23
16.72884
 33
0.0
  0
TEXT
  8
0
  6
BYBLOCK
 62
     0
 10
29.735922
 20
16.619465
 30
0.0
 40
0.21875
  1
0.328
 41
0.75
  7
TXT
 72
     1
 11
30.050375
 21
16.72884
 31
0.0
 73
     2
  0
POINT
  8
DEFPOINTS
  6
BYBLOCK
 62
     0
 10
28.620422
 20
15.566258
 30
0.0
  0
POINT
  8
DEFPOINTS
  6
BYBLOCK
 62
     0
 10
28.948422
 20
15.710258
 30
0.0
  0
POINT
  8
DEFPOINTS
  6
BYBLOCK
 62
     0
 10
28.948422
 20
16.72884
 30
0.0
  0
ENDBLK
  8
0
  0
BLOCK
  8
0
  2
*D15
 70
    65
 10
0.0
 20
0.0
 30
0.0
  3
*D
  0
LINE
  8
0
  6
BYBLOCK
 62
     0
 10
28.323422
 20
19.173314
 30
0.0
 11
28.323422
 21
19.747974
 31
0.0
  0
LINE
  8
0
  6
BYBLOCK
 62
     0
 10
28.948422
 20
18.735314
 30
0.0
 11
28.948422
 21
19.747974
 31
0.0
  0
LINE
  8
0
  6
BYBLOCK
 62
     0
 10
28.008422
 20
19.585224
 30
0.0
 11
27.693422
 21
19.585224
 31
0.0
  0
LINE
  8
0
  6
BYBLOCK
 62
     0
 10
29.263422
 20
19.585224
 30
0.0
 11
29.578422
 21
19.585224
 31
0.0
  0
SOLID
  8
0
  6
BYBLOCK
 62
     0
 10
28.008422
 20
19.637724
 30
0.0
 11
28.008422
 21
19.532724
 31
0.0
 12
28.323422
 22
19.585224
 32
0.0
 13
28.323422
 23
19.585224
 33
0.0
  0
SOLID
  8
0
  6
BYBLOCK
 62
     0
 10
29.263422
 20
19.637724
 30
0.0
 11
29.263422
 21
19.532724
 31
0.0
 12
28.948422
 22
19.585224
 32
0.0
 13
28.948422
 23
19.585224
 33
0.0
  0
TEXT
  8
0
  6
BYBLOCK
 62
     0
 10
29.735922
 20
19.475849
 30
0.0
 40
0.21875
  1
0.625
 41
0.75
  7
TXT
 72
     1
 11
30.050375
 21
19.585224
 31
0.0
 73
     2
  0
POINT
  8
DEFPOINTS
  6
BYBLOCK
 62
     0
 10
28.323422
 20
19.063064
 30
0.0
  0
POINT
  8
DEFPOINTS
  6
BYBLOCK
 62
     0
 10
28.948422
 20
18.625064
 30
0.0
  0
POINT
  8
DEFPOINTS
  6
BYBLOCK
 62
     0
 10
28.948422
 20
19.585224
 30
0.0
  0
ENDBLK
  8
0
  0
BLOCK
  8
0
  2
*D16
 70
    65
 10
0.0
 20
0.0
 30
0.0
  3
*D
  0
LINE
  8
0
  6
BYBLOCK
 62
     0
 10
10.573422
 20
19.173314
 30
0.0
 11
10.573422
 21
19.747974
 31
0.0
  0
LINE
  8
0
  6
BYBLOCK
 62
     0
 10
9.948422
 20
18.735314
 30
0.0
 11
9.948422
 21
19.747974
 31
0.0
  0
LINE
  8
0
  6
BYBLOCK
 62
     0
 10
10.888422
 20
19.585224
 30
0.0
 11
11.203422
 21
19.585224
 31
0.0
  0
LINE
  8
0
  6
BYBLOCK
 62
     0
 10
9.633422
 20
19.585224
 30
0.0
 11
9.318422
 21
19.585224
 31
0.0
  0
SOLID
  8
0
  6
BYBLOCK
 62
     0
 10
10.888422
 20
19.637724
 30
0.0
 11
10.888422
 21
19.532724
 31
0.0
 12
10.573422
 22
19.585224
 32
0.0
 13
10.573422
 23
19.585224
 33
0.0
  0
SOLID
  8
0
  6
BYBLOCK
 62
     0
 10
9.633422
 20
19.637724
 30
0.0
 11
9.633422
 21
19.532724
 31
0.0
 12
9.948422
 22
19.585224
 32
0.0
 13
9.948422
 23
19.585224
 33
0.0
  0
TEXT
  8
0
  6
BYBLOCK
 62
     0
 10
8.532016
 20
19.475849
 30
0.0
 40
0.21875
  1
0.625
 41
0.75
  7
TXT
 72
     1
 11
8.846469
 21
19.585224
 31
0.0
 73
     2
  0
POINT
  8
DEFPOINTS
  6
BYBLOCK
 62
     0
 10
10.573422
 20
19.063064
 30
0.0
  0
POINT
  8
DEFPOINTS
  6
BYBLOCK
 62
     0
 10
9.948422
 20
18.625064
 30
0.0
  0
POINT
  8
DEFPOINTS
  6
BYBLOCK
 62
     0
 10
9.948422
 20
19.585224
 30
0.0
  0
ENDBLK
  8
0
  0
BLOCK
  8
0
  2
*D17
 70
    65
 10
0.0
 20
0.0
 30
0.0
  3
*D
  0
LINE
  8
0
  6
BYBLOCK
 62
     0
 10
28.820672
 20
12.476258
 30
0.0
 11
29.912248
 21
12.476258
 31
0.0
  0
LINE
  8
0
  6
BYBLOCK
 62
     0
 10
28.820672
 20
15.476258
 30
0.0
 11
29.912248
 21
15.476258
 31
0.0
  0
LINE
  8
0
  6
BYBLOCK
 62
     0
 10
29.749498
 20
12.791258
 30
0.0
 11
29.749498
 21
13.709383
 31
0.0
  0
LINE
  8
0
  6
BYBLOCK
 62
     0
 10
29.749498
 20
15.161258
 30
0.0
 11
29.749498
 21
14.243133
 31
0.0
  0
SOLID
  8
0
  6
BYBLOCK
 62
     0
 10
29.696998
 20
12.791258
 30
0.0
 11
29.801998
 21
12.791258
 31
0.0
 12
29.749498
 22
12.476258
 32
0.0
 13
29.749498
 23
12.476258
 33
0.0
  0
SOLID
  8
0
  6
BYBLOCK
 62
     0
 10
29.696998
 20
15.161258
 30
0.0
 11
29.801998
 21
15.161258
 31
0.0
 12
29.749498
 22
15.476258
 32
0.0
 13
29.749498
 23
15.476258
 33
0.0
  0
TEXT
  8
0
  6
BYBLOCK
 62
     0
 10
29.462389
 20
13.866883
 30
0.0
 40
0.21875
  1
3.000
 41
0.75
  7
TXT
 72
     1
 11
29.749498
 21
13.976258
 31
0.0
 73
     2
  0
POINT
  8
DEFPOINTS
  6
BYBLOCK
 62
     0
 10
28.710422
 20
12.476258
 30
0.0
  0
POINT
  8
DEFPOINTS
  6
BYBLOCK
 62
     0
 10
28.710422
 20
15.476258
 30
0.0
  0
POINT
  8
DEFPOINTS
  6
BYBLOCK
 62
     0
 10
29.749498
 20
15.476258
 30
0.0
  0
ENDBLK
  8
0
  0
BLOCK
  8
0
  2
*D18
 70
    65
 10
0.0
 20
0.0
 30
0.0
  3
*D
  0
LINE
  8
0
  6
BYBLOCK
 62
     0
 10
29.058672
 20
12.242258
 30
0.0
 11
30.766547
 21
12.242258
 31
0.0
  0
LINE
  8
0
  6
BYBLOCK
 62
     0
 10
29.058672
 20
15.710258
 30
0.0
 11
30.766547
 21
15.710258
 31
0.0
  0
LINE
  8
0
  6
BYBLOCK
 62
     0
 10
30.603797
 20
12.557258
 30
0.0
 11
30.603797
 21
13.709383
 31
0.0
  0
LINE
  8
0
  6
BYBLOCK
 62
     0
 10
30.603797
 20
15.395258
 30
0.0
 11
30.603797
 21
14.243133
 31
0.0
  0
SOLID
  8
0
  6
BYBLOCK
 62
     0
 10
30.551297
 20
12.557258
 30
0.0
 11
30.656297
 21
12.557258
 31
0.0
 12
30.603797
 22
12.242258
 32
0.0
 13
30.603797
 23
12.242258
 33
0.0
  0
SOLID
  8
0
  6
BYBLOCK
 62
     0
 10
30.551297
 20
15.395258
 30
0.0
 11
30.656297
 21
15.395258
 31
0.0
 12
30.603797
 22
15.710258
 32
0.0
 13
30.603797
 23
15.710258
 33
0.0
  0
TEXT
  8
0
  6
BYBLOCK
 62
     0
 10
30.275672
 20
13.866883
 30
0.0
 40
0.21875
  1
3.468
 41
0.75
  7
TXT
 72
     1
 11
30.603797
 21
13.976258
 31
0.0
 73
     2
  0
POINT
  8
DEFPOINTS
  6
BYBLOCK
 62
     0
 10
28.948422
 20
12.242258
 30
0.0
  0
POINT
  8
DEFPOINTS
  6
BYBLOCK
 62
     0
 10
28.948422
 20
15.710258
 30
0.0
  0
POINT
  8
DEFPOINTS
  6
BYBLOCK
 62
     0
 10
30.603797
 20
15.710258
 30
0.0
  0
ENDBLK
  8
0
  0
BLOCK
  8
0
  2
*D19
 70
    65
 10
0.0
 20
0.0
 30
0.0
  3
*D
  0
LINE
  8
0
  6
BYBLOCK
 62
     0
 10
28.933672
 20
15.476258
 30
0.0
 11
29.912248
 21
15.476258
 31
0.0
  0
LINE
  8
0
  6
BYBLOCK
 62
     0
 10
29.058672
 20
15.710258
 30
0.0
 11
29.912248
 21
15.710258
 31
0.0
  0
LINE
  8
0
  6
BYBLOCK
 62
     0
 10
29.749498
 20
15.161258
 30
0.0
 11
29.749498
 21
14.846258
 31
0.0
  0
LINE
  8
0
  6
BYBLOCK
 62
     0
 10
29.749498
 20
16.025258
 30
0.0
 11
29.749498
 21
16.340258
 31
0.0
  0
LINE
  8
0
  6
BYBLOCK
 62
     0
 10
29.749498
 20
16.340258
 30
0.0
 11
30.064498
 21
16.340258
 31
0.0
  0
SOLID
  8
0
  6
BYBLOCK
 62
     0
 10
29.696998
 20
15.161258
 30
0.0
 11
29.801998
 21
15.161258
 31
0.0
 12
29.749498
 22
15.476258
 32
0.0
 13
29.749498
 23
15.476258
 33
0.0
  0
SOLID
  8
0
  6
BYBLOCK
 62
     0
 10
29.696998
 20
16.025258
 30
0.0
 11
29.801998
 21
16.025258
 31
0.0
 12
29.749498
 22
15.710258
 32
0.0
 13
29.749498
 23
15.710258
 33
0.0
  0
TEXT
  8
0
  6
BYBLOCK
 62
     0
 10
30.221998
 20
16.230883
 30
0.0
 40
0.21875
  1
0.234
 41
0.75
  7
TXT
 72
     1
 11
30.536451
 21
16.340258
 31
0.0
 73
     2
  0
POINT
  8
DEFPOINTS
  6
BYBLOCK
 62
     0
 10
28.823422
 20
15.476258
 30
0.0
  0
POINT
  8
DEFPOINTS
  6
BYBLOCK
 62
     0
 10
28.948422
 20
15.710258
 30
0.0
  0
POINT
  8
DEFPOINTS
  6
BYBLOCK
 62
     0
 10
29.749498
 20
15.710258
 30
0.0
  0
ENDBLK
  8
0
  0
BLOCK
  8
0
  2
*D20
 70
    65
 10
0.0
 20
0.0
 30
0.0
  3
*D
  0
LINE
  8
0
  6
BYBLOCK
 62
     0
 10
10.778529
 20
5.418341
 30
0.0
 11
10.778529
 21
4.425423
 31
0.0
  0
LINE
  8
0
  6
BYBLOCK
 62
     0
 10
10.028529
 20
5.418341
 30
0.0
 11
10.028529
 21
4.425423
 31
0.0
  0
LINE
  8
0
  6
BYBLOCK
 62
     0
 10
11.093529
 20
4.588173
 30
0.0
 11
11.408529
 21
4.588173
 31
0.0
  0
LINE
  8
0
  6
BYBLOCK
 62
     0
 10
9.713529
 20
4.588173
 30
0.0
 11
9.398529
 21
4.588173
 31
0.0
  0
SOLID
  8
0
  6
BYBLOCK
 62
     0
 10
11.093529
 20
4.640673
 30
0.0
 11
11.093529
 21
4.535673
 31
0.0
 12
10.778529
 22
4.588173
 32
0.0
 13
10.778529
 23
4.588173
 33
0.0
  0
SOLID
  8
0
  6
BYBLOCK
 62
     0
 10
9.713529
 20
4.640673
 30
0.0
 11
9.713529
 21
4.535673
 31
0.0
 12
10.028529
 22
4.588173
 32
0.0
 13
10.028529
 23
4.588173
 33
0.0
  0
TEXT
  8
0
  6
BYBLOCK
 62
     0
 10
10.102747
 20
4.478798
 30
0.0
 40
0.21875
  1
0.750
 41
0.75
  7
TXT
 72
     1
 11
10.403529
 21
4.588173
 31
0.0
 73
     2
  0
POINT
  8
DEFPOINTS
  6
BYBLOCK
 62
     0
 10
10.778529
 20
5.528591
 30
0.0
  0
POINT
  8
DEFPOINTS
  6
BYBLOCK
 62
     0
 10
10.028529
 20
5.528591
 30
0.0
  0
POINT
  8
DEFPOINTS
  6
BYBLOCK
 62
     0
 10
10.028529
 20
4.588173
 30
0.0
  0
ENDBLK
  8
0
  0
BLOCK
  8
0
  2
*D21
 70
    65
 10
0.0
 20
0.0
 30
0.0
  3
*D
  0
LINE
  8
0
  6
BYBLOCK
 62
     0
 10
10.163529
 20
6.833841
 30
0.0
 11
10.163529
 21
7.763129
 31
0.0
  0
LINE
  8
0
  6
BYBLOCK
 62
     0
 10
10.643529
 20
6.833841
 30
0.0
 11
10.643529
 21
7.763129
 31
0.0
  0
LINE
  8
0
  6
BYBLOCK
 62
     0
 10
9.848529
 20
7.600379
 30
0.0
 11
9.533529
 21
7.600379
 31
0.0
  0
LINE
  8
0
  6
BYBLOCK
 62
     0
 10
10.958529
 20
7.600379
 30
0.0
 11
11.273529
 21
7.600379
 31
0.0
  0
SOLID
  8
0
  6
BYBLOCK
 62
     0
 10
9.848529
 20
7.652879
 30
0.0
 11
9.848529
 21
7.547879
 31
0.0
 12
10.163529
 22
7.600379
 32
0.0
 13
10.163529
 23
7.600379
 33
0.0
  0
SOLID
  8
0
  6
BYBLOCK
 62
     0
 10
10.958529
 20
7.652879
 30
0.0
 11
10.958529
 21
7.547879
 31
0.0
 12
10.643529
 22
7.600379
 32
0.0
 13
10.643529
 23
7.600379
 33
0.0
  0
TEXT
  8
0
  6
BYBLOCK
 62
     0
 10
8.728418
 20
7.491004
 30
0.0
 40
0.21875
  1
0.480
 41
0.75
  7
TXT
 72
     1
 11
9.029199
 21
7.600379
 31
0.0
 73
     2
  0
POINT
  8
DEFPOINTS
  6
BYBLOCK
 62
     0
 10
10.163529
 20
6.723591
 30
0.0
  0
POINT
  8
DEFPOINTS
  6
BYBLOCK
 62
     0
 10
10.643529
 20
6.723591
 30
0.0
  0
POINT
  8
DEFPOINTS
  6
BYBLOCK
 62
     0
 10
10.643529
 20
7.600379
 30
0.0
  0
ENDBLK
  8
0
  0
BLOCK
  8
0
  2
*D22
 70
    65
 10
0.0
 20
0.0
 30
0.0
  3
*D
  0
LINE
  8
0
  6
BYBLOCK
 62
     0
 10
12.389752
 20
6.911841
 30
0.0
 11
12.389752
 21
7.763129
 31
0.0
  0
LINE
  8
0
  6
BYBLOCK
 62
     0
 10
12.639752
 20
6.911841
 30
0.0
 11
12.639752
 21
7.763129
 31
0.0
  0
LINE
  8
0
  6
BYBLOCK
 62
     0
 10
12.074752
 20
7.600379
 30
0.0
 11
11.759752
 21
7.600379
 31
0.0
  0
LINE
  8
0
  6
BYBLOCK
 62
     0
 10
12.954752
 20
7.600379
 30
0.0
 11
13.269752
 21
7.600379
 31
0.0
  0
SOLID
  8
0
  6
BYBLOCK
 62
     0
 10
12.074752
 20
7.652879
 30
0.0
 11
12.074752
 21
7.547879
 31
0.0
 12
12.389752
 22
7.600379
 32
0.0
 13
12.389752
 23
7.600379
 33
0.0
  0
SOLID
  8
0
  6
BYBLOCK
 62
     0
 10
12.954752
 20
7.652879
 30
0.0
 11
12.954752
 21
7.547879
 31
0.0
 12
12.639752
 22
7.600379
 32
0.0
 13
12.639752
 23
7.600379
 33
0.0
  0
TEXT
  8
0
  6
BYBLOCK
 62
     0
 10
13.427252
 20
7.491004
 30
0.0
 40
0.21875
  1
0.250
 41
0.75
  7
TXT
 72
     1
 11
13.728033
 21
7.600379
 31
0.0
 73
     2
  0
POINT
  8
DEFPOINTS
  6
BYBLOCK
 62
     0
 10
12.389752
 20
6.801591
 30
0.0
  0
POINT
  8
DEFPOINTS
  6
BYBLOCK
 62
     0
 10
12.639752
 20
6.801591
 30
0.0
  0
POINT
  8
DEFPOINTS
  6
BYBLOCK
 62
     0
 10
12.639752
 20
7.600379
 30
0.0
  0
ENDBLK
  8
0
  0
BLOCK
  8
0
  2
*D25
 70
    65
 10
0.0
 20
0.0
 30
0.0
  3
*D
  0
LINE
  8
0
  6
BYBLOCK
 62
     0
 10
10.876719
 20
15.905124
 30
0.0
 11
11.536793
 21
15.905124
 31
0.0
  0
LINE
  8
0
  6
BYBLOCK
 62
     0
 10
10.876719
 20
16.183124
 30
0.0
 11
11.536793
 21
16.183124
 31
0.0
  0
LINE
  8
0
  6
BYBLOCK
 62
     0
 10
11.374043
 20
15.590124
 30
0.0
 11
11.374043
 21
15.275124
 31
0.0
  0
LINE
  8
0
  6
BYBLOCK
 62
     0
 10
11.374043
 20
16.498124
 30
0.0
 11
11.374043
 21
16.813124
 31
0.0
  0
LINE
  8
0
  6
BYBLOCK
 62
     0
 10
11.374043
 20
16.813124
 30
0.0
 11
11.689043
 21
16.813124
 31
0.0
  0
SOLID
  8
0
  6
BYBLOCK
 62
     0
 10
11.321543
 20
15.590124
 30
0.0
 11
11.426543
 21
15.590124
 31
0.0
 12
11.374043
 22
15.905124
 32
0.0
 13
11.374043
 23
15.905124
 33
0.0
  0
SOLID
  8
0
  6
BYBLOCK
 62
     0
 10
11.321543
 20
16.498124
 30
0.0
 11
11.426543
 21
16.498124
 31
0.0
 12
11.374043
 22
16.183124
 32
0.0
 13
11.374043
 23
16.183124
 33
0.0
  0
TEXT
  8
0
  6
BYBLOCK
 62
     0
 10
12.530137
 20
16.703749
 30
0.0
 40
0.21875
  1
 REF.
 41
0.75
  7
TXT
 72
     1
 11
12.858262
 21
16.813124
 31
0.0
 73
     2
  0
TEXT
  8
0
  6
BYBLOCK
 62
     0
 10
11.846543
 20
16.703749
 30
0.0
 40
0.21875
  1
0.278
 41
0.75
  7
TXT
 72
     1
 11
12.160996
 21
16.813124
 31
0.0
 73
     2
  0
POINT
  8
DEFPOINTS
  6
BYBLOCK
 62
     0
 10
10.766469
 20
15.905124
 30
0.0
  0
POINT
  8
DEFPOINTS
  6
BYBLOCK
 62
     0
 10
10.766469
 20
16.183124
 30
0.0
  0
POINT
  8
DEFPOINTS
  6
BYBLOCK
 62
     0
 10
11.374043
 20
16.183124
 30
0.0
  0
ENDBLK
  8
0
  0
BLOCK
  8
0
  2
*D40
 70
    65
 10
0.0
 20
0.0
 30
0.0
  3
*D
  0
LINE
  8
0
  6
BYBLOCK
 62
     0
 10
27.374469
 20
13.183874
 30
0.0
 11
27.374469
 21
11.553172
 31
0.0
  0
LINE
  8
0
  6
BYBLOCK
 62
     0
 10
12.374469
 20
13.183874
 30
0.0
 11
12.374469
 21
11.553172
 31
0.0
  0
LINE
  8
0
  6
BYBLOCK
 62
     0
 10
27.059469
 20
11.715922
 30
0.0
 11
22.848375
 21
11.715922
 31
0.0
  0
LINE
  8
0
  6
BYBLOCK
 62
     0
 10
12.689469
 20
11.715922
 30
0.0
 11
16.900563
 21
11.715922
 31
0.0
  0
SOLID
  8
0
  6
BYBLOCK
 62
     0
 10
27.059469
 20
11.768422
 30
0.0
 11
27.059469
 21
11.663422
 31
0.0
 12
27.374469
 22
11.715922
 32
0.0
 13
27.374469
 23
11.715922
 33
0.0
  0
SOLID
  8
0
  6
BYBLOCK
 62
     0
 10
12.689469
 20
11.768422
 30
0.0
 11
12.689469
 21
11.663422
 31
0.0
 12
12.374469
 22
11.715922
 32
0.0
 13
12.374469
 23
11.715922
 33
0.0
  0
TEXT
  8
0
  6
BYBLOCK
 62
     0
 10
21.05025
 20
11.606547
 30
0.0
 40
0.21875
  1
 (2 PLACES)
 41
0.75
  7
TXT
 72
     1
 11
21.870563
 21
11.715922
 31
0.0
 73
     2
  0
TEXT
  8
0
  6
BYBLOCK
 62
     0
 10
17.058063
 20
11.606547
 30
0.0
 40
0.21875
  1
(15) SPACES @ 1.000 = 
 41
0.75
  7
TXT
 72
     1
 11
18.657672
 21
11.715922
 31
0.0
 73
     2
  0
TEXT
  8
0
  6
BYBLOCK
 62
     0
 10
20.311969
 20
11.606547
 30
0.0
 40
0.21875
  1
15.000
 41
0.75
  7
TXT
 72
     1
 11
20.653766
 21
11.715922
 31
0.0
 73
     2
  0
POINT
  8
DEFPOINTS
  6
BYBLOCK
 62
     0
 10
27.374469
 20
13.294124
 30
0.0
  0
POINT
  8
DEFPOINTS
  6
BYBLOCK
 62
     0
 10
12.374469
 20
13.294124
 30
0.0
  0
POINT
  8
DEFPOINTS
  6
BYBLOCK
 62
     0
 10
12.374469
 20
11.715922
 30
0.0
  0
ENDBLK
  8
0
  0
BLOCK
  8
0
  2
*D41
 70
    65
 10
0.0
 20
0.0
 30
0.0
  3
*D
  0
LINE
  8
0
  6
BYBLOCK
 62
     0
 10
27.393909
 20
14.433874
 30
0.0
 11
27.802759
 21
12.115172
 31
0.0
  0
LINE
  8
0
  6
BYBLOCK
 62
     0
 10
12.393909
 20
14.433874
 30
0.0
 11
12.802759
 21
12.115172
 31
0.0
  0
LINE
  8
0
  6
BYBLOCK
 62
     0
 10
27.459061
 20
12.277922
 30
0.0
 11
22.427655
 21
12.277922
 31
0.0
  0
LINE
  8
0
  6
BYBLOCK
 62
     0
 10
13.089061
 20
12.277922
 30
0.0
 11
18.120468
 21
12.277922
 31
0.0
  0
SOLID
  8
0
  6
BYBLOCK
 62
     0
 10
27.459061
 20
12.330422
 30
0.0
 11
27.459061
 21
12.225422
 31
0.0
 12
27.774061
 22
12.277922
 32
0.0
 13
27.774061
 23
12.277922
 33
0.0
  0
SOLID
  8
0
  6
BYBLOCK
 62
     0
 10
13.089061
 20
12.330422
 30
0.0
 11
13.089061
 21
12.225422
 31
0.0
 12
12.774061
 22
12.277922
 32
0.0
 13
12.774061
 23
12.277922
 33
0.0
  0
TEXT
  8
0
  6
BYBLOCK
 62
     0
 10
18.277968
 20
12.168547
 30
0.0
 40
0.21875
  1
(12) SPACES @ 1.250 = 
 41
0.75
  7
TXT
 72
     1
 11
19.904921
 21
12.277922
 31
0.0
 73
     2
  0
TEXT
  8
0
  6
BYBLOCK
 62
     0
 10
21.586561
 20
12.168547
 30
0.0
 40
0.21875
  1
15.000
 41
0.75
  7
TXT
 72
     1
 11
21.928358
 21
12.277922
 31
0.0
 73
     2
  0
POINT
  8
DEFPOINTS
  6
BYBLOCK
 62
     0
 10
27.374469
 20
14.544124
 30
0.0
  0
POINT
  8
DEFPOINTS
  6
BYBLOCK
 62
     0
 10
12.374469
 20
14.544124
 30
0.0
  0
POINT
  8
DEFPOINTS
  6
BYBLOCK
 62
     0
 10
12.774061
 20
12.277922
 30
0.0
  0
ENDBLK
  8
0
  0
BLOCK
  8
0
  2
*D42
 70
    65
 10
0.0
 20
0.0
 30
0.0
  3
*D
  0
LINE
  8
0
  6
BYBLOCK
 62
     0
 10
12.374469
 20
13.183874
 30
0.0
 11
12.374469
 21
11.553172
 31
0.0
  0
LINE
  8
0
  6
BYBLOCK
 62
     0
 10
10.374469
 20
12.699874
 30
0.0
 11
10.374469
 21
11.553172
 31
0.0
  0
LINE
  8
0
  6
BYBLOCK
 62
     0
 10
12.059469
 20
11.715922
 30
0.0
 11
11.819078
 21
11.715922
 31
0.0
  0
LINE
  8
0
  6
BYBLOCK
 62
     0
 10
10.689469
 20
11.715922
 30
0.0
 11
10.92986
 21
11.715922
 31
0.0
  0
SOLID
  8
0
  6
BYBLOCK
 62
     0
 10
12.059469
 20
11.768422
 30
0.0
 11
12.059469
 21
11.663422
 31
0.0
 12
12.374469
 22
11.715922
 32
0.0
 13
12.374469
 23
11.715922
 33
0.0
  0
SOLID
  8
0
  6
BYBLOCK
 62
     0
 10
10.689469
 20
11.768422
 30
0.0
 11
10.689469
 21
11.663422
 31
0.0
 12
10.374469
 22
11.715922
 32
0.0
 13
10.374469
 23
11.715922
 33
0.0
  0
TEXT
  8
0
  6
BYBLOCK
 62
     0
 10
11.08736
 20
11.606547
 30
0.0
 40
0.21875
  1
2.000
 41
0.75
  7
TXT
 72
     1
 11
11.374469
 21
11.715922
 31
0.0
 73
     2
  0
POINT
  8
DEFPOINTS
  6
BYBLOCK
 62
     0
 10
12.374469
 20
13.294124
 30
0.0
  0
POINT
  8
DEFPOINTS
  6
BYBLOCK
 62
     0
 10
10.374469
 20
12.810124
 30
0.0
  0
POINT
  8
DEFPOINTS
  6
BYBLOCK
 62
     0
 10
10.374469
 20
11.715922
 30
0.0
  0
ENDBLK
  8
0
  0
BLOCK
  8
0
  2
*D43
 70
    65
 10
0.0
 20
0.0
 30
0.0
  3
*D
  0
LINE
  8
0
  6
BYBLOCK
 62
     0
 10
12.393909
 20
14.433874
 30
0.0
 11
12.802759
 21
12.115172
 31
0.0
  0
LINE
  8
0
  6
BYBLOCK
 62
     0
 10
10.393909
 20
12.699874
 30
0.0
 11
10.497008
 21
12.115172
 31
0.0
  0
LINE
  8
0
  6
BYBLOCK
 62
     0
 10
12.459061
 20
12.277922
 30
0.0
 11
12.065795
 21
12.277922
 31
0.0
  0
LINE
  8
0
  6
BYBLOCK
 62
     0
 10
10.78331
 20
12.277922
 30
0.0
 11
11.176576
 21
12.277922
 31
0.0
  0
SOLID
  8
0
  6
BYBLOCK
 62
     0
 10
12.459061
 20
12.330422
 30
0.0
 11
12.459061
 21
12.225422
 31
0.0
 12
12.774061
 22
12.277922
 32
0.0
 13
12.774061
 23
12.277922
 33
0.0
  0
SOLID
  8
0
  6
BYBLOCK
 62
     0
 10
10.78331
 20
12.330422
 30
0.0
 11
10.78331
 21
12.225422
 31
0.0
 12
10.46831
 22
12.277922
 32
0.0
 13
10.46831
 23
12.277922
 33
0.0
  0
TEXT
  8
0
  6
BYBLOCK
 62
     0
 10
11.334076
 20
12.168547
 30
0.0
 40
0.21875
  1
2.000
 41
0.75
  7
TXT
 72
     1
 11
11.621186
 21
12.277922
 31
0.0
 73
     2
  0
POINT
  8
DEFPOINTS
  6
BYBLOCK
 62
     0
 10
12.374469
 20
14.544124
 30
0.0
  0
POINT
  8
DEFPOINTS
  6
BYBLOCK
 62
     0
 10
10.374469
 20
12.810124
 30
0.0
  0
POINT
  8
DEFPOINTS
  6
BYBLOCK
 62
     0
 10
10.46831
 20
12.277922
 30
0.0
  0
ENDBLK
  8
0
  0
BLOCK
  8
0
  2
*D45
 70
    65
 10
0.0
 20
0.0
 30
0.0
  3
*D
  0
LINE
  8
0
  6
BYBLOCK
 62
     0
 10
32.417211
 20
12.699874
 30
0.0
 11
32.417211
 21
12.115172
 31
0.0
  0
LINE
  8
0
  6
BYBLOCK
 62
     0
 10
31.917211
 20
12.699874
 30
0.0
 11
31.917211
 21
12.115172
 31
0.0
  0
LINE
  8
0
  6
BYBLOCK
 62
     0
 10
32.732211
 20
12.277922
 30
0.0
 11
33.047211
 21
12.277922
 31
0.0
  0
LINE
  8
0
  6
BYBLOCK
 62
     0
 10
31.602211
 20
12.277922
 30
0.0
 11
31.287211
 21
12.277922
 31
0.0
  0
SOLID
  8
0
  6
BYBLOCK
 62
     0
 10
32.732211
 20
12.330422
 30
0.0
 11
32.732211
 21
12.225422
 31
0.0
 12
32.417211
 22
12.277922
 32
0.0
 13
32.417211
 23
12.277922
 33
0.0
  0
SOLID
  8
0
  6
BYBLOCK
 62
     0
 10
31.602211
 20
12.330422
 30
0.0
 11
31.602211
 21
12.225422
 31
0.0
 12
31.917211
 22
12.277922
 32
0.0
 13
31.917211
 23
12.277922
 33
0.0
  0
TEXT
  8
0
  6
BYBLOCK
 62
     0
 10
30.555492
 20
12.168547
 30
0.0
 40
0.21875
  1
0.500
 41
0.75
  7
TXT
 72
     1
 11
30.842601
 21
12.277922
 31
0.0
 73
     2
  0
POINT
  8
DEFPOINTS
  6
BYBLOCK
 62
     0
 10
32.417211
 20
12.810124
 30
0.0
  0
POINT
  8
DEFPOINTS
  6
BYBLOCK
 62
     0
 10
31.917211
 20
12.810124
 30
0.0
  0
POINT
  8
DEFPOINTS
  6
BYBLOCK
 62
     0
 10
31.917211
 20
12.277922
 30
0.0
  0
ENDBLK
  8
0
  0
BLOCK
  8
0
  2
*D46
 70
    65
 10
0.0
 20
0.0
 30
0.0
  3
*D
  0
LINE
  8
0
  6
BYBLOCK
 62
     0
 10
12.860685
 20
13.294124
 30
0.0
 11
10.195382
 21
13.294124
 31
0.0
  0
LINE
  8
0
  6
BYBLOCK
 62
     0
 10
10.860685
 20
12.810124
 30
0.0
 11
10.195382
 21
12.810124
 31
0.0
  0
LINE
  8
0
  6
BYBLOCK
 62
     0
 10
10.358132
 20
13.609124
 30
0.0
 11
10.358132
 21
13.924124
 31
0.0
  0
LINE
  8
0
  6
BYBLOCK
 62
     0
 10
10.358132
 20
12.495124
 30
0.0
 11
10.358132
 21
12.180124
 31
0.0
  0
SOLID
  8
0
  6
BYBLOCK
 62
     0
 10
10.305632
 20
13.609124
 30
0.0
 11
10.410632
 21
13.609124
 31
0.0
 12
10.358132
 22
13.294124
 32
0.0
 13
10.358132
 23
13.294124
 33
0.0
  0
SOLID
  8
0
  6
BYBLOCK
 62
     0
 10
10.305632
 20
12.495124
 30
0.0
 11
10.410632
 21
12.495124
 31
0.0
 12
10.358132
 22
12.810124
 32
0.0
 13
10.358132
 23
12.810124
 33
0.0
  0
TEXT
  8
0
  6
BYBLOCK
 62
     0
 10
10.043679
 20
12.942749
 30
0.0
 40
0.21875
  1
0.484
 41
0.75
  7
TXT
 72
     1
 11
10.358132
 21
13.052124
 31
0.0
 73
     2
  0
POINT
  8
DEFPOINTS
  6
BYBLOCK
 62
     0
 10
12.970935
 20
13.294124
 30
0.0
  0
POINT
  8
DEFPOINTS
  6
BYBLOCK
 62
     0
 10
10.970935
 20
12.810124
 30
0.0
  0
POINT
  8
DEFPOINTS
  6
BYBLOCK
 62
     0
 10
10.358132
 20
12.810124
 30
0.0
  0
ENDBLK
  8
0
  0
BLOCK
  8
0
  2
*D47
 70
    65
 10
0.0
 20
0.0
 30
0.0
  3
*D
  0
LINE
  8
0
  6
BYBLOCK
 62
     0
 10
12.235685
 20
13.919124
 30
0.0
 11
9.485304
 21
13.919124
 31
0.0
  0
LINE
  8
0
  6
BYBLOCK
 62
     0
 10
10.860685
 20
12.810124
 30
0.0
 11
9.485304
 21
12.810124
 31
0.0
  0
LINE
  8
0
  6
BYBLOCK
 62
     0
 10
9.648054
 20
14.234124
 30
0.0
 11
9.648054
 21
14.549124
 31
0.0
  0
LINE
  8
0
  6
BYBLOCK
 62
     0
 10
9.648054
 20
12.495124
 30
0.0
 11
9.648054
 21
12.180124
 31
0.0
  0
SOLID
  8
0
  6
BYBLOCK
 62
     0
 10
9.595554
 20
14.234124
 30
0.0
 11
9.700554
 21
14.234124
 31
0.0
 12
9.648054
 22
13.919124
 32
0.0
 13
9.648054
 23
13.919124
 33
0.0
  0
SOLID
  8
0
  6
BYBLOCK
 62
     0
 10
9.595554
 20
12.495124
 30
0.0
 11
9.700554
 21
12.495124
 31
0.0
 12
9.648054
 22
12.810124
 32
0.0
 13
9.648054
 23
12.810124
 33
0.0
  0
TEXT
  8
0
  6
BYBLOCK
 62
     0
 10
9.388288
 20
13.255249
 30
0.0
 40
0.21875
  1
1.109
 41
0.75
  7
TXT
 72
     1
 11
9.648054
 21
13.364624
 31
0.0
 73
     2
  0
POINT
  8
DEFPOINTS
  6
BYBLOCK
 62
     0
 10
12.345935
 20
13.919124
 30
0.0
  0
POINT
  8
DEFPOINTS
  6
BYBLOCK
 62
     0
 10
10.970935
 20
12.810124
 30
0.0
  0
POINT
  8
DEFPOINTS
  6
BYBLOCK
 62
     0
 10
9.648054
 20
12.810124
 30
0.0
  0
ENDBLK
  8
0
  0
BLOCK
  8
0
  2
*D48
 70
    65
 10
0.0
 20
0.0
 30
0.0
  3
*D
  0
LINE
  8
0
  6
BYBLOCK
 62
     0
 10
12.860685
 20
15.794124
 30
0.0
 11
9.485304
 21
15.794124
 31
0.0
  0
LINE
  8
0
  6
BYBLOCK
 62
     0
 10
10.860685
 20
16.278124
 30
0.0
 11
9.485304
 21
16.278124
 31
0.0
  0
LINE
  8
0
  6
BYBLOCK
 62
     0
 10
9.648054
 20
15.479124
 30
0.0
 11
9.648054
 21
15.164124
 31
0.0
  0
LINE
  8
0
  6
BYBLOCK
 62
     0
 10
9.648054
 20
16.593124
 30
0.0
 11
9.648054
 21
16.908124
 31
0.0
  0
SOLID
  8
0
  6
BYBLOCK
 62
     0
 10
9.595554
 20
15.479124
 30
0.0
 11
9.700554
 21
15.479124
 31
0.0
 12
9.648054
 22
15.794124
 32
0.0
 13
9.648054
 23
15.794124
 33
0.0
  0
SOLID
  8
0
  6
BYBLOCK
 62
     0
 10
9.595554
 20
16.593124
 30
0.0
 11
9.700554
 21
16.593124
 31
0.0
 12
9.648054
 22
16.278124
 32
0.0
 13
9.648054
 23
16.278124
 33
0.0
  0
TEXT
  8
0
  6
BYBLOCK
 62
     0
 10
9.333601
 20
15.926749
 30
0.0
 40
0.21875
  1
0.484
 41
0.75
  7
TXT
 72
     1
 11
9.648054
 21
16.036124
 31
0.0
 73
     2
  0
POINT
  8
DEFPOINTS
  6
BYBLOCK
 62
     0
 10
12.970935
 20
15.794124
 30
0.0
  0
POINT
  8
DEFPOINTS
  6
BYBLOCK
 62
     0
 10
10.970935
 20
16.278124
 30
0.0
  0
POINT
  8
DEFPOINTS
  6
BYBLOCK
 62
     0
 10
9.648054
 20
16.278124
 30
0.0
  0
ENDBLK
  8
0
  0
BLOCK
  8
0
  2
*D49
 70
    65
 10
0.0
 20
0.0
 30
0.0
  3
*D
  0
LINE
  8
0
  6
BYBLOCK
 62
     0
 10
12.235685
 20
15.169124
 30
0.0
 11
8.775225
 21
15.169124
 31
0.0
  0
LINE
  8
0
  6
BYBLOCK
 62
     0
 10
10.860685
 20
16.278124
 30
0.0
 11
8.775225
 21
16.278124
 31
0.0
  0
LINE
  8
0
  6
BYBLOCK
 62
     0
 10
8.937975
 20
14.854124
 30
0.0
 11
8.937975
 21
14.539124
 31
0.0
  0
LINE
  8
0
  6
BYBLOCK
 62
     0
 10
8.937975
 20
16.593124
 30
0.0
 11
8.937975
 21
16.908124
 31
0.0
  0
SOLID
  8
0
  6
BYBLOCK
 62
     0
 10
8.885475
 20
14.854124
 30
0.0
 11
8.990475
 21
14.854124
 31
0.0
 12
8.937975
 22
15.169124
 32
0.0
 13
8.937975
 23
15.169124
 33
0.0
  0
SOLID
  8
0
  6
BYBLOCK
 62
     0
 10
8.885475
 20
16.593124
 30
0.0
 11
8.990475
 21
16.593124
 31
0.0
 12
8.937975
 22
16.278124
 32
0.0
 13
8.937975
 23
16.278124
 33
0.0
  0
TEXT
  8
0
  6
BYBLOCK
 62
     0
 10
8.67821
 20
15.614249
 30
0.0
 40
0.21875
  1
1.109
 41
0.75
  7
TXT
 72
     1
 11
8.937975
 21
15.723624
 31
0.0
 73
     2
  0
POINT
  8
DEFPOINTS
  6
BYBLOCK
 62
     0
 10
12.345935
 20
15.169124
 30
0.0
  0
POINT
  8
DEFPOINTS
  6
BYBLOCK
 62
     0
 10
10.970935
 20
16.278124
 30
0.0
  0
POINT
  8
DEFPOINTS
  6
BYBLOCK
 62
     0
 10
8.937975
 20
16.278124
 30
0.0
  0
ENDBLK
  8
0
  0
BLOCK
  8
0
  2
*D50
 70
    65
 10
0.0
 20
0.0
 30
0.0
  3
*D
  0
LINE
  8
0
  6
BYBLOCK
 62
     0
 10
12.860685
 20
14.544124
 30
0.0
 11
8.09355
 21
14.544124
 31
0.0
  0
LINE
  8
0
  6
BYBLOCK
 62
     0
 10
10.860685
 20
16.278124
 30
0.0
 11
8.09355
 21
16.278124
 31
0.0
  0
LINE
  8
0
  6
BYBLOCK
 62
     0
 10
8.2563
 20
14.859124
 30
0.0
 11
8.2563
 21
15.144249
 31
0.0
  0
LINE
  8
0
  6
BYBLOCK
 62
     0
 10
8.2563
 20
15.963124
 30
0.0
 11
8.2563
 21
15.677999
 31
0.0
  0
SOLID
  8
0
  6
BYBLOCK
 62
     0
 10
8.2038
 20
14.859124
 30
0.0
 11
8.3088
 21
14.859124
 31
0.0
 12
8.2563
 22
14.544124
 32
0.0
 13
8.2563
 23
14.544124
 33
0.0
  0
SOLID
  8
0
  6
BYBLOCK
 62
     0
 10
8.2038
 20
15.963124
 30
0.0
 11
8.3088
 21
15.963124
 31
0.0
 12
8.2563
 22
16.278124
 32
0.0
 13
8.2563
 23
16.278124
 33
0.0
  0
TEXT
  8
0
  6
BYBLOCK
 62
     0
 10
7.955519
 20
15.301749
 30
0.0
 40
0.21875
  1
1.734
 41
0.75
  7
TXT
 72
     1
 11
8.2563
 21
15.411124
 31
0.0
 73
     2
  0
POINT
  8
DEFPOINTS
  6
BYBLOCK
 62
     0
 10
12.970935
 20
14.544124
 30
0.0
  0
POINT
  8
DEFPOINTS
  6
BYBLOCK
 62
     0
 10
10.970935
 20
16.278124
 30
0.0
  0
POINT
  8
DEFPOINTS
  6
BYBLOCK
 62
     0
 10
8.2563
 20
16.278124
 30
0.0
  0
ENDBLK
  8
0
  0
BLOCK
  8
0
  2
CAT1227A
 70
     0
 10
0.0
 20
0.0
 30
0.0
  3
CAT1227A
  0
LINE
  8
OBJECT
 10
2.52034
 20
4.783717
 30
0.0
 11
2.52034
 21
1.315717
 31
0.0
  0
LINE
  8
OBJECT
 10
18.974823
 20
14.283717
 30
0.0
 11
18.974823
 21
12.299717
 31
0.0
  0
LINE
  8
OBJECT
 10
2.52034
 20
4.783717
 30
0.0
 11
18.974823
 21
14.283717
 31
0.0
  0
LINE
  8
OBJECT
 10
2.52034
 20
1.315717
 30
0.0
 11
4.238535
 21
2.307717
 31
0.0
  0
LINE
  8
OBJECT
 10
2.466647
 20
4.814717
 30
0.0
 11
2.466647
 21
1.346717
 31
0.0
  0
LINE
  8
OBJECT
 10
2.466647
 20
4.814717
 30
0.0
 11
3.007912
 21
5.127217
 31
0.0
  0
LINE
  8
OBJECT
 10
2.466647
 20
4.814717
 30
0.0
 11
2.52034
 21
4.783717
 31
0.0
  0
LINE
  8
OBJECT
 10
2.466647
 20
1.346717
 30
0.0
 11
2.52034
 21
1.315717
 31
0.0
  0
LINE
  8
OBJECT
 10
2.628593
 20
5.346217
 30
0.0
 11
18.000544
 21
14.221217
 31
0.0
  0
LINE
  8
OBJECT
 10
2.628593
 20
5.346217
 30
0.0
 11
3.007912
 21
5.127217
 31
0.0
  0
LINE
  8
OBJECT
 10
2.628593
 20
5.346217
 30
0.0
 11
2.628593
 21
5.284217
 31
0.0
  0
LINE
  8
OBJECT
 10
2.628593
 20
5.284217
 30
0.0
 11
2.954219
 21
5.096217
 31
0.0
  0
LINE
  8
OBJECT
 10
18.921129
 20
14.314717
 30
0.0
 11
18.974823
 21
14.283717
 31
0.0
  0
LINE
  8
OBJECT
 10
18.000544
 20
14.221217
 30
0.0
 11
18.379863
 21
14.002217
 31
0.0
  0
LINE
  8
OBJECT
 10
18.379863
 20
14.002217
 30
0.0
 11
18.921129
 21
14.314717
 31
0.0
  0
LINE
  8
OBJECT
 10
2.748971
 20
4.820717
 30
0.0
 11
2.859822
 21
4.884717
 31
0.0
  0
LINE
  8
OBJECT
 10
2.748971
 20
4.542717
 30
0.0
 11
2.859822
 21
4.606717
 31
0.0
  0
POLYLINE
  8
OBJECT
 66
     1
 10
0.0
 20
0.0
 30
0.0
  0
VERTEX
  8
OBJECT
 10
2.859822
 20
4.606717
 30
0.0
 42
0.072341
 70
     2
 50
30.0
  0
VERTEX
  8
OBJECT
 10
2.903784
 20
4.641405
 30
0.0
 42
0.058752
 50
30.0
  0
VERTEX
  8
OBJECT
 10
2.944942
 20
4.696573
 30
0.0
 42
0.058752
  0
VERTEX
  8
OBJECT
 10
2.97214
 20
4.759801
 30
0.0
 42
0.072341
  0
VERTEX
  8
OBJECT
 10
2.9802
 20
4.815217
 30
0.0
 42
0.106617
 70
     2
 50
90.0
  0
VERTEX
  8
OBJECT
 10
2.969157
 20
4.866417
 30
0.0
 42
0.156851
 50
90.0
  0
VERTEX
  8
OBJECT
 10
2.944942
 20
4.893149
 30
0.0
 42
0.156851
  0
VERTEX
  8
OBJECT
 10
2.909684
 20
4.900754
 30
0.0
 42
0.106617
  0
VERTEX
  8
OBJECT
 10
2.859822
 20
4.884717
 30
0.0
 42
0.072341
 70
     2
 50
210.0
  0
SEQEND
  8
OBJECT
  0
POLYLINE
  8
OBJECT
 66
     1
 10
0.0
 20
0.0
 30
0.0
  0
VERTEX
  8
OBJECT
 10
2.663851
 20
4.730861
 30
0.0
 42
0.058752
  0
VERTEX
  8
OBJECT
 10
2.636653
 20
4.667633
 30
0.0
 42
0.072341
  0
VERTEX
  8
OBJECT
 10
2.628593
 20
4.612217
 30
0.0
 42
0.106617
 70
     2
 50
270.0
  0
VERTEX
  8
OBJECT
 10
2.639636
 20
4.561017
 30
0.0
 42
0.156851
 50
270.0
  0
VERTEX
  8
OBJECT
 10
2.663851
 20
4.534286
 30
0.0
 42
0.156851
  0
VERTEX
  8
OBJECT
 10
2.699109
 20
4.526681
 30
0.0
 42
0.106617
  0
VERTEX
  8
OBJECT
 10
2.748971
 20
4.542717
 30
0.0
 42
0.072341
 70
     2
 50
30.0
  0
SEQEND
  8
OBJECT
  0
POLYLINE
  8
OBJECT
 66
     1
 10
0.0
 20
0.0
 30
0.0
  0
VERTEX
  8
OBJECT
 10
2.748971
 20
4.820717
 30
0.0
 42
0.072341
 70
     2
 50
210.0
  0
VERTEX
  8
OBJECT
 10
2.705009
 20
4.786029
 30
0.0
 42
0.058752
 50
210.0
  0
VERTEX
  8
OBJECT
 10
2.663851
 20
4.730861
 30
0.0
 42
0.058752
  0
SEQEND
  8
OBJECT
  0
LINE
  8
OBJECT
 10
2.695277
 20
4.573717
 30
0.0
 11
2.806129
 21
4.637717
 31
0.0
  0
POLYLINE
  8
OBJECT
 66
     1
 10
0.0
 20
0.0
 30
0.0
  0
VERTEX
  8
OBJECT
 10
2.641413
 20
4.557422
 30
0.0
 42
0.017027
  0
VERTEX
  8
OBJECT
 10
2.645415
 20
4.557681
 30
0.0
 42
0.106617
  0
VERTEX
  8
OBJECT
 10
2.695277
 20
4.573717
 30
0.0
 42
0.072341
 70
     2
 50
30.0
  0
SEQEND
  8
OBJECT
  0
POLYLINE
  8
OBJECT
 66
     1
 10
0.0
 20
0.0
 30
0.0
  0
VERTEX
  8
OBJECT
 10
2.806129
 20
4.637717
 30
0.0
 42
0.072341
 70
     2
 50
30.0
  0
VERTEX
  8
OBJECT
 10
2.85009
 20
4.672405
 30
0.0
 42
0.058752
 50
30.0
  0
VERTEX
  8
OBJECT
 10
2.891248
 20
4.727573
 30
0.0
 42
0.058752
  0
VERTEX
  8
OBJECT
 10
2.918446
 20
4.790801
 30
0.0
 42
0.072341
  0
VERTEX
  8
OBJECT
 10
2.926506
 20
4.846217
 30
0.0
 42
0.106617
 70
     2
 50
90.0
  0
VERTEX
  8
OBJECT
 10
2.915463
 20
4.897417
 30
0.0
 42
0.017027
 50
90.0
  0
VERTEX
  8
OBJECT
 10
2.913686
 20
4.901013
 30
0.0
 42
0.156851
  0
SEQEND
  8
OBJECT
  0
POLYLINE
  8
OBJECT
 66
     1
 10
0.0
 20
0.0
 30
0.0
  0
VERTEX
  8
OBJECT
 10
2.806129
 20
1.637717
 30
0.0
 42
0.072341
 70
     2
 50
30.0
  0
VERTEX
  8
OBJECT
 10
2.85009
 20
1.672405
 30
0.0
 42
0.058752
 50
30.0
  0
VERTEX
  8
OBJECT
 10
2.891248
 20
1.727573
 30
0.0
 42
0.058752
  0
VERTEX
  8
OBJECT
 10
2.918446
 20
1.790801
 30
0.0
 42
0.072341
  0
VERTEX
  8
OBJECT
 10
2.926506
 20
1.846217
 30
0.0
 42
0.106617
 70
     2
 50
90.0
  0
VERTEX
  8
OBJECT
 10
2.915463
 20
1.897417
 30
0.0
 42
0.017027
 50
90.0
  0
VERTEX
  8
OBJECT
 10
2.913686
 20
1.901013
 30
0.0
 42
0.156851
  0
SEQEND
  8
OBJECT
  0
POLYLINE
  8
OBJECT
 66
     1
 10
0.0
 20
0.0
 30
0.0
  0
VERTEX
  8
OBJECT
 10
2.641413
 20
1.557422
 30
0.0
 42
0.017027
  0
VERTEX
  8
OBJECT
 10
2.645415
 20
1.557681
 30
0.0
 42
0.106617
  0
VERTEX
  8
OBJECT
 10
2.695277
 20
1.573717
 30
0.0
 42
0.072341
 70
     2
 50
30.0
  0
SEQEND
  8
OBJECT
  0
LINE
  8
OBJECT
 10
2.695277
 20
1.573717
 30
0.0
 11
2.806129
 21
1.637717
 31
0.0
  0
LINE
  8
OBJECT
 10
2.748971
 20
1.542717
 30
0.0
 11
2.859822
 21
1.606717
 31
0.0
  0
LINE
  8
OBJECT
 10
2.748971
 20
1.820717
 30
0.0
 11
2.859822
 21
1.884717
 31
0.0
  0
POLYLINE
  8
OBJECT
 66
     1
 10
0.0
 20
0.0
 30
0.0
  0
VERTEX
  8
OBJECT
 10
2.748971
 20
1.820717
 30
0.0
 42
0.072341
 70
     2
 50
210.0
  0
VERTEX
  8
OBJECT
 10
2.705009
 20
1.786029
 30
0.0
 42
0.058752
 50
210.0
  0
VERTEX
  8
OBJECT
 10
2.663851
 20
1.730861
 30
0.0
 42
0.058752
  0
SEQEND
  8
OBJECT
  0
POLYLINE
  8
OBJECT
 66
     1
 10
0.0
 20
0.0
 30
0.0
  0
VERTEX
  8
OBJECT
 10
2.663851
 20
1.730861
 30
0.0
 42
0.058752
  0
VERTEX
  8
OBJECT
 10
2.636653
 20
1.667633
 30
0.0
 42
0.072341
  0
VERTEX
  8
OBJECT
 10
2.628593
 20
1.612217
 30
0.0
 42
0.106617
 70
     2
 50
270.0
  0
VERTEX
  8
OBJECT
 10
2.639636
 20
1.561017
 30
0.0
 42
0.156851
 50
270.0
  0
VERTEX
  8
OBJECT
 10
2.663851
 20
1.534286
 30
0.0
 42
0.156851
  0
VERTEX
  8
OBJECT
 10
2.699109
 20
1.526681
 30
0.0
 42
0.106617
  0
VERTEX
  8
OBJECT
 10
2.748971
 20
1.542717
 30
0.0
 42
0.072341
 70
     2
 50
30.0
  0
SEQEND
  8
OBJECT
  0
POLYLINE
  8
OBJECT
 66
     1
 10
0.0
 20
0.0
 30
0.0
  0
VERTEX
  8
OBJECT
 10
2.859822
 20
1.606717
 30
0.0
 42
0.072341
 70
     2
 50
30.0
  0
VERTEX
  8
OBJECT
 10
2.903784
 20
1.641405
 30
0.0
 42
0.058752
 50
30.0
  0
VERTEX
  8
OBJECT
 10
2.944942
 20
1.696573
 30
0.0
 42
0.058752
  0
VERTEX
  8
OBJECT
 10
2.97214
 20
1.759801
 30
0.0
 42
0.072341
  0
VERTEX
  8
OBJECT
 10
2.9802
 20
1.815217
 30
0.0
 42
0.106617
 70
     2
 50
90.0
  0
VERTEX
  8
OBJECT
 10
2.969157
 20
1.866417
 30
0.0
 42
0.156851
 50
90.0
  0
VERTEX
  8
OBJECT
 10
2.944942
 20
1.893149
 30
0.0
 42
0.156851
  0
VERTEX
  8
OBJECT
 10
2.909684
 20
1.900754
 30
0.0
 42
0.106617
  0
VERTEX
  8
OBJECT
 10
2.859822
 20
1.884717
 30
0.0
 42
0.072341
 70
     2
 50
210.0
  0
SEQEND
  8
OBJECT
  0
POLYLINE
  8
OBJECT
 66
     1
 10
0.0
 20
0.0
 30
0.0
  0
VERTEX
  8
OBJECT
 10
18.692499
 20
13.809717
 30
0.0
 42
0.072341
 70
     2
 50
30.0
  0
VERTEX
  8
OBJECT
 10
18.73646
 20
13.844405
 30
0.0
 42
0.058752
 50
30.0
  0
VERTEX
  8
OBJECT
 10
18.777618
 20
13.899573
 30
0.0
 42
0.058752
  0
VERTEX
  8
OBJECT
 10
18.804816
 20
13.962801
 30
0.0
 42
0.072341
  0
VERTEX
  8
OBJECT
 10
18.812876
 20
14.018217
 30
0.0
 42
0.106617
 70
     2
 50
90.0
  0
VERTEX
  8
OBJECT
 10
18.801833
 20
14.069417
 30
0.0
 42
0.017027
 50
90.0
  0
VERTEX
  8
OBJECT
 10
18.800056
 20
14.073013
 30
0.0
 42
0.156851
  0
SEQEND
  8
OBJECT
  0
POLYLINE
  8
OBJECT
 66
     1
 10
0.0
 20
0.0
 30
0.0
  0
VERTEX
  8
OBJECT
 10
18.527783
 20
13.729422
 30
0.0
 42
0.017027
  0
VERTEX
  8
OBJECT
 10
18.531785
 20
13.729681
 30
0.0
 42
0.106617
  0
VERTEX
  8
OBJECT
 10
18.581647
 20
13.745717
 30
0.0
 42
0.072341
 70
     2
 50
30.0
  0
SEQEND
  8
OBJECT
  0
LINE
  8
OBJECT
 10
18.581647
 20
13.745717
 30
0.0
 11
18.692499
 21
13.809717
 31
0.0
  0
LINE
  8
OBJECT
 10
18.635341
 20
13.714717
 30
0.0
 11
18.746192
 21
13.778717
 31
0.0
  0
LINE
  8
OBJECT
 10
18.635341
 20
13.992717
 30
0.0
 11
18.746192
 21
14.056717
 31
0.0
  0
POLYLINE
  8
OBJECT
 66
     1
 10
0.0
 20
0.0
 30
0.0
  0
VERTEX
  8
OBJECT
 10
18.635341
 20
13.992717
 30
0.0
 42
0.072341
 70
     2
 50
210.0
  0
VERTEX
  8
OBJECT
 10
18.591379
 20
13.958029
 30
0.0
 42
0.058752
 50
210.0
  0
VERTEX
  8
OBJECT
 10
18.550221
 20
13.902861
 30
0.0
 42
0.058752
  0
SEQEND
  8
OBJECT
  0
POLYLINE
  8
OBJECT
 66
     1
 10
0.0
 20
0.0
 30
0.0
  0
VERTEX
  8
OBJECT
 10
18.550221
 20
13.902861
 30
0.0
 42
0.058752
  0
VERTEX
  8
OBJECT
 10
18.523023
 20
13.839633
 30
0.0
 42
0.072341
  0
VERTEX
  8
OBJECT
 10
18.514963
 20
13.784217
 30
0.0
 42
0.106617
 70
     2
 50
270.0
  0
VERTEX
  8
OBJECT
 10
18.526006
 20
13.733017
 30
0.0
 42
0.156851
 50
270.0
  0
VERTEX
  8
OBJECT
 10
18.550221
 20
13.706286
 30
0.0
 42
0.156851
  0
VERTEX
  8
OBJECT
 10
18.585479
 20
13.698681
 30
0.0
 42
0.106617
  0
VERTEX
  8
OBJECT
 10
18.635341
 20
13.714717
 30
0.0
 42
0.072341
 70
     2
 50
30.0
  0
SEQEND
  8
OBJECT
  0
POLYLINE
  8
OBJECT
 66
     1
 10
0.0
 20
0.0
 30
0.0
  0
VERTEX
  8
OBJECT
 10
18.746192
 20
13.778717
 30
0.0
 42
0.072341
 70
     2
 50
30.0
  0
VERTEX
  8
OBJECT
 10
18.790154
 20
13.813405
 30
0.0
 42
0.058752
 50
30.0
  0
VERTEX
  8
OBJECT
 10
18.831312
 20
13.868573
 30
0.0
 42
0.058752
  0
VERTEX
  8
OBJECT
 10
18.85851
 20
13.931801
 30
0.0
 42
0.072341
  0
VERTEX
  8
OBJECT
 10
18.86657
 20
13.987217
 30
0.0
 42
0.106617
 70
     2
 50
90.0
  0
VERTEX
  8
OBJECT
 10
18.855527
 20
14.038417
 30
0.0
 42
0.156851
 50
90.0
  0
VERTEX
  8
OBJECT
 10
18.831312
 20
14.065149
 30
0.0
 42
0.156851
  0
VERTEX
  8
OBJECT
 10
18.796054
 20
14.072754
 30
0.0
 42
0.106617
  0
VERTEX
  8
OBJECT
 10
18.746192
 20
14.056717
 30
0.0
 42
0.072341
 70
     2
 50
210.0
  0
SEQEND
  8
OBJECT
  0
POLYLINE
  8
OBJECT
 66
     1
 10
0.0
 20
0.0
 30
0.0
 70
     1
  0
VERTEX
  8
OBJECT
 10
4.71711
 20
5.031412
 30
0.0
 42
0.058752
  0
VERTEX
  8
OBJECT
 10
4.692652
 20
4.974552
 30
0.0
 42
0.072341
  0
VERTEX
  8
OBJECT
 10
4.685404
 20
4.924717
 30
0.0
 42
0.106617
 70
     2
 50
270.0
  0
VERTEX
  8
OBJECT
 10
4.695335
 20
4.878674
 30
0.0
 42
0.156851
 50
270.0
  0
VERTEX
  8
OBJECT
 10
4.71711
 20
4.854635
 30
0.0
 42
0.156851
  0
VERTEX
  8
OBJECT
 10
4.748817
 20
4.847796
 30
0.0
 42
0.106617
  0
VERTEX
  8
OBJECT
 10
4.793657
 20
4.862217
 30
0.0
 42
0.072341
 70
     2
 50
30.0
  0
VERTEX
  8
OBJECT
 10
4.833191
 20
4.893412
 30
0.0
 42
0.058752
 50
30.0
  0
VERTEX
  8
OBJECT
 10
4.870203
 20
4.943023
 30
0.0
 42
0.058752
  0
VERTEX
  8
OBJECT
 10
4.894662
 20
4.999883
 30
0.0
 42
0.072341
  0
VERTEX
  8
OBJECT
 10
4.90191
 20
5.049717
 30
0.0
 42
0.106617
 70
     2
 50
90.0
  0
VERTEX
  8
OBJECT
 10
4.891979
 20
5.09576
 30
0.0
 42
0.156851
 50
90.0
  0
VERTEX
  8
OBJECT
 10
4.870203
 20
5.1198
 30
0.0
 42
0.156851
  0
VERTEX
  8
OBJECT
 10
4.838497
 20
5.126639
 30
0.0
 42
0.106617
  0
VERTEX
  8
OBJECT
 10
4.793657
 20
5.112217
 30
0.0
 42
0.072341
 70
     2
 50
210.0
  0
VERTEX
  8
OBJECT
 10
4.754123
 20
5.081023
 30
0.0
 42
0.058752
 50
210.0
  0
SEQEND
  8
OBJECT
  0
POLYLINE
  8
OBJECT
 66
     1
 10
0.0
 20
0.0
 30
0.0
  0
VERTEX
  8
OBJECT
 10
4.695273
 20
4.878811
 30
0.0
 42
0.106277
  0
VERTEX
  8
OBJECT
 10
4.739963
 20
4.893217
 30
0.0
 42
0.072341
 70
     2
 50
30.0
  0
VERTEX
  8
OBJECT
 10
4.779497
 20
4.924412
 30
0.0
 42
0.058752
 50
30.0
  0
VERTEX
  8
OBJECT
 10
4.81651
 20
4.974023
 30
0.0
 42
0.058752
  0
VERTEX
  8
OBJECT
 10
4.840968
 20
5.030883
 30
0.0
 42
0.072341
  0
VERTEX
  8
OBJECT
 10
4.848216
 20
5.080717
 30
0.0
 42
0.106277
 70
     2
 50
90.0
  0
VERTEX
  8
OBJECT
 10
4.838347
 20
5.126624
 30
0.0
 42
0.156851
 50
90.0
  0
SEQEND
  8
OBJECT
  0
POLYLINE
  8
OBJECT
 66
     1
 10
0.0
 20
0.0
 30
0.0
 70
     1
  0
VERTEX
  8
OBJECT
 10
5.799642
 20
5.656412
 30
0.0
 42
0.058752
  0
VERTEX
  8
OBJECT
 10
5.775184
 20
5.599552
 30
0.0
 42
0.072341
  0
VERTEX
  8
OBJECT
 10
5.767935
 20
5.549717
 30
0.0
 42
0.106617
 70
     2
 50
270.0
  0
VERTEX
  8
OBJECT
 10
5.777866
 20
5.503674
 30
0.0
 42
0.156851
 50
270.0
  0
VERTEX
  8
OBJECT
 10
5.799642
 20
5.479635
 30
0.0
 42
0.156851
  0
VERTEX
  8
OBJECT
 10
5.831349
 20
5.472796
 30
0.0
 42
0.106617
  0
VERTEX
  8
OBJECT
 10
5.876189
 20
5.487217
 30
0.0
 42
0.072341
 70
     2
 50
30.0
  0
VERTEX
  8
OBJECT
 10
5.915723
 20
5.518412
 30
0.0
 42
0.058752
 50
30.0
  0
VERTEX
  8
OBJECT
 10
5.952735
 20
5.568023
 30
0.0
 42
0.058752
  0
VERTEX
  8
OBJECT
 10
5.977194
 20
5.624883
 30
0.0
 42
0.072341
  0
VERTEX
  8
OBJECT
 10
5.984442
 20
5.674717
 30
0.0
 42
0.106617
 70
     2
 50
90.0
  0
VERTEX
  8
OBJECT
 10
5.974511
 20
5.72076
 30
0.0
 42
0.156851
 50
90.0
  0
VERTEX
  8
OBJECT
 10
5.952735
 20
5.7448
 30
0.0
 42
0.156851
  0
VERTEX
  8
OBJECT
 10
5.921029
 20
5.751639
 30
0.0
 42
0.106617
  0
VERTEX
  8
OBJECT
 10
5.876189
 20
5.737217
 30
0.0
 42
0.072341
 70
     2
 50
210.0
  0
VERTEX
  8
OBJECT
 10
5.836655
 20
5.706023
 30
0.0
 42
0.058752
 50
210.0
  0
SEQEND
  8
OBJECT
  0
POLYLINE
  8
OBJECT
 66
     1
 10
0.0
 20
0.0
 30
0.0
  0
VERTEX
  8
OBJECT
 10
5.777804
 20
5.503811
 30
0.0
 42
0.106277
  0
VERTEX
  8
OBJECT
 10
5.822495
 20
5.518217
 30
0.0
 42
0.072341
 70
     2
 50
30.0
  0
VERTEX
  8
OBJECT
 10
5.862029
 20
5.549412
 30
0.0
 42
0.058752
 50
30.0
  0
VERTEX
  8
OBJECT
 10
5.899042
 20
5.599023
 30
0.0
 42
0.058752
  0
VERTEX
  8
OBJECT
 10
5.9235
 20
5.655883
 30
0.0
 42
0.072341
  0
VERTEX
  8
OBJECT
 10
5.930748
 20
5.705717
 30
0.0
 42
0.106277
 70
     2
 50
90.0
  0
VERTEX
  8
OBJECT
 10
5.920879
 20
5.751624
 30
0.0
 42
0.156851
 50
90.0
  0
SEQEND
  8
OBJECT
  0
POLYLINE
  8
OBJECT
 66
     1
 10
0.0
 20
0.0
 30
0.0
  0
VERTEX
  8
OBJECT
 10
9.0254
 20
7.378811
 30
0.0
 42
0.106277
  0
VERTEX
  8
OBJECT
 10
9.07009
 20
7.393217
 30
0.0
 42
0.072341
 70
     2
 50
30.0
  0
VERTEX
  8
OBJECT
 10
9.109624
 20
7.424412
 30
0.0
 42
0.058752
 50
30.0
  0
VERTEX
  8
OBJECT
 10
9.146637
 20
7.474023
 30
0.0
 42
0.058752
  0
VERTEX
  8
OBJECT
 10
9.171095
 20
7.530883
 30
0.0
 42
0.072341
  0
VERTEX
  8
OBJECT
 10
9.178343
 20
7.580717
 30
0.0
 42
0.106277
 70
     2
 50
90.0
  0
VERTEX
  8
OBJECT
 10
9.168474
 20
7.626624
 30
0.0
 42
0.156851
 50
90.0
  0
SEQEND
  8
OBJECT
  0
POLYLINE
  8
OBJECT
 66
     1
 10
0.0
 20
0.0
 30
0.0
 70
     1
  0
VERTEX
  8
OBJECT
 10
9.047237
 20
7.531412
 30
0.0
 42
0.058752
  0
VERTEX
  8
OBJECT
 10
9.022779
 20
7.474552
 30
0.0
 42
0.072341
  0
VERTEX
  8
OBJECT
 10
9.015531
 20
7.424717
 30
0.0
 42
0.106617
 70
     2
 50
270.0
  0
VERTEX
  8
OBJECT
 10
9.025462
 20
7.378674
 30
0.0
 42
0.156851
 50
270.0
  0
VERTEX
  8
OBJECT
 10
9.047237
 20
7.354635
 30
0.0
 42
0.156851
  0
VERTEX
  8
OBJECT
 10
9.078944
 20
7.347796
 30
0.0
 42
0.106617
  0
VERTEX
  8
OBJECT
 10
9.123784
 20
7.362217
 30
0.0
 42
0.072341
 70
     2
 50
30.0
  0
VERTEX
  8
OBJECT
 10
9.163318
 20
7.393412
 30
0.0
 42
0.058752
 50
30.0
  0
VERTEX
  8
OBJECT
 10
9.20033
 20
7.443023
 30
0.0
 42
0.058752
  0
VERTEX
  8
OBJECT
 10
9.224789
 20
7.499883
 30
0.0
 42
0.072341
  0
VERTEX
  8
OBJECT
 10
9.232037
 20
7.549717
 30
0.0
 42
0.106617
 70
     2
 50
90.0
  0
VERTEX
  8
OBJECT
 10
9.222106
 20
7.59576
 30
0.0
 42
0.156851
 50
90.0
  0
VERTEX
  8
OBJECT
 10
9.20033
 20
7.6198
 30
0.0
 42
0.156851
  0
VERTEX
  8
OBJECT
 10
9.168624
 20
7.626639
 30
0.0
 42
0.106617
  0
VERTEX
  8
OBJECT
 10
9.123784
 20
7.612217
 30
0.0
 42
0.072341
 70
     2
 50
210.0
  0
VERTEX
  8
OBJECT
 10
9.08425
 20
7.581023
 30
0.0
 42
0.058752
 50
210.0
  0
SEQEND
  8
OBJECT
  0
POLYLINE
  8
OBJECT
 66
     1
 10
0.0
 20
0.0
 30
0.0
  0
VERTEX
  8
OBJECT
 10
13.355527
 20
9.878811
 30
0.0
 42
0.106277
  0
VERTEX
  8
OBJECT
 10
13.400217
 20
9.893217
 30
0.0
 42
0.072341
 70
     2
 50
30.0
  0
VERTEX
  8
OBJECT
 10
13.439751
 20
9.924412
 30
0.0
 42
0.058752
 50
30.0
  0
VERTEX
  8
OBJECT
 10
13.476764
 20
9.974023
 30
0.0
 42
0.058752
  0
VERTEX
  8
OBJECT
 10
13.501222
 20
10.030883
 30
0.0
 42
0.072341
  0
VERTEX
  8
OBJECT
 10
13.50847
 20
10.080717
 30
0.0
 42
0.106277
 70
     2
 50
90.0
  0
VERTEX
  8
OBJECT
 10
13.498601
 20
10.126624
 30
0.0
 42
0.156851
 50
90.0
  0
SEQEND
  8
OBJECT
  0
POLYLINE
  8
OBJECT
 66
     1
 10
0.0
 20
0.0
 30
0.0
 70
     1
  0
VERTEX
  8
OBJECT
 10
13.377364
 20
10.031412
 30
0.0
 42
0.058752
  0
VERTEX
  8
OBJECT
 10
13.352906
 20
9.974552
 30
0.0
 42
0.072341
  0
VERTEX
  8
OBJECT
 10
13.345658
 20
9.924717
 30
0.0
 42
0.106617
 70
     2
 50
270.0
  0
VERTEX
  8
OBJECT
 10
13.355589
 20
9.878674
 30
0.0
 42
0.156851
 50
270.0
  0
VERTEX
  8
OBJECT
 10
13.377364
 20
9.854635
 30
0.0
 42
0.156851
  0
VERTEX
  8
OBJECT
 10
13.409071
 20
9.847796
 30
0.0
 42
0.106617
  0
VERTEX
  8
OBJECT
 10
13.453911
 20
9.862217
 30
0.0
 42
0.072341
 70
     2
 50
30.0
  0
VERTEX
  8
OBJECT
 10
13.493445
 20
9.893412
 30
0.0
 42
0.058752
 50
30.0
  0
VERTEX
  8
OBJECT
 10
13.530457
 20
9.943023
 30
0.0
 42
0.058752
  0
VERTEX
  8
OBJECT
 10
13.554916
 20
9.999883
 30
0.0
 42
0.072341
  0
VERTEX
  8
OBJECT
 10
13.562164
 20
10.049717
 30
0.0
 42
0.106617
 70
     2
 50
90.0
  0
VERTEX
  8
OBJECT
 10
13.552233
 20
10.09576
 30
0.0
 42
0.156851
 50
90.0
  0
VERTEX
  8
OBJECT
 10
13.530457
 20
10.1198
 30
0.0
 42
0.156851
  0
VERTEX
  8
OBJECT
 10
13.498751
 20
10.126639
 30
0.0
 42
0.106617
  0
VERTEX
  8
OBJECT
 10
13.453911
 20
10.112217
 30
0.0
 42
0.072341
 70
     2
 50
210.0
  0
VERTEX
  8
OBJECT
 10
13.414377
 20
10.081023
 30
0.0
 42
0.058752
 50
210.0
  0
SEQEND
  8
OBJECT
  0
POLYLINE
  8
OBJECT
 66
     1
 10
0.0
 20
0.0
 30
0.0
  0
VERTEX
  8
OBJECT
 10
16.603122
 20
11.753811
 30
0.0
 42
0.106277
  0
VERTEX
  8
OBJECT
 10
16.647813
 20
11.768217
 30
0.0
 42
0.072341
 70
     2
 50
30.0
  0
VERTEX
  8
OBJECT
 10
16.687347
 20
11.799412
 30
0.0
 42
0.058752
 50
30.0
  0
VERTEX
  8
OBJECT
 10
16.724359
 20
11.849023
 30
0.0
 42
0.058752
  0
VERTEX
  8
OBJECT
 10
16.748818
 20
11.905883
 30
0.0
 42
0.072341
  0
VERTEX
  8
OBJECT
 10
16.756066
 20
11.955717
 30
0.0
 42
0.106277
 70
     2
 50
90.0
  0
VERTEX
  8
OBJECT
 10
16.746197
 20
12.001624
 30
0.0
 42
0.156851
 50
90.0
  0
SEQEND
  8
OBJECT
  0
POLYLINE
  8
OBJECT
 66
     1
 10
0.0
 20
0.0
 30
0.0
 70
     1
  0
VERTEX
  8
OBJECT
 10
16.62496
 20
11.906412
 30
0.0
 42
0.058752
  0
VERTEX
  8
OBJECT
 10
16.600501
 20
11.849552
 30
0.0
 42
0.072341
  0
VERTEX
  8
OBJECT
 10
16.593253
 20
11.799717
 30
0.0
 42
0.106617
 70
     2
 50
270.0
  0
VERTEX
  8
OBJECT
 10
16.603184
 20
11.753674
 30
0.0
 42
0.156851
 50
270.0
  0
VERTEX
  8
OBJECT
 10
16.62496
 20
11.729635
 30
0.0
 42
0.156851
  0
VERTEX
  8
OBJECT
 10
16.656666
 20
11.722796
 30
0.0
 42
0.106617
  0
VERTEX
  8
OBJECT
 10
16.701506
 20
11.737217
 30
0.0
 42
0.072341
 70
     2
 50
30.0
  0
VERTEX
  8
OBJECT
 10
16.74104
 20
11.768412
 30
0.0
 42
0.058752
 50
30.0
  0
VERTEX
  8
OBJECT
 10
16.778053
 20
11.818023
 30
0.0
 42
0.058752
  0
VERTEX
  8
OBJECT
 10
16.802511
 20
11.874883
 30
0.0
 42
0.072341
  0
VERTEX
  8
OBJECT
 10
16.809759
 20
11.924717
 30
0.0
 42
0.106617
 70
     2
 50
90.0
  0
VERTEX
  8
OBJECT
 10
16.799828
 20
11.97076
 30
0.0
 42
0.156851
 50
90.0
  0
VERTEX
  8
OBJECT
 10
16.778053
 20
11.9948
 30
0.0
 42
0.156851
  0
VERTEX
  8
OBJECT
 10
16.746346
 20
12.001639
 30
0.0
 42
0.106617
  0
VERTEX
  8
OBJECT
 10
16.701506
 20
11.987217
 30
0.0
 42
0.072341
 70
     2
 50
210.0
  0
VERTEX
  8
OBJECT
 10
16.661972
 20
11.956023
 30
0.0
 42
0.058752
 50
210.0
  0
SEQEND
  8
OBJECT
  0
POLYLINE
  8
OBJECT
 66
     1
 10
0.0
 20
0.0
 30
0.0
  0
VERTEX
  8
OBJECT
 10
5.777804
 20
4.253811
 30
0.0
 42
0.106277
  0
VERTEX
  8
OBJECT
 10
5.822495
 20
4.268217
 30
0.0
 42
0.072341
 70
     2
 50
30.0
  0
VERTEX
  8
OBJECT
 10
5.862029
 20
4.299412
 30
0.0
 42
0.058752
 50
30.0
  0
VERTEX
  8
OBJECT
 10
5.899042
 20
4.349023
 30
0.0
 42
0.058752
  0
VERTEX
  8
OBJECT
 10
5.9235
 20
4.405883
 30
0.0
 42
0.072341
  0
VERTEX
  8
OBJECT
 10
5.930748
 20
4.455717
 30
0.0
 42
0.106277
 70
     2
 50
90.0
  0
VERTEX
  8
OBJECT
 10
5.920879
 20
4.501624
 30
0.0
 42
0.156851
 50
90.0
  0
SEQEND
  8
OBJECT
  0
POLYLINE
  8
OBJECT
 66
     1
 10
0.0
 20
0.0
 30
0.0
 70
     1
  0
VERTEX
  8
OBJECT
 10
5.799642
 20
4.406412
 30
0.0
 42
0.058752
  0
VERTEX
  8
OBJECT
 10
5.775184
 20
4.349552
 30
0.0
 42
0.072341
  0
VERTEX
  8
OBJECT
 10
5.767935
 20
4.299717
 30
0.0
 42
0.106617
 70
     2
 50
270.0
  0
VERTEX
  8
OBJECT
 10
5.777866
 20
4.253674
 30
0.0
 42
0.156851
 50
270.0
  0
VERTEX
  8
OBJECT
 10
5.799642
 20
4.229635
 30
0.0
 42
0.156851
  0
VERTEX
  8
OBJECT
 10
5.831349
 20
4.222796
 30
0.0
 42
0.106617
  0
VERTEX
  8
OBJECT
 10
5.876189
 20
4.237217
 30
0.0
 42
0.072341
 70
     2
 50
30.0
  0
VERTEX
  8
OBJECT
 10
5.915723
 20
4.268412
 30
0.0
 42
0.058752
 50
30.0
  0
VERTEX
  8
OBJECT
 10
5.952735
 20
4.318023
 30
0.0
 42
0.058752
  0
VERTEX
  8
OBJECT
 10
5.977194
 20
4.374883
 30
0.0
 42
0.072341
  0
VERTEX
  8
OBJECT
 10
5.984442
 20
4.424717
 30
0.0
 42
0.106617
 70
     2
 50
90.0
  0
VERTEX
  8
OBJECT
 10
5.974511
 20
4.47076
 30
0.0
 42
0.156851
 50
90.0
  0
VERTEX
  8
OBJECT
 10
5.952735
 20
4.4948
 30
0.0
 42
0.156851
  0
VERTEX
  8
OBJECT
 10
5.921029
 20
4.501639
 30
0.0
 42
0.106617
  0
VERTEX
  8
OBJECT
 10
5.876189
 20
4.487217
 30
0.0
 42
0.072341
 70
     2
 50
210.0
  0
VERTEX
  8
OBJECT
 10
5.836655
 20
4.456023
 30
0.0
 42
0.058752
 50
210.0
  0
SEQEND
  8
OBJECT
  0
POLYLINE
  8
OBJECT
 66
     1
 10
0.0
 20
0.0
 30
0.0
 70
     1
  0
VERTEX
  8
OBJECT
 10
6.882174
 20
5.031412
 30
0.0
 42
0.058752
  0
VERTEX
  8
OBJECT
 10
6.857715
 20
4.974552
 30
0.0
 42
0.072341
  0
VERTEX
  8
OBJECT
 10
6.850467
 20
4.924717
 30
0.0
 42
0.106617
 70
     2
 50
270.0
  0
VERTEX
  8
OBJECT
 10
6.860398
 20
4.878674
 30
0.0
 42
0.156851
 50
270.0
  0
VERTEX
  8
OBJECT
 10
6.882174
 20
4.854635
 30
0.0
 42
0.156851
  0
VERTEX
  8
OBJECT
 10
6.91388
 20
4.847796
 30
0.0
 42
0.106617
  0
VERTEX
  8
OBJECT
 10
6.95872
 20
4.862217
 30
0.0
 42
0.072341
 70
     2
 50
30.0
  0
VERTEX
  8
OBJECT
 10
6.998254
 20
4.893412
 30
0.0
 42
0.058752
 50
30.0
  0
VERTEX
  8
OBJECT
 10
7.035267
 20
4.943023
 30
0.0
 42
0.058752
  0
VERTEX
  8
OBJECT
 10
7.059725
 20
4.999883
 30
0.0
 42
0.072341
  0
VERTEX
  8
OBJECT
 10
7.066974
 20
5.049717
 30
0.0
 42
0.106617
 70
     2
 50
90.0
  0
VERTEX
  8
OBJECT
 10
7.057043
 20
5.09576
 30
0.0
 42
0.156851
 50
90.0
  0
VERTEX
  8
OBJECT
 10
7.035267
 20
5.1198
 30
0.0
 42
0.156851
  0
VERTEX
  8
OBJECT
 10
7.00356
 20
5.126639
 30
0.0
 42
0.106617
  0
VERTEX
  8
OBJECT
 10
6.95872
 20
5.112217
 30
0.0
 42
0.072341
 70
     2
 50
210.0
  0
VERTEX
  8
OBJECT
 10
6.919186
 20
5.081023
 30
0.0
 42
0.058752
 50
210.0
  0
SEQEND
  8
OBJECT
  0
POLYLINE
  8
OBJECT
 66
     1
 10
0.0
 20
0.0
 30
0.0
  0
VERTEX
  8
OBJECT
 10
6.860336
 20
4.878811
 30
0.0
 42
0.106277
  0
VERTEX
  8
OBJECT
 10
6.905027
 20
4.893217
 30
0.0
 42
0.072341
 70
     2
 50
30.0
  0
VERTEX
  8
OBJECT
 10
6.944561
 20
4.924412
 30
0.0
 42
0.058752
 50
30.0
  0
VERTEX
  8
OBJECT
 10
6.981573
 20
4.974023
 30
0.0
 42
0.058752
  0
VERTEX
  8
OBJECT
 10
7.006032
 20
5.030883
 30
0.0
 42
0.072341
  0
VERTEX
  8
OBJECT
 10
7.01328
 20
5.080717
 30
0.0
 42
0.106277
 70
     2
 50
90.0
  0
VERTEX
  8
OBJECT
 10
7.003411
 20
5.126624
 30
0.0
 42
0.156851
 50
90.0
  0
SEQEND
  8
OBJECT
  0
POLYLINE
  8
OBJECT
 66
     1
 10
0.0
 20
0.0
 30
0.0
  0
VERTEX
  8
OBJECT
 10
7.942868
 20
5.503811
 30
0.0
 42
0.106277
  0
VERTEX
  8
OBJECT
 10
7.987559
 20
5.518217
 30
0.0
 42
0.072341
 70
     2
 50
30.0
  0
VERTEX
  8
OBJECT
 10
8.027092
 20
5.549412
 30
0.0
 42
0.058752
 50
30.0
  0
VERTEX
  8
OBJECT
 10
8.064105
 20
5.599023
 30
0.0
 42
0.058752
  0
VERTEX
  8
OBJECT
 10
8.088564
 20
5.655883
 30
0.0
 42
0.072341
  0
VERTEX
  8
OBJECT
 10
8.095812
 20
5.705717
 30
0.0
 42
0.106277
 70
     2
 50
90.0
  0
VERTEX
  8
OBJECT
 10
8.085943
 20
5.751624
 30
0.0
 42
0.156851
 50
90.0
  0
SEQEND
  8
OBJECT
  0
POLYLINE
  8
OBJECT
 66
     1
 10
0.0
 20
0.0
 30
0.0
 70
     1
  0
VERTEX
  8
OBJECT
 10
7.964706
 20
5.656412
 30
0.0
 42
0.058752
  0
VERTEX
  8
OBJECT
 10
7.940247
 20
5.599552
 30
0.0
 42
0.072341
  0
VERTEX
  8
OBJECT
 10
7.932999
 20
5.549717
 30
0.0
 42
0.106617
 70
     2
 50
270.0
  0
VERTEX
  8
OBJECT
 10
7.94293
 20
5.503674
 30
0.0
 42
0.156851
 50
270.0
  0
VERTEX
  8
OBJECT
 10
7.964706
 20
5.479635
 30
0.0
 42
0.156851
  0
VERTEX
  8
OBJECT
 10
7.996412
 20
5.472796
 30
0.0
 42
0.106617
  0
VERTEX
  8
OBJECT
 10
8.041252
 20
5.487217
 30
0.0
 42
0.072341
 70
     2
 50
30.0
  0
VERTEX
  8
OBJECT
 10
8.080786
 20
5.518412
 30
0.0
 42
0.058752
 50
30.0
  0
VERTEX
  8
OBJECT
 10
8.117799
 20
5.568023
 30
0.0
 42
0.058752
  0
VERTEX
  8
OBJECT
 10
8.142257
 20
5.624883
 30
0.0
 42
0.072341
  0
VERTEX
  8
OBJECT
 10
8.149505
 20
5.674717
 30
0.0
 42
0.106617
 70
     2
 50
90.0
  0
VERTEX
  8
OBJECT
 10
8.139574
 20
5.72076
 30
0.0
 42
0.156851
 50
90.0
  0
VERTEX
  8
OBJECT
 10
8.117799
 20
5.7448
 30
0.0
 42
0.156851
  0
VERTEX
  8
OBJECT
 10
8.086092
 20
5.751639
 30
0.0
 42
0.106617
  0
VERTEX
  8
OBJECT
 10
8.041252
 20
5.737217
 30
0.0
 42
0.072341
 70
     2
 50
210.0
  0
VERTEX
  8
OBJECT
 10
8.001718
 20
5.706023
 30
0.0
 42
0.058752
 50
210.0
  0
SEQEND
  8
OBJECT
  0
POLYLINE
  8
OBJECT
 66
     1
 10
0.0
 20
0.0
 30
0.0
 70
     1
  0
VERTEX
  8
OBJECT
 10
9.047237
 20
6.281412
 30
0.0
 42
0.058752
  0
VERTEX
  8
OBJECT
 10
9.022779
 20
6.224552
 30
0.0
 42
0.072341
  0
VERTEX
  8
OBJECT
 10
9.015531
 20
6.174717
 30
0.0
 42
0.106617
 70
     2
 50
270.0
  0
VERTEX
  8
OBJECT
 10
9.025462
 20
6.128674
 30
0.0
 42
0.156851
 50
270.0
  0
VERTEX
  8
OBJECT
 10
9.047237
 20
6.104635
 30
0.0
 42
0.156851
  0
VERTEX
  8
OBJECT
 10
9.078944
 20
6.097796
 30
0.0
 42
0.106617
  0
VERTEX
  8
OBJECT
 10
9.123784
 20
6.112217
 30
0.0
 42
0.072341
 70
     2
 50
30.0
  0
VERTEX
  8
OBJECT
 10
9.163318
 20
6.143412
 30
0.0
 42
0.058752
 50
30.0
  0
VERTEX
  8
OBJECT
 10
9.20033
 20
6.193023
 30
0.0
 42
0.058752
  0
VERTEX
  8
OBJECT
 10
9.224789
 20
6.249883
 30
0.0
 42
0.072341
  0
VERTEX
  8
OBJECT
 10
9.232037
 20
6.299717
 30
0.0
 42
0.106617
 70
     2
 50
90.0
  0
VERTEX
  8
OBJECT
 10
9.222106
 20
6.34576
 30
0.0
 42
0.156851
 50
90.0
  0
VERTEX
  8
OBJECT
 10
9.20033
 20
6.3698
 30
0.0
 42
0.156851
  0
VERTEX
  8
OBJECT
 10
9.168624
 20
6.376639
 30
0.0
 42
0.106617
  0
VERTEX
  8
OBJECT
 10
9.123784
 20
6.362217
 30
0.0
 42
0.072341
 70
     2
 50
210.0
  0
VERTEX
  8
OBJECT
 10
9.08425
 20
6.331023
 30
0.0
 42
0.058752
 50
210.0
  0
SEQEND
  8
OBJECT
  0
POLYLINE
  8
OBJECT
 66
     1
 10
0.0
 20
0.0
 30
0.0
  0
VERTEX
  8
OBJECT
 10
9.0254
 20
6.128811
 30
0.0
 42
0.106277
  0
VERTEX
  8
OBJECT
 10
9.07009
 20
6.143217
 30
0.0
 42
0.072341
 70
     2
 50
30.0
  0
VERTEX
  8
OBJECT
 10
9.109624
 20
6.174412
 30
0.0
 42
0.058752
 50
30.0
  0
VERTEX
  8
OBJECT
 10
9.146637
 20
6.224023
 30
0.0
 42
0.058752
  0
VERTEX
  8
OBJECT
 10
9.171095
 20
6.280883
 30
0.0
 42
0.072341
  0
VERTEX
  8
OBJECT
 10
9.178343
 20
6.330717
 30
0.0
 42
0.106277
 70
     2
 50
90.0
  0
VERTEX
  8
OBJECT
 10
9.168474
 20
6.376624
 30
0.0
 42
0.156851
 50
90.0
  0
SEQEND
  8
OBJECT
  0
POLYLINE
  8
OBJECT
 66
     1
 10
0.0
 20
0.0
 30
0.0
 70
     1
  0
VERTEX
  8
OBJECT
 10
10.129769
 20
6.906412
 30
0.0
 42
0.058752
  0
VERTEX
  8
OBJECT
 10
10.105311
 20
6.849552
 30
0.0
 42
0.072341
  0
VERTEX
  8
OBJECT
 10
10.098062
 20
6.799717
 30
0.0
 42
0.106617
 70
     2
 50
270.0
  0
VERTEX
  8
OBJECT
 10
10.107993
 20
6.753674
 30
0.0
 42
0.156851
 50
270.0
  0
VERTEX
  8
OBJECT
 10
10.129769
 20
6.729635
 30
0.0
 42
0.156851
  0
VERTEX
  8
OBJECT
 10
10.161476
 20
6.722796
 30
0.0
 42
0.106617
  0
VERTEX
  8
OBJECT
 10
10.206316
 20
6.737217
 30
0.0
 42
0.072341
 70
     2
 50
30.0
  0
VERTEX
  8
OBJECT
 10
10.24585
 20
6.768412
 30
0.0
 42
0.058752
 50
30.0
  0
VERTEX
  8
OBJECT
 10
10.282862
 20
6.818023
 30
0.0
 42
0.058752
  0
VERTEX
  8
OBJECT
 10
10.307321
 20
6.874883
 30
0.0
 42
0.072341
  0
VERTEX
  8
OBJECT
 10
10.314569
 20
6.924717
 30
0.0
 42
0.106617
 70
     2
 50
90.0
  0
VERTEX
  8
OBJECT
 10
10.304638
 20
6.97076
 30
0.0
 42
0.156851
 50
90.0
  0
VERTEX
  8
OBJECT
 10
10.282862
 20
6.9948
 30
0.0
 42
0.156851
  0
VERTEX
  8
OBJECT
 10
10.251156
 20
7.001639
 30
0.0
 42
0.106617
  0
VERTEX
  8
OBJECT
 10
10.206316
 20
6.987217
 30
0.0
 42
0.072341
 70
     2
 50
210.0
  0
VERTEX
  8
OBJECT
 10
10.166782
 20
6.956023
 30
0.0
 42
0.058752
 50
210.0
  0
SEQEND
  8
OBJECT
  0
POLYLINE
  8
OBJECT
 66
     1
 10
0.0
 20
0.0
 30
0.0
  0
VERTEX
  8
OBJECT
 10
10.107931
 20
6.753811
 30
0.0
 42
0.106277
  0
VERTEX
  8
OBJECT
 10
10.152622
 20
6.768217
 30
0.0
 42
0.072341
 70
     2
 50
30.0
  0
VERTEX
  8
OBJECT
 10
10.192156
 20
6.799412
 30
0.0
 42
0.058752
 50
30.0
  0
VERTEX
  8
OBJECT
 10
10.229169
 20
6.849023
 30
0.0
 42
0.058752
  0
VERTEX
  8
OBJECT
 10
10.253627
 20
6.905883
 30
0.0
 42
0.072341
  0
VERTEX
  8
OBJECT
 10
10.260875
 20
6.955717
 30
0.0
 42
0.106277
 70
     2
 50
90.0
  0
VERTEX
  8
OBJECT
 10
10.251006
 20
7.001624
 30
0.0
 42
0.156851
 50
90.0
  0
SEQEND
  8
OBJECT
  0
POLYLINE
  8
OBJECT
 66
     1
 10
0.0
 20
0.0
 30
0.0
 70
     1
  0
VERTEX
  8
OBJECT
 10
13.377364
 20
8.781412
 30
0.0
 42
0.058752
  0
VERTEX
  8
OBJECT
 10
13.352906
 20
8.724552
 30
0.0
 42
0.072341
  0
VERTEX
  8
OBJECT
 10
13.345658
 20
8.674717
 30
0.0
 42
0.106617
 70
     2
 50
270.0
  0
VERTEX
  8
OBJECT
 10
13.355589
 20
8.628674
 30
0.0
 42
0.156851
 50
270.0
  0
VERTEX
  8
OBJECT
 10
13.377364
 20
8.604635
 30
0.0
 42
0.156851
  0
VERTEX
  8
OBJECT
 10
13.409071
 20
8.597796
 30
0.0
 42
0.106617
  0
VERTEX
  8
OBJECT
 10
13.453911
 20
8.612217
 30
0.0
 42
0.072341
 70
     2
 50
30.0
  0
VERTEX
  8
OBJECT
 10
13.493445
 20
8.643412
 30
0.0
 42
0.058752
 50
30.0
  0
VERTEX
  8
OBJECT
 10
13.530457
 20
8.693023
 30
0.0
 42
0.058752
  0
VERTEX
  8
OBJECT
 10
13.554916
 20
8.749883
 30
0.0
 42
0.072341
  0
VERTEX
  8
OBJECT
 10
13.562164
 20
8.799717
 30
0.0
 42
0.106617
 70
     2
 50
90.0
  0
VERTEX
  8
OBJECT
 10
13.552233
 20
8.84576
 30
0.0
 42
0.156851
 50
90.0
  0
VERTEX
  8
OBJECT
 10
13.530457
 20
8.8698
 30
0.0
 42
0.156851
  0
VERTEX
  8
OBJECT
 10
13.498751
 20
8.876639
 30
0.0
 42
0.106617
  0
VERTEX
  8
OBJECT
 10
13.453911
 20
8.862217
 30
0.0
 42
0.072341
 70
     2
 50
210.0
  0
VERTEX
  8
OBJECT
 10
13.414377
 20
8.831023
 30
0.0
 42
0.058752
 50
210.0
  0
SEQEND
  8
OBJECT
  0
POLYLINE
  8
OBJECT
 66
     1
 10
0.0
 20
0.0
 30
0.0
  0
VERTEX
  8
OBJECT
 10
13.355527
 20
8.628811
 30
0.0
 42
0.106277
  0
VERTEX
  8
OBJECT
 10
13.400217
 20
8.643217
 30
0.0
 42
0.072341
 70
     2
 50
30.0
  0
VERTEX
  8
OBJECT
 10
13.439751
 20
8.674412
 30
0.0
 42
0.058752
 50
30.0
  0
VERTEX
  8
OBJECT
 10
13.476764
 20
8.724023
 30
0.0
 42
0.058752
  0
VERTEX
  8
OBJECT
 10
13.501222
 20
8.780883
 30
0.0
 42
0.072341
  0
VERTEX
  8
OBJECT
 10
13.50847
 20
8.830717
 30
0.0
 42
0.106277
 70
     2
 50
90.0
  0
VERTEX
  8
OBJECT
 10
13.498601
 20
8.876624
 30
0.0
 42
0.156851
 50
90.0
  0
SEQEND
  8
OBJECT
  0
POLYLINE
  8
OBJECT
 66
     1
 10
0.0
 20
0.0
 30
0.0
  0
VERTEX
  8
OBJECT
 10
15.52059
 20
9.878811
 30
0.0
 42
0.106277
  0
VERTEX
  8
OBJECT
 10
15.565281
 20
9.893217
 30
0.0
 42
0.072341
 70
     2
 50
30.0
  0
VERTEX
  8
OBJECT
 10
15.604815
 20
9.924412
 30
0.0
 42
0.058752
 50
30.0
  0
VERTEX
  8
OBJECT
 10
15.641827
 20
9.974023
 30
0.0
 42
0.058752
  0
VERTEX
  8
OBJECT
 10
15.666286
 20
10.030883
 30
0.0
 42
0.072341
  0
VERTEX
  8
OBJECT
 10
15.673534
 20
10.080717
 30
0.0
 42
0.106277
 70
     2
 50
90.0
  0
VERTEX
  8
OBJECT
 10
15.663665
 20
10.126624
 30
0.0
 42
0.156851
 50
90.0
  0
SEQEND
  8
OBJECT
  0
POLYLINE
  8
OBJECT
 66
     1
 10
0.0
 20
0.0
 30
0.0
 70
     1
  0
VERTEX
  8
OBJECT
 10
15.542428
 20
10.031412
 30
0.0
 42
0.058752
  0
VERTEX
  8
OBJECT
 10
15.517969
 20
9.974552
 30
0.0
 42
0.072341
  0
VERTEX
  8
OBJECT
 10
15.510721
 20
9.924717
 30
0.0
 42
0.106617
 70
     2
 50
270.0
  0
VERTEX
  8
OBJECT
 10
15.520652
 20
9.878674
 30
0.0
 42
0.156851
 50
270.0
  0
VERTEX
  8
OBJECT
 10
15.542428
 20
9.854635
 30
0.0
 42
0.156851
  0
VERTEX
  8
OBJECT
 10
15.574134
 20
9.847796
 30
0.0
 42
0.106617
  0
VERTEX
  8
OBJECT
 10
15.618974
 20
9.862217
 30
0.0
 42
0.072341
 70
     2
 50
30.0
  0
VERTEX
  8
OBJECT
 10
15.658508
 20
9.893412
 30
0.0
 42
0.058752
 50
30.0
  0
VERTEX
  8
OBJECT
 10
15.695521
 20
9.943023
 30
0.0
 42
0.058752
  0
VERTEX
  8
OBJECT
 10
15.719979
 20
9.999883
 30
0.0
 42
0.072341
  0
VERTEX
  8
OBJECT
 10
15.727228
 20
10.049717
 30
0.0
 42
0.106617
 70
     2
 50
90.0
  0
VERTEX
  8
OBJECT
 10
15.717297
 20
10.09576
 30
0.0
 42
0.156851
 50
90.0
  0
VERTEX
  8
OBJECT
 10
15.695521
 20
10.1198
 30
0.0
 42
0.156851
  0
VERTEX
  8
OBJECT
 10
15.663814
 20
10.126639
 30
0.0
 42
0.106617
  0
VERTEX
  8
OBJECT
 10
15.618974
 20
10.112217
 30
0.0
 42
0.072341
 70
     2
 50
210.0
  0
VERTEX
  8
OBJECT
 10
15.57944
 20
10.081023
 30
0.0
 42
0.058752
 50
210.0
  0
SEQEND
  8
OBJECT
  0
POLYLINE
  8
OBJECT
 66
     1
 10
0.0
 20
0.0
 30
0.0
 70
     1
  0
VERTEX
  8
OBJECT
 10
14.459896
 20
9.406412
 30
0.0
 42
0.058752
  0
VERTEX
  8
OBJECT
 10
14.435438
 20
9.349552
 30
0.0
 42
0.072341
  0
VERTEX
  8
OBJECT
 10
14.428189
 20
9.299717
 30
0.0
 42
0.106617
 70
     2
 50
270.0
  0
VERTEX
  8
OBJECT
 10
14.43812
 20
9.253674
 30
0.0
 42
0.156851
 50
270.0
  0
VERTEX
  8
OBJECT
 10
14.459896
 20
9.229635
 30
0.0
 42
0.156851
  0
VERTEX
  8
OBJECT
 10
14.491603
 20
9.222796
 30
0.0
 42
0.106617
  0
VERTEX
  8
OBJECT
 10
14.536443
 20
9.237217
 30
0.0
 42
0.072341
 70
     2
 50
30.0
  0
VERTEX
  8
OBJECT
 10
14.575977
 20
9.268412
 30
0.0
 42
0.058752
 50
30.0
  0
VERTEX
  8
OBJECT
 10
14.612989
 20
9.318023
 30
0.0
 42
0.058752
  0
VERTEX
  8
OBJECT
 10
14.637448
 20
9.374883
 30
0.0
 42
0.072341
  0
VERTEX
  8
OBJECT
 10
14.644696
 20
9.424717
 30
0.0
 42
0.106617
 70
     2
 50
90.0
  0
VERTEX
  8
OBJECT
 10
14.634765
 20
9.47076
 30
0.0
 42
0.156851
 50
90.0
  0
VERTEX
  8
OBJECT
 10
14.612989
 20
9.4948
 30
0.0
 42
0.156851
  0
VERTEX
  8
OBJECT
 10
14.581283
 20
9.501639
 30
0.0
 42
0.106617
  0
VERTEX
  8
OBJECT
 10
14.536443
 20
9.487217
 30
0.0
 42
0.072341
 70
     2
 50
210.0
  0
VERTEX
  8
OBJECT
 10
14.496909
 20
9.456023
 30
0.0
 42
0.058752
 50
210.0
  0
SEQEND
  8
OBJECT
  0
POLYLINE
  8
OBJECT
 66
     1
 10
0.0
 20
0.0
 30
0.0
  0
VERTEX
  8
OBJECT
 10
14.438059
 20
9.253811
 30
0.0
 42
0.106277
  0
VERTEX
  8
OBJECT
 10
14.482749
 20
9.268217
 30
0.0
 42
0.072341
 70
     2
 50
30.0
  0
VERTEX
  8
OBJECT
 10
14.522283
 20
9.299412
 30
0.0
 42
0.058752
 50
30.0
  0
VERTEX
  8
OBJECT
 10
14.559296
 20
9.349023
 30
0.0
 42
0.058752
  0
VERTEX
  8
OBJECT
 10
14.583754
 20
9.405883
 30
0.0
 42
0.072341
  0
VERTEX
  8
OBJECT
 10
14.591002
 20
9.455717
 30
0.0
 42
0.106277
 70
     2
 50
90.0
  0
VERTEX
  8
OBJECT
 10
14.581133
 20
9.501624
 30
0.0
 42
0.156851
 50
90.0
  0
SEQEND
  8
OBJECT
  0
POLYLINE
  8
OBJECT
 66
     1
 10
0.0
 20
0.0
 30
0.0
 70
     1
  0
VERTEX
  8
OBJECT
 10
16.62496
 20
10.656412
 30
0.0
 42
0.058752
  0
VERTEX
  8
OBJECT
 10
16.600501
 20
10.599552
 30
0.0
 42
0.072341
  0
VERTEX
  8
OBJECT
 10
16.593253
 20
10.549717
 30
0.0
 42
0.106617
 70
     2
 50
270.0
  0
VERTEX
  8
OBJECT
 10
16.603184
 20
10.503674
 30
0.0
 42
0.156851
 50
270.0
  0
VERTEX
  8
OBJECT
 10
16.62496
 20
10.479635
 30
0.0
 42
0.156851
  0
VERTEX
  8
OBJECT
 10
16.656666
 20
10.472796
 30
0.0
 42
0.106617
  0
VERTEX
  8
OBJECT
 10
16.701506
 20
10.487217
 30
0.0
 42
0.072341
 70
     2
 50
30.0
  0
VERTEX
  8
OBJECT
 10
16.74104
 20
10.518412
 30
0.0
 42
0.058752
 50
30.0
  0
VERTEX
  8
OBJECT
 10
16.778053
 20
10.568023
 30
0.0
 42
0.058752
  0
VERTEX
  8
OBJECT
 10
16.802511
 20
10.624883
 30
0.0
 42
0.072341
  0
VERTEX
  8
OBJECT
 10
16.809759
 20
10.674717
 30
0.0
 42
0.106617
 70
     2
 50
90.0
  0
VERTEX
  8
OBJECT
 10
16.799828
 20
10.72076
 30
0.0
 42
0.156851
 50
90.0
  0
VERTEX
  8
OBJECT
 10
16.778053
 20
10.7448
 30
0.0
 42
0.156851
  0
VERTEX
  8
OBJECT
 10
16.746346
 20
10.751639
 30
0.0
 42
0.106617
  0
VERTEX
  8
OBJECT
 10
16.701506
 20
10.737217
 30
0.0
 42
0.072341
 70
     2
 50
210.0
  0
VERTEX
  8
OBJECT
 10
16.661972
 20
10.706023
 30
0.0
 42
0.058752
 50
210.0
  0
SEQEND
  8
OBJECT
  0
POLYLINE
  8
OBJECT
 66
     1
 10
0.0
 20
0.0
 30
0.0
  0
VERTEX
  8
OBJECT
 10
16.603122
 20
10.503811
 30
0.0
 42
0.106277
  0
VERTEX
  8
OBJECT
 10
16.647813
 20
10.518217
 30
0.0
 42
0.072341
 70
     2
 50
30.0
  0
VERTEX
  8
OBJECT
 10
16.687347
 20
10.549412
 30
0.0
 42
0.058752
 50
30.0
  0
VERTEX
  8
OBJECT
 10
16.724359
 20
10.599023
 30
0.0
 42
0.058752
  0
VERTEX
  8
OBJECT
 10
16.748818
 20
10.655883
 30
0.0
 42
0.072341
  0
VERTEX
  8
OBJECT
 10
16.756066
 20
10.705717
 30
0.0
 42
0.106277
 70
     2
 50
90.0
  0
VERTEX
  8
OBJECT
 10
16.746197
 20
10.751624
 30
0.0
 42
0.156851
 50
90.0
  0
SEQEND
  8
OBJECT
  0
POLYLINE
  8
OBJECT
 66
     1
 10
0.0
 20
0.0
 30
0.0
  0
VERTEX
  8
OBJECT
 10
5.236539
 20
4.566311
 30
0.0
 42
0.106277
  0
VERTEX
  8
OBJECT
 10
5.281229
 20
4.580717
 30
0.0
 42
0.072341
 70
     2
 50
30.0
  0
VERTEX
  8
OBJECT
 10
5.320763
 20
4.611912
 30
0.0
 42
0.058752
 50
30.0
  0
VERTEX
  8
OBJECT
 10
5.357776
 20
4.661523
 30
0.0
 42
0.058752
  0
VERTEX
  8
OBJECT
 10
5.382234
 20
4.718383
 30
0.0
 42
0.072341
  0
VERTEX
  8
OBJECT
 10
5.389482
 20
4.768217
 30
0.0
 42
0.106277
 70
     2
 50
90.0
  0
VERTEX
  8
OBJECT
 10
5.379613
 20
4.814124
 30
0.0
 42
0.156851
 50
90.0
  0
SEQEND
  8
OBJECT
  0
POLYLINE
  8
OBJECT
 66
     1
 10
0.0
 20
0.0
 30
0.0
 70
     1
  0
VERTEX
  8
OBJECT
 10
5.258376
 20
4.718912
 30
0.0
 42
0.058752
  0
VERTEX
  8
OBJECT
 10
5.233918
 20
4.662052
 30
0.0
 42
0.072341
  0
VERTEX
  8
OBJECT
 10
5.22667
 20
4.612217
 30
0.0
 42
0.106617
 70
     2
 50
270.0
  0
VERTEX
  8
OBJECT
 10
5.2366
 20
4.566174
 30
0.0
 42
0.156851
 50
270.0
  0
VERTEX
  8
OBJECT
 10
5.258376
 20
4.542135
 30
0.0
 42
0.156851
  0
VERTEX
  8
OBJECT
 10
5.290083
 20
4.535296
 30
0.0
 42
0.106617
  0
VERTEX
  8
OBJECT
 10
5.334923
 20
4.549717
 30
0.0
 42
0.072341
 70
     2
 50
30.0
  0
VERTEX
  8
OBJECT
 10
5.374457
 20
4.580912
 30
0.0
 42
0.058752
 50
30.0
  0
VERTEX
  8
OBJECT
 10
5.411469
 20
4.630523
 30
0.0
 42
0.058752
  0
VERTEX
  8
OBJECT
 10
5.435928
 20
4.687383
 30
0.0
 42
0.072341
  0
VERTEX
  8
OBJECT
 10
5.443176
 20
4.737217
 30
0.0
 42
0.106617
 70
     2
 50
90.0
  0
VERTEX
  8
OBJECT
 10
5.433245
 20
4.78326
 30
0.0
 42
0.156851
 50
90.0
  0
VERTEX
  8
OBJECT
 10
5.411469
 20
4.8073
 30
0.0
 42
0.156851
  0
VERTEX
  8
OBJECT
 10
5.379763
 20
4.814139
 30
0.0
 42
0.106617
  0
VERTEX
  8
OBJECT
 10
5.334923
 20
4.799717
 30
0.0
 42
0.072341
 70
     2
 50
210.0
  0
VERTEX
  8
OBJECT
 10
5.295389
 20
4.768523
 30
0.0
 42
0.058752
 50
210.0
  0
SEQEND
  8
OBJECT
  0
POLYLINE
  8
OBJECT
 66
     1
 10
0.0
 20
0.0
 30
0.0
  0
VERTEX
  8
OBJECT
 10
6.31907
 20
5.191311
 30
0.0
 42
0.106277
  0
VERTEX
  8
OBJECT
 10
6.363761
 20
5.205717
 30
0.0
 42
0.072341
 70
     2
 50
30.0
  0
VERTEX
  8
OBJECT
 10
6.403295
 20
5.236912
 30
0.0
 42
0.058752
 50
30.0
  0
VERTEX
  8
OBJECT
 10
6.440307
 20
5.286523
 30
0.0
 42
0.058752
  0
VERTEX
  8
OBJECT
 10
6.464766
 20
5.343383
 30
0.0
 42
0.072341
  0
VERTEX
  8
OBJECT
 10
6.472014
 20
5.393217
 30
0.0
 42
0.106277
 70
     2
 50
90.0
  0
VERTEX
  8
OBJECT
 10
6.462145
 20
5.439124
 30
0.0
 42
0.156851
 50
90.0
  0
SEQEND
  8
OBJECT
  0
POLYLINE
  8
OBJECT
 66
     1
 10
0.0
 20
0.0
 30
0.0
 70
     1
  0
VERTEX
  8
OBJECT
 10
6.340908
 20
5.343912
 30
0.0
 42
0.058752
  0
VERTEX
  8
OBJECT
 10
6.316449
 20
5.287052
 30
0.0
 42
0.072341
  0
VERTEX
  8
OBJECT
 10
6.309201
 20
5.237217
 30
0.0
 42
0.106617
 70
     2
 50
270.0
  0
VERTEX
  8
OBJECT
 10
6.319132
 20
5.191174
 30
0.0
 42
0.156851
 50
270.0
  0
VERTEX
  8
OBJECT
 10
6.340908
 20
5.167135
 30
0.0
 42
0.156851
  0
VERTEX
  8
OBJECT
 10
6.372615
 20
5.160296
 30
0.0
 42
0.106617
  0
VERTEX
  8
OBJECT
 10
6.417454
 20
5.174717
 30
0.0
 42
0.072341
 70
     2
 50
30.0
  0
VERTEX
  8
OBJECT
 10
6.456988
 20
5.205912
 30
0.0
 42
0.058752
 50
30.0
  0
VERTEX
  8
OBJECT
 10
6.494001
 20
5.255523
 30
0.0
 42
0.058752
  0
VERTEX
  8
OBJECT
 10
6.51846
 20
5.312383
 30
0.0
 42
0.072341
  0
VERTEX
  8
OBJECT
 10
6.525708
 20
5.362217
 30
0.0
 42
0.106617
 70
     2
 50
90.0
  0
VERTEX
  8
OBJECT
 10
6.515777
 20
5.40826
 30
0.0
 42
0.156851
 50
90.0
  0
VERTEX
  8
OBJECT
 10
6.494001
 20
5.4323
 30
0.0
 42
0.156851
  0
VERTEX
  8
OBJECT
 10
6.462294
 20
5.439139
 30
0.0
 42
0.106617
  0
VERTEX
  8
OBJECT
 10
6.417454
 20
5.424717
 30
0.0
 42
0.072341
 70
     2
 50
210.0
  0
VERTEX
  8
OBJECT
 10
6.377921
 20
5.393523
 30
0.0
 42
0.058752
 50
210.0
  0
SEQEND
  8
OBJECT
  0
POLYLINE
  8
OBJECT
 66
     1
 10
0.0
 20
0.0
 30
0.0
 70
     1
  0
VERTEX
  8
OBJECT
 10
15.001162
 20
10.343912
 30
0.0
 42
0.058752
  0
VERTEX
  8
OBJECT
 10
14.976703
 20
10.287052
 30
0.0
 42
0.072341
  0
VERTEX
  8
OBJECT
 10
14.969455
 20
10.237217
 30
0.0
 42
0.106617
 70
     2
 50
270.0
  0
VERTEX
  8
OBJECT
 10
14.979386
 20
10.191174
 30
0.0
 42
0.156851
 50
270.0
  0
VERTEX
  8
OBJECT
 10
15.001162
 20
10.167135
 30
0.0
 42
0.156851
  0
VERTEX
  8
OBJECT
 10
15.032869
 20
10.160296
 30
0.0
 42
0.106617
  0
VERTEX
  8
OBJECT
 10
15.077709
 20
10.174717
 30
0.0
 42
0.072341
 70
     2
 50
30.0
  0
VERTEX
  8
OBJECT
 10
15.117242
 20
10.205912
 30
0.0
 42
0.058752
 50
30.0
  0
VERTEX
  8
OBJECT
 10
15.154255
 20
10.255523
 30
0.0
 42
0.058752
  0
VERTEX
  8
OBJECT
 10
15.178714
 20
10.312383
 30
0.0
 42
0.072341
  0
VERTEX
  8
OBJECT
 10
15.185962
 20
10.362217
 30
0.0
 42
0.106617
 70
     2
 50
90.0
  0
VERTEX
  8
OBJECT
 10
15.176031
 20
10.40826
 30
0.0
 42
0.156851
 50
90.0
  0
VERTEX
  8
OBJECT
 10
15.154255
 20
10.4323
 30
0.0
 42
0.156851
  0
VERTEX
  8
OBJECT
 10
15.122548
 20
10.439139
 30
0.0
 42
0.106617
  0
VERTEX
  8
OBJECT
 10
15.077709
 20
10.424717
 30
0.0
 42
0.072341
 70
     2
 50
210.0
  0
VERTEX
  8
OBJECT
 10
15.038175
 20
10.393523
 30
0.0
 42
0.058752
 50
210.0
  0
SEQEND
  8
OBJECT
  0
POLYLINE
  8
OBJECT
 66
     1
 10
0.0
 20
0.0
 30
0.0
  0
VERTEX
  8
OBJECT
 10
14.979324
 20
10.191311
 30
0.0
 42
0.106277
  0
VERTEX
  8
OBJECT
 10
15.024015
 20
10.205717
 30
0.0
 42
0.072341
 70
     2
 50
30.0
  0
VERTEX
  8
OBJECT
 10
15.063549
 20
10.236912
 30
0.0
 42
0.058752
 50
30.0
  0
VERTEX
  8
OBJECT
 10
15.100561
 20
10.286523
 30
0.0
 42
0.058752
  0
VERTEX
  8
OBJECT
 10
15.12502
 20
10.343383
 30
0.0
 42
0.072341
  0
VERTEX
  8
OBJECT
 10
15.132268
 20
10.393217
 30
0.0
 42
0.106277
 70
     2
 50
90.0
  0
VERTEX
  8
OBJECT
 10
15.122399
 20
10.439124
 30
0.0
 42
0.156851
 50
90.0
  0
SEQEND
  8
OBJECT
  0
POLYLINE
  8
OBJECT
 66
     1
 10
0.0
 20
0.0
 30
0.0
 70
     1
  0
VERTEX
  8
OBJECT
 10
4.194828
 20
5.332951
 30
0.0
 42
0.058752
  0
VERTEX
  8
OBJECT
 10
4.176435
 20
5.290193
 30
0.0
 42
0.072341
  0
VERTEX
  8
OBJECT
 10
4.170985
 20
5.252717
 30
0.0
 42
0.106617
 70
     2
 50
270.0
  0
VERTEX
  8
OBJECT
 10
4.178453
 20
5.218093
 30
0.0
 42
0.156851
 50
270.0
  0
VERTEX
  8
OBJECT
 10
4.194828
 20
5.200015
 30
0.0
 42
0.156851
  0
VERTEX
  8
OBJECT
 10
4.218671
 20
5.194873
 30
0.0
 42
0.106617
  0
VERTEX
  8
OBJECT
 10
4.252391
 20
5.205717
 30
0.0
 42
0.072341
 70
     2
 50
30.0
  0
VERTEX
  8
OBJECT
 10
4.28212
 20
5.229176
 30
0.0
 42
0.058752
 50
30.0
  0
VERTEX
  8
OBJECT
 10
4.309954
 20
5.266483
 30
0.0
 42
0.058752
  0
VERTEX
  8
OBJECT
 10
4.328347
 20
5.309242
 30
0.0
 42
0.072341
  0
VERTEX
  8
OBJECT
 10
4.333797
 20
5.346717
 30
0.0
 42
0.106617
 70
     2
 50
90.0
  0
VERTEX
  8
OBJECT
 10
4.326329
 20
5.381342
 30
0.0
 42
0.156851
 50
90.0
  0
VERTEX
  8
OBJECT
 10
4.309954
 20
5.399419
 30
0.0
 42
0.156851
  0
VERTEX
  8
OBJECT
 10
4.286111
 20
5.404562
 30
0.0
 42
0.106617
  0
VERTEX
  8
OBJECT
 10
4.252391
 20
5.393717
 30
0.0
 42
0.072341
 70
     2
 50
210.0
  0
VERTEX
  8
OBJECT
 10
4.222661
 20
5.370259
 30
0.0
 42
0.058752
 50
210.0
  0
SEQEND
  8
OBJECT
  0
POLYLINE
  8
OBJECT
 66
     1
 10
0.0
 20
0.0
 30
0.0
  0
VERTEX
  8
OBJECT
 10
4.174874
 20
5.227454
 30
0.0
 42
0.076521
  0
VERTEX
  8
OBJECT
 10
4.198697
 20
5.236717
 30
0.0
 42
0.072341
 70
     2
 50
30.0
  0
VERTEX
  8
OBJECT
 10
4.228427
 20
5.260176
 30
0.0
 42
0.058752
 50
30.0
  0
VERTEX
  8
OBJECT
 10
4.25626
 20
5.297483
 30
0.0
 42
0.058752
  0
VERTEX
  8
OBJECT
 10
4.274653
 20
5.340242
 30
0.0
 42
0.072341
  0
VERTEX
  8
OBJECT
 10
4.280104
 20
5.377717
 30
0.0
 42
0.076521
 70
     2
 50
90.0
  0
VERTEX
  8
OBJECT
 10
4.276215
 20
5.402981
 30
0.0
 42
0.156851
 50
90.0
  0
SEQEND
  8
OBJECT
  0
POLYLINE
  8
OBJECT
 66
     1
 10
0.0
 20
0.0
 30
0.0
  0
VERTEX
  8
OBJECT
 10
5.040899
 20
5.727454
 30
0.0
 42
0.076521
  0
VERTEX
  8
OBJECT
 10
5.064723
 20
5.736717
 30
0.0
 42
0.072341
 70
     2
 50
30.0
  0
VERTEX
  8
OBJECT
 10
5.094452
 20
5.760176
 30
0.0
 42
0.058752
 50
30.0
  0
VERTEX
  8
OBJECT
 10
5.122286
 20
5.797483
 30
0.0
 42
0.058752
  0
VERTEX
  8
OBJECT
 10
5.140679
 20
5.840242
 30
0.0
 42
0.072341
  0
VERTEX
  8
OBJECT
 10
5.146129
 20
5.877717
 30
0.0
 42
0.076521
 70
     2
 50
90.0
  0
VERTEX
  8
OBJECT
 10
5.14224
 20
5.902981
 30
0.0
 42
0.156851
 50
90.0
  0
SEQEND
  8
OBJECT
  0
POLYLINE
  8
OBJECT
 66
     1
 10
0.0
 20
0.0
 30
0.0
 70
     1
  0
VERTEX
  8
OBJECT
 10
5.060853
 20
5.832951
 30
0.0
 42
0.058752
  0
VERTEX
  8
OBJECT
 10
5.042461
 20
5.790193
 30
0.0
 42
0.072341
  0
VERTEX
  8
OBJECT
 10
5.03701
 20
5.752717
 30
0.0
 42
0.106617
 70
     2
 50
270.0
  0
VERTEX
  8
OBJECT
 10
5.044478
 20
5.718093
 30
0.0
 42
0.156851
 50
270.0
  0
VERTEX
  8
OBJECT
 10
5.060853
 20
5.700015
 30
0.0
 42
0.156851
  0
VERTEX
  8
OBJECT
 10
5.084697
 20
5.694873
 30
0.0
 42
0.106617
  0
VERTEX
  8
OBJECT
 10
5.118416
 20
5.705717
 30
0.0
 42
0.072341
 70
     2
 50
30.0
  0
VERTEX
  8
OBJECT
 10
5.148146
 20
5.729176
 30
0.0
 42
0.058752
 50
30.0
  0
VERTEX
  8
OBJECT
 10
5.175979
 20
5.766483
 30
0.0
 42
0.058752
  0
VERTEX
  8
OBJECT
 10
5.194372
 20
5.809242
 30
0.0
 42
0.072341
  0
VERTEX
  8
OBJECT
 10
5.199823
 20
5.846717
 30
0.0
 42
0.106617
 70
     2
 50
90.0
  0
VERTEX
  8
OBJECT
 10
5.192355
 20
5.881342
 30
0.0
 42
0.156851
 50
90.0
  0
VERTEX
  8
OBJECT
 10
5.175979
 20
5.899419
 30
0.0
 42
0.156851
  0
VERTEX
  8
OBJECT
 10
5.152136
 20
5.904562
 30
0.0
 42
0.106617
  0
VERTEX
  8
OBJECT
 10
5.118416
 20
5.893717
 30
0.0
 42
0.072341
 70
     2
 50
210.0
  0
VERTEX
  8
OBJECT
 10
5.088687
 20
5.870259
 30
0.0
 42
0.058752
 50
210.0
  0
SEQEND
  8
OBJECT
  0
POLYLINE
  8
OBJECT
 66
     1
 10
0.0
 20
0.0
 30
0.0
 70
     1
  0
VERTEX
  8
OBJECT
 10
16.319184
 20
9.832951
 30
0.0
 42
0.058752
  0
VERTEX
  8
OBJECT
 10
16.300791
 20
9.790193
 30
0.0
 42
0.072341
  0
VERTEX
  8
OBJECT
 10
16.29534
 20
9.752717
 30
0.0
 42
0.106617
 70
     2
 50
270.0
  0
VERTEX
  8
OBJECT
 10
16.302808
 20
9.718093
 30
0.0
 42
0.156851
 50
270.0
  0
VERTEX
  8
OBJECT
 10
16.319184
 20
9.700015
 30
0.0
 42
0.156851
  0
VERTEX
  8
OBJECT
 10
16.343027
 20
9.694873
 30
0.0
 42
0.106617
  0
VERTEX
  8
OBJECT
 10
16.376747
 20
9.705717
 30
0.0
 42
0.072341
 70
     2
 50
30.0
  0
VERTEX
  8
OBJECT
 10
16.406476
 20
9.729176
 30
0.0
 42
0.058752
 50
30.0
  0
VERTEX
  8
OBJECT
 10
16.43431
 20
9.766483
 30
0.0
 42
0.058752
  0
VERTEX
  8
OBJECT
 10
16.452702
 20
9.809242
 30
0.0
 42
0.072341
  0
VERTEX
  8
OBJECT
 10
16.458153
 20
9.846717
 30
0.0
 42
0.106617
 70
     2
 50
90.0
  0
VERTEX
  8
OBJECT
 10
16.450685
 20
9.881342
 30
0.0
 42
0.156851
 50
90.0
  0
VERTEX
  8
OBJECT
 10
16.43431
 20
9.899419
 30
0.0
 42
0.156851
  0
VERTEX
  8
OBJECT
 10
16.410466
 20
9.904562
 30
0.0
 42
0.106617
  0
VERTEX
  8
OBJECT
 10
16.376747
 20
9.893717
 30
0.0
 42
0.072341
 70
     2
 50
210.0
  0
VERTEX
  8
OBJECT
 10
16.347017
 20
9.870259
 30
0.0
 42
0.058752
 50
210.0
  0
SEQEND
  8
OBJECT
  0
POLYLINE
  8
OBJECT
 66
     1
 10
0.0
 20
0.0
 30
0.0
  0
VERTEX
  8
OBJECT
 10
16.299229
 20
9.727454
 30
0.0
 42
0.076521
  0
VERTEX
  8
OBJECT
 10
16.323053
 20
9.736717
 30
0.0
 42
0.072341
 70
     2
 50
30.0
  0
VERTEX
  8
OBJECT
 10
16.352783
 20
9.760176
 30
0.0
 42
0.058752
 50
30.0
  0
VERTEX
  8
OBJECT
 10
16.380616
 20
9.797483
 30
0.0
 42
0.058752
  0
VERTEX
  8
OBJECT
 10
16.399009
 20
9.840242
 30
0.0
 42
0.072341
  0
VERTEX
  8
OBJECT
 10
16.404459
 20
9.877717
 30
0.0
 42
0.076521
 70
     2
 50
90.0
  0
VERTEX
  8
OBJECT
 10
16.40057
 20
9.902981
 30
0.0
 42
0.156851
 50
90.0
  0
SEQEND
  8
OBJECT
  0
POLYLINE
  8
OBJECT
 66
     1
 10
0.0
 20
0.0
 30
0.0
  0
VERTEX
  8
OBJECT
 10
17.165255
 20
10.227454
 30
0.0
 42
0.076521
  0
VERTEX
  8
OBJECT
 10
17.189078
 20
10.236717
 30
0.0
 42
0.072341
 70
     2
 50
30.0
  0
VERTEX
  8
OBJECT
 10
17.218808
 20
10.260176
 30
0.0
 42
0.058752
 50
30.0
  0
VERTEX
  8
OBJECT
 10
17.246641
 20
10.297483
 30
0.0
 42
0.058752
  0
VERTEX
  8
OBJECT
 10
17.265034
 20
10.340242
 30
0.0
 42
0.072341
  0
VERTEX
  8
OBJECT
 10
17.270485
 20
10.377717
 30
0.0
 42
0.076521
 70
     2
 50
90.0
  0
VERTEX
  8
OBJECT
 10
17.266596
 20
10.402981
 30
0.0
 42
0.156851
 50
90.0
  0
SEQEND
  8
OBJECT
  0
POLYLINE
  8
OBJECT
 66
     1
 10
0.0
 20
0.0
 30
0.0
 70
     1
  0
VERTEX
  8
OBJECT
 10
17.185209
 20
10.332951
 30
0.0
 42
0.058752
  0
VERTEX
  8
OBJECT
 10
17.166816
 20
10.290193
 30
0.0
 42
0.072341
  0
VERTEX
  8
OBJECT
 10
17.161366
 20
10.252717
 30
0.0
 42
0.106617
 70
     2
 50
270.0
  0
VERTEX
  8
OBJECT
 10
17.168834
 20
10.218093
 30
0.0
 42
0.156851
 50
270.0
  0
VERTEX
  8
OBJECT
 10
17.185209
 20
10.200015
 30
0.0
 42
0.156851
  0
VERTEX
  8
OBJECT
 10
17.209052
 20
10.194873
 30
0.0
 42
0.106617
  0
VERTEX
  8
OBJECT
 10
17.242772
 20
10.205717
 30
0.0
 42
0.072341
 70
     2
 50
30.0
  0
VERTEX
  8
OBJECT
 10
17.272502
 20
10.229176
 30
0.0
 42
0.058752
 50
30.0
  0
VERTEX
  8
OBJECT
 10
17.300335
 20
10.266483
 30
0.0
 42
0.058752
  0
VERTEX
  8
OBJECT
 10
17.318728
 20
10.309242
 30
0.0
 42
0.072341
  0
VERTEX
  8
OBJECT
 10
17.324178
 20
10.346717
 30
0.0
 42
0.106617
 70
     2
 50
90.0
  0
VERTEX
  8
OBJECT
 10
17.31671
 20
10.381342
 30
0.0
 42
0.156851
 50
90.0
  0
VERTEX
  8
OBJECT
 10
17.300335
 20
10.399419
 30
0.0
 42
0.156851
  0
VERTEX
  8
OBJECT
 10
17.276492
 20
10.404562
 30
0.0
 42
0.106617
  0
VERTEX
  8
OBJECT
 10
17.242772
 20
10.393717
 30
0.0
 42
0.072341
 70
     2
 50
210.0
  0
VERTEX
  8
OBJECT
 10
17.213042
 20
10.370259
 30
0.0
 42
0.058752
 50
210.0
  0
SEQEND
  8
OBJECT
  0
POLYLINE
  8
OBJECT
 66
     1
 10
0.0
 20
0.0
 30
0.0
  0
VERTEX
  8
OBJECT
 10
16.299229
 20
12.227454
 30
0.0
 42
0.076521
  0
VERTEX
  8
OBJECT
 10
16.323053
 20
12.236717
 30
0.0
 42
0.072341
 70
     2
 50
30.0
  0
VERTEX
  8
OBJECT
 10
16.352783
 20
12.260176
 30
0.0
 42
0.058752
 50
30.0
  0
VERTEX
  8
OBJECT
 10
16.380616
 20
12.297483
 30
0.0
 42
0.058752
  0
VERTEX
  8
OBJECT
 10
16.399009
 20
12.340242
 30
0.0
 42
0.072341
  0
VERTEX
  8
OBJECT
 10
16.404459
 20
12.377717
 30
0.0
 42
0.076521
 70
     2
 50
90.0
  0
VERTEX
  8
OBJECT
 10
16.40057
 20
12.402981
 30
0.0
 42
0.156851
 50
90.0
  0
SEQEND
  8
OBJECT
  0
POLYLINE
  8
OBJECT
 66
     1
 10
0.0
 20
0.0
 30
0.0
 70
     1
  0
VERTEX
  8
OBJECT
 10
16.319184
 20
12.332951
 30
0.0
 42
0.058752
  0
VERTEX
  8
OBJECT
 10
16.300791
 20
12.290193
 30
0.0
 42
0.072341
  0
VERTEX
  8
OBJECT
 10
16.29534
 20
12.252717
 30
0.0
 42
0.106617
 70
     2
 50
270.0
  0
VERTEX
  8
OBJECT
 10
16.302808
 20
12.218093
 30
0.0
 42
0.156851
 50
270.0
  0
VERTEX
  8
OBJECT
 10
16.319184
 20
12.200015
 30
0.0
 42
0.156851
  0
VERTEX
  8
OBJECT
 10
16.343027
 20
12.194873
 30
0.0
 42
0.106617
  0
VERTEX
  8
OBJECT
 10
16.376747
 20
12.205717
 30
0.0
 42
0.072341
 70
     2
 50
30.0
  0
VERTEX
  8
OBJECT
 10
16.406476
 20
12.229176
 30
0.0
 42
0.058752
 50
30.0
  0
VERTEX
  8
OBJECT
 10
16.43431
 20
12.266483
 30
0.0
 42
0.058752
  0
VERTEX
  8
OBJECT
 10
16.452702
 20
12.309242
 30
0.0
 42
0.072341
  0
VERTEX
  8
OBJECT
 10
16.458153
 20
12.346717
 30
0.0
 42
0.106617
 70
     2
 50
90.0
  0
VERTEX
  8
OBJECT
 10
16.450685
 20
12.381342
 30
0.0
 42
0.156851
 50
90.0
  0
VERTEX
  8
OBJECT
 10
16.43431
 20
12.399419
 30
0.0
 42
0.156851
  0
VERTEX
  8
OBJECT
 10
16.410466
 20
12.404562
 30
0.0
 42
0.106617
  0
VERTEX
  8
OBJECT
 10
16.376747
 20
12.393717
 30
0.0
 42
0.072341
 70
     2
 50
210.0
  0
VERTEX
  8
OBJECT
 10
16.347017
 20
12.370259
 30
0.0
 42
0.058752
 50
210.0
  0
SEQEND
  8
OBJECT
  0
POLYLINE
  8
OBJECT
 66
     1
 10
0.0
 20
0.0
 30
0.0
 70
     1
  0
VERTEX
  8
OBJECT
 10
17.185209
 20
12.832951
 30
0.0
 42
0.058752
  0
VERTEX
  8
OBJECT
 10
17.166816
 20
12.790193
 30
0.0
 42
0.072341
  0
VERTEX
  8
OBJECT
 10
17.161366
 20
12.752717
 30
0.0
 42
0.106617
 70
     2
 50
270.0
  0
VERTEX
  8
OBJECT
 10
17.168834
 20
12.718093
 30
0.0
 42
0.156851
 50
270.0
  0
VERTEX
  8
OBJECT
 10
17.185209
 20
12.700015
 30
0.0
 42
0.156851
  0
VERTEX
  8
OBJECT
 10
17.209052
 20
12.694873
 30
0.0
 42
0.106617
  0
VERTEX
  8
OBJECT
 10
17.242772
 20
12.705717
 30
0.0
 42
0.072341
 70
     2
 50
30.0
  0
VERTEX
  8
OBJECT
 10
17.272502
 20
12.729176
 30
0.0
 42
0.058752
 50
30.0
  0
VERTEX
  8
OBJECT
 10
17.300335
 20
12.766483
 30
0.0
 42
0.058752
  0
VERTEX
  8
OBJECT
 10
17.318728
 20
12.809242
 30
0.0
 42
0.072341
  0
VERTEX
  8
OBJECT
 10
17.324178
 20
12.846717
 30
0.0
 42
0.106617
 70
     2
 50
90.0
  0
VERTEX
  8
OBJECT
 10
17.31671
 20
12.881342
 30
0.0
 42
0.156851
 50
90.0
  0
VERTEX
  8
OBJECT
 10
17.300335
 20
12.899419
 30
0.0
 42
0.156851
  0
VERTEX
  8
OBJECT
 10
17.276492
 20
12.904562
 30
0.0
 42
0.106617
  0
VERTEX
  8
OBJECT
 10
17.242772
 20
12.893717
 30
0.0
 42
0.072341
 70
     2
 50
210.0
  0
VERTEX
  8
OBJECT
 10
17.213042
 20
12.870259
 30
0.0
 42
0.058752
 50
210.0
  0
SEQEND
  8
OBJECT
  0
POLYLINE
  8
OBJECT
 66
     1
 10
0.0
 20
0.0
 30
0.0
  0
VERTEX
  8
OBJECT
 10
17.165255
 20
12.727454
 30
0.0
 42
0.076521
  0
VERTEX
  8
OBJECT
 10
17.189078
 20
12.736717
 30
0.0
 42
0.072341
 70
     2
 50
30.0
  0
VERTEX
  8
OBJECT
 10
17.218808
 20
12.760176
 30
0.0
 42
0.058752
 50
30.0
  0
VERTEX
  8
OBJECT
 10
17.246641
 20
12.797483
 30
0.0
 42
0.058752
  0
VERTEX
  8
OBJECT
 10
17.265034
 20
12.840242
 30
0.0
 42
0.072341
  0
VERTEX
  8
OBJECT
 10
17.270485
 20
12.877717
 30
0.0
 42
0.076521
 70
     2
 50
90.0
  0
VERTEX
  8
OBJECT
 10
17.266596
 20
12.902981
 30
0.0
 42
0.156851
 50
90.0
  0
SEQEND
  8
OBJECT
  0
INSERT
  8
0
  2
ACAD
 10
-0.996526
 20
33.291528
 30
0.0
  0
LINE
  8
OBJECT
 10
6.430445
 20
2.229217
 30
0.0
 11
6.362895
 21
2.268217
 31
0.0
  0
LINE
  8
OBJECT
 10
6.905027
 20
2.331217
 30
0.0
 11
6.905027
 21
1.831217
 31
0.0
  0
LINE
  8
OBJECT
 10
6.972577
 20
2.292217
 30
0.0
 11
6.972577
 21
1.792217
 31
0.0
  0
LINE
  8
OBJECT
 10
6.268498
 20
2.213717
 30
0.0
 11
6.362895
 21
2.268217
 31
0.0
  0
LINE
  8
OBJECT
 10
6.268498
 20
2.213717
 30
0.0
 11
3.304959
 21
3.924717
 31
0.0
  0
LINE
  8
OBJECT
 10
6.268498
 20
1.135717
 30
0.0
 11
3.237409
 21
2.885717
 31
0.0
  0
LINE
  8
OBJECT
 10
6.268498
 20
2.135717
 30
0.0
 11
3.237409
 21
3.885717
 31
0.0
  0
LINE
  8
OBJECT
 10
7.35103
 20
2.760717
 30
0.0
 11
7.35103
 21
1.760717
 31
0.0
  0
LINE
  8
OBJECT
 10
7.189083
 20
1.667217
 30
0.0
 11
7.35103
 21
1.760717
 31
0.0
  0
LINE
  8
OBJECT
 10
6.430445
 20
1.229217
 30
0.0
 11
6.646951
 21
1.604217
 31
0.0
  0
LINE
  8
OBJECT
 10
6.268498
 20
2.135717
 30
0.0
 11
6.268498
 21
1.135717
 31
0.0
  0
LINE
  8
OBJECT
 10
6.268498
 20
1.135717
 30
0.0
 11
6.430445
 21
1.229217
 31
0.0
  0
LINE
  8
OBJECT
 10
6.430445
 20
2.229217
 30
0.0
 11
6.646951
 21
2.104217
 31
0.0
  0
LINE
  8
OBJECT
 10
6.268498
 20
2.135717
 30
0.0
 11
6.430445
 21
2.229217
 31
0.0
  0
LINE
  8
OBJECT
 10
6.972577
 20
1.792217
 30
0.0
 11
6.905027
 21
1.831217
 31
0.0
  0
LINE
  8
OBJECT
 10
6.972577
 20
1.792217
 30
0.0
 11
7.189083
 21
1.667217
 31
0.0
  0
LINE
  8
OBJECT
 10
6.646951
 20
2.104217
 30
0.0
 11
6.646951
 21
1.604217
 31
0.0
  0
LINE
  8
OBJECT
 10
6.905027
 20
1.940217
 30
0.0
 11
6.646951
 21
2.089217
 31
0.0
  0
LINE
  8
OBJECT
 10
7.189083
 20
2.667217
 30
0.0
 11
7.35103
 21
2.760717
 31
0.0
  0
LINE
  8
OBJECT
 10
7.35103
 20
2.760717
 30
0.0
 11
4.319941
 21
4.510717
 31
0.0
  0
LINE
  8
OBJECT
 10
6.349904
 20
2.260717
 30
0.0
 11
4.252391
 21
3.471717
 31
0.0
  0
LINE
  8
OBJECT
 10
7.21593
 20
2.760717
 30
0.0
 11
4.252391
 21
4.471717
 31
0.0
  0
POLYLINE
  8
OBJECT
 66
     1
 10
0.0
 20
0.0
 30
0.0
  0
VERTEX
  8
OBJECT
 10
3.453916
 20
4.260717
 30
0.0
 42
0.072341
 70
     2
 50
210.0
  0
VERTEX
  8
OBJECT
 10
3.414382
 20
4.229523
 30
0.0
 42
0.058752
 50
210.0
  0
VERTEX
  8
OBJECT
 10
3.377369
 20
4.179912
 30
0.0
 42
0.058752
  0
SEQEND
  8
OBJECT
  0
LINE
  8
OBJECT
 10
3.353947
 20
4.031001
 30
0.0
 11
3.550065
 21
4.144229
 31
0.0
  0
LINE
  8
OBJECT
 10
3.453916
 20
4.010717
 30
0.0
 11
3.629839
 21
4.112287
 31
0.0
  0
LINE
  8
OBJECT
 10
4.252391
 20
4.471717
 30
0.0
 11
4.252391
 21
3.471717
 31
0.0
  0
LINE
  8
OBJECT
 10
3.169859
 20
4.299717
 30
0.0
 11
3.169859
 21
2.549717
 31
0.0
  0
LINE
  8
OBJECT
 10
3.237409
 20
4.260717
 30
0.0
 11
3.237409
 21
3.885717
 31
0.0
  0
POLYLINE
  8
OBJECT
 66
     1
 10
0.0
 20
0.0
 30
0.0
  0
VERTEX
  8
OBJECT
 10
3.345662
 20
2.823217
 30
0.0
 42
0.106617
 70
     2
 50
270.0
  0
VERTEX
  8
OBJECT
 10
3.355593
 20
2.777174
 30
0.0
 42
0.156851
 50
270.0
  0
VERTEX
  8
OBJECT
 10
3.377369
 20
2.753135
 30
0.0
 42
0.156851
  0
VERTEX
  8
OBJECT
 10
3.409076
 20
2.746296
 30
0.0
 42
0.106617
  0
VERTEX
  8
OBJECT
 10
3.453916
 20
2.760717
 30
0.0
 42
0.072341
 70
     2
 50
30.0
  0
SEQEND
  8
OBJECT
  0
LINE
  8
OBJECT
 10
3.353947
 20
2.781001
 30
0.0
 11
3.386366
 21
2.799717
 31
0.0
  0
LINE
  8
OBJECT
 10
3.237409
 20
2.885717
 30
0.0
 11
3.237409
 21
2.510717
 31
0.0
  0
LINE
  8
OBJECT
 10
3.237409
 20
2.510717
 30
0.0
 11
3.169859
 21
2.549717
 31
0.0
  0
LINE
  8
OBJECT
 10
3.237409
 20
2.510717
 30
0.0
 11
3.562169
 21
2.698217
 31
0.0
  0
POLYLINE
  8
OBJECT
 66
     1
 10
0.0
 20
0.0
 30
0.0
  0
VERTEX
  8
OBJECT
 10
3.377369
 20
4.179912
 30
0.0
 42
0.058752
  0
VERTEX
  8
OBJECT
 10
3.35291
 20
4.123052
 30
0.0
 42
0.072341
  0
VERTEX
  8
OBJECT
 10
3.345662
 20
4.073217
 30
0.0
 42
0.106617
 70
     2
 50
270.0
  0
VERTEX
  8
OBJECT
 10
3.355593
 20
4.027174
 30
0.0
 42
0.156851
 50
270.0
  0
VERTEX
  8
OBJECT
 10
3.377369
 20
4.003135
 30
0.0
 42
0.156851
  0
VERTEX
  8
OBJECT
 10
3.409076
 20
3.996296
 30
0.0
 42
0.106617
  0
VERTEX
  8
OBJECT
 10
3.453916
 20
4.010717
 30
0.0
 42
0.072341
 70
     2
 50
30.0
  0
SEQEND
  8
OBJECT
  0
LINE
  8
OBJECT
 10
3.237409
 20
3.885717
 30
0.0
 11
3.304959
 21
3.924717
 31
0.0
  0
POLYLINE
  8
OBJECT
 66
     1
 10
0.0
 20
0.0
 30
0.0
  0
VERTEX
  8
OBJECT
 10
4.103435
 20
3.760717
 30
0.0
 42
0.072341
 70
     2
 50
30.0
  0
VERTEX
  8
OBJECT
 10
4.142969
 20
3.791912
 30
0.0
 42
0.058752
 50
30.0
  0
VERTEX
  8
OBJECT
 10
4.179981
 20
3.841523
 30
0.0
 42
0.058752
  0
VERTEX
  8
OBJECT
 10
4.20444
 20
3.898383
 30
0.0
 42
0.072341
  0
VERTEX
  8
OBJECT
 10
4.211688
 20
3.948217
 30
0.0
 42
0.106617
 70
     2
 50
90.0
  0
VERTEX
  8
OBJECT
 10
4.201757
 20
3.99426
 30
0.0
 42
0.156851
 50
90.0
  0
VERTEX
  8
OBJECT
 10
4.179981
 20
4.0183
 30
0.0
 42
0.156851
  0
VERTEX
  8
OBJECT
 10
4.148275
 20
4.025139
 30
0.0
 42
0.106617
  0
VERTEX
  8
OBJECT
 10
4.103435
 20
4.010717
 30
0.0
 42
0.072341
 70
     2
 50
210.0
  0
SEQEND
  8
OBJECT
  0
POLYLINE
  8
OBJECT
 66
     1
 10
0.0
 20
0.0
 30
0.0
  0
VERTEX
  8
OBJECT
 10
4.035885
 20
3.799717
 30
0.0
 42
0.072341
 70
     2
 50
30.0
  0
VERTEX
  8
OBJECT
 10
4.075419
 20
3.830912
 30
0.0
 42
0.058752
 50
30.0
  0
VERTEX
  8
OBJECT
 10
4.112431
 20
3.880523
 30
0.0
 42
0.058752
  0
VERTEX
  8
OBJECT
 10
4.13689
 20
3.937383
 30
0.0
 42
0.072341
  0
VERTEX
  8
OBJECT
 10
4.144138
 20
3.987217
 30
0.0
 42
0.083232
 70
     2
 50
90.0
  0
VERTEX
  8
OBJECT
 10
4.138032
 20
4.023642
 30
0.0
 42
0.156851
 50
90.0
  0
SEQEND
  8
OBJECT
  0
LINE
  8
OBJECT
 10
3.846225
 20
3.612217
 30
0.0
 11
4.103435
 21
3.760717
 31
0.0
  0
LINE
  8
OBJECT
 10
3.629719
 20
3.737217
 30
0.0
 11
4.103435
 21
4.010717
 31
0.0
  0
LINE
  8
OBJECT
 10
3.778675
 20
3.651217
 30
0.0
 11
4.035885
 21
3.799717
 31
0.0
  0
LINE
  8
OBJECT
 10
4.319941
 20
3.432717
 30
0.0
 11
4.319941
 21
3.338717
 31
0.0
  0
LINE
  8
OBJECT
 10
3.453916
 20
4.260717
 30
0.0
 11
3.521028
 21
4.299465
 31
0.0
  0
LINE
  8
OBJECT
 10
3.169859
 20
4.299717
 30
0.0
 11
4.252391
 21
4.924717
 31
0.0
  0
LINE
  8
OBJECT
 10
3.237409
 20
4.260717
 30
0.0
 11
3.586854
 21
4.462469
 31
0.0
  0
LINE
  8
OBJECT
 10
3.237409
 20
4.260717
 30
0.0
 11
3.169859
 21
4.299717
 31
0.0
  0
POLYLINE
  8
OBJECT
 66
     1
 10
0.0
 20
0.0
 30
0.0
  0
VERTEX
  8
OBJECT
 10
4.035885
 20
4.424717
 30
0.0
 42
0.072341
 70
     2
 50
30.0
  0
VERTEX
  8
OBJECT
 10
4.075419
 20
4.455912
 30
0.0
 42
0.058752
 50
30.0
  0
VERTEX
  8
OBJECT
 10
4.112431
 20
4.505523
 30
0.0
 42
0.058752
  0
VERTEX
  8
OBJECT
 10
4.13689
 20
4.562383
 30
0.0
 42
0.072341
  0
VERTEX
  8
OBJECT
 10
4.144138
 20
4.612217
 30
0.0
 42
0.083232
 70
     2
 50
90.0
  0
VERTEX
  8
OBJECT
 10
4.138032
 20
4.648642
 30
0.0
 42
0.156851
 50
90.0
  0
SEQEND
  8
OBJECT
  0
POLYLINE
  8
OBJECT
 66
     1
 10
0.0
 20
0.0
 30
0.0
  0
VERTEX
  8
OBJECT
 10
4.103435
 20
4.385717
 30
0.0
 42
0.072341
 70
     2
 50
30.0
  0
VERTEX
  8
OBJECT
 10
4.142969
 20
4.416912
 30
0.0
 42
0.058752
 50
30.0
  0
VERTEX
  8
OBJECT
 10
4.179981
 20
4.466523
 30
0.0
 42
0.058752
  0
VERTEX
  8
OBJECT
 10
4.20444
 20
4.523383
 30
0.0
 42
0.072341
  0
VERTEX
  8
OBJECT
 10
4.211688
 20
4.573217
 30
0.0
 42
0.106617
 70
     2
 50
90.0
  0
VERTEX
  8
OBJECT
 10
4.201757
 20
4.61926
 30
0.0
 42
0.156851
 50
90.0
  0
VERTEX
  8
OBJECT
 10
4.179981
 20
4.6433
 30
0.0
 42
0.156851
  0
VERTEX
  8
OBJECT
 10
4.148275
 20
4.650139
 30
0.0
 42
0.106617
  0
VERTEX
  8
OBJECT
 10
4.103435
 20
4.635717
 30
0.0
 42
0.072341
 70
     2
 50
210.0
  0
SEQEND
  8
OBJECT
  0
LINE
  8
OBJECT
 10
4.252391
 20
4.471717
 30
0.0
 11
4.319941
 21
4.510717
 31
0.0
  0
LINE
  8
OBJECT
 10
4.319941
 20
4.885717
 30
0.0
 11
4.252391
 21
4.924717
 31
0.0
  0
LINE
  8
OBJECT
 10
4.319941
 20
4.885717
 30
0.0
 11
4.319941
 21
4.510717
 31
0.0
  0
LINE
  8
OBJECT
 10
7.121533
 20
2.706217
 30
0.0
 11
7.21593
 21
2.760717
 31
0.0
  0
LINE
  8
OBJECT
 10
6.905027
 20
2.331217
 30
0.0
 11
7.121533
 21
2.706217
 31
0.0
  0
LINE
  8
OBJECT
 10
7.189083
 20
2.667217
 30
0.0
 11
7.121533
 21
2.706217
 31
0.0
  0
LINE
  8
OBJECT
 10
6.972577
 20
2.292217
 30
0.0
 11
6.905027
 21
2.331217
 31
0.0
  0
LINE
  8
OBJECT
 10
6.972577
 20
2.292217
 30
0.0
 11
7.189083
 21
2.667217
 31
0.0
  0
LINE
  8
OBJECT
 10
20.503358
 20
10.354217
 30
0.0
 11
20.435808
 21
10.393217
 31
0.0
  0
LINE
  8
OBJECT
 10
20.97794
 20
10.456217
 30
0.0
 11
20.97794
 21
9.956217
 31
0.0
  0
LINE
  8
OBJECT
 10
21.04549
 20
10.417217
 30
0.0
 11
21.04549
 21
9.917217
 31
0.0
  0
LINE
  8
OBJECT
 10
20.341411
 20
10.338717
 30
0.0
 11
20.435808
 21
10.393217
 31
0.0
  0
LINE
  8
OBJECT
 10
20.341411
 20
10.338717
 30
0.0
 11
17.377872
 21
12.049717
 31
0.0
  0
LINE
  8
OBJECT
 10
20.341411
 20
9.260717
 30
0.0
 11
17.310322
 21
11.010717
 31
0.0
  0
LINE
  8
OBJECT
 10
20.341411
 20
10.260717
 30
0.0
 11
17.310322
 21
12.010717
 31
0.0
  0
LINE
  8
OBJECT
 10
21.423943
 20
10.885717
 30
0.0
 11
21.423943
 21
9.885717
 31
0.0
  0
LINE
  8
OBJECT
 10
21.261996
 20
9.792217
 30
0.0
 11
21.423943
 21
9.885717
 31
0.0
  0
LINE
  8
OBJECT
 10
20.503358
 20
9.354217
 30
0.0
 11
20.719864
 21
9.729217
 31
0.0
  0
LINE
  8
OBJECT
 10
20.341411
 20
10.260717
 30
0.0
 11
20.341411
 21
9.260717
 31
0.0
  0
LINE
  8
OBJECT
 10
20.341411
 20
9.260717
 30
0.0
 11
20.503358
 21
9.354217
 31
0.0
  0
LINE
  8
OBJECT
 10
20.503358
 20
10.354217
 30
0.0
 11
20.719864
 21
10.229217
 31
0.0
  0
LINE
  8
OBJECT
 10
20.341411
 20
10.260717
 30
0.0
 11
20.503358
 21
10.354217
 31
0.0
  0
LINE
  8
OBJECT
 10
21.04549
 20
9.917217
 30
0.0
 11
20.97794
 21
9.956217
 31
0.0
  0
LINE
  8
OBJECT
 10
21.04549
 20
9.917217
 30
0.0
 11
21.261996
 21
9.792217
 31
0.0
  0
LINE
  8
OBJECT
 10
20.719864
 20
10.229217
 30
0.0
 11
20.719864
 21
9.729217
 31
0.0
  0
LINE
  8
OBJECT
 10
20.97794
 20
10.065217
 30
0.0
 11
20.719864
 21
10.214217
 31
0.0
  0
LINE
  8
OBJECT
 10
21.261996
 20
10.792217
 30
0.0
 11
21.423943
 21
10.885717
 31
0.0
  0
LINE
  8
OBJECT
 10
21.423943
 20
10.885717
 30
0.0
 11
18.392854
 21
12.635717
 31
0.0
  0
LINE
  8
OBJECT
 10
20.422817
 20
10.385717
 30
0.0
 11
18.325304
 21
11.596717
 31
0.0
  0
LINE
  8
OBJECT
 10
21.288843
 20
10.885717
 30
0.0
 11
18.325304
 21
12.596717
 31
0.0
  0
POLYLINE
  8
OBJECT
 66
     1
 10
0.0
 20
0.0
 30
0.0
  0
VERTEX
  8
OBJECT
 10
17.526828
 20
12.385717
 30
0.0
 42
0.072341
 70
     2
 50
210.0
  0
VERTEX
  8
OBJECT
 10
17.487294
 20
12.354523
 30
0.0
 42
0.058752
 50
210.0
  0
VERTEX
  8
OBJECT
 10
17.450282
 20
12.304912
 30
0.0
 42
0.058752
  0
SEQEND
  8
OBJECT
  0
LINE
  8
OBJECT
 10
17.42686
 20
12.156001
 30
0.0
 11
17.622978
 21
12.269229
 31
0.0
  0
LINE
  8
OBJECT
 10
17.526828
 20
12.135717
 30
0.0
 11
17.702752
 21
12.237287
 31
0.0
  0
LINE
  8
OBJECT
 10
18.325304
 20
12.596717
 30
0.0
 11
18.325304
 21
11.596717
 31
0.0
  0
LINE
  8
OBJECT
 10
17.242772
 20
12.424717
 30
0.0
 11
17.242772
 21
10.674717
 31
0.0
  0
LINE
  8
OBJECT
 10
17.310322
 20
12.385717
 30
0.0
 11
17.310322
 21
12.010717
 31
0.0
  0
POLYLINE
  8
OBJECT
 66
     1
 10
0.0
 20
0.0
 30
0.0
  0
VERTEX
  8
OBJECT
 10
17.418575
 20
10.948217
 30
0.0
 42
0.106617
 70
     2
 50
270.0
  0
VERTEX
  8
OBJECT
 10
17.428506
 20
10.902174
 30
0.0
 42
0.156851
 50
270.0
  0
VERTEX
  8
OBJECT
 10
17.450282
 20
10.878135
 30
0.0
 42
0.156851
  0
VERTEX
  8
OBJECT
 10
17.481988
 20
10.871296
 30
0.0
 42
0.106617
  0
VERTEX
  8
OBJECT
 10
17.526828
 20
10.885717
 30
0.0
 42
0.072341
 70
     2
 50
30.0
  0
SEQEND
  8
OBJECT
  0
LINE
  8
OBJECT
 10
17.42686
 20
10.906001
 30
0.0
 11
17.459278
 21
10.924717
 31
0.0
  0
LINE
  8
OBJECT
 10
17.310322
 20
11.010717
 30
0.0
 11
17.310322
 21
10.635717
 31
0.0
  0
LINE
  8
OBJECT
 10
17.310322
 20
10.635717
 30
0.0
 11
17.242772
 21
10.674717
 31
0.0
  0
LINE
  8
OBJECT
 10
17.310322
 20
10.635717
 30
0.0
 11
17.635082
 21
10.823217
 31
0.0
  0
POLYLINE
  8
OBJECT
 66
     1
 10
0.0
 20
0.0
 30
0.0
  0
VERTEX
  8
OBJECT
 10
17.450282
 20
12.304912
 30
0.0
 42
0.058752
  0
VERTEX
  8
OBJECT
 10
17.425823
 20
12.248052
 30
0.0
 42
0.072341
  0
VERTEX
  8
OBJECT
 10
17.418575
 20
12.198217
 30
0.0
 42
0.106617
 70
     2
 50
270.0
  0
VERTEX
  8
OBJECT
 10
17.428506
 20
12.152174
 30
0.0
 42
0.156851
 50
270.0
  0
VERTEX
  8
OBJECT
 10
17.450282
 20
12.128135
 30
0.0
 42
0.156851
  0
VERTEX
  8
OBJECT
 10
17.481988
 20
12.121296
 30
0.0
 42
0.106617
  0
VERTEX
  8
OBJECT
 10
17.526828
 20
12.135717
 30
0.0
 42
0.072341
 70
     2
 50
30.0
  0
SEQEND
  8
OBJECT
  0
LINE
  8
OBJECT
 10
17.310322
 20
12.010717
 30
0.0
 11
17.377872
 21
12.049717
 31
0.0
  0
POLYLINE
  8
OBJECT
 66
     1
 10
0.0
 20
0.0
 30
0.0
  0
VERTEX
  8
OBJECT
 10
18.176347
 20
11.885717
 30
0.0
 42
0.072341
 70
     2
 50
30.0
  0
VERTEX
  8
OBJECT
 10
18.215881
 20
11.916912
 30
0.0
 42
0.058752
 50
30.0
  0
VERTEX
  8
OBJECT
 10
18.252894
 20
11.966523
 30
0.0
 42
0.058752
  0
VERTEX
  8
OBJECT
 10
18.277352
 20
12.023383
 30
0.0
 42
0.072341
  0
VERTEX
  8
OBJECT
 10
18.284601
 20
12.073217
 30
0.0
 42
0.106617
 70
     2
 50
90.0
  0
VERTEX
  8
OBJECT
 10
18.27467
 20
12.11926
 30
0.0
 42
0.156851
 50
90.0
  0
VERTEX
  8
OBJECT
 10
18.252894
 20
12.1433
 30
0.0
 42
0.156851
  0
VERTEX
  8
OBJECT
 10
18.221187
 20
12.150139
 30
0.0
 42
0.106617
  0
VERTEX
  8
OBJECT
 10
18.176347
 20
12.135717
 30
0.0
 42
0.072341
 70
     2
 50
210.0
  0
SEQEND
  8
OBJECT
  0
POLYLINE
  8
OBJECT
 66
     1
 10
0.0
 20
0.0
 30
0.0
  0
VERTEX
  8
OBJECT
 10
18.108797
 20
11.924717
 30
0.0
 42
0.072341
 70
     2
 50
30.0
  0
VERTEX
  8
OBJECT
 10
18.148331
 20
11.955912
 30
0.0
 42
0.058752
 50
30.0
  0
VERTEX
  8
OBJECT
 10
18.185344
 20
12.005523
 30
0.0
 42
0.058752
  0
VERTEX
  8
OBJECT
 10
18.209802
 20
12.062383
 30
0.0
 42
0.072341
  0
VERTEX
  8
OBJECT
 10
18.217051
 20
12.112217
 30
0.0
 42
0.083232
 70
     2
 50
90.0
  0
VERTEX
  8
OBJECT
 10
18.210945
 20
12.148642
 30
0.0
 42
0.156851
 50
90.0
  0
SEQEND
  8
OBJECT
  0
LINE
  8
OBJECT
 10
17.919138
 20
11.737217
 30
0.0
 11
18.176347
 21
11.885717
 31
0.0
  0
LINE
  8
OBJECT
 10
17.702632
 20
11.862217
 30
0.0
 11
18.176347
 21
12.135717
 31
0.0
  0
LINE
  8
OBJECT
 10
17.851588
 20
11.776217
 30
0.0
 11
18.108797
 21
11.924717
 31
0.0
  0
LINE
  8
OBJECT
 10
18.392854
 20
11.557717
 30
0.0
 11
18.392854
 21
11.463717
 31
0.0
  0
LINE
  8
OBJECT
 10
17.526828
 20
12.385717
 30
0.0
 11
17.59394
 21
12.424465
 31
0.0
  0
LINE
  8
OBJECT
 10
17.242772
 20
12.424717
 30
0.0
 11
18.325304
 21
13.049717
 31
0.0
  0
LINE
  8
OBJECT
 10
17.310322
 20
12.385717
 30
0.0
 11
17.659766
 21
12.587469
 31
0.0
  0
LINE
  8
OBJECT
 10
17.310322
 20
12.385717
 30
0.0
 11
17.242772
 21
12.424717
 31
0.0
  0
POLYLINE
  8
OBJECT
 66
     1
 10
0.0
 20
0.0
 30
0.0
  0
VERTEX
  8
OBJECT
 10
18.108797
 20
12.549717
 30
0.0
 42
0.072341
 70
     2
 50
30.0
  0
VERTEX
  8
OBJECT
 10
18.148331
 20
12.580912
 30
0.0
 42
0.058752
 50
30.0
  0
VERTEX
  8
OBJECT
 10
18.185344
 20
12.630523
 30
0.0
 42
0.058752
  0
VERTEX
  8
OBJECT
 10
18.209802
 20
12.687383
 30
0.0
 42
0.072341
  0
VERTEX
  8
OBJECT
 10
18.217051
 20
12.737217
 30
0.0
 42
0.083232
 70
     2
 50
90.0
  0
VERTEX
  8
OBJECT
 10
18.210945
 20
12.773642
 30
0.0
 42
0.156851
 50
90.0
  0
SEQEND
  8
OBJECT
  0
POLYLINE
  8
OBJECT
 66
     1
 10
0.0
 20
0.0
 30
0.0
  0
VERTEX
  8
OBJECT
 10
18.176347
 20
12.510717
 30
0.0
 42
0.072341
 70
     2
 50
30.0
  0
VERTEX
  8
OBJECT
 10
18.215881
 20
12.541912
 30
0.0
 42
0.058752
 50
30.0
  0
VERTEX
  8
OBJECT
 10
18.252894
 20
12.591523
 30
0.0
 42
0.058752
  0
VERTEX
  8
OBJECT
 10
18.277352
 20
12.648383
 30
0.0
 42
0.072341
  0
VERTEX
  8
OBJECT
 10
18.284601
 20
12.698217
 30
0.0
 42
0.106617
 70
     2
 50
90.0
  0
VERTEX
  8
OBJECT
 10
18.27467
 20
12.74426
 30
0.0
 42
0.156851
 50
90.0
  0
VERTEX
  8
OBJECT
 10
18.252894
 20
12.7683
 30
0.0
 42
0.156851
  0
VERTEX
  8
OBJECT
 10
18.221187
 20
12.775139
 30
0.0
 42
0.106617
  0
VERTEX
  8
OBJECT
 10
18.176347
 20
12.760717
 30
0.0
 42
0.072341
 70
     2
 50
210.0
  0
SEQEND
  8
OBJECT
  0
LINE
  8
OBJECT
 10
18.325304
 20
12.596717
 30
0.0
 11
18.392854
 21
12.635717
 31
0.0
  0
LINE
  8
OBJECT
 10
18.392854
 20
13.010717
 30
0.0
 11
18.325304
 21
13.049717
 31
0.0
  0
LINE
  8
OBJECT
 10
18.392854
 20
13.010717
 30
0.0
 11
18.392854
 21
12.635717
 31
0.0
  0
LINE
  8
OBJECT
 10
21.194446
 20
10.831217
 30
0.0
 11
21.288843
 21
10.885717
 31
0.0
  0
LINE
  8
OBJECT
 10
20.97794
 20
10.456217
 30
0.0
 11
21.194446
 21
10.831217
 31
0.0
  0
LINE
  8
OBJECT
 10
21.261996
 20
10.792217
 30
0.0
 11
21.194446
 21
10.831217
 31
0.0
  0
LINE
  8
OBJECT
 10
21.04549
 20
10.417217
 30
0.0
 11
20.97794
 21
10.456217
 31
0.0
  0
LINE
  8
OBJECT
 10
21.04549
 20
10.417217
 30
0.0
 11
21.261996
 21
10.792217
 31
0.0
  0
LINE
  8
OBJECT
 10
14.008167
 20
6.604217
 30
0.0
 11
13.940617
 21
6.643217
 31
0.0
  0
LINE
  8
OBJECT
 10
14.482749
 20
6.706217
 30
0.0
 11
14.482749
 21
6.206217
 31
0.0
  0
LINE
  8
OBJECT
 10
14.550299
 20
6.667217
 30
0.0
 11
14.550299
 21
6.167217
 31
0.0
  0
LINE
  8
OBJECT
 10
13.84622
 20
6.588717
 30
0.0
 11
13.940617
 21
6.643217
 31
0.0
  0
LINE
  8
OBJECT
 10
13.84622
 20
6.588717
 30
0.0
 11
11.588839
 21
7.892017
 31
0.0
  0
LINE
  8
OBJECT
 10
14.928752
 20
7.135717
 30
0.0
 11
14.928752
 21
6.135717
 31
0.0
  0
LINE
  8
OBJECT
 10
14.766805
 20
6.042217
 30
0.0
 11
14.928752
 21
6.135717
 31
0.0
  0
LINE
  8
OBJECT
 10
14.008167
 20
5.604217
 30
0.0
 11
14.224673
 21
5.979217
 31
0.0
  0
LINE
  8
OBJECT
 10
14.008167
 20
6.604217
 30
0.0
 11
14.224673
 21
6.479217
 31
0.0
  0
LINE
  8
OBJECT
 10
13.84622
 20
6.510717
 30
0.0
 11
14.008167
 21
6.604217
 31
0.0
  0
LINE
  8
OBJECT
 10
14.550299
 20
6.167217
 30
0.0
 11
14.482749
 21
6.206217
 31
0.0
  0
LINE
  8
OBJECT
 10
14.550299
 20
6.167217
 30
0.0
 11
14.766805
 21
6.042217
 31
0.0
  0
LINE
  8
OBJECT
 10
14.224673
 20
6.479217
 30
0.0
 11
14.224673
 21
5.979217
 31
0.0
  0
LINE
  8
OBJECT
 10
14.482749
 20
6.315217
 30
0.0
 11
14.224673
 21
6.464217
 31
0.0
  0
LINE
  8
OBJECT
 10
14.766805
 20
7.042217
 30
0.0
 11
14.928752
 21
7.135717
 31
0.0
  0
LINE
  8
OBJECT
 10
14.928752
 20
7.135717
 30
0.0
 11
12.395281
 21
8.598417
 31
0.0
  0
LINE
  8
OBJECT
 10
13.927627
 20
6.635717
 30
0.0
 11
11.830113
 21
7.846717
 31
0.0
  0
LINE
  8
OBJECT
 10
14.793652
 20
7.135717
 30
0.0
 11
12.422301
 21
8.504817
 31
0.0
  0
LINE
  8
OBJECT
 10
10.93167
 20
8.406001
 30
0.0
 11
11.127787
 21
8.519229
 31
0.0
  0
LINE
  8
OBJECT
 10
11.031638
 20
8.385717
 30
0.0
 11
11.207561
 21
8.487287
 31
0.0
  0
LINE
  8
OBJECT
 10
11.830113
 20
8.846717
 30
0.0
 11
11.830113
 21
8.721217
 31
0.0
  0
LINE
  8
OBJECT
 10
10.747581
 20
8.674717
 30
0.0
 11
10.747581
 21
8.346217
 31
0.0
  0
LINE
  8
OBJECT
 10
10.815131
 20
8.635717
 30
0.0
 11
10.815131
 21
8.307217
 31
0.0
  0
POLYLINE
  8
OBJECT
 66
     1
 10
0.0
 20
0.0
 30
0.0
  0
VERTEX
  8
OBJECT
 10
10.923385
 20
7.198217
 30
0.0
 42
0.106617
 70
     2
 50
270.0
  0
VERTEX
  8
OBJECT
 10
10.933315
 20
7.152174
 30
0.0
 42
0.156851
 50
270.0
  0
VERTEX
  8
OBJECT
 10
10.955091
 20
7.128135
 30
0.0
 42
0.156851
  0
VERTEX
  8
OBJECT
 10
10.986798
 20
7.121296
 30
0.0
 42
0.106617
  0
VERTEX
  8
OBJECT
 10
11.031638
 20
7.135717
 30
0.0
 42
0.072341
 70
     2
 50
30.0
  0
SEQEND
  8
OBJECT
  0
LINE
  8
OBJECT
 10
10.93167
 20
7.156001
 30
0.0
 11
10.964088
 21
7.174717
 31
0.0
  0
LINE
  8
OBJECT
 10
10.815131
 20
7.260717
 30
0.0
 11
10.815131
 21
6.885717
 31
0.0
  0
LINE
  8
OBJECT
 10
10.815131
 20
6.885717
 30
0.0
 11
10.747581
 21
6.924717
 31
0.0
  0
LINE
  8
OBJECT
 10
10.815131
 20
6.885717
 30
0.0
 11
11.139891
 21
7.073217
 31
0.0
  0
POLYLINE
  8
OBJECT
 66
     1
 10
0.0
 20
0.0
 30
0.0
  0
VERTEX
  8
OBJECT
 10
10.955091
 20
8.554912
 30
0.0
 42
0.058752
  0
VERTEX
  8
OBJECT
 10
10.930633
 20
8.498052
 30
0.0
 42
0.072341
  0
VERTEX
  8
OBJECT
 10
10.923385
 20
8.448217
 30
0.0
 42
0.106617
 70
     2
 50
270.0
  0
VERTEX
  8
OBJECT
 10
10.933315
 20
8.402174
 30
0.0
 42
0.156851
 50
270.0
  0
VERTEX
  8
OBJECT
 10
10.955091
 20
8.378135
 30
0.0
 42
0.156851
  0
VERTEX
  8
OBJECT
 10
10.986798
 20
8.371296
 30
0.0
 42
0.106617
  0
VERTEX
  8
OBJECT
 10
11.031638
 20
8.385717
 30
0.0
 42
0.072341
 70
     2
 50
30.0
  0
SEQEND
  8
OBJECT
  0
LINE
  8
OBJECT
 10
10.855402
 20
8.283967
 30
0.0
 11
10.882681
 21
8.299717
 31
0.0
  0
POLYLINE
  8
OBJECT
 66
     1
 10
0.0
 20
0.0
 30
0.0
  0
VERTEX
  8
OBJECT
 10
11.681157
 20
8.135717
 30
0.0
 42
0.072341
 70
     2
 50
30.0
  0
VERTEX
  8
OBJECT
 10
11.720691
 20
8.166912
 30
0.0
 42
0.058752
 50
30.0
  0
VERTEX
  8
OBJECT
 10
11.757703
 20
8.216523
 30
0.0
 42
0.058752
  0
VERTEX
  8
OBJECT
 10
11.782162
 20
8.273383
 30
0.0
 42
0.072341
  0
VERTEX
  8
OBJECT
 10
11.78941
 20
8.323217
 30
0.0
 42
0.106617
 70
     2
 50
90.0
  0
VERTEX
  8
OBJECT
 10
11.779479
 20
8.36926
 30
0.0
 42
0.156851
 50
90.0
  0
VERTEX
  8
OBJECT
 10
11.757703
 20
8.3933
 30
0.0
 42
0.156851
  0
VERTEX
  8
OBJECT
 10
11.725997
 20
8.400139
 30
0.0
 42
0.106617
  0
VERTEX
  8
OBJECT
 10
11.681157
 20
8.385717
 30
0.0
 42
0.072341
 70
     2
 50
210.0
  0
SEQEND
  8
OBJECT
  0
POLYLINE
  8
OBJECT
 66
     1
 10
0.0
 20
0.0
 30
0.0
  0
VERTEX
  8
OBJECT
 10
11.613607
 20
8.174717
 30
0.0
 42
0.072341
 70
     2
 50
30.0
  0
VERTEX
  8
OBJECT
 10
11.653141
 20
8.205912
 30
0.0
 42
0.058752
 50
30.0
  0
VERTEX
  8
OBJECT
 10
11.690153
 20
8.255523
 30
0.0
 42
0.058752
  0
VERTEX
  8
OBJECT
 10
11.714612
 20
8.312383
 30
0.0
 42
0.072341
  0
VERTEX
  8
OBJECT
 10
11.72186
 20
8.362217
 30
0.0
 42
0.083232
 70
     2
 50
90.0
  0
VERTEX
  8
OBJECT
 10
11.715754
 20
8.398642
 30
0.0
 42
0.156851
 50
90.0
  0
SEQEND
  8
OBJECT
  0
LINE
  8
OBJECT
 10
11.541727
 20
8.055217
 30
0.0
 11
11.681157
 21
8.135717
 31
0.0
  0
LINE
  8
OBJECT
 10
11.207441
 20
8.112217
 30
0.0
 11
11.329839
 21
8.182884
 31
0.0
  0
LINE
  8
OBJECT
 10
11.522427
 20
8.122075
 30
0.0
 11
11.613607
 21
8.174717
 31
0.0
  0
LINE
  8
OBJECT
 10
11.897663
 20
7.807717
 30
0.0
 11
11.897663
 21
7.713717
 31
0.0
  0
LINE
  8
OBJECT
 10
10.747581
 20
8.674717
 30
0.0
 11
10.815564
 21
8.713967
 31
0.0
  0
LINE
  8
OBJECT
 10
10.815131
 20
8.635717
 30
0.0
 11
10.883114
 21
8.674967
 31
0.0
  0
LINE
  8
OBJECT
 10
10.815131
 20
8.635717
 30
0.0
 11
10.747581
 21
8.674717
 31
0.0
  0
LINE
  8
OBJECT
 10
11.830113
 20
8.846717
 30
0.0
 11
11.897663
 21
8.885717
 31
0.0
  0
LINE
  8
OBJECT
 10
11.897663
 20
9.089217
 30
0.0
 11
11.897663
 21
8.885717
 31
0.0
  0
LINE
  8
OBJECT
 10
14.699255
 20
7.081217
 30
0.0
 11
14.793652
 21
7.135717
 31
0.0
  0
LINE
  8
OBJECT
 10
14.482749
 20
6.706217
 30
0.0
 11
14.699255
 21
7.081217
 31
0.0
  0
LINE
  8
OBJECT
 10
14.766805
 20
7.042217
 30
0.0
 11
14.699255
 21
7.081217
 31
0.0
  0
LINE
  8
OBJECT
 10
14.550299
 20
6.667217
 30
0.0
 11
14.482749
 21
6.706217
 31
0.0
  0
LINE
  8
OBJECT
 10
14.550299
 20
6.667217
 30
0.0
 11
14.766805
 21
7.042217
 31
0.0
  0
LINE
  8
OBJECT
 10
13.84622
 20
5.510717
 30
0.0
 11
10.815131
 21
7.260717
 31
0.0
  0
LINE
  8
OBJECT
 10
13.84622
 20
6.510717
 30
0.0
 11
13.84622
 21
5.510717
 31
0.0
  0
LINE
  8
OBJECT
 10
13.84622
 20
5.510717
 30
0.0
 11
14.008167
 21
5.604217
 31
0.0
  0
LINE
  8
OBJECT
 10
5.17211
 20
2.846717
 30
0.0
 11
5.253516
 21
2.893717
 31
0.0
  0
LINE
  8
OBJECT
 10
6.227362
 20
3.455967
 30
0.0
 11
6.579834
 21
3.659467
 31
0.0
  0
POLYLINE
  8
OBJECT
 66
     1
 10
0.0
 20
0.0
 30
0.0
 70
     1
  0
VERTEX
  8
OBJECT
 10
3.573954
 20
4.441413
 30
0.0
 42
0.058752
  0
VERTEX
  8
OBJECT
 10
3.530124
 20
4.339521
 30
0.0
 42
0.072341
  0
VERTEX
  8
OBJECT
 10
3.517135
 20
4.250217
 30
0.0
 42
0.106617
 70
     2
 50
270.0
  0
VERTEX
  8
OBJECT
 10
3.534931
 20
4.167708
 30
0.0
 42
0.156851
 50
270.0
  0
VERTEX
  8
OBJECT
 10
3.573954
 20
4.124629
 30
0.0
 42
0.156851
  0
VERTEX
  8
OBJECT
 10
3.630772
 20
4.112375
 30
0.0
 42
0.106617
  0
VERTEX
  8
OBJECT
 10
3.711125
 20
4.138217
 30
0.0
 42
0.072341
 70
     2
 50
30.0
  0
VERTEX
  8
OBJECT
 10
3.78197
 20
4.194118
 30
0.0
 42
0.058752
 50
30.0
  0
VERTEX
  8
OBJECT
 10
3.848297
 20
4.283021
 30
0.0
 42
0.058752
  0
VERTEX
  8
OBJECT
 10
3.892126
 20
4.384914
 30
0.0
 42
0.072341
  0
VERTEX
  8
OBJECT
 10
3.905115
 20
4.474217
 30
0.0
 42
0.106617
 70
     2
 50
90.0
  0
VERTEX
  8
OBJECT
 10
3.887319
 20
4.556727
 30
0.0
 42
0.156851
 50
90.0
  0
VERTEX
  8
OBJECT
 10
3.848297
 20
4.599805
 30
0.0
 42
0.156851
  0
VERTEX
  8
OBJECT
 10
3.791478
 20
4.61206
 30
0.0
 42
0.106617
  0
VERTEX
  8
OBJECT
 10
3.711125
 20
4.586217
 30
0.0
 42
0.072341
 70
     2
 50
210.0
  0
VERTEX
  8
OBJECT
 10
3.64028
 20
4.530317
 30
0.0
 42
0.058752
 50
210.0
  0
SEQEND
  8
OBJECT
  0
LINE
  8
OBJECT
 10
11.504921
 20
8.908967
 30
0.0
 11
11.681157
 21
9.010717
 31
0.0
  0
LINE
  8
OBJECT
 10
11.449836
 20
8.705164
 30
0.0
 11
11.465084
 21
8.713967
 31
0.0
  0
LINE
  8
OBJECT
 10
11.413162
 20
8.98099
 30
0.0
 11
11.74914
 21
9.174967
 31
0.0
  0
LINE
  8
OBJECT
 10
11.396668
 20
8.596467
 30
0.0
 11
11.532634
 21
8.674967
 31
0.0
  0
POLYLINE
  8
OBJECT
 66
     1
 10
0.0
 20
0.0
 30
0.0
  0
VERTEX
  8
OBJECT
 10
10.671035
 20
7.843912
 30
0.0
 42
0.058752
  0
VERTEX
  8
OBJECT
 10
10.646576
 20
7.787052
 30
0.0
 42
0.072341
  0
VERTEX
  8
OBJECT
 10
10.639328
 20
7.737217
 30
0.0
 42
0.106617
 70
     2
 50
270.0
  0
VERTEX
  8
OBJECT
 10
10.649259
 20
7.691174
 30
0.0
 42
0.156851
 50
270.0
  0
VERTEX
  8
OBJECT
 10
10.671035
 20
7.667135
 30
0.0
 42
0.156851
  0
VERTEX
  8
OBJECT
 10
10.702742
 20
7.660296
 30
0.0
 42
0.106617
  0
VERTEX
  8
OBJECT
 10
10.747581
 20
7.674717
 30
0.0
 42
0.072341
 70
     2
 50
30.0
  0
SEQEND
  8
OBJECT
  0
POLYLINE
  8
OBJECT
 66
     1
 10
0.0
 20
0.0
 30
0.0
  0
VERTEX
  8
OBJECT
 10
10.747581
 20
7.924717
 30
0.0
 42
0.072341
 70
     2
 50
210.0
  0
VERTEX
  8
OBJECT
 10
10.708048
 20
7.893523
 30
0.0
 42
0.058752
 50
210.0
  0
VERTEX
  8
OBJECT
 10
10.671035
 20
7.843912
 30
0.0
 42
0.058752
  0
SEQEND
  8
OBJECT
  0
POLYLINE
  8
OBJECT
 66
     1
 10
0.0
 20
0.0
 30
0.0
  0
VERTEX
  8
OBJECT
 10
10.649197
 20
7.691311
 30
0.0
 42
0.106277
  0
VERTEX
  8
OBJECT
 10
10.693888
 20
7.705717
 30
0.0
 42
0.072341
 70
     2
 50
30.0
  0
VERTEX
  8
OBJECT
 10
10.733422
 20
7.736912
 30
0.0
 42
0.020377
 50
30.0
  0
VERTEX
  8
OBJECT
 10
10.747581
 20
7.753135
 30
0.0
 42
0.058752
  0
SEQEND
  8
OBJECT
  0
LINE
  8
OBJECT
 10
13.764814
 20
7.807717
 30
0.0
 11
13.832797
 21
7.846967
 31
0.0
  0
LINE
  8
OBJECT
 10
3.835439
 20
4.60599
 30
0.0
 11
4.319941
 21
4.885717
 31
0.0
  0
LINE
  8
OBJECT
 10
3.900184
 20
4.518371
 30
0.0
 11
4.103435
 21
4.635717
 31
0.0
  0
LINE
  8
OBJECT
 10
3.872114
 20
4.330164
 30
0.0
 11
4.035885
 21
4.424717
 31
0.0
  0
LINE
  8
OBJECT
 10
3.793569
 20
4.206817
 30
0.0
 11
4.103435
 21
4.385717
 31
0.0
  0
LINE
  8
OBJECT
 10
18.974823
 20
11.221717
 30
0.0
 11
18.974823
 21
11.127717
 31
0.0
  0
POLYLINE
  8
OBJECT
 66
     1
 10
0.0
 20
0.0
 30
0.0
  0
VERTEX
  8
OBJECT
 10
17.166225
 20
11.593912
 30
0.0
 42
0.058752
  0
VERTEX
  8
OBJECT
 10
17.141767
 20
11.537052
 30
0.0
 42
0.072341
  0
VERTEX
  8
OBJECT
 10
17.134519
 20
11.487217
 30
0.0
 42
0.106617
 70
     2
 50
270.0
  0
VERTEX
  8
OBJECT
 10
17.14445
 20
11.441174
 30
0.0
 42
0.156851
 50
270.0
  0
VERTEX
  8
OBJECT
 10
17.166225
 20
11.417135
 30
0.0
 42
0.156851
  0
VERTEX
  8
OBJECT
 10
17.197932
 20
11.410296
 30
0.0
 42
0.106617
  0
VERTEX
  8
OBJECT
 10
17.242772
 20
11.424717
 30
0.0
 42
0.072341
 70
     2
 50
30.0
  0
SEQEND
  8
OBJECT
  0
POLYLINE
  8
OBJECT
 66
     1
 10
0.0
 20
0.0
 30
0.0
  0
VERTEX
  8
OBJECT
 10
17.242772
 20
11.674717
 30
0.0
 42
0.072341
 70
     2
 50
210.0
  0
VERTEX
  8
OBJECT
 10
17.203238
 20
11.643523
 30
0.0
 42
0.058752
 50
210.0
  0
VERTEX
  8
OBJECT
 10
17.166225
 20
11.593912
 30
0.0
 42
0.058752
  0
SEQEND
  8
OBJECT
  0
POLYLINE
  8
OBJECT
 66
     1
 10
0.0
 20
0.0
 30
0.0
  0
VERTEX
  8
OBJECT
 10
17.144388
 20
11.441311
 30
0.0
 42
0.106277
  0
VERTEX
  8
OBJECT
 10
17.189078
 20
11.455717
 30
0.0
 42
0.072341
 70
     2
 50
30.0
  0
VERTEX
  8
OBJECT
 10
17.228612
 20
11.486912
 30
0.0
 42
0.020377
 50
30.0
  0
VERTEX
  8
OBJECT
 10
17.242772
 20
11.503135
 30
0.0
 42
0.058752
  0
SEQEND
  8
OBJECT
  0
POLYLINE
  8
OBJECT
 66
     1
 10
0.0
 20
0.0
 30
0.0
 70
     1
  0
VERTEX
  8
OBJECT
 10
17.646866
 20
12.566413
 30
0.0
 42
0.058752
  0
VERTEX
  8
OBJECT
 10
17.603037
 20
12.464521
 30
0.0
 42
0.072341
  0
VERTEX
  8
OBJECT
 10
17.590048
 20
12.375217
 30
0.0
 42
0.106617
 70
     2
 50
270.0
  0
VERTEX
  8
OBJECT
 10
17.607844
 20
12.292708
 30
0.0
 42
0.156851
 50
270.0
  0
VERTEX
  8
OBJECT
 10
17.646866
 20
12.249629
 30
0.0
 42
0.156851
  0
VERTEX
  8
OBJECT
 10
17.703685
 20
12.237375
 30
0.0
 42
0.106617
  0
VERTEX
  8
OBJECT
 10
17.784038
 20
12.263217
 30
0.0
 42
0.072341
 70
     2
 50
30.0
  0
VERTEX
  8
OBJECT
 10
17.854883
 20
12.319118
 30
0.0
 42
0.058752
 50
30.0
  0
VERTEX
  8
OBJECT
 10
17.921209
 20
12.408021
 30
0.0
 42
0.058752
  0
VERTEX
  8
OBJECT
 10
17.965039
 20
12.509914
 30
0.0
 42
0.072341
  0
VERTEX
  8
OBJECT
 10
17.978028
 20
12.599217
 30
0.0
 42
0.106617
 70
     2
 50
90.0
  0
VERTEX
  8
OBJECT
 10
17.960231
 20
12.681727
 30
0.0
 42
0.156851
 50
90.0
  0
VERTEX
  8
OBJECT
 10
17.921209
 20
12.724805
 30
0.0
 42
0.156851
  0
VERTEX
  8
OBJECT
 10
17.864391
 20
12.73706
 30
0.0
 42
0.106617
  0
VERTEX
  8
OBJECT
 10
17.784038
 20
12.711217
 30
0.0
 42
0.072341
 70
     2
 50
210.0
  0
VERTEX
  8
OBJECT
 10
17.713193
 20
12.655317
 30
0.0
 42
0.058752
 50
210.0
  0
SEQEND
  8
OBJECT
  0
LINE
  8
OBJECT
 10
17.866482
 20
12.331817
 30
0.0
 11
18.176347
 21
12.510717
 31
0.0
  0
LINE
  8
OBJECT
 10
17.973097
 20
12.643371
 30
0.0
 11
18.176347
 21
12.760717
 31
0.0
  0
LINE
  8
OBJECT
 10
17.908352
 20
12.73099
 30
0.0
 11
18.392854
 21
13.010717
 31
0.0
  0
LINE
  8
OBJECT
 10
17.945026
 20
12.455164
 30
0.0
 11
18.108797
 21
12.549717
 31
0.0
  0
LINE
  8
OBJECT
 10
16.498856
 20
11.120217
 30
0.0
 11
16.607109
 21
10.745217
 31
0.0
  0
LINE
  8
OBJECT
 10
16.68765
 20
11.229217
 30
0.0
 11
16.795903
 21
10.854217
 31
0.0
  0
LINE
  8
OBJECT
 10
15.416324
 20
11.432717
 30
0.0
 11
16.607109
 21
10.745217
 31
0.0
  0
LINE
  8
OBJECT
 10
14.550299
 20
11.557717
 30
0.0
 11
15.741084
 21
10.870217
 31
0.0
  0
LINE
  8
OBJECT
 10
15.821624
 20
10.729217
 30
0.0
 11
15.929877
 21
10.979217
 31
0.0
  0
LINE
  8
OBJECT
 10
15.741084
 20
10.870217
 30
0.0
 11
15.929877
 21
10.979217
 31
0.0
  0
LINE
  8
OBJECT
 10
15.063852
 20
10.479217
 30
0.0
 11
13.873067
 21
11.166717
 31
0.0
  0
LINE
  8
OBJECT
 10
13.684274
 20
11.057717
 30
0.0
 11
14.875059
 21
10.370217
 31
0.0
  0
LINE
  8
OBJECT
 10
13.873067
 20
10.948717
 30
0.0
 11
13.873067
 21
10.541717
 31
0.0
  0
LINE
  8
OBJECT
 10
13.684274
 20
10.432717
 30
0.0
 11
13.684274
 21
11.057717
 31
0.0
  0
LINE
  8
OBJECT
 10
14.550299
 20
10.932717
 30
0.0
 11
15.741084
 21
10.245217
 31
0.0
  0
LINE
  8
OBJECT
 10
15.665567
 20
10.506817
 30
0.0
 11
14.739093
 21
11.041717
 31
0.0
  0
LINE
  8
OBJECT
 10
11.59975
 20
8.479217
 30
0.0
 11
10.408966
 21
9.166717
 31
0.0
  0
LINE
  8
OBJECT
 10
10.220172
 20
9.057717
 30
0.0
 11
11.410957
 21
8.370217
 31
0.0
  0
LINE
  8
OBJECT
 10
11.33544
 20
8.006817
 30
0.0
 11
10.408966
 21
8.541717
 31
0.0
  0
LINE
  8
OBJECT
 10
10.220172
 20
8.432717
 30
0.0
 11
11.410957
 21
7.745217
 31
0.0
  0
LINE
  8
OBJECT
 10
9.759446
 20
7.229217
 30
0.0
 11
9.8677
 21
6.854217
 31
0.0
  0
LINE
  8
OBJECT
 10
9.570653
 20
7.120217
 30
0.0
 11
9.678906
 21
6.745217
 31
0.0
  0
LINE
  8
OBJECT
 10
7.622096
 20
6.932717
 30
0.0
 11
7.622096
 21
7.557717
 31
0.0
  0
LINE
  8
OBJECT
 10
7.622096
 20
6.932717
 30
0.0
 11
7.810889
 21
7.041717
 31
0.0
  0
LINE
  8
OBJECT
 10
7.622096
 20
7.557717
 30
0.0
 11
8.812881
 21
6.870217
 31
0.0
  0
LINE
  8
OBJECT
 10
8.737363
 20
6.506817
 30
0.0
 11
7.810889
 21
7.041717
 31
0.0
  0
LINE
  8
OBJECT
 10
9.603389
 20
7.006817
 30
0.0
 11
8.676915
 21
7.541717
 31
0.0
  0
LINE
  8
OBJECT
 10
8.488121
 20
7.432717
 30
0.0
 11
9.678906
 21
6.745217
 31
0.0
  0
LINE
  8
OBJECT
 10
9.001674
 20
6.979217
 30
0.0
 11
7.810889
 21
7.666717
 31
0.0
  0
LINE
  8
OBJECT
 10
6.75607
 20
6.432717
 30
0.0
 11
6.75607
 21
7.057717
 31
0.0
  0
LINE
  8
OBJECT
 10
6.75607
 20
7.057717
 30
0.0
 11
7.946855
 21
6.370217
 31
0.0
  0
LINE
  8
OBJECT
 10
8.135649
 20
6.479217
 30
0.0
 11
6.944864
 21
7.166717
 31
0.0
  0
LINE
  8
OBJECT
 10
7.622096
 20
6.932717
 30
0.0
 11
8.812881
 21
6.245217
 31
0.0
  0
LINE
  8
OBJECT
 10
6.75607
 20
6.432717
 30
0.0
 11
7.946855
 21
5.745217
 31
0.0
  0
LINE
  8
OBJECT
 10
7.838602
 20
6.120217
 30
0.0
 11
7.946855
 21
5.745217
 31
0.0
  0
LINE
  8
OBJECT
 10
7.838602
 20
6.120217
 30
0.0
 11
8.027396
 21
6.229217
 31
0.0
  0
LINE
  8
OBJECT
 10
7.946855
 20
6.370217
 30
0.0
 11
7.838602
 21
6.120217
 31
0.0
  0
LINE
  8
OBJECT
 10
5.890045
 20
5.932717
 30
0.0
 11
7.08083
 21
5.245217
 31
0.0
  0
LINE
  8
OBJECT
 10
7.005313
 20
5.506817
 30
0.0
 11
6.078839
 21
6.041717
 31
0.0
  0
LINE
  8
OBJECT
 10
5.890045
 20
6.557717
 30
0.0
 11
7.08083
 21
5.870217
 31
0.0
  0
LINE
  8
OBJECT
 10
7.269623
 20
5.979217
 30
0.0
 11
6.078839
 21
6.666717
 31
0.0
  0
LINE
  8
OBJECT
 10
6.078839
 20
6.448717
 30
0.0
 11
6.078839
 21
6.041717
 31
0.0
  0
LINE
  8
OBJECT
 10
5.890045
 20
5.932717
 30
0.0
 11
5.890045
 21
6.557717
 31
0.0
  0
LINE
  8
OBJECT
 10
5.890045
 20
5.932717
 30
0.0
 11
6.078839
 21
6.041717
 31
0.0
  0
LINE
  8
OBJECT
 10
5.890045
 20
6.557717
 30
0.0
 11
6.078839
 21
6.666717
 31
0.0
  0
LINE
  8
OBJECT
 10
7.871338
 20
6.006817
 30
0.0
 11
6.944864
 21
6.541717
 31
0.0
  0
LINE
  8
OBJECT
 10
6.972577
 20
5.620217
 30
0.0
 11
7.16137
 21
5.729217
 31
0.0
  0
LINE
  8
OBJECT
 10
7.08083
 20
5.870217
 30
0.0
 11
7.269623
 21
5.979217
 31
0.0
  0
LINE
  8
OBJECT
 10
7.08083
 20
5.245217
 30
0.0
 11
7.269623
 21
5.354217
 31
0.0
  0
LINE
  8
OBJECT
 10
7.08083
 20
5.870217
 30
0.0
 11
6.972577
 21
5.620217
 31
0.0
  0
LINE
  8
OBJECT
 10
6.972577
 20
5.620217
 30
0.0
 11
7.08083
 21
5.245217
 31
0.0
  0
LINE
  8
OBJECT
 10
7.16137
 20
5.729217
 30
0.0
 11
7.269623
 21
5.979217
 31
0.0
  0
LINE
  8
OBJECT
 10
7.16137
 20
5.729217
 30
0.0
 11
7.269623
 21
5.354217
 31
0.0
  0
LINE
  8
OBJECT
 10
6.944864
 20
6.948717
 30
0.0
 11
6.944864
 21
6.541717
 31
0.0
  0
LINE
  8
OBJECT
 10
6.75607
 20
6.432717
 30
0.0
 11
6.944864
 21
6.541717
 31
0.0
  0
LINE
  8
OBJECT
 10
8.027396
 20
6.229217
 30
0.0
 11
8.135649
 21
5.854217
 31
0.0
  0
LINE
  8
OBJECT
 10
7.946855
 20
5.745217
 30
0.0
 11
8.135649
 21
5.854217
 31
0.0
  0
LINE
  8
OBJECT
 10
7.946855
 20
6.370217
 30
0.0
 11
8.135649
 21
6.479217
 31
0.0
  0
LINE
  8
OBJECT
 10
8.027396
 20
6.229217
 30
0.0
 11
8.135649
 21
6.479217
 31
0.0
  0
LINE
  8
OBJECT
 10
8.812881
 20
6.870217
 30
0.0
 11
9.001674
 21
6.979217
 31
0.0
  0
LINE
  8
OBJECT
 10
8.893421
 20
6.729217
 30
0.0
 11
9.001674
 21
6.979217
 31
0.0
  0
LINE
  8
OBJECT
 10
8.812881
 20
6.245217
 30
0.0
 11
9.001674
 21
6.354217
 31
0.0
  0
LINE
  8
OBJECT
 10
8.893421
 20
6.729217
 30
0.0
 11
9.001674
 21
6.354217
 31
0.0
  0
LINE
  8
OBJECT
 10
8.704628
 20
6.620217
 30
0.0
 11
8.812881
 21
6.245217
 31
0.0
  0
LINE
  8
OBJECT
 10
8.704628
 20
6.620217
 30
0.0
 11
8.893421
 21
6.729217
 31
0.0
  0
LINE
  8
OBJECT
 10
8.812881
 20
6.870217
 30
0.0
 11
8.704628
 21
6.620217
 31
0.0
  0
LINE
  8
OBJECT
 10
9.678906
 20
6.745217
 30
0.0
 11
9.8677
 21
6.854217
 31
0.0
  0
LINE
  8
OBJECT
 10
6.75607
 20
7.057717
 30
0.0
 11
6.944864
 21
7.166717
 31
0.0
  0
LINE
  8
OBJECT
 10
7.810889
 20
7.448717
 30
0.0
 11
7.810889
 21
7.041717
 31
0.0
  0
LINE
  8
OBJECT
 10
7.622096
 20
7.557717
 30
0.0
 11
7.810889
 21
7.666717
 31
0.0
  0
LINE
  8
OBJECT
 10
10.220172
 20
8.432717
 30
0.0
 11
10.220172
 21
9.057717
 31
0.0
  0
LINE
  8
OBJECT
 10
9.354147
 20
7.932717
 30
0.0
 11
9.54294
 21
8.041717
 31
0.0
  0
LINE
  8
OBJECT
 10
9.354147
 20
8.557717
 30
0.0
 11
10.544932
 21
7.870217
 31
0.0
  0
LINE
  8
OBJECT
 10
9.354147
 20
7.932717
 30
0.0
 11
10.544932
 21
7.245217
 31
0.0
  0
LINE
  8
OBJECT
 10
9.354147
 20
8.557717
 30
0.0
 11
9.54294
 21
8.666717
 31
0.0
  0
LINE
  8
OBJECT
 10
9.8677
 20
7.479217
 30
0.0
 11
8.676915
 21
8.166717
 31
0.0
  0
LINE
  8
OBJECT
 10
8.488121
 20
8.057717
 30
0.0
 11
9.678906
 21
7.370217
 31
0.0
  0
LINE
  8
OBJECT
 10
9.354147
 20
7.932717
 30
0.0
 11
9.354147
 21
8.557717
 31
0.0
  0
LINE
  8
OBJECT
 10
8.488121
 20
7.432717
 30
0.0
 11
8.488121
 21
8.057717
 31
0.0
  0
LINE
  8
OBJECT
 10
8.488121
 20
7.432717
 30
0.0
 11
8.676915
 21
7.541717
 31
0.0
  0
LINE
  8
OBJECT
 10
8.676915
 20
7.948717
 30
0.0
 11
8.676915
 21
7.541717
 31
0.0
  0
LINE
  8
OBJECT
 10
8.488121
 20
8.057717
 30
0.0
 11
8.676915
 21
8.166717
 31
0.0
  0
LINE
  8
OBJECT
 10
10.469414
 20
7.506817
 30
0.0
 11
9.54294
 21
8.041717
 31
0.0
  0
LINE
  8
OBJECT
 10
10.733725
 20
7.979217
 30
0.0
 11
9.54294
 21
8.666717
 31
0.0
  0
LINE
  8
OBJECT
 10
9.678906
 20
7.370217
 30
0.0
 11
9.570653
 21
7.120217
 31
0.0
  0
LINE
  8
OBJECT
 10
9.570653
 20
7.120217
 30
0.0
 11
9.759446
 21
7.229217
 31
0.0
  0
LINE
  8
OBJECT
 10
9.759446
 20
7.229217
 30
0.0
 11
9.8677
 21
7.479217
 31
0.0
  0
LINE
  8
OBJECT
 10
9.678906
 20
7.370217
 30
0.0
 11
9.8677
 21
7.479217
 31
0.0
  0
LINE
  8
OBJECT
 10
10.544932
 20
7.870217
 30
0.0
 11
10.733725
 21
7.979217
 31
0.0
  0
LINE
  8
OBJECT
 10
10.625472
 20
7.729217
 30
0.0
 11
10.733725
 21
7.979217
 31
0.0
  0
LINE
  8
OBJECT
 10
10.544932
 20
7.245217
 30
0.0
 11
10.733725
 21
7.354217
 31
0.0
  0
LINE
  8
OBJECT
 10
10.625472
 20
7.729217
 30
0.0
 11
10.733725
 21
7.354217
 31
0.0
  0
LINE
  8
OBJECT
 10
10.436678
 20
7.620217
 30
0.0
 11
10.544932
 21
7.245217
 31
0.0
  0
LINE
  8
OBJECT
 10
10.436678
 20
7.620217
 30
0.0
 11
10.625472
 21
7.729217
 31
0.0
  0
LINE
  8
OBJECT
 10
10.544932
 20
7.870217
 30
0.0
 11
10.436678
 21
7.620217
 31
0.0
  0
LINE
  8
OBJECT
 10
9.54294
 20
8.448717
 30
0.0
 11
9.54294
 21
8.041717
 31
0.0
  0
LINE
  8
OBJECT
 10
10.408966
 20
8.948717
 30
0.0
 11
10.408966
 21
8.541717
 31
0.0
  0
LINE
  8
OBJECT
 10
10.220172
 20
8.432717
 30
0.0
 11
10.408966
 21
8.541717
 31
0.0
  0
LINE
  8
OBJECT
 10
10.220172
 20
9.057717
 30
0.0
 11
10.408966
 21
9.166717
 31
0.0
  0
LINE
  8
OBJECT
 10
13.684274
 20
10.432717
 30
0.0
 11
13.873067
 21
10.541717
 31
0.0
  0
LINE
  8
OBJECT
 10
12.818248
 20
10.557717
 30
0.0
 11
14.009033
 21
9.870217
 31
0.0
  0
LINE
  8
OBJECT
 10
13.933516
 20
9.506817
 30
0.0
 11
13.007042
 21
10.041717
 31
0.0
  0
LINE
  8
OBJECT
 10
12.818248
 20
9.932717
 30
0.0
 11
14.009033
 21
9.245217
 31
0.0
  0
LINE
  8
OBJECT
 10
13.684274
 20
10.432717
 30
0.0
 11
14.875059
 21
9.745217
 31
0.0
  0
LINE
  8
OBJECT
 10
14.197827
 20
9.979217
 30
0.0
 11
13.007042
 21
10.666717
 31
0.0
  0
LINE
  8
OBJECT
 10
13.223548
 20
9.229217
 30
0.0
 11
13.331801
 21
8.854217
 31
0.0
  0
LINE
  8
OBJECT
 10
13.034755
 20
9.120217
 30
0.0
 11
13.143008
 21
8.745217
 31
0.0
  0
LINE
  8
OBJECT
 10
12.357523
 20
8.729217
 30
0.0
 11
12.465776
 21
8.979217
 31
0.0
  0
LINE
  8
OBJECT
 10
12.276982
 20
8.870217
 30
0.0
 11
12.465776
 21
8.979217
 31
0.0
  0
LINE
  8
OBJECT
 10
11.952223
 20
9.432717
 30
0.0
 11
13.143008
 21
8.745217
 31
0.0
  0
LINE
  8
OBJECT
 10
11.086197
 20
8.932717
 30
0.0
 11
11.086197
 21
9.557717
 31
0.0
  0
LINE
  8
OBJECT
 10
11.086197
 20
9.557717
 30
0.0
 11
12.276982
 21
8.870217
 31
0.0
  0
LINE
  8
OBJECT
 10
11.086197
 20
8.932717
 30
0.0
 11
11.274991
 21
9.041717
 31
0.0
  0
LINE
  8
OBJECT
 10
12.201465
 20
8.506817
 30
0.0
 11
11.274991
 21
9.041717
 31
0.0
  0
LINE
  8
OBJECT
 10
12.276982
 20
8.245217
 30
0.0
 11
12.465776
 21
8.354217
 31
0.0
  0
LINE
  8
OBJECT
 10
12.357523
 20
8.729217
 30
0.0
 11
12.465776
 21
8.354217
 31
0.0
  0
LINE
  8
OBJECT
 10
11.491497
 20
8.229217
 30
0.0
 11
11.59975
 21
7.854217
 31
0.0
  0
LINE
  8
OBJECT
 10
11.302704
 20
8.120217
 30
0.0
 11
11.410957
 21
7.745217
 31
0.0
  0
LINE
  8
OBJECT
 10
11.410957
 20
7.745217
 30
0.0
 11
11.59975
 21
7.854217
 31
0.0
  0
LINE
  8
OBJECT
 10
11.086197
 20
8.932717
 30
0.0
 11
12.276982
 21
8.245217
 31
0.0
  0
LINE
  8
OBJECT
 10
11.410957
 20
8.370217
 30
0.0
 11
11.302704
 21
8.120217
 31
0.0
  0
LINE
  8
OBJECT
 10
11.302704
 20
8.120217
 30
0.0
 11
11.491497
 21
8.229217
 31
0.0
  0
LINE
  8
OBJECT
 10
11.491497
 20
8.229217
 30
0.0
 11
11.59975
 21
8.479217
 31
0.0
  0
LINE
  8
OBJECT
 10
11.410957
 20
8.370217
 30
0.0
 11
11.59975
 21
8.479217
 31
0.0
  0
LINE
  8
OBJECT
 10
12.276982
 20
8.870217
 30
0.0
 11
12.168729
 21
8.620217
 31
0.0
  0
LINE
  8
OBJECT
 10
12.168729
 20
8.620217
 30
0.0
 11
12.276982
 21
8.245217
 31
0.0
  0
LINE
  8
OBJECT
 10
12.168729
 20
8.620217
 30
0.0
 11
12.357523
 21
8.729217
 31
0.0
  0
LINE
  8
OBJECT
 10
13.143008
 20
8.745217
 30
0.0
 11
13.331801
 21
8.854217
 31
0.0
  0
LINE
  8
OBJECT
 10
11.952223
 20
10.057717
 30
0.0
 11
13.143008
 21
9.370217
 31
0.0
  0
LINE
  8
OBJECT
 10
13.331801
 20
9.479217
 30
0.0
 11
12.141016
 21
10.166717
 31
0.0
  0
LINE
  8
OBJECT
 10
13.06749
 20
9.006817
 30
0.0
 11
12.141016
 21
9.541717
 31
0.0
  0
LINE
  8
OBJECT
 10
12.465776
 20
8.979217
 30
0.0
 11
11.274991
 21
9.666717
 31
0.0
  0
LINE
  8
OBJECT
 10
11.952223
 20
9.432717
 30
0.0
 11
11.952223
 21
10.057717
 31
0.0
  0
LINE
  8
OBJECT
 10
11.274991
 20
9.448717
 30
0.0
 11
11.274991
 21
9.041717
 31
0.0
  0
LINE
  8
OBJECT
 10
11.086197
 20
9.557717
 30
0.0
 11
11.274991
 21
9.666717
 31
0.0
  0
LINE
  8
OBJECT
 10
12.141016
 20
9.948717
 30
0.0
 11
12.141016
 21
9.541717
 31
0.0
  0
LINE
  8
OBJECT
 10
11.952223
 20
9.432717
 30
0.0
 11
12.141016
 21
9.541717
 31
0.0
  0
LINE
  8
OBJECT
 10
11.952223
 20
10.057717
 30
0.0
 11
12.141016
 21
10.166717
 31
0.0
  0
LINE
  8
OBJECT
 10
12.818248
 20
9.932717
 30
0.0
 11
12.818248
 21
10.557717
 31
0.0
  0
LINE
  8
OBJECT
 10
12.818248
 20
9.932717
 30
0.0
 11
13.007042
 21
10.041717
 31
0.0
  0
LINE
  8
OBJECT
 10
13.034755
 20
9.120217
 30
0.0
 11
13.223548
 21
9.229217
 31
0.0
  0
LINE
  8
OBJECT
 10
13.143008
 20
9.370217
 30
0.0
 11
13.034755
 21
9.120217
 31
0.0
  0
LINE
  8
OBJECT
 10
13.143008
 20
9.370217
 30
0.0
 11
13.331801
 21
9.479217
 31
0.0
  0
LINE
  8
OBJECT
 10
13.223548
 20
9.229217
 30
0.0
 11
13.331801
 21
9.479217
 31
0.0
  0
LINE
  8
OBJECT
 10
13.007042
 20
10.448717
 30
0.0
 11
13.007042
 21
10.041717
 31
0.0
  0
LINE
  8
OBJECT
 10
12.818248
 20
10.557717
 30
0.0
 11
13.007042
 21
10.666717
 31
0.0
  0
LINE
  8
OBJECT
 10
14.955599
 20
10.229217
 30
0.0
 11
15.063852
 21
9.854217
 31
0.0
  0
LINE
  8
OBJECT
 10
14.766805
 20
10.120217
 30
0.0
 11
14.875059
 21
9.745217
 31
0.0
  0
LINE
  8
OBJECT
 10
14.009033
 20
9.870217
 30
0.0
 11
14.197827
 21
9.979217
 31
0.0
  0
LINE
  8
OBJECT
 10
14.089574
 20
9.729217
 30
0.0
 11
14.197827
 21
9.979217
 31
0.0
  0
LINE
  8
OBJECT
 10
14.009033
 20
9.245217
 30
0.0
 11
14.197827
 21
9.354217
 31
0.0
  0
LINE
  8
OBJECT
 10
14.089574
 20
9.729217
 30
0.0
 11
14.197827
 21
9.354217
 31
0.0
  0
LINE
  8
OBJECT
 10
13.90078
 20
9.620217
 30
0.0
 11
14.009033
 21
9.245217
 31
0.0
  0
LINE
  8
OBJECT
 10
13.90078
 20
9.620217
 30
0.0
 11
14.089574
 21
9.729217
 31
0.0
  0
LINE
  8
OBJECT
 10
14.009033
 20
9.870217
 30
0.0
 11
13.90078
 21
9.620217
 31
0.0
  0
LINE
  8
OBJECT
 10
14.875059
 20
9.745217
 30
0.0
 11
15.063852
 21
9.854217
 31
0.0
  0
LINE
  8
OBJECT
 10
14.799541
 20
10.006817
 30
0.0
 11
13.873067
 21
10.541717
 31
0.0
  0
LINE
  8
OBJECT
 10
14.875059
 20
10.370217
 30
0.0
 11
14.766805
 21
10.120217
 31
0.0
  0
LINE
  8
OBJECT
 10
14.766805
 20
10.120217
 30
0.0
 11
14.955599
 21
10.229217
 31
0.0
  0
LINE
  8
OBJECT
 10
14.955599
 20
10.229217
 30
0.0
 11
15.063852
 21
10.479217
 31
0.0
  0
LINE
  8
OBJECT
 10
14.875059
 20
10.370217
 30
0.0
 11
15.063852
 21
10.479217
 31
0.0
  0
LINE
  8
OBJECT
 10
15.632831
 20
10.620217
 30
0.0
 11
15.741084
 21
10.245217
 31
0.0
  0
LINE
  8
OBJECT
 10
15.741084
 20
10.245217
 30
0.0
 11
15.929877
 21
10.354217
 31
0.0
  0
LINE
  8
OBJECT
 10
15.741084
 20
10.870217
 30
0.0
 11
15.632831
 21
10.620217
 31
0.0
  0
LINE
  8
OBJECT
 10
15.632831
 20
10.620217
 30
0.0
 11
15.821624
 21
10.729217
 31
0.0
  0
LINE
  8
OBJECT
 10
15.821624
 20
10.729217
 30
0.0
 11
15.929877
 21
10.354217
 31
0.0
  0
LINE
  8
OBJECT
 10
16.607109
 20
10.745217
 30
0.0
 11
16.795903
 21
10.854217
 31
0.0
  0
LINE
  8
OBJECT
 10
13.684274
 20
11.057717
 30
0.0
 11
13.873067
 21
11.166717
 31
0.0
  0
LINE
  8
OBJECT
 10
15.929877
 20
10.979217
 30
0.0
 11
14.739093
 21
11.666717
 31
0.0
  0
LINE
  8
OBJECT
 10
14.550299
 20
11.557717
 30
0.0
 11
14.739093
 21
11.666717
 31
0.0
  0
LINE
  8
OBJECT
 10
14.550299
 20
10.932717
 30
0.0
 11
14.739093
 21
11.041717
 31
0.0
  0
LINE
  8
OBJECT
 10
14.550299
 20
10.932717
 30
0.0
 11
14.550299
 21
11.557717
 31
0.0
  0
LINE
  8
OBJECT
 10
14.739093
 20
11.448717
 30
0.0
 11
14.739093
 21
11.041717
 31
0.0
  0
LINE
  8
OBJECT
 10
15.605118
 20
11.948717
 30
0.0
 11
15.605118
 21
11.541717
 31
0.0
  0
LINE
  8
OBJECT
 10
15.416324
 20
11.432717
 30
0.0
 11
15.416324
 21
12.057717
 31
0.0
  0
LINE
  8
OBJECT
 10
15.416324
 20
12.057717
 30
0.0
 11
16.607109
 21
11.370217
 31
0.0
  0
LINE
  8
OBJECT
 10
16.795903
 20
11.479217
 30
0.0
 11
15.605118
 21
12.166717
 31
0.0
  0
LINE
  8
OBJECT
 10
16.531592
 20
11.006817
 30
0.0
 11
15.605118
 21
11.541717
 31
0.0
  0
LINE
  8
OBJECT
 10
15.416324
 20
11.432717
 30
0.0
 11
15.605118
 21
11.541717
 31
0.0
  0
LINE
  8
OBJECT
 10
16.607109
 20
11.370217
 30
0.0
 11
16.795903
 21
11.479217
 31
0.0
  0
LINE
  8
OBJECT
 10
16.68765
 20
11.229217
 30
0.0
 11
16.795903
 21
11.479217
 31
0.0
  0
LINE
  8
OBJECT
 10
16.498856
 20
11.120217
 30
0.0
 11
16.68765
 21
11.229217
 31
0.0
  0
LINE
  8
OBJECT
 10
16.607109
 20
11.370217
 30
0.0
 11
16.498856
 21
11.120217
 31
0.0
  0
LINE
  8
OBJECT
 10
15.416324
 20
12.057717
 30
0.0
 11
15.605118
 21
12.166717
 31
0.0
  0
LINE
  8
OBJECT
 10
16.498856
 20
8.620217
 30
0.0
 11
16.607109
 21
8.245217
 31
0.0
  0
LINE
  8
OBJECT
 10
16.68765
 20
8.729217
 30
0.0
 11
16.795903
 21
8.354217
 31
0.0
  0
LINE
  8
OBJECT
 10
15.416324
 20
8.932717
 30
0.0
 11
16.607109
 21
8.245217
 31
0.0
  0
LINE
  8
OBJECT
 10
14.550299
 20
9.057717
 30
0.0
 11
15.741084
 21
8.370217
 31
0.0
  0
LINE
  8
OBJECT
 10
15.821624
 20
8.229217
 30
0.0
 11
15.929877
 21
8.479217
 31
0.0
  0
LINE
  8
OBJECT
 10
15.741084
 20
8.370217
 30
0.0
 11
15.929877
 21
8.479217
 31
0.0
  0
LINE
  8
OBJECT
 10
15.063852
 20
7.979217
 30
0.0
 11
13.873067
 21
8.666717
 31
0.0
  0
LINE
  8
OBJECT
 10
13.684274
 20
8.557717
 30
0.0
 11
14.875059
 21
7.870217
 31
0.0
  0
LINE
  8
OBJECT
 10
13.873067
 20
8.448717
 30
0.0
 11
13.873067
 21
8.041717
 31
0.0
  0
LINE
  8
OBJECT
 10
13.684274
 20
7.932717
 30
0.0
 11
13.684274
 21
8.557717
 31
0.0
  0
LINE
  8
OBJECT
 10
14.550299
 20
8.432717
 30
0.0
 11
15.741084
 21
7.745217
 31
0.0
  0
LINE
  8
OBJECT
 10
15.665567
 20
8.006817
 30
0.0
 11
14.739093
 21
8.541717
 31
0.0
  0
LINE
  8
OBJECT
 10
11.59975
 20
5.979217
 30
0.0
 11
10.408966
 21
6.666717
 31
0.0
  0
LINE
  8
OBJECT
 10
10.220172
 20
6.557717
 30
0.0
 11
11.410957
 21
5.870217
 31
0.0
  0
LINE
  8
OBJECT
 10
11.33544
 20
5.506817
 30
0.0
 11
10.408966
 21
6.041717
 31
0.0
  0
LINE
  8
OBJECT
 10
10.220172
 20
5.932717
 30
0.0
 11
11.410957
 21
5.245217
 31
0.0
  0
LINE
  8
OBJECT
 10
9.759446
 20
4.729217
 30
0.0
 11
9.8677
 21
4.354217
 31
0.0
  0
LINE
  8
OBJECT
 10
9.570653
 20
4.620217
 30
0.0
 11
9.678906
 21
4.245217
 31
0.0
  0
LINE
  8
OBJECT
 10
7.622096
 20
4.432717
 30
0.0
 11
7.622096
 21
5.057717
 31
0.0
  0
LINE
  8
OBJECT
 10
7.622096
 20
4.432717
 30
0.0
 11
7.810889
 21
4.541717
 31
0.0
  0
LINE
  8
OBJECT
 10
7.622096
 20
5.057717
 30
0.0
 11
8.812881
 21
4.370217
 31
0.0
  0
LINE
  8
OBJECT
 10
8.737363
 20
4.006817
 30
0.0
 11
7.810889
 21
4.541717
 31
0.0
  0
LINE
  8
OBJECT
 10
9.603389
 20
4.506817
 30
0.0
 11
8.676915
 21
5.041717
 31
0.0
  0
LINE
  8
OBJECT
 10
8.488121
 20
4.932717
 30
0.0
 11
9.678906
 21
4.245217
 31
0.0
  0
LINE
  8
OBJECT
 10
9.001674
 20
4.479217
 30
0.0
 11
7.810889
 21
5.166717
 31
0.0
  0
LINE
  8
OBJECT
 10
6.75607
 20
3.932717
 30
0.0
 11
6.75607
 21
4.557717
 31
0.0
  0
LINE
  8
OBJECT
 10
6.75607
 20
4.557717
 30
0.0
 11
7.946855
 21
3.870217
 31
0.0
  0
LINE
  8
OBJECT
 10
8.135649
 20
3.979217
 30
0.0
 11
6.944864
 21
4.666717
 31
0.0
  0
LINE
  8
OBJECT
 10
7.622096
 20
4.432717
 30
0.0
 11
8.812881
 21
3.745217
 31
0.0
  0
LINE
  8
OBJECT
 10
6.75607
 20
3.932717
 30
0.0
 11
7.946855
 21
3.245217
 31
0.0
  0
LINE
  8
OBJECT
 10
7.838602
 20
3.620217
 30
0.0
 11
7.946855
 21
3.245217
 31
0.0
  0
LINE
  8
OBJECT
 10
7.838602
 20
3.620217
 30
0.0
 11
8.027396
 21
3.729217
 31
0.0
  0
LINE
  8
OBJECT
 10
7.946855
 20
3.870217
 30
0.0
 11
7.838602
 21
3.620217
 31
0.0
  0
LINE
  8
OBJECT
 10
7.005313
 20
3.006817
 30
0.0
 11
6.078839
 21
3.541717
 31
0.0
  0
LINE
  8
OBJECT
 10
5.890045
 20
4.057717
 30
0.0
 11
7.08083
 21
3.370217
 31
0.0
  0
LINE
  8
OBJECT
 10
7.269623
 20
3.479217
 30
0.0
 11
6.078839
 21
4.166717
 31
0.0
  0
LINE
  8
OBJECT
 10
6.078839
 20
3.948717
 30
0.0
 11
6.078839
 21
3.541717
 31
0.0
  0
LINE
  8
OBJECT
 10
5.890045
 20
3.604217
 30
0.0
 11
5.890045
 21
4.057717
 31
0.0
  0
LINE
  8
OBJECT
 10
6.038568
 20
3.518467
 30
0.0
 11
6.078839
 21
3.541717
 31
0.0
  0
LINE
  8
OBJECT
 10
5.890045
 20
4.057717
 30
0.0
 11
6.078839
 21
4.166717
 31
0.0
  0
LINE
  8
OBJECT
 10
7.871338
 20
3.506817
 30
0.0
 11
6.944864
 21
4.041717
 31
0.0
  0
LINE
  8
OBJECT
 10
6.972577
 20
3.120217
 30
0.0
 11
7.16137
 21
3.229217
 31
0.0
  0
LINE
  8
OBJECT
 10
7.08083
 20
3.370217
 30
0.0
 11
7.269623
 21
3.479217
 31
0.0
  0
LINE
  8
OBJECT
 10
7.229353
 20
2.830967
 30
0.0
 11
7.269623
 21
2.854217
 31
0.0
  0
LINE
  8
OBJECT
 10
7.08083
 20
3.370217
 30
0.0
 11
6.972577
 21
3.120217
 31
0.0
  0
LINE
  8
OBJECT
 10
6.972577
 20
3.120217
 30
0.0
 11
7.021421
 21
2.951017
 31
0.0
  0
LINE
  8
OBJECT
 10
7.16137
 20
3.229217
 30
0.0
 11
7.269623
 21
3.479217
 31
0.0
  0
LINE
  8
OBJECT
 10
7.16137
 20
3.229217
 30
0.0
 11
7.269623
 21
2.854217
 31
0.0
  0
LINE
  8
OBJECT
 10
6.944864
 20
4.448717
 30
0.0
 11
6.944864
 21
4.041717
 31
0.0
  0
LINE
  8
OBJECT
 10
6.75607
 20
3.932717
 30
0.0
 11
6.944864
 21
4.041717
 31
0.0
  0
LINE
  8
OBJECT
 10
8.027396
 20
3.729217
 30
0.0
 11
8.135649
 21
3.354217
 31
0.0
  0
LINE
  8
OBJECT
 10
7.946855
 20
3.245217
 30
0.0
 11
8.135649
 21
3.354217
 31
0.0
  0
LINE
  8
OBJECT
 10
7.946855
 20
3.870217
 30
0.0
 11
8.135649
 21
3.979217
 31
0.0
  0
LINE
  8
OBJECT
 10
8.027396
 20
3.729217
 30
0.0
 11
8.135649
 21
3.979217
 31
0.0
  0
LINE
  8
OBJECT
 10
8.812881
 20
4.370217
 30
0.0
 11
9.001674
 21
4.479217
 31
0.0
  0
LINE
  8
OBJECT
 10
8.893421
 20
4.229217
 30
0.0
 11
9.001674
 21
4.479217
 31
0.0
  0
LINE
  8
OBJECT
 10
8.812881
 20
3.745217
 30
0.0
 11
9.001674
 21
3.854217
 31
0.0
  0
LINE
  8
OBJECT
 10
8.893421
 20
4.229217
 30
0.0
 11
9.001674
 21
3.854217
 31
0.0
  0
LINE
  8
OBJECT
 10
8.704628
 20
4.120217
 30
0.0
 11
8.812881
 21
3.745217
 31
0.0
  0
LINE
  8
OBJECT
 10
8.704628
 20
4.120217
 30
0.0
 11
8.893421
 21
4.229217
 31
0.0
  0
LINE
  8
OBJECT
 10
8.812881
 20
4.370217
 30
0.0
 11
8.704628
 21
4.120217
 31
0.0
  0
LINE
  8
OBJECT
 10
9.678906
 20
4.245217
 30
0.0
 11
9.8677
 21
4.354217
 31
0.0
  0
LINE
  8
OBJECT
 10
6.75607
 20
4.557717
 30
0.0
 11
6.944864
 21
4.666717
 31
0.0
  0
LINE
  8
OBJECT
 10
7.810889
 20
4.948717
 30
0.0
 11
7.810889
 21
4.541717
 31
0.0
  0
LINE
  8
OBJECT
 10
7.622096
 20
5.057717
 30
0.0
 11
7.810889
 21
5.166717
 31
0.0
  0
LINE
  8
OBJECT
 10
10.220172
 20
5.932717
 30
0.0
 11
10.220172
 21
6.557717
 31
0.0
  0
LINE
  8
OBJECT
 10
9.354147
 20
5.432717
 30
0.0
 11
9.54294
 21
5.541717
 31
0.0
  0
LINE
  8
OBJECT
 10
9.354147
 20
6.057717
 30
0.0
 11
10.544932
 21
5.370217
 31
0.0
  0
LINE
  8
OBJECT
 10
9.354147
 20
5.432717
 30
0.0
 11
10.544932
 21
4.745217
 31
0.0
  0
LINE
  8
OBJECT
 10
9.354147
 20
6.057717
 30
0.0
 11
9.54294
 21
6.166717
 31
0.0
  0
LINE
  8
OBJECT
 10
9.8677
 20
4.979217
 30
0.0
 11
8.676915
 21
5.666717
 31
0.0
  0
LINE
  8
OBJECT
 10
8.488121
 20
5.557717
 30
0.0
 11
9.678906
 21
4.870217
 31
0.0
  0
LINE
  8
OBJECT
 10
9.354147
 20
5.432717
 30
0.0
 11
9.354147
 21
6.057717
 31
0.0
  0
LINE
  8
OBJECT
 10
8.488121
 20
4.932717
 30
0.0
 11
8.488121
 21
5.557717
 31
0.0
  0
LINE
  8
OBJECT
 10
8.488121
 20
4.932717
 30
0.0
 11
8.676915
 21
5.041717
 31
0.0
  0
LINE
  8
OBJECT
 10
8.676915
 20
5.448717
 30
0.0
 11
8.676915
 21
5.041717
 31
0.0
  0
LINE
  8
OBJECT
 10
8.488121
 20
5.557717
 30
0.0
 11
8.676915
 21
5.666717
 31
0.0
  0
LINE
  8
OBJECT
 10
10.469414
 20
5.006817
 30
0.0
 11
9.54294
 21
5.541717
 31
0.0
  0
LINE
  8
OBJECT
 10
10.733725
 20
5.479217
 30
0.0
 11
9.54294
 21
6.166717
 31
0.0
  0
LINE
  8
OBJECT
 10
9.678906
 20
4.870217
 30
0.0
 11
9.570653
 21
4.620217
 31
0.0
  0
LINE
  8
OBJECT
 10
9.570653
 20
4.620217
 30
0.0
 11
9.759446
 21
4.729217
 31
0.0
  0
LINE
  8
OBJECT
 10
9.759446
 20
4.729217
 30
0.0
 11
9.8677
 21
4.979217
 31
0.0
  0
LINE
  8
OBJECT
 10
9.678906
 20
4.870217
 30
0.0
 11
9.8677
 21
4.979217
 31
0.0
  0
LINE
  8
OBJECT
 10
10.544932
 20
5.370217
 30
0.0
 11
10.733725
 21
5.479217
 31
0.0
  0
LINE
  8
OBJECT
 10
10.625472
 20
5.229217
 30
0.0
 11
10.733725
 21
5.479217
 31
0.0
  0
LINE
  8
OBJECT
 10
10.544932
 20
4.745217
 30
0.0
 11
10.733725
 21
4.854217
 31
0.0
  0
LINE
  8
OBJECT
 10
10.625472
 20
5.229217
 30
0.0
 11
10.733725
 21
4.854217
 31
0.0
  0
LINE
  8
OBJECT
 10
10.436678
 20
5.120217
 30
0.0
 11
10.544932
 21
4.745217
 31
0.0
  0
LINE
  8
OBJECT
 10
10.436678
 20
5.120217
 30
0.0
 11
10.625472
 21
5.229217
 31
0.0
  0
LINE
  8
OBJECT
 10
10.544932
 20
5.370217
 30
0.0
 11
10.436678
 21
5.120217
 31
0.0
  0
LINE
  8
OBJECT
 10
9.54294
 20
5.948717
 30
0.0
 11
9.54294
 21
5.541717
 31
0.0
  0
LINE
  8
OBJECT
 10
10.408966
 20
6.448717
 30
0.0
 11
10.408966
 21
6.041717
 31
0.0
  0
LINE
  8
OBJECT
 10
10.220172
 20
5.932717
 30
0.0
 11
10.408966
 21
6.041717
 31
0.0
  0
LINE
  8
OBJECT
 10
10.220172
 20
6.557717
 30
0.0
 11
10.408966
 21
6.666717
 31
0.0
  0
LINE
  8
OBJECT
 10
13.684274
 20
7.932717
 30
0.0
 11
13.873067
 21
8.041717
 31
0.0
  0
LINE
  8
OBJECT
 10
13.684274
 20
7.932717
 30
0.0
 11
14.875059
 21
7.245217
 31
0.0
  0
LINE
  8
OBJECT
 10
12.357523
 20
6.229217
 30
0.0
 11
12.406367
 21
6.342017
 31
0.0
  0
LINE
  8
OBJECT
 10
12.276982
 20
6.370217
 30
0.0
 11
12.317253
 21
6.393467
 31
0.0
  0
LINE
  8
OBJECT
 10
11.086197
 20
6.432717
 30
0.0
 11
11.086197
 21
7.042217
 31
0.0
  0
LINE
  8
OBJECT
 10
11.099621
 20
7.049967
 30
0.0
 11
12.276982
 21
6.370217
 31
0.0
  0
LINE
  8
OBJECT
 10
11.086197
 20
6.432717
 30
0.0
 11
11.274991
 21
6.541717
 31
0.0
  0
LINE
  8
OBJECT
 10
12.201465
 20
6.006817
 30
0.0
 11
11.274991
 21
6.541717
 31
0.0
  0
LINE
  8
OBJECT
 10
12.276982
 20
5.745217
 30
0.0
 11
12.465776
 21
5.854217
 31
0.0
  0
LINE
  8
OBJECT
 10
12.357523
 20
6.229217
 30
0.0
 11
12.465776
 21
5.854217
 31
0.0
  0
LINE
  8
OBJECT
 10
11.491497
 20
5.729217
 30
0.0
 11
11.59975
 21
5.354217
 31
0.0
  0
LINE
  8
OBJECT
 10
11.302704
 20
5.620217
 30
0.0
 11
11.410957
 21
5.245217
 31
0.0
  0
LINE
  8
OBJECT
 10
11.410957
 20
5.245217
 30
0.0
 11
11.59975
 21
5.354217
 31
0.0
  0
LINE
  8
OBJECT
 10
11.086197
 20
6.432717
 30
0.0
 11
12.276982
 21
5.745217
 31
0.0
  0
LINE
  8
OBJECT
 10
11.410957
 20
5.870217
 30
0.0
 11
11.302704
 21
5.620217
 31
0.0
  0
LINE
  8
OBJECT
 10
11.302704
 20
5.620217
 30
0.0
 11
11.491497
 21
5.729217
 31
0.0
  0
LINE
  8
OBJECT
 10
11.491497
 20
5.729217
 30
0.0
 11
11.59975
 21
5.979217
 31
0.0
  0
LINE
  8
OBJECT
 10
11.410957
 20
5.870217
 30
0.0
 11
11.59975
 21
5.979217
 31
0.0
  0
LINE
  8
OBJECT
 10
12.276982
 20
6.370217
 30
0.0
 11
12.168729
 21
6.120217
 31
0.0
  0
LINE
  8
OBJECT
 10
12.168729
 20
6.120217
 30
0.0
 11
12.276982
 21
5.745217
 31
0.0
  0
LINE
  8
OBJECT
 10
12.168729
 20
6.120217
 30
0.0
 11
12.357523
 21
6.229217
 31
0.0
  0
LINE
  8
OBJECT
 10
13.331801
 20
6.979217
 30
0.0
 11
12.141016
 21
7.666717
 31
0.0
  0
LINE
  8
OBJECT
 10
11.274991
 20
6.948717
 30
0.0
 11
11.274991
 21
6.541717
 31
0.0
  0
LINE
  8
OBJECT
 10
12.060043
 20
7.619967
 30
0.0
 11
12.141016
 21
7.666717
 31
0.0
  0
LINE
  8
OBJECT
 10
13.250828
 20
6.932467
 30
0.0
 11
13.331801
 21
6.979217
 31
0.0
  0
LINE
  8
OBJECT
 10
13.299412
 20
6.904417
 30
0.0
 11
13.331801
 21
6.979217
 31
0.0
  0
LINE
  8
OBJECT
 10
14.955599
 20
7.729217
 30
0.0
 11
15.063852
 21
7.354217
 31
0.0
  0
LINE
  8
OBJECT
 10
14.766805
 20
7.620217
 30
0.0
 11
14.875059
 21
7.245217
 31
0.0
  0
LINE
  8
OBJECT
 10
14.875059
 20
7.245217
 30
0.0
 11
15.063852
 21
7.354217
 31
0.0
  0
LINE
  8
OBJECT
 10
14.799541
 20
7.506817
 30
0.0
 11
13.873067
 21
8.041717
 31
0.0
  0
LINE
  8
OBJECT
 10
14.875059
 20
7.870217
 30
0.0
 11
14.766805
 21
7.620217
 31
0.0
  0
LINE
  8
OBJECT
 10
14.766805
 20
7.620217
 30
0.0
 11
14.955599
 21
7.729217
 31
0.0
  0
LINE
  8
OBJECT
 10
14.955599
 20
7.729217
 30
0.0
 11
15.063852
 21
7.979217
 31
0.0
  0
LINE
  8
OBJECT
 10
14.875059
 20
7.870217
 30
0.0
 11
15.063852
 21
7.979217
 31
0.0
  0
LINE
  8
OBJECT
 10
15.632831
 20
8.120217
 30
0.0
 11
15.741084
 21
7.745217
 31
0.0
  0
LINE
  8
OBJECT
 10
15.741084
 20
7.745217
 30
0.0
 11
15.929877
 21
7.854217
 31
0.0
  0
LINE
  8
OBJECT
 10
15.741084
 20
8.370217
 30
0.0
 11
15.632831
 21
8.120217
 31
0.0
  0
LINE
  8
OBJECT
 10
15.632831
 20
8.120217
 30
0.0
 11
15.821624
 21
8.229217
 31
0.0
  0
LINE
  8
OBJECT
 10
15.821624
 20
8.229217
 30
0.0
 11
15.929877
 21
7.854217
 31
0.0
  0
LINE
  8
OBJECT
 10
16.607109
 20
8.245217
 30
0.0
 11
16.795903
 21
8.354217
 31
0.0
  0
LINE
  8
OBJECT
 10
13.684274
 20
8.557717
 30
0.0
 11
13.873067
 21
8.666717
 31
0.0
  0
LINE
  8
OBJECT
 10
15.929877
 20
8.479217
 30
0.0
 11
14.739093
 21
9.166717
 31
0.0
  0
LINE
  8
OBJECT
 10
14.550299
 20
9.057717
 30
0.0
 11
14.739093
 21
9.166717
 31
0.0
  0
LINE
  8
OBJECT
 10
14.550299
 20
8.432717
 30
0.0
 11
14.739093
 21
8.541717
 31
0.0
  0
LINE
  8
OBJECT
 10
14.550299
 20
8.432717
 30
0.0
 11
14.550299
 21
9.057717
 31
0.0
  0
LINE
  8
OBJECT
 10
14.739093
 20
8.948717
 30
0.0
 11
14.739093
 21
8.541717
 31
0.0
  0
LINE
  8
OBJECT
 10
15.605118
 20
9.448717
 30
0.0
 11
15.605118
 21
9.041717
 31
0.0
  0
LINE
  8
OBJECT
 10
15.416324
 20
8.932717
 30
0.0
 11
15.416324
 21
9.557717
 31
0.0
  0
LINE
  8
OBJECT
 10
15.416324
 20
9.557717
 30
0.0
 11
16.607109
 21
8.870217
 31
0.0
  0
LINE
  8
OBJECT
 10
16.795903
 20
8.979217
 30
0.0
 11
15.605118
 21
9.666717
 31
0.0
  0
LINE
  8
OBJECT
 10
16.531592
 20
8.506817
 30
0.0
 11
15.605118
 21
9.041717
 31
0.0
  0
LINE
  8
OBJECT
 10
15.416324
 20
8.932717
 30
0.0
 11
15.605118
 21
9.041717
 31
0.0
  0
LINE
  8
OBJECT
 10
16.607109
 20
8.870217
 30
0.0
 11
16.795903
 21
8.979217
 31
0.0
  0
LINE
  8
OBJECT
 10
16.68765
 20
8.729217
 30
0.0
 11
16.795903
 21
8.979217
 31
0.0
  0
LINE
  8
OBJECT
 10
16.498856
 20
8.620217
 30
0.0
 11
16.68765
 21
8.729217
 31
0.0
  0
LINE
  8
OBJECT
 10
16.607109
 20
8.870217
 30
0.0
 11
16.498856
 21
8.620217
 31
0.0
  0
LINE
  8
OBJECT
 10
15.416324
 20
9.557717
 30
0.0
 11
15.605118
 21
9.666717
 31
0.0
  0
POLYLINE
  8
OBJECT
 66
     1
 10
0.0
 20
0.0
 30
0.0
  0
VERTEX
  8
OBJECT
 10
7.42344
 20
5.968912
 30
0.0
 42
0.058752
  0
VERTEX
  8
OBJECT
 10
7.398981
 20
5.912052
 30
0.0
 42
0.072341
  0
VERTEX
  8
OBJECT
 10
7.391733
 20
5.862217
 30
0.0
 42
0.106617
 70
     2
 50
270.0
  0
VERTEX
  8
OBJECT
 10
7.401664
 20
5.816174
 30
0.0
 42
0.156851
 50
270.0
  0
VERTEX
  8
OBJECT
 10
7.42344
 20
5.792135
 30
0.0
 42
0.156851
  0
VERTEX
  8
OBJECT
 10
7.455146
 20
5.785296
 30
0.0
 42
0.106617
  0
VERTEX
  8
OBJECT
 10
7.499986
 20
5.799717
 30
0.0
 42
0.072341
 70
     2
 50
30.0
  0
VERTEX
  8
OBJECT
 10
7.53952
 20
5.830912
 30
0.0
 42
0.058752
 50
30.0
  0
VERTEX
  8
OBJECT
 10
7.576533
 20
5.880523
 30
0.0
 42
0.058752
  0
VERTEX
  8
OBJECT
 10
7.600991
 20
5.937383
 30
0.0
 42
0.009615
  0
VERTEX
  8
OBJECT
 10
7.602783
 20
5.943867
 30
0.0
 42
0.106617
 70
     2
 50
90.0
  0
SEQEND
  8
OBJECT
  0
POLYLINE
  8
OBJECT
 66
     1
 10
0.0
 20
0.0
 30
0.0
  0
VERTEX
  8
OBJECT
 10
7.465172
 20
6.023317
 30
0.0
 42
0.009615
 70
     2
 50
210.0
  0
VERTEX
  8
OBJECT
 10
7.460452
 20
6.018523
 30
0.0
 42
0.058752
 50
210.0
  0
VERTEX
  8
OBJECT
 10
7.42344
 20
5.968912
 30
0.0
 42
0.058752
  0
SEQEND
  8
OBJECT
  0
POLYLINE
  8
OBJECT
 66
     1
 10
0.0
 20
0.0
 30
0.0
  0
VERTEX
  8
OBJECT
 10
7.401602
 20
5.816311
 30
0.0
 42
0.106277
  0
VERTEX
  8
OBJECT
 10
7.446293
 20
5.830717
 30
0.0
 42
0.072341
 70
     2
 50
30.0
  0
VERTEX
  8
OBJECT
 10
7.485827
 20
5.861912
 30
0.0
 42
0.058752
 50
30.0
  0
VERTEX
  8
OBJECT
 10
7.522839
 20
5.911523
 30
0.0
 42
0.058752
  0
VERTEX
  8
OBJECT
 10
7.547298
 20
5.968383
 30
0.0
 42
0.009615
  0
VERTEX
  8
OBJECT
 10
7.54909
 20
5.974867
 30
0.0
 42
0.106277
 70
     2
 50
90.0
  0
SEQEND
  8
OBJECT
  0
POLYLINE
  8
OBJECT
 66
     1
 10
0.0
 20
0.0
 30
0.0
  0
VERTEX
  8
OBJECT
 10
6.923906
 20
6.335817
 30
0.0
 42
0.009615
 70
     2
 50
210.0
  0
VERTEX
  8
OBJECT
 10
6.919186
 20
6.331023
 30
0.0
 42
0.058752
 50
210.0
  0
VERTEX
  8
OBJECT
 10
6.882174
 20
6.281412
 30
0.0
 42
0.058752
  0
SEQEND
  8
OBJECT
  0
POLYLINE
  8
OBJECT
 66
     1
 10
0.0
 20
0.0
 30
0.0
  0
VERTEX
  8
OBJECT
 10
6.882174
 20
6.281412
 30
0.0
 42
0.058752
  0
VERTEX
  8
OBJECT
 10
6.857715
 20
6.224552
 30
0.0
 42
0.009615
  0
VERTEX
  8
OBJECT
 10
6.855923
 20
6.218067
 30
0.0
 42
0.106617
 70
     2
 50
270.0
  0
SEQEND
  8
OBJECT
  0
POLYLINE
  8
OBJECT
 66
     1
 10
0.0
 20
0.0
 30
0.0
  0
VERTEX
  8
OBJECT
 10
6.993535
 20
6.138617
 30
0.0
 42
0.009615
 70
     2
 50
30.0
  0
VERTEX
  8
OBJECT
 10
6.998254
 20
6.143412
 30
0.0
 42
0.058752
 50
30.0
  0
VERTEX
  8
OBJECT
 10
7.035267
 20
6.193023
 30
0.0
 42
0.058752
  0
VERTEX
  8
OBJECT
 10
7.059725
 20
6.249883
 30
0.0
 42
0.009615
  0
VERTEX
  8
OBJECT
 10
7.061518
 20
6.256367
 30
0.0
 42
0.106617
 70
     2
 50
90.0
  0
SEQEND
  8
OBJECT
  0
POLYLINE
  8
OBJECT
 66
     1
 10
0.0
 20
0.0
 30
0.0
  0
VERTEX
  8
OBJECT
 10
6.939841
 20
6.169617
 30
0.0
 42
0.009615
 70
     2
 50
30.0
  0
VERTEX
  8
OBJECT
 10
6.944561
 20
6.174412
 30
0.0
 42
0.058752
 50
30.0
  0
VERTEX
  8
OBJECT
 10
6.981573
 20
6.224023
 30
0.0
 42
0.058752
  0
VERTEX
  8
OBJECT
 10
7.006032
 20
6.280883
 30
0.0
 42
0.009615
  0
VERTEX
  8
OBJECT
 10
7.007824
 20
6.287367
 30
0.0
 42
0.106277
 70
     2
 50
90.0
  0
SEQEND
  8
OBJECT
  0
POLYLINE
  8
OBJECT
 66
     1
 10
0.0
 20
0.0
 30
0.0
  0
VERTEX
  8
OBJECT
 10
8.135261
 20
6.854441
 30
0.0
 42
0.020446
  0
VERTEX
  8
OBJECT
 10
8.142257
 20
6.874883
 30
0.0
 42
0.072341
  0
VERTEX
  8
OBJECT
 10
8.149505
 20
6.924717
 30
0.0
 42
0.106617
 70
     2
 50
90.0
  0
VERTEX
  8
OBJECT
 10
8.139574
 20
6.97076
 30
0.0
 42
0.156851
 50
90.0
  0
VERTEX
  8
OBJECT
 10
8.117799
 20
6.9948
 30
0.0
 42
0.156851
  0
VERTEX
  8
OBJECT
 10
8.086092
 20
7.001639
 30
0.0
 42
0.106617
  0
VERTEX
  8
OBJECT
 10
8.041252
 20
6.987217
 30
0.0
 42
0.072341
 70
     2
 50
210.0
  0
VERTEX
  8
OBJECT
 10
8.001718
 20
6.956023
 30
0.0
 42
0.020446
 50
210.0
  0
VERTEX
  8
OBJECT
 10
7.987513
 20
6.939744
 30
0.0
 42
0.058752
  0
SEQEND
  8
OBJECT
  0
POLYLINE
  8
OBJECT
 66
     1
 10
0.0
 20
0.0
 30
0.0
  0
VERTEX
  8
OBJECT
 10
8.081568
 20
6.885441
 30
0.0
 42
0.020446
  0
VERTEX
  8
OBJECT
 10
8.088564
 20
6.905883
 30
0.0
 42
0.072341
  0
VERTEX
  8
OBJECT
 10
8.095812
 20
6.955717
 30
0.0
 42
0.106277
 70
     2
 50
90.0
  0
VERTEX
  8
OBJECT
 10
8.085943
 20
7.001624
 30
0.0
 42
0.156851
 50
90.0
  0
SEQEND
  8
OBJECT
  0
POLYLINE
  8
OBJECT
 66
     1
 10
0.0
 20
0.0
 30
0.0
  0
VERTEX
  8
OBJECT
 10
8.676527
 20
6.541941
 30
0.0
 42
0.020446
  0
VERTEX
  8
OBJECT
 10
8.683523
 20
6.562383
 30
0.0
 42
0.072341
  0
VERTEX
  8
OBJECT
 10
8.690771
 20
6.612217
 30
0.0
 42
0.106617
 70
     2
 50
90.0
  0
VERTEX
  8
OBJECT
 10
8.68084
 20
6.65826
 30
0.0
 42
0.156851
 50
90.0
  0
VERTEX
  8
OBJECT
 10
8.659065
 20
6.6823
 30
0.0
 42
0.156851
  0
VERTEX
  8
OBJECT
 10
8.627358
 20
6.689139
 30
0.0
 42
0.106617
  0
VERTEX
  8
OBJECT
 10
8.582518
 20
6.674717
 30
0.0
 42
0.072341
 70
     2
 50
210.0
  0
VERTEX
  8
OBJECT
 10
8.542984
 20
6.643523
 30
0.0
 42
0.020446
 50
210.0
  0
VERTEX
  8
OBJECT
 10
8.528779
 20
6.627244
 30
0.0
 42
0.058752
  0
SEQEND
  8
OBJECT
  0
POLYLINE
  8
OBJECT
 66
     1
 10
0.0
 20
0.0
 30
0.0
  0
VERTEX
  8
OBJECT
 10
8.622833
 20
6.572941
 30
0.0
 42
0.020446
  0
VERTEX
  8
OBJECT
 10
8.629829
 20
6.593383
 30
0.0
 42
0.072341
  0
VERTEX
  8
OBJECT
 10
8.637078
 20
6.643217
 30
0.0
 42
0.106277
 70
     2
 50
90.0
  0
VERTEX
  8
OBJECT
 10
8.627209
 20
6.689124
 30
0.0
 42
0.156851
 50
90.0
  0
SEQEND
  8
OBJECT
  0
POLYLINE
  8
OBJECT
 66
     1
 10
0.0
 20
0.0
 30
0.0
  0
VERTEX
  8
OBJECT
 10
10.112307
 20
8.119994
 30
0.0
 42
0.020446
  0
VERTEX
  8
OBJECT
 10
10.105311
 20
8.099552
 30
0.0
 42
0.072341
  0
VERTEX
  8
OBJECT
 10
10.098062
 20
8.049717
 30
0.0
 42
0.106617
 70
     2
 50
270.0
  0
VERTEX
  8
OBJECT
 10
10.107993
 20
8.003674
 30
0.0
 42
0.156851
 50
270.0
  0
VERTEX
  8
OBJECT
 10
10.129769
 20
7.979635
 30
0.0
 42
0.156851
  0
VERTEX
  8
OBJECT
 10
10.161476
 20
7.972796
 30
0.0
 42
0.106617
  0
VERTEX
  8
OBJECT
 10
10.206316
 20
7.987217
 30
0.0
 42
0.072341
 70
     2
 50
30.0
  0
VERTEX
  8
OBJECT
 10
10.24585
 20
8.018412
 30
0.0
 42
0.020446
 50
30.0
  0
VERTEX
  8
OBJECT
 10
10.260055
 20
8.034691
 30
0.0
 42
0.058752
  0
SEQEND
  8
OBJECT
  0
POLYLINE
  8
OBJECT
 66
     1
 10
0.0
 20
0.0
 30
0.0
  0
VERTEX
  8
OBJECT
 10
10.107931
 20
8.003811
 30
0.0
 42
0.106277
  0
VERTEX
  8
OBJECT
 10
10.152622
 20
8.018217
 30
0.0
 42
0.072341
 70
     2
 50
30.0
  0
VERTEX
  8
OBJECT
 10
10.192156
 20
8.049412
 30
0.0
 42
0.020446
 50
30.0
  0
VERTEX
  8
OBJECT
 10
10.206361
 20
8.065691
 30
0.0
 42
0.058752
  0
SEQEND
  8
OBJECT
  0
LINE
  8
OBJECT
 10
10.747581
 20
8.128217
 30
0.0
 11
10.747581
 21
6.924717
 31
0.0
  0
LINE
  8
OBJECT
 10
11.071908
 20
8.783967
 30
0.0
 11
11.164576
 21
8.837469
 31
0.0
  0
LINE
  8
OBJECT
 10
11.004358
 20
8.822967
 30
0.0
 11
11.140324
 21
8.901467
 31
0.0
  0
POLYLINE
  8
OBJECT
 66
     1
 10
0.0
 20
0.0
 30
0.0
  0
VERTEX
  8
OBJECT
 10
11.151676
 20
8.816413
 30
0.0
 42
0.036025
  0
VERTEX
  8
OBJECT
 10
11.121932
 20
8.755086
 30
0.0
 42
0.072341
  0
SEQEND
  8
OBJECT
  0
POLYLINE
  8
OBJECT
 66
     1
 10
0.0
 20
0.0
 30
0.0
  0
VERTEX
  8
OBJECT
 10
11.112817
 20
8.542348
 30
0.0
 42
0.155785
 50
270.0
  0
VERTEX
  8
OBJECT
 10
11.151676
 20
8.499629
 30
0.0
 42
0.155785
  0
VERTEX
  8
OBJECT
 10
11.208101
 20
8.487336
 30
0.0
 42
0.106617
  0
SEQEND
  8
OBJECT
  0
POLYLINE
  8
OBJECT
 66
     1
 10
0.0
 20
0.0
 30
0.0
  0
VERTEX
  8
OBJECT
 10
10.996824
 20
8.609317
 30
0.0
 42
0.009615
 70
     2
 50
210.0
  0
VERTEX
  8
OBJECT
 10
10.992104
 20
8.604523
 30
0.0
 42
0.058752
 50
210.0
  0
VERTEX
  8
OBJECT
 10
10.955091
 20
8.554912
 30
0.0
 42
0.058752
  0
SEQEND
  8
OBJECT
  0
LINE
  8
OBJECT
 10
11.324528
 20
8.044617
 30
0.0
 11
10.882681
 21
8.299717
 31
0.0
  0
LINE
  8
OBJECT
 10
11.518633
 20
8.291884
 30
0.0
 11
11.681157
 21
8.385717
 31
0.0
  0
POLYLINE
  8
OBJECT
 66
     1
 10
0.0
 20
0.0
 30
0.0
  0
VERTEX
  8
OBJECT
 10
11.715971
 20
8.787117
 30
0.0
 42
0.009615
 70
     2
 50
30.0
  0
VERTEX
  8
OBJECT
 10
11.720691
 20
8.791912
 30
0.0
 42
0.058752
 50
30.0
  0
VERTEX
  8
OBJECT
 10
11.757703
 20
8.841523
 30
0.0
 42
0.058752
  0
VERTEX
  8
OBJECT
 10
11.782162
 20
8.898383
 30
0.0
 42
0.072341
  0
VERTEX
  8
OBJECT
 10
11.78941
 20
8.948217
 30
0.0
 42
0.106617
 70
     2
 50
90.0
  0
VERTEX
  8
OBJECT
 10
11.779479
 20
8.99426
 30
0.0
 42
0.156851
 50
90.0
  0
VERTEX
  8
OBJECT
 10
11.757703
 20
9.0183
 30
0.0
 42
0.156851
  0
VERTEX
  8
OBJECT
 10
11.725997
 20
9.025139
 30
0.0
 42
0.106617
  0
VERTEX
  8
OBJECT
 10
11.681157
 20
9.010717
 30
0.0
 42
0.072341
 70
     2
 50
210.0
  0
SEQEND
  8
OBJECT
  0
POLYLINE
  8
OBJECT
 66
     1
 10
0.0
 20
0.0
 30
0.0
  0
VERTEX
  8
OBJECT
 10
11.648421
 20
8.826117
 30
0.0
 42
0.009615
 70
     2
 50
30.0
  0
VERTEX
  8
OBJECT
 10
11.653141
 20
8.830912
 30
0.0
 42
0.058752
 50
30.0
  0
VERTEX
  8
OBJECT
 10
11.690153
 20
8.880523
 30
0.0
 42
0.058752
  0
VERTEX
  8
OBJECT
 10
11.714612
 20
8.937383
 30
0.0
 42
0.072341
  0
VERTEX
  8
OBJECT
 10
11.72186
 20
8.987217
 30
0.0
 42
0.083232
 70
     2
 50
90.0
  0
VERTEX
  8
OBJECT
 10
11.715754
 20
9.023642
 30
0.0
 42
0.156851
 50
90.0
  0
SEQEND
  8
OBJECT
  0
POLYLINE
  8
OBJECT
 66
     1
 10
0.0
 20
0.0
 30
0.0
  0
VERTEX
  8
OBJECT
 10
11.38778
 20
8.601599
 30
0.0
 42
0.036025
 50
30.0
  0
VERTEX
  8
OBJECT
 10
11.426019
 20
8.658021
 30
0.0
 42
0.036025
  0
VERTEX
  8
OBJECT
 10
11.455763
 20
8.719349
 30
0.0
 42
0.072341
  0
SEQEND
  8
OBJECT
  0
POLYLINE
  8
OBJECT
 66
     1
 10
0.0
 20
0.0
 30
0.0
  0
VERTEX
  8
OBJECT
 10
11.464877
 20
8.932086
 30
0.0
 42
0.155785
 50
90.0
  0
VERTEX
  8
OBJECT
 10
11.426019
 20
8.974805
 30
0.0
 42
0.155785
  0
VERTEX
  8
OBJECT
 10
11.369594
 20
8.987098
 30
0.0
 42
0.106617
  0
SEQEND
  8
OBJECT
  0
POLYLINE
  8
OBJECT
 66
     1
 10
0.0
 20
0.0
 30
0.0
  0
VERTEX
  8
OBJECT
 10
11.189915
 20
8.872836
 30
0.0
 42
0.036025
 50
210.0
  0
VERTEX
  8
OBJECT
 10
11.151676
 20
8.816413
 30
0.0
 42
0.058752
  0
SEQEND
  8
OBJECT
  0
LINE
  8
OBJECT
 10
11.329118
 20
9.010467
 30
0.0
 11
11.68159
 21
9.213967
 31
0.0
  0
POLYLINE
  8
OBJECT
 66
     1
 10
0.0
 20
0.0
 30
0.0
  0
VERTEX
  8
OBJECT
 10
12.465388
 20
9.354441
 30
0.0
 42
0.020446
  0
VERTEX
  8
OBJECT
 10
12.472384
 20
9.374883
 30
0.0
 42
0.072341
  0
VERTEX
  8
OBJECT
 10
12.479632
 20
9.424717
 30
0.0
 42
0.106617
 70
     2
 50
90.0
  0
VERTEX
  8
OBJECT
 10
12.469701
 20
9.47076
 30
0.0
 42
0.156851
 50
90.0
  0
VERTEX
  8
OBJECT
 10
12.447926
 20
9.4948
 30
0.0
 42
0.156851
  0
VERTEX
  8
OBJECT
 10
12.416219
 20
9.501639
 30
0.0
 42
0.106617
  0
VERTEX
  8
OBJECT
 10
12.371379
 20
9.487217
 30
0.0
 42
0.072341
 70
     2
 50
210.0
  0
VERTEX
  8
OBJECT
 10
12.331845
 20
9.456023
 30
0.0
 42
0.020446
 50
210.0
  0
VERTEX
  8
OBJECT
 10
12.31764
 20
9.439744
 30
0.0
 42
0.058752
  0
SEQEND
  8
OBJECT
  0
POLYLINE
  8
OBJECT
 66
     1
 10
0.0
 20
0.0
 30
0.0
  0
VERTEX
  8
OBJECT
 10
12.411695
 20
9.385441
 30
0.0
 42
0.020446
  0
VERTEX
  8
OBJECT
 10
12.418691
 20
9.405883
 30
0.0
 42
0.072341
  0
VERTEX
  8
OBJECT
 10
12.425939
 20
9.455717
 30
0.0
 42
0.106277
 70
     2
 50
90.0
  0
VERTEX
  8
OBJECT
 10
12.41607
 20
9.501624
 30
0.0
 42
0.156851
 50
90.0
  0
SEQEND
  8
OBJECT
  0
POLYLINE
  8
OBJECT
 66
     1
 10
0.0
 20
0.0
 30
0.0
  0
VERTEX
  8
OBJECT
 10
13.006654
 20
9.041941
 30
0.0
 42
0.020446
  0
VERTEX
  8
OBJECT
 10
13.01365
 20
9.062383
 30
0.0
 42
0.072341
  0
VERTEX
  8
OBJECT
 10
13.020898
 20
9.112217
 30
0.0
 42
0.106617
 70
     2
 50
90.0
  0
VERTEX
  8
OBJECT
 10
13.010967
 20
9.15826
 30
0.0
 42
0.156851
 50
90.0
  0
VERTEX
  8
OBJECT
 10
12.989192
 20
9.1823
 30
0.0
 42
0.156851
  0
VERTEX
  8
OBJECT
 10
12.957485
 20
9.189139
 30
0.0
 42
0.106617
  0
VERTEX
  8
OBJECT
 10
12.912645
 20
9.174717
 30
0.0
 42
0.072341
 70
     2
 50
210.0
  0
VERTEX
  8
OBJECT
 10
12.873111
 20
9.143523
 30
0.0
 42
0.020446
 50
210.0
  0
VERTEX
  8
OBJECT
 10
12.858906
 20
9.127244
 30
0.0
 42
0.058752
  0
SEQEND
  8
OBJECT
  0
POLYLINE
  8
OBJECT
 66
     1
 10
0.0
 20
0.0
 30
0.0
  0
VERTEX
  8
OBJECT
 10
12.952961
 20
9.072941
 30
0.0
 42
0.020446
  0
VERTEX
  8
OBJECT
 10
12.959956
 20
9.093383
 30
0.0
 42
0.072341
  0
VERTEX
  8
OBJECT
 10
12.967205
 20
9.143217
 30
0.0
 42
0.106277
 70
     2
 50
90.0
  0
VERTEX
  8
OBJECT
 10
12.957336
 20
9.189124
 30
0.0
 42
0.156851
 50
90.0
  0
SEQEND
  8
OBJECT
  0
LINE
  8
OBJECT
 10
11.830113
 20
8.503217
 30
0.0
 11
11.830113
 21
7.846717
 31
0.0
  0
LINE
  8
OBJECT
 10
12.179468
 20
8.645017
 30
0.0
 11
11.830113
 21
8.846717
 31
0.0
  0
LINE
  8
OBJECT
 10
12.206488
 20
8.707417
 30
0.0
 11
11.897663
 21
8.885717
 31
0.0
  0
POLYLINE
  8
OBJECT
 66
     1
 10
0.0
 20
0.0
 30
0.0
  0
VERTEX
  8
OBJECT
 10
14.442434
 20
10.619994
 30
0.0
 42
0.020446
  0
VERTEX
  8
OBJECT
 10
14.435438
 20
10.599552
 30
0.0
 42
0.072341
  0
VERTEX
  8
OBJECT
 10
14.428189
 20
10.549717
 30
0.0
 42
0.106617
 70
     2
 50
270.0
  0
VERTEX
  8
OBJECT
 10
14.43812
 20
10.503674
 30
0.0
 42
0.156851
 50
270.0
  0
VERTEX
  8
OBJECT
 10
14.459896
 20
10.479635
 30
0.0
 42
0.156851
  0
VERTEX
  8
OBJECT
 10
14.491603
 20
10.472796
 30
0.0
 42
0.106617
  0
VERTEX
  8
OBJECT
 10
14.536443
 20
10.487217
 30
0.0
 42
0.072341
 70
     2
 50
30.0
  0
VERTEX
  8
OBJECT
 10
14.575977
 20
10.518412
 30
0.0
 42
0.020446
 50
30.0
  0
VERTEX
  8
OBJECT
 10
14.590182
 20
10.534691
 30
0.0
 42
0.058752
  0
SEQEND
  8
OBJECT
  0
POLYLINE
  8
OBJECT
 66
     1
 10
0.0
 20
0.0
 30
0.0
  0
VERTEX
  8
OBJECT
 10
14.438059
 20
10.503811
 30
0.0
 42
0.106277
  0
VERTEX
  8
OBJECT
 10
14.482749
 20
10.518217
 30
0.0
 42
0.072341
 70
     2
 50
30.0
  0
VERTEX
  8
OBJECT
 10
14.522283
 20
10.549412
 30
0.0
 42
0.020446
 50
30.0
  0
VERTEX
  8
OBJECT
 10
14.536488
 20
10.565691
 30
0.0
 42
0.058752
  0
SEQEND
  8
OBJECT
  0
POLYLINE
  8
OBJECT
 66
     1
 10
0.0
 20
0.0
 30
0.0
  0
VERTEX
  8
OBJECT
 10
15.58416
 20
11.335817
 30
0.0
 42
0.009615
 70
     2
 50
210.0
  0
VERTEX
  8
OBJECT
 10
15.57944
 20
11.331023
 30
0.0
 42
0.058752
 50
210.0
  0
VERTEX
  8
OBJECT
 10
15.542428
 20
11.281412
 30
0.0
 42
0.058752
  0
SEQEND
  8
OBJECT
  0
POLYLINE
  8
OBJECT
 66
     1
 10
0.0
 20
0.0
 30
0.0
  0
VERTEX
  8
OBJECT
 10
16.083694
 20
10.968912
 30
0.0
 42
0.058752
  0
VERTEX
  8
OBJECT
 10
16.059235
 20
10.912052
 30
0.0
 42
0.072341
  0
VERTEX
  8
OBJECT
 10
16.051987
 20
10.862217
 30
0.0
 42
0.106617
 70
     2
 50
270.0
  0
VERTEX
  8
OBJECT
 10
16.061918
 20
10.816174
 30
0.0
 42
0.156851
 50
270.0
  0
VERTEX
  8
OBJECT
 10
16.083694
 20
10.792135
 30
0.0
 42
0.156851
  0
VERTEX
  8
OBJECT
 10
16.1154
 20
10.785296
 30
0.0
 42
0.106617
  0
VERTEX
  8
OBJECT
 10
16.16024
 20
10.799717
 30
0.0
 42
0.072341
 70
     2
 50
30.0
  0
VERTEX
  8
OBJECT
 10
16.199774
 20
10.830912
 30
0.0
 42
0.058752
 50
30.0
  0
VERTEX
  8
OBJECT
 10
16.236787
 20
10.880523
 30
0.0
 42
0.058752
  0
VERTEX
  8
OBJECT
 10
16.261245
 20
10.937383
 30
0.0
 42
0.009615
  0
VERTEX
  8
OBJECT
 10
16.263037
 20
10.943867
 30
0.0
 42
0.106617
 70
     2
 50
90.0
  0
SEQEND
  8
OBJECT
  0
POLYLINE
  8
OBJECT
 66
     1
 10
0.0
 20
0.0
 30
0.0
  0
VERTEX
  8
OBJECT
 10
16.125426
 20
11.023317
 30
0.0
 42
0.009615
 70
     2
 50
210.0
  0
VERTEX
  8
OBJECT
 10
16.120706
 20
11.018523
 30
0.0
 42
0.058752
 50
210.0
  0
VERTEX
  8
OBJECT
 10
16.083694
 20
10.968912
 30
0.0
 42
0.058752
  0
SEQEND
  8
OBJECT
  0
POLYLINE
  8
OBJECT
 66
     1
 10
0.0
 20
0.0
 30
0.0
  0
VERTEX
  8
OBJECT
 10
16.061856
 20
10.816311
 30
0.0
 42
0.106277
  0
VERTEX
  8
OBJECT
 10
16.106547
 20
10.830717
 30
0.0
 42
0.072341
 70
     2
 50
30.0
  0
VERTEX
  8
OBJECT
 10
16.146081
 20
10.861912
 30
0.0
 42
0.058752
 50
30.0
  0
VERTEX
  8
OBJECT
 10
16.183093
 20
10.911523
 30
0.0
 42
0.058752
  0
VERTEX
  8
OBJECT
 10
16.207552
 20
10.968383
 30
0.0
 42
0.009615
  0
VERTEX
  8
OBJECT
 10
16.209344
 20
10.974867
 30
0.0
 42
0.106277
 70
     2
 50
90.0
  0
SEQEND
  8
OBJECT
  0
POLYLINE
  8
OBJECT
 66
     1
 10
0.0
 20
0.0
 30
0.0
  0
VERTEX
  8
OBJECT
 10
15.542428
 20
11.281412
 30
0.0
 42
0.058752
  0
VERTEX
  8
OBJECT
 10
15.517969
 20
11.224552
 30
0.0
 42
0.009615
  0
VERTEX
  8
OBJECT
 10
15.516177
 20
11.218067
 30
0.0
 42
0.106617
 70
     2
 50
270.0
  0
SEQEND
  8
OBJECT
  0
POLYLINE
  8
OBJECT
 66
     1
 10
0.0
 20
0.0
 30
0.0
  0
VERTEX
  8
OBJECT
 10
15.653789
 20
11.138617
 30
0.0
 42
0.009615
 70
     2
 50
30.0
  0
VERTEX
  8
OBJECT
 10
15.658508
 20
11.143412
 30
0.0
 42
0.058752
 50
30.0
  0
VERTEX
  8
OBJECT
 10
15.695521
 20
11.193023
 30
0.0
 42
0.058752
  0
VERTEX
  8
OBJECT
 10
15.719979
 20
11.249883
 30
0.0
 42
0.009615
  0
VERTEX
  8
OBJECT
 10
15.721772
 20
11.256367
 30
0.0
 42
0.106617
 70
     2
 50
90.0
  0
SEQEND
  8
OBJECT
  0
POLYLINE
  8
OBJECT
 66
     1
 10
0.0
 20
0.0
 30
0.0
  0
VERTEX
  8
OBJECT
 10
15.600095
 20
11.169617
 30
0.0
 42
0.009615
 70
     2
 50
30.0
  0
VERTEX
  8
OBJECT
 10
15.604815
 20
11.174412
 30
0.0
 42
0.058752
 50
30.0
  0
VERTEX
  8
OBJECT
 10
15.641827
 20
11.224023
 30
0.0
 42
0.058752
  0
VERTEX
  8
OBJECT
 10
15.666286
 20
11.280883
 30
0.0
 42
0.009615
  0
VERTEX
  8
OBJECT
 10
15.668078
 20
11.287367
 30
0.0
 42
0.106277
 70
     2
 50
90.0
  0
SEQEND
  8
OBJECT
  0
LINE
  8
OBJECT
 10
6.768628
 20
3.768467
 30
0.0
 11
6.904594
 21
3.846967
 31
0.0
  0
LINE
  8
OBJECT
 10
8.500679
 20
4.768467
 30
0.0
 11
8.636645
 21
4.846967
 31
0.0
  0
LINE
  8
OBJECT
 10
7.959413
 20
4.455967
 30
0.0
 11
8.311885
 21
4.659467
 31
0.0
  0
LINE
  8
OBJECT
 10
7.634653
 20
4.268467
 30
0.0
 11
7.770619
 21
4.346967
 31
0.0
  0
LINE
  8
OBJECT
 10
7.093387
 20
3.955967
 30
0.0
 11
7.44586
 21
4.159467
 31
0.0
  0
LINE
  8
OBJECT
 10
8.825438
 20
4.955967
 30
0.0
 11
9.17791
 21
5.159467
 31
0.0
  0
LINE
  8
OBJECT
 10
9.366704
 20
5.268467
 30
0.0
 11
9.50267
 21
5.346967
 31
0.0
  0
LINE
  8
OBJECT
 10
9.691464
 20
5.455967
 30
0.0
 11
10.043936
 21
5.659467
 31
0.0
  0
LINE
  8
OBJECT
 10
10.232729
 20
5.768467
 30
0.0
 11
10.368695
 21
5.846967
 31
0.0
  0
LINE
  8
OBJECT
 10
10.557489
 20
5.955967
 30
0.0
 11
10.909961
 21
6.159467
 31
0.0
  0
LINE
  8
OBJECT
 10
11.423514
 20
6.455967
 30
0.0
 11
11.775987
 21
6.659467
 31
0.0
  0
LINE
  8
OBJECT
 10
11.098755
 20
6.268467
 30
0.0
 11
11.234721
 21
6.346967
 31
0.0
  0
LINE
  8
OBJECT
 10
14.021591
 20
7.955967
 30
0.0
 11
14.374063
 21
8.159467
 31
0.0
  0
LINE
  8
OBJECT
 10
14.562856
 20
8.268467
 30
0.0
 11
14.698822
 21
8.346967
 31
0.0
  0
LINE
  8
OBJECT
 10
14.887616
 20
8.455967
 30
0.0
 11
15.240088
 21
8.659467
 31
0.0
  0
LINE
  8
OBJECT
 10
15.428882
 20
8.768467
 30
0.0
 11
15.564848
 21
8.846967
 31
0.0
  0
LINE
  8
OBJECT
 10
16.294907
 20
9.268467
 30
0.0
 11
18.311447
 21
10.432717
 31
0.0
  0
LINE
  8
OBJECT
 10
15.753641
 20
8.955967
 30
0.0
 11
16.106114
 21
9.159467
 31
0.0
  0
TEXT
  8
OBJECT
 10
20.359533
 20
0.519937
 30
0.0
 40
0.548031
  1
CAT1227A.DWG
 41
0.75
  7
TXT
  0
ENDBLK
  8
0
  0
BLOCK
  8
0
  2
ACAD
 70
    64
 10
0.0
 20
0.0
 30
0.0
  3
ACAD
  0
ENDBLK
  8
0
  0
ENDSEC
  0
SECTION
  2
ENTITIES
  0
LINE
  8
OBJECT
 10
29.970935
 20
12.810124
 30
0.0
 11
29.970935
 21
16.278124
 31
0.0
  0
LINE
  8
OBJECT
 10
29.970935
 20
16.278124
 30
0.0
 11
10.970935
 21
16.278124
 31
0.0
  0
LINE
  8
OBJECT
 10
10.970935
 20
16.278124
 30
0.0
 11
10.970935
 21
12.810124
 31
0.0
  0
DIMENSION
  8
DIM
  2
*D11
 10
10.970935
 20
17.296706
 30
0.0
 11
9.868982
 21
17.296706
 31
0.0
 12
1.022513
 22
0.567866
 32
0.0
 13
11.298935
 23
16.134124
 33
0.0
 14
10.970935
 24
16.278124
 34
0.0
  3
23NSTD
  0
DIMENSION
  8
DIM
  2
*D12
 10
29.970935
 20
17.296706
 30
0.0
 11
31.072888
 21
17.296706
 31
0.0
 12
1.022513
 22
0.567866
 32
0.0
 13
29.642935
 23
16.134124
 33
0.0
 14
29.970935
 24
16.278124
 34
0.0
  3
23NSTD
  0
DIMENSION
  8
DIM
  2
*D8
 10
29.970935
 20
18.420706
 30
0.0
 11
20.470935
 21
18.420706
 31
0.0
 12
1.022513
 22
0.567866
 32
0.0
 13
10.970935
 23
16.278124
 33
0.0
 14
29.970935
 24
16.278124
 34
0.0
  3
23NSTD
  0
DIMENSION
  8
DIM
  2
*D17
 10
30.772011
 20
16.044124
 30
0.0
 11
30.772011
 21
14.544124
 31
0.0
 12
1.022513
 22
0.567866
 32
0.0
 13
29.732935
 23
13.044124
 33
0.0
 14
29.732935
 24
16.044124
 34
0.0
 50
90.0
  3
23NSTD
  0
LINE
  8
HIDDEN
 10
11.595935
 20
16.216124
 30
0.0
 11
11.595935
 21
16.278124
 31
0.0
  0
LINE
  8
HIDDEN
 10
29.345935
 20
16.216124
 30
0.0
 11
29.345935
 21
16.278124
 31
0.0
  0
POLYLINE
  8
OBJECT
 66
     1
 10
0.0
 20
0.0
 30
0.0
 70
     1
  0
VERTEX
  8
OBJECT
 10
11.362935
 20
16.183124
 30
0.0
  0
VERTEX
  8
OBJECT
 10
11.234935
 20
16.183124
 30
0.0
 42
1.0
  0
VERTEX
  8
OBJECT
 10
11.234935
 20
15.905124
 30
0.0
  0
VERTEX
  8
OBJECT
 10
11.362935
 20
15.905124
 30
0.0
 42
1.0
  0
SEQEND
  8
OBJECT
  0
POLYLINE
  8
OBJECT
 66
     1
 10
0.0
 20
0.0
 30
0.0
 70
     1
  0
VERTEX
  8
OBJECT
 10
29.578935
 20
16.183124
 30
0.0
  0
VERTEX
  8
OBJECT
 10
29.706935
 20
16.183124
 30
0.0
 42
-1.0
  0
VERTEX
  8
OBJECT
 10
29.706935
 20
15.905124
 30
0.0
  0
VERTEX
  8
OBJECT
 10
29.578935
 20
15.905124
 30
0.0
 42
-1.0
  0
SEQEND
  8
OBJECT
  0
POLYLINE
  8
OBJECT
 66
     1
 10
0.0
 20
0.0
 30
0.0
 70
     1
  0
VERTEX
  8
OBJECT
 10
11.362935
 20
12.905124
 30
0.0
  0
VERTEX
  8
OBJECT
 10
11.234935
 20
12.905124
 30
0.0
 42
-1.0
  0
VERTEX
  8
OBJECT
 10
11.234935
 20
13.183124
 30
0.0
  0
VERTEX
  8
OBJECT
 10
11.362935
 20
13.183124
 30
0.0
 42
-1.0
  0
SEQEND
  8
OBJECT
  0
LINE
  8
HIDDEN
 10
11.595935
 20
12.872124
 30
0.0
 11
11.595935
 21
12.810124
 31
0.0
  0
POLYLINE
  8
OBJECT
 66
     1
 10
0.0
 20
0.0
 30
0.0
 70
     1
  0
VERTEX
  8
OBJECT
 10
29.578935
 20
12.905124
 30
0.0
  0
VERTEX
  8
OBJECT
 10
29.706935
 20
12.905124
 30
0.0
 42
1.0
  0
VERTEX
  8
OBJECT
 10
29.706935
 20
13.183124
 30
0.0
  0
VERTEX
  8
OBJECT
 10
29.578935
 20
13.183124
 30
0.0
 42
1.0
  0
SEQEND
  8
OBJECT
  0
LINE
  8
OBJECT
 10
29.970935
 20
12.810124
 30
0.0
 11
10.970935
 21
12.810124
 31
0.0
  0
LINE
  8
HIDDEN
 10
29.345935
 20
12.872124
 30
0.0
 11
29.345935
 21
12.810124
 31
0.0
  0
CIRCLE
  8
OBJECT
 10
12.970935
 20
14.544124
 30
0.0
 40
0.125
  0
CIRCLE
  8
OBJECT
 10
12.345935
 20
15.169124
 30
0.0
 40
0.125
  0
CIRCLE
  8
OBJECT
 10
12.970935
 20
15.794124
 30
0.0
 40
0.094
  0
CIRCLE
  8
OBJECT
 10
12.345935
 20
13.919124
 30
0.0
 40
0.125
  0
CIRCLE
  8
OBJECT
 10
12.970935
 20
13.294124
 30
0.0
 40
0.094
  0
CIRCLE
  8
OBJECT
 10
13.970935
 20
13.294124
 30
0.0
 40
0.094
  0
CIRCLE
  8
OBJECT
 10
13.970935
 20
15.794124
 30
0.0
 40
0.094
  0
CIRCLE
  8
OBJECT
 10
14.970935
 20
13.294124
 30
0.0
 40
0.094
  0
CIRCLE
  8
OBJECT
 10
14.970935
 20
15.794124
 30
0.0
 40
0.094
  0
CIRCLE
  8
OBJECT
 10
15.970935
 20
13.294124
 30
0.0
 40
0.094
  0
CIRCLE
  8
OBJECT
 10
15.970935
 20
15.794124
 30
0.0
 40
0.094
  0
CIRCLE
  8
OBJECT
 10
16.970935
 20
13.294124
 30
0.0
 40
0.094
  0
CIRCLE
  8
OBJECT
 10
16.970935
 20
15.794124
 30
0.0
 40
0.094
  0
CIRCLE
  8
OBJECT
 10
17.970935
 20
13.294124
 30
0.0
 40
0.094
  0
CIRCLE
  8
OBJECT
 10
17.970935
 20
15.794124
 30
0.0
 40
0.094
  0
CIRCLE
  8
OBJECT
 10
18.970935
 20
13.294124
 30
0.0
 40
0.094
  0
CIRCLE
  8
OBJECT
 10
18.970935
 20
15.794124
 30
0.0
 40
0.094
  0
CIRCLE
  8
OBJECT
 10
19.970935
 20
13.294124
 30
0.0
 40
0.094
  0
CIRCLE
  8
OBJECT
 10
19.970935
 20
15.794124
 30
0.0
 40
0.094
  0
CIRCLE
  8
OBJECT
 10
20.970935
 20
13.294124
 30
0.0
 40
0.094
  0
CIRCLE
  8
OBJECT
 10
20.970935
 20
15.794124
 30
0.0
 40
0.094
  0
CIRCLE
  8
OBJECT
 10
21.970935
 20
13.294124
 30
0.0
 40
0.094
  0
CIRCLE
  8
OBJECT
 10
21.970935
 20
15.794124
 30
0.0
 40
0.094
  0
CIRCLE
  8
OBJECT
 10
22.970935
 20
13.294124
 30
0.0
 40
0.094
  0
CIRCLE
  8
OBJECT
 10
22.970935
 20
15.794124
 30
0.0
 40
0.094
  0
CIRCLE
  8
OBJECT
 10
23.970935
 20
13.294124
 30
0.0
 40
0.094
  0
CIRCLE
  8
OBJECT
 10
23.970935
 20
15.794124
 30
0.0
 40
0.094
  0
CIRCLE
  8
OBJECT
 10
24.970935
 20
13.294124
 30
0.0
 40
0.094
  0
CIRCLE
  8
OBJECT
 10
24.970935
 20
15.794124
 30
0.0
 40
0.094
  0
CIRCLE
  8
OBJECT
 10
25.970935
 20
13.294124
 30
0.0
 40
0.094
  0
CIRCLE
  8
OBJECT
 10
25.970935
 20
15.794124
 30
0.0
 40
0.094
  0
CIRCLE
  8
OBJECT
 10
26.970935
 20
13.294124
 30
0.0
 40
0.094
  0
CIRCLE
  8
OBJECT
 10
26.970935
 20
15.794124
 30
0.0
 40
0.094
  0
CIRCLE
  8
OBJECT
 10
27.970935
 20
13.294124
 30
0.0
 40
0.094
  0
CIRCLE
  8
OBJECT
 10
27.970935
 20
15.794124
 30
0.0
 40
0.094
  0
CIRCLE
  8
OBJECT
 10
14.220935
 20
14.544124
 30
0.0
 40
0.125
  0
CIRCLE
  8
OBJECT
 10
13.595935
 20
13.919124
 30
0.0
 40
0.125
  0
CIRCLE
  8
OBJECT
 10
13.595935
 20
15.169124
 30
0.0
 40
0.125
  0
CIRCLE
  8
OBJECT
 10
15.470935
 20
14.544124
 30
0.0
 40
0.125
  0
CIRCLE
  8
OBJECT
 10
14.845935
 20
13.919124
 30
0.0
 40
0.125
  0
CIRCLE
  8
OBJECT
 10
14.845935
 20
15.169124
 30
0.0
 40
0.125
  0
CIRCLE
  8
OBJECT
 10
16.720935
 20
14.544124
 30
0.0
 40
0.125
  0
CIRCLE
  8
OBJECT
 10
16.095935
 20
13.919124
 30
0.0
 40
0.125
  0
CIRCLE
  8
OBJECT
 10
16.095935
 20
15.169124
 30
0.0
 40
0.125
  0
CIRCLE
  8
OBJECT
 10
17.970935
 20
14.544124
 30
0.0
 40
0.125
  0
CIRCLE
  8
OBJECT
 10
17.345935
 20
13.919124
 30
0.0
 40
0.125
  0
CIRCLE
  8
OBJECT
 10
17.345935
 20
15.169124
 30
0.0
 40
0.125
  0
CIRCLE
  8
OBJECT
 10
19.220935
 20
14.544124
 30
0.0
 40
0.125
  0
CIRCLE
  8
OBJECT
 10
18.595935
 20
13.919124
 30
0.0
 40
0.125
  0
CIRCLE
  8
OBJECT
 10
18.595935
 20
15.169124
 30
0.0
 40
0.125
  0
CIRCLE
  8
OBJECT
 10
20.470935
 20
14.544124
 30
0.0
 40
0.125
  0
CIRCLE
  8
OBJECT
 10
19.845935
 20
13.919124
 30
0.0
 40
0.125
  0
CIRCLE
  8
OBJECT
 10
19.845935
 20
15.169124
 30
0.0
 40
0.125
  0
CIRCLE
  8
OBJECT
 10
21.720935
 20
14.544124
 30
0.0
 40
0.125
  0
CIRCLE
  8
OBJECT
 10
21.095935
 20
13.919124
 30
0.0
 40
0.125
  0
CIRCLE
  8
OBJECT
 10
21.095935
 20
15.169124
 30
0.0
 40
0.125
  0
CIRCLE
  8
OBJECT
 10
22.970935
 20
14.544124
 30
0.0
 40
0.125
  0
CIRCLE
  8
OBJECT
 10
22.345935
 20
13.919124
 30
0.0
 40
0.125
  0
CIRCLE
  8
OBJECT
 10
22.345935
 20
15.169124
 30
0.0
 40
0.125
  0
CIRCLE
  8
OBJECT
 10
24.220935
 20
14.544124
 30
0.0
 40
0.125
  0
CIRCLE
  8
OBJECT
 10
23.595935
 20
13.919124
 30
0.0
 40
0.125
  0
CIRCLE
  8
OBJECT
 10
23.595935
 20
15.169124
 30
0.0
 40
0.125
  0
CIRCLE
  8
OBJECT
 10
25.470935
 20
14.544124
 30
0.0
 40
0.125
  0
CIRCLE
  8
OBJECT
 10
24.845935
 20
13.919124
 30
0.0
 40
0.125
  0
CIRCLE
  8
OBJECT
 10
24.845935
 20
15.169124
 30
0.0
 40
0.125
  0
CIRCLE
  8
OBJECT
 10
26.720935
 20
14.544124
 30
0.0
 40
0.125
  0
CIRCLE
  8
OBJECT
 10
26.095935
 20
13.919124
 30
0.0
 40
0.125
  0
CIRCLE
  8
OBJECT
 10
26.095935
 20
15.169124
 30
0.0
 40
0.125
  0
CIRCLE
  8
OBJECT
 10
27.970935
 20
14.544124
 30
0.0
 40
0.125
  0
CIRCLE
  8
OBJECT
 10
27.345935
 20
13.919124
 30
0.0
 40
0.125
  0
CIRCLE
  8
OBJECT
 10
27.345935
 20
15.169124
 30
0.0
 40
0.125
  0
CIRCLE
  8
OBJECT
 10
28.595935
 20
13.919124
 30
0.0
 40
0.125
  0
CIRCLE
  8
OBJECT
 10
28.595935
 20
15.169124
 30
0.0
 40
0.125
  0
DIMENSION
  8
DIM
  2
*D10
 10
12.345935
 20
17.858706
 30
0.0
 11
11.658435
 21
17.858706
 31
0.0
 12
1.022513
 22
0.567866
 32
0.0
 13
10.970935
 23
16.278124
 33
0.0
 14
12.345935
 24
15.169124
 34
0.0
  3
23NSTDI
  0
DIMENSION
  8
DIM
  2
*D9
 10
28.595935
 20
17.858706
 30
0.0
 11
20.470935
 21
17.858706
 31
0.0
 12
1.022513
 22
0.567866
 32
0.0
  1
(13) SPACES @ 1.250 = <> (2 PLACES)
 13
12.345935
 23
15.169124
 33
0.0
 14
28.595935
 24
15.169124
 34
0.0
  3
23NSTD
  0
DIMENSION
  8
DIM
  2
*D41
 10
13.370527
 20
12.277922
 30
0.0
 11
20.870527
 21
12.277922
 31
0.0
 12
0.596466
 22
0.0
 32
0.0
  1
(12) SPACES @ 1.250 = <>
 13
27.970935
 23
14.544124
 33
0.0
 14
12.970935
 24
14.544124
 34
0.0
 52
100.0
  3
23NSTD
  0
DIMENSION
  8
DIM
  2
*D43
 10
11.064776
 20
12.277922
 30
0.0
 11
12.217652
 21
12.277922
 31
0.0
 12
0.596466
 22
0.0
 32
0.0
 13
12.970935
 23
14.544124
 33
0.0
 14
10.970935
 24
12.810124
 34
0.0
 52
100.0
  3
23NSTD
  0
DIMENSION
  8
DIM
  2
*D40
 10
12.970935
 20
11.715922
 30
0.0
 11
20.470935
 21
11.715922
 31
0.0
 12
0.596466
 22
0.0
 32
0.0
  1
(15) SPACES @ 1.000 = <> (2 PLACES)
 13
27.970935
 23
13.294124
 33
0.0
 14
12.970935
 24
13.294124
 34
0.0
  3
23NSTD
  0
DIMENSION
  8
DIM
  2
*D42
 10
10.970935
 20
11.715922
 30
0.0
 11
11.970935
 21
11.715922
 31
0.0
 12
0.596466
 22
0.0
 32
0.0
 13
12.970935
 23
13.294124
 33
0.0
 14
10.970935
 24
12.810124
 34
0.0
  3
23NSTDI
  0
LINE
  8
OBJECT
 10
33.013677
 20
12.810124
 30
0.0
 11
32.513677
 21
12.810124
 31
0.0
  0
LINE
  8
OBJECT
 10
32.513677
 20
12.810124
 30
0.0
 11
32.513677
 21
16.278124
 31
0.0
  0
LINE
  8
OBJECT
 10
32.513677
 20
16.278124
 30
0.0
 11
33.013677
 21
16.278124
 31
0.0
  0
LINE
  8
OBJECT
 10
33.013677
 20
16.278124
 30
0.0
 11
33.013677
 21
16.216124
 31
0.0
  0
LINE
  8
OBJECT
 10
33.013677
 20
16.216124
 30
0.0
 11
32.575677
 21
16.216124
 31
0.0
  0
LINE
  8
OBJECT
 10
32.575677
 20
16.278124
 30
0.0
 11
32.575677
 21
12.810124
 31
0.0
  0
LINE
  8
OBJECT
 10
32.575677
 20
12.872124
 30
0.0
 11
33.013677
 21
12.872124
 31
0.0
  0
LINE
  8
OBJECT
 10
33.013677
 20
12.872124
 30
0.0
 11
33.013677
 21
12.810124
 31
0.0
  0
LINE
  8
HIDDEN
 10
29.345935
 20
12.872124
 30
0.0
 11
11.595935
 21
12.872124
 31
0.0
  0
LINE
  8
HIDDEN
 10
29.345935
 20
16.216124
 30
0.0
 11
11.595935
 21
16.216124
 31
0.0
  0
LINE
  8
OBJECT
 10
11.629701
 20
5.205658
 30
0.0
 11
11.872201
 21
5.205658
 31
0.0
  0
LINE
  8
OBJECT
 10
11.756701
 20
5.283658
 30
0.0
 11
12.174701
 21
5.283658
 31
0.0
  0
LINE
  8
OBJECT
 10
11.872201
 20
5.112658
 30
0.0
 11
11.934701
 21
5.112658
 31
0.0
  0
LINE
  8
OBJECT
 10
11.872201
 20
5.205658
 30
0.0
 11
11.872201
 21
5.193815
 31
0.0
  0
LINE
  8
OBJECT
 10
12.059201
 20
5.205658
 30
0.0
 11
12.059201
 21
5.193815
 31
0.0
  0
LINE
  8
OBJECT
 10
11.840701
 20
5.081658
 30
0.0
 11
11.903201
 21
5.081658
 31
0.0
  0
LINE
  8
OBJECT
 10
11.715701
 20
5.110166
 30
0.0
 11
11.715701
 21
5.066954
 31
0.0
  0
LINE
  8
OBJECT
 10
12.215701
 20
5.110166
 30
0.0
 11
12.215701
 21
5.066954
 31
0.0
  0
ARC
  8
OBJECT
 10
11.965701
 20
4.830658
 30
0.0
 40
0.344
 50
43.385862
 51
136.614138
  0
ARC
  8
OBJECT
 10
11.965701
 20
4.830658
 30
0.0
 40
0.375
 50
48.189685
 51
75.561934
  0
LINE
  8
OBJECT
 10
12.059201
 20
5.161707
 30
0.0
 11
12.059201
 21
5.112658
 31
0.0
  0
LINE
  8
OBJECT
 10
11.872201
 20
5.161707
 30
0.0
 11
11.872201
 21
5.112658
 31
0.0
  0
ARC
  8
OBJECT
 10
11.965701
 20
4.830658
 30
0.0
 40
0.375
 50
104.438066
 51
131.810315
  0
LINE
  8
OBJECT
 10
12.059201
 20
5.205658
 30
0.0
 11
12.301701
 21
5.205658
 31
0.0
  0
ARC
  8
OBJECT
 10
11.965701
 20
4.783658
 30
0.0
 40
0.078
 50
188.788813
 51
351.211187
  0
LINE
  8
OBJECT
 10
12.090701
 20
5.081658
 30
0.0
 11
12.042786
 21
4.77174
 31
0.0
  0
LINE
  8
OBJECT
 10
11.840701
 20
5.081658
 30
0.0
 11
11.888617
 21
4.77174
 31
0.0
  0
LINE
  8
OBJECT
 10
11.903201
 20
5.112658
 30
0.0
 11
11.903201
 21
5.081658
 31
0.0
  0
LINE
  8
OBJECT
 10
12.028201
 20
5.112658
 30
0.0
 11
12.028201
 21
5.081658
 31
0.0
  0
LINE
  8
OBJECT
 10
12.028201
 20
5.081658
 30
0.0
 11
12.090701
 21
5.081658
 31
0.0
  0
LINE
  8
OBJECT
 10
11.996701
 20
5.112658
 30
0.0
 11
11.996701
 21
4.837435
 31
0.0
  0
LINE
  8
OBJECT
 10
12.059333
 20
5.081658
 30
0.0
 11
12.022022
 21
4.840332
 31
0.0
  0
LINE
  8
OBJECT
 10
11.996701
 20
5.112658
 30
0.0
 11
12.059201
 21
5.112658
 31
0.0
  0
ARC
  8
OBJECT
 10
12.009168
 20
4.840579
 30
0.0
 40
0.012857
 50
194.155404
 51
358.89591
  0
LINE
  8
OBJECT
 10
11.87207
 20
5.081658
 30
0.0
 11
11.909381
 21
4.840332
 31
0.0
  0
LINE
  8
OBJECT
 10
11.934701
 20
5.112658
 30
0.0
 11
11.934701
 21
4.837435
 31
0.0
  0
ARC
  8
OBJECT
 10
11.922235
 20
4.840579
 30
0.0
 40
0.012857
 50
181.10409
 51
345.844596
  0
CIRCLE
  8
OBJECT
 10
12.004701
 20
6.338658
 30
0.0
 40
0.039
  0
CIRCLE
  8
OBJECT
 10
11.926701
 20
6.338658
 30
0.0
 40
0.039
  0
ARC
  8
OBJECT
 10
11.756701
 20
6.439658
 30
0.0
 40
0.078
 50
47.909743
 51
180.0
  0
LINE
  8
OBJECT
 10
11.725701
 20
5.314658
 30
0.0
 11
11.725701
 21
6.439658
 31
0.0
  0
ARC
  8
OBJECT
 10
11.756701
 20
6.439658
 30
0.0
 40
0.031
 50
47.909743
 51
180.0
  0
LINE
  8
OBJECT
 10
11.952843
 20
6.367599
 30
0.0
 11
11.808985
 21
6.497541
 31
0.0
  0
LINE
  8
OBJECT
 10
11.893013
 20
6.358307
 30
0.0
 11
11.777481
 21
6.462663
 31
0.0
  0
LINE
  8
OBJECT
 10
11.664094
 20
5.31474
 30
0.0
 11
11.670953
 21
5.857979
 31
0.0
  0
ARC
  8
OBJECT
 10
11.629701
 20
5.244658
 30
0.0
 40
0.039
 50
90.0
 51
270.0
  0
ARC
  8
OBJECT
 10
11.625906
 20
5.322658
 30
0.0
 40
0.039
 50
270.0
 51
348.28626
  0
LINE
  8
OBJECT
 10
11.67653
 20
6.299658
 30
0.0
 11
11.59083
 21
5.247825
 31
0.0
  0
ARC
  8
OBJECT
 10
11.756701
 20
5.314658
 30
0.0
 40
0.031
 50
180.0
 51
270.0
  0
ARC
  8
OBJECT
 10
12.174701
 20
5.314658
 30
0.0
 40
0.031
 50
270.0
 51
360.0
  0
ARC
  8
OBJECT
 10
12.305497
 20
5.322658
 30
0.0
 40
0.039
 50
191.71374
 51
270.0
  0
ARC
  8
OBJECT
 10
12.301701
 20
5.244658
 30
0.0
 40
0.039
 50
270.0
 51
90.0
  0
LINE
  8
OBJECT
 10
12.205701
 20
5.314658
 30
0.0
 11
12.205701
 21
6.439658
 31
0.0
  0
LINE
  8
OBJECT
 10
12.254873
 20
6.299658
 30
0.0
 11
12.340573
 21
5.247825
 31
0.0
  0
LINE
  8
OBJECT
 10
12.267309
 20
5.31474
 30
0.0
 11
12.26045
 21
5.857979
 31
0.0
  0
ARC
  8
OBJECT
 10
12.174701
 20
6.439658
 30
0.0
 40
0.031
 50
0.0
 51
132.090257
  0
LINE
  8
OBJECT
 10
11.97856
 20
6.367599
 30
0.0
 11
12.122418
 21
6.497541
 31
0.0
  0
ARC
  8
OBJECT
 10
12.174701
 20
6.439658
 30
0.0
 40
0.078
 50
0.0
 51
132.090257
  0
LINE
  8
OBJECT
 10
12.03839
 20
6.358307
 30
0.0
 11
12.153922
 21
6.462663
 31
0.0
  0
ARC
  8
OBJECT
 10
12.244701
 20
5.893658
 30
0.0
 40
0.039
 50
293.816386
 51
67.6304
  0
LINE
  8
OBJECT
 10
12.259544
 20
5.929723
 30
0.0
 11
12.252701
 21
6.439658
 31
0.0
  0
ARC
  8
OBJECT
 10
11.686701
 20
5.893658
 30
0.0
 40
0.039
 50
112.3696
 51
246.183614
  0
LINE
  8
OBJECT
 10
11.671859
 20
5.929723
 30
0.0
 11
11.678701
 21
6.439658
 31
0.0
  0
LINE
  8
OBJECT
 10
16.000134
 20
5.929723
 30
0.0
 11
15.993291
 21
6.439658
 31
0.0
  0
LINE
  8
OBJECT
 10
15.412449
 20
5.929723
 30
0.0
 11
15.419291
 21
6.439658
 31
0.0
  0
LINE
  8
OBJECT
 10
15.41712
 20
6.299658
 30
0.0
 11
15.33142
 21
5.247825
 31
0.0
  0
LINE
  8
OBJECT
 10
15.466291
 20
5.314658
 30
0.0
 11
15.466291
 21
6.439658
 31
0.0
  0
LINE
  8
OBJECT
 10
15.946291
 20
5.314658
 30
0.0
 11
15.946291
 21
6.439658
 31
0.0
  0
LINE
  8
OBJECT
 10
15.995463
 20
6.299658
 30
0.0
 11
16.081163
 21
5.247825
 31
0.0
  0
ARC
  8
OBJECT
 10
15.427291
 20
5.893658
 30
0.0
 40
0.039
 50
112.3696
 51
246.183614
  0
LINE
  8
OBJECT
 10
15.612791
 20
5.205658
 30
0.0
 11
15.370291
 21
5.205658
 31
0.0
  0
ARC
  8
OBJECT
 10
15.366496
 20
5.322658
 30
0.0
 40
0.039
 50
270.0
 51
348.28626
  0
ARC
  8
OBJECT
 10
15.706291
 20
4.830658
 30
0.0
 40
0.375
 50
48.189685
 51
75.561934
  0
LINE
  8
OBJECT
 10
15.799791
 20
5.161707
 30
0.0
 11
15.799791
 21
5.112658
 31
0.0
  0
LINE
  8
OBJECT
 10
15.612791
 20
5.161707
 30
0.0
 11
15.612791
 21
5.112658
 31
0.0
  0
ARC
  8
OBJECT
 10
15.706291
 20
4.830658
 30
0.0
 40
0.375
 50
104.438066
 51
131.810315
  0
ARC
  8
OBJECT
 10
15.706291
 20
4.830658
 30
0.0
 40
0.344
 50
43.385862
 51
136.614138
  0
LINE
  8
OBJECT
 10
15.643791
 20
5.112658
 30
0.0
 11
15.612791
 21
5.112658
 31
0.0
  0
LINE
  8
OBJECT
 10
15.643791
 20
5.081658
 30
0.0
 11
15.581291
 21
5.081658
 31
0.0
  0
LINE
  8
OBJECT
 10
15.643791
 20
5.112658
 30
0.0
 11
15.643791
 21
5.081658
 31
0.0
  0
LINE
  8
OBJECT
 10
15.768791
 20
5.112658
 30
0.0
 11
15.768791
 21
5.081658
 31
0.0
  0
LINE
  8
OBJECT
 10
15.831291
 20
5.081658
 30
0.0
 11
15.783376
 21
4.77174
 31
0.0
  0
LINE
  8
OBJECT
 10
15.581291
 20
5.081658
 30
0.0
 11
15.629207
 21
4.77174
 31
0.0
  0
ARC
  8
OBJECT
 10
15.706291
 20
4.783658
 30
0.0
 40
0.078
 50
188.788813
 51
351.211187
  0
LINE
  8
OBJECT
 10
15.456291
 20
5.110166
 30
0.0
 11
15.456291
 21
5.066954
 31
0.0
  0
LINE
  8
OBJECT
 10
15.956291
 20
5.110166
 30
0.0
 11
15.956291
 21
5.066954
 31
0.0
  0
LINE
  8
OBJECT
 10
15.831291
 20
5.081658
 30
0.0
 11
15.768791
 21
5.081658
 31
0.0
  0
LINE
  8
OBJECT
 10
15.799791
 20
5.112658
 30
0.0
 11
15.768791
 21
5.112658
 31
0.0
  0
LINE
  8
OBJECT
 10
16.007899
 20
5.31474
 30
0.0
 11
16.00104
 21
5.857979
 31
0.0
  0
ARC
  8
OBJECT
 10
15.985291
 20
5.893658
 30
0.0
 40
0.039
 50
293.816386
 51
67.6304
  0
LINE
  8
OBJECT
 10
15.404684
 20
5.31474
 30
0.0
 11
15.411543
 21
5.857979
 31
0.0
  0
LINE
  8
OBJECT
 10
15.915291
 20
5.283658
 30
0.0
 11
15.497291
 21
5.283658
 31
0.0
  0
ARC
  8
OBJECT
 10
15.497291
 20
5.314658
 30
0.0
 40
0.031
 50
180.0
 51
270.0
  0
ARC
  8
OBJECT
 10
15.915291
 20
5.314658
 30
0.0
 40
0.031
 50
270.0
 51
360.0
  0
ARC
  8
OBJECT
 10
16.046087
 20
5.322658
 30
0.0
 40
0.039
 50
191.71374
 51
270.0
  0
ARC
  8
OBJECT
 10
16.042291
 20
5.244658
 30
0.0
 40
0.039
 50
270.0
 51
90.0
  0
LINE
  8
OBJECT
 10
16.042291
 20
5.205658
 30
0.0
 11
15.799791
 21
5.205658
 31
0.0
  0
LINE
  8
OBJECT
 10
15.612791
 20
5.205658
 30
0.0
 11
15.612791
 21
5.193815
 31
0.0
  0
LINE
  8
OBJECT
 10
15.799791
 20
5.205658
 30
0.0
 11
15.799791
 21
5.193815
 31
0.0
  0
ARC
  8
OBJECT
 10
15.370291
 20
5.244658
 30
0.0
 40
0.039
 50
90.0
 51
270.0
  0
LINE
  8
OBJECT
 10
15.633603
 20
6.358307
 30
0.0
 11
15.518071
 21
6.462663
 31
0.0
  0
ARC
  8
OBJECT
 10
15.497291
 20
6.439658
 30
0.0
 40
0.078
 50
47.909743
 51
180.0
  0
LINE
  8
OBJECT
 10
15.693433
 20
6.367599
 30
0.0
 11
15.549575
 21
6.497541
 31
0.0
  0
ARC
  8
OBJECT
 10
15.497291
 20
6.439658
 30
0.0
 40
0.031
 50
47.909743
 51
180.0
  0
ARC
  8
OBJECT
 10
15.915291
 20
6.439658
 30
0.0
 40
0.078
 50
0.0
 51
132.090257
  0
ARC
  8
OBJECT
 10
15.915291
 20
6.439658
 30
0.0
 40
0.031
 50
0.0
 51
132.090257
  0
LINE
  8
OBJECT
 10
15.77898
 20
6.358307
 30
0.0
 11
15.894512
 21
6.462663
 31
0.0
  0
LINE
  8
OBJECT
 10
15.71915
 20
6.367599
 30
0.0
 11
15.863008
 21
6.497541
 31
0.0
  0
CIRCLE
  8
OBJECT
 10
15.745291
 20
6.338658
 30
0.0
 40
0.039
  0
CIRCLE
  8
OBJECT
 10
15.667291
 20
6.338658
 30
0.0
 40
0.039
  0
LINE
  8
OBJECT
 10
13.951925
 20
6.517658
 30
0.0
 11
13.951925
 21
5.066954
 31
0.0
  0
LINE
  8
OBJECT
 10
14.201925
 20
6.517658
 30
0.0
 11
14.201925
 21
5.066954
 31
0.0
  0
LINE
  8
OBJECT
 10
13.951925
 20
6.517658
 30
0.0
 11
14.201925
 21
6.517658
 31
0.0
  0
LINE
  8
OBJECT
 10
13.951925
 20
5.205658
 30
0.0
 11
14.201925
 21
5.205658
 31
0.0
  0
LINE
  8
OBJECT
 10
13.951925
 20
5.283658
 30
0.0
 11
14.045925
 21
5.283658
 31
0.0
  0
LINE
  8
OBJECT
 10
14.076925
 20
4.705658
 30
0.0
 11
14.076925
 21
5.066954
 31
0.0
  0
LINE
  8
OBJECT
 10
14.045925
 20
5.283658
 30
0.0
 11
14.045925
 21
5.857979
 31
0.0
  0
LINE
  8
OBJECT
 10
14.107925
 20
5.283658
 30
0.0
 11
14.107925
 21
5.857979
 31
0.0
  0
LINE
  8
OBJECT
 10
14.045925
 20
6.299658
 30
0.0
 11
14.107925
 21
6.299658
 31
0.0
  0
LINE
  8
OBJECT
 10
13.951925
 20
5.929723
 30
0.0
 11
14.045925
 21
5.929723
 31
0.0
  0
LINE
  8
OBJECT
 10
13.951925
 20
5.857979
 30
0.0
 11
14.045925
 21
5.857979
 31
0.0
  0
LINE
  8
OBJECT
 10
14.107925
 20
5.929723
 30
0.0
 11
14.107925
 21
6.299658
 31
0.0
  0
LINE
  8
OBJECT
 10
14.045925
 20
5.929723
 30
0.0
 11
14.045925
 21
6.299658
 31
0.0
  0
LINE
  8
OBJECT
 10
14.107925
 20
5.929723
 30
0.0
 11
14.201925
 21
5.929723
 31
0.0
  0
LINE
  8
OBJECT
 10
14.107925
 20
5.857979
 30
0.0
 11
14.201925
 21
5.857979
 31
0.0
  0
ARC
  8
OBJECT
 10
14.010533
 20
5.893851
 30
0.0
 40
0.050393
 50
314.614229
 51
45.385771
  0
ARC
  8
OBJECT
 10
14.143317
 20
5.893851
 30
0.0
 40
0.050393
 50
134.614229
 51
225.385771
  0
LINE
  8
OBJECT
 10
14.107925
 20
5.283658
 30
0.0
 11
14.201925
 21
5.283658
 31
0.0
  0
LINE
  8
OBJECT
 10
13.951925
 20
5.31474
 30
0.0
 11
14.045925
 21
5.31474
 31
0.0
  0
LINE
  8
OBJECT
 10
14.107925
 20
5.31474
 30
0.0
 11
14.201925
 21
5.31474
 31
0.0
  0
LINE
  8
OBJECT
 10
14.170425
 20
5.066954
 30
0.0
 11
14.170425
 21
4.789975
 31
0.0
  0
ARC
  8
OBJECT
 10
14.076925
 20
4.799658
 30
0.0
 40
0.094
 50
270.0
 51
5.912231
  0
LINE
  8
OBJECT
 10
14.201925
 20
5.066954
 30
0.0
 11
13.951925
 21
5.066954
 31
0.0
  0
LINE
  8
OBJECT
 10
14.201925
 20
5.110166
 30
0.0
 11
13.951925
 21
5.110166
 31
0.0
  0
LINE
  8
OBJECT
 10
14.201925
 20
5.193815
 30
0.0
 11
13.951925
 21
5.193815
 31
0.0
  0
LINE
  8
OBJECT
 10
14.047997
 20
5.066954
 30
0.0
 11
14.076925
 21
4.861658
 31
0.0
  0
LINE
  8
OBJECT
 10
13.983425
 20
5.066954
 30
0.0
 11
13.983425
 21
4.956658
 31
0.0
  0
LINE
  8
OBJECT
 10
11.934701
 20
4.956658
 30
0.0
 11
11.996701
 21
4.956658
 31
0.0
  0
LINE
  8
OBJECT
 10
13.983425
 20
4.956658
 30
0.0
 11
14.076925
 21
4.827723
 31
0.0
  0
DIMENSION
  8
DIM
  2
*D21
 10
12.205701
 20
7.316446
 30
0.0
 11
10.591372
 21
7.316446
 31
0.0
 12
1.562173
 22
-0.283933
 32
0.0
 70
   128
 13
11.725701
 23
6.439658
 33
0.0
 14
12.205701
 24
6.439658
 34
0.0
  3
23NSTD
  0
DIMENSION
  8
DIM
  2
*D7
 10
11.01067
 20
6.470658
 30
0.0
 11
11.01067
 21
5.877158
 31
0.0
 12
0.653272
 22
-2.697365
 32
0.0
 13
11.756701
 23
5.283658
 33
0.0
 14
11.756701
 24
6.470658
 34
0.0
 50
90.0
  3
23NSTDI
  0
DIMENSION
  8
DIM
  2
*D6
 10
12.917891
 20
6.517658
 30
0.0
 11
12.917891
 21
5.861658
 31
0.0
 12
0.653272
 22
-2.697365
 32
0.0
  1
<>
 13
12.301701
 23
5.205658
 33
0.0
 14
12.174701
 24
6.517658
 34
0.0
 50
90.0
  3
23NSTDI
  0
DIMENSION
  8
DIM
  2
*D22
 10
14.201925
 20
7.316446
 30
0.0
 11
15.290206
 21
7.316446
 31
0.0
 12
1.562173
 22
-0.283933
 32
0.0
  1
<>
 13
13.951925
 23
6.517658
 33
0.0
 14
14.201925
 24
6.517658
 34
0.0
  3
23NSTD
  0
DIMENSION
  8
DIM
  2
*D5
 10
16.706862
 20
4.705658
 30
0.0
 11
16.706862
 21
5.611658
 31
0.0
 12
1.234124
 22
-2.697365
 32
0.0
  1
<>
 13
15.915291
 23
6.517658
 33
0.0
 14
15.706291
 24
4.705658
 34
0.0
 50
90.0
  3
23NSTD
  0
DIMENSION
  8
DIM
  2
*D20
 10
11.590701
 20
4.30424
 30
0.0
 11
11.965701
 21
4.30424
 31
0.0
 12
1.562173
 22
-0.283933
 32
0.0
  1
<>
 13
12.340701
 23
5.244658
 33
0.0
 14
11.590701
 24
5.244658
 34
0.0
  3
23NSTDI
  0
TEXT
  8
TEXT
 10
7.810394
 20
20.52573
 30
0.0
 40
0.21875
  1
NAME
 72
     1
 11
8.211436
 21
20.52573
 31
0.0
  0
TEXT
  8
TEXT
 10
7.810394
 20
20.890313
 30
0.0
 40
0.21875
  1
PART
 72
     1
 11
8.211436
 21
20.890313
 31
0.0
  0
TEXT
  8
TEXT
 10
21.384892
 20
20.52573
 30
0.0
 40
0.21875
  1
No.
 72
     1
 11
21.603642
 21
20.52573
 31
0.0
  0
TEXT
  8
TEXT
 10
21.2026
 20
20.890313
 30
0.0
 40
0.21875
  1
PART
 72
     1
 11
21.603642
 21
20.890313
 31
0.0
  0
LINE
  8
TITLE
 10
22.259892
 20
21.187091
 30
0.0
 11
22.259892
 21
20.455591
 31
0.0
  0
LINE
  8
TITLE
 10
20.947392
 20
21.187091
 30
0.0
 11
20.947392
 21
20.455591
 31
0.0
  0
LINE
  8
TITLE
 10
20.838892
 20
21.187091
 30
0.0
 11
20.838892
 21
20.455591
 31
0.0
  0
LINE
  8
TITLE
 10
8.867686
 20
20.455591
 30
0.0
 11
8.867686
 21
21.187091
 31
0.0
  0
LINE
  8
TITLE
 10
7.384892
 20
20.455591
 30
0.0
 11
34.292892
 21
20.455591
 31
0.0
  0
LINE
  8
TITLE
 10
7.384892
 20
3.694091
 30
0.0
 11
7.384892
 21
21.187091
 31
0.0
  0
LINE
  8
TITLE
 10
34.292892
 20
3.694091
 30
0.0
 11
7.384892
 21
3.694091
 31
0.0
  0
LINE
  8
TITLE
 10
34.292892
 20
21.187091
 30
0.0
 11
34.292892
 21
3.694091
 31
0.0
  0
LINE
  8
TITLE
 10
7.384892
 20
21.187091
 30
0.0
 11
34.292892
 21
21.187091
 31
0.0
  0
LINE
  8
TITLE
 10
7.276392
 20
21.295591
 30
0.0
 11
34.401392
 21
21.295591
 31
0.0
  0
LINE
  8
TITLE
 10
7.276392
 20
3.585591
 30
0.0
 11
7.276392
 21
21.295591
 31
0.0
  0
LINE
  8
TITLE
 10
34.401392
 20
3.585591
 30
0.0
 11
7.276392
 21
3.585591
 31
0.0
  0
LINE
  8
TITLE
 10
34.401392
 20
21.295591
 30
0.0
 11
34.401392
 21
3.585591
 31
0.0
  0
DIMENSION
  8
DIM
  2
*D19
 10
30.772011
 20
16.278124
 30
0.0
 11
31.558964
 21
16.908124
 31
0.0
 12
1.022513
 22
0.567866
 32
0.0
 13
29.845935
 23
16.044124
 33
0.0
 14
29.970935
 24
16.278124
 34
0.0
 50
90.0
  3
23NSTD
  0
DIMENSION
  8
DIM
  2
*D18
 10
31.62631
 20
16.278124
 30
0.0
 11
31.62631
 21
14.544124
 31
0.0
 12
1.022513
 22
0.567866
 32
0.0
 13
29.970935
 23
12.810124
 33
0.0
 14
29.970935
 24
16.278124
 34
0.0
 50
90.0
  3
23NSTD
  0
LINE
  8
OBJECT
 10
10.970935
 20
18.988964
 30
0.0
 11
10.970935
 21
19.050964
 31
0.0
  0
LINE
  8
OBJECT
 10
10.970935
 20
18.988964
 30
0.0
 11
29.970935
 21
18.988964
 31
0.0
  0
LINE
  8
OBJECT
 10
11.595935
 20
19.488964
 30
0.0
 11
29.345935
 21
19.488964
 31
0.0
  0
LINE
  8
OBJECT
 10
10.970935
 20
19.050964
 30
0.0
 11
11.595935
 21
19.050964
 31
0.0
  0
LINE
  8
OBJECT
 10
11.595935
 20
18.988964
 30
0.0
 11
11.595935
 21
19.488964
 31
0.0
  0
LINE
  8
HIDDEN
 10
11.728188
 20
19.050964
 30
0.0
 11
29.205293
 21
19.050964
 31
0.0
  0
LINE
  8
OBJECT
 10
29.345935
 20
18.988964
 30
0.0
 11
29.345935
 21
19.488964
 31
0.0
  0
LINE
  8
OBJECT
 10
29.970935
 20
18.988964
 30
0.0
 11
29.970935
 21
19.050964
 31
0.0
  0
LINE
  8
OBJECT
 10
29.970935
 20
19.050964
 30
0.0
 11
29.345935
 21
19.050964
 31
0.0
  0
DIMENSION
  8
DIM
  2
*D16
 10
10.970935
 20
20.011123
 30
0.0
 11
9.868982
 21
20.011123
 31
0.0
 12
1.022513
 22
0.4259
 32
0.0
 13
11.595935
 23
19.488964
 33
0.0
 14
10.970935
 24
19.050964
 34
0.0
  3
23NSTD
  0
DIMENSION
  8
DIM
  2
*D15
 10
29.970935
 20
20.011123
 30
0.0
 11
31.072888
 21
20.011123
 31
0.0
 12
1.022513
 22
0.4259
 32
0.0
 13
29.345935
 23
19.488964
 33
0.0
 14
29.970935
 24
19.050964
 34
0.0
  3
23NSTD
  0
TEXT
  8
TEXT
 10
13.1428
 20
3.912114
 30
0.0
 40
0.218
  1
%%UCABLE CLIP
 41
0.75
  7
TXT
 72
     1
 11
13.908525
 21
3.912114
 31
0.0
  0
TEXT
  8
TEXT
 10
11.347991
 20
20.635776
 30
0.0
 40
0.328
  1
CABLE MANAGEMENT PANEL  2U
 41
0.75
  7
TXT
 72
     1
 11
14.504991
 21
20.635776
 31
0.0
  0
TEXT
  8
TEXT
 10
27.529918
 20
20.635776
 30
0.0
 40
0.328
  1
CM-1227
 41
0.75
  7
TXT
 72
     1
 11
28.308918
 21
20.635776
 31
0.0
  0
TEXT
  8
TEXT
 10
8.937975
 20
10.561765
 30
0.0
 40
0.218
  1
%%UMATERIAL:
 41
0.75
  7
TXT
  0
TEXT
  8
TEXT
 10
9.192087
 20
10.198432
 30
0.0
 40
0.218
  1
PANEL
 41
0.75
  7
TXT
  0
TEXT
  8
TEXT
 10
9.192087
 20
9.835099
 30
0.0
 40
0.218
  1
CABLE RINGS
 41
0.75
  7
TXT
  0
TEXT
  8
TEXT
 10
8.937975
 20
9.005337
 30
0.0
 40
0.218
  1
%%UFINISH:
 41
0.75
  7
TXT
  0
TEXT
  8
TEXT
 10
13.157082
 20
10.190006
 30
0.0
 40
0.218
  1
16 GA. STEEL
 41
0.75
  7
TXT
 72
     2
 11
14.901082
 21
10.190006
 31
0.0
  0
TEXT
  8
TEXT
 10
13.157082
 20
9.826673
 30
0.0
 40
0.218
  1
14 GA. STEEL
 41
0.75
  7
TXT
 72
     2
 11
14.901082
 21
9.826673
 31
0.0
  0
LINE
  8
TEXT
 10
10.033652
 20
10.190006
 30
0.0
 11
13.037598
 21
10.190006
 31
0.0
  0
LINE
  8
TEXT
 10
10.944218
 20
9.840724
 30
0.0
 11
13.02701
 21
9.840724
 31
0.0
  0
TEXT
  8
TEXT
 10
9.192087
 20
9.482157
 30
0.0
 40
0.218
  1
CABLE CLIPS
 41
0.75
  7
TXT
  0
TEXT
  8
TEXT
 10
14.138082
 20
9.473731
 30
0.0
 40
0.218
  1
NYLON
 41
0.75
  7
TXT
 72
     2
 11
14.901082
 21
9.473731
 31
0.0
  0
LINE
  8
TEXT
 10
10.973962
 20
9.476393
 30
0.0
 11
14.00222
 21
9.476393
 31
0.0
  0
TEXT
  8
TEXT
 10
9.192087
 20
8.264015
 30
0.0
 40
0.218
  1
CABLE CLIPS
 41
0.75
  7
TXT
  0
TEXT
  8
TEXT
 10
14.138082
 20
8.255589
 30
0.0
 40
0.218
  1
WHITE
 41
0.75
  7
TXT
 72
     2
 11
14.901082
 21
8.255589
 31
0.0
  0
TEXT
  8
TEXT
 10
12.993582
 20
8.618922
 30
0.0
 40
0.218
  1
SMOOTH BLACK
 41
0.75
  7
TXT
 72
     2
 11
14.901082
 21
8.618922
 31
0.0
  0
LINE
  8
TEXT
 10
10.944218
 20
8.26964
 30
0.0
 11
14.036429
 21
8.26964
 31
0.0
  0
TEXT
  8
TEXT
 10
9.192087
 20
8.627348
 30
0.0
 40
0.218
  1
PANEL & CABLE RINGS
 41
0.75
  7
TXT
  0
LINE
  8
TEXT
 10
12.29004
 20
8.618922
 30
0.0
 11
13.037598
 21
8.618922
 31
0.0
  0
TEXT
  8
TEXT
 10
17.849483
 20
10.561765
 30
0.0
 40
0.218
  1
SUPPLIED WITH:
 41
0.75
  7
TXT
  0
TEXT
  8
TEXT
 10
18.196923
 20
10.208823
 30
0.0
 40
0.218
  1
QTY. (4) #10-32 x 5/8 LG. SCREWS
 41
0.75
  7
TXT
  0
TEXT
  8
TEXT
 10
18.196923
 20
9.84549
 30
0.0
 40
0.218
  1
QTY. (4) #12-24 x 1/2 LG. SCREWS
 41
0.75
  7
TXT
  0
TEXT
  8
TEXT
 10
18.196923
 20
9.482157
 30
0.0
 40
0.218
  1
QTY. (2) #CM-1229 CABLE CLIP PACKAGES:
 41
0.75
  7
TXT
  0
TEXT
  8
TEXT
 10
18.63912
 20
9.118823
 30
0.0
 40
0.218
  1
QTY. (24) CABLE CLIPS
 41
0.75
  7
TXT
  0
TEXT
  8
TEXT
 10
18.196923
 20
8.75549
 30
0.0
 40
0.218
  1
QTY. (3) #CM-1220 CABLE RING PACKAGES:
 41
0.75
  7
TXT
  0
TEXT
  8
TEXT
 10
18.63912
 20
8.392157
 30
0.0
 40
0.218
  1
QTY. (3) CABLE RINGS
 41
0.75
  7
TXT
  0
TEXT
  8
TEXT
 10
18.63912
 20
8.028823
 30
0.0
 40
0.218
  1
QTY. (6) #10-32 x 5/8 LG. SCREWS
 41
0.75
  7
TXT
  0
TEXT
  8
TEXT
 10
18.63912
 20
7.66549
 30
0.0
 40
0.218
  1
QTY. (6) #12-24 x 1/2 LG. SCREWS
 41
0.75
  7
TXT
  0
TEXT
  8
TEXT
 10
18.63912
 20
7.302157
 30
0.0
 40
0.218
  1
QTY. (6) #12-24 HEX NUTS
 41
0.75
  7
TXT
  0
DIMENSION
  8
DIM
  2
*D25
 10
11.970509
 20
16.183124
 30
0.0
 11
13.112931
 21
16.813124
 31
0.0
 12
0.596466
 22
0.0
 32
0.0
  1
<> REF.
 13
11.362935
 23
15.905124
 33
0.0
 14
11.362935
 24
16.183124
 34
0.0
 50
90.0
  3
23NSTD
  0
POLYLINE
  8
DIM
 66
     1
 10
0.0
 20
0.0
 30
0.0
 41
0.118125
  0
VERTEX
  8
DIM
 10
28.48907
 20
15.233969
 30
0.0
  0
VERTEX
  8
DIM
 10
28.3428
 20
15.512949
 30
0.0
 41
0.0
  0
VERTEX
  8
DIM
 10
27.415617
 20
17.281366
 30
0.0
 41
0.0
  0
VERTEX
  8
DIM
 10
27.100617
 20
17.281366
 30
0.0
 41
0.0
  0
SEQEND
  8
DIM
  0
TEXT
  8
DIM
 10
25.685304
 20
17.171991
 30
0.0
 40
0.21875
  1
0.250 DIA.
 41
0.75
  7
TXT
 72
     2
 11
26.943117
 21
17.281366
 31
0.0
 73
     2
  0
TEXT
  8
DIM
 10
25.521242
 20
16.807408
 30
0.0
 40
0.21875
  1
(41) HOLES
 41
0.75
  7
TXT
 72
     2
 11
26.943117
 21
16.916783
 31
0.0
 73
     2
  0
POLYLINE
  8
DIM
 66
     1
 10
0.0
 20
0.0
 30
0.0
 41
0.118125
  0
VERTEX
  8
DIM
 10
13.022953
 20
15.872419
 30
0.0
  0
VERTEX
  8
DIM
 10
13.270442
 20
16.067289
 30
0.0
 41
0.0
  0
VERTEX
  8
DIM
 10
14.817426
 20
17.285365
 30
0.0
 41
0.0
  0
VERTEX
  8
DIM
 10
15.132426
 20
17.285365
 30
0.0
 41
0.0
  0
SEQEND
  8
DIM
  0
TEXT
  8
DIM
 10
15.289926
 20
17.17599
 30
0.0
 40
0.21875
  1
0.188 DIA.
 41
0.75
  7
TXT
 11
15.289926
 21
17.285365
 31
0.0
 73
     2
  0
TEXT
  8
DIM
 10
15.289926
 20
16.811407
 30
0.0
 40
0.21875
  1
(32) HOLES
 41
0.75
  7
TXT
 11
15.289926
 21
16.920782
 31
0.0
 73
     2
  0
POLYLINE
  8
DIM
 66
     1
 10
0.0
 20
0.0
 30
0.0
 41
0.118125
  0
VERTEX
  8
DIM
 10
29.561427
 20
12.906231
 30
0.0
  0
VERTEX
  8
DIM
 10
29.458877
 20
12.608391
 30
0.0
 41
0.0
  0
VERTEX
  8
DIM
 10
29.104206
 20
11.578309
 30
0.0
 41
0.0
  0
VERTEX
  8
DIM
 10
29.303028
 20
11.578309
 30
0.0
 41
0.0
  0
VERTEX
  8
DIM
 10
29.398714
 20
11.578309
 30
0.0
 41
0.0
  0
SEQEND
  8
DIM
  0
TEXT
  8
DIM
 10
29.556214
 20
11.468934
 30
0.0
 40
0.21875
  1
0.278 x 0.406 OBLONG
 41
0.75
  7
TXT
 11
29.556214
 21
11.578309
 31
0.0
 73
     2
  0
TEXT
  8
DIM
 10
29.556214
 20
11.104351
 30
0.0
 40
0.21875
  1
(4) HOLES
 41
0.75
  7
TXT
 11
29.556214
 21
11.213726
 31
0.0
 73
     2
  0
DIMENSION
  8
DIM
  2
*D48
 10
9.648054
 20
16.278124
 30
0.0
 11
9.648054
 21
16.036124
 31
0.0
 13
12.970935
 23
15.794124
 33
0.0
 14
10.970935
 24
16.278124
 34
0.0
 50
90.0
  3
23NSTDI
  0
DIMENSION
  8
DIM
  2
*D49
 10
8.937975
 20
16.278124
 30
0.0
 11
8.937975
 21
15.723624
 31
0.0
 13
12.345935
 23
15.169124
 33
0.0
 14
10.970935
 24
16.278124
 34
0.0
 50
90.0
  3
23NSTDI
  0
DIMENSION
  8
DIM
  2
*D50
 10
8.2563
 20
16.278124
 30
0.0
 11
8.2563
 21
15.411124
 31
0.0
 13
12.970935
 23
14.544124
 33
0.0
 14
10.970935
 24
16.278124
 34
0.0
 50
90.0
  3
23NSTD
  0
DIMENSION
  8
DIM
  2
*D47
 10
9.648054
 20
12.810124
 30
0.0
 11
9.648054
 21
13.364624
 31
0.0
 13
12.345935
 23
13.919124
 33
0.0
 14
10.970935
 24
12.810124
 34
0.0
 50
90.0
  3
23NSTDI
  0
DIMENSION
  8
DIM
  2
*D46
 10
10.358132
 20
12.810124
 30
0.0
 11
10.358132
 21
13.052124
 31
0.0
 13
12.970935
 23
13.294124
 33
0.0
 14
10.970935
 24
12.810124
 34
0.0
 50
90.0
  3
23NSTDI
  0
DIMENSION
  8
DIM
  2
*D45
 10
32.513677
 20
12.277922
 30
0.0
 11
31.439067
 21
12.277922
 31
0.0
 12
0.596466
 22
0.0
 32
0.0
 13
33.013677
 23
12.810124
 33
0.0
 14
32.513677
 24
12.810124
 34
0.0
  3
23NSTD
  0
LINE
  8
OBJECT
 10
26.649259
 20
7.612889
 30
0.0
 11
26.649259
 21
4.144889
 31
0.0
  0
LINE
  8
OBJECT
 10
26.649259
 20
7.612889
 30
0.0
 11
31.600491
 21
10.471484
 31
0.0
  0
LINE
  8
OBJECT
 10
26.649259
 20
4.144889
 30
0.0
 11
28.367454
 21
5.136889
 31
0.0
  0
LINE
  8
OBJECT
 10
26.595566
 20
7.643889
 30
0.0
 11
26.595566
 21
4.175889
 31
0.0
  0
LINE
  8
OBJECT
 10
26.595566
 20
7.643889
 30
0.0
 11
27.136832
 21
7.956389
 31
0.0
  0
LINE
  8
OBJECT
 10
26.595566
 20
7.643889
 30
0.0
 11
26.649259
 21
7.612889
 31
0.0
  0
LINE
  8
OBJECT
 10
26.595566
 20
4.175889
 30
0.0
 11
26.649259
 21
4.144889
 31
0.0
  0
LINE
  8
OBJECT
 10
26.757512
 20
8.175389
 30
0.0
 11
31.00114
 21
10.625448
 31
0.0
  0
LINE
  8
OBJECT
 10
26.757512
 20
8.175389
 30
0.0
 11
27.136832
 21
7.956389
 31
0.0
  0
LINE
  8
OBJECT
 10
26.757512
 20
8.175389
 30
0.0
 11
26.757512
 21
8.113389
 31
0.0
  0
LINE
  8
OBJECT
 10
26.757512
 20
8.113389
 30
0.0
 11
27.083138
 21
7.925389
 31
0.0
  0
LINE
  8
OBJECT
 10
26.87789
 20
7.649889
 30
0.0
 11
26.988741
 21
7.713889
 31
0.0
  0
LINE
  8
OBJECT
 10
26.87789
 20
7.371889
 30
0.0
 11
26.988741
 21
7.435889
 31
0.0
  0
POLYLINE
  8
OBJECT
 66
     1
 10
0.0
 20
0.0
 30
0.0
  0
VERTEX
  8
OBJECT
 10
26.988741
 20
7.435889
 30
0.0
 42
0.072341
 70
     2
 50
30.0
  0
VERTEX
  8
OBJECT
 10
27.032703
 20
7.470577
 30
0.0
 42
0.058752
 50
30.0
  0
VERTEX
  8
OBJECT
 10
27.073861
 20
7.525745
 30
0.0
 42
0.058752
  0
VERTEX
  8
OBJECT
 10
27.101059
 20
7.588973
 30
0.0
 42
0.072341
  0
VERTEX
  8
OBJECT
 10
27.109119
 20
7.644389
 30
0.0
 42
0.106617
 70
     2
 50
90.0
  0
VERTEX
  8
OBJECT
 10
27.098076
 20
7.695589
 30
0.0
 42
0.156851
 50
90.0
  0
VERTEX
  8
OBJECT
 10
27.073861
 20
7.72232
 30
0.0
 42
0.156851
  0
VERTEX
  8
OBJECT
 10
27.038603
 20
7.729925
 30
0.0
 42
0.106617
  0
VERTEX
  8
OBJECT
 10
26.988741
 20
7.713889
 30
0.0
 42
0.072341
 70
     2
 50
210.0
  0
SEQEND
  8
OBJECT
  0
POLYLINE
  8
OBJECT
 66
     1
 10
0.0
 20
0.0
 30
0.0
  0
VERTEX
  8
OBJECT
 10
26.79277
 20
7.560033
 30
0.0
 42
0.058752
  0
VERTEX
  8
OBJECT
 10
26.765572
 20
7.496805
 30
0.0
 42
0.072341
  0
VERTEX
  8
OBJECT
 10
26.757512
 20
7.441389
 30
0.0
 42
0.106617
 70
     2
 50
270.0
  0
VERTEX
  8
OBJECT
 10
26.768555
 20
7.390189
 30
0.0
 42
0.156851
 50
270.0
  0
VERTEX
  8
OBJECT
 10
26.79277
 20
7.363457
 30
0.0
 42
0.156851
  0
VERTEX
  8
OBJECT
 10
26.828028
 20
7.355852
 30
0.0
 42
0.106617
  0
VERTEX
  8
OBJECT
 10
26.87789
 20
7.371889
 30
0.0
 42
0.072341
 70
     2
 50
30.0
  0
SEQEND
  8
OBJECT
  0
POLYLINE
  8
OBJECT
 66
     1
 10
0.0
 20
0.0
 30
0.0
  0
VERTEX
  8
OBJECT
 10
26.87789
 20
7.649889
 30
0.0
 42
0.072341
 70
     2
 50
210.0
  0
VERTEX
  8
OBJECT
 10
26.833928
 20
7.615201
 30
0.0
 42
0.058752
 50
210.0
  0
VERTEX
  8
OBJECT
 10
26.79277
 20
7.560033
 30
0.0
 42
0.058752
  0
SEQEND
  8
OBJECT
  0
LINE
  8
OBJECT
 10
26.824196
 20
7.402889
 30
0.0
 11
26.935048
 21
7.466889
 31
0.0
  0
POLYLINE
  8
OBJECT
 66
     1
 10
0.0
 20
0.0
 30
0.0
  0
VERTEX
  8
OBJECT
 10
26.770332
 20
7.386593
 30
0.0
 42
0.017027
  0
VERTEX
  8
OBJECT
 10
26.774334
 20
7.386852
 30
0.0
 42
0.106617
  0
VERTEX
  8
OBJECT
 10
26.824196
 20
7.402889
 30
0.0
 42
0.072341
 70
     2
 50
30.0
  0
SEQEND
  8
OBJECT
  0
POLYLINE
  8
OBJECT
 66
     1
 10
0.0
 20
0.0
 30
0.0
  0
VERTEX
  8
OBJECT
 10
26.935048
 20
7.466889
 30
0.0
 42
0.072341
 70
     2
 50
30.0
  0
VERTEX
  8
OBJECT
 10
26.979009
 20
7.501577
 30
0.0
 42
0.058752
 50
30.0
  0
VERTEX
  8
OBJECT
 10
27.020167
 20
7.556745
 30
0.0
 42
0.058752
  0
VERTEX
  8
OBJECT
 10
27.047365
 20
7.619973
 30
0.0
 42
0.072341
  0
VERTEX
  8
OBJECT
 10
27.055425
 20
7.675389
 30
0.0
 42
0.106617
 70
     2
 50
90.0
  0
VERTEX
  8
OBJECT
 10
27.044382
 20
7.726589
 30
0.0
 42
0.017027
 50
90.0
  0
VERTEX
  8
OBJECT
 10
27.042605
 20
7.730184
 30
0.0
 42
0.156851
  0
SEQEND
  8
OBJECT
  0
POLYLINE
  8
OBJECT
 66
     1
 10
0.0
 20
0.0
 30
0.0
  0
VERTEX
  8
OBJECT
 10
26.935048
 20
4.466889
 30
0.0
 42
0.072341
 70
     2
 50
30.0
  0
VERTEX
  8
OBJECT
 10
26.979009
 20
4.501577
 30
0.0
 42
0.058752
 50
30.0
  0
VERTEX
  8
OBJECT
 10
27.020167
 20
4.556745
 30
0.0
 42
0.058752
  0
VERTEX
  8
OBJECT
 10
27.047365
 20
4.619973
 30
0.0
 42
0.072341
  0
VERTEX
  8
OBJECT
 10
27.055425
 20
4.675389
 30
0.0
 42
0.106617
 70
     2
 50
90.0
  0
VERTEX
  8
OBJECT
 10
27.044382
 20
4.726589
 30
0.0
 42
0.017027
 50
90.0
  0
VERTEX
  8
OBJECT
 10
27.042605
 20
4.730184
 30
0.0
 42
0.156851
  0
SEQEND
  8
OBJECT
  0
POLYLINE
  8
OBJECT
 66
     1
 10
0.0
 20
0.0
 30
0.0
  0
VERTEX
  8
OBJECT
 10
26.770332
 20
4.386593
 30
0.0
 42
0.017027
  0
VERTEX
  8
OBJECT
 10
26.774334
 20
4.386852
 30
0.0
 42
0.106617
  0
VERTEX
  8
OBJECT
 10
26.824196
 20
4.402889
 30
0.0
 42
0.072341
 70
     2
 50
30.0
  0
SEQEND
  8
OBJECT
  0
LINE
  8
OBJECT
 10
26.824196
 20
4.402889
 30
0.0
 11
26.935048
 21
4.466889
 31
0.0
  0
LINE
  8
OBJECT
 10
26.87789
 20
4.371889
 30
0.0
 11
26.988741
 21
4.435889
 31
0.0
  0
LINE
  8
OBJECT
 10
26.87789
 20
4.649889
 30
0.0
 11
26.988741
 21
4.713889
 31
0.0
  0
POLYLINE
  8
OBJECT
 66
     1
 10
0.0
 20
0.0
 30
0.0
  0
VERTEX
  8
OBJECT
 10
26.87789
 20
4.649889
 30
0.0
 42
0.072341
 70
     2
 50
210.0
  0
VERTEX
  8
OBJECT
 10
26.833928
 20
4.615201
 30
0.0
 42
0.058752
 50
210.0
  0
VERTEX
  8
OBJECT
 10
26.79277
 20
4.560033
 30
0.0
 42
0.058752
  0
SEQEND
  8
OBJECT
  0
POLYLINE
  8
OBJECT
 66
     1
 10
0.0
 20
0.0
 30
0.0
  0
VERTEX
  8
OBJECT
 10
26.79277
 20
4.560033
 30
0.0
 42
0.058752
  0
VERTEX
  8
OBJECT
 10
26.765572
 20
4.496805
 30
0.0
 42
0.072341
  0
VERTEX
  8
OBJECT
 10
26.757512
 20
4.441389
 30
0.0
 42
0.106617
 70
     2
 50
270.0
  0
VERTEX
  8
OBJECT
 10
26.768555
 20
4.390189
 30
0.0
 42
0.156851
 50
270.0
  0
VERTEX
  8
OBJECT
 10
26.79277
 20
4.363457
 30
0.0
 42
0.156851
  0
VERTEX
  8
OBJECT
 10
26.828028
 20
4.355852
 30
0.0
 42
0.106617
  0
VERTEX
  8
OBJECT
 10
26.87789
 20
4.371889
 30
0.0
 42
0.072341
 70
     2
 50
30.0
  0
SEQEND
  8
OBJECT
  0
POLYLINE
  8
OBJECT
 66
     1
 10
0.0
 20
0.0
 30
0.0
  0
VERTEX
  8
OBJECT
 10
26.988741
 20
4.435889
 30
0.0
 42
0.072341
 70
     2
 50
30.0
  0
VERTEX
  8
OBJECT
 10
27.032703
 20
4.470577
 30
0.0
 42
0.058752
 50
30.0
  0
VERTEX
  8
OBJECT
 10
27.073861
 20
4.525745
 30
0.0
 42
0.058752
  0
VERTEX
  8
OBJECT
 10
27.101059
 20
4.588973
 30
0.0
 42
0.072341
  0
VERTEX
  8
OBJECT
 10
27.109119
 20
4.644389
 30
0.0
 42
0.106617
 70
     2
 50
90.0
  0
VERTEX
  8
OBJECT
 10
27.098076
 20
4.695589
 30
0.0
 42
0.156851
 50
90.0
  0
VERTEX
  8
OBJECT
 10
27.073861
 20
4.72232
 30
0.0
 42
0.156851
  0
VERTEX
  8
OBJECT
 10
27.038603
 20
4.729925
 30
0.0
 42
0.106617
  0
VERTEX
  8
OBJECT
 10
26.988741
 20
4.713889
 30
0.0
 42
0.072341
 70
     2
 50
210.0
  0
SEQEND
  8
OBJECT
  0
POLYLINE
  8
OBJECT
 66
     1
 10
0.0
 20
0.0
 30
0.0
 70
     1
  0
VERTEX
  8
OBJECT
 10
28.846029
 20
7.860583
 30
0.0
 42
0.058752
  0
VERTEX
  8
OBJECT
 10
28.821571
 20
7.803723
 30
0.0
 42
0.072341
  0
VERTEX
  8
OBJECT
 10
28.814323
 20
7.753889
 30
0.0
 42
0.106617
 70
     2
 50
270.0
  0
VERTEX
  8
OBJECT
 10
28.824254
 20
7.707846
 30
0.0
 42
0.156851
 50
270.0
  0
VERTEX
  8
OBJECT
 10
28.846029
 20
7.683806
 30
0.0
 42
0.156851
  0
VERTEX
  8
OBJECT
 10
28.877736
 20
7.676967
 30
0.0
 42
0.106617
  0
VERTEX
  8
OBJECT
 10
28.922576
 20
7.691389
 30
0.0
 42
0.072341
 70
     2
 50
30.0
  0
VERTEX
  8
OBJECT
 10
28.96211
 20
7.722583
 30
0.0
 42
0.058752
 50
30.0
  0
VERTEX
  8
OBJECT
 10
28.999122
 20
7.772194
 30
0.0
 42
0.058752
  0
VERTEX
  8
OBJECT
 10
29.023581
 20
7.829054
 30
0.0
 42
0.072341
  0
VERTEX
  8
OBJECT
 10
29.030829
 20
7.878889
 30
0.0
 42
0.106617
 70
     2
 50
90.0
  0
VERTEX
  8
OBJECT
 10
29.020898
 20
7.924932
 30
0.0
 42
0.156851
 50
90.0
  0
VERTEX
  8
OBJECT
 10
28.999122
 20
7.948971
 30
0.0
 42
0.156851
  0
VERTEX
  8
OBJECT
 10
28.967416
 20
7.95581
 30
0.0
 42
0.106617
  0
VERTEX
  8
OBJECT
 10
28.922576
 20
7.941389
 30
0.0
 42
0.072341
 70
     2
 50
210.0
  0
VERTEX
  8
OBJECT
 10
28.883042
 20
7.910194
 30
0.0
 42
0.058752
 50
210.0
  0
SEQEND
  8
OBJECT
  0
POLYLINE
  8
OBJECT
 66
     1
 10
0.0
 20
0.0
 30
0.0
  0
VERTEX
  8
OBJECT
 10
28.824192
 20
7.707982
 30
0.0
 42
0.106277
  0
VERTEX
  8
OBJECT
 10
28.868882
 20
7.722389
 30
0.0
 42
0.072341
 70
     2
 50
30.0
  0
VERTEX
  8
OBJECT
 10
28.908416
 20
7.753583
 30
0.0
 42
0.058752
 50
30.0
  0
VERTEX
  8
OBJECT
 10
28.945429
 20
7.803194
 30
0.0
 42
0.058752
  0
VERTEX
  8
OBJECT
 10
28.969887
 20
7.860054
 30
0.0
 42
0.072341
  0
VERTEX
  8
OBJECT
 10
28.977135
 20
7.909889
 30
0.0
 42
0.106277
 70
     2
 50
90.0
  0
VERTEX
  8
OBJECT
 10
28.967266
 20
7.955795
 30
0.0
 42
0.156851
 50
90.0
  0
SEQEND
  8
OBJECT
  0
POLYLINE
  8
OBJECT
 66
     1
 10
0.0
 20
0.0
 30
0.0
 70
     1
  0
VERTEX
  8
OBJECT
 10
29.928561
 20
8.485583
 30
0.0
 42
0.058752
  0
VERTEX
  8
OBJECT
 10
29.904103
 20
8.428723
 30
0.0
 42
0.072341
  0
VERTEX
  8
OBJECT
 10
29.896854
 20
8.378889
 30
0.0
 42
0.106617
 70
     2
 50
270.0
  0
VERTEX
  8
OBJECT
 10
29.906785
 20
8.332846
 30
0.0
 42
0.156851
 50
270.0
  0
VERTEX
  8
OBJECT
 10
29.928561
 20
8.308806
 30
0.0
 42
0.156851
  0
VERTEX
  8
OBJECT
 10
29.960268
 20
8.301967
 30
0.0
 42
0.106617
  0
VERTEX
  8
OBJECT
 10
30.005108
 20
8.316389
 30
0.0
 42
0.072341
 70
     2
 50
30.0
  0
VERTEX
  8
OBJECT
 10
30.044642
 20
8.347583
 30
0.0
 42
0.058752
 50
30.0
  0
VERTEX
  8
OBJECT
 10
30.081654
 20
8.397194
 30
0.0
 42
0.058752
  0
VERTEX
  8
OBJECT
 10
30.106113
 20
8.454054
 30
0.0
 42
0.072341
  0
VERTEX
  8
OBJECT
 10
30.113361
 20
8.503889
 30
0.0
 42
0.106617
 70
     2
 50
90.0
  0
VERTEX
  8
OBJECT
 10
30.10343
 20
8.549932
 30
0.0
 42
0.156851
 50
90.0
  0
VERTEX
  8
OBJECT
 10
30.081654
 20
8.573971
 30
0.0
 42
0.156851
  0
VERTEX
  8
OBJECT
 10
30.049948
 20
8.58081
 30
0.0
 42
0.106617
  0
VERTEX
  8
OBJECT
 10
30.005108
 20
8.566389
 30
0.0
 42
0.072341
 70
     2
 50
210.0
  0
VERTEX
  8
OBJECT
 10
29.965574
 20
8.535194
 30
0.0
 42
0.058752
 50
210.0
  0
SEQEND
  8
OBJECT
  0
POLYLINE
  8
OBJECT
 66
     1
 10
0.0
 20
0.0
 30
0.0
  0
VERTEX
  8
OBJECT
 10
29.906724
 20
8.332982
 30
0.0
 42
0.106277
  0
VERTEX
  8
OBJECT
 10
29.951414
 20
8.347389
 30
0.0
 42
0.072341
 70
     2
 50
30.0
  0
VERTEX
  8
OBJECT
 10
29.990948
 20
8.378583
 30
0.0
 42
0.058752
 50
30.0
  0
VERTEX
  8
OBJECT
 10
30.027961
 20
8.428194
 30
0.0
 42
0.058752
  0
VERTEX
  8
OBJECT
 10
30.052419
 20
8.485054
 30
0.0
 42
0.072341
  0
VERTEX
  8
OBJECT
 10
30.059667
 20
8.534889
 30
0.0
 42
0.106277
 70
     2
 50
90.0
  0
VERTEX
  8
OBJECT
 10
30.049798
 20
8.580795
 30
0.0
 42
0.156851
 50
90.0
  0
SEQEND
  8
OBJECT
  0
POLYLINE
  8
OBJECT
 66
     1
 10
0.0
 20
0.0
 30
0.0
  0
VERTEX
  8
OBJECT
 10
29.906724
 20
7.082982
 30
0.0
 42
0.106277
  0
VERTEX
  8
OBJECT
 10
29.951414
 20
7.097389
 30
0.0
 42
0.072341
 70
     2
 50
30.0
  0
VERTEX
  8
OBJECT
 10
29.990948
 20
7.128583
 30
0.0
 42
0.058752
 50
30.0
  0
VERTEX
  8
OBJECT
 10
30.027961
 20
7.178194
 30
0.0
 42
0.058752
  0
VERTEX
  8
OBJECT
 10
30.052419
 20
7.235054
 30
0.0
 42
0.072341
  0
VERTEX
  8
OBJECT
 10
30.059667
 20
7.284889
 30
0.0
 42
0.106277
 70
     2
 50
90.0
  0
VERTEX
  8
OBJECT
 10
30.049798
 20
7.330795
 30
0.0
 42
0.156851
 50
90.0
  0
SEQEND
  8
OBJECT
  0
POLYLINE
  8
OBJECT
 66
     1
 10
0.0
 20
0.0
 30
0.0
 70
     1
  0
VERTEX
  8
OBJECT
 10
29.928561
 20
7.235583
 30
0.0
 42
0.058752
  0
VERTEX
  8
OBJECT
 10
29.904103
 20
7.178723
 30
0.0
 42
0.072341
  0
VERTEX
  8
OBJECT
 10
29.896854
 20
7.128889
 30
0.0
 42
0.106617
 70
     2
 50
270.0
  0
VERTEX
  8
OBJECT
 10
29.906785
 20
7.082846
 30
0.0
 42
0.156851
 50
270.0
  0
VERTEX
  8
OBJECT
 10
29.928561
 20
7.058806
 30
0.0
 42
0.156851
  0
VERTEX
  8
OBJECT
 10
29.960268
 20
7.051967
 30
0.0
 42
0.106617
  0
VERTEX
  8
OBJECT
 10
30.005108
 20
7.066389
 30
0.0
 42
0.072341
 70
     2
 50
30.0
  0
VERTEX
  8
OBJECT
 10
30.044642
 20
7.097583
 30
0.0
 42
0.058752
 50
30.0
  0
VERTEX
  8
OBJECT
 10
30.081654
 20
7.147194
 30
0.0
 42
0.058752
  0
VERTEX
  8
OBJECT
 10
30.106113
 20
7.204054
 30
0.0
 42
0.072341
  0
VERTEX
  8
OBJECT
 10
30.113361
 20
7.253889
 30
0.0
 42
0.106617
 70
     2
 50
90.0
  0
VERTEX
  8
OBJECT
 10
30.10343
 20
7.299932
 30
0.0
 42
0.156851
 50
90.0
  0
VERTEX
  8
OBJECT
 10
30.081654
 20
7.323971
 30
0.0
 42
0.156851
  0
VERTEX
  8
OBJECT
 10
30.049948
 20
7.33081
 30
0.0
 42
0.106617
  0
VERTEX
  8
OBJECT
 10
30.005108
 20
7.316389
 30
0.0
 42
0.072341
 70
     2
 50
210.0
  0
VERTEX
  8
OBJECT
 10
29.965574
 20
7.285194
 30
0.0
 42
0.058752
 50
210.0
  0
SEQEND
  8
OBJECT
  0
POLYLINE
  8
OBJECT
 66
     1
 10
0.0
 20
0.0
 30
0.0
 70
     1
  0
VERTEX
  8
OBJECT
 10
31.011093
 20
7.860583
 30
0.0
 42
0.058752
  0
VERTEX
  8
OBJECT
 10
30.986634
 20
7.803723
 30
0.0
 42
0.072341
  0
VERTEX
  8
OBJECT
 10
30.979386
 20
7.753889
 30
0.0
 42
0.106617
 70
     2
 50
270.0
  0
VERTEX
  8
OBJECT
 10
30.989317
 20
7.707846
 30
0.0
 42
0.156851
 50
270.0
  0
VERTEX
  8
OBJECT
 10
31.011093
 20
7.683806
 30
0.0
 42
0.156851
  0
VERTEX
  8
OBJECT
 10
31.042799
 20
7.676967
 30
0.0
 42
0.106617
  0
VERTEX
  8
OBJECT
 10
31.087639
 20
7.691389
 30
0.0
 42
0.072341
 70
     2
 50
30.0
  0
VERTEX
  8
OBJECT
 10
31.127173
 20
7.722583
 30
0.0
 42
0.058752
 50
30.0
  0
VERTEX
  8
OBJECT
 10
31.164186
 20
7.772194
 30
0.0
 42
0.058752
  0
VERTEX
  8
OBJECT
 10
31.188644
 20
7.829054
 30
0.0
 42
0.072341
  0
VERTEX
  8
OBJECT
 10
31.195893
 20
7.878889
 30
0.0
 42
0.106617
 70
     2
 50
90.0
  0
VERTEX
  8
OBJECT
 10
31.185962
 20
7.924932
 30
0.0
 42
0.156851
 50
90.0
  0
VERTEX
  8
OBJECT
 10
31.164186
 20
7.948971
 30
0.0
 42
0.156851
  0
VERTEX
  8
OBJECT
 10
31.132479
 20
7.95581
 30
0.0
 42
0.106617
  0
VERTEX
  8
OBJECT
 10
31.087639
 20
7.941389
 30
0.0
 42
0.072341
 70
     2
 50
210.0
  0
VERTEX
  8
OBJECT
 10
31.048105
 20
7.910194
 30
0.0
 42
0.058752
 50
210.0
  0
SEQEND
  8
OBJECT
  0
POLYLINE
  8
OBJECT
 66
     1
 10
0.0
 20
0.0
 30
0.0
  0
VERTEX
  8
OBJECT
 10
30.989255
 20
7.707982
 30
0.0
 42
0.106277
  0
VERTEX
  8
OBJECT
 10
31.033946
 20
7.722389
 30
0.0
 42
0.072341
 70
     2
 50
30.0
  0
VERTEX
  8
OBJECT
 10
31.07348
 20
7.753583
 30
0.0
 42
0.058752
 50
30.0
  0
VERTEX
  8
OBJECT
 10
31.110492
 20
7.803194
 30
0.0
 42
0.058752
  0
VERTEX
  8
OBJECT
 10
31.134951
 20
7.860054
 30
0.0
 42
0.072341
  0
VERTEX
  8
OBJECT
 10
31.142199
 20
7.909889
 30
0.0
 42
0.106277
 70
     2
 50
90.0
  0
VERTEX
  8
OBJECT
 10
31.13233
 20
7.955795
 30
0.0
 42
0.156851
 50
90.0
  0
SEQEND
  8
OBJECT
  0
POLYLINE
  8
OBJECT
 66
     1
 10
0.0
 20
0.0
 30
0.0
  0
VERTEX
  8
OBJECT
 10
29.365458
 20
7.395482
 30
0.0
 42
0.106277
  0
VERTEX
  8
OBJECT
 10
29.410148
 20
7.409889
 30
0.0
 42
0.072341
 70
     2
 50
30.0
  0
VERTEX
  8
OBJECT
 10
29.449682
 20
7.441083
 30
0.0
 42
0.058752
 50
30.0
  0
VERTEX
  8
OBJECT
 10
29.486695
 20
7.490694
 30
0.0
 42
0.058752
  0
VERTEX
  8
OBJECT
 10
29.511153
 20
7.547554
 30
0.0
 42
0.072341
  0
VERTEX
  8
OBJECT
 10
29.518401
 20
7.597389
 30
0.0
 42
0.106277
 70
     2
 50
90.0
  0
VERTEX
  8
OBJECT
 10
29.508532
 20
7.643295
 30
0.0
 42
0.156851
 50
90.0
  0
SEQEND
  8
OBJECT
  0
POLYLINE
  8
OBJECT
 66
     1
 10
0.0
 20
0.0
 30
0.0
 70
     1
  0
VERTEX
  8
OBJECT
 10
29.387295
 20
7.548083
 30
0.0
 42
0.058752
  0
VERTEX
  8
OBJECT
 10
29.362837
 20
7.491223
 30
0.0
 42
0.072341
  0
VERTEX
  8
OBJECT
 10
29.355589
 20
7.441389
 30
0.0
 42
0.106617
 70
     2
 50
270.0
  0
VERTEX
  8
OBJECT
 10
29.365519
 20
7.395346
 30
0.0
 42
0.156851
 50
270.0
  0
VERTEX
  8
OBJECT
 10
29.387295
 20
7.371306
 30
0.0
 42
0.156851
  0
VERTEX
  8
OBJECT
 10
29.419002
 20
7.364467
 30
0.0
 42
0.106617
  0
VERTEX
  8
OBJECT
 10
29.463842
 20
7.378889
 30
0.0
 42
0.072341
 70
     2
 50
30.0
  0
VERTEX
  8
OBJECT
 10
29.503376
 20
7.410083
 30
0.0
 42
0.058752
 50
30.0
  0
VERTEX
  8
OBJECT
 10
29.540388
 20
7.459694
 30
0.0
 42
0.058752
  0
VERTEX
  8
OBJECT
 10
29.564847
 20
7.516554
 30
0.0
 42
0.072341
  0
VERTEX
  8
OBJECT
 10
29.572095
 20
7.566389
 30
0.0
 42
0.106617
 70
     2
 50
90.0
  0
VERTEX
  8
OBJECT
 10
29.562164
 20
7.612432
 30
0.0
 42
0.156851
 50
90.0
  0
VERTEX
  8
OBJECT
 10
29.540388
 20
7.636471
 30
0.0
 42
0.156851
  0
VERTEX
  8
OBJECT
 10
29.508682
 20
7.64331
 30
0.0
 42
0.106617
  0
VERTEX
  8
OBJECT
 10
29.463842
 20
7.628889
 30
0.0
 42
0.072341
 70
     2
 50
210.0
  0
VERTEX
  8
OBJECT
 10
29.424308
 20
7.597694
 30
0.0
 42
0.058752
 50
210.0
  0
SEQEND
  8
OBJECT
  0
POLYLINE
  8
OBJECT
 66
     1
 10
0.0
 20
0.0
 30
0.0
  0
VERTEX
  8
OBJECT
 10
30.447989
 20
8.020482
 30
0.0
 42
0.106277
  0
VERTEX
  8
OBJECT
 10
30.49268
 20
8.034889
 30
0.0
 42
0.072341
 70
     2
 50
30.0
  0
VERTEX
  8
OBJECT
 10
30.532214
 20
8.066083
 30
0.0
 42
0.058752
 50
30.0
  0
VERTEX
  8
OBJECT
 10
30.569227
 20
8.115694
 30
0.0
 42
0.058752
  0
VERTEX
  8
OBJECT
 10
30.593685
 20
8.172554
 30
0.0
 42
0.072341
  0
VERTEX
  8
OBJECT
 10
30.600933
 20
8.222389
 30
0.0
 42
0.106277
 70
     2
 50
90.0
  0
VERTEX
  8
OBJECT
 10
30.591064
 20
8.268295
 30
0.0
 42
0.156851
 50
90.0
  0
SEQEND
  8
OBJECT
  0
POLYLINE
  8
OBJECT
 66
     1
 10
0.0
 20
0.0
 30
0.0
 70
     1
  0
VERTEX
  8
OBJECT
 10
30.469827
 20
8.173083
 30
0.0
 42
0.058752
  0
VERTEX
  8
OBJECT
 10
30.445368
 20
8.116223
 30
0.0
 42
0.072341
  0
VERTEX
  8
OBJECT
 10
30.43812
 20
8.066389
 30
0.0
 42
0.106617
 70
     2
 50
270.0
  0
VERTEX
  8
OBJECT
 10
30.448051
 20
8.020346
 30
0.0
 42
0.156851
 50
270.0
  0
VERTEX
  8
OBJECT
 10
30.469827
 20
7.996306
 30
0.0
 42
0.156851
  0
VERTEX
  8
OBJECT
 10
30.501534
 20
7.989467
 30
0.0
 42
0.106617
  0
VERTEX
  8
OBJECT
 10
30.546374
 20
8.003889
 30
0.0
 42
0.072341
 70
     2
 50
30.0
  0
VERTEX
  8
OBJECT
 10
30.585907
 20
8.035083
 30
0.0
 42
0.058752
 50
30.0
  0
VERTEX
  8
OBJECT
 10
30.62292
 20
8.084694
 30
0.0
 42
0.058752
  0
VERTEX
  8
OBJECT
 10
30.647379
 20
8.141554
 30
0.0
 42
0.072341
  0
VERTEX
  8
OBJECT
 10
30.654627
 20
8.191389
 30
0.0
 42
0.106617
 70
     2
 50
90.0
  0
VERTEX
  8
OBJECT
 10
30.644696
 20
8.237432
 30
0.0
 42
0.156851
 50
90.0
  0
VERTEX
  8
OBJECT
 10
30.62292
 20
8.261471
 30
0.0
 42
0.156851
  0
VERTEX
  8
OBJECT
 10
30.591213
 20
8.26831
 30
0.0
 42
0.106617
  0
VERTEX
  8
OBJECT
 10
30.546374
 20
8.253889
 30
0.0
 42
0.072341
 70
     2
 50
210.0
  0
VERTEX
  8
OBJECT
 10
30.50684
 20
8.222694
 30
0.0
 42
0.058752
 50
210.0
  0
SEQEND
  8
OBJECT
  0
POLYLINE
  8
OBJECT
 66
     1
 10
0.0
 20
0.0
 30
0.0
 70
     1
  0
VERTEX
  8
OBJECT
 10
28.323747
 20
8.162123
 30
0.0
 42
0.058752
  0
VERTEX
  8
OBJECT
 10
28.305354
 20
8.119364
 30
0.0
 42
0.072341
  0
VERTEX
  8
OBJECT
 10
28.299904
 20
8.081889
 30
0.0
 42
0.106617
 70
     2
 50
270.0
  0
VERTEX
  8
OBJECT
 10
28.307372
 20
8.047264
 30
0.0
 42
0.156851
 50
270.0
  0
VERTEX
  8
OBJECT
 10
28.323747
 20
8.029187
 30
0.0
 42
0.156851
  0
VERTEX
  8
OBJECT
 10
28.34759
 20
8.024044
 30
0.0
 42
0.106617
  0
VERTEX
  8
OBJECT
 10
28.38131
 20
8.034889
 30
0.0
 42
0.072341
 70
     2
 50
30.0
  0
VERTEX
  8
OBJECT
 10
28.41104
 20
8.058347
 30
0.0
 42
0.058752
 50
30.0
  0
VERTEX
  8
OBJECT
 10
28.438873
 20
8.095655
 30
0.0
 42
0.058752
  0
VERTEX
  8
OBJECT
 10
28.457266
 20
8.138413
 30
0.0
 42
0.072341
  0
VERTEX
  8
OBJECT
 10
28.462716
 20
8.175889
 30
0.0
 42
0.106617
 70
     2
 50
90.0
  0
VERTEX
  8
OBJECT
 10
28.455248
 20
8.210513
 30
0.0
 42
0.156851
 50
90.0
  0
VERTEX
  8
OBJECT
 10
28.438873
 20
8.228591
 30
0.0
 42
0.156851
  0
VERTEX
  8
OBJECT
 10
28.41503
 20
8.233733
 30
0.0
 42
0.106617
  0
VERTEX
  8
OBJECT
 10
28.38131
 20
8.222889
 30
0.0
 42
0.072341
 70
     2
 50
210.0
  0
VERTEX
  8
OBJECT
 10
28.35158
 20
8.19943
 30
0.0
 42
0.058752
 50
210.0
  0
SEQEND
  8
OBJECT
  0
POLYLINE
  8
OBJECT
 66
     1
 10
0.0
 20
0.0
 30
0.0
  0
VERTEX
  8
OBJECT
 10
28.303793
 20
8.056625
 30
0.0
 42
0.076521
  0
VERTEX
  8
OBJECT
 10
28.327616
 20
8.065889
 30
0.0
 42
0.072341
 70
     2
 50
30.0
  0
VERTEX
  8
OBJECT
 10
28.357346
 20
8.089347
 30
0.0
 42
0.058752
 50
30.0
  0
VERTEX
  8
OBJECT
 10
28.385179
 20
8.126655
 30
0.0
 42
0.058752
  0
VERTEX
  8
OBJECT
 10
28.403572
 20
8.169413
 30
0.0
 42
0.072341
  0
VERTEX
  8
OBJECT
 10
28.409023
 20
8.206889
 30
0.0
 42
0.076521
 70
     2
 50
90.0
  0
VERTEX
  8
OBJECT
 10
28.405134
 20
8.232152
 30
0.0
 42
0.156851
 50
90.0
  0
SEQEND
  8
OBJECT
  0
POLYLINE
  8
OBJECT
 66
     1
 10
0.0
 20
0.0
 30
0.0
  0
VERTEX
  8
OBJECT
 10
29.169818
 20
8.556625
 30
0.0
 42
0.076521
  0
VERTEX
  8
OBJECT
 10
29.193642
 20
8.565889
 30
0.0
 42
0.072341
 70
     2
 50
30.0
  0
VERTEX
  8
OBJECT
 10
29.223371
 20
8.589347
 30
0.0
 42
0.058752
 50
30.0
  0
VERTEX
  8
OBJECT
 10
29.251205
 20
8.626655
 30
0.0
 42
0.058752
  0
VERTEX
  8
OBJECT
 10
29.269598
 20
8.669413
 30
0.0
 42
0.072341
  0
VERTEX
  8
OBJECT
 10
29.275048
 20
8.706889
 30
0.0
 42
0.076521
 70
     2
 50
90.0
  0
VERTEX
  8
OBJECT
 10
29.271159
 20
8.732152
 30
0.0
 42
0.156851
 50
90.0
  0
SEQEND
  8
OBJECT
  0
POLYLINE
  8
OBJECT
 66
     1
 10
0.0
 20
0.0
 30
0.0
 70
     1
  0
VERTEX
  8
OBJECT
 10
29.189772
 20
8.662123
 30
0.0
 42
0.058752
  0
VERTEX
  8
OBJECT
 10
29.17138
 20
8.619364
 30
0.0
 42
0.072341
  0
VERTEX
  8
OBJECT
 10
29.165929
 20
8.581889
 30
0.0
 42
0.106617
 70
     2
 50
270.0
  0
VERTEX
  8
OBJECT
 10
29.173397
 20
8.547264
 30
0.0
 42
0.156851
 50
270.0
  0
VERTEX
  8
OBJECT
 10
29.189772
 20
8.529187
 30
0.0
 42
0.156851
  0
VERTEX
  8
OBJECT
 10
29.213616
 20
8.524044
 30
0.0
 42
0.106617
  0
VERTEX
  8
OBJECT
 10
29.247335
 20
8.534889
 30
0.0
 42
0.072341
 70
     2
 50
30.0
  0
VERTEX
  8
OBJECT
 10
29.277065
 20
8.558347
 30
0.0
 42
0.058752
 50
30.0
  0
VERTEX
  8
OBJECT
 10
29.304898
 20
8.595655
 30
0.0
 42
0.058752
  0
VERTEX
  8
OBJECT
 10
29.323291
 20
8.638413
 30
0.0
 42
0.072341
  0
VERTEX
  8
OBJECT
 10
29.328742
 20
8.675889
 30
0.0
 42
0.106617
 70
     2
 50
90.0
  0
VERTEX
  8
OBJECT
 10
29.321274
 20
8.710513
 30
0.0
 42
0.156851
 50
90.0
  0
VERTEX
  8
OBJECT
 10
29.304898
 20
8.728591
 30
0.0
 42
0.156851
  0
VERTEX
  8
OBJECT
 10
29.281055
 20
8.733733
 30
0.0
 42
0.106617
  0
VERTEX
  8
OBJECT
 10
29.247335
 20
8.722889
 30
0.0
 42
0.072341
 70
     2
 50
210.0
  0
VERTEX
  8
OBJECT
 10
29.217606
 20
8.69943
 30
0.0
 42
0.058752
 50
210.0
  0
SEQEND
  8
OBJECT
  0
INSERT
  8
0
  2
ACAD
 10
34.733082
 20
39.00502
 30
0.0
  0
LINE
  8
OBJECT
 10
30.559364
 20
5.058389
 30
0.0
 11
30.491814
 21
5.097389
 31
0.0
  0
LINE
  8
OBJECT
 10
31.033946
 20
5.160389
 30
0.0
 11
31.033946
 21
4.660389
 31
0.0
  0
LINE
  8
OBJECT
 10
31.101496
 20
5.121389
 30
0.0
 11
31.101496
 21
4.621389
 31
0.0
  0
LINE
  8
OBJECT
 10
30.397417
 20
5.042889
 30
0.0
 11
30.491814
 21
5.097389
 31
0.0
  0
LINE
  8
OBJECT
 10
30.397417
 20
5.042889
 30
0.0
 11
27.433878
 21
6.753889
 31
0.0
  0
LINE
  8
OBJECT
 10
30.397417
 20
3.964889
 30
0.0
 11
27.366328
 21
5.714889
 31
0.0
  0
LINE
  8
OBJECT
 10
30.397417
 20
4.964889
 30
0.0
 11
27.366328
 21
6.714889
 31
0.0
  0
LINE
  8
OBJECT
 10
31.479949
 20
5.589889
 30
0.0
 11
31.479949
 21
4.589889
 31
0.0
  0
LINE
  8
OBJECT
 10
31.318002
 20
4.496389
 30
0.0
 11
31.479949
 21
4.589889
 31
0.0
  0
LINE
  8
OBJECT
 10
30.559364
 20
4.058389
 30
0.0
 11
30.77587
 21
4.433389
 31
0.0
  0
LINE
  8
OBJECT
 10
30.397417
 20
4.964889
 30
0.0
 11
30.397417
 21
3.964889
 31
0.0
  0
LINE
  8
OBJECT
 10
30.397417
 20
3.964889
 30
0.0
 11
30.559364
 21
4.058389
 31
0.0
  0
LINE
  8
OBJECT
 10
30.559364
 20
5.058389
 30
0.0
 11
30.77587
 21
4.933389
 31
0.0
  0
LINE
  8
OBJECT
 10
30.397417
 20
4.964889
 30
0.0
 11
30.559364
 21
5.058389
 31
0.0
  0
LINE
  8
OBJECT
 10
31.101496
 20
4.621389
 30
0.0
 11
31.033946
 21
4.660389
 31
0.0
  0
LINE
  8
OBJECT
 10
31.101496
 20
4.621389
 30
0.0
 11
31.318002
 21
4.496389
 31
0.0
  0
LINE
  8
OBJECT
 10
30.77587
 20
4.933389
 30
0.0
 11
30.77587
 21
4.433389
 31
0.0
  0
LINE
  8
OBJECT
 10
31.033946
 20
4.769389
 30
0.0
 11
30.77587
 21
4.918389
 31
0.0
  0
LINE
  8
OBJECT
 10
31.318002
 20
5.496389
 30
0.0
 11
31.479949
 21
5.589889
 31
0.0
  0
LINE
  8
OBJECT
 10
31.479949
 20
5.589889
 30
0.0
 11
28.44886
 21
7.339889
 31
0.0
  0
LINE
  8
OBJECT
 10
30.478824
 20
5.089889
 30
0.0
 11
28.38131
 21
6.300889
 31
0.0
  0
LINE
  8
OBJECT
 10
31.344849
 20
5.589889
 30
0.0
 11
28.38131
 21
7.300889
 31
0.0
  0
POLYLINE
  8
OBJECT
 66
     1
 10
0.0
 20
0.0
 30
0.0
  0
VERTEX
  8
OBJECT
 10
27.582835
 20
7.089889
 30
0.0
 42
0.072341
 70
     2
 50
210.0
  0
VERTEX
  8
OBJECT
 10
27.543301
 20
7.058694
 30
0.0
 42
0.058752
 50
210.0
  0
VERTEX
  8
OBJECT
 10
27.506288
 20
7.009083
 30
0.0
 42
0.058752
  0
SEQEND
  8
OBJECT
  0
LINE
  8
OBJECT
 10
27.482866
 20
6.860172
 30
0.0
 11
27.678984
 21
6.9734
 31
0.0
  0
LINE
  8
OBJECT
 10
27.582835
 20
6.839889
 30
0.0
 11
27.758758
 21
6.941458
 31
0.0
  0
LINE
  8
OBJECT
 10
28.38131
 20
7.300889
 30
0.0
 11
28.38131
 21
6.300889
 31
0.0
  0
LINE
  8
OBJECT
 10
27.298778
 20
7.128889
 30
0.0
 11
27.298778
 21
5.378889
 31
0.0
  0
LINE
  8
OBJECT
 10
27.366328
 20
7.089889
 30
0.0
 11
27.366328
 21
6.714889
 31
0.0
  0
POLYLINE
  8
OBJECT
 66
     1
 10
0.0
 20
0.0
 30
0.0
  0
VERTEX
  8
OBJECT
 10
27.474581
 20
5.652389
 30
0.0
 42
0.106617
 70
     2
 50
270.0
  0
VERTEX
  8
OBJECT
 10
27.484512
 20
5.606346
 30
0.0
 42
0.156851
 50
270.0
  0
VERTEX
  8
OBJECT
 10
27.506288
 20
5.582306
 30
0.0
 42
0.156851
  0
VERTEX
  8
OBJECT
 10
27.537995
 20
5.575467
 30
0.0
 42
0.106617
  0
VERTEX
  8
OBJECT
 10
27.582835
 20
5.589889
 30
0.0
 42
0.072341
 70
     2
 50
30.0
  0
SEQEND
  8
OBJECT
  0
LINE
  8
OBJECT
 10
27.482866
 20
5.610172
 30
0.0
 11
27.515285
 21
5.628889
 31
0.0
  0
LINE
  8
OBJECT
 10
27.366328
 20
5.714889
 30
0.0
 11
27.366328
 21
5.339889
 31
0.0
  0
LINE
  8
OBJECT
 10
27.366328
 20
5.339889
 30
0.0
 11
27.298778
 21
5.378889
 31
0.0
  0
LINE
  8
OBJECT
 10
27.366328
 20
5.339889
 30
0.0
 11
27.691088
 21
5.527389
 31
0.0
  0
POLYLINE
  8
OBJECT
 66
     1
 10
0.0
 20
0.0
 30
0.0
  0
VERTEX
  8
OBJECT
 10
27.506288
 20
7.009083
 30
0.0
 42
0.058752
  0
VERTEX
  8
OBJECT
 10
27.48183
 20
6.952223
 30
0.0
 42
0.072341
  0
VERTEX
  8
OBJECT
 10
27.474581
 20
6.902389
 30
0.0
 42
0.106617
 70
     2
 50
270.0
  0
VERTEX
  8
OBJECT
 10
27.484512
 20
6.856346
 30
0.0
 42
0.156851
 50
270.0
  0
VERTEX
  8
OBJECT
 10
27.506288
 20
6.832306
 30
0.0
 42
0.156851
  0
VERTEX
  8
OBJECT
 10
27.537995
 20
6.825467
 30
0.0
 42
0.106617
  0
VERTEX
  8
OBJECT
 10
27.582835
 20
6.839889
 30
0.0
 42
0.072341
 70
     2
 50
30.0
  0
SEQEND
  8
OBJECT
  0
LINE
  8
OBJECT
 10
27.366328
 20
6.714889
 30
0.0
 11
27.433878
 21
6.753889
 31
0.0
  0
POLYLINE
  8
OBJECT
 66
     1
 10
0.0
 20
0.0
 30
0.0
  0
VERTEX
  8
OBJECT
 10
28.232354
 20
6.589889
 30
0.0
 42
0.072341
 70
     2
 50
30.0
  0
VERTEX
  8
OBJECT
 10
28.271888
 20
6.621083
 30
0.0
 42
0.058752
 50
30.0
  0
VERTEX
  8
OBJECT
 10
28.3089
 20
6.670694
 30
0.0
 42
0.058752
  0
VERTEX
  8
OBJECT
 10
28.333359
 20
6.727554
 30
0.0
 42
0.072341
  0
VERTEX
  8
OBJECT
 10
28.340607
 20
6.777389
 30
0.0
 42
0.106617
 70
     2
 50
90.0
  0
VERTEX
  8
OBJECT
 10
28.330676
 20
6.823432
 30
0.0
 42
0.156851
 50
90.0
  0
VERTEX
  8
OBJECT
 10
28.3089
 20
6.847471
 30
0.0
 42
0.156851
  0
VERTEX
  8
OBJECT
 10
28.277194
 20
6.85431
 30
0.0
 42
0.106617
  0
VERTEX
  8
OBJECT
 10
28.232354
 20
6.839889
 30
0.0
 42
0.072341
 70
     2
 50
210.0
  0
SEQEND
  8
OBJECT
  0
POLYLINE
  8
OBJECT
 66
     1
 10
0.0
 20
0.0
 30
0.0
  0
VERTEX
  8
OBJECT
 10
28.164804
 20
6.628889
 30
0.0
 42
0.072341
 70
     2
 50
30.0
  0
VERTEX
  8
OBJECT
 10
28.204338
 20
6.660083
 30
0.0
 42
0.058752
 50
30.0
  0
VERTEX
  8
OBJECT
 10
28.24135
 20
6.709694
 30
0.0
 42
0.058752
  0
VERTEX
  8
OBJECT
 10
28.265809
 20
6.766554
 30
0.0
 42
0.072341
  0
VERTEX
  8
OBJECT
 10
28.273057
 20
6.816389
 30
0.0
 42
0.083232
 70
     2
 50
90.0
  0
VERTEX
  8
OBJECT
 10
28.266951
 20
6.852813
 30
0.0
 42
0.156851
 50
90.0
  0
SEQEND
  8
OBJECT
  0
LINE
  8
OBJECT
 10
27.975144
 20
6.441389
 30
0.0
 11
28.232354
 21
6.589889
 31
0.0
  0
LINE
  8
OBJECT
 10
27.758638
 20
6.566389
 30
0.0
 11
28.232354
 21
6.839889
 31
0.0
  0
LINE
  8
OBJECT
 10
27.907594
 20
6.480389
 30
0.0
 11
28.164804
 21
6.628889
 31
0.0
  0
LINE
  8
OBJECT
 10
28.44886
 20
6.261889
 30
0.0
 11
28.44886
 21
6.167889
 31
0.0
  0
LINE
  8
OBJECT
 10
27.582835
 20
7.089889
 30
0.0
 11
27.649947
 21
7.128636
 31
0.0
  0
LINE
  8
OBJECT
 10
27.298778
 20
7.128889
 30
0.0
 11
28.38131
 21
7.753889
 31
0.0
  0
LINE
  8
OBJECT
 10
27.366328
 20
7.089889
 30
0.0
 11
27.715773
 21
7.29164
 31
0.0
  0
LINE
  8
OBJECT
 10
27.366328
 20
7.089889
 30
0.0
 11
27.298778
 21
7.128889
 31
0.0
  0
POLYLINE
  8
OBJECT
 66
     1
 10
0.0
 20
0.0
 30
0.0
  0
VERTEX
  8
OBJECT
 10
28.164804
 20
7.253889
 30
0.0
 42
0.072341
 70
     2
 50
30.0
  0
VERTEX
  8
OBJECT
 10
28.204338
 20
7.285083
 30
0.0
 42
0.058752
 50
30.0
  0
VERTEX
  8
OBJECT
 10
28.24135
 20
7.334694
 30
0.0
 42
0.058752
  0
VERTEX
  8
OBJECT
 10
28.265809
 20
7.391554
 30
0.0
 42
0.072341
  0
VERTEX
  8
OBJECT
 10
28.273057
 20
7.441389
 30
0.0
 42
0.083232
 70
     2
 50
90.0
  0
VERTEX
  8
OBJECT
 10
28.266951
 20
7.477813
 30
0.0
 42
0.156851
 50
90.0
  0
SEQEND
  8
OBJECT
  0
POLYLINE
  8
OBJECT
 66
     1
 10
0.0
 20
0.0
 30
0.0
  0
VERTEX
  8
OBJECT
 10
28.232354
 20
7.214889
 30
0.0
 42
0.072341
 70
     2
 50
30.0
  0
VERTEX
  8
OBJECT
 10
28.271888
 20
7.246083
 30
0.0
 42
0.058752
 50
30.0
  0
VERTEX
  8
OBJECT
 10
28.3089
 20
7.295694
 30
0.0
 42
0.058752
  0
VERTEX
  8
OBJECT
 10
28.333359
 20
7.352554
 30
0.0
 42
0.072341
  0
VERTEX
  8
OBJECT
 10
28.340607
 20
7.402389
 30
0.0
 42
0.106617
 70
     2
 50
90.0
  0
VERTEX
  8
OBJECT
 10
28.330676
 20
7.448432
 30
0.0
 42
0.156851
 50
90.0
  0
VERTEX
  8
OBJECT
 10
28.3089
 20
7.472471
 30
0.0
 42
0.156851
  0
VERTEX
  8
OBJECT
 10
28.277194
 20
7.47931
 30
0.0
 42
0.106617
  0
VERTEX
  8
OBJECT
 10
28.232354
 20
7.464889
 30
0.0
 42
0.072341
 70
     2
 50
210.0
  0
SEQEND
  8
OBJECT
  0
LINE
  8
OBJECT
 10
28.38131
 20
7.300889
 30
0.0
 11
28.44886
 21
7.339889
 31
0.0
  0
LINE
  8
OBJECT
 10
28.44886
 20
7.714889
 30
0.0
 11
28.38131
 21
7.753889
 31
0.0
  0
LINE
  8
OBJECT
 10
28.44886
 20
7.714889
 30
0.0
 11
28.44886
 21
7.339889
 31
0.0
  0
LINE
  8
OBJECT
 10
31.250452
 20
5.535389
 30
0.0
 11
31.344849
 21
5.589889
 31
0.0
  0
LINE
  8
OBJECT
 10
31.033946
 20
5.160389
 30
0.0
 11
31.250452
 21
5.535389
 31
0.0
  0
LINE
  8
OBJECT
 10
31.318002
 20
5.496389
 30
0.0
 11
31.250452
 21
5.535389
 31
0.0
  0
LINE
  8
OBJECT
 10
31.101496
 20
5.121389
 30
0.0
 11
31.033946
 21
5.160389
 31
0.0
  0
LINE
  8
OBJECT
 10
31.101496
 20
5.121389
 30
0.0
 11
31.318002
 21
5.496389
 31
0.0
  0
LINE
  8
OBJECT
 10
29.301029
 20
5.675889
 30
0.0
 11
29.382435
 21
5.722889
 31
0.0
  0
LINE
  8
OBJECT
 10
30.356281
 20
6.285139
 30
0.0
 11
30.708753
 21
6.488639
 31
0.0
  0
POLYLINE
  8
OBJECT
 66
     1
 10
0.0
 20
0.0
 30
0.0
 70
     1
  0
VERTEX
  8
OBJECT
 10
27.702873
 20
7.270585
 30
0.0
 42
0.058752
  0
VERTEX
  8
OBJECT
 10
27.659043
 20
7.168692
 30
0.0
 42
0.072341
  0
VERTEX
  8
OBJECT
 10
27.646054
 20
7.079389
 30
0.0
 42
0.106617
 70
     2
 50
270.0
  0
VERTEX
  8
OBJECT
 10
27.663851
 20
6.996879
 30
0.0
 42
0.156851
 50
270.0
  0
VERTEX
  8
OBJECT
 10
27.702873
 20
6.953801
 30
0.0
 42
0.156851
  0
VERTEX
  8
OBJECT
 10
27.759691
 20
6.941546
 30
0.0
 42
0.106617
  0
VERTEX
  8
OBJECT
 10
27.840044
 20
6.967389
 30
0.0
 42
0.072341
 70
     2
 50
30.0
  0
VERTEX
  8
OBJECT
 10
27.910889
 20
7.023289
 30
0.0
 42
0.058752
 50
30.0
  0
VERTEX
  8
OBJECT
 10
27.977216
 20
7.112193
 30
0.0
 42
0.058752
  0
VERTEX
  8
OBJECT
 10
28.021045
 20
7.214085
 30
0.0
 42
0.072341
  0
VERTEX
  8
OBJECT
 10
28.034034
 20
7.303389
 30
0.0
 42
0.106617
 70
     2
 50
90.0
  0
VERTEX
  8
OBJECT
 10
28.016238
 20
7.385898
 30
0.0
 42
0.156851
 50
90.0
  0
VERTEX
  8
OBJECT
 10
27.977216
 20
7.428977
 30
0.0
 42
0.156851
  0
VERTEX
  8
OBJECT
 10
27.920397
 20
7.441231
 30
0.0
 42
0.106617
  0
VERTEX
  8
OBJECT
 10
27.840044
 20
7.415389
 30
0.0
 42
0.072341
 70
     2
 50
210.0
  0
VERTEX
  8
OBJECT
 10
27.769199
 20
7.359488
 30
0.0
 42
0.058752
 50
210.0
  0
SEQEND
  8
OBJECT
  0
LINE
  8
OBJECT
 10
27.964358
 20
7.435161
 30
0.0
 11
28.44886
 21
7.714889
 31
0.0
  0
LINE
  8
OBJECT
 10
28.029103
 20
7.347542
 30
0.0
 11
28.232354
 21
7.464889
 31
0.0
  0
LINE
  8
OBJECT
 10
28.001033
 20
7.159335
 30
0.0
 11
28.164804
 21
7.253889
 31
0.0
  0
LINE
  8
OBJECT
 10
27.922488
 20
7.035988
 30
0.0
 11
28.232354
 21
7.214889
 31
0.0
  0
LINE
  8
OBJECT
 10
30.884989
 20
9.261889
 30
0.0
 11
30.884989
 21
9.886889
 31
0.0
  0
LINE
  8
OBJECT
 10
30.884989
 20
9.886889
 30
0.0
 11
32.075774
 21
9.199389
 31
0.0
  0
LINE
  8
OBJECT
 10
32.264568
 20
9.308389
 30
0.0
 11
31.073783
 21
9.995889
 31
0.0
  0
LINE
  8
OBJECT
 10
30.884989
 20
9.261889
 30
0.0
 11
32.075774
 21
8.574389
 31
0.0
  0
LINE
  8
OBJECT
 10
31.967521
 20
8.949389
 30
0.0
 11
32.075774
 21
8.574389
 31
0.0
  0
LINE
  8
OBJECT
 10
31.967521
 20
8.949389
 30
0.0
 11
32.156315
 21
9.058389
 31
0.0
  0
LINE
  8
OBJECT
 10
32.075774
 20
9.199389
 30
0.0
 11
31.967521
 21
8.949389
 31
0.0
  0
LINE
  8
OBJECT
 10
30.018964
 20
8.761889
 30
0.0
 11
31.209749
 21
8.074389
 31
0.0
  0
LINE
  8
OBJECT
 10
31.134232
 20
8.335989
 30
0.0
 11
30.207758
 21
8.870889
 31
0.0
  0
LINE
  8
OBJECT
 10
30.018964
 20
9.386889
 30
0.0
 11
31.209749
 21
8.699389
 31
0.0
  0
LINE
  8
OBJECT
 10
31.398543
 20
8.808389
 30
0.0
 11
30.207758
 21
9.495889
 31
0.0
  0
LINE
  8
OBJECT
 10
30.207758
 20
9.277889
 30
0.0
 11
30.207758
 21
8.870889
 31
0.0
  0
LINE
  8
OBJECT
 10
30.018964
 20
8.761889
 30
0.0
 11
30.018964
 21
9.386889
 31
0.0
  0
LINE
  8
OBJECT
 10
30.018964
 20
8.761889
 30
0.0
 11
30.207758
 21
8.870889
 31
0.0
  0
LINE
  8
OBJECT
 10
30.018964
 20
9.386889
 30
0.0
 11
30.207758
 21
9.495889
 31
0.0
  0
LINE
  8
OBJECT
 10
32.000257
 20
8.835989
 30
0.0
 11
31.073783
 21
9.370889
 31
0.0
  0
LINE
  8
OBJECT
 10
31.101496
 20
8.449389
 30
0.0
 11
31.290289
 21
8.558389
 31
0.0
  0
LINE
  8
OBJECT
 10
31.209749
 20
8.699389
 30
0.0
 11
31.398543
 21
8.808389
 31
0.0
  0
LINE
  8
OBJECT
 10
31.209749
 20
8.074389
 30
0.0
 11
31.398543
 21
8.183389
 31
0.0
  0
LINE
  8
OBJECT
 10
31.209749
 20
8.699389
 30
0.0
 11
31.101496
 21
8.449389
 31
0.0
  0
LINE
  8
OBJECT
 10
31.101496
 20
8.449389
 30
0.0
 11
31.209749
 21
8.074389
 31
0.0
  0
LINE
  8
OBJECT
 10
31.290289
 20
8.558389
 30
0.0
 11
31.398543
 21
8.808389
 31
0.0
  0
LINE
  8
OBJECT
 10
31.290289
 20
8.558389
 30
0.0
 11
31.398543
 21
8.183389
 31
0.0
  0
LINE
  8
OBJECT
 10
31.073783
 20
9.777889
 30
0.0
 11
31.073783
 21
9.370889
 31
0.0
  0
LINE
  8
OBJECT
 10
30.884989
 20
9.261889
 30
0.0
 11
31.073783
 21
9.370889
 31
0.0
  0
LINE
  8
OBJECT
 10
32.156315
 20
9.058389
 30
0.0
 11
32.264568
 21
8.683389
 31
0.0
  0
LINE
  8
OBJECT
 10
32.075774
 20
8.574389
 30
0.0
 11
32.264568
 21
8.683389
 31
0.0
  0
LINE
  8
OBJECT
 10
32.075774
 20
9.199389
 30
0.0
 11
32.264568
 21
9.308389
 31
0.0
  0
LINE
  8
OBJECT
 10
32.156315
 20
9.058389
 30
0.0
 11
32.264568
 21
9.308389
 31
0.0
  0
LINE
  8
OBJECT
 10
30.884989
 20
9.886889
 30
0.0
 11
31.073783
 21
9.995889
 31
0.0
  0
LINE
  8
OBJECT
 10
31.751015
 20
7.261889
 30
0.0
 11
31.751015
 21
7.886889
 31
0.0
  0
LINE
  8
OBJECT
 10
31.751015
 20
7.261889
 30
0.0
 11
31.939808
 21
7.370889
 31
0.0
  0
LINE
  8
OBJECT
 10
31.751015
 20
7.886889
 30
0.0
 11
32.9418
 21
7.199389
 31
0.0
  0
LINE
  8
OBJECT
 10
32.866282
 20
6.835989
 30
0.0
 11
31.939808
 21
7.370889
 31
0.0
  0
LINE
  8
OBJECT
 10
33.130593
 20
7.308389
 30
0.0
 11
31.939808
 21
7.995889
 31
0.0
  0
LINE
  8
OBJECT
 10
30.884989
 20
6.761889
 30
0.0
 11
30.884989
 21
7.386889
 31
0.0
  0
LINE
  8
OBJECT
 10
30.884989
 20
7.386889
 30
0.0
 11
32.075774
 21
6.699389
 31
0.0
  0
LINE
  8
OBJECT
 10
32.264568
 20
6.808389
 30
0.0
 11
31.073783
 21
7.495889
 31
0.0
  0
LINE
  8
OBJECT
 10
31.751015
 20
7.261889
 30
0.0
 11
32.9418
 21
6.574389
 31
0.0
  0
LINE
  8
OBJECT
 10
30.884989
 20
6.761889
 30
0.0
 11
32.075774
 21
6.074389
 31
0.0
  0
LINE
  8
OBJECT
 10
31.967521
 20
6.449389
 30
0.0
 11
32.075774
 21
6.074389
 31
0.0
  0
LINE
  8
OBJECT
 10
31.967521
 20
6.449389
 30
0.0
 11
32.156315
 21
6.558389
 31
0.0
  0
LINE
  8
OBJECT
 10
32.075774
 20
6.699389
 30
0.0
 11
31.967521
 21
6.449389
 31
0.0
  0
LINE
  8
OBJECT
 10
31.134232
 20
5.835989
 30
0.0
 11
30.207758
 21
6.370889
 31
0.0
  0
LINE
  8
OBJECT
 10
30.018964
 20
6.886889
 30
0.0
 11
31.209749
 21
6.199389
 31
0.0
  0
LINE
  8
OBJECT
 10
31.398543
 20
6.308389
 30
0.0
 11
30.207758
 21
6.995889
 31
0.0
  0
LINE
  8
OBJECT
 10
30.207758
 20
6.777889
 30
0.0
 11
30.207758
 21
6.370889
 31
0.0
  0
LINE
  8
OBJECT
 10
30.018964
 20
6.433389
 30
0.0
 11
30.018964
 21
6.886889
 31
0.0
  0
LINE
  8
OBJECT
 10
30.167487
 20
6.347639
 30
0.0
 11
30.207758
 21
6.370889
 31
0.0
  0
LINE
  8
OBJECT
 10
30.018964
 20
6.886889
 30
0.0
 11
30.207758
 21
6.995889
 31
0.0
  0
LINE
  8
OBJECT
 10
32.000257
 20
6.335989
 30
0.0
 11
31.073783
 21
6.870889
 31
0.0
  0
LINE
  8
OBJECT
 10
31.101496
 20
5.949389
 30
0.0
 11
31.290289
 21
6.058389
 31
0.0
  0
LINE
  8
OBJECT
 10
31.209749
 20
6.199389
 30
0.0
 11
31.398543
 21
6.308389
 31
0.0
  0
LINE
  8
OBJECT
 10
31.358272
 20
5.660139
 30
0.0
 11
31.398543
 21
5.683389
 31
0.0
  0
LINE
  8
OBJECT
 10
31.209749
 20
6.199389
 30
0.0
 11
31.101496
 21
5.949389
 31
0.0
  0
LINE
  8
OBJECT
 10
31.101496
 20
5.949389
 30
0.0
 11
31.15034
 21
5.780189
 31
0.0
  0
LINE
  8
OBJECT
 10
31.290289
 20
6.058389
 30
0.0
 11
31.398543
 21
6.308389
 31
0.0
  0
LINE
  8
OBJECT
 10
31.290289
 20
6.058389
 30
0.0
 11
31.398543
 21
5.683389
 31
0.0
  0
LINE
  8
OBJECT
 10
31.073783
 20
7.277889
 30
0.0
 11
31.073783
 21
6.870889
 31
0.0
  0
LINE
  8
OBJECT
 10
30.884989
 20
6.761889
 30
0.0
 11
31.073783
 21
6.870889
 31
0.0
  0
LINE
  8
OBJECT
 10
32.156315
 20
6.558389
 30
0.0
 11
32.264568
 21
6.183389
 31
0.0
  0
LINE
  8
OBJECT
 10
32.075774
 20
6.074389
 30
0.0
 11
32.264568
 21
6.183389
 31
0.0
  0
LINE
  8
OBJECT
 10
32.075774
 20
6.699389
 30
0.0
 11
32.264568
 21
6.808389
 31
0.0
  0
LINE
  8
OBJECT
 10
32.156315
 20
6.558389
 30
0.0
 11
32.264568
 21
6.808389
 31
0.0
  0
LINE
  8
OBJECT
 10
32.9418
 20
7.199389
 30
0.0
 11
33.130593
 21
7.308389
 31
0.0
  0
LINE
  8
OBJECT
 10
33.02234
 20
7.058389
 30
0.0
 11
33.130593
 21
7.308389
 31
0.0
  0
LINE
  8
OBJECT
 10
32.9418
 20
6.574389
 30
0.0
 11
33.130593
 21
6.683389
 31
0.0
  0
LINE
  8
OBJECT
 10
33.02234
 20
7.058389
 30
0.0
 11
33.130593
 21
6.683389
 31
0.0
  0
LINE
  8
OBJECT
 10
32.833547
 20
6.949389
 30
0.0
 11
32.9418
 21
6.574389
 31
0.0
  0
LINE
  8
OBJECT
 10
32.833547
 20
6.949389
 30
0.0
 11
33.02234
 21
7.058389
 31
0.0
  0
LINE
  8
OBJECT
 10
32.9418
 20
7.199389
 30
0.0
 11
32.833547
 21
6.949389
 31
0.0
  0
LINE
  8
OBJECT
 10
30.884989
 20
7.386889
 30
0.0
 11
31.073783
 21
7.495889
 31
0.0
  0
LINE
  8
OBJECT
 10
31.939808
 20
7.777889
 30
0.0
 11
31.939808
 21
7.370889
 31
0.0
  0
LINE
  8
OBJECT
 10
31.751015
 20
7.886889
 30
0.0
 11
31.939808
 21
7.995889
 31
0.0
  0
POLYLINE
  8
OBJECT
 66
     1
 10
0.0
 20
0.0
 30
0.0
  0
VERTEX
  8
OBJECT
 10
31.552359
 20
8.798083
 30
0.0
 42
0.058752
  0
VERTEX
  8
OBJECT
 10
31.5279
 20
8.741223
 30
0.0
 42
0.072341
  0
VERTEX
  8
OBJECT
 10
31.520652
 20
8.691389
 30
0.0
 42
0.106617
 70
     2
 50
270.0
  0
VERTEX
  8
OBJECT
 10
31.530583
 20
8.645346
 30
0.0
 42
0.156851
 50
270.0
  0
VERTEX
  8
OBJECT
 10
31.552359
 20
8.621306
 30
0.0
 42
0.156851
  0
VERTEX
  8
OBJECT
 10
31.584065
 20
8.614467
 30
0.0
 42
0.106617
  0
VERTEX
  8
OBJECT
 10
31.628905
 20
8.628889
 30
0.0
 42
0.072341
 70
     2
 50
30.0
  0
VERTEX
  8
OBJECT
 10
31.668439
 20
8.660083
 30
0.0
 42
0.058752
 50
30.0
  0
VERTEX
  8
OBJECT
 10
31.705452
 20
8.709694
 30
0.0
 42
0.058752
  0
VERTEX
  8
OBJECT
 10
31.72991
 20
8.766554
 30
0.0
 42
0.009615
  0
VERTEX
  8
OBJECT
 10
31.731702
 20
8.773039
 30
0.0
 42
0.106617
 70
     2
 50
90.0
  0
SEQEND
  8
OBJECT
  0
POLYLINE
  8
OBJECT
 66
     1
 10
0.0
 20
0.0
 30
0.0
  0
VERTEX
  8
OBJECT
 10
31.594091
 20
8.852489
 30
0.0
 42
0.009615
 70
     2
 50
210.0
  0
VERTEX
  8
OBJECT
 10
31.589371
 20
8.847694
 30
0.0
 42
0.058752
 50
210.0
  0
VERTEX
  8
OBJECT
 10
31.552359
 20
8.798083
 30
0.0
 42
0.058752
  0
SEQEND
  8
OBJECT
  0
POLYLINE
  8
OBJECT
 66
     1
 10
0.0
 20
0.0
 30
0.0
  0
VERTEX
  8
OBJECT
 10
31.530521
 20
8.645482
 30
0.0
 42
0.106277
  0
VERTEX
  8
OBJECT
 10
31.575212
 20
8.659889
 30
0.0
 42
0.072341
 70
     2
 50
30.0
  0
VERTEX
  8
OBJECT
 10
31.614746
 20
8.691083
 30
0.0
 42
0.058752
 50
30.0
  0
VERTEX
  8
OBJECT
 10
31.651758
 20
8.740694
 30
0.0
 42
0.058752
  0
VERTEX
  8
OBJECT
 10
31.676217
 20
8.797554
 30
0.0
 42
0.009615
  0
VERTEX
  8
OBJECT
 10
31.678009
 20
8.804039
 30
0.0
 42
0.106277
 70
     2
 50
90.0
  0
SEQEND
  8
OBJECT
  0
POLYLINE
  8
OBJECT
 66
     1
 10
0.0
 20
0.0
 30
0.0
  0
VERTEX
  8
OBJECT
 10
31.052825
 20
9.164989
 30
0.0
 42
0.009615
 70
     2
 50
210.0
  0
VERTEX
  8
OBJECT
 10
31.048105
 20
9.160194
 30
0.0
 42
0.058752
 50
210.0
  0
VERTEX
  8
OBJECT
 10
31.011093
 20
9.110583
 30
0.0
 42
0.058752
  0
SEQEND
  8
OBJECT
  0
POLYLINE
  8
OBJECT
 66
     1
 10
0.0
 20
0.0
 30
0.0
  0
VERTEX
  8
OBJECT
 10
31.011093
 20
9.110583
 30
0.0
 42
0.058752
  0
VERTEX
  8
OBJECT
 10
30.986634
 20
9.053723
 30
0.0
 42
0.009615
  0
VERTEX
  8
OBJECT
 10
30.984842
 20
9.047239
 30
0.0
 42
0.106617
 70
     2
 50
270.0
  0
SEQEND
  8
OBJECT
  0
POLYLINE
  8
OBJECT
 66
     1
 10
0.0
 20
0.0
 30
0.0
  0
VERTEX
  8
OBJECT
 10
31.122454
 20
8.967789
 30
0.0
 42
0.009615
 70
     2
 50
30.0
  0
VERTEX
  8
OBJECT
 10
31.127173
 20
8.972583
 30
0.0
 42
0.058752
 50
30.0
  0
VERTEX
  8
OBJECT
 10
31.164186
 20
9.022194
 30
0.0
 42
0.058752
  0
VERTEX
  8
OBJECT
 10
31.188644
 20
9.079054
 30
0.0
 42
0.009615
  0
VERTEX
  8
OBJECT
 10
31.190437
 20
9.085539
 30
0.0
 42
0.106617
 70
     2
 50
90.0
  0
SEQEND
  8
OBJECT
  0
POLYLINE
  8
OBJECT
 66
     1
 10
0.0
 20
0.0
 30
0.0
  0
VERTEX
  8
OBJECT
 10
31.06876
 20
8.998789
 30
0.0
 42
0.009615
 70
     2
 50
30.0
  0
VERTEX
  8
OBJECT
 10
31.07348
 20
9.003583
 30
0.0
 42
0.058752
 50
30.0
  0
VERTEX
  8
OBJECT
 10
31.110492
 20
9.053194
 30
0.0
 42
0.058752
  0
VERTEX
  8
OBJECT
 10
31.134951
 20
9.110054
 30
0.0
 42
0.009615
  0
VERTEX
  8
OBJECT
 10
31.136743
 20
9.116539
 30
0.0
 42
0.106277
 70
     2
 50
90.0
  0
SEQEND
  8
OBJECT
  0
LINE
  8
OBJECT
 10
30.897547
 20
6.597639
 30
0.0
 11
31.033513
 21
6.676139
 31
0.0
  0
LINE
  8
OBJECT
 10
32.088332
 20
7.285139
 30
0.0
 11
32.253099
 21
7.380267
 31
0.0
  0
LINE
  8
OBJECT
 10
31.763572
 20
7.097639
 30
0.0
 11
31.899538
 21
7.176139
 31
0.0
  0
LINE
  8
OBJECT
 10
31.222306
 20
6.785139
 30
0.0
 11
31.574779
 21
6.988639
 31
0.0
  0
POLYLINE
  8
OBJECT
 66
     1
 10
0.0
 20
0.0
 30
0.0
  0
VERTEX
  8
OBJECT
 10
32.106371
 20
7.681724
 30
0.0
  0
VERTEX
  8
OBJECT
 10
32.094359
 20
7.577663
 30
0.0
  0
VERTEX
  8
OBJECT
 10
32.253099
 20
7.380267
 30
0.0
  0
SEQEND
  8
OBJECT
  0
POLYLINE
  8
OBJECT
 66
     1
 10
0.0
 20
0.0
 30
0.0
  0
VERTEX
  8
OBJECT
 10
31.849923
 20
8.704784
 30
0.0
  0
VERTEX
  8
OBJECT
 10
31.911152
 20
8.30331
 30
0.0
  0
VERTEX
  8
OBJECT
 10
32.145019
 20
8.016565
 30
0.0
  0
VERTEX
  8
OBJECT
 10
32.129961
 20
7.886104
 30
0.0
  0
SEQEND
  8
OBJECT
  0
POLYLINE
  8
OBJECT
 66
     1
 10
0.0
 20
0.0
 30
0.0
  0
VERTEX
  8
OBJECT
 10
31.00114
 20
10.625448
 30
0.0
  0
VERTEX
  8
OBJECT
 10
31.216252
 20
10.464288
 30
0.0
  0
VERTEX
  8
OBJECT
 10
31.600491
 20
10.471484
 30
0.0
  0
VERTEX
  8
OBJECT
 10
31.689079
 20
10.008505
 30
0.0
  0
VERTEX
  8
OBJECT
 10
31.647155
 20
9.664852
 30
0.0
  0
SEQEND
  8
OBJECT
  0
POLYLINE
  8
OBJECT
 66
     1
 10
0.0
 20
0.0
 30
0.0
  0
VERTEX
  8
OBJECT
 10
31.622311
 20
9.461196
 30
0.0
  0
VERTEX
  8
OBJECT
 10
31.604645
 20
9.31639
 30
0.0
  0
VERTEX
  8
OBJECT
 10
31.760017
 20
8.974691
 30
0.0
  0
SEQEND
  8
OBJECT
  0
ENDSEC
  0
EOF
