  0
SECTION
  2
HEADER
  9
$ACADVER
  1
AC1009
  9
$INSBASE
 10
0.0
 20
0.0
 30
0.0
  9
$EXTMIN
 10
-0.0009264429855662
 20
-0.0014189591182117
 30
-0.0015258207003583
  9
$EXTMAX
 10
30.360926584360339
 20
46.501419175650739
 30
0.0000000349246037
  9
$LIMMIN
 10
0.0
 20
0.0
  9
$LIMMAX
 10
30.359999999999999
 20
46.5
  9
$ORTHOMODE
 70
     1
  9
$REGENMODE
 70
     1
  9
$FILLMODE
 70
     1
  9
$QTEXTMODE
 70
     0
  9
$MIRRTEXT
 70
     0
  9
$DRAGMODE
 70
     2
  9
$LTSCALE
 40
0.5
  9
$OSMODE
 70
    37
  9
$ATTMODE
 70
     1
  9
$TEXTSIZE
 40
0.375
  9
$TRACEWID
 40
0.05
  9
$TEXTSTYLE
  7
TXT
  9
$CLAYER
  8
OBJECT
  9
$CELTYPE
  6
BYLAYER
  9
$CECOLOR
 62
   256
  9
$DIMSCALE
 40
3.0
  9
$DIMASZ
 40
0.18
  9
$DIMEXO
 40
0.063
  9
$DIMDLI
 40
0.25
  9
$DIMRND
 40
0.0
  9
$DIMDLE
 40
0.0
  9
$DIMEXE
 40
0.093
  9
$DIMTP
 40
0.0
  9
$DIMTM
 40
0.0
  9
$DIMTXT
 40
0.125
  9
$DIMCEN
 40
0.09
  9
$DIMTSZ
 40
0.0
  9
$DIMTOL
 70
     0
  9
$DIMLIM
 70
     0
  9
$DIMTIH
 70
     1
  9
$DIMTOH
 70
     1
  9
$DIMSE1
 70
     0
  9
$DIMSE2
 70
     0
  9
$DIMTAD
 70
     0
  9
$DIMZIN
 70
     0
  9
$DIMBLK
  1

  9
$DIMASO
 70
     1
  9
$DIMSHO
 70
     1
  9
$DIMPOST
  1

  9
$DIMAPOST
  1
ction
  9
$DIMALT
 70
     0
  9
$DIMALTD
 70
     2
  9
$DIMALTF
 40
25.399999999999999
  9
$DIMLFAC
 40
1.0
  9
$DIMTOFL
 70
     0
  9
$DIMTVP
 40
0.0
  9
$DIMTIX
 70
     0
  9
$DIMSOXD
 70
     0
  9
$DIMSAH
 70
     0
  9
$DIMBLK1
  1

  9
$DIMBLK2
  1

  9
$DIMSTYLE
  2
23NSTD
  9
$DIMCLRD
 70
     0
  9
$DIMCLRE
 70
     0
  9
$DIMCLRT
 70
     0
  9
$DIMTFAC
 40
1.0
  9
$DIMGAP
 40
0.09
  9
$LUNITS
 70
     2
  9
$LUPREC
 70
     3
  9
$SKETCHINC
 40
0.1
  9
$FILLETRAD
 40
0.0
  9
$AUNITS
 70
     0
  9
$AUPREC
 70
     0
  9
$MENU
  1
acad
  9
$ELEVATION
 40
0.0
  9
$PELEVATION
 40
0.0
  9
$THICKNESS
 40
0.0
  9
$LIMCHECK
 70
     0
  9
$BLIPMODE
 70
     0
  9
$CHAMFERA
 40
0.0
  9
$CHAMFERB
 40
0.0
  9
$SKPOLY
 70
     0
  9
$TDCREATE
 40
2450718.338404513
  9
$TDUPDATE
 40
2451802.3679992929
  9
$TDINDWG
 40
0.4858611921
  9
$TDUSRTIMER
 40
0.4858611921
  9
$USRTIMER
 70
     1
  9
$ANGBASE
 50
0.0
  9
$ANGDIR
 70
     0
  9
$PDMODE
 70
     0
  9
$PDSIZE
 40
0.0
  9
$PLINEWID
 40
0.0
  9
$COORDS
 70
     0
  9
$SPLFRAME
 70
     0
  9
$SPLINETYPE
 70
     6
  9
$SPLINESEGS
 70
     8
  9
$ATTDIA
 70
     0
  9
$ATTREQ
 70
     1
  9
$HANDLING
 70
  4097
  9
$HANDSEED
  5
692
  9
$SURFTAB1
 70
     6
  9
$SURFTAB2
 70
     6
  9
$SURFTYPE
 70
     6
  9
$SURFU
 70
     6
  9
$SURFV
 70
     6
  9
$UCSNAME
  2

  9
$UCSORG
 10
0.0
 20
0.0
 30
0.0
  9
$UCSXDIR
 10
1.0
 20
0.0
 30
0.0
  9
$UCSYDIR
 10
0.0
 20
1.0
 30
0.0
  9
$PUCSNAME
  2

  9
$PUCSORG
 10
0.0
 20
0.0
 30
0.0
  9
$PUCSXDIR
 10
1.0
 20
0.0
 30
0.0
  9
$PUCSYDIR
 10
0.0
 20
1.0
 30
0.0
  9
$USERI1
 70
     0
  9
$USERI2
 70
     0
  9
$USERI3
 70
     0
  9
$USERI4
 70
     0
  9
$USERI5
 70
     0
  9
$USERR1
 40
0.0
  9
$USERR2
 40
0.0
  9
$USERR3
 40
0.0
  9
$USERR4
 40
0.0
  9
$USERR5
 40
0.0
  9
$WORLDVIEW
 70
     1
  9
$SHADEDGE
 70
     3
  9
$SHADEDIF
 70
    70
  9
$TILEMODE
 70
     1
  9
$MAXACTVP
 70
    16
  9
$PLIMCHECK
 70
     0
  9
$PEXTMIN
 10
1.0000000000000000E+020
 20
1.0000000000000000E+020
 30
1.0000000000000000E+020
  9
$PEXTMAX
 10
-1.0000000000000000E+020
 20
-1.0000000000000000E+020
 30
-1.0000000000000000E+020
  9
$PLIMMIN
 10
0.0
 20
0.0
  9
$PLIMMAX
 10
12.0
 20
9.0
  9
$UNITMODE
 70
     0
  9
$VISRETAIN
 70
     0
  9
$PLINEGEN
 70
     0
  9
$PSLTSCALE
 70
     1
  0
ENDSEC
  0
SECTION
  2
TABLES
  0
TABLE
  2
VPORT
 70
     2
  0
VPORT
  2
*ACTIVE
 70
     0
 10
0.0
 20
0.0
 11
1.0
 21
1.0
 12
15.180000070687379
 22
23.25000010826626
 13
0.0
 23
0.0
 14
0.0625
 24
0.0625
 15
0.25
 25
0.25
 16
0.0
 26
0.0
 36
1.0
 17
0.0
 27
0.0
 37
0.0
 40
47.026322241351721
 41
1.813909774436089
 42
50.0
 43
0.0
 44
0.0
 50
0.0
 51
0.0
 71
     0
 72
   100
 73
     1
 74
     0
 75
     0
 76
     0
 77
     0
 78
     0
  0
ENDTAB
  0
TABLE
  2
LTYPE
 70
     6
  0
LTYPE
  2
CONTINUOUS
 70
     0
  3
Solid line
 72
    65
 73
     0
 40
0.0
  0
LTYPE
  2
HIDDEN
 70
     0
  3
_ _ _ _ _ _ _ _ _ _ _ _ _ _ _ _ _ _ _ _ _ _ _
 72
    65
 73
     2
 40
0.375
 49
0.25
 49
-0.125
  0
LTYPE
  2
PHANTOM
 70
     0
  3
_____ _ _ _____ _ _ _____ _ _ _____ _ _ ____
 72
    65
 73
     6
 40
2.5
 49
1.25
 49
-0.25
 49
0.25
 49
-0.25
 49
0.25
 49
-0.25
  0
LTYPE
  2
CENTER
 70
     0
  3
____ _ ____ _ ____ _ ____ _ ____ _ ____ _ ____
 72
    65
 73
     4
 40
2.0
 49
1.25
 49
-0.25
 49
0.25
 49
-0.25
  0
LTYPE
  2
HIDDEN2
 70
     0
  3
_ _ _ _ _ _ _ _ _ _ _ _ _ _ _ _ _ _ _ _ _ _ _ _
 72
    65
 73
     2
 40
0.1875
 49
0.125
 49
-0.0625
  0
LTYPE
  2
PHANTOM2
 70
     0
  3
___ _ _ ___ _ _ ___ _ _ ___ _ _ ___ _ _ ___ _ _
 72
    65
 73
     6
 40
1.25
 49
0.625
 49
-0.125
 49
0.125
 49
-0.125
 49
0.125
 49
-0.125
  0
ENDTAB
  0
TABLE
  2
LAYER
 70
    11
  0
LAYER
  2
0
 70
     0
 62
     7
  6
CONTINUOUS
  0
LAYER
  2
OBJECT
 70
     0
 62
     7
  6
CONTINUOUS
  0
LAYER
  2
DIM
 70
     0
 62
     7
  6
CONTINUOUS
  0
LAYER
  2
HIDDEN
 70
     0
 62
     7
  6
HIDDEN2
  0
LAYER
  2
BEND
 70
     0
 62
     7
  6
PHANTOM2
  0
LAYER
  2
TEXT
 70
     0
 62
     7
  6
CONTINUOUS
  0
LAYER
  2
TITLE
 70
     0
 62
     7
  6
CONTINUOUS
  0
LAYER
  2
CENTER
 70
     0
 62
     7
  6
CENTER
  0
LAYER
  2
BRACKET
 70
     0
 62
     7
  6
CONTINUOUS
  0
LAYER
  2
STRAP
 70
     0
 62
     7
  6
CONTINUOUS
  0
LAYER
  2
DEFPOINTS
 70
     0
 62
     7
  6
CONTINUOUS
  0
ENDTAB
  0
TABLE
  2
STYLE
 70
     2
  0
STYLE
  2
STANDARD
 70
     0
 40
0.0
 41
1.0
 50
0.0
 71
     0
 42
0.2
  3
txt
  4

  0
STYLE
  2
TXT
 70
     0
 40
0.0
 41
0.75
 50
0.0
 71
     0
 42
0.375
  3
TXT.shx
  4

  0
ENDTAB
  0
TABLE
  2
VIEW
 70
     0
  0
ENDTAB
  0
TABLE
  2
UCS
 70
     0
  0
ENDTAB
  0
TABLE
  2
APPID
 70
     1
  0
APPID
  2
ACAD
 70
     0
  0
ENDTAB
  0
TABLE
  2
DIMSTYLE
 70
     2
  0
DIMSTYLE
  2
23NSTD
 70
     0
  3

  4
ction
  5

  6

  7

 40
3.0
 41
0.18
 42
0.063
 43
0.25
 44
0.093
 45
0.0
 46
0.0
 47
0.0
 48
0.0
140
0.125
141
0.09
142
0.0
143
25.399999999999999
144
1.0
145
0.0
146
1.0
147
0.09
 71
     0
 72
     0
 73
     1
 74
     1
 75
     0
 76
     0
 77
     0
 78
     0
170
     0
171
     2
172
     0
173
     0
174
     0
175
     0
176
     0
177
     0
178
     0
  0
DIMSTYLE
  2
23NSTDI
 70
     0
  3

  4
ction
  5

  6

  7

 40
3.0
 41
0.18
 42
0.063
 43
0.25
 44
0.093
 45
0.0
 46
0.0
 47
0.0
 48
0.0
140
0.125
141
0.09
142
0.0
143
25.399999999999999
144
1.0
145
0.0
146
1.0
147
0.09
 71
     0
 72
     0
 73
     1
 74
     1
 75
     0
 76
     0
 77
     0
 78
     0
170
     0
171
     2
172
     0
173
     0
174
     1
175
     0
176
     0
177
     0
178
     0
  0
ENDTAB
  0
ENDSEC
  0
SECTION
  2
BLOCKS
  0
BLOCK
  8
0
  2
$MODEL_SPACE
 70
     0
 10
0.0
 20
0.0
 30
0.0
  3
$MODEL_SPACE
  1

  0
ENDBLK
  5
20
  8
0
  0
BLOCK
 67
     1
  8
0
  2
$PAPER_SPACE
 70
     0
 10
0.0
 20
0.0
 30
0.0
  3
$PAPER_SPACE
  1

  0
ENDBLK
  5
1C
 67
     1
  8
0
  0
BLOCK
  8
0
  2
*D0
 70
     1
 10
0.0
 20
0.0
 30
0.0
  3
*D0
  1

  0
LINE
  5
38
  8
0
  6
BYBLOCK
 62
     0
 10
21.962173
 20
37.140937999999998
 30
0.0
 11
22.92367299999999
 21
37.140937999999998
 31
0.0
  0
LINE
  5
39
  8
0
  6
BYBLOCK
 62
     0
 10
21.962173
 20
40.140937999999998
 30
0.0
 11
22.92367299999999
 21
40.140937999999998
 31
0.0
  0
LINE
  5
3A
  8
0
  6
BYBLOCK
 62
     0
 10
22.644673000000001
 20
37.68093799999999
 30
0.0
 11
22.644673000000001
 21
38.183438000000002
 31
0.0
  0
LINE
  5
3B
  8
0
  6
BYBLOCK
 62
     0
 10
22.644673000000001
 20
39.600937999999999
 30
0.0
 11
22.644673000000001
 21
39.098438000000002
 31
0.0
  0
SOLID
  5
3C
  8
0
  6
BYBLOCK
 62
     0
 10
22.554673000000001
 20
37.68093799999999
 30
0.0
 11
22.734673000000001
 21
37.68093799999999
 31
0.0
 12
22.644673000000001
 22
37.140937999999998
 32
0.0
 13
22.644673000000001
 23
37.140937999999998
 33
0.0
  0
SOLID
  5
3D
  8
0
  6
BYBLOCK
 62
     0
 10
22.554673000000001
 20
39.600937999999999
 30
0.0
 11
22.734673000000001
 21
39.600937999999999
 31
0.0
 12
22.644673000000001
 22
40.140937999999998
 32
0.0
 13
22.644673000000001
 23
40.140937999999998
 33
0.0
  0
TEXT
  5
3E
  8
0
  6
BYBLOCK
 62
     0
 10
22.152485500000001
 20
38.453437999999998
 30
0.0
 40
0.375
  1
3.000
 41
0.75
 72
     1
 11
22.644673000000001
 21
38.640937999999998
 31
0.0
 73
     2
  0
POINT
  5
3F
  8
DEFPOINTS
  6
BYBLOCK
 62
     0
 10
21.773172999999989
 20
37.140937999999998
 30
0.0
  0
POINT
  5
40
  8
DEFPOINTS
  6
BYBLOCK
 62
     0
 10
21.773172999999989
 20
40.140937999999998
 30
0.0
  0
POINT
  5
41
  8
DEFPOINTS
  6
BYBLOCK
 62
     0
 10
22.644673000000001
 20
40.140937999999998
 30
0.0
  0
ENDBLK
  5
42
  8
0
  0
BLOCK
  8
0
  2
*D1
 70
     1
 10
0.0
 20
0.0
 30
0.0
  3
*D1
  1

  0
LINE
  5
45
  8
0
  6
BYBLOCK
 62
     0
 10
15.796844
 20
43.137379999999993
 30
0.0
 11
15.796844
 21
42.295337000000004
 31
0.0
  0
LINE
  5
46
  8
0
  6
BYBLOCK
 62
     0
 10
16.546844
 20
43.061880000000002
 30
0.0
 11
16.546844
 21
42.295337000000004
 31
0.0
  0
LINE
  5
47
  8
0
  6
BYBLOCK
 62
     0
 10
15.256843999999999
 20
42.574336999999993
 30
0.0
 11
14.716844
 21
42.574336999999993
 31
0.0
  0
LINE
  5
48
  8
0
  6
BYBLOCK
 62
     0
 10
17.086843999999999
 20
42.574336999999993
 30
0.0
 11
17.626843999999998
 21
42.574336999999993
 31
0.0
  0
SOLID
  5
49
  8
0
  6
BYBLOCK
 62
     0
 10
15.256843999999999
 20
42.664336999999989
 30
0.0
 11
15.256843999999999
 21
42.484336999999989
 31
0.0
 12
15.796844
 22
42.574336999999993
 32
0.0
 13
15.796844
 23
42.574336999999993
 33
0.0
  0
SOLID
  5
4A
  8
0
  6
BYBLOCK
 62
     0
 10
17.086843999999999
 20
42.664336999999989
 30
0.0
 11
17.086843999999999
 21
42.484336999999989
 31
0.0
 12
16.546844
 22
42.574336999999993
 32
0.0
 13
16.546844
 23
42.574336999999993
 33
0.0
  0
TEXT
  5
4B
  8
0
  6
BYBLOCK
 62
     0
 10
17.896844000000002
 20
42.386837
 30
0.0
 40
0.375
  1
0.750
 41
0.75
 72
     1
 11
18.412469000000002
 21
42.574336999999993
 31
0.0
 73
     2
  0
POINT
  5
4C
  8
DEFPOINTS
  6
BYBLOCK
 62
     0
 10
15.796844
 20
43.32638
 30
0.0
  0
POINT
  5
4D
  8
DEFPOINTS
  6
BYBLOCK
 62
     0
 10
16.546844
 20
43.250880000000002
 30
0.0
  0
POINT
  5
4E
  8
DEFPOINTS
  6
BYBLOCK
 62
     0
 10
16.546844
 20
42.574336999999993
 30
0.0
  0
ENDBLK
  5
4F
  8
0
  0
BLOCK
  8
0
  2
*D2
 70
     1
 10
0.0
 20
0.0
 30
0.0
  3
*D2
  1

  0
LINE
  5
52
  8
0
  6
BYBLOCK
 62
     0
 10
23.415306999999999
 20
4.873384999999999
 30
0.0
 11
23.415306999999999
 21
6.1499350000000002
 31
0.0
  0
LINE
  5
53
  8
0
  6
BYBLOCK
 62
     0
 10
26.415306999999999
 20
4.498384999999999
 30
0.0
 11
26.415306999999999
 21
6.1499350000000002
 31
0.0
  0
LINE
  5
54
  8
0
  6
BYBLOCK
 62
     0
 10
22.875306999999999
 20
5.8709350000000002
 30
0.0
 11
22.335307
 21
5.8709350000000002
 31
0.0
  0
LINE
  5
55
  8
0
  6
BYBLOCK
 62
     0
 10
26.955307000000001
 20
5.8709350000000002
 30
0.0
 11
27.495307
 21
5.8709350000000002
 31
0.0
  0
SOLID
  5
56
  8
0
  6
BYBLOCK
 62
     0
 10
22.875306999999999
 20
5.9609350000000001
 30
0.0
 11
22.875306999999999
 21
5.7809349999999986
 31
0.0
 12
23.415306999999999
 22
5.8709350000000002
 32
0.0
 13
23.415306999999999
 23
5.8709350000000002
 33
0.0
  0
SOLID
  5
57
  8
0
  6
BYBLOCK
 62
     0
 10
26.955307000000001
 20
5.9609350000000001
 30
0.0
 11
26.955307000000001
 21
5.7809349999999986
 31
0.0
 12
26.415306999999999
 22
5.8709350000000002
 32
0.0
 13
26.415306999999999
 23
5.8709350000000002
 33
0.0
  0
TEXT
  5
58
  8
0
  6
BYBLOCK
 62
     0
 10
28.702807
 20
5.6834350000000002
 30
0.0
 40
0.375
  1
 HOOK LENGTH
 41
0.75
 72
     1
 11
30.484056999999989
 21
5.8709350000000002
 31
0.0
 73
     2
  0
TEXT
  5
59
  8
0
  6
BYBLOCK
 62
     0
 10
27.765307499999999
 20
5.6834350000000002
 30
0.0
 40
0.375
  1
3.000
 41
0.75
 72
     1
 11
28.257494999999999
 21
5.8709350000000002
 31
0.0
 73
     2
  0
POINT
  5
5A
  8
DEFPOINTS
  6
BYBLOCK
 62
     0
 10
23.415306999999999
 20
4.6843849999999989
 30
0.0
  0
POINT
  5
5B
  8
DEFPOINTS
  6
BYBLOCK
 62
     0
 10
26.415306999999999
 20
4.3093849999999989
 30
0.0
  0
POINT
  5
5C
  8
DEFPOINTS
  6
BYBLOCK
 62
     0
 10
26.415306999999999
 20
5.8709350000000002
 30
0.0
  0
ENDBLK
  5
5D
  8
0
  0
BLOCK
  8
0
  2
*D3
 70
     1
 10
0.0
 20
0.0
 30
0.0
  3
*D3
  1

  0
LINE
  5
60
  8
0
  6
BYBLOCK
 62
     0
 10
24.617850000000001
 20
4.6843849999999989
 30
0.0
 11
24.464849999999998
 21
4.6843849999999989
 31
0.0
  0
LINE
  5
61
  8
0
  6
BYBLOCK
 62
     0
 10
24.617850000000001
 20
3.9343849999999989
 30
0.0
 11
24.464849999999998
 21
3.9343849999999989
 31
0.0
  0
LINE
  5
62
  8
0
  6
BYBLOCK
 62
     0
 10
24.743849999999991
 20
5.2243849999999989
 30
0.0
 11
24.743849999999991
 21
5.764384999999999
 31
0.0
  0
LINE
  5
63
  8
0
  6
BYBLOCK
 62
     0
 10
24.743849999999991
 20
3.3943849999999989
 30
0.0
 11
24.743849999999991
 21
2.8543849999999988
 31
0.0
  0
SOLID
  5
64
  8
0
  6
BYBLOCK
 62
     0
 10
24.653849999999991
 20
5.2243849999999989
 30
0.0
 11
24.833850000000002
 21
5.2243849999999989
 31
0.0
 12
24.743849999999991
 22
4.6843849999999989
 32
0.0
 13
24.743849999999991
 23
4.6843849999999989
 33
0.0
  0
SOLID
  5
65
  8
0
  6
BYBLOCK
 62
     0
 10
24.653849999999991
 20
3.3943849999999989
 30
0.0
 11
24.833850000000002
 21
3.3943849999999989
 31
0.0
 12
24.743849999999991
 22
3.9343849999999989
 32
0.0
 13
24.743849999999991
 23
3.9343849999999989
 33
0.0
  0
TEXT
  5
66
  8
0
  6
BYBLOCK
 62
     0
 10
24.228224999999998
 20
4.1218849999999989
 30
0.0
 40
0.375
  1
0.750
 41
0.75
 72
     1
 11
24.743849999999991
 21
4.3093849999999989
 31
0.0
 73
     2
  0
POINT
  5
67
  8
DEFPOINTS
  6
BYBLOCK
 62
     0
 10
24.806850000000001
 20
4.6843849999999989
 30
0.0
  0
POINT
  5
68
  8
DEFPOINTS
  6
BYBLOCK
 62
     0
 10
24.806850000000001
 20
3.9343849999999989
 30
0.0
  0
POINT
  5
69
  8
DEFPOINTS
  6
BYBLOCK
 62
     0
 10
24.743849999999991
 20
3.9343849999999989
 30
0.0
  0
ENDBLK
  5
6A
  8
0
  0
BLOCK
  8
0
  2
*D4
 70
     1
 10
0.0
 20
0.0
 30
0.0
  3
*D4
  1

  0
LINE
  5
6D
  8
0
  6
BYBLOCK
 62
     0
 10
15.540343999999999
 20
39.880004999999997
 30
0.0
 11
14.321239
 21
39.880004999999997
 31
0.0
  0
LINE
  5
6E
  8
0
  6
BYBLOCK
 62
     0
 10
15.044843999999991
 20
40.13000499999999
 30
0.0
 11
14.321239
 21
40.13000499999999
 31
0.0
  0
LINE
  5
6F
  8
0
  6
BYBLOCK
 62
     0
 10
14.600239
 20
39.340004999999991
 30
0.0
 11
14.600239
 21
38.800004999999992
 31
0.0
  0
LINE
  5
70
  8
0
  6
BYBLOCK
 62
     0
 10
14.600239
 20
40.670004999999989
 30
0.0
 11
14.600239
 21
41.210005000000002
 31
0.0
  0
LINE
  5
71
  8
0
  6
BYBLOCK
 62
     0
 10
14.600239
 20
41.210005000000002
 30
0.0
 11
15.140238999999999
 21
41.210005000000002
 31
0.0
  0
SOLID
  5
72
  8
0
  6
BYBLOCK
 62
     0
 10
14.510239
 20
39.340004999999991
 30
0.0
 11
14.690239
 21
39.340004999999991
 31
0.0
 12
14.600239
 22
39.880004999999997
 32
0.0
 13
14.600239
 23
39.880004999999997
 33
0.0
  0
SOLID
  5
73
  8
0
  6
BYBLOCK
 62
     0
 10
14.510239
 20
40.670004999999989
 30
0.0
 11
14.690239
 21
40.670004999999989
 31
0.0
 12
14.600239
 22
40.13000499999999
 32
0.0
 13
14.600239
 23
40.13000499999999
 33
0.0
  0
TEXT
  5
74
  8
0
  6
BYBLOCK
 62
     0
 10
15.410239000000001
 20
41.022504999999988
 30
0.0
 40
0.375
  1
0.250
 41
0.75
 72
     1
 11
15.925864000000001
 21
41.210005000000002
 31
0.0
 73
     2
  0
POINT
  5
75
  8
DEFPOINTS
  6
BYBLOCK
 62
     0
 10
15.729343999999999
 20
39.880004999999997
 30
0.0
  0
POINT
  5
76
  8
DEFPOINTS
  6
BYBLOCK
 62
     0
 10
15.233843999999999
 20
40.13000499999999
 30
0.0
  0
POINT
  5
77
  8
DEFPOINTS
  6
BYBLOCK
 62
     0
 10
14.600239
 20
40.13000499999999
 30
0.0
  0
ENDBLK
  5
78
  8
0
  0
BLOCK
  8
0
  2
*D5
 70
     1
 10
0.0
 20
0.0
 30
0.0
  3
*D5
  1

  0
LINE
  5
7B
  8
0
  6
BYBLOCK
 62
     0
 10
17.395754
 20
39.255004999999997
 30
0.0
 11
15.426648999999999
 21
39.255004999999997
 31
0.0
  0
LINE
  5
7C
  8
0
  6
BYBLOCK
 62
     0
 10
17.395754
 20
39.880004999999997
 30
0.0
 11
15.426648999999999
 21
39.880004999999997
 31
0.0
  0
LINE
  5
7D
  8
0
  6
BYBLOCK
 62
     0
 10
15.70564899999999
 20
38.715004999999991
 30
0.0
 11
15.70564899999999
 21
38.175004999999992
 31
0.0
  0
LINE
  5
7E
  8
0
  6
BYBLOCK
 62
     0
 10
15.70564899999999
 20
40.420004999999989
 30
0.0
 11
15.70564899999999
 21
40.960004999999988
 31
0.0
  0
SOLID
  5
7F
  8
0
  6
BYBLOCK
 62
     0
 10
15.615648999999999
 20
38.715004999999991
 30
0.0
 11
15.795648999999999
 21
38.715004999999991
 31
0.0
 12
15.70564899999999
 22
39.255004999999997
 32
0.0
 13
15.70564899999999
 23
39.255004999999997
 33
0.0
  0
SOLID
  5
80
  8
0
  6
BYBLOCK
 62
     0
 10
15.615648999999999
 20
40.420004999999989
 30
0.0
 11
15.795648999999999
 21
40.420004999999989
 31
0.0
 12
15.70564899999999
 22
39.880004999999997
 32
0.0
 13
15.70564899999999
 23
39.880004999999997
 33
0.0
  0
TEXT
  5
81
  8
0
  6
BYBLOCK
 62
     0
 10
15.166586499999999
 20
39.38000499999999
 30
0.0
 40
0.375
  1
0.625
 41
0.75
 72
     1
 11
15.70564899999999
 21
39.567504999999997
 31
0.0
 73
     2
  0
POINT
  5
82
  8
DEFPOINTS
  6
BYBLOCK
 62
     0
 10
17.584754
 20
39.255004999999997
 30
0.0
  0
POINT
  5
83
  8
DEFPOINTS
  6
BYBLOCK
 62
     0
 10
17.584754
 20
39.880004999999997
 30
0.0
  0
POINT
  5
84
  8
DEFPOINTS
  6
BYBLOCK
 62
     0
 10
15.70564899999999
 20
39.880004999999997
 30
0.0
  0
ENDBLK
  5
85
  8
0
  0
BLOCK
  8
0
  2
*D6
 70
     1
 10
0.0
 20
0.0
 30
0.0
  3
*D6
  1

  0
LINE
  5
88
  8
0
  6
BYBLOCK
 62
     0
 10
20.865943999999999
 20
36.951937999999998
 30
0.0
 11
20.865943999999999
 21
35.757938000000003
 31
0.0
  0
LINE
  5
89
  8
0
  6
BYBLOCK
 62
     0
 10
21.865943999999999
 20
36.951937999999998
 30
0.0
 11
21.865943999999999
 21
35.757938000000003
 31
0.0
  0
LINE
  5
8A
  8
0
  6
BYBLOCK
 62
     0
 10
20.325944
 20
36.036937999999999
 30
0.0
 11
19.785944000000001
 21
36.036937999999999
 31
0.0
  0
LINE
  5
8B
  8
0
  6
BYBLOCK
 62
     0
 10
22.405944000000002
 20
36.036937999999999
 30
0.0
 11
22.945944000000001
 21
36.036937999999999
 31
0.0
  0
SOLID
  5
8C
  8
0
  6
BYBLOCK
 62
     0
 10
20.325944
 20
36.126938000000003
 30
0.0
 11
20.325944
 21
35.946938000000003
 31
0.0
 12
20.865943999999999
 22
36.036937999999999
 32
0.0
 13
20.865943999999999
 23
36.036937999999999
 33
0.0
  0
SOLID
  5
8D
  8
0
  6
BYBLOCK
 62
     0
 10
22.405944000000002
 20
36.126938000000003
 30
0.0
 11
22.405944000000002
 21
35.946938000000003
 31
0.0
 12
21.865943999999999
 22
36.036937999999999
 32
0.0
 13
21.865943999999999
 23
36.036937999999999
 33
0.0
  0
TEXT
  5
8E
  8
0
  6
BYBLOCK
 62
     0
 10
23.215943499999991
 20
35.849437999999999
 30
0.0
 40
0.375
  1
1.000
 41
0.75
 72
     1
 11
23.661255999999991
 21
36.036937999999999
 31
0.0
 73
     2
  0
POINT
  5
8F
  8
DEFPOINTS
  6
BYBLOCK
 62
     0
 10
20.865943999999999
 20
37.140937999999998
 30
0.0
  0
POINT
  5
90
  8
DEFPOINTS
  6
BYBLOCK
 62
     0
 10
21.865943999999999
 20
37.140937999999998
 30
0.0
  0
POINT
  5
91
  8
DEFPOINTS
  6
BYBLOCK
 62
     0
 10
21.865943999999999
 20
36.036937999999999
 30
0.0
  0
ENDBLK
  5
92
  8
0
  0
BLOCK
  8
0
  2
*D7
 70
     1
 10
0.0
 20
0.0
 30
0.0
  3
*D7
  1

  0
LINE
  5
95
  8
0
  6
BYBLOCK
 62
     0
 10
18.402253999999989
 20
36.94100499999999
 30
0.0
 11
18.402253999999989
 21
36.204174000000002
 31
0.0
  0
LINE
  5
96
  8
0
  6
BYBLOCK
 62
     0
 10
16.902253999999999
 20
36.94100499999999
 30
0.0
 11
16.902253999999999
 21
36.204174000000002
 31
0.0
  0
LINE
  5
97
  8
0
  6
BYBLOCK
 62
     0
 10
18.942253999999998
 20
36.483173999999991
 30
0.0
 11
19.482254000000001
 21
36.483173999999991
 31
0.0
  0
LINE
  5
98
  8
0
  6
BYBLOCK
 62
     0
 10
16.362254
 20
36.483173999999991
 30
0.0
 11
15.822253999999999
 21
36.483173999999991
 31
0.0
  0
SOLID
  5
99
  8
0
  6
BYBLOCK
 62
     0
 10
18.942253999999998
 20
36.573174000000002
 30
0.0
 11
18.942253999999998
 21
36.393174000000002
 31
0.0
 12
18.402253999999989
 22
36.483173999999991
 32
0.0
 13
18.402253999999989
 23
36.483173999999991
 33
0.0
  0
SOLID
  5
9A
  8
0
  6
BYBLOCK
 62
     0
 10
16.362254
 20
36.573174000000002
 30
0.0
 11
16.362254
 21
36.393174000000002
 31
0.0
 12
16.902253999999999
 22
36.483173999999991
 32
0.0
 13
16.902253999999999
 23
36.483173999999991
 33
0.0
  0
TEXT
  5
9B
  8
0
  6
BYBLOCK
 62
     0
 10
17.183503999999999
 20
36.295673999999991
 30
0.0
 40
0.375
  1
1.500
 41
0.75
 72
     1
 11
17.652253999999999
 21
36.483173999999991
 31
0.0
 73
     2
  0
POINT
  5
9C
  8
DEFPOINTS
  6
BYBLOCK
 62
     0
 10
18.402253999999989
 20
37.13000499999999
 30
0.0
  0
POINT
  5
9D
  8
DEFPOINTS
  6
BYBLOCK
 62
     0
 10
16.902253999999999
 20
37.13000499999999
 30
0.0
  0
POINT
  5
9E
  8
DEFPOINTS
  6
BYBLOCK
 62
     0
 10
16.902253999999999
 20
36.483173999999991
 30
0.0
  0
ENDBLK
  5
9F
  8
0
  0
BLOCK
  8
0
  2
*D8
 70
     1
 10
0.0
 20
0.0
 30
0.0
  3
*D8
  1

  0
LINE
  5
A2
  8
0
  6
BYBLOCK
 62
     0
 10
17.395754
 20
38.630004999999997
 30
0.0
 11
14.397648999999999
 21
38.630004999999997
 31
0.0
  0
LINE
  5
A3
  8
0
  6
BYBLOCK
 62
     0
 10
17.395754
 20
39.255004999999997
 30
0.0
 11
14.397648999999999
 21
39.255004999999997
 31
0.0
  0
LINE
  5
A4
  8
0
  6
BYBLOCK
 62
     0
 10
14.676648999999991
 20
38.090004999999991
 30
0.0
 11
14.676648999999991
 21
37.550004999999992
 31
0.0
  0
LINE
  5
A5
  8
0
  6
BYBLOCK
 62
     0
 10
14.676648999999991
 20
39.795004999999989
 30
0.0
 11
14.676648999999991
 21
40.335004999999988
 31
0.0
  0
SOLID
  5
A6
  8
0
  6
BYBLOCK
 62
     0
 10
14.586649
 20
38.090004999999991
 30
0.0
 11
14.766648999999999
 21
38.090004999999991
 31
0.0
 12
14.676648999999991
 22
38.630004999999997
 32
0.0
 13
14.676648999999991
 23
38.630004999999997
 33
0.0
  0
SOLID
  5
A7
  8
0
  6
BYBLOCK
 62
     0
 10
14.586649
 20
39.795004999999989
 30
0.0
 11
14.766648999999999
 21
39.795004999999989
 31
0.0
 12
14.676648999999991
 22
39.255004999999997
 32
0.0
 13
14.676648999999991
 23
39.255004999999997
 33
0.0
  0
TEXT
  5
A8
  8
0
  6
BYBLOCK
 62
     0
 10
14.137586499999999
 20
38.75500499999999
 30
0.0
 40
0.375
  1
0.625
 41
0.75
 72
     1
 11
14.676648999999991
 21
38.942504999999997
 31
0.0
 73
     2
  0
POINT
  5
A9
  8
DEFPOINTS
  6
BYBLOCK
 62
     0
 10
17.584754
 20
38.630004999999997
 30
0.0
  0
POINT
  5
AA
  8
DEFPOINTS
  6
BYBLOCK
 62
     0
 10
17.584754
 20
39.255004999999997
 30
0.0
  0
POINT
  5
AB
  8
DEFPOINTS
  6
BYBLOCK
 62
     0
 10
14.676648999999991
 20
39.255004999999997
 30
0.0
  0
ENDBLK
  5
AC
  8
0
  0
BLOCK
  8
0
  2
*D9
 70
     1
 10
0.0
 20
0.0
 30
0.0
  3
*D9
  1

  0
LINE
  5
AF
  8
0
  6
BYBLOCK
 62
     0
 10
17.908753999999998
 20
37.380004999999997
 30
0.0
 11
20.635406
 21
37.380004999999997
 31
0.0
  0
LINE
  5
B0
  8
0
  6
BYBLOCK
 62
     0
 10
17.908753999999998
 20
38.005004999999997
 30
0.0
 11
20.635406
 21
38.005004999999997
 31
0.0
  0
LINE
  5
B1
  8
0
  6
BYBLOCK
 62
     0
 10
20.356406
 20
36.840004999999991
 30
0.0
 11
20.356406
 21
36.300004999999992
 31
0.0
  0
LINE
  5
B2
  8
0
  6
BYBLOCK
 62
     0
 10
20.356406
 20
38.545004999999989
 30
0.0
 11
20.356406
 21
39.085004999999988
 31
0.0
  0
SOLID
  5
B3
  8
0
  6
BYBLOCK
 62
     0
 10
20.266405999999989
 20
36.840004999999991
 30
0.0
 11
20.446406
 21
36.840004999999991
 31
0.0
 12
20.356406
 22
37.380004999999997
 32
0.0
 13
20.356406
 23
37.380004999999997
 33
0.0
  0
SOLID
  5
B4
  8
0
  6
BYBLOCK
 62
     0
 10
20.266405999999989
 20
38.545004999999989
 30
0.0
 11
20.446406
 21
38.545004999999989
 31
0.0
 12
20.356406
 22
38.005004999999997
 32
0.0
 13
20.356406
 23
38.005004999999997
 33
0.0
  0
TEXT
  5
B5
  8
0
  6
BYBLOCK
 62
     0
 10
19.817343499999989
 20
37.50500499999999
 30
0.0
 40
0.375
  1
0.625
 41
0.75
 72
     1
 11
20.356406
 21
37.692504999999997
 31
0.0
 73
     2
  0
POINT
  5
B6
  8
DEFPOINTS
  6
BYBLOCK
 62
     0
 10
17.719753999999998
 20
37.380004999999997
 30
0.0
  0
POINT
  5
B7
  8
DEFPOINTS
  6
BYBLOCK
 62
     0
 10
17.719753999999998
 20
38.005004999999997
 30
0.0
  0
POINT
  5
B8
  8
DEFPOINTS
  6
BYBLOCK
 62
     0
 10
20.356406
 20
38.005004999999997
 30
0.0
  0
ENDBLK
  5
B9
  8
0
  0
BLOCK
  8
0
  2
*D10
 70
     1
 10
0.0
 20
0.0
 30
0.0
  3
*D10
  1

  0
LINE
  5
BC
  8
0
  6
BYBLOCK
 62
     0
 10
17.908753999999998
 20
38.005004999999997
 30
0.0
 11
19.606405999999989
 21
38.005004999999997
 31
0.0
  0
LINE
  5
BD
  8
0
  6
BYBLOCK
 62
     0
 10
17.908753999999998
 20
38.630004999999997
 30
0.0
 11
19.606405999999989
 21
38.630004999999997
 31
0.0
  0
LINE
  5
BE
  8
0
  6
BYBLOCK
 62
     0
 10
19.327405999999989
 20
37.465004999999991
 30
0.0
 11
19.327405999999989
 21
36.925004999999992
 31
0.0
  0
LINE
  5
BF
  8
0
  6
BYBLOCK
 62
     0
 10
19.327405999999989
 20
39.170004999999989
 30
0.0
 11
19.327405999999989
 21
39.710004999999988
 31
0.0
  0
SOLID
  5
C0
  8
0
  6
BYBLOCK
 62
     0
 10
19.237406
 20
37.465004999999991
 30
0.0
 11
19.417406
 21
37.465004999999991
 31
0.0
 12
19.327405999999989
 22
38.005004999999997
 32
0.0
 13
19.327405999999989
 23
38.005004999999997
 33
0.0
  0
SOLID
  5
C1
  8
0
  6
BYBLOCK
 62
     0
 10
19.237406
 20
39.170004999999989
 30
0.0
 11
19.417406
 21
39.170004999999989
 31
0.0
 12
19.327405999999989
 22
38.630004999999997
 32
0.0
 13
19.327405999999989
 23
38.630004999999997
 33
0.0
  0
TEXT
  5
C2
  8
0
  6
BYBLOCK
 62
     0
 10
18.788343499999989
 20
38.13000499999999
 30
0.0
 40
0.375
  1
0.625
 41
0.75
 72
     1
 11
19.327405999999989
 21
38.317504999999997
 31
0.0
 73
     2
  0
POINT
  5
C3
  8
DEFPOINTS
  6
BYBLOCK
 62
     0
 10
17.719753999999998
 20
38.005004999999997
 30
0.0
  0
POINT
  5
C4
  8
DEFPOINTS
  6
BYBLOCK
 62
     0
 10
17.719753999999998
 20
38.630004999999997
 30
0.0
  0
POINT
  5
C5
  8
DEFPOINTS
  6
BYBLOCK
 62
     0
 10
19.327405999999989
 20
38.630004999999997
 30
0.0
  0
ENDBLK
  5
C6
  8
0
  0
BLOCK
  8
0
  2
*D11
 70
     1
 10
0.0
 20
0.0
 30
0.0
  3
*D11
  1

  0
LINE
  5
C9
  8
0
  6
BYBLOCK
 62
     0
 10
22.104664
 20
41.99454999999999
 30
0.0
 11
21.00756899999999
 21
41.99454999999999
 31
0.0
  0
LINE
  5
CA
  8
0
  6
BYBLOCK
 62
     0
 10
22.600163999999999
 20
42.324550000000002
 30
0.0
 11
21.00756899999999
 21
42.324550000000002
 31
0.0
  0
LINE
  5
CB
  8
0
  6
BYBLOCK
 62
     0
 10
21.286569
 20
41.454549999999998
 30
0.0
 11
21.286569
 21
40.914549999999991
 31
0.0
  0
LINE
  5
CC
  8
0
  6
BYBLOCK
 62
     0
 10
21.286569
 20
42.864550000000001
 30
0.0
 11
21.286569
 21
43.40455
 31
0.0
  0
LINE
  5
CD
  8
0
  6
BYBLOCK
 62
     0
 10
21.286569
 20
43.40455
 30
0.0
 11
21.826568999999999
 21
43.40455
 31
0.0
  0
SOLID
  5
CE
  8
0
  6
BYBLOCK
 62
     0
 10
21.196569
 20
41.454549999999998
 30
0.0
 11
21.376569
 21
41.454549999999998
 31
0.0
 12
21.286569
 22
41.99454999999999
 32
0.0
 13
21.286569
 23
41.99454999999999
 33
0.0
  0
SOLID
  5
CF
  8
0
  6
BYBLOCK
 62
     0
 10
21.196569
 20
42.864550000000001
 30
0.0
 11
21.376569
 21
42.864550000000001
 31
0.0
 12
21.286569
 22
42.324550000000002
 32
0.0
 13
21.286569
 23
42.324550000000002
 33
0.0
  0
TEXT
  5
D0
  8
0
  6
BYBLOCK
 62
     0
 10
22.096568999999999
 20
43.21705
 30
0.0
 40
0.375
  1
0.330
 41
0.75
 72
     1
 11
22.612193999999992
 21
43.40455
 31
0.0
 73
     2
  0
POINT
  5
D1
  8
DEFPOINTS
  6
BYBLOCK
 62
     0
 10
22.293663999999989
 20
41.99454999999999
 30
0.0
  0
POINT
  5
D2
  8
DEFPOINTS
  6
BYBLOCK
 62
     0
 10
22.789164
 20
42.324550000000002
 30
0.0
  0
POINT
  5
D3
  8
DEFPOINTS
  6
BYBLOCK
 62
     0
 10
21.286569
 20
42.324550000000002
 30
0.0
  0
ENDBLK
  5
D4
  8
0
  0
BLOCK
  8
0
  2
*D12
 70
     1
 10
0.0
 20
0.0
 30
0.0
  3
*D12
  1

  0
LINE
  5
D7
  8
0
  6
BYBLOCK
 62
     0
 10
5.8101500000000001
 20
13.233772999999999
 30
0.0
 11
4.6941499999999987
 21
13.233772999999999
 31
0.0
  0
LINE
  5
D8
  8
0
  6
BYBLOCK
 62
     0
 10
5.8101500000000001
 20
12.233772999999999
 30
0.0
 11
4.6941499999999987
 21
12.233772999999999
 31
0.0
  0
LINE
  5
D9
  8
0
  6
BYBLOCK
 62
     0
 10
4.9731500000000004
 20
13.773773
 30
0.0
 11
4.9731500000000004
 21
14.313772999999999
 31
0.0
  0
LINE
  5
DA
  8
0
  6
BYBLOCK
 62
     0
 10
4.9731500000000004
 20
11.693773
 30
0.0
 11
4.9731500000000004
 21
11.153772999999999
 31
0.0
  0
SOLID
  5
DB
  8
0
  6
BYBLOCK
 62
     0
 10
4.8831499999999988
 20
13.773773
 30
0.0
 11
5.0631500000000003
 21
13.773773
 31
0.0
 12
4.9731500000000004
 22
13.233772999999999
 32
0.0
 13
4.9731500000000004
 23
13.233772999999999
 33
0.0
  0
SOLID
  5
DC
  8
0
  6
BYBLOCK
 62
     0
 10
4.8831499999999988
 20
11.693773
 30
0.0
 11
5.0631500000000003
 21
11.693773
 31
0.0
 12
4.9731500000000004
 22
12.233772999999999
 32
0.0
 13
4.9731500000000004
 23
12.233772999999999
 33
0.0
  0
TEXT
  5
DD
  8
0
  6
BYBLOCK
 62
     0
 10
4.5278375000000004
 20
12.546272999999999
 30
0.0
 40
0.375
  1
1.000
 41
0.75
 72
     1
 11
4.9731500000000004
 21
12.73377299999999
 31
0.0
 73
     2
  0
POINT
  5
DE
  8
DEFPOINTS
  6
BYBLOCK
 62
     0
 10
5.9991500000000002
 20
13.233772999999999
 30
0.0
  0
POINT
  5
DF
  8
DEFPOINTS
  6
BYBLOCK
 62
     0
 10
5.9991500000000002
 20
12.233772999999999
 30
0.0
  0
POINT
  5
E0
  8
DEFPOINTS
  6
BYBLOCK
 62
     0
 10
4.9731500000000004
 20
12.233772999999999
 30
0.0
  0
ENDBLK
  5
E1
  8
0
  0
BLOCK
  8
0
  2
*D13
 70
     1
 10
0.0
 20
0.0
 30
0.0
  3
*D13
  1

  0
LINE
  5
E4
  8
0
  6
BYBLOCK
 62
     0
 10
5.9991500000000002
 20
13.422772999999999
 30
0.0
 11
5.9991500000000002
 21
14.259772999999999
 31
0.0
  0
LINE
  5
E5
  8
0
  6
BYBLOCK
 62
     0
 10
17.99915
 20
13.422772999999999
 30
0.0
 11
17.99915
 21
14.259772999999999
 31
0.0
  0
LINE
  5
E6
  8
0
  6
BYBLOCK
 62
     0
 10
6.5391500000000002
 20
13.980772999999999
 30
0.0
 11
11.143212
 21
13.980772999999999
 31
0.0
  0
LINE
  5
E7
  8
0
  6
BYBLOCK
 62
     0
 10
17.459150000000001
 20
13.980772999999999
 30
0.0
 11
12.855086999999999
 21
13.980772999999999
 31
0.0
  0
SOLID
  5
E8
  8
0
  6
BYBLOCK
 62
     0
 10
6.5391500000000002
 20
14.070773000000001
 30
0.0
 11
6.5391500000000002
 21
13.890772999999999
 31
0.0
 12
5.9991500000000002
 22
13.980772999999999
 32
0.0
 13
5.9991500000000002
 23
13.980772999999999
 33
0.0
  0
SOLID
  5
E9
  8
0
  6
BYBLOCK
 62
     0
 10
17.459150000000001
 20
14.070773000000001
 30
0.0
 11
17.459150000000001
 21
13.890772999999999
 31
0.0
 12
17.99915
 22
13.980772999999999
 32
0.0
 13
17.99915
 23
13.980772999999999
 33
0.0
  0
TEXT
  5
EA
  8
0
  6
BYBLOCK
 62
     0
 10
11.4132125
 20
13.793272999999999
 30
0.0
 40
0.375
  1
12.000
 41
0.75
 72
     1
 11
11.99915
 21
13.980772999999999
 31
0.0
 73
     2
  0
POINT
  5
EB
  8
DEFPOINTS
  6
BYBLOCK
 62
     0
 10
5.9991500000000002
 20
13.233772999999999
 30
0.0
  0
POINT
  5
EC
  8
DEFPOINTS
  6
BYBLOCK
 62
     0
 10
17.99915
 20
13.233772999999999
 30
0.0
  0
POINT
  5
ED
  8
DEFPOINTS
  6
BYBLOCK
 62
     0
 10
17.99915
 20
13.980772999999999
 30
0.0
  0
ENDBLK
  5
EE
  8
0
  0
BLOCK
  8
0
  2
*D14
 70
     1
 10
0.0
 20
0.0
 30
0.0
  3
*D14
  1

  0
LINE
  5
F1
  8
0
  6
BYBLOCK
 62
     0
 10
5.9991500000000002
 20
23.734773000000001
 30
0.0
 11
5.9991500000000002
 21
24.571773
 31
0.0
  0
LINE
  5
F2
  8
0
  6
BYBLOCK
 62
     0
 10
13.99915
 20
23.734773000000001
 30
0.0
 11
13.99915
 21
24.571773
 31
0.0
  0
LINE
  5
F3
  8
0
  6
BYBLOCK
 62
     0
 10
6.5391500000000002
 20
24.292773
 30
0.0
 11
9.2369620000000001
 21
24.292773
 31
0.0
  0
LINE
  5
F4
  8
0
  6
BYBLOCK
 62
     0
 10
13.45914999999999
 20
24.292773
 30
0.0
 11
10.76133699999999
 21
24.292773
 31
0.0
  0
SOLID
  5
F5
  8
0
  6
BYBLOCK
 62
     0
 10
6.5391500000000002
 20
24.382773
 30
0.0
 11
6.5391500000000002
 21
24.202773000000001
 31
0.0
 12
5.9991500000000002
 22
24.292773
 32
0.0
 13
5.9991500000000002
 23
24.292773
 33
0.0
  0
SOLID
  5
F6
  8
0
  6
BYBLOCK
 62
     0
 10
13.45914999999999
 20
24.382773
 30
0.0
 11
13.45914999999999
 21
24.202773000000001
 31
0.0
 12
13.99915
 22
24.292773
 32
0.0
 13
13.99915
 23
24.292773
 33
0.0
  0
TEXT
  5
F7
  8
0
  6
BYBLOCK
 62
     0
 10
9.5069625000000002
 20
24.105273
 30
0.0
 40
0.375
  1
8.000
 41
0.75
 72
     1
 11
9.9991500000000002
 21
24.292773
 31
0.0
 73
     2
  0
POINT
  5
F8
  8
DEFPOINTS
  6
BYBLOCK
 62
     0
 10
5.9991500000000002
 20
23.545773000000001
 30
0.0
  0
POINT
  5
F9
  8
DEFPOINTS
  6
BYBLOCK
 62
     0
 10
13.99915
 20
23.545773000000001
 30
0.0
  0
POINT
  5
FA
  8
DEFPOINTS
  6
BYBLOCK
 62
     0
 10
13.99915
 20
24.292773
 30
0.0
  0
ENDBLK
  5
FB
  8
0
  0
BLOCK
  8
0
  2
*D15
 70
     1
 10
0.0
 20
0.0
 30
0.0
  3
*D15
  1

  0
LINE
  5
FE
  8
0
  6
BYBLOCK
 62
     0
 10
5.9991500000000002
 20
2.8931409999999991
 30
0.0
 11
5.9991500000000002
 21
4.1696919999999986
 31
0.0
  0
LINE
  5
FF
  8
0
  6
BYBLOCK
 62
     0
 10
20.99915
 20
2.8931409999999991
 30
0.0
 11
20.99915
 21
4.1696919999999986
 31
0.0
  0
LINE
  5
100
  8
0
  6
BYBLOCK
 62
     0
 10
6.5391500000000002
 20
3.8906919999999992
 30
0.0
 11
10.955711999999989
 21
3.8906919999999992
 31
0.0
  0
LINE
  5
101
  8
0
  6
BYBLOCK
 62
     0
 10
20.459150000000001
 20
3.8906919999999992
 30
0.0
 11
16.042587000000001
 21
3.8906919999999992
 31
0.0
  0
SOLID
  5
102
  8
0
  6
BYBLOCK
 62
     0
 10
6.5391500000000002
 20
3.980691999999999
 30
0.0
 11
6.5391500000000002
 21
3.8006919999999988
 31
0.0
 12
5.9991500000000002
 22
3.8906919999999992
 32
0.0
 13
5.9991500000000002
 23
3.8906919999999992
 33
0.0
  0
SOLID
  5
103
  8
0
  6
BYBLOCK
 62
     0
 10
20.459150000000001
 20
3.980691999999999
 30
0.0
 11
20.459150000000001
 21
3.8006919999999988
 31
0.0
 12
20.99915
 22
3.8906919999999992
 32
0.0
 13
20.99915
 23
3.8906919999999992
 33
0.0
  0
TEXT
  5
104
  8
0
  6
BYBLOCK
 62
     0
 10
12.350712
 20
3.703192
 30
0.0
 40
0.375
  1
 LOOP LENGTH
 41
0.75
 72
     1
 11
14.131961999999991
 21
3.8906919999999992
 31
0.0
 73
     2
  0
TEXT
  5
105
  8
0
  6
BYBLOCK
 62
     0
 10
11.2257125
 20
3.703192
 30
0.0
 40
0.375
  1
15.000
 41
0.75
 72
     1
 11
11.81165
 21
3.8906919999999992
 31
0.0
 73
     2
  0
POINT
  5
106
  8
DEFPOINTS
  6
BYBLOCK
 62
     0
 10
5.9991500000000002
 20
2.704140999999999
 30
0.0
  0
POINT
  5
107
  8
DEFPOINTS
  6
BYBLOCK
 62
     0
 10
20.99915
 20
2.704140999999999
 30
0.0
  0
POINT
  5
108
  8
DEFPOINTS
  6
BYBLOCK
 62
     0
 10
20.99915
 20
3.8906919999999992
 30
0.0
  0
ENDBLK
  5
109
  8
0
  0
BLOCK
  8
0
  2
*D16
 70
     1
 10
0.0
 20
0.0
 30
0.0
  3
*D16
  1

  0
LINE
  5
10C
  8
0
  6
BYBLOCK
 62
     0
 10
5.4991500000000002
 20
2.8931409999999991
 30
0.0
 11
5.4991500000000002
 21
4.9196919999999986
 31
0.0
  0
LINE
  5
10D
  8
0
  6
BYBLOCK
 62
     0
 10
23.99915
 20
2.5181409999999991
 30
0.0
 11
23.99915
 21
4.9196919999999986
 31
0.0
  0
LINE
  5
10E
  8
0
  6
BYBLOCK
 62
     0
 10
6.0391500000000002
 20
4.6406919999999987
 30
0.0
 11
13.869775000000001
 21
4.6406919999999987
 31
0.0
  0
LINE
  5
10F
  8
0
  6
BYBLOCK
 62
     0
 10
23.459150000000001
 20
4.6406919999999987
 30
0.0
 11
15.628524999999989
 21
4.6406919999999987
 31
0.0
  0
SOLID
  5
110
  8
0
  6
BYBLOCK
 62
     0
 10
6.0391500000000002
 20
4.7306919999999986
 30
0.0
 11
6.0391500000000002
 21
4.5506919999999988
 31
0.0
 12
5.4991500000000002
 22
4.6406919999999987
 32
0.0
 13
5.4991500000000002
 23
4.6406919999999987
 33
0.0
  0
SOLID
  5
111
  8
0
  6
BYBLOCK
 62
     0
 10
23.459150000000001
 20
4.7306919999999986
 30
0.0
 11
23.459150000000001
 21
4.5506919999999988
 31
0.0
 12
23.99915
 22
4.6406919999999987
 32
0.0
 13
23.99915
 23
4.6406919999999987
 33
0.0
  0
TEXT
  5
112
  8
0
  6
BYBLOCK
 62
     0
 10
14.139775
 20
4.4531919999999987
 30
0.0
 40
0.375
  1
18.500
 41
0.75
 72
     1
 11
14.74915
 21
4.6406919999999987
 31
0.0
 73
     2
  0
POINT
  5
113
  8
DEFPOINTS
  6
BYBLOCK
 62
     0
 10
5.4991500000000002
 20
2.704140999999999
 30
0.0
  0
POINT
  5
114
  8
DEFPOINTS
  6
BYBLOCK
 62
     0
 10
23.99915
 20
2.329140999999999
 30
0.0
  0
POINT
  5
115
  8
DEFPOINTS
  6
BYBLOCK
 62
     0
 10
23.99915
 20
4.6406919999999987
 30
0.0
  0
ENDBLK
  5
116
  8
0
  0
BLOCK
  8
0
  2
*D17
 70
     1
 10
0.0
 20
0.0
 30
0.0
  3
*D17
  1

  0
LINE
  5
49A
  8
DIM
 62
     0
 10
27.760314999999999
 20
36.071609000000002
 30
0.0
 11
28.721814999999999
 21
36.071609000000002
 31
0.0
  0
LINE
  5
49B
  8
DIM
 62
     0
 10
27.760314999999999
 20
39.071609000000002
 30
0.0
 11
28.721814999999999
 21
39.071609000000002
 31
0.0
  0
LINE
  5
49C
  8
DIM
 62
     0
 10
28.442815
 20
36.611609000000001
 30
0.0
 11
28.442815
 21
37.114108999999999
 31
0.0
  0
LINE
  5
49D
  8
DIM
 62
     0
 10
28.442815
 20
38.531609000000003
 30
0.0
 11
28.442815
 21
38.029108999999998
 31
0.0
  0
SOLID
  5
49E
  8
DIM
 62
     0
 10
28.352815
 20
36.611609000000001
 30
0.0
 11
28.532814999999999
 21
36.611609000000001
 31
0.0
 12
28.442815
 22
36.071609000000002
 32
0.0
 13
28.442815
 23
36.071609000000002
 33
0.0
  0
SOLID
  5
49F
  8
DIM
 62
     0
 10
28.352815
 20
38.531609000000003
 30
0.0
 11
28.532814999999999
 21
38.531609000000003
 31
0.0
 12
28.442815
 22
39.071609000000002
 32
0.0
 13
28.442815
 23
39.071609000000002
 33
0.0
  0
TEXT
  5
4A0
  8
OBJECT
 62
     0
 10
27.9506275
 20
37.384109000000009
 30
0.0
 40
0.375
  1
3.000
 41
0.75
  7
TXT
  0
POINT
  5
4A1
  8
DEFPOINTS
 62
     0
 10
27.571314999999998
 20
36.071609000000002
 30
0.0
  0
POINT
  5
4A2
  8
DEFPOINTS
 62
     0
 10
27.571314999999998
 20
39.071609000000002
 30
0.0
  0
POINT
  5
4A3
  8
DEFPOINTS
 62
     0
 10
28.442815
 20
39.071609000000002
 30
0.0
  0
ENDBLK
  5
12E
  8
0
  0
BLOCK
  8
0
  2
*D18
 70
     1
 10
0.0
 20
0.0
 30
0.0
  3
*D18
  1

  0
LINE
  5
4A4
  8
DIM
 62
     0
 10
26.571314999999998
 20
35.882609000000002
 30
0.0
 11
26.571314999999998
 21
34.688609
 31
0.0
  0
LINE
  5
4A5
  8
DIM
 62
     0
 10
27.571314999999998
 20
35.882609000000002
 30
0.0
 11
27.571314999999998
 21
34.688609
 31
0.0
  0
LINE
  5
4A6
  8
DIM
 62
     0
 10
26.031314999999999
 20
34.967609000000003
 30
0.0
 11
25.491315
 21
34.967609000000003
 31
0.0
  0
LINE
  5
4A7
  8
DIM
 62
     0
 10
28.111315000000001
 20
34.967609000000003
 30
0.0
 11
28.651315
 21
34.967609000000003
 31
0.0
  0
SOLID
  5
4A8
  8
DIM
 62
     0
 10
26.031314999999999
 20
35.057608999999999
 30
0.0
 11
26.031314999999999
 21
34.877609
 31
0.0
 12
26.571314999999998
 22
34.967609000000003
 32
0.0
 13
26.571314999999998
 23
34.967609000000003
 33
0.0
  0
SOLID
  5
4A9
  8
DIM
 62
     0
 10
28.111315000000001
 20
35.057608999999999
 30
0.0
 11
28.111315000000001
 21
34.877609
 31
0.0
 12
27.571314999999998
 22
34.967609000000003
 32
0.0
 13
27.571314999999998
 23
34.967609000000003
 33
0.0
  0
TEXT
  5
4AA
  8
OBJECT
 62
     0
 10
28.921315
 20
34.780109000000003
 30
0.0
 40
0.375
  1
1.000
 41
0.75
  7
TXT
  0
POINT
  5
4AB
  8
DEFPOINTS
 62
     0
 10
26.571314999999998
 20
36.071609000000002
 30
0.0
  0
POINT
  5
4AC
  8
DEFPOINTS
 62
     0
 10
27.571314999999998
 20
36.071609000000002
 30
0.0
  0
POINT
  5
4AD
  8
DEFPOINTS
 62
     0
 10
27.571314999999998
 20
34.967609000000003
 30
0.0
  0
ENDBLK
  5
13C
  8
0
  0
BLOCK
  8
0
  2
*D19
 70
     1
 10
0.0
 20
0.0
 30
0.0
  3
*D19
  1

  0
LINE
  5
50A
  8
DIM
 62
     0
 10
22.600163999999999
 20
37.560676000000001
 30
0.0
 11
19.602060000000002
 21
37.560676000000001
 31
0.0
  0
LINE
  5
50B
  8
DIM
 62
     0
 10
22.600163999999999
 20
38.185676000000001
 30
0.0
 11
19.602060000000002
 21
38.185676000000001
 31
0.0
  0
LINE
  5
50C
  8
DIM
 62
     0
 10
19.881060000000002
 20
37.020676000000002
 30
0.0
 11
19.881060000000002
 21
36.480676000000003
 31
0.0
  0
LINE
  5
50D
  8
DIM
 62
     0
 10
19.881060000000002
 20
38.725675999999993
 30
0.0
 11
19.881060000000002
 21
39.265675999999999
 31
0.0
  0
SOLID
  5
50E
  8
DIM
 62
     0
 10
19.791060000000002
 20
37.020676000000002
 30
0.0
 11
19.971060000000001
 21
37.020676000000002
 31
0.0
 12
19.881060000000002
 22
37.560676000000001
 32
0.0
 13
19.881060000000002
 23
37.560676000000001
 33
0.0
  0
SOLID
  5
50F
  8
DIM
 62
     0
 10
19.791060000000002
 20
38.725675999999993
 30
0.0
 11
19.971060000000001
 21
38.725675999999993
 31
0.0
 12
19.881060000000002
 22
38.185676000000001
 32
0.0
 13
19.881060000000002
 23
38.185676000000001
 33
0.0
  0
TEXT
  5
510
  8
OBJECT
 62
     0
 10
19.341997499999991
 20
37.685676000000001
 30
0.0
 40
0.375
  1
0.625
 41
0.75
  7
TXT
  0
POINT
  5
511
  8
DEFPOINTS
 62
     0
 10
22.789164
 20
37.560676000000001
 30
0.0
  0
POINT
  5
512
  8
DEFPOINTS
 62
     0
 10
22.789164
 20
38.185676000000001
 30
0.0
  0
POINT
  5
513
  8
DEFPOINTS
 62
     0
 10
19.881060000000002
 20
38.185676000000001
 30
0.0
  0
ENDBLK
  5
18C
  8
0
  0
BLOCK
  8
0
  2
*D20
 70
     1
 10
0.0
 20
0.0
 30
0.0
  3
*D20
  1

  0
LINE
  5
514
  8
DIM
 62
     0
 10
22.600163999999999
 20
38.185676000000001
 30
0.0
 11
20.631060000000002
 21
38.185676000000001
 31
0.0
  0
LINE
  5
515
  8
DIM
 62
     0
 10
22.600163999999999
 20
38.810676000000001
 30
0.0
 11
20.631060000000002
 21
38.810676000000001
 31
0.0
  0
LINE
  5
516
  8
DIM
 62
     0
 10
20.910060000000001
 20
37.645676000000002
 30
0.0
 11
20.910060000000001
 21
37.105676000000003
 31
0.0
  0
LINE
  5
517
  8
DIM
 62
     0
 10
20.910060000000001
 20
39.350675999999993
 30
0.0
 11
20.910060000000001
 21
39.890675999999999
 31
0.0
  0
SOLID
  5
518
  8
DIM
 62
     0
 10
20.820060000000002
 20
37.645676000000002
 30
0.0
 11
21.000060000000001
 21
37.645676000000002
 31
0.0
 12
20.910060000000001
 22
38.185676000000001
 32
0.0
 13
20.910060000000001
 23
38.185676000000001
 33
0.0
  0
SOLID
  5
519
  8
DIM
 62
     0
 10
20.820060000000002
 20
39.350675999999993
 30
0.0
 11
21.000060000000001
 21
39.350675999999993
 31
0.0
 12
20.910060000000001
 22
38.810676000000001
 32
0.0
 13
20.910060000000001
 23
38.810676000000001
 33
0.0
  0
TEXT
  5
51A
  8
OBJECT
 62
     0
 10
20.370997499999991
 20
38.310676000000001
 30
0.0
 40
0.375
  1
0.625
 41
0.75
  7
TXT
  0
POINT
  5
51B
  8
DEFPOINTS
 62
     0
 10
22.789164
 20
38.185676000000001
 30
0.0
  0
POINT
  5
51C
  8
DEFPOINTS
 62
     0
 10
22.789164
 20
38.810676000000001
 30
0.0
  0
POINT
  5
51D
  8
DEFPOINTS
 62
     0
 10
20.910060000000001
 20
38.810676000000001
 30
0.0
  0
ENDBLK
  5
19A
  8
0
  0
BLOCK
  8
0
  2
*D21
 70
     1
 10
0.0
 20
0.0
 30
0.0
  3
*D21
  1

  0
LINE
  5
4AE
  8
DIM
 62
     0
 10
22.600163999999999
 20
38.810676000000001
 30
0.0
 11
21.381060000000002
 21
38.810676000000001
 31
0.0
  0
LINE
  5
4AF
  8
DIM
 62
     0
 10
22.104664
 20
39.060676000000001
 30
0.0
 11
21.381060000000002
 21
39.060676000000001
 31
0.0
  0
LINE
  5
4B0
  8
DIM
 62
     0
 10
21.660060000000001
 20
38.270676000000002
 30
0.0
 11
21.660060000000001
 21
37.730676000000003
 31
0.0
  0
LINE
  5
4B1
  8
DIM
 62
     0
 10
21.660060000000001
 20
39.600676
 30
0.0
 11
21.660060000000001
 21
40.140675999999992
 31
0.0
  0
LINE
  5
4B2
  8
DIM
 62
     0
 10
21.660060000000001
 20
40.140675999999992
 30
0.0
 11
22.200060000000001
 21
40.140675999999992
 31
0.0
  0
SOLID
  5
4B3
  8
DIM
 62
     0
 10
21.570060000000002
 20
38.270676000000002
 30
0.0
 11
21.750060000000001
 21
38.270676000000002
 31
0.0
 12
21.660060000000001
 22
38.810676000000001
 32
0.0
 13
21.660060000000001
 23
38.810676000000001
 33
0.0
  0
SOLID
  5
4B4
  8
DIM
 62
     0
 10
21.570060000000002
 20
39.600676
 30
0.0
 11
21.750060000000001
 21
39.600676
 31
0.0
 12
21.660060000000001
 22
39.060676000000001
 32
0.0
 13
21.660060000000001
 23
39.060676000000001
 33
0.0
  0
TEXT
  5
4B5
  8
OBJECT
 62
     0
 10
22.470059999999989
 20
39.953175999999999
 30
0.0
 40
0.375
  1
0.250
 41
0.75
  7
TXT
  0
POINT
  5
4B6
  8
DEFPOINTS
 62
     0
 10
22.789164
 20
38.810676000000001
 30
0.0
  0
POINT
  5
4B7
  8
DEFPOINTS
 62
     0
 10
22.293663999999989
 20
39.060676000000001
 30
0.0
  0
POINT
  5
4B8
  8
DEFPOINTS
 62
     0
 10
21.660060000000001
 20
39.060676000000001
 30
0.0
  0
ENDBLK
  5
1A8
  8
0
  0
BLOCK
  8
0
  2
*D22
 70
     1
 10
0.0
 20
0.0
 30
0.0
  3
*D22
  1

  0
LINE
  5
4B9
  8
DIM
 62
     0
 10
22.856663999999999
 20
42.068049999999999
 30
0.0
 11
22.856663999999999
 21
41.226008
 31
0.0
  0
LINE
  5
4BA
  8
DIM
 62
     0
 10
23.606663999999999
 20
41.992549999999987
 30
0.0
 11
23.606663999999999
 21
41.226007999999993
 31
0.0
  0
LINE
  5
4BB
  8
DIM
 62
     0
 10
22.316663999999999
 20
41.505007999999997
 30
0.0
 11
21.776664
 21
41.505007999999997
 31
0.0
  0
LINE
  5
4BC
  8
DIM
 62
     0
 10
24.146664000000001
 20
41.505007999999997
 30
0.0
 11
24.686664
 21
41.505007999999997
 31
0.0
  0
SOLID
  5
4BD
  8
DIM
 62
     0
 10
22.316663999999999
 20
41.595008
 30
0.0
 11
22.316663999999999
 21
41.415008
 31
0.0
 12
22.856663999999999
 22
41.505007999999997
 32
0.0
 13
22.856663999999999
 23
41.505007999999997
 33
0.0
  0
SOLID
  5
4BE
  8
DIM
 62
     0
 10
24.146664000000001
 20
41.595008
 30
0.0
 11
24.146664000000001
 21
41.415008
 31
0.0
 12
23.606663999999999
 22
41.505007999999997
 32
0.0
 13
23.606663999999999
 23
41.505007999999997
 33
0.0
  0
TEXT
  5
4BF
  8
OBJECT
 62
     0
 10
24.956664
 20
41.317507999999997
 30
0.0
 40
0.375
  1
0.750
 41
0.75
  7
TXT
  0
POINT
  5
4C0
  8
DEFPOINTS
 62
     0
 10
22.856663999999999
 20
42.25705
 30
0.0
  0
POINT
  5
4C1
  8
DEFPOINTS
 62
     0
 10
23.606663999999999
 20
42.181550000000001
 30
0.0
  0
POINT
  5
4C2
  8
DEFPOINTS
 62
     0
 10
23.606663999999999
 20
41.505007999999997
 30
0.0
  0
ENDBLK
  5
1C9
  8
0
  0
BLOCK
  8
0
  2
*D23
 70
     1
 10
0.0
 20
0.0
 30
0.0
  3
*D23
  1

  0
LINE
  5
51E
  8
DIM
 62
     0
 10
23.606663999999999
 20
35.871676000000001
 30
0.0
 11
23.606663999999999
 21
35.134843999999987
 31
0.0
  0
LINE
  5
51F
  8
DIM
 62
     0
 10
22.106663999999999
 20
35.871676000000001
 30
0.0
 11
22.106663999999999
 21
35.134843999999987
 31
0.0
  0
LINE
  5
520
  8
DIM
 62
     0
 10
24.146664000000001
 20
35.413843999999997
 30
0.0
 11
24.686664
 21
35.413843999999997
 31
0.0
  0
LINE
  5
521
  8
DIM
 62
     0
 10
21.566663999999999
 20
35.413843999999997
 30
0.0
 11
21.026664
 21
35.413843999999997
 31
0.0
  0
SOLID
  5
522
  8
DIM
 62
     0
 10
24.146664000000001
 20
35.503844000000001
 30
0.0
 11
24.146664000000001
 21
35.323843999999987
 31
0.0
 12
23.606663999999999
 22
35.413843999999997
 32
0.0
 13
23.606663999999999
 23
35.413843999999997
 33
0.0
  0
SOLID
  5
523
  8
DIM
 62
     0
 10
21.566663999999999
 20
35.503844000000001
 30
0.0
 11
21.566663999999999
 21
35.323843999999987
 31
0.0
 12
22.106663999999999
 22
35.413843999999997
 32
0.0
 13
22.106663999999999
 23
35.413843999999997
 33
0.0
  0
TEXT
  5
524
  8
OBJECT
 62
     0
 10
22.387913999999999
 20
35.22634399999999
 30
0.0
 40
0.375
  1
1.500
 41
0.75
  7
TXT
  0
POINT
  5
525
  8
DEFPOINTS
 62
     0
 10
23.606663999999999
 20
36.060676000000001
 30
0.0
  0
POINT
  5
526
  8
DEFPOINTS
 62
     0
 10
22.106663999999999
 20
36.060676000000001
 30
0.0
  0
POINT
  5
527
  8
DEFPOINTS
 62
     0
 10
22.106663999999999
 20
35.413843999999997
 30
0.0
  0
ENDBLK
  5
1D7
  8
0
  0
BLOCK
  8
0
  2
*D24
 70
     1
 10
0.0
 20
0.0
 30
0.0
  3
*D24
  1

  0
LINE
  5
4C3
  8
DIM
 62
     0
 10
22.104664
 20
41.99454999999999
 30
0.0
 11
21.00756899999999
 21
41.99454999999999
 31
0.0
  0
LINE
  5
4C4
  8
DIM
 62
     0
 10
22.600163999999999
 20
42.324550000000002
 30
0.0
 11
21.00756899999999
 21
42.324550000000002
 31
0.0
  0
LINE
  5
4C5
  8
DIM
 62
     0
 10
21.286569
 20
41.454549999999998
 30
0.0
 11
21.286569
 21
40.914549999999991
 31
0.0
  0
LINE
  5
4C6
  8
DIM
 62
     0
 10
21.286569
 20
42.864550000000001
 30
0.0
 11
21.286569
 21
43.40455
 31
0.0
  0
LINE
  5
4C7
  8
DIM
 62
     0
 10
21.286569
 20
43.40455
 30
0.0
 11
21.826568999999999
 21
43.40455
 31
0.0
  0
SOLID
  5
4C8
  8
DIM
 62
     0
 10
21.196569
 20
41.454549999999998
 30
0.0
 11
21.376569
 21
41.454549999999998
 31
0.0
 12
21.286569
 22
41.99454999999999
 32
0.0
 13
21.286569
 23
41.99454999999999
 33
0.0
  0
SOLID
  5
4C9
  8
DIM
 62
     0
 10
21.196569
 20
42.864550000000001
 30
0.0
 11
21.376569
 21
42.864550000000001
 31
0.0
 12
21.286569
 22
42.324550000000002
 32
0.0
 13
21.286569
 23
42.324550000000002
 33
0.0
  0
TEXT
  5
4CA
  8
OBJECT
 62
     0
 10
22.096568999999992
 20
43.21705
 30
0.0
 40
0.375
  1
0.330
 41
0.75
  7
TXT
  0
POINT
  5
4CB
  8
DEFPOINTS
 62
     0
 10
22.293663999999989
 20
41.99454999999999
 30
0.0
  0
POINT
  5
4CC
  8
DEFPOINTS
 62
     0
 10
22.789164
 20
42.324550000000002
 30
0.0
  0
POINT
  5
4CD
  8
DEFPOINTS
 62
     0
 10
21.286569
 20
42.324550000000002
 30
0.0
  0
ENDBLK
  5
1E5
  8
0
  0
BLOCK
  8
0
  2
*D25
 70
     1
 10
0.0
 20
0.0
 30
0.0
  3
*D25
  1

  0
LINE
  5
4CE
  8
DIM
 62
     0
 10
5.9991500000000002
 20
13.422772999999999
 30
0.0
 11
5.9991500000000002
 21
14.259772999999999
 31
0.0
  0
LINE
  5
4CF
  8
DIM
 62
     0
 10
17.99915
 20
13.422772999999999
 30
0.0
 11
17.99915
 21
14.259772999999999
 31
0.0
  0
LINE
  5
4D0
  8
DIM
 62
     0
 10
6.5391500000000002
 20
13.980772999999999
 30
0.0
 11
11.143212500000001
 21
13.980772999999999
 31
0.0
  0
LINE
  5
4D1
  8
DIM
 62
     0
 10
17.459150000000001
 20
13.980772999999999
 30
0.0
 11
12.855087499999989
 21
13.980772999999999
 31
0.0
  0
SOLID
  5
4D2
  8
DIM
 62
     0
 10
6.5391500000000002
 20
14.070773000000001
 30
0.0
 11
6.5391500000000002
 21
13.890772999999999
 31
0.0
 12
5.9991500000000002
 22
13.980772999999999
 32
0.0
 13
5.9991500000000002
 23
13.980772999999999
 33
0.0
  0
SOLID
  5
4D3
  8
DIM
 62
     0
 10
17.459150000000001
 20
14.070773000000001
 30
0.0
 11
17.459150000000001
 21
13.890772999999999
 31
0.0
 12
17.99915
 22
13.980772999999999
 32
0.0
 13
17.99915
 23
13.980772999999999
 33
0.0
  0
TEXT
  5
4D4
  8
OBJECT
 62
     0
 10
11.4132125
 20
13.793272999999999
 30
0.0
 40
0.375
  1
12.000
 41
0.75
  7
TXT
  0
POINT
  5
4D5
  8
DEFPOINTS
 62
     0
 10
5.9991500000000002
 20
13.233772999999999
 30
0.0
  0
POINT
  5
4D6
  8
DEFPOINTS
 62
     0
 10
17.99915
 20
13.233772999999999
 30
0.0
  0
POINT
  5
4D7
  8
DEFPOINTS
 62
     0
 10
17.99915
 20
13.980772999999999
 30
0.0
  0
ENDBLK
  5
262
  8
0
  0
BLOCK
  8
0
  2
*D26
 70
     1
 10
0.0
 20
0.0
 30
0.0
  3
*D26
  1

  0
LINE
  5
528
  8
DIM
 62
     0
 10
5.8101500000000001
 20
13.233772999999999
 30
0.0
 11
4.6941499999999996
 21
13.233772999999999
 31
0.0
  0
LINE
  5
529
  8
DIM
 62
     0
 10
5.8101500000000001
 20
12.233772999999999
 30
0.0
 11
4.6941499999999996
 21
12.233772999999999
 31
0.0
  0
LINE
  5
52A
  8
DIM
 62
     0
 10
4.9731500000000004
 20
13.773773
 30
0.0
 11
4.9731500000000013
 21
14.313772999999999
 31
0.0
  0
LINE
  5
52B
  8
DIM
 62
     0
 10
4.9731500000000004
 20
11.69377299999999
 30
0.0
 11
4.9731500000000004
 21
11.153772999999999
 31
0.0
  0
SOLID
  5
52C
  8
DIM
 62
     0
 10
4.8831499999999997
 20
13.773773
 30
0.0
 11
5.0631500000000003
 21
13.773773
 31
0.0
 12
4.9731500000000004
 22
13.233772999999999
 32
0.0
 13
4.9731500000000004
 23
13.233772999999999
 33
0.0
  0
SOLID
  5
52D
  8
DIM
 62
     0
 10
4.8831499999999997
 20
11.69377299999999
 30
0.0
 11
5.0631500000000003
 21
11.69377299999999
 31
0.0
 12
4.9731500000000004
 22
12.233772999999999
 32
0.0
 13
4.9731500000000004
 23
12.233772999999999
 33
0.0
  0
TEXT
  5
52E
  8
OBJECT
 62
     0
 10
4.5278374999999977
 20
12.546272999999999
 30
0.0
 40
0.375
  1
1.000
 41
0.75
  7
TXT
  0
POINT
  5
52F
  8
DEFPOINTS
 62
     0
 10
5.9991500000000002
 20
13.233772999999999
 30
0.0
  0
POINT
  5
530
  8
DEFPOINTS
 62
     0
 10
5.9991500000000002
 20
12.233772999999999
 30
0.0
  0
POINT
  5
531
  8
DEFPOINTS
 62
     0
 10
4.9731500000000004
 20
12.233772999999999
 30
0.0
  0
ENDBLK
  5
270
  8
0
  0
BLOCK
  8
0
  2
*D27
 70
     1
 10
0.0
 20
0.0
 30
0.0
  3
*D27
  1

  0
LINE
  5
4D8
  8
DIM
 62
     0
 10
5.4991500000000002
 20
2.8931409999999991
 30
0.0
 11
5.4991500000000002
 21
4.9196919999999986
 31
0.0
  0
LINE
  5
4D9
  8
DIM
 62
     0
 10
23.99915
 20
2.5181409999999991
 30
0.0
 11
23.99915
 21
4.9196919999999986
 31
0.0
  0
LINE
  5
4DA
  8
DIM
 62
     0
 10
6.0391500000000002
 20
4.6406919999999987
 30
0.0
 11
13.869775000000001
 21
4.6406919999999987
 31
0.0
  0
LINE
  5
4DB
  8
DIM
 62
     0
 10
23.459150000000001
 20
4.6406919999999987
 30
0.0
 11
15.628524999999989
 21
4.6406919999999987
 31
0.0
  0
SOLID
  5
4DC
  8
DIM
 62
     0
 10
6.0391500000000002
 20
4.7306919999999986
 30
0.0
 11
6.0391500000000002
 21
4.5506919999999988
 31
0.0
 12
5.4991500000000002
 22
4.6406919999999987
 32
0.0
 13
5.4991500000000002
 23
4.6406919999999987
 33
0.0
  0
SOLID
  5
4DD
  8
DIM
 62
     0
 10
23.459150000000001
 20
4.7306919999999986
 30
0.0
 11
23.459150000000001
 21
4.5506919999999988
 31
0.0
 12
23.99915
 22
4.6406919999999987
 32
0.0
 13
23.99915
 23
4.6406919999999987
 33
0.0
  0
TEXT
  5
4DE
  8
OBJECT
 62
     0
 10
14.139775
 20
4.4531919999999987
 30
0.0
 40
0.375
  1
18.500
 41
0.75
  7
TXT
  0
POINT
  5
4DF
  8
DEFPOINTS
 62
     0
 10
5.4991500000000002
 20
2.704140999999999
 30
0.0
  0
POINT
  5
4E0
  8
DEFPOINTS
 62
     0
 10
23.99915
 20
2.329140999999999
 30
0.0
  0
POINT
  5
4E1
  8
DEFPOINTS
 62
     0
 10
23.99915
 20
4.6406919999999987
 30
0.0
  0
ENDBLK
  5
27E
  8
0
  0
BLOCK
  8
0
  2
*D28
 70
     1
 10
0.0
 20
0.0
 30
0.0
  3
*D28
  1

  0
LINE
  5
4E2
  8
DIM
 62
     0
 10
20.99915
 20
2.8931409999999991
 30
0.0
 11
20.99915
 21
4.1696919999999986
 31
0.0
  0
LINE
  5
4E3
  8
DIM
 62
     0
 10
23.99915
 20
2.5181409999999991
 30
0.0
 11
23.99915
 21
4.1696919999999986
 31
0.0
  0
LINE
  5
4E4
  8
DIM
 62
     0
 10
20.459150000000001
 20
3.8906919999999992
 30
0.0
 11
19.919149999999998
 21
3.8906919999999992
 31
0.0
  0
LINE
  5
4E5
  8
DIM
 62
     0
 10
24.539149999999999
 20
3.8906919999999992
 30
0.0
 11
25.079149999999998
 21
3.8906919999999992
 31
0.0
  0
SOLID
  5
4E6
  8
DIM
 62
     0
 10
20.459150000000001
 20
3.980691999999999
 30
0.0
 11
20.459150000000001
 21
3.8006920000000002
 31
0.0
 12
20.99915
 22
3.8906919999999992
 32
0.0
 13
20.99915
 23
3.8906919999999992
 33
0.0
  0
SOLID
  5
4E7
  8
DIM
 62
     0
 10
24.539149999999999
 20
3.980691999999999
 30
0.0
 11
24.539149999999999
 21
3.8006920000000002
 31
0.0
 12
23.99915
 22
3.8906919999999992
 32
0.0
 13
23.99915
 23
3.8906919999999992
 33
0.0
  0
TEXT
  5
4E8
  8
OBJECT
 62
     0
 10
25.349150000000002
 20
3.703192
 30
0.0
 40
0.375
  1
3.000 HOOK LENGTH
 41
0.75
  7
TXT
  0
POINT
  5
4E9
  8
DEFPOINTS
 62
     0
 10
20.99915
 20
2.704140999999999
 30
0.0
  0
POINT
  5
4EA
  8
DEFPOINTS
 62
     0
 10
23.99915
 20
2.329140999999999
 30
0.0
  0
POINT
  5
4EB
  8
DEFPOINTS
 62
     0
 10
23.99915
 20
3.8906919999999992
 30
0.0
  0
ENDBLK
  5
291
  8
0
  0
BLOCK
  8
0
  2
*D29
 70
     1
 10
0.0
 20
0.0
 30
0.0
  3
*D29
  1

  0
LINE
  5
532
  8
DIM
 62
     0
 10
22.201692999999992
 20
2.704140999999999
 30
0.0
 11
22.048692999999989
 21
2.704140999999999
 31
0.0
  0
LINE
  5
533
  8
DIM
 62
     0
 10
22.201692999999992
 20
1.954140999999999
 30
0.0
 11
22.048692999999989
 21
1.954140999999999
 31
0.0
  0
LINE
  5
534
  8
DIM
 62
     0
 10
22.327693
 20
3.2441409999999991
 30
0.0
 11
22.327693
 21
3.7841409999999991
 31
0.0
  0
LINE
  5
535
  8
DIM
 62
     0
 10
22.327693
 20
1.414140999999999
 30
0.0
 11
22.327693
 21
0.8741409999999996
 31
0.0
  0
SOLID
  5
536
  8
DIM
 62
     0
 10
22.237693
 20
3.2441409999999991
 30
0.0
 11
22.417693
 21
3.2441409999999991
 31
0.0
 12
22.327693
 22
2.704140999999999
 32
0.0
 13
22.327693
 23
2.704140999999999
 33
0.0
  0
SOLID
  5
537
  8
DIM
 62
     0
 10
22.237693
 20
1.414140999999999
 30
0.0
 11
22.417693
 21
1.414140999999999
 31
0.0
 12
22.327693
 22
1.954140999999999
 32
0.0
 13
22.327693
 23
1.954140999999999
 33
0.0
  0
TEXT
  5
538
  8
OBJECT
 62
     0
 10
21.812068
 20
2.141641000000003
 30
0.0
 40
0.375
  1
0.750
 41
0.75
  7
TXT
  0
POINT
  5
539
  8
DEFPOINTS
 62
     0
 10
22.390692999999999
 20
2.704140999999999
 30
0.0
  0
POINT
  5
53A
  8
DEFPOINTS
 62
     0
 10
22.390692999999999
 20
1.954140999999999
 30
0.0
  0
POINT
  5
53B
  8
DEFPOINTS
 62
     0
 10
22.327693
 20
1.954140999999999
 30
0.0
  0
ENDBLK
  5
2CB
  8
0
  0
BLOCK
  8
0
  2
*D30
 70
     1
 10
0.0
 20
0.0
 30
0.0
  3
*D30
  1

  0
LINE
  5
4EC
  8
DIM
 62
     0
 10
5.9991500000000002
 20
2.8931409999999991
 30
0.0
 11
5.9991500000000002
 21
4.1696919999999986
 31
0.0
  0
LINE
  5
4ED
  8
DIM
 62
     0
 10
20.99915
 20
2.8931409999999991
 30
0.0
 11
20.99915
 21
4.1696919999999986
 31
0.0
  0
LINE
  5
4EE
  8
DIM
 62
     0
 10
6.5391500000000002
 20
3.8906919999999992
 30
0.0
 11
10.955712500000001
 21
3.8906919999999992
 31
0.0
  0
LINE
  5
4EF
  8
DIM
 62
     0
 10
20.459150000000001
 20
3.8906919999999992
 30
0.0
 11
16.0425875
 21
3.8906919999999992
 31
0.0
  0
SOLID
  5
4F0
  8
DIM
 62
     0
 10
6.5391500000000002
 20
3.980691999999999
 30
0.0
 11
6.5391500000000002
 21
3.8006920000000002
 31
0.0
 12
5.9991500000000002
 22
3.8906919999999992
 32
0.0
 13
5.9991500000000002
 23
3.8906919999999992
 33
0.0
  0
SOLID
  5
4F1
  8
DIM
 62
     0
 10
20.459150000000001
 20
3.980691999999999
 30
0.0
 11
20.459150000000001
 21
3.8006920000000002
 31
0.0
 12
20.99915
 22
3.8906919999999992
 32
0.0
 13
20.99915
 23
3.8906919999999992
 33
0.0
  0
TEXT
  5
4F2
  8
OBJECT
 62
     0
 10
11.2257125
 20
3.703192
 30
0.0
 40
0.375
  1
15.000 LOOP LENGTH
 41
0.75
  7
TXT
  0
POINT
  5
4F3
  8
DEFPOINTS
 62
     0
 10
5.9991500000000002
 20
2.704140999999999
 30
0.0
  0
POINT
  5
4F4
  8
DEFPOINTS
 62
     0
 10
20.99915
 20
2.704140999999999
 30
0.0
  0
POINT
  5
4F5
  8
DEFPOINTS
 62
     0
 10
20.99915
 20
3.8906919999999992
 30
0.0
  0
ENDBLK
  5
2DA
  8
0
  0
BLOCK
  8
0
  2
*D31
 70
     1
 10
0.0
 20
0.0
 30
0.0
  3
*D31
  1

  0
LINE
  5
53C
  8
DIM
 62
     0
 10
23.113164000000001
 20
36.310676000000001
 30
0.0
 11
25.839817
 21
36.310676000000001
 31
0.0
  0
LINE
  5
53D
  8
DIM
 62
     0
 10
23.113164000000001
 20
36.935676000000001
 30
0.0
 11
25.839817
 21
36.935676000000001
 31
0.0
  0
LINE
  5
53E
  8
DIM
 62
     0
 10
25.560817
 20
35.770676000000002
 30
0.0
 11
25.560817
 21
35.230676000000003
 31
0.0
  0
LINE
  5
53F
  8
DIM
 62
     0
 10
25.560817
 20
37.475675999999993
 30
0.0
 11
25.560817
 21
38.015675999999999
 31
0.0
  0
SOLID
  5
540
  8
DIM
 62
     0
 10
25.470817
 20
35.770676000000002
 30
0.0
 11
25.650817
 21
35.770676000000002
 31
0.0
 12
25.560817
 22
36.310676000000001
 32
0.0
 13
25.560817
 23
36.310676000000001
 33
0.0
  0
SOLID
  5
541
  8
DIM
 62
     0
 10
25.470817
 20
37.475675999999993
 30
0.0
 11
25.650817
 21
37.475675999999993
 31
0.0
 12
25.560817
 22
36.935676000000001
 32
0.0
 13
25.560817
 23
36.935676000000001
 33
0.0
  0
TEXT
  5
542
  8
OBJECT
 62
     0
 10
25.021754499999989
 20
36.435676000000001
 30
0.0
 40
0.375
  1
0.625
 41
0.75
  7
TXT
  0
POINT
  5
543
  8
DEFPOINTS
 62
     0
 10
22.924164000000001
 20
36.310676000000001
 30
0.0
  0
POINT
  5
544
  8
DEFPOINTS
 62
     0
 10
22.924164000000001
 20
36.935676000000001
 30
0.0
  0
POINT
  5
545
  8
DEFPOINTS
 62
     0
 10
25.560817
 20
36.935676000000001
 30
0.0
  0
ENDBLK
  5
2F3
  8
0
  0
BLOCK
  8
0
  2
*D32
 70
     1
 10
0.0
 20
0.0
 30
0.0
  3
*D32
  1

  0
LINE
  5
546
  8
DIM
 62
     0
 10
23.113164000000001
 20
36.935676000000001
 30
0.0
 11
24.810817
 21
36.935676000000001
 31
0.0
  0
LINE
  5
547
  8
DIM
 62
     0
 10
23.113164000000001
 20
37.560676000000001
 30
0.0
 11
24.810817
 21
37.560676000000001
 31
0.0
  0
LINE
  5
548
  8
DIM
 62
     0
 10
24.531817
 20
36.395676000000002
 30
0.0
 11
24.531817
 21
35.855676000000003
 31
0.0
  0
LINE
  5
549
  8
DIM
 62
     0
 10
24.531817
 20
38.100675999999993
 30
0.0
 11
24.531817
 21
38.640675999999999
 31
0.0
  0
SOLID
  5
54A
  8
DIM
 62
     0
 10
24.441817
 20
36.395676000000002
 30
0.0
 11
24.621817
 21
36.395676000000002
 31
0.0
 12
24.531817
 22
36.935676000000001
 32
0.0
 13
24.531817
 23
36.935676000000001
 33
0.0
  0
SOLID
  5
54B
  8
DIM
 62
     0
 10
24.441817
 20
38.100675999999993
 30
0.0
 11
24.621817
 21
38.100675999999993
 31
0.0
 12
24.531817
 22
37.560676000000001
 32
0.0
 13
24.531817
 23
37.560676000000001
 33
0.0
  0
TEXT
  5
54C
  8
OBJECT
 62
     0
 10
23.99275449999999
 20
37.060676000000001
 30
0.0
 40
0.375
  1
0.625
 41
0.75
  7
TXT
  0
POINT
  5
54D
  8
DEFPOINTS
 62
     0
 10
22.924164000000001
 20
36.935676000000001
 30
0.0
  0
POINT
  5
54E
  8
DEFPOINTS
 62
     0
 10
22.924164000000001
 20
37.560676000000001
 30
0.0
  0
POINT
  5
54F
  8
DEFPOINTS
 62
     0
 10
24.531817
 20
37.560676000000001
 30
0.0
  0
ENDBLK
  5
301
  8
0
  0
BLOCK
  8
0
  2
*D33
 70
     1
 10
0.0
 20
0.0
 30
0.0
  3
*D33
  1

  0
LINE
  5
4F6
  8
DIM
 62
     0
 10
5.9991500000000002
 20
23.734773000000001
 30
0.0
 11
5.9991500000000002
 21
24.571773
 31
0.0
  0
LINE
  5
4F7
  8
DIM
 62
     0
 10
13.99915
 20
23.734773000000001
 30
0.0
 11
13.99915
 21
24.571773
 31
0.0
  0
LINE
  5
4F8
  8
DIM
 62
     0
 10
6.5391500000000002
 20
24.292773
 30
0.0
 11
9.2369625000000006
 21
24.292773
 31
0.0
  0
LINE
  5
4F9
  8
DIM
 62
     0
 10
13.459149999999999
 20
24.292773
 30
0.0
 11
10.7613375
 21
24.292773
 31
0.0
  0
SOLID
  5
4FA
  8
DIM
 62
     0
 10
6.5391500000000002
 20
24.382773
 30
0.0
 11
6.5391500000000002
 21
24.202773000000001
 31
0.0
 12
5.9991500000000002
 22
24.292773
 32
0.0
 13
5.9991500000000002
 23
24.292773
 33
0.0
  0
SOLID
  5
4FB
  8
DIM
 62
     0
 10
13.459149999999999
 20
24.382773
 30
0.0
 11
13.459149999999999
 21
24.202773000000001
 31
0.0
 12
13.99915
 22
24.292773
 32
0.0
 13
13.99915
 23
24.292773
 33
0.0
  0
TEXT
  5
4FC
  8
OBJECT
 62
     0
 10
9.5069625000000002
 20
24.105273
 30
0.0
 40
0.375
  1
8.000
 41
0.75
  7
TXT
  0
POINT
  5
4FD
  8
DEFPOINTS
 62
     0
 10
5.9991500000000002
 20
23.545773000000001
 30
0.0
  0
POINT
  5
4FE
  8
DEFPOINTS
 62
     0
 10
13.99915
 20
23.545773000000001
 30
0.0
  0
POINT
  5
4FF
  8
DEFPOINTS
 62
     0
 10
13.99915
 20
24.292773
 30
0.0
  0
ENDBLK
  5
35A
  8
0
  0
BLOCK
  8
0
  2
*D34
 70
     1
 10
0.0
 20
0.0
 30
0.0
  3
*D34
  1

  0
LINE
  5
550
  8
DIM
 62
     0
 10
5.8101500000000001
 20
23.545773000000001
 30
0.0
 11
4.6941499999999996
 21
23.545773000000001
 31
0.0
  0
LINE
  5
551
  8
DIM
 62
     0
 10
5.8101500000000001
 20
22.545773000000001
 30
0.0
 11
4.6941499999999996
 21
22.545773000000001
 31
0.0
  0
LINE
  5
552
  8
DIM
 62
     0
 10
4.9731500000000004
 20
24.085773
 30
0.0
 11
4.9731500000000004
 21
24.625772999999999
 31
0.0
  0
LINE
  5
553
  8
DIM
 62
     0
 10
4.9731500000000004
 20
22.005773000000001
 30
0.0
 11
4.9731499999999986
 21
21.465772999999999
 31
0.0
  0
SOLID
  5
554
  8
DIM
 62
     0
 10
4.8831499999999997
 20
24.085773
 30
0.0
 11
5.0631500000000003
 21
24.085773
 31
0.0
 12
4.9731500000000004
 22
23.545773000000001
 32
0.0
 13
4.9731500000000004
 23
23.545773000000001
 33
0.0
  0
SOLID
  5
555
  8
DIM
 62
     0
 10
4.8831499999999997
 20
22.005773000000001
 30
0.0
 11
5.0631500000000003
 21
22.005773000000001
 31
0.0
 12
4.9731500000000004
 22
22.545773000000001
 32
0.0
 13
4.9731500000000004
 23
22.545773000000001
 33
0.0
  0
TEXT
  5
556
  8
OBJECT
 62
     0
 10
4.527837499999996
 20
22.858273000000001
 30
0.0
 40
0.375
  1
1.000
 41
0.75
  7
TXT
  0
POINT
  5
557
  8
DEFPOINTS
 62
     0
 10
5.9991500000000002
 20
23.545773000000001
 30
0.0
  0
POINT
  5
558
  8
DEFPOINTS
 62
     0
 10
5.9991500000000002
 20
22.545773000000001
 30
0.0
  0
POINT
  5
559
  8
DEFPOINTS
 62
     0
 10
4.9731500000000004
 20
22.545773000000001
 30
0.0
  0
ENDBLK
  5
36A
  8
0
  0
BLOCK
  8
0
  2
*D35
 70
     1
 10
0.0
 20
0.0
 30
0.0
  3
*D35
  1

  0
LINE
  5
500
  8
DIM
 62
     0
 10
5.9991500000000002
 20
34.046773000000002
 30
0.0
 11
5.9991500000000002
 21
34.883772999999998
 31
0.0
  0
LINE
  5
501
  8
DIM
 62
     0
 10
17.99915
 20
34.046773000000002
 30
0.0
 11
17.99915
 21
34.883772999999998
 31
0.0
  0
LINE
  5
502
  8
DIM
 62
     0
 10
6.5391500000000002
 20
34.604773000000002
 30
0.0
 11
11.143212500000001
 21
34.604773000000002
 31
0.0
  0
LINE
  5
503
  8
DIM
 62
     0
 10
17.459150000000001
 20
34.604773000000002
 30
0.0
 11
12.855087499999989
 21
34.604773000000002
 31
0.0
  0
SOLID
  5
504
  8
DIM
 62
     0
 10
6.5391500000000002
 20
34.694772999999998
 30
0.0
 11
6.5391500000000002
 21
34.514772999999998
 31
0.0
 12
5.9991500000000002
 22
34.604773000000002
 32
0.0
 13
5.9991500000000002
 23
34.604773000000002
 33
0.0
  0
SOLID
  5
505
  8
DIM
 62
     0
 10
17.459150000000001
 20
34.694772999999998
 30
0.0
 11
17.459150000000001
 21
34.514772999999998
 31
0.0
 12
17.99915
 22
34.604773000000002
 32
0.0
 13
17.99915
 23
34.604773000000002
 33
0.0
  0
TEXT
  5
506
  8
OBJECT
 62
     0
 10
11.4132125
 20
34.417273000000002
 30
0.0
 40
0.375
  1
12.000
 41
0.75
  7
TXT
  0
POINT
  5
507
  8
DEFPOINTS
 62
     0
 10
5.9991500000000002
 20
33.857773000000002
 30
0.0
  0
POINT
  5
508
  8
DEFPOINTS
 62
     0
 10
17.99915
 20
33.857773000000002
 30
0.0
  0
POINT
  5
509
  8
DEFPOINTS
 62
     0
 10
17.99915
 20
34.604773000000002
 30
0.0
  0
ENDBLK
  5
37A
  8
0
  0
BLOCK
  8
0
  2
*D36
 70
     1
 10
0.0
 20
0.0
 30
0.0
  3
*D36
  1

  0
LINE
  5
55A
  8
DIM
 62
     0
 10
5.8101500000000001
 20
33.857773000000002
 30
0.0
 11
4.6941499999999996
 21
33.857773000000002
 31
0.0
  0
LINE
  5
55B
  8
DIM
 62
     0
 10
5.8101500000000001
 20
32.857773000000002
 30
0.0
 11
4.6941499999999996
 21
32.857773000000002
 31
0.0
  0
LINE
  5
55C
  8
DIM
 62
     0
 10
4.9731500000000013
 20
34.397773000000001
 30
0.0
 11
4.9731500000000013
 21
34.937773
 31
0.0
  0
LINE
  5
55D
  8
DIM
 62
     0
 10
4.9731500000000004
 20
32.317773000000003
 30
0.0
 11
4.9731500000000004
 21
31.777773
 31
0.0
  0
SOLID
  5
55E
  8
DIM
 62
     0
 10
4.8831500000000014
 20
34.397773000000001
 30
0.0
 11
5.0631500000000011
 21
34.397773000000001
 31
0.0
 12
4.9731500000000004
 22
33.857773000000002
 32
0.0
 13
4.9731500000000004
 23
33.857773000000002
 33
0.0
  0
SOLID
  5
55F
  8
DIM
 62
     0
 10
4.8831499999999997
 20
32.317773000000003
 30
0.0
 11
5.0631500000000003
 21
32.317773000000003
 31
0.0
 12
4.9731500000000004
 22
32.857773000000002
 32
0.0
 13
4.9731500000000004
 23
32.857773000000002
 33
0.0
  0
TEXT
  5
560
  8
OBJECT
 62
     0
 10
4.5278374999999951
 20
33.170273000000002
 30
0.0
 40
0.375
  1
1.000
 41
0.75
  7
TXT
  0
POINT
  5
561
  8
DEFPOINTS
 62
     0
 10
5.9991500000000002
 20
33.857773000000002
 30
0.0
  0
POINT
  5
562
  8
DEFPOINTS
 62
     0
 10
5.9991500000000002
 20
32.857773000000002
 30
0.0
  0
POINT
  5
563
  8
DEFPOINTS
 62
     0
 10
4.9731500000000004
 20
32.857773000000002
 30
0.0
  0
ENDBLK
  5
38A
  8
0
  0
ENDSEC
  0
SECTION
  2
ENTITIES
  0
TEXT
  5
117
  8
TEXT
 10
0.7864860000000001
 20
44.126086999999991
 30
0.0
 40
0.375
  1
%%uMATERIAL:
 41
0.75
  0
TEXT
  5
118
  8
TEXT
 10
1.0489809999999991
 20
43.501086999999991
 30
0.0
 40
0.375
  1
BRACKET
 41
0.75
  0
TEXT
  5
119
  8
TEXT
 10
0.7864860000000001
 20
41.643962000000002
 30
0.0
 40
0.375
  1
%%uFINISH:
 41
0.75
  0
TEXT
  5
11A
  8
TEXT
 10
1.0489809999999991
 20
41.018962000000002
 30
0.0
 40
0.375
  1
BRACKET
 41
0.75
  0
TEXT
  5
11B
  8
TEXT
 10
4.7239120000000003
 20
43.501086999999991
 30
0.0
 40
0.375
  1
16 GA. STEEL
 41
0.75
  0
TEXT
  5
11C
  8
TEXT
 10
4.7239120000000003
 20
41.018962000000002
 30
0.0
 40
0.375
  1
SMOOTH BLACK
 41
0.75
  0
LINE
  5
11D
  8
TEXT
 10
4.5295279999999991
 20
43.501086999999991
 30
0.0
 11
3.1817530000000001
 21
43.501086999999991
 31
0.0
  0
LINE
  5
11E
  8
TEXT
 10
4.5295279999999991
 20
41.018962000000002
 30
0.0
 11
3.1817530000000001
 21
41.018962000000002
 31
0.0
  0
LINE
  5
11F
  8
OBJECT
 10
22.293663999999989
 20
39.060676000000001
 30
0.0
 11
23.419664000000001
 21
39.060676000000001
 31
0.0
  0
LINE
  5
120
  8
OBJECT
 10
23.606663999999999
 20
38.873676000000003
 30
0.0
 11
23.606663999999999
 21
36.060676000000001
 31
0.0
  0
DIMENSION
  5
121
  8
DIM
  2
*D17
 10
28.442815
 20
39.071609000000002
 30
0.0
 11
28.442815
 21
37.571609000000009
 31
0.0
 70
     0
 13
27.571314999999998
 23
36.071609000000002
 33
0.0
 14
27.571314999999998
 24
39.071609000000002
 34
0.0
 50
90.0
  0
DIMENSION
  5
12F
  8
DIM
  2
*D18
 10
27.571314999999998
 20
34.967609000000003
 30
0.0
 11
29.3666275
 21
34.967609000000003
 31
0.0
 70
     0
 13
26.571314999999998
 23
36.071609000000002
 33
0.0
 14
27.571314999999998
 24
36.071609000000002
 34
0.0
 50
180.0
  0
LINE
  5
13D
  8
CENTER
 10
22.789164
 20
38.810676000000001
 30
0.0
 11
22.924164000000001
 21
38.810676000000001
 31
0.0
  0
LINE
  5
13E
  8
CENTER
 10
22.856663999999999
 20
38.878176000000003
 30
0.0
 11
22.856663999999999
 21
38.743175999999991
 31
0.0
  0
POLYLINE
  5
13F
  8
DIM
 66
     1
 10
0.0
 20
0.0
 30
0.0
 41
0.202466
  0
VERTEX
  5
569
  8
DIM
 10
22.995664000000001
 20
42.388550000000002
 30
0.0
  0
VERTEX
  5
56A
  8
DIM
 10
23.41758299999999
 20
42.725428999999998
 30
0.0
 41
0.0
  0
VERTEX
  5
56B
  8
DIM
 10
24.358232999999998
 20
43.476484999999997
 30
0.0
 41
0.0
  0
VERTEX
  5
56C
  8
DIM
 10
24.898143000000001
 20
43.476484999999997
 30
0.0
 41
0.0
  0
SEQEND
  5
56D
  8
DIM
  0
TEXT
  5
145
  8
DIM
 10
25.168098000000001
 20
43.289015999999997
 30
0.0
 40
0.374938
  1
0.278 x 0.406 SLOT
 41
0.75
 11
25.168098000000001
 21
43.476484999999997
 31
0.0
 73
     2
  0
POLYLINE
  5
146
  8
DIM
 66
     1
 10
0.0
 20
0.0
 30
0.0
 41
0.202466
  0
VERTEX
  5
56E
  8
DIM
 10
23.344163999999999
 20
38.873176000000001
 30
0.0
  0
VERTEX
  5
56F
  8
DIM
 10
23.679366000000002
 20
39.296427999999999
 30
0.0
 41
0.0
  0
VERTEX
  5
570
  8
DIM
 10
24.571769
 20
40.423245999999992
 30
0.0
 41
0.0
  0
VERTEX
  5
571
  8
DIM
 10
25.111678999999999
 20
40.423245999999992
 30
0.0
 41
0.0
  0
SEQEND
  5
572
  8
DIM
  0
TEXT
  5
14C
  8
DIM
 10
25.381633999999998
 20
40.235776999999992
 30
0.0
 40
0.374938
  1
0.125 x 1.100 SLOT
 41
0.75
 11
25.381633999999998
 21
40.423245999999992
 31
0.0
 73
     2
  0
TEXT
  5
14D
  8
DIM
 10
25.381633999999998
 20
39.610880999999992
 30
0.0
 40
0.374938
  1
(5) PLACES
 41
0.75
 11
25.381633999999998
 21
39.798349999999992
 31
0.0
 73
     2
  0
LINE
  5
14E
  8
OBJECT
 10
22.106663999999999
 20
38.873676000000003
 30
0.0
 11
22.106663999999999
 21
36.060676000000001
 31
0.0
  0
POLYLINE
  5
14F
  8
OBJECT
 66
     1
 10
0.0
 20
0.0
 30
0.0
 70
     1
  0
VERTEX
  5
573
  8
OBJECT
 10
27.571314999999998
 20
36.071609000000002
 30
0.0
  0
VERTEX
  5
574
  8
OBJECT
 10
27.571314999999998
 20
39.071609000000002
 30
0.0
  0
VERTEX
  5
575
  8
OBJECT
 10
27.509315000000001
 20
39.071609000000002
 30
0.0
  0
VERTEX
  5
576
  8
OBJECT
 10
27.509315000000001
 20
36.133608999999993
 30
0.0
  0
VERTEX
  5
577
  8
OBJECT
 10
26.571314999999998
 20
36.133608999999993
 30
0.0
  0
VERTEX
  5
578
  8
OBJECT
 10
26.571314999999998
 20
36.071609000000002
 30
0.0
  0
SEQEND
  5
579
  8
OBJECT
  0
POLYLINE
  5
157
  8
OBJECT
 66
     1
 10
0.0
 20
0.0
 30
0.0
 70
     1
  0
VERTEX
  5
57A
  8
OBJECT
 10
22.369164000000001
 20
38.748176000000001
 30
0.0
 42
-1.0
  0
VERTEX
  5
57B
  8
OBJECT
 10
22.369164000000001
 20
38.873176000000001
 30
0.0
  0
VERTEX
  5
57C
  8
OBJECT
 10
23.344163999999999
 20
38.873176000000001
 30
0.0
 42
-1.0
  0
VERTEX
  5
57D
  8
OBJECT
 10
23.344163999999999
 20
38.748176000000001
 30
0.0
  0
SEQEND
  5
57E
  8
OBJECT
  0
POLYLINE
  5
15D
  8
OBJECT
 66
     1
 10
0.0
 20
0.0
 30
0.0
 70
     1
  0
VERTEX
  5
57F
  8
OBJECT
 10
22.369164000000001
 20
38.123176000000001
 30
0.0
 42
-1.0
  0
VERTEX
  5
580
  8
OBJECT
 10
22.369164000000001
 20
38.248176000000001
 30
0.0
  0
VERTEX
  5
581
  8
OBJECT
 10
23.344163999999999
 20
38.248176000000001
 30
0.0
 42
-1.0
  0
VERTEX
  5
582
  8
OBJECT
 10
23.344163999999999
 20
38.123176000000001
 30
0.0
  0
SEQEND
  5
583
  8
OBJECT
  0
LINE
  5
163
  8
CENTER
 10
22.789164
 20
38.185676000000001
 30
0.0
 11
22.924164000000001
 21
38.185676000000001
 31
0.0
  0
LINE
  5
164
  8
CENTER
 10
22.856663999999999
 20
38.253176000000003
 30
0.0
 11
22.856663999999999
 21
38.118175999999991
 31
0.0
  0
POLYLINE
  5
165
  8
OBJECT
 66
     1
 10
0.0
 20
0.0
 30
0.0
 70
     1
  0
VERTEX
  5
584
  8
OBJECT
 10
22.369164000000001
 20
37.498176000000001
 30
0.0
 42
-1.0
  0
VERTEX
  5
585
  8
OBJECT
 10
22.369164000000001
 20
37.623176000000001
 30
0.0
  0
VERTEX
  5
586
  8
OBJECT
 10
23.344163999999999
 20
37.623176000000001
 30
0.0
 42
-1.0
  0
VERTEX
  5
587
  8
OBJECT
 10
23.344163999999999
 20
37.498176000000001
 30
0.0
  0
SEQEND
  5
588
  8
OBJECT
  0
LINE
  5
16B
  8
CENTER
 10
22.789164
 20
37.560676000000001
 30
0.0
 11
22.924164000000001
 21
37.560676000000001
 31
0.0
  0
LINE
  5
16C
  8
CENTER
 10
22.856663999999999
 20
37.628176000000003
 30
0.0
 11
22.856663999999999
 21
37.493175999999991
 31
0.0
  0
POLYLINE
  5
16D
  8
OBJECT
 66
     1
 10
0.0
 20
0.0
 30
0.0
 70
     1
  0
VERTEX
  5
589
  8
OBJECT
 10
22.369164000000001
 20
36.873176000000001
 30
0.0
 42
-1.0
  0
VERTEX
  5
58A
  8
OBJECT
 10
22.369164000000001
 20
36.998176000000001
 30
0.0
  0
VERTEX
  5
58B
  8
OBJECT
 10
23.344163999999999
 20
36.998176000000001
 30
0.0
 42
-1.0
  0
VERTEX
  5
58C
  8
OBJECT
 10
23.344163999999999
 20
36.873176000000001
 30
0.0
  0
SEQEND
  5
58D
  8
OBJECT
  0
LINE
  5
173
  8
CENTER
 10
22.789164
 20
36.935676000000001
 30
0.0
 11
22.924164000000001
 21
36.935676000000001
 31
0.0
  0
LINE
  5
174
  8
CENTER
 10
22.856663999999999
 20
37.003176000000003
 30
0.0
 11
22.856663999999999
 21
36.868175999999991
 31
0.0
  0
POLYLINE
  5
175
  8
OBJECT
 66
     1
 10
0.0
 20
0.0
 30
0.0
 70
     1
  0
VERTEX
  5
58E
  8
OBJECT
 10
22.369164000000001
 20
36.248176000000001
 30
0.0
 42
-1.0
  0
VERTEX
  5
58F
  8
OBJECT
 10
22.369164000000001
 20
36.373176000000001
 30
0.0
  0
VERTEX
  5
590
  8
OBJECT
 10
23.344163999999999
 20
36.373176000000001
 30
0.0
 42
-1.0
  0
VERTEX
  5
591
  8
OBJECT
 10
23.344163999999999
 20
36.248176000000001
 30
0.0
  0
SEQEND
  5
592
  8
OBJECT
  0
LINE
  5
17B
  8
CENTER
 10
22.789164
 20
36.310676000000001
 30
0.0
 11
22.924164000000001
 21
36.310676000000001
 31
0.0
  0
LINE
  5
17C
  8
CENTER
 10
22.856663999999999
 20
36.378176000000003
 30
0.0
 11
22.856663999999999
 21
36.243175999999991
 31
0.0
  0
ARC
  5
17D
  8
OBJECT
 10
22.293663999999989
 20
38.873676000000003
 30
0.0
 40
0.187
 50
90.0
 51
180.0
  0
ARC
  5
17E
  8
OBJECT
 10
23.419664000000001
 20
38.873676000000003
 30
0.0
 40
0.187
 50
0.0
 51
90.0
  0
DIMENSION
  5
17F
  8
DIM
  2
*D19
 10
19.881060000000002
 20
38.185676000000001
 30
0.0
 11
19.881059999999991
 21
37.873176000000008
 31
0.0
 70
     0
 13
22.789164
 23
37.560676000000001
 33
0.0
 14
22.789164
 24
38.185676000000001
 34
0.0
 50
90.0
  0
DIMENSION
  5
18D
  8
DIM
  2
*D20
 10
20.910060000000001
 20
38.810676000000001
 30
0.0
 11
20.910059999999991
 21
38.498176000000008
 31
0.0
 70
     0
 13
22.789164
 23
38.185676000000001
 33
0.0
 14
22.789164
 24
38.810676000000001
 34
0.0
 50
90.0
  0
DIMENSION
  5
19B
  8
DIM
  2
*D21
 10
21.660060000000001
 20
39.060676000000001
 30
0.0
 11
22.985684999999989
 21
40.140675999999999
 31
0.0
 70
     0
 13
22.789164
 23
38.810676000000001
 33
0.0
 14
22.293663999999989
 24
39.060676000000001
 34
0.0
 50
90.0
  0
LINE
  5
1A9
  8
CENTER
 10
22.856663999999999
 20
36.435175999999998
 30
0.0
 11
22.856663999999999
 21
36.811176000000003
 31
0.0
  0
LINE
  5
1AA
  8
CENTER
 10
22.856663999999999
 20
37.436176000000003
 30
0.0
 11
22.856663999999999
 21
37.060175999999998
 31
0.0
  0
LINE
  5
1AB
  8
CENTER
 10
22.856663999999999
 20
37.685175999999998
 30
0.0
 11
22.856663999999999
 21
38.061176000000003
 31
0.0
  0
LINE
  5
1AC
  8
CENTER
 10
22.856663999999999
 20
38.686176000000003
 30
0.0
 11
22.856663999999999
 21
38.310175999999998
 31
0.0
  0
LINE
  5
1AD
  8
OBJECT
 10
23.419664000000001
 20
41.99454999999999
 30
0.0
 11
22.293663999999989
 21
41.99454999999999
 31
0.0
  0
ARC
  5
1AE
  8
OBJECT
 10
22.293663999999989
 20
42.181550000000001
 30
0.0
 40
0.187
 50
180.0
 51
270.0
  0
LINE
  5
1AF
  8
CENTER
 10
22.856663999999999
 20
42.392049999999998
 30
0.0
 11
22.856663999999999
 21
42.25705
 31
0.0
  0
LINE
  5
1B0
  8
CENTER
 10
22.789164
 20
42.324550000000002
 30
0.0
 11
22.924164000000001
 21
42.324550000000002
 31
0.0
  0
POLYLINE
  5
1B1
  8
OBJECT
 66
     1
 10
0.0
 20
0.0
 30
0.0
 70
     1
  0
VERTEX
  5
593
  8
OBJECT
 10
22.995664000000001
 20
42.388550000000002
 30
0.0
  0
VERTEX
  5
594
  8
OBJECT
 10
22.995664000000001
 20
42.260550000000002
 30
0.0
 42
-1.0
  0
VERTEX
  5
595
  8
OBJECT
 10
22.717663999999999
 20
42.260550000000002
 30
0.0
  0
VERTEX
  5
596
  8
OBJECT
 10
22.717663999999999
 20
42.388550000000002
 30
0.0
 42
-1.0
  0
SEQEND
  5
597
  8
OBJECT
  0
ARC
  5
1B7
  8
OBJECT
 10
23.419664000000001
 20
42.181550000000001
 30
0.0
 40
0.187
 50
270.0
 51
0.0
  0
LINE
  5
1B8
  8
OBJECT
 10
23.606663999999999
 20
42.994549999999997
 30
0.0
 11
23.606663999999999
 21
42.181550000000001
 31
0.0
  0
LINE
  5
1B9
  8
OBJECT
 10
22.106663999999999
 20
42.994549999999997
 30
0.0
 11
22.106663999999999
 21
42.181550000000001
 31
0.0
  0
LINE
  5
1BA
  8
OBJECT
 10
23.606663999999999
 20
42.994549999999997
 30
0.0
 11
22.106663999999999
 21
42.994549999999997
 31
0.0
  0
LINE
  5
1BB
  8
OBJECT
 10
22.106663999999999
 20
36.060676000000001
 30
0.0
 11
23.606663999999999
 21
36.060676000000001
 31
0.0
  0
DIMENSION
  5
1BC
  8
DIM
  2
*D22
 10
23.606663999999999
 20
41.505007999999997
 30
0.0
 11
25.472289
 21
41.505007999999997
 31
0.0
 70
     0
 13
22.856663999999999
 23
42.25705
 33
0.0
 14
23.606663999999999
 24
42.181550000000001
 34
0.0
 50
180.0
  0
DIMENSION
  5
1CA
  8
DIM
  2
*D23
 10
22.106663999999999
 20
35.413843999999997
 30
0.0
 11
22.856663999999999
 21
35.413843999999997
 31
0.0
 70
     0
 13
23.606663999999999
 23
36.060676000000001
 33
0.0
 14
22.106663999999999
 24
36.060676000000001
 34
0.0
 50
180.0
  0
DIMENSION
  5
1D8
  8
DIM
  2
*D24
 10
21.286569
 20
42.324550000000002
 30
0.0
 11
22.612193999999992
 21
43.404550000000008
 31
0.0
 70
     0
 13
22.293663999999989
 23
41.99454999999999
 33
0.0
 14
22.789164
 24
42.324550000000002
 34
0.0
 50
90.0
  0
LINE
  5
1E6
  8
OBJECT
 10
22.106663999999999
 20
36.122675999999998
 30
0.0
 11
23.606663999999999
 21
36.122675999999998
 31
0.0
  0
LINE
  5
1E7
  8
OBJECT
 10
23.606663999999999
 20
42.932549999999999
 30
0.0
 11
22.106663999999999
 21
42.932549999999999
 31
0.0
  0
TEXT
  5
1E8
  8
DIM
 10
77.653035000000003
 20
81.048613000000003
 30
0.0
 40
0.25
  1

  0
TEXT
  5
1E9
  8
TEXT
 10
3.8158124999999989
 20
45.405749999999991
 30
0.0
 40
0.5625
  1
CABLE MANAGEMENT BRACKET
 41
0.75
 72
     1
 11
8.8079999999999998
 21
45.405749999999991
 31
0.0
  0
TEXT
  5
1EA
  8
TEXT
 10
22.5590625
 20
45.405749999999991
 30
0.0
 40
0.5625
  1
CM-2200
 41
0.75
 72
     1
 11
23.894999999999989
 21
45.405749999999991
 31
0.0
  0
TEXT
  5
1EB
  8
DIM
 10
164.54181800000001
 20
99.214793999999998
 30
0.0
 40
0.25
  1

  0
TEXT
  5
1EC
  8
DIM
 10
183.54102700000001
 20
128.76857699999991
 30
0.0
 40
0.25
  1

  0
TEXT
  5
1ED
  8
DIM
 10
182.83202299999991
 20
122.289332
 30
0.0
 40
0.25
  1

  0
TEXT
  5
1EE
  8
DIM
 10
181.66599899999991
 20
122.2690179999999
 30
0.0
 40
0.25
  1

  0
TEXT
  5
1EF
  8
DIM
 10
176.40838199999999
 20
132.51713099999989
 30
0.0
 40
0.25
  1

  0
TEXT
  5
1F0
  8
DIM
 10
176.40838199999999
 20
131.75595200000001
 30
0.0
 40
0.25
  1

  0
TEXT
  5
1F1
  8
DIM
 10
235.79637700000001
 20
64.427599999999984
 30
0.0
 40
0.25
  1

  0
TEXT
  5
1F2
  8
DIM
 10
235.08737400000001
 20
57.948355000000006
 30
0.0
 40
0.25
  1

  0
TEXT
  5
1F3
  8
DIM
 10
233.92134999999999
 20
57.928040000000003
 30
0.0
 40
0.25
  1

  0
TEXT
  5
1F4
  8
DIM
 10
228.66373300000001
 20
68.176152999999985
 30
0.0
 40
0.25
  1

  0
TEXT
  5
1F5
  8
DIM
 10
228.66373300000001
 20
67.414974000000001
 30
0.0
 40
0.25
  1

  0
TEXT
  5
1F6
  8
DIM
 10
164.54181800000001
 20
179.2147939999999
 30
0.0
 40
0.25
  1

  0
TEXT
  5
1F7
  8
DIM
 10
164.54181800000001
 20
287.04107099999987
 30
0.0
 40
0.25
  1

  0
TEXT
  5
1F8
  8
DIM
 10
203.48369700000001
 20
237.02943099999999
 30
0.0
 40
0.25
  1

  0
TEXT
  5
1F9
  8
DIM
 10
202.7746929999999
 20
230.550186
 30
0.0
 40
0.25
  1

  0
TEXT
  5
1FA
  8
DIM
 10
201.60866899999991
 20
230.52987200000001
 30
0.0
 40
0.25
  1

  0
TEXT
  5
1FB
  8
DIM
 10
196.3510519999999
 20
240.777985
 30
0.0
 40
0.25
  1

  0
TEXT
  5
1FC
  8
DIM
 10
196.3510519999999
 20
240.01680499999989
 30
0.0
 40
0.25
  1

  0
TEXT
  5
1FD
  8
DIM
 10
199.624908
 20
236.31264300000001
 30
0.0
 40
0.25
  1

  0
TEXT
  5
1FE
  8
DIM
 10
198.9159049999999
 20
229.8333979999999
 30
0.0
 40
0.25
  1

  0
TEXT
  5
1FF
  8
DIM
 10
197.74988099999999
 20
229.81308300000001
 30
0.0
 40
0.25
  1

  0
TEXT
  5
200
  8
DIM
 10
192.49226399999989
 20
240.06119599999991
 30
0.0
 40
0.25
  1

  0
TEXT
  5
201
  8
DIM
 10
192.49226399999989
 20
239.300017
 30
0.0
 40
0.25
  1

  0
TEXT
  5
202
  8
DIM
 10
164.54181800000001
 20
284.06479400000001
 30
0.0
 40
0.25
  1

  0
TEXT
  5
203
  8
DIM
 10
164.54181800000001
 20
391.89107100000001
 30
0.0
 40
0.25
  1

  0
TEXT
  5
204
  8
DIM
 10
170.68436199999999
 20
382.90796999999998
 30
0.0
 40
0.25
  1

  0
TEXT
  5
205
  8
DIM
 10
189.68357099999989
 20
412.46175399999998
 30
0.0
 40
0.25
  1

  0
TEXT
  5
206
  8
DIM
 10
188.97456699999989
 20
405.98250899999999
 30
0.0
 40
0.25
  1

  0
TEXT
  5
207
  8
DIM
 10
187.8085429999999
 20
405.96219400000001
 30
0.0
 40
0.25
  1

  0
TEXT
  5
208
  8
DIM
 10
182.550926
 20
416.21030699999989
 30
0.0
 40
0.25
  1

  0
TEXT
  5
209
  8
DIM
 10
182.550926
 20
415.44912799999997
 30
0.0
 40
0.25
  1

  0
TEXT
  5
20A
  8
DIM
 10
198.65515899999991
 20
209.82110899999989
 30
0.0
 40
0.25
  1

  0
TEXT
  5
20B
  8
DIM
 10
197.946155
 20
203.3418639999999
 30
0.0
 40
0.25
  1

  0
TEXT
  5
20C
  8
DIM
 10
196.78013100000001
 20
203.32154899999989
 30
0.0
 40
0.25
  1

  0
TEXT
  5
20D
  8
DIM
 10
191.522514
 20
213.56966199999999
 30
0.0
 40
0.25
  1

  0
TEXT
  5
20E
  8
DIM
 10
191.522514
 20
212.808483
 30
0.0
 40
0.25
  1

  0
TEXT
  5
20F
  8
DIM
 10
198.65515899999991
 20
234.75438099999991
 30
0.0
 40
0.25
  1

  0
TEXT
  5
210
  8
DIM
 10
197.946155
 20
228.275137
 30
0.0
 40
0.25
  1

  0
TEXT
  5
211
  8
DIM
 10
196.78013100000001
 20
228.25482199999999
 30
0.0
 40
0.25
  1

  0
TEXT
  5
212
  8
DIM
 10
191.522514
 20
238.50293499999989
 30
0.0
 40
0.25
  1

  0
TEXT
  5
213
  8
DIM
 10
191.522514
 20
237.74175600000001
 30
0.0
 40
0.25
  1

  0
TEXT
  5
214
  8
DIM
 10
208.086772
 20
130.54718199999999
 30
0.0
 40
0.25
  1

  0
TEXT
  5
215
  8
DIM
 10
207.377768
 20
124.067937
 30
0.0
 40
0.25
  1

  0
TEXT
  5
216
  8
DIM
 10
206.2117439999999
 20
124.047622
 30
0.0
 40
0.25
  1

  0
TEXT
  5
217
  8
DIM
 10
200.954127
 20
134.29573500000001
 30
0.0
 40
0.25
  1

  0
TEXT
  5
218
  8
DIM
 10
200.954127
 20
133.53455600000001
 30
0.0
 40
0.25
  1

  0
TEXT
  5
219
  8
DIM
 10
164.54181800000001
 20
284.06479400000001
 30
0.0
 40
0.25
  1

  0
TEXT
  5
21A
  8
DIM
 10
183.54102700000001
 20
313.61857700000002
 30
0.0
 40
0.25
  1

  0
TEXT
  5
21B
  8
DIM
 10
182.83202299999991
 20
307.13933199999991
 30
0.0
 40
0.25
  1

  0
TEXT
  5
21C
  8
DIM
 10
181.66599899999991
 20
307.11901799999998
 30
0.0
 40
0.25
  1

  0
TEXT
  5
21D
  8
DIM
 10
176.40838199999999
 20
317.36713099999997
 30
0.0
 40
0.25
  1

  0
TEXT
  5
21E
  8
DIM
 10
176.40838199999999
 20
316.605952
 30
0.0
 40
0.25
  1

  0
TEXT
  5
21F
  8
DIM
 10
314.67149599999999
 20
105.786222
 30
0.0
 40
0.25
  1

  0
TEXT
  5
220
  8
DIM
 10
314.67149599999999
 20
213.61249900000001
 30
0.0
 40
0.25
  1

  0
TEXT
  5
221
  8
DIM
 10
320.81403999999998
 20
204.62939900000001
 30
0.0
 40
0.25
  1

  0
TEXT
  5
222
  8
DIM
 10
339.81324799999999
 20
234.1831819999999
 30
0.0
 40
0.25
  1

  0
TEXT
  5
223
  8
DIM
 10
339.10424499999999
 20
227.703937
 30
0.0
 40
0.25
  1

  0
TEXT
  5
224
  8
DIM
 10
337.938221
 20
227.68362300000001
 30
0.0
 40
0.25
  1

  0
TEXT
  5
225
  8
DIM
 10
332.68060400000002
 20
237.93173599999989
 30
0.0
 40
0.25
  1

  0
TEXT
  5
226
  8
DIM
 10
332.68060400000002
 20
237.170556
 30
0.0
 40
0.25
  1

  0
TEXT
  5
227
  8
DIM
 10
273.4661759999999
 20
76.320329999999984
 30
0.0
 40
0.125
  1

  0
TEXT
  5
228
  8
DIM
 10
273.4661759999999
 20
76.005752999999999
 30
0.0
 40
0.125
  1

  0
TEXT
  5
229
  8
DIM
 10
269.36734300000001
 20
72.391278999999983
 30
0.0
 40
0.125
  1

  0
TEXT
  5
22A
  8
DIM
 10
266.993471
 20
71.725532000000001
 30
0.0
 40
0.125
  1

  0
TEXT
  5
22B
  8
DIM
 10
267.01180399999993
 20
75.415030999999985
 30
0.0
 40
0.125
  1

  0
TEXT
  5
22C
  8
DIM
 10
271.70384300000001
 20
75.312642000000011
 30
0.0
 40
0.125
  1

  0
TEXT
  5
22D
  8
DIM
 10
275.20384300000001
 20
75.312642000000011
 30
0.0
 40
0.125
  1

  0
TEXT
  5
22E
  8
DIM
 10
290.147785
 20
81.661245999999991
 30
0.0
 40
0.33325
  1

  0
TEXT
  5
22F
  8
DIM
 10
278.58203399999991
 20
85.204218999999995
 30
0.0
 40
0.33325
  1

  0
TEXT
  5
230
  8
DIM
 10
274.5148759999999
 20
74.622682999999995
 30
0.0
 40
0.125
  1

  0
TEXT
  5
231
  8
DIM
 10
274.5148759999999
 20
74.308105999999995
 30
0.0
 40
0.125
  1

  0
TEXT
  5
232
  8
DIM
 10
270.416042
 20
70.693631999999994
 30
0.0
 40
0.125
  1

  0
TEXT
  5
233
  8
DIM
 10
268.042171
 20
70.027884999999998
 30
0.0
 40
0.125
  1

  0
TEXT
  5
234
  8
DIM
 10
268.06050399999992
 20
73.717383999999996
 30
0.0
 40
0.125
  1

  0
TEXT
  5
235
  8
DIM
 10
272.75254200000001
 20
73.614995999999991
 30
0.0
 40
0.125
  1

  0
TEXT
  5
236
  8
DIM
 10
276.25254200000001
 20
73.614995999999991
 30
0.0
 40
0.125
  1

  0
TEXT
  5
237
  8
DIM
 10
291.196485
 20
79.963599000000002
 30
0.0
 40
0.33325
  1

  0
TEXT
  5
238
  8
DIM
 10
279.6307339999999
 20
83.506572999999989
 30
0.0
 40
0.33325
  1

  0
TEXT
  5
239
  8
DIM
 10
273.73450400000002
 20
132.1104179999999
 30
0.0
 40
0.125
  1

  0
TEXT
  5
23A
  8
DIM
 10
273.73450400000002
 20
131.79583999999991
 30
0.0
 40
0.125
  1

  0
TEXT
  5
23B
  8
DIM
 10
269.63567099999989
 20
128.18136699999999
 30
0.0
 40
0.125
  1

  0
TEXT
  5
23C
  8
DIM
 10
267.26179899999988
 20
127.51562
 30
0.0
 40
0.125
  1

  0
TEXT
  5
23D
  8
DIM
 10
267.28013299999998
 20
131.205119
 30
0.0
 40
0.125
  1

  0
TEXT
  5
23E
  8
DIM
 10
271.97217099999989
 20
131.10273000000001
 30
0.0
 40
0.125
  1

  0
TEXT
  5
23F
  8
DIM
 10
275.472171
 20
131.10273000000001
 30
0.0
 40
0.125
  1

  0
TEXT
  5
240
  8
DIM
 10
290.41611399999988
 20
137.451334
 30
0.0
 40
0.33325
  1

  0
TEXT
  5
241
  8
DIM
 10
278.85036200000002
 20
140.99430699999999
 30
0.0
 40
0.33325
  1

  0
TEXT
  5
242
  8
DIM
 10
273.70440200000002
 20
154.64133799999991
 30
0.0
 40
0.125
  1

  0
TEXT
  5
243
  8
DIM
 10
273.70440200000002
 20
154.32676000000001
 30
0.0
 40
0.125
  1

  0
TEXT
  5
244
  8
DIM
 10
269.605569
 20
150.712287
 30
0.0
 40
0.125
  1

  0
TEXT
  5
245
  8
DIM
 10
267.231697
 20
150.04653999999991
 30
0.0
 40
0.125
  1

  0
TEXT
  5
246
  8
DIM
 10
267.25003099999992
 20
153.73603899999989
 30
0.0
 40
0.125
  1

  0
TEXT
  5
247
  8
DIM
 10
271.942069
 20
153.6336499999999
 30
0.0
 40
0.125
  1

  0
TEXT
  5
248
  8
DIM
 10
275.44206899999989
 20
153.6336499999999
 30
0.0
 40
0.125
  1

  0
TEXT
  5
249
  8
DIM
 10
287.29569199999992
 20
151.52196499999991
 30
0.0
 40
0.33325
  1

  0
TEXT
  5
24A
  8
DIM
 10
299.13619199999999
 20
148.00023799999991
 30
0.0
 40
0.33325
  1

  0
TEXT
  5
24B
  8
DIM
 10
312.78349199999991
 20
250.36359899999999
 30
0.0
 40
0.25
  1

  0
TEXT
  5
24C
  8
DIM
 10
314.84768700000001
 20
156.94756000000001
 30
0.0
 40
0.125
  1

  0
TEXT
  5
24D
  8
DIM
 10
314.84768700000001
 20
156.63298299999991
 30
0.0
 40
0.125
  1

  0
TEXT
  5
24E
  8
DIM
 10
310.74885299999988
 20
153.01850899999991
 30
0.0
 40
0.125
  1

  0
TEXT
  5
24F
  8
DIM
 10
308.37498199999987
 20
152.35276200000001
 30
0.0
 40
0.125
  1

  0
TEXT
  5
250
  8
DIM
 10
308.39331499999997
 20
156.04226099999991
 30
0.0
 40
0.125
  1

  0
TEXT
  5
251
  8
DIM
 10
313.08535299999988
 20
155.93987300000001
 30
0.0
 40
0.125
  1

  0
TEXT
  5
252
  8
DIM
 10
316.585353
 20
155.93987300000001
 30
0.0
 40
0.125
  1

  0
TEXT
  5
253
  8
DIM
 10
331.52929599999987
 20
162.28847599999989
 30
0.0
 40
0.33325
  1

  0
TEXT
  5
254
  8
DIM
 10
319.96354500000001
 20
165.83144899999991
 30
0.0
 40
0.33325
  1

  0
DIMENSION
  5
255
  8
DIM
  2
*D25
 10
17.99915
 20
13.980772999999999
 30
0.0
 11
11.99915
 21
13.980772999999999
 31
0.0
 70
     0
 13
5.9991500000000002
 23
13.233772999999999
 33
0.0
 14
17.99915
 24
13.233772999999999
 34
0.0
  0
DIMENSION
  5
263
  8
DIM
  2
*D26
 10
4.9731500000000004
 20
12.233772999999999
 30
0.0
 11
4.9731499999999977
 21
12.733772999999999
 31
0.0
 70
     0
 13
5.9991500000000002
 23
13.233772999999999
 33
0.0
 14
5.9991500000000002
 24
12.233772999999999
 34
0.0
 50
90.0
  0
DIMENSION
  5
271
  8
DIM
  2
*D27
 10
23.99915
 20
4.6406919999999987
 30
0.0
 11
14.74915
 21
4.6406919999999987
 31
0.0
 70
     0
 13
5.4991500000000002
 23
2.704140999999999
 33
0.0
 14
23.99915
 24
2.329140999999999
 34
0.0
  0
POLYLINE
  5
27F
  8
OBJECT
 66
     1
 10
0.0
 20
0.0
 30
0.0
 70
     1
  0
VERTEX
  5
598
  8
OBJECT
 10
5.4991500000000002
 20
1.954140999999999
 30
0.0
  0
VERTEX
  5
599
  8
OBJECT
 10
23.62414999999999
 20
1.954140999999999
 30
0.0
 42
1.0
  0
VERTEX
  5
59A
  8
OBJECT
 10
23.62414999999999
 20
2.704140999999999
 30
0.0
  0
VERTEX
  5
59B
  8
OBJECT
 10
5.4991500000000002
 20
2.704140999999999
 30
0.0
  0
SEQEND
  5
59C
  8
OBJECT
  0
DIMENSION
  5
285
  8
DIM
  2
*D28
 10
23.99915
 20
3.8906919999999992
 30
0.0
 11
27.528837500000002
 21
3.8906919999999992
 31
0.0
 70
     0
  1
<> HOOK LENGTH
 13
20.99915
 23
2.704140999999999
 33
0.0
 14
23.99915
 24
2.329140999999999
 34
0.0
  0
POLYLINE
  5
292
  8
DIM
 66
     1
 10
0.0
 20
0.0
 30
0.0
 41
0.202466
  0
VERTEX
  5
59D
  8
DIM
 10
5.4397630000000001
 20
1.782141
 30
0.0
  0
VERTEX
  5
59E
  8
DIM
 10
5.6880430000000004
 20
1.302705
 30
0.0
 41
0.0
  0
VERTEX
  5
59F
  8
DIM
 10
5.8804169999999987
 20
0.9312239999999999
 30
0.0
 41
0.0
  0
VERTEX
  5
5A0
  8
DIM
 10
6.4203269999999986
 20
0.9312239999999999
 30
0.0
 41
0.0
  0
SEQEND
  5
5A1
  8
DIM
  0
POLYLINE
  5
298
  8
OBJECT
 66
     1
 10
0.0
 20
0.0
 30
0.0
  0
VERTEX
  5
5A2
  8
OBJECT
 10
5.5151500000000002
 20
2.8761410000000001
 30
0.0
  0
VERTEX
  5
5A3
  8
OBJECT
 10
5.2951499999999987
 20
2.8761410000000001
 30
0.0
 42
0.4142140000000001
  0
VERTEX
  5
5A4
  8
OBJECT
 10
5.155149999999999
 20
2.736140999999999
 30
0.0
  0
VERTEX
  5
5A5
  8
OBJECT
 10
5.155149999999999
 20
1.922140999999999
 30
0.0
 42
0.4142140000000001
  0
VERTEX
  5
5A6
  8
OBJECT
 10
5.2951499999999987
 20
1.782141
 30
0.0
  0
VERTEX
  5
5A7
  8
OBJECT
 10
5.5151500000000002
 20
1.782141
 30
0.0
 42
0.4142140000000001
  0
VERTEX
  5
5A8
  8
OBJECT
 10
5.655149999999999
 20
1.922140999999999
 30
0.0
  0
VERTEX
  5
5A9
  8
OBJECT
 10
5.655149999999999
 20
1.954140999999999
 30
0.0
 42
0.4142140000000001
  0
SEQEND
  5
5AA
  8
OBJECT
  0
POLYLINE
  5
2A2
  8
OBJECT
 66
     1
 10
0.0
 20
0.0
 30
0.0
  0
VERTEX
  5
5AB
  8
OBJECT
 10
5.5151500000000002
 20
2.7511410000000001
 30
0.0
  0
VERTEX
  5
5AC
  8
OBJECT
 10
5.2951499999999987
 20
2.7511410000000001
 30
0.0
 42
0.4142140000000001
  0
VERTEX
  5
5AD
  8
OBJECT
 10
5.280149999999999
 20
2.736140999999999
 30
0.0
  0
VERTEX
  5
5AE
  8
OBJECT
 10
5.280149999999999
 20
1.922140999999999
 30
0.0
 42
0.4142140000000001
  0
VERTEX
  5
5AF
  8
OBJECT
 10
5.2951499999999987
 20
1.907141
 30
0.0
  0
VERTEX
  5
5B0
  8
OBJECT
 10
5.5151500000000002
 20
1.907141
 30
0.0
 42
0.4142140000000001
  0
VERTEX
  5
5B1
  8
OBJECT
 10
5.530149999999999
 20
1.922140999999999
 30
0.0
  0
VERTEX
  5
5B2
  8
OBJECT
 10
5.530149999999999
 20
1.954140999999999
 30
0.0
 42
0.4142140000000001
  0
SEQEND
  5
5B3
  8
OBJECT
  0
POLYLINE
  5
2AC
  8
HIDDEN
 66
     1
 10
0.0
 20
0.0
 30
0.0
  0
VERTEX
  5
5B4
  8
HIDDEN
 10
5.530149999999999
 20
1.985141
 30
0.0
  0
VERTEX
  5
5B5
  8
HIDDEN
 10
5.530149999999999
 20
2.6731409999999989
 30
0.0
 42
0.4142140000000001
  0
SEQEND
  5
5B6
  8
HIDDEN
  0
POLYLINE
  5
2B0
  8
HIDDEN
 66
     1
 10
0.0
 20
0.0
 30
0.0
  0
VERTEX
  5
5B7
  8
HIDDEN
 10
5.655149999999999
 20
1.985141
 30
0.0
  0
VERTEX
  5
5B8
  8
HIDDEN
 10
5.655149999999999
 20
2.6731409999999989
 30
0.0
 42
0.4142140000000001
  0
SEQEND
  5
5B9
  8
HIDDEN
  0
POLYLINE
  5
2B4
  8
OBJECT
 66
     1
 10
0.0
 20
0.0
 30
0.0
  0
VERTEX
  5
5BA
  8
OBJECT
 10
5.655149999999999
 20
2.704140999999999
 30
0.0
  0
VERTEX
  5
5BB
  8
OBJECT
 10
5.655149999999999
 20
2.736140999999999
 30
0.0
 42
0.4142140000000001
  0
VERTEX
  5
5BC
  8
OBJECT
 10
5.5151500000000002
 20
2.8761410000000001
 30
0.0
  0
SEQEND
  5
5BD
  8
OBJECT
  0
POLYLINE
  5
2B9
  8
OBJECT
 66
     1
 10
0.0
 20
0.0
 30
0.0
  0
VERTEX
  5
5BE
  8
OBJECT
 10
5.530149999999999
 20
2.704140999999999
 30
0.0
  0
VERTEX
  5
5BF
  8
OBJECT
 10
5.530149999999999
 20
2.736140999999999
 30
0.0
 42
0.4142140000000001
  0
VERTEX
  5
5C0
  8
OBJECT
 10
5.5151500000000002
 20
2.7511410000000001
 30
0.0
  0
SEQEND
  5
5C1
  8
OBJECT
  0
DIMENSION
  5
2BE
  8
DIM
  2
*D29
 10
22.327693
 20
1.954140999999999
 30
0.0
 11
22.327693
 21
2.329141000000003
 31
0.0
 70
     0
 13
22.390692999999999
 23
2.704140999999999
 33
0.0
 14
22.390692999999999
 24
1.954140999999999
 34
0.0
 50
90.0
  0
TEXT
  5
2CC
  8
DIM
 10
6.6902819999999998
 20
0.7437550000000001
 30
0.0
 40
0.374938
  1
PLASTIC BUCKLE
 41
0.75
 11
6.6902819999999998
 21
0.9312239999999999
 31
0.0
 73
     2
  0
DIMENSION
  5
2CD
  8
DIM
  2
*D30
 10
20.99915
 20
3.8906919999999992
 30
0.0
 11
13.49915
 21
3.8906919999999992
 31
0.0
 70
     0
  1
<> LOOP LENGTH
 13
5.9991500000000002
 23
2.704140999999999
 33
0.0
 14
20.99915
 24
2.704140999999999
 34
0.0
  0
LINE
  5
2DB
  8
BEND
 10
5.9991500000000002
 20
1.954140999999999
 30
0.0
 11
5.9991500000000002
 21
2.704140999999999
 31
0.0
  0
LINE
  5
2DC
  8
BEND
 10
20.99915
 20
1.954140999999999
 30
0.0
 11
20.99915
 21
2.704140999999999
 31
0.0
  0
TEXT
  5
2DD
  8
TEXT
 10
1.0489809999999991
 20
42.893962000000002
 30
0.0
 40
0.375
  1
STRAPS
 41
0.75
  0
LINE
  5
2DE
  8
TEXT
 10
4.5295279999999991
 20
42.893962000000002
 30
0.0
 11
2.8115549999999989
 21
42.893962000000002
 31
0.0
  0
TEXT
  5
2DF
  8
TEXT
 10
4.7239120000000003
 20
42.893962000000002
 30
0.0
 40
0.375
  1
VELCRO
 41
0.75
  0
TEXT
  5
2E0
  8
TEXT
 10
1.0489809999999991
 20
40.411836999999998
 30
0.0
 40
0.375
  1
STRAPS
 41
0.75
  0
LINE
  5
2E1
  8
TEXT
 10
4.5295279999999991
 20
40.411836999999998
 30
0.0
 11
2.8115549999999989
 21
40.411836999999998
 31
0.0
  0
TEXT
  5
2E2
  8
TEXT
 10
4.7239120000000003
 20
40.411836999999998
 30
0.0
 40
0.375
  1
BLACK
 41
0.75
  0
TEXT
  5
2E3
  8
TEXT
 10
0.7864860000000001
 20
37.340462000000002
 30
0.0
 40
0.375
  1
SHIPPED IN PACKAGES OF SIX (6) BRACKETS & STRAPS.
 41
0.75
  0
TEXT
  5
2E4
  8
TEXT
 10
0.7864860000000001
 20
38.572586999999999
 30
0.0
 40
0.375
  1
& SIX (6) #12-24 x 1/2 LG. SCREWS FOR MOUNTING.
 41
0.75
  0
TEXT
  5
2E5
  8
TEXT
 10
0.7864860000000001
 20
39.179712000000002
 30
0.0
 40
0.375
  1
SUPPLIED WITH SIX (6) #10-32 x 5/8 LG. SCREWS
 41
0.75
  0
DIMENSION
  5
2E6
  8
DIM
  2
*D31
 10
25.560817
 20
36.935676000000001
 30
0.0
 11
25.560817
 21
36.623176000000008
 31
0.0
 70
     0
 13
22.924164000000001
 23
36.310676000000001
 33
0.0
 14
22.924164000000001
 24
36.935676000000001
 34
0.0
 50
270.0
  0
DIMENSION
  5
2F4
  8
DIM
  2
*D32
 10
24.531817
 20
37.560676000000001
 30
0.0
 11
24.531817
 21
37.248176000000008
 31
0.0
 70
     0
 13
22.924164000000001
 23
36.935676000000001
 33
0.0
 14
22.924164000000001
 24
37.560676000000001
 34
0.0
 50
270.0
  0
TEXT
  5
302
  8
TEXT
 10
0.6235000000000001
 20
45.180238000000003
 30
0.0
 40
0.375
  1
NAME
 72
     1
 11
1.3109999999999991
 21
45.180238000000003
 31
0.0
  0
TEXT
  5
303
  8
TEXT
 10
0.6235000000000001
 20
45.805238000000003
 30
0.0
 40
0.375
  1
PART
 72
     1
 11
1.3109999999999991
 21
45.805238000000003
 31
0.0
  0
TEXT
  5
304
  8
TEXT
 10
16.116
 20
45.180238000000003
 30
0.0
 40
0.375
  1
No.
 72
     1
 11
16.490999999999989
 21
45.180238000000003
 31
0.0
  0
TEXT
  5
305
  8
TEXT
 10
15.8035
 20
45.805238000000003
 30
0.0
 40
0.375
  1
PART
 72
     1
 11
16.490999999999989
 21
45.805238000000003
 31
0.0
  0
LINE
  5
306
  8
TITLE
 10
17.616
 20
46.313999999999993
 30
0.0
 11
17.616
 21
45.060000000000002
 31
0.0
  0
LINE
  5
307
  8
TITLE
 10
15.365999999999991
 20
46.313999999999993
 30
0.0
 11
15.365999999999991
 21
45.060000000000002
 31
0.0
  0
LINE
  5
308
  8
TITLE
 10
15.179999999999991
 20
46.313999999999993
 30
0.0
 11
15.179999999999991
 21
45.060000000000002
 31
0.0
  0
LINE
  5
309
  8
TITLE
 10
2.4359999999999991
 20
45.060000000000002
 30
0.0
 11
2.4359999999999991
 21
46.313999999999993
 31
0.0
  0
LINE
  5
30A
  8
TITLE
 10
0.186
 20
45.060000000000002
 30
0.0
 11
30.173999999999999
 21
45.060000000000002
 31
0.0
  0
LINE
  5
30B
  8
TITLE
 10
30.173999999999999
 20
0.186
 30
0.0
 11
0.186
 21
0.186
 31
0.0
  0
LINE
  5
30C
  8
TITLE
 10
30.173999999999999
 20
46.313999999999993
 30
0.0
 11
30.173999999999999
 21
31.122
 31
0.0
  0
LINE
  5
30D
  8
TITLE
 10
0.186
 20
46.313999999999993
 30
0.0
 11
30.173999999999999
 21
46.313999999999993
 31
0.0
  0
LINE
  5
30E
  8
TITLE
 10
0.186
 20
0.186
 30
0.0
 11
0.186
 21
10.311999999999999
 31
0.0
  0
LINE
  5
30F
  8
TITLE
 10
0.0
 20
0.0
 30
0.0
 11
0.0
 21
46.5
 31
0.0
  0
LINE
  5
310
  8
TITLE
 10
30.359999999999999
 20
0.0
 30
0.0
 11
0.0
 21
0.0
 31
0.0
  0
LINE
  5
311
  8
TITLE
 10
30.359999999999999
 20
46.5
 30
0.0
 11
30.359999999999999
 21
0.0
 31
0.0
  0
LINE
  5
312
  8
TITLE
 10
0.0
 20
46.5
 30
0.0
 11
30.359999999999999
 21
46.5
 31
0.0
  0
LINE
  5
313
  8
TITLE
 10
0.186
 20
31.122
 30
0.0
 11
30.173999999999999
 21
31.122
 31
0.0
  0
LINE
  5
314
  8
TITLE
 10
0.186
 20
30.936
 30
0.0
 11
30.173999999999999
 21
30.936
 31
0.0
  0
LINE
  5
315
  8
TITLE
 10
0.186
 20
29.681999999999992
 30
0.0
 11
30.173999999999999
 21
29.681999999999992
 31
0.0
  0
TEXT
  5
316
  8
TEXT
 10
2.7611249999999989
 20
30.027750000000001
 30
0.0
 40
0.5625
  1
CABLE MANAGEMENT STRAPS 8" LG.
 41
0.75
 72
     1
 11
8.8079999999999998
 21
30.027750000000001
 31
0.0
  0
TEXT
  5
317
  8
TEXT
 10
0.6235000000000001
 20
30.427237999999999
 30
0.0
 40
0.375
  1
PART
 72
     1
 11
1.3109999999999991
 21
30.427237999999999
 31
0.0
  0
TEXT
  5
318
  8
TEXT
 10
0.6235000000000001
 20
29.802237999999999
 30
0.0
 40
0.375
  1
NAME
 72
     1
 11
1.3109999999999991
 21
29.802237999999999
 31
0.0
  0
LINE
  5
319
  8
TITLE
 10
2.4359999999999991
 20
29.681999999999992
 30
0.0
 11
2.4359999999999991
 21
30.936
 31
0.0
  0
TEXT
  5
31A
  8
TEXT
 10
15.8035
 20
30.427237999999999
 30
0.0
 40
0.375
  1
PART
 72
     1
 11
16.490999999999989
 21
30.427237999999999
 31
0.0
  0
TEXT
  5
31B
  8
TEXT
 10
16.116
 20
29.802237999999999
 30
0.0
 40
0.375
  1
No.
 72
     1
 11
16.490999999999989
 21
29.802237999999999
 31
0.0
  0
LINE
  5
31C
  8
TITLE
 10
15.179999999999991
 20
30.936
 30
0.0
 11
15.179999999999991
 21
29.681999999999992
 31
0.0
  0
LINE
  5
31D
  8
TITLE
 10
15.365999999999991
 20
30.936
 30
0.0
 11
15.365999999999991
 21
29.681999999999992
 31
0.0
  0
LINE
  5
31E
  8
TITLE
 10
17.616
 20
30.936
 30
0.0
 11
17.616
 21
29.681999999999992
 31
0.0
  0
TEXT
  5
31F
  8
TEXT
 10
21.89109375
 20
30.027750000000001
 30
0.0
 40
0.5625
  1
CMS-2208-B
 41
0.75
 72
     1
 11
23.894999999999989
 21
30.027750000000001
 31
0.0
  0
TEXT
  5
320
  8
TEXT
 10
0.7864860000000001
 20
26.265961999999991
 30
0.0
 40
0.375
  1
SHIPPED IN PACKAGES OF TWENTY-FIVE (25) STRAPS.
 41
0.75
  0
TEXT
  5
321
  8
TEXT
 10
0.7864860000000001
 20
28.748086999999991
 30
0.0
 40
0.375
  1
%%uMATERIAL:%%u VELCRO 
 41
0.75
  0
TEXT
  5
322
  8
TEXT
 10
0.7864860000000001
 20
27.480212000000002
 30
0.0
 40
0.375
  1
%%uFINISH:%%u BLACK
 41
0.75
  0
TEXT
  5
323
  8
TEXT
 10
16.116
 20
19.490238000000002
 30
0.0
 40
0.375
  1
No.
 72
     1
 11
16.490999999999989
 21
19.490238000000002
 31
0.0
  0
TEXT
  5
324
  8
TEXT
 10
15.8035
 20
20.115238000000002
 30
0.0
 40
0.375
  1
PART
 72
     1
 11
16.490999999999989
 21
20.115238000000002
 31
0.0
  0
LINE
  5
325
  8
TITLE
 10
0.186
 20
20.809999999999992
 30
0.0
 11
30.173999999999999
 21
20.809999999999992
 31
0.0
  0
LINE
  5
326
  8
TITLE
 10
0.186
 20
19.370000000000001
 30
0.0
 11
30.173999999999999
 21
19.370000000000001
 31
0.0
  0
LINE
  5
327
  8
TITLE
 10
0.186
 20
20.623999999999999
 30
0.0
 11
30.173999999999999
 21
20.623999999999999
 31
0.0
  0
TEXT
  5
328
  8
TEXT
 10
0.7864860000000001
 20
15.95396199999999
 30
0.0
 40
0.375
  1
SHIPPED IN PACKAGES OF TWENTY-FIVE (25) STRAPS.
 41
0.75
  0
TEXT
  5
329
  8
TEXT
 10
2.6204999999999989
 20
19.715749999999989
 30
0.0
 40
0.5625
  1
CABLE MANAGEMENT STRAPS 12" LG.
 41
0.75
 72
     1
 11
8.8079999999999998
 21
19.715749999999989
 31
0.0
  0
TEXT
  5
32A
  8
TEXT
 10
0.7864860000000001
 20
17.168212
 30
0.0
 40
0.375
  1
%%uFINISH:%%u BLACK
 41
0.75
  0
TEXT
  5
32B
  8
TEXT
 10
0.7864860000000001
 20
18.436087000000001
 30
0.0
 40
0.375
  1
%%uMATERIAL:%%u VELCRO 
 41
0.75
  0
TEXT
  5
32C
  8
TEXT
 10
0.6235000000000001
 20
19.490238000000002
 30
0.0
 40
0.375
  1
NAME
 72
     1
 11
1.3109999999999991
 21
19.490238000000002
 31
0.0
  0
TEXT
  5
32D
  8
TEXT
 10
0.6235000000000001
 20
20.115238000000002
 30
0.0
 40
0.375
  1
PART
 72
     1
 11
1.3109999999999991
 21
20.115238000000002
 31
0.0
  0
LINE
  5
32E
  8
TITLE
 10
2.4359999999999991
 20
19.370000000000001
 30
0.0
 11
2.4359999999999991
 21
20.623999999999999
 31
0.0
  0
LINE
  5
32F
  8
TITLE
 10
15.365999999999991
 20
20.623999999999999
 30
0.0
 11
15.365999999999991
 21
19.370000000000001
 31
0.0
  0
LINE
  5
330
  8
TITLE
 10
15.179999999999991
 20
20.623999999999999
 30
0.0
 11
15.179999999999991
 21
19.370000000000001
 31
0.0
  0
LINE
  5
331
  8
TITLE
 10
17.616
 20
20.623999999999999
 30
0.0
 11
17.616
 21
19.370000000000001
 31
0.0
  0
TEXT
  5
332
  8
TEXT
 10
21.92625
 20
19.715749999999989
 30
0.0
 40
0.5625
  1
CMS-2212-B
 41
0.75
 72
     1
 11
23.894999999999989
 21
19.715749999999989
 31
0.0
  0
LINE
  5
333
  8
TITLE
 10
0.186
 20
10.311999999999999
 30
0.0
 11
30.173999999999999
 21
10.311999999999999
 31
0.0
  0
LINE
  5
334
  8
TITLE
 10
0.186
 20
9.0579999999999998
 30
0.0
 11
30.173999999999999
 21
9.0579999999999998
 31
0.0
  0
LINE
  5
335
  8
TITLE
 10
0.186
 20
10.497999999999999
 30
0.0
 11
30.173999999999999
 21
10.497999999999999
 31
0.0
  0
TEXT
  5
336
  8
TEXT
 10
15.8035
 20
9.8032380000000003
 30
0.0
 40
0.375
  1
PART
 72
     1
 11
16.490999999999989
 21
9.8032380000000003
 31
0.0
  0
TEXT
  5
337
  8
TEXT
 10
16.116
 20
9.1782380000000003
 30
0.0
 40
0.375
  1
No.
 72
     1
 11
16.490999999999989
 21
9.1782380000000003
 31
0.0
  0
TEXT
  5
338
  8
TEXT
 10
2.6204999999999989
 20
9.4037500000000005
 30
0.0
 40
0.5625
  1
CABLE MANAGEMENT STRAPS 18" LG.
 41
0.75
 72
     1
 11
8.8079999999999998
 21
9.4037500000000005
 31
0.0
  0
TEXT
  5
339
  8
TEXT
 10
0.7864860000000001
 20
5.6419620000000004
 30
0.0
 40
0.375
  1
SHIPPED IN PACKAGES OF TWENTY-FIVE (25) STRAPS.
 41
0.75
  0
TEXT
  5
33A
  8
TEXT
 10
0.6235000000000001
 20
9.8032380000000003
 30
0.0
 40
0.375
  1
PART
 72
     1
 11
1.3109999999999991
 21
9.8032380000000003
 31
0.0
  0
TEXT
  5
33B
  8
TEXT
 10
0.6235000000000001
 20
9.1782380000000003
 30
0.0
 40
0.375
  1
NAME
 72
     1
 11
1.3109999999999991
 21
9.1782380000000003
 31
0.0
  0
TEXT
  5
33C
  8
TEXT
 10
0.7864860000000001
 20
8.1240869999999994
 30
0.0
 40
0.375
  1
%%uMATERIAL:%%u VELCRO 
 41
0.75
  0
TEXT
  5
33D
  8
TEXT
 10
0.7864860000000001
 20
6.8562119999999993
 30
0.0
 40
0.375
  1
%%uFINISH:%%u BLACK
 41
0.75
  0
LINE
  5
33E
  8
TITLE
 10
2.4359999999999991
 20
9.0579999999999998
 30
0.0
 11
2.4359999999999991
 21
10.311999999999999
 31
0.0
  0
LINE
  5
33F
  8
TITLE
 10
15.179999999999991
 20
10.311999999999999
 30
0.0
 11
15.179999999999991
 21
9.0579999999999998
 31
0.0
  0
LINE
  5
340
  8
TITLE
 10
15.365999999999991
 20
10.311999999999999
 30
0.0
 11
15.365999999999991
 21
9.0579999999999998
 31
0.0
  0
LINE
  5
341
  8
TITLE
 10
17.616
 20
10.311999999999999
 30
0.0
 11
17.616
 21
9.0579999999999998
 31
0.0
  0
TEXT
  5
342
  8
TEXT
 10
21.92625
 20
9.4037500000000005
 30
0.0
 40
0.5625
  1
CMS-2218-B
 41
0.75
 72
     1
 11
23.894999999999989
 21
9.4037500000000005
 31
0.0
  0
LINE
  5
343
  8
TITLE
 10
0.186
 20
10.497999999999999
 30
0.0
 11
0.186
 21
20.623999999999999
 31
0.0
  0
LINE
  5
344
  8
TITLE
 10
30.173999999999999
 20
10.311999999999999
 30
0.0
 11
30.173999999999999
 21
0.186
 31
0.0
  0
LINE
  5
345
  8
TITLE
 10
30.173999999999999
 20
20.623999999999999
 30
0.0
 11
30.173999999999999
 21
10.497999999999999
 31
0.0
  0
LINE
  5
346
  8
TITLE
 10
0.186
 20
20.809999999999992
 30
0.0
 11
0.186
 21
30.936
 31
0.0
  0
LINE
  5
347
  8
TITLE
 10
0.186
 20
31.122
 30
0.0
 11
0.186
 21
46.313999999999993
 31
0.0
  0
LINE
  5
348
  8
TITLE
 10
30.173999999999999
 20
30.936
 30
0.0
 11
30.173999999999999
 21
20.809999999999992
 31
0.0
  0
LINE
  5
349
  8
OBJECT
 10
5.9991500000000002
 20
12.233772999999999
 30
0.0
 11
17.99915
 21
12.233772999999999
 31
0.0
  0
LINE
  5
34A
  8
OBJECT
 10
17.99915
 20
13.233772999999999
 30
0.0
 11
5.9991500000000002
 21
13.233772999999999
 31
0.0
  0
LINE
  5
34B
  8
OBJECT
 10
5.9991500000000002
 20
13.233772999999999
 30
0.0
 11
5.9991500000000002
 21
12.233772999999999
 31
0.0
  0
LINE
  5
34C
  8
OBJECT
 10
17.99915
 20
13.233772999999999
 30
0.0
 11
17.99915
 21
12.233772999999999
 31
0.0
  0
DIMENSION
  5
34D
  8
DIM
  2
*D33
 10
13.99915
 20
24.292773
 30
0.0
 11
9.9991500000000002
 21
24.292773
 31
0.0
 70
     0
 13
5.9991500000000002
 23
23.545773000000001
 33
0.0
 14
13.99915
 24
23.545773000000001
 34
0.0
  0
LINE
  5
35B
  8
OBJECT
 10
5.9991500000000002
 20
22.545773000000001
 30
0.0
 11
13.99915
 21
22.545773000000001
 31
0.0
  0
LINE
  5
35C
  8
OBJECT
 10
13.99915
 20
23.545773000000001
 30
0.0
 11
5.9991500000000002
 21
23.545773000000001
 31
0.0
  0
DIMENSION
  5
35D
  8
DIM
  2
*D34
 10
4.9731500000000004
 20
22.545773000000001
 30
0.0
 11
4.973149999999996
 21
23.045773000000001
 31
0.0
 70
     0
 13
5.9991500000000002
 23
23.545773000000001
 33
0.0
 14
5.9991500000000002
 24
22.545773000000001
 34
0.0
 50
90.0
  0
LINE
  5
36B
  8
OBJECT
 10
5.9991500000000002
 20
23.545773000000001
 30
0.0
 11
5.9991500000000002
 21
22.545773000000001
 31
0.0
  0
LINE
  5
36C
  8
OBJECT
 10
13.99915
 20
23.545773000000001
 30
0.0
 11
13.99915
 21
22.545773000000001
 31
0.0
  0
DIMENSION
  5
36D
  8
DIM
  2
*D35
 10
17.99915
 20
34.604773000000002
 30
0.0
 11
11.99915
 21
34.604773000000002
 31
0.0
 70
     0
 13
5.9991500000000002
 23
33.857773000000002
 33
0.0
 14
17.99915
 24
33.857773000000002
 34
0.0
  0
LINE
  5
37B
  8
OBJECT
 10
5.9991500000000002
 20
32.857773000000002
 30
0.0
 11
17.99915
 21
32.857773000000002
 31
0.0
  0
LINE
  5
37C
  8
OBJECT
 10
17.99915
 20
33.857773000000002
 30
0.0
 11
5.9991500000000002
 21
33.857773000000002
 31
0.0
  0
DIMENSION
  5
37D
  8
DIM
  2
*D36
 10
4.9731500000000004
 20
32.857773000000002
 30
0.0
 11
4.9731499999999951
 21
33.357773000000002
 31
0.0
 70
     0
 13
5.9991500000000002
 23
33.857773000000002
 33
0.0
 14
5.9991500000000002
 24
32.857773000000002
 34
0.0
 50
90.0
  0
LINE
  5
38B
  8
OBJECT
 10
5.9991500000000002
 20
33.857773000000002
 30
0.0
 11
5.9991500000000002
 21
32.857773000000002
 31
0.0
  0
LINE
  5
38C
  8
OBJECT
 10
17.99915
 20
33.857773000000002
 30
0.0
 11
17.99915
 21
32.857773000000002
 31
0.0
  0
LINE
  5
38D
  8
BRACKET
 10
18.918027999999989
 20
43.481898000000001
 30
0.0
 11
18.816963999999999
 21
43.540246999999987
 31
0.0
  0
LINE
  5
38E
  8
BRACKET
 10
18.864333999999989
 20
43.450897999999988
 30
0.0
 11
18.828106999999999
 21
43.471814000000002
 31
0.0
  0
LINE
  5
38F
  8
BRACKET
 10
17.076857999999991
 20
40.544897999999989
 30
0.0
 11
17.178029999999989
 21
40.486485999999992
 31
0.0
  0
LINE
  5
390
  8
BRACKET
 10
17.076857999999991
 20
40.606898000000001
 30
0.0
 11
17.231722999999999
 21
40.517485999999991
 31
0.0
  0
LINE
  5
391
  8
BRACKET
 10
19.026281000000001
 20
40.419398000000001
 30
0.0
 11
18.773967999999989
 21
40.565071000000003
 31
0.0
  0
LINE
  5
392
  8
BRACKET
 10
17.727242999999991
 20
43.920397999999999
 30
0.0
 11
17.727242999999991
 21
41.169397999999987
 31
0.0
  0
LINE
  5
393
  8
BRACKET
 10
17.727242999999991
 20
41.169397999999987
 30
0.0
 11
17.076857999999991
 21
40.793897999999999
 31
0.0
  0
LINE
  5
394
  8
BRACKET
 10
17.022876
 20
40.638397999999988
 30
0.0
 11
17.022876
 21
40.700397999999993
 31
0.0
  0
ARC
  5
395
  8
BRACKET
 10
17.130839999999999
 20
40.700397999999993
 30
0.0
 40
0.107964
 50
119.9999999999999
 51
239.99999999999989
  0
ARC
  5
396
  8
BRACKET
 10
17.130839999999999
 20
40.638397999999988
 30
0.0
 40
0.107964
 50
180.0
 51
239.99999999999989
  0
ARC
  5
397
  8
BRACKET
 10
17.888901000000001
 20
43.95139799999999
 30
0.0
 40
0.107964
 50
60.0
 51
119.9999999999999
  0
ARC
  5
398
  8
BRACKET
 10
17.835207
 20
43.920397999999999
 30
0.0
 40
0.107964
 50
60.0
 51
180.0
  0
LINE
  5
399
  8
BRACKET
 10
17.781224999999999
 20
44.01389799999999
 30
0.0
 11
17.834918999999999
 21
44.044897999999989
 31
0.0
  0
LINE
  5
39A
  8
BRACKET
 10
18.375896000000001
 20
39.981898000000001
 30
0.0
 11
19.079975000000001
 21
40.388397999999988
 31
0.0
  0
LINE
  5
39B
  8
BRACKET
 10
18.375896000000001
 20
40.043897999999999
 30
0.0
 11
19.026281000000001
 21
40.419398000000001
 31
0.0
  0
ARC
  5
39C
  8
BRACKET
 10
18.213948999999989
 20
40.26239799999999
 30
0.0
 40
0.323893
 50
239.99999999999989
 51
300.0
  0
ARC
  5
39D
  8
BRACKET
 10
18.213948999999989
 20
40.324397999999988
 30
0.0
 40
0.323893
 50
249.88424499999999
 51
300.0
  0
LINE
  5
39E
  8
BRACKET
 10
18.845330999999991
 20
41.961869999999998
 30
0.0
 11
18.713754000000002
 21
42.037835999999999
 31
0.0
  0
LINE
  5
39F
  8
BRACKET
 10
19.079975000000001
 20
40.388397999999988
 30
0.0
 11
19.079975000000001
 21
43.20139799999999
 31
0.0
  0
LINE
  5
3A0
  8
BRACKET
 10
19.026281000000001
 20
40.419398000000001
 30
0.0
 11
19.026281000000001
 21
43.170397999999992
 31
0.0
  0
LINE
  5
3A1
  8
BRACKET
 10
18.845330999999991
 20
40.711869999999998
 30
0.0
 11
18.835540999999989
 21
40.717521999999988
 31
0.0
  0
POLYLINE
  5
3A2
  8
BRACKET
 66
     1
 10
0.0
 20
0.0
 30
0.0
  0
VERTEX
  5
5C2
  8
BRACKET
 10
18.845330999999991
 20
40.711869999999998
 30
0.0
 42
0.024891
  0
VERTEX
  5
5C3
  8
BRACKET
 10
18.852643
 20
40.707147999999997
 30
0.0
 42
0.002221
  0
VERTEX
  5
5C4
  8
BRACKET
 10
18.853073999999999
 20
40.706901999999999
 30
0.0
 42
0.156851
  0
SEQEND
  5
5C5
  8
BRACKET
  0
LINE
  5
3A7
  8
BRACKET
 10
18.845330999999991
 20
41.336869999999998
 30
0.0
 11
17.990306
 21
41.830519000000002
 31
0.0
  0
POLYLINE
  5
3A8
  8
BRACKET
 66
     1
 10
0.0
 20
0.0
 30
0.0
  0
VERTEX
  5
5C6
  8
BRACKET
 10
18.845330999999991
 20
41.336869999999998
 30
0.0
 42
0.024891
  0
VERTEX
  5
5C7
  8
BRACKET
 10
18.852643
 20
41.332147999999997
 30
0.0
 42
0.002221
  0
VERTEX
  5
5C8
  8
BRACKET
 10
18.853073999999999
 20
41.331901999999999
 30
0.0
 42
0.156851
  0
SEQEND
  5
5C9
  8
BRACKET
  0
POLYLINE
  5
3AD
  8
BRACKET
 66
     1
 10
0.0
 20
0.0
 30
0.0
  0
VERTEX
  5
5CA
  8
BRACKET
 10
18.845330999999991
 20
41.961869999999998
 30
0.0
 42
0.024891
  0
VERTEX
  5
5CB
  8
BRACKET
 10
18.852643
 20
41.957147999999997
 30
0.0
 42
0.002221
  0
VERTEX
  5
5CC
  8
BRACKET
 10
18.853073999999999
 20
41.956901999999999
 30
0.0
 42
0.156851
  0
SEQEND
  5
5CD
  8
BRACKET
  0
LINE
  5
3B2
  8
BRACKET
 10
18.845330999999991
 20
43.211869999999998
 30
0.0
 11
18.000955999999992
 21
43.699370000000002
 31
0.0
  0
LINE
  5
3B3
  8
BRACKET
 10
18.845330999999991
 20
42.586869999999998
 30
0.0
 11
18.822738000000001
 21
42.599913000000001
 31
0.0
  0
POLYLINE
  5
3B4
  8
BRACKET
 66
     1
 10
0.0
 20
0.0
 30
0.0
  0
VERTEX
  5
5CE
  8
BRACKET
 10
18.845330999999991
 20
42.586869999999998
 30
0.0
 42
0.024891
  0
VERTEX
  5
5CF
  8
BRACKET
 10
18.852643
 20
42.582147999999997
 30
0.0
 42
0.002221
  0
VERTEX
  5
5D0
  8
BRACKET
 10
18.853073999999999
 20
42.581901999999999
 30
0.0
 42
0.156851
  0
SEQEND
  5
5D1
  8
BRACKET
  0
POLYLINE
  5
3B9
  8
BRACKET
 66
     1
 10
0.0
 20
0.0
 30
0.0
  0
VERTEX
  5
5D2
  8
BRACKET
 10
18.845330999999991
 20
43.211869999999998
 30
0.0
 42
0.024891
  0
VERTEX
  5
5D3
  8
BRACKET
 10
18.852643
 20
43.207147999999997
 30
0.0
 42
0.002221
  0
VERTEX
  5
5D4
  8
BRACKET
 10
18.853073999999999
 20
43.206901999999999
 30
0.0
 42
0.156851
  0
SEQEND
  5
5D5
  8
BRACKET
  0
POLYLINE
  5
3BE
  8
BRACKET
 66
     1
 10
0.0
 20
0.0
 30
0.0
  0
VERTEX
  5
5D6
  8
BRACKET
 10
17.954143999999999
 20
43.788893999999999
 30
0.0
 42
0.002221
  0
VERTEX
  5
5D7
  8
BRACKET
 10
17.954142000000001
 20
43.788398000000001
 30
0.0
 42
0.072341
  0
VERTEX
  5
5D8
  8
BRACKET
 10
17.957765999999989
 20
43.763480999999999
 30
0.0
 42
0.058752
  0
VERTEX
  5
5D9
  8
BRACKET
 10
17.969995000000001
 20
43.735050999999999
 30
0.0
 42
0.058752
  0
VERTEX
  5
5DA
  8
BRACKET
 10
17.988500999999999
 20
43.710244999999993
 30
0.0
 42
0.072341
  0
VERTEX
  5
5DB
  8
BRACKET
 10
18.008268000000001
 20
43.694648000000001
 30
0.0
 42
0.031161
  0
VERTEX
  5
5DC
  8
BRACKET
 10
18.014495999999991
 20
43.691552000000001
 30
0.0
 42
0.156851
  0
SEQEND
  5
5DD
  8
BRACKET
  0
ARC
  5
3C7
  8
BRACKET
 10
18.756080999999998
 20
43.20139799999999
 30
0.0
 40
0.323893
 50
0.0
 51
60.0
  0
ARC
  5
3C8
  8
BRACKET
 10
18.702387999999999
 20
43.170397999999992
 30
0.0
 40
0.323893
 50
0.0
 51
60.0
  0
POLYLINE
  5
3C9
  8
STRAP
 66
     1
 10
0.0
 20
0.0
 30
0.0
  0
VERTEX
  5
5DE
  8
STRAP
 10
17.593909
 20
44.631659999999997
 30
0.0
 42
0.000005
  0
VERTEX
  5
5DF
  8
STRAP
 10
17.593897999999999
 20
44.631666000000003
 30
0.0
 42
0.156851
  0
VERTEX
  5
5E0
  8
STRAP
 10
17.213418000000001
 20
44.713729999999991
 30
0.0
 42
0.106617
  0
VERTEX
  5
5E1
  8
STRAP
 10
16.675339000000001
 20
44.540675999999998
 30
0.0
  0
VERTEX
  5
5E2
  8
STRAP
 10
14.725144
 20
43.414731000000003
 30
0.0
 42
0.267949
  0
VERTEX
  5
5E3
  8
STRAP
 10
14.292132000000001
 20
42.664731000000003
 30
0.0
  0
VERTEX
  5
5E4
  8
STRAP
 10
14.292132000000001
 20
41.176704000000001
 30
0.0
  0
VERTEX
  5
5E5
  8
STRAP
 10
15.158156999999999
 20
40.676703999999987
 30
0.0
  0
VERTEX
  5
5E6
  8
STRAP
 10
15.189157
 20
40.694602000000003
 30
0.0
  0
SEQEND
  5
5E7
  8
STRAP
  0
POLYLINE
  5
3D4
  8
STRAP
 66
     1
 10
0.0
 20
0.0
 30
0.0
  0
VERTEX
  5
5E8
  8
STRAP
 10
15.189157
 20
40.694602000000003
 30
0.0
  0
VERTEX
  5
5E9
  8
STRAP
 10
15.189157
 20
42.164731000000003
 30
0.0
 42
-0.267949
  0
VERTEX
  5
5EA
  8
STRAP
 10
15.606669999999999
 20
42.887884
 30
0.0
  0
VERTEX
  5
5EB
  8
STRAP
 10
17.556864999999991
 20
44.013829000000001
 30
0.0
 42
-0.106617
  0
VERTEX
  5
5EC
  8
STRAP
 10
18.0825
 20
44.182881000000002
 30
0.0
 42
-0.156851
  0
VERTEX
  5
5ED
  8
STRAP
 10
18.444423
 20
44.104818999999992
 30
0.0
 42
-0.156851
  0
VERTEX
  5
5EE
  8
STRAP
 10
18.692989000000001
 20
43.830415000000002
 30
0.0
 42
-0.106617
  0
VERTEX
  5
5EF
  8
STRAP
 10
18.809402999999989
 20
43.290675999999998
 30
0.0
  0
VERTEX
  5
5F0
  8
STRAP
 10
18.809402999999989
 20
43.232613000000001
 30
0.0
 42
-0.267949
  0
SEQEND
  5
5F1
  8
STRAP
  0
POLYLINE
  5
3DF
  8
STRAP
 66
     1
 10
0.0
 20
0.0
 30
0.0
  0
VERTEX
  5
5F2
  8
STRAP
 10
15.158156999999999
 20
40.676703999999987
 30
0.0
  0
VERTEX
  5
5F3
  8
STRAP
 10
15.158156999999999
 20
42.164731000000003
 30
0.0
 42
-0.267949
  0
VERTEX
  5
5F4
  8
STRAP
 10
15.59117
 20
42.914731000000003
 30
0.0
  0
VERTEX
  5
5F5
  8
STRAP
 10
17.541364999999988
 20
44.040675999999998
 30
0.0
 42
-0.106617
  0
VERTEX
  5
5F6
  8
STRAP
 10
18.079443999999999
 20
44.213729999999991
 30
0.0
 42
-0.156851
  0
VERTEX
  5
5F7
  8
STRAP
 10
18.459922999999989
 20
44.131665999999989
 30
0.0
 42
-0.156851
  0
VERTEX
  5
5F8
  8
STRAP
 10
18.721232000000001
 20
43.843192999999999
 30
0.0
 42
-0.106617
  0
VERTEX
  5
5F9
  8
STRAP
 10
18.840402999999991
 20
43.290675999999998
 30
0.0
  0
VERTEX
  5
5FA
  8
STRAP
 10
18.840402999999991
 20
43.214714999999998
 30
0.0
 42
-0.267949
  0
SEQEND
  5
5FB
  8
STRAP
  0
LINE
  5
3EA
  8
STRAP
 10
15.569637
 20
38.997219999999999
 30
0.0
 11
14.70361099999999
 21
39.497219999999992
 31
0.0
  0
LINE
  5
3EB
  8
STRAP
 10
15.189157
 20
41.260978999999999
 30
0.0
 11
15.220157
 21
41.243080999999989
 31
0.0
  0
LINE
  5
3EC
  8
STRAP
 10
15.189157
 20
41.225183999999999
 30
0.0
 11
15.220157
 21
41.243080999999989
 31
0.0
  0
LINE
  5
3ED
  8
STRAP
 10
18.459922999999989
 20
44.131665999999989
 30
0.0
 11
17.593897999999999
 21
44.631666000000003
 31
0.0
  0
POLYLINE
  5
3EE
  8
STRAP
 66
     1
 10
0.0
 20
0.0
 30
0.0
  0
VERTEX
  5
5FC
  8
STRAP
 10
18.813074
 20
42.667994
 30
0.0
 42
0.011878
  0
VERTEX
  5
5FD
  8
STRAP
 10
18.766739000000001
 20
42.524636999999991
 30
0.0
 42
0.072341
  0
VERTEX
  5
5FE
  8
STRAP
 10
18.679762
 20
41.926622000000002
 30
0.0
 42
0.106617
  0
VERTEX
  5
5FF
  8
STRAP
 10
18.798932000000001
 20
41.374105
 30
0.0
 42
0.006212
  0
VERTEX
  5
600
  8
STRAP
 10
18.805620999999991
 20
41.359796000000003
 30
0.0
 42
0.156851
  0
SEQEND
  5
601
  8
STRAP
  0
LINE
  5
3F5
  8
BRACKET
 10
17.950939000000002
 20
44.040246999999987
 30
0.0
 11
17.942882999999991
 21
44.044897999999989
 31
0.0
  0
LINE
  5
3F6
  8
BRACKET
 10
17.962081999999999
 20
43.971814000000002
 30
0.0
 11
17.889189999999989
 21
44.01389799999999
 31
0.0
  0
POLYLINE
  5
3F7
  8
BRACKET
 66
     1
 10
0.0
 20
0.0
 30
0.0
  0
VERTEX
  5
602
  8
BRACKET
 10
18.840402999999991
 20
43.254901999999987
 30
0.0
 42
-0.046131
  0
VERTEX
  5
603
  8
BRACKET
 10
18.849451999999989
 20
43.232315
 30
0.0
 42
-0.072341
  0
VERTEX
  5
604
  8
BRACKET
 10
18.853076000000001
 20
43.207397999999998
 30
0.0
 42
-0.106617
  0
VERTEX
  5
605
  8
BRACKET
 10
18.848110999999999
 20
43.184376999999998
 30
0.0
 42
-0.156851
  0
VERTEX
  5
606
  8
BRACKET
 10
18.837223000000002
 20
43.172356999999998
 30
0.0
 42
-0.156851
  0
VERTEX
  5
607
  8
BRACKET
 10
18.821369000000001
 20
43.16893799999999
 30
0.0
 42
-0.106617
  0
VERTEX
  5
608
  8
BRACKET
 10
18.798949
 20
43.176147999999998
 30
0.0
  0
VERTEX
  5
609
  8
BRACKET
 10
17.954574999999991
 20
43.663647999999988
 30
0.0
 42
-0.072341
  0
VERTEX
  5
60A
  8
BRACKET
 10
17.934808
 20
43.679244999999987
 30
0.0
 42
-0.058752
  0
VERTEX
  5
60B
  8
BRACKET
 10
17.916301000000001
 20
43.704051
 30
0.0
 42
-0.058752
  0
VERTEX
  5
60C
  8
BRACKET
 10
17.904071999999989
 20
43.732481
 30
0.0
 42
-0.072341
  0
VERTEX
  5
60D
  8
BRACKET
 10
17.900448000000001
 20
43.757397999999988
 30
0.0
 42
-0.106617
  0
VERTEX
  5
60E
  8
BRACKET
 10
17.905412999999999
 20
43.780419999999992
 30
0.0
 42
-0.156851
  0
VERTEX
  5
60F
  8
BRACKET
 10
17.916301000000001
 20
43.792439000000002
 30
0.0
 42
-0.156851
  0
VERTEX
  5
610
  8
BRACKET
 10
17.932154999999991
 20
43.795859
 30
0.0
 42
-0.106617
  0
VERTEX
  5
611
  8
BRACKET
 10
17.954574999999991
 20
43.788647999999988
 30
0.0
  0
VERTEX
  5
612
  8
BRACKET
 10
17.974377
 20
43.777214999999998
 30
0.0
 42
-0.072341
  0
SEQEND
  5
613
  8
BRACKET
  0
POLYLINE
  5
40A
  8
STRAP
 66
     1
 10
0.0
 20
0.0
 30
0.0
  0
VERTEX
  5
614
  8
STRAP
 10
17.974377
 20
43.727983999999992
 30
0.0
  0
VERTEX
  5
615
  8
STRAP
 10
17.974377
 20
43.790675999999991
 30
0.0
 42
0.06934
  0
VERTEX
  5
616
  8
STRAP
 10
17.923310999999991
 20
44.157133999999999
 30
0.0
 42
0.156851
  0
SEQEND
  5
617
  8
STRAP
  0
POLYLINE
  5
40F
  8
STRAP
 66
     1
 10
0.0
 20
0.0
 30
0.0
  0
VERTEX
  5
618
  8
STRAP
 10
18.835640999999999
 20
42.638412000000002
 30
0.0
 42
0.010247
  0
VERTEX
  5
619
  8
STRAP
 10
18.796454000000001
 20
42.515807000000002
 30
0.0
 42
0.072341
  0
VERTEX
  5
61A
  8
STRAP
 10
18.710761999999999
 20
41.926622000000002
 30
0.0
 42
0.106617
  0
VERTEX
  5
61B
  8
STRAP
 10
18.827176000000001
 20
41.386882999999997
 30
0.0
 42
0.026256
  0
VERTEX
  5
61C
  8
STRAP
 10
18.856331000000001
 20
41.330519000000002
 30
0.0
 42
0.156851
  0
SEQEND
  5
61D
  8
STRAP
  0
POLYLINE
  5
416
  8
BRACKET
 66
     1
 10
0.0
 20
0.0
 30
0.0
  0
VERTEX
  5
61E
  8
BRACKET
 10
18.798949
 20
42.051147999999991
 30
0.0
 42
-0.072341
  0
VERTEX
  5
61F
  8
BRACKET
 10
18.818715999999998
 20
42.035550999999991
 30
0.0
 42
-0.058752
  0
VERTEX
  5
620
  8
BRACKET
 10
18.837223000000002
 20
42.010744999999993
 30
0.0
 42
-0.058752
  0
VERTEX
  5
621
  8
BRACKET
 10
18.849451999999989
 20
41.982315
 30
0.0
 42
-0.072341
  0
VERTEX
  5
622
  8
BRACKET
 10
18.853076000000001
 20
41.957397999999998
 30
0.0
 42
-0.106617
  0
VERTEX
  5
623
  8
BRACKET
 10
18.848110999999999
 20
41.934376999999998
 30
0.0
 42
-0.156851
  0
VERTEX
  5
624
  8
BRACKET
 10
18.837223000000002
 20
41.922356999999998
 30
0.0
 42
-0.156851
  0
VERTEX
  5
625
  8
BRACKET
 10
18.821369000000001
 20
41.91893799999999
 30
0.0
 42
-0.106617
  0
VERTEX
  5
626
  8
BRACKET
 10
18.798949
 20
41.926147999999998
 30
0.0
  0
VERTEX
  5
627
  8
BRACKET
 10
18.711368
 20
41.976712999999997
 30
0.0
 42
-0.072341
  0
SEQEND
  5
628
  8
BRACKET
  0
POLYLINE
  5
422
  8
BRACKET
 66
     1
 10
0.0
 20
0.0
 30
0.0
  0
VERTEX
  5
629
  8
BRACKET
 10
18.717870000000001
 20
42.097959000000003
 30
0.0
  0
VERTEX
  5
62A
  8
BRACKET
 10
18.798949
 20
42.051147999999991
 30
0.0
 42
-0.072341
  0
SEQEND
  5
62B
  8
BRACKET
  0
POLYLINE
  5
426
  8
STRAP
 66
     1
 10
0.0
 20
0.0
 30
0.0
  0
VERTEX
  5
62C
  8
STRAP
 10
17.974377
 20
43.152214999999998
 30
0.0
 42
0.01141
  0
VERTEX
  5
62D
  8
STRAP
 10
17.930429
 20
43.015807000000002
 30
0.0
 42
0.072341
  0
VERTEX
  5
62E
  8
STRAP
 10
17.84473599999999
 20
42.426621999999988
 30
0.0
 42
0.106617
  0
VERTEX
  5
62F
  8
STRAP
 10
17.96115
 20
41.886882999999997
 30
0.0
 42
0.026256
  0
VERTEX
  5
630
  8
STRAP
 10
17.990306
 20
41.830519000000002
 30
0.0
 42
0.156851
  0
SEQEND
  5
631
  8
STRAP
  0
POLYLINE
  5
42D
  8
BRACKET
 66
     1
 10
0.0
 20
0.0
 30
0.0
  0
VERTEX
  5
632
  8
BRACKET
 10
18.815283999999991
 20
41.413978
 30
0.0
 42
-0.013865
  0
VERTEX
  5
633
  8
BRACKET
 10
18.818715999999998
 20
41.410550999999991
 30
0.0
 42
-0.058752
  0
VERTEX
  5
634
  8
BRACKET
 10
18.837223000000002
 20
41.385744999999993
 30
0.0
 42
-0.058752
  0
VERTEX
  5
635
  8
BRACKET
 10
18.849451999999989
 20
41.357315
 30
0.0
 42
-0.072341
  0
VERTEX
  5
636
  8
BRACKET
 10
18.853076000000001
 20
41.332397999999998
 30
0.0
 42
-0.106617
  0
VERTEX
  5
637
  8
BRACKET
 10
18.848110999999999
 20
41.309376999999998
 30
0.0
 42
-0.156851
  0
VERTEX
  5
638
  8
BRACKET
 10
18.837223000000002
 20
41.297356999999998
 30
0.0
 42
-0.156851
  0
VERTEX
  5
639
  8
BRACKET
 10
18.821369000000001
 20
41.29393799999999
 30
0.0
 42
-0.106617
  0
VERTEX
  5
63A
  8
BRACKET
 10
18.798949
 20
41.301147999999998
 30
0.0
  0
VERTEX
  5
63B
  8
BRACKET
 10
17.954574999999991
 20
41.788647999999988
 30
0.0
 42
-0.072341
  0
VERTEX
  5
63C
  8
BRACKET
 10
17.934808
 20
41.804244999999987
 30
0.0
 42
-0.058752
  0
VERTEX
  5
63D
  8
BRACKET
 10
17.916301000000001
 20
41.829051
 30
0.0
 42
-0.058752
  0
VERTEX
  5
63E
  8
BRACKET
 10
17.904071999999989
 20
41.857481
 30
0.0
 42
-0.072341
  0
VERTEX
  5
63F
  8
BRACKET
 10
17.900448000000001
 20
41.882397999999988
 30
0.0
 42
-0.106617
  0
VERTEX
  5
640
  8
BRACKET
 10
17.905412999999999
 20
41.905419999999992
 30
0.0
 42
-0.156851
  0
VERTEX
  5
641
  8
BRACKET
 10
17.916301000000001
 20
41.917439000000002
 30
0.0
 42
-0.156851
  0
VERTEX
  5
642
  8
BRACKET
 10
17.932154999999991
 20
41.920859
 30
0.0
 42
-0.073661
  0
VERTEX
  5
643
  8
BRACKET
 10
17.948029999999989
 20
41.916876000000002
 30
0.0
  0
SEQEND
  5
644
  8
BRACKET
  0
POLYLINE
  5
441
  8
STRAP
 66
     1
 10
0.0
 20
0.0
 30
0.0
  0
VERTEX
  5
645
  8
STRAP
 10
14.323131999999999
 20
41.158805999999991
 30
0.0
  0
VERTEX
  5
646
  8
STRAP
 10
14.323131999999999
 20
40.338209999999989
 30
0.0
 42
0.106617
  0
VERTEX
  5
647
  8
STRAP
 10
14.442301999999991
 20
39.785693000000002
 30
0.0
 42
0.156851
  0
VERTEX
  5
648
  8
STRAP
 10
14.70361099999999
 20
39.497219999999992
 30
0.0
 42
0.000005
  0
VERTEX
  5
649
  8
STRAP
 10
14.703623
 20
39.497213000000002
 30
0.0
 42
0.106617
  0
SEQEND
  5
64A
  8
STRAP
  0
POLYLINE
  5
448
  8
STRAP
 66
     1
 10
0.0
 20
0.0
 30
0.0
  0
VERTEX
  5
64B
  8
STRAP
 10
18.820624999999989
 20
40.783493
 30
0.0
 42
-0.2103
  0
VERTEX
  5
64C
  8
STRAP
 10
18.422889999999999
 20
40.241002999999999
 30
0.0
  0
VERTEX
  5
64D
  8
STRAP
 10
16.472695000000002
 20
39.115057
 30
0.0
 42
-0.106617
  0
VERTEX
  5
64E
  8
STRAP
 10
15.94706
 20
38.946005
 30
0.0
 42
-0.156851
  0
VERTEX
  5
64F
  8
STRAP
 10
15.585136999999991
 20
39.024066999999988
 30
0.0
 42
-0.156851
  0
VERTEX
  5
650
  8
STRAP
 10
15.336570999999999
 20
39.298470999999992
 30
0.0
 42
-0.106617
  0
VERTEX
  5
651
  8
STRAP
 10
15.220157
 20
39.838209999999989
 30
0.0
  0
VERTEX
  5
652
  8
STRAP
 10
15.220157
 20
41.243080999999989
 30
0.0
 42
-0.267949
  0
SEQEND
  5
653
  8
STRAP
  0
POLYLINE
  5
452
  8
STRAP
 66
     1
 10
0.0
 20
0.0
 30
0.0
  0
VERTEX
  5
654
  8
STRAP
 10
18.843879999999992
 20
40.747562999999992
 30
0.0
 42
-0.201257
  0
VERTEX
  5
655
  8
STRAP
 10
18.438389999999998
 20
40.214156000000003
 30
0.0
  0
VERTEX
  5
656
  8
STRAP
 10
16.488195000000001
 20
39.088209999999989
 30
0.0
 42
-0.106617
  0
VERTEX
  5
657
  8
STRAP
 10
15.950116
 20
38.915156000000003
 30
0.0
 42
-0.156851
  0
VERTEX
  5
658
  8
STRAP
 10
15.569637
 20
38.997219999999999
 30
0.0
 42
-0.156851
  0
VERTEX
  5
659
  8
STRAP
 10
15.30832699999999
 20
39.285693000000002
 30
0.0
 42
-0.106617
  0
VERTEX
  5
65A
  8
STRAP
 10
15.189157
 20
39.838209999999989
 30
0.0
  0
VERTEX
  5
65B
  8
STRAP
 10
15.189157
 20
41.225183999999999
 30
0.0
 42
-0.267949
  0
SEQEND
  5
65C
  8
STRAP
  0
POLYLINE
  5
45C
  8
STRAP
 66
     1
 10
0.0
 20
0.0
 30
0.0
  0
VERTEX
  5
65D
  8
STRAP
 10
15.279275
 20
39.449204999999999
 30
0.0
 42
0.06934
  0
VERTEX
  5
65E
  8
STRAP
 10
15.622170000000001
 20
39.588209999999997
 30
0.0
  0
VERTEX
  5
65F
  8
STRAP
 10
17.572364999999991
 20
40.714156000000003
 30
0.0
 42
0.208762
  0
VERTEX
  5
660
  8
STRAP
 10
17.983746
 20
41.271805999999991
 30
0.0
  0
SEQEND
  5
661
  8
STRAP
  0
LINE
  5
462
  8
BRACKET
 10
18.044055
 20
39.986485999999999
 30
0.0
 11
18.052001999999991
 21
39.981898000000001
 31
0.0
  0
LINE
  5
463
  8
BRACKET
 10
17.907941999999998
 20
41.065071000000003
 30
0.0
 11
17.727242999999991
 21
41.169397999999987
 31
0.0
  0
POLYLINE
  5
464
  8
BRACKET
 66
     1
 10
0.0
 20
0.0
 30
0.0
  0
VERTEX
  5
662
  8
BRACKET
 10
18.798949
 20
40.801147999999991
 30
0.0
 42
-0.072341
  0
VERTEX
  5
663
  8
BRACKET
 10
18.818715999999998
 20
40.785550999999991
 30
0.0
 42
-0.058752
  0
VERTEX
  5
664
  8
BRACKET
 10
18.837223000000002
 20
40.760744999999993
 30
0.0
 42
-0.058752
  0
VERTEX
  5
665
  8
BRACKET
 10
18.849451999999989
 20
40.732315
 30
0.0
 42
-0.072341
  0
VERTEX
  5
666
  8
BRACKET
 10
18.853076000000001
 20
40.707397999999998
 30
0.0
 42
-0.106617
  0
VERTEX
  5
667
  8
BRACKET
 10
18.848110999999999
 20
40.684376999999998
 30
0.0
 42
-0.156851
  0
VERTEX
  5
668
  8
BRACKET
 10
18.837223000000002
 20
40.672356999999998
 30
0.0
 42
-0.156851
  0
VERTEX
  5
669
  8
BRACKET
 10
18.821369000000001
 20
40.66893799999999
 30
0.0
 42
-0.007952
  0
VERTEX
  5
66A
  8
BRACKET
 10
18.819604999999989
 20
40.669140999999989
 30
0.0
  0
SEQEND
  5
66B
  8
BRACKET
  0
POLYLINE
  5
46F
  8
BRACKET
 66
     1
 10
0.0
 20
0.0
 30
0.0
  0
VERTEX
  5
66C
  8
BRACKET
 10
17.952113000000001
 20
41.165123999999999
 30
0.0
 42
-0.064099
  0
VERTEX
  5
66D
  8
BRACKET
 10
17.934808
 20
41.179244999999987
 30
0.0
 42
-0.058752
  0
VERTEX
  5
66E
  8
BRACKET
 10
17.916301000000001
 20
41.204051
 30
0.0
 42
-0.058752
  0
VERTEX
  5
66F
  8
BRACKET
 10
17.904071999999989
 20
41.232481
 30
0.0
 42
-0.072341
  0
VERTEX
  5
670
  8
BRACKET
 10
17.900448000000001
 20
41.257397999999988
 30
0.0
 42
-0.106617
  0
VERTEX
  5
671
  8
BRACKET
 10
17.905412999999999
 20
41.280419999999992
 30
0.0
 42
-0.156851
  0
VERTEX
  5
672
  8
BRACKET
 10
17.916301000000001
 20
41.292439000000002
 30
0.0
 42
-0.156851
  0
VERTEX
  5
673
  8
BRACKET
 10
17.932154999999991
 20
41.295859
 30
0.0
 42
-0.106617
  0
VERTEX
  5
674
  8
BRACKET
 10
17.954574999999991
 20
41.288647999999988
 30
0.0
  0
VERTEX
  5
675
  8
BRACKET
 10
18.798949
 20
40.801147999999991
 30
0.0
 42
-0.072341
  0
SEQEND
  5
676
  8
BRACKET
  0
POLYLINE
  5
47B
  8
BRACKET
 66
     1
 10
0.0
 20
0.0
 30
0.0
  0
VERTEX
  5
677
  8
BRACKET
 10
17.954143999999999
 20
41.288893999999999
 30
0.0
 42
0.002221
  0
VERTEX
  5
678
  8
BRACKET
 10
17.954142000000001
 20
41.288398000000001
 30
0.0
 42
0.072341
  0
VERTEX
  5
679
  8
BRACKET
 10
17.957765999999989
 20
41.263480999999999
 30
0.0
 42
0.058752
  0
VERTEX
  5
67A
  8
BRACKET
 10
17.969995000000001
 20
41.235050999999999
 30
0.0
 42
0.011323
  0
VERTEX
  5
67B
  8
BRACKET
 10
17.973103999999989
 20
41.22993799999999
 30
0.0
 42
0.072341
  0
SEQEND
  5
67C
  8
BRACKET
  0
POLYLINE
  5
482
  8
BRACKET
 66
     1
 10
0.0
 20
0.0
 30
0.0
  0
VERTEX
  5
67D
  8
BRACKET
 10
18.798949
 20
42.676147999999991
 30
0.0
 42
-0.072341
  0
VERTEX
  5
67E
  8
BRACKET
 10
18.818715999999998
 20
42.660550999999991
 30
0.0
 42
-0.058752
  0
VERTEX
  5
67F
  8
BRACKET
 10
18.837223000000002
 20
42.635744999999993
 30
0.0
 42
-0.058752
  0
VERTEX
  5
680
  8
BRACKET
 10
18.849451999999989
 20
42.607315
 30
0.0
 42
-0.072341
  0
VERTEX
  5
681
  8
BRACKET
 10
18.853076000000001
 20
42.582397999999998
 30
0.0
 42
-0.106617
  0
VERTEX
  5
682
  8
BRACKET
 10
18.848110999999999
 20
42.559376999999998
 30
0.0
 42
-0.156851
  0
VERTEX
  5
683
  8
BRACKET
 10
18.837223000000002
 20
42.547356999999998
 30
0.0
 42
-0.156851
  0
VERTEX
  5
684
  8
BRACKET
 10
18.821369000000001
 20
42.54393799999999
 30
0.0
 42
-0.070679
  0
VERTEX
  5
685
  8
BRACKET
 10
18.806107999999991
 20
42.547669999999997
 30
0.0
  0
SEQEND
  5
686
  8
BRACKET
  0
POLYLINE
  5
48D
  8
BRACKET
 66
     1
 10
0.0
 20
0.0
 30
0.0
  0
VERTEX
  5
687
  8
BRACKET
 10
17.940435000000001
 20
43.048813000000003
 30
0.0
 42
-0.022366
  0
VERTEX
  5
688
  8
BRACKET
 10
17.934808
 20
43.054244999999987
 30
0.0
 42
-0.058752
  0
VERTEX
  5
689
  8
BRACKET
 10
17.916301000000001
 20
43.079051
 30
0.0
 42
-0.058752
  0
VERTEX
  5
68A
  8
BRACKET
 10
17.904071999999989
 20
43.107481
 30
0.0
 42
-0.072341
  0
VERTEX
  5
68B
  8
BRACKET
 10
17.900448000000001
 20
43.132397999999988
 30
0.0
 42
-0.106617
  0
VERTEX
  5
68C
  8
BRACKET
 10
17.905412999999999
 20
43.155419999999992
 30
0.0
 42
-0.156851
  0
VERTEX
  5
68D
  8
BRACKET
 10
17.916301000000001
 20
43.167439000000002
 30
0.0
 42
-0.156851
  0
VERTEX
  5
68E
  8
BRACKET
 10
17.932154999999991
 20
43.170859
 30
0.0
 42
-0.106617
  0
VERTEX
  5
68F
  8
BRACKET
 10
17.954574999999991
 20
43.163647999999988
 30
0.0
  0
VERTEX
  5
690
  8
BRACKET
 10
18.798949
 20
42.676147999999991
 30
0.0
 42
-0.072341
  0
SEQEND
  5
691
  8
BRACKET
  0
ENDSEC
  0
EOF
