  0
SECTION
  2
HEADER
  9
$ACADVER
  1
AC1009
  9
$INSBASE
 10
0.0
 20
0.0
 30
0.0
  9
$EXTMIN
 10
-0.0010808501498332
 20
-0.0016554523045897
 30
-0.0015258207003583
  9
$EXTMAX
 10
35.421081015087069
 20
54.251655704925838
 30
0.0000000349246037
  9
$LIMMIN
 10
0.0
 20
0.0
  9
$LIMMAX
 10
35.420000000000002
 20
54.25
  9
$ORTHOMODE
 70
     1
  9
$REGENMODE
 70
     1
  9
$FILLMODE
 70
     1
  9
$QTEXTMODE
 70
     0
  9
$MIRRTEXT
 70
     0
  9
$DRAGMODE
 70
     2
  9
$LTSCALE
 40
0.5
  9
$OSMODE
 70
    37
  9
$ATTMODE
 70
     1
  9
$TEXTSIZE
 40
0.1875
  9
$TRACEWID
 40
0.05
  9
$TEXTSTYLE
  7
TXT
  9
$CLAYER
  8
DIM
  9
$CELTYPE
  6
BYLAYER
  9
$CECOLOR
 62
   256
  9
$DIMSCALE
 40
3.5
  9
$DIMASZ
 40
0.18
  9
$DIMEXO
 40
0.063
  9
$DIMDLI
 40
0.25
  9
$DIMRND
 40
0.0
  9
$DIMDLE
 40
0.0
  9
$DIMEXE
 40
0.093
  9
$DIMTP
 40
0.0
  9
$DIMTM
 40
0.0
  9
$DIMTXT
 40
0.125
  9
$DIMCEN
 40
0.09
  9
$DIMTSZ
 40
0.0
  9
$DIMTOL
 70
     0
  9
$DIMLIM
 70
     0
  9
$DIMTIH
 70
     1
  9
$DIMTOH
 70
     1
  9
$DIMSE1
 70
     0
  9
$DIMSE2
 70
     0
  9
$DIMTAD
 70
     0
  9
$DIMZIN
 70
     0
  9
$DIMBLK
  1

  9
$DIMASO
 70
     1
  9
$DIMSHO
 70
     1
  9
$DIMPOST
  1

  9
$DIMAPOST
  1
ction
  9
$DIMALT
 70
     0
  9
$DIMALTD
 70
     2
  9
$DIMALTF
 40
25.399999999999999
  9
$DIMLFAC
 40
1.0
  9
$DIMTOFL
 70
     0
  9
$DIMTVP
 40
0.0
  9
$DIMTIX
 70
     0
  9
$DIMSOXD
 70
     0
  9
$DIMSAH
 70
     0
  9
$DIMBLK1
  1

  9
$DIMBLK2
  1

  9
$DIMSTYLE
  2
23NSTD
  9
$DIMCLRD
 70
     0
  9
$DIMCLRE
 70
     0
  9
$DIMCLRT
 70
     0
  9
$DIMTFAC
 40
1.0
  9
$DIMGAP
 40
0.09
  9
$LUNITS
 70
     2
  9
$LUPREC
 70
     3
  9
$SKETCHINC
 40
0.1
  9
$FILLETRAD
 40
0.0
  9
$AUNITS
 70
     0
  9
$AUPREC
 70
     0
  9
$MENU
  1
acad
  9
$ELEVATION
 40
0.0
  9
$PELEVATION
 40
0.0
  9
$THICKNESS
 40
0.0
  9
$LIMCHECK
 70
     0
  9
$BLIPMODE
 70
     0
  9
$CHAMFERA
 40
0.0
  9
$CHAMFERB
 40
0.0
  9
$SKPOLY
 70
     0
  9
$TDCREATE
 40
2450718.338404513
  9
$TDUPDATE
 40
2451802.3684112611
  9
$TDINDWG
 40
0.454354537
  9
$TDUSRTIMER
 40
0.4543543519
  9
$USRTIMER
 70
     1
  9
$ANGBASE
 50
0.0
  9
$ANGDIR
 70
     0
  9
$PDMODE
 70
     0
  9
$PDSIZE
 40
0.0
  9
$PLINEWID
 40
0.0
  9
$COORDS
 70
     0
  9
$SPLFRAME
 70
     0
  9
$SPLINETYPE
 70
     6
  9
$SPLINESEGS
 70
     8
  9
$ATTDIA
 70
     0
  9
$ATTREQ
 70
     1
  9
$HANDLING
 70
  4097
  9
$HANDSEED
  5
1210
  9
$SURFTAB1
 70
     6
  9
$SURFTAB2
 70
     6
  9
$SURFTYPE
 70
     6
  9
$SURFU
 70
     6
  9
$SURFV
 70
     6
  9
$UCSNAME
  2

  9
$UCSORG
 10
0.0
 20
0.0
 30
0.0
  9
$UCSXDIR
 10
1.0
 20
0.0
 30
0.0
  9
$UCSYDIR
 10
0.0
 20
1.0
 30
0.0
  9
$PUCSNAME
  2

  9
$PUCSORG
 10
0.0
 20
0.0
 30
0.0
  9
$PUCSXDIR
 10
1.0
 20
0.0
 30
0.0
  9
$PUCSYDIR
 10
0.0
 20
1.0
 30
0.0
  9
$USERI1
 70
     0
  9
$USERI2
 70
     0
  9
$USERI3
 70
     0
  9
$USERI4
 70
     0
  9
$USERI5
 70
     0
  9
$USERR1
 40
0.0
  9
$USERR2
 40
0.0
  9
$USERR3
 40
0.0
  9
$USERR4
 40
0.0
  9
$USERR5
 40
0.0
  9
$WORLDVIEW
 70
     1
  9
$SHADEDGE
 70
     3
  9
$SHADEDIF
 70
    70
  9
$TILEMODE
 70
     1
  9
$MAXACTVP
 70
    16
  9
$PLIMCHECK
 70
     0
  9
$PEXTMIN
 10
1.0000000000000000E+020
 20
1.0000000000000000E+020
 30
1.0000000000000000E+020
  9
$PEXTMAX
 10
-1.0000000000000000E+020
 20
-1.0000000000000000E+020
 30
-1.0000000000000000E+020
  9
$PLIMMIN
 10
0.0
 20
0.0
  9
$PLIMMAX
 10
12.0
 20
9.0
  9
$UNITMODE
 70
     0
  9
$VISRETAIN
 70
     0
  9
$PLINEGEN
 70
     0
  9
$PSLTSCALE
 70
     1
  0
ENDSEC
  0
SECTION
  2
TABLES
  0
TABLE
  2
VPORT
 70
     2
  0
VPORT
  2
*ACTIVE
 70
     0
 10
0.0
 20
0.0
 11
1.0
 21
1.0
 12
17.710000082468611
 22
27.125000126310621
 13
0.0
 23
0.0
 14
0.0625
 24
0.0625
 15
0.25
 25
0.25
 16
0.0
 26
0.0
 36
1.0
 17
0.0
 27
0.0
 37
0.0
 40
54.864042614910311
 41
1.8139097744360899
 42
50.0
 43
0.0
 44
0.0
 50
0.0
 51
0.0
 71
     0
 72
   100
 73
     1
 74
     0
 75
     0
 76
     0
 77
     0
 78
     0
  0
ENDTAB
  0
TABLE
  2
LTYPE
 70
     6
  0
LTYPE
  2
CONTINUOUS
 70
     0
  3
Solid line
 72
    65
 73
     0
 40
0.0
  0
LTYPE
  2
HIDDEN
 70
     0
  3
_ _ _ _ _ _ _ _ _ _ _ _ _ _ _ _ _ _ _ _ _ _ _
 72
    65
 73
     2
 40
0.375
 49
0.25
 49
-0.125
  0
LTYPE
  2
PHANTOM
 70
     0
  3
_____ _ _ _____ _ _ _____ _ _ _____ _ _ ____
 72
    65
 73
     6
 40
2.5
 49
1.25
 49
-0.25
 49
0.25
 49
-0.25
 49
0.25
 49
-0.25
  0
LTYPE
  2
CENTER
 70
     0
  3
____ _ ____ _ ____ _ ____ _ ____ _ ____ _ ____
 72
    65
 73
     4
 40
2.0
 49
1.25
 49
-0.25
 49
0.25
 49
-0.25
  0
LTYPE
  2
HIDDEN2
 70
     0
  3
_ _ _ _ _ _ _ _ _ _ _ _ _ _ _ _ _ _ _ _ _ _ _ _
 72
    65
 73
     2
 40
0.1875
 49
0.125
 49
-0.0625
  0
LTYPE
  2
PHANTOM2
 70
     0
  3
___ _ _ ___ _ _ ___ _ _ ___ _ _ ___ _ _ ___ _ _
 72
    65
 73
     6
 40
1.25
 49
0.625
 49
-0.125
 49
0.125
 49
-0.125
 49
0.125
 49
-0.125
  0
ENDTAB
  0
TABLE
  2
LAYER
 70
    11
  0
LAYER
  2
0
 70
     0
 62
     7
  6
CONTINUOUS
  0
LAYER
  2
DIM
 70
     0
 62
     7
  6
CONTINUOUS
  0
LAYER
  2
OBJECT
 70
     0
 62
     7
  6
CONTINUOUS
  0
LAYER
  2
HIDDEN
 70
     0
 62
     7
  6
HIDDEN2
  0
LAYER
  2
BEND
 70
     0
 62
     7
  6
PHANTOM2
  0
LAYER
  2
TEXT
 70
     0
 62
     7
  6
CONTINUOUS
  0
LAYER
  2
TITLE
 70
     0
 62
     7
  6
CONTINUOUS
  0
LAYER
  2
CENTER
 70
     0
 62
     7
  6
CENTER
  0
LAYER
  2
STRAP
 70
     0
 62
     7
  6
CONTINUOUS
  0
LAYER
  2
DEFPOINTS
 70
     0
 62
     7
  6
CONTINUOUS
  0
LAYER
  2
PANEL
 70
     0
 62
     7
  6
CONTINUOUS
  0
ENDTAB
  0
TABLE
  2
STYLE
 70
     2
  0
STYLE
  2
STANDARD
 70
     0
 40
0.0
 41
1.0
 50
0.0
 71
     0
 42
0.2
  3
txt
  4

  0
STYLE
  2
TXT
 70
     0
 40
0.0
 41
0.75
 50
0.0
 71
     0
 42
0.1875
  3
TXT.shx
  4

  0
ENDTAB
  0
TABLE
  2
VIEW
 70
     0
  0
ENDTAB
  0
TABLE
  2
UCS
 70
     0
  0
ENDTAB
  0
TABLE
  2
APPID
 70
     1
  0
APPID
  2
ACAD
 70
     0
  0
ENDTAB
  0
TABLE
  2
DIMSTYLE
 70
     2
  0
DIMSTYLE
  2
23NSTD
 70
     0
  3

  4
ction
  5

  6

  7

 40
3.5
 41
0.18
 42
0.063
 43
0.25
 44
0.093
 45
0.0
 46
0.0
 47
0.0
 48
0.0
140
0.125
141
0.09
142
0.0
143
25.399999999999999
144
1.0
145
0.0
146
1.0
147
0.09
 71
     0
 72
     0
 73
     1
 74
     1
 75
     0
 76
     0
 77
     0
 78
     0
170
     0
171
     2
172
     0
173
     0
174
     0
175
     0
176
     0
177
     0
178
     0
  0
DIMSTYLE
  2
23NSTDI
 70
     0
  3

  4
ction
  5

  6

  7

 40
3.5
 41
0.18
 42
0.063
 43
0.25
 44
0.093
 45
0.0
 46
0.0
 47
0.0
 48
0.0
140
0.125
141
0.09
142
0.0
143
25.399999999999999
144
1.0
145
0.0
146
1.0
147
0.09
 71
     0
 72
     0
 73
     1
 74
     1
 75
     0
 76
     0
 77
     0
 78
     0
170
     0
171
     2
172
     0
173
     0
174
     1
175
     0
176
     0
177
     0
178
     0
  0
ENDTAB
  0
ENDSEC
  0
SECTION
  2
BLOCKS
  0
BLOCK
  8
0
  2
$MODEL_SPACE
 70
     0
 10
0.0
 20
0.0
 30
0.0
  3
$MODEL_SPACE
  1

  0
ENDBLK
  5
20
  8
0
  0
BLOCK
 67
     1
  8
0
  2
$PAPER_SPACE
 70
     0
 10
0.0
 20
0.0
 30
0.0
  3
$PAPER_SPACE
  1

  0
ENDBLK
  5
1C
 67
     1
  8
0
  0
BLOCK
  8
0
  2
*D0
 70
     1
 10
0.0
 20
0.0
 30
0.0
  3
*D0
  1

  0
LINE
  5
38
  8
0
  6
BYBLOCK
 62
     0
 10
28.045567999999999
 20
23.576003
 30
0.0
 11
28.045567999999999
 21
21.873179999999991
 31
0.0
  0
LINE
  5
39
  8
0
  6
BYBLOCK
 62
     0
 10
28.295567999999999
 20
23.576003
 30
0.0
 11
28.295567999999999
 21
21.873179999999991
 31
0.0
  0
LINE
  5
3A
  8
0
  6
BYBLOCK
 62
     0
 10
27.415568
 20
22.198679999999989
 30
0.0
 11
26.785567999999991
 21
22.198679999999989
 31
0.0
  0
LINE
  5
3B
  8
0
  6
BYBLOCK
 62
     0
 10
28.925567999999991
 20
22.198679999999989
 30
0.0
 11
29.555568000000001
 21
22.198679999999989
 31
0.0
  0
SOLID
  5
3C
  8
0
  6
BYBLOCK
 62
     0
 10
27.415568
 20
22.303679999999989
 30
0.0
 11
27.415568
 21
22.093679999999988
 31
0.0
 12
28.045567999999999
 22
22.198679999999989
 32
0.0
 13
28.045567999999999
 23
22.198679999999989
 33
0.0
  0
SOLID
  5
3D
  8
0
  6
BYBLOCK
 62
     0
 10
28.925567999999991
 20
22.303679999999989
 30
0.0
 11
28.925567999999991
 21
22.093679999999988
 31
0.0
 12
28.295567999999999
 22
22.198679999999989
 32
0.0
 13
28.295567999999999
 23
22.198679999999989
 33
0.0
  0
TEXT
  5
3E
  8
0
  6
BYBLOCK
 62
     0
 10
29.8705675
 20
21.979929999999989
 30
0.0
 40
0.4375
  1
0.250
 41
0.75
 72
     1
 11
30.47213
 21
22.198679999999989
 31
0.0
 73
     2
  0
POINT
  5
3F
  8
DEFPOINTS
  6
BYBLOCK
 62
     0
 10
28.045567999999999
 20
23.796503000000001
 30
0.0
  0
POINT
  5
40
  8
DEFPOINTS
  6
BYBLOCK
 62
     0
 10
28.295567999999999
 20
23.796503000000001
 30
0.0
  0
POINT
  5
41
  8
DEFPOINTS
  6
BYBLOCK
 62
     0
 10
28.295567999999999
 20
22.198679999999989
 30
0.0
  0
ENDBLK
  5
42
  8
0
  0
BLOCK
  8
0
  2
*D1
 70
     1
 10
0.0
 20
0.0
 30
0.0
  3
*D1
  1

  0
LINE
  5
45
  8
0
  6
BYBLOCK
 62
     0
 10
5.056756
 20
25.569503000000001
 30
0.0
 11
5.056756
 21
27.102003
 31
0.0
  0
LINE
  5
46
  8
0
  6
BYBLOCK
 62
     0
 10
4.7267559999999991
 20
25.737003000000001
 30
0.0
 11
4.7267559999999991
 21
27.102003
 31
0.0
  0
LINE
  5
47
  8
0
  6
BYBLOCK
 62
     0
 10
5.686755999999999
 20
26.776503000000002
 30
0.0
 11
6.3167559999999989
 21
26.776503000000002
 31
0.0
  0
LINE
  5
48
  8
0
  6
BYBLOCK
 62
     0
 10
4.0967560000000001
 20
26.776503000000002
 30
0.0
 11
3.4667559999999988
 21
26.776503000000002
 31
0.0
  0
SOLID
  5
49
  8
0
  6
BYBLOCK
 62
     0
 10
5.686755999999999
 20
26.881502999999999
 30
0.0
 11
5.686755999999999
 21
26.671503000000001
 31
0.0
 12
5.056756
 22
26.776503000000002
 32
0.0
 13
5.056756
 23
26.776503000000002
 33
0.0
  0
SOLID
  5
4A
  8
0
  6
BYBLOCK
 62
     0
 10
4.0967560000000001
 20
26.881502999999999
 30
0.0
 11
4.0967560000000001
 21
26.671503000000001
 31
0.0
 12
4.7267559999999991
 22
26.776503000000002
 32
0.0
 13
4.7267559999999991
 23
26.776503000000002
 33
0.0
  0
TEXT
  5
4B
  8
0
  6
BYBLOCK
 62
     0
 10
1.9486304999999999
 20
26.557753000000002
 30
0.0
 40
0.4375
  1
0.330
 41
0.75
 72
     1
 11
2.5501930000000002
 21
26.776503000000002
 31
0.0
 73
     2
  0
POINT
  5
4C
  8
DEFPOINTS
  6
BYBLOCK
 62
     0
 10
5.056756
 20
25.349003
 30
0.0
  0
POINT
  5
4D
  8
DEFPOINTS
  6
BYBLOCK
 62
     0
 10
4.7267559999999991
 20
25.516503
 30
0.0
  0
POINT
  5
4E
  8
DEFPOINTS
  6
BYBLOCK
 62
     0
 10
4.7267559999999991
 20
26.776503000000002
 30
0.0
  0
ENDBLK
  5
4F
  8
0
  0
BLOCK
  8
0
  2
*D2
 70
     1
 10
0.0
 20
0.0
 30
0.0
  3
*D2
  1

  0
LINE
  5
52
  8
0
  6
BYBLOCK
 62
     0
 10
23.684756
 20
25.281503000000001
 30
0.0
 11
24.598255999999999
 21
25.281503000000001
 31
0.0
  0
LINE
  5
53
  8
0
  6
BYBLOCK
 62
     0
 10
23.947255999999999
 20
25.516503
 30
0.0
 11
24.598255999999999
 21
25.516503
 31
0.0
  0
LINE
  5
54
  8
0
  6
BYBLOCK
 62
     0
 10
24.272756000000001
 20
24.651502999999991
 30
0.0
 11
24.272756000000001
 21
24.021502999999999
 31
0.0
  0
LINE
  5
55
  8
0
  6
BYBLOCK
 62
     0
 10
24.272756000000001
 20
26.146502999999999
 30
0.0
 11
24.272756000000001
 21
26.776503000000002
 31
0.0
  0
LINE
  5
56
  8
0
  6
BYBLOCK
 62
     0
 10
24.272756000000001
 20
26.776503000000002
 30
0.0
 11
24.902756
 21
26.776503000000002
 31
0.0
  0
SOLID
  5
57
  8
0
  6
BYBLOCK
 62
     0
 10
24.167756000000001
 20
24.651502999999991
 30
0.0
 11
24.377756000000002
 21
24.651502999999991
 31
0.0
 12
24.272756000000001
 22
25.281503000000001
 32
0.0
 13
24.272756000000001
 23
25.281503000000001
 33
0.0
  0
SOLID
  5
58
  8
0
  6
BYBLOCK
 62
     0
 10
24.167756000000001
 20
26.146502999999999
 30
0.0
 11
24.377756000000002
 21
26.146502999999999
 31
0.0
 12
24.272756000000001
 22
25.516503
 32
0.0
 13
24.272756000000001
 23
25.516503
 33
0.0
  0
TEXT
  5
59
  8
0
  6
BYBLOCK
 62
     0
 10
25.217755749999991
 20
26.557753000000002
 30
0.0
 40
0.4375
  1
0.235
 41
0.75
 72
     1
 11
25.846661999999998
 21
26.776503000000002
 31
0.0
 73
     2
  0
POINT
  5
5A
  8
DEFPOINTS
  6
BYBLOCK
 62
     0
 10
23.464255999999988
 20
25.281503000000001
 30
0.0
  0
POINT
  5
5B
  8
DEFPOINTS
  6
BYBLOCK
 62
     0
 10
23.726755999999991
 20
25.516503
 30
0.0
  0
POINT
  5
5C
  8
DEFPOINTS
  6
BYBLOCK
 62
     0
 10
24.272756000000001
 20
25.516503
 30
0.0
  0
ENDBLK
  5
5D
  8
0
  0
BLOCK
  8
0
  2
*D3
 70
     1
 10
0.0
 20
0.0
 30
0.0
  3
*D3
  1

  0
LINE
  5
60
  8
0
  6
BYBLOCK
 62
     0
 10
23.684756
 20
25.281503000000001
 30
0.0
 11
26.952362000000001
 21
25.281503000000001
 31
0.0
  0
LINE
  5
61
  8
0
  6
BYBLOCK
 62
     0
 10
23.684756
 20
24.031503000000001
 30
0.0
 11
26.952362000000001
 21
24.031503000000001
 31
0.0
  0
LINE
  5
62
  8
0
  6
BYBLOCK
 62
     0
 10
26.626861999999999
 20
25.911503
 30
0.0
 11
26.626861999999999
 21
26.541502999999999
 31
0.0
  0
LINE
  5
63
  8
0
  6
BYBLOCK
 62
     0
 10
26.626861999999999
 20
23.401502999999991
 30
0.0
 11
26.626861999999999
 21
22.771502999999999
 31
0.0
  0
SOLID
  5
64
  8
0
  6
BYBLOCK
 62
     0
 10
26.521861999999999
 20
25.911503
 30
0.0
 11
26.731861999999989
 21
25.911503
 31
0.0
 12
26.626861999999999
 22
25.281503000000001
 32
0.0
 13
26.626861999999999
 23
25.281503000000001
 33
0.0
  0
SOLID
  5
65
  8
0
  6
BYBLOCK
 62
     0
 10
26.521861999999999
 20
23.401502999999991
 30
0.0
 11
26.731861999999989
 21
23.401502999999991
 31
0.0
 12
26.626861999999999
 22
24.031503000000001
 32
0.0
 13
26.626861999999999
 23
24.031503000000001
 33
0.0
  0
TEXT
  5
66
  8
0
  6
BYBLOCK
 62
     0
 10
26.052643249999999
 20
24.437753000000001
 30
0.0
 40
0.4375
  1
1.250
 41
0.75
 72
     1
 11
26.626861999999999
 21
24.656503000000001
 31
0.0
 73
     2
  0
POINT
  5
67
  8
DEFPOINTS
  6
BYBLOCK
 62
     0
 10
23.464255999999988
 20
25.281503000000001
 30
0.0
  0
POINT
  5
68
  8
DEFPOINTS
  6
BYBLOCK
 62
     0
 10
23.464255999999988
 20
24.031503000000001
 30
0.0
  0
POINT
  5
69
  8
DEFPOINTS
  6
BYBLOCK
 62
     0
 10
26.626861999999999
 20
24.031503000000001
 30
0.0
  0
ENDBLK
  5
6A
  8
0
  0
BLOCK
  8
0
  2
*D4
 70
     1
 10
0.0
 20
0.0
 30
0.0
  3
*D4
  1

  0
LINE
  5
6D
  8
0
  6
BYBLOCK
 62
     0
 10
28.516068000000001
 20
23.796503000000001
 30
0.0
 11
29.821203000000001
 21
23.796503000000001
 31
0.0
  0
LINE
  5
6E
  8
0
  6
BYBLOCK
 62
     0
 10
28.516068000000001
 20
25.516503
 30
0.0
 11
29.821203000000001
 21
25.516503
 31
0.0
  0
LINE
  5
6F
  8
0
  6
BYBLOCK
 62
     0
 10
29.495702999999999
 20
23.166502999999999
 30
0.0
 11
29.495702999999999
 21
22.536502999999989
 31
0.0
  0
LINE
  5
70
  8
0
  6
BYBLOCK
 62
     0
 10
29.495702999999999
 20
26.146502999999999
 30
0.0
 11
29.495702999999999
 21
26.776503000000002
 31
0.0
  0
SOLID
  5
71
  8
0
  6
BYBLOCK
 62
     0
 10
29.390702999999998
 20
23.166502999999999
 30
0.0
 11
29.600702999999999
 21
23.166502999999999
 31
0.0
 12
29.495702999999999
 22
23.796503000000001
 32
0.0
 13
29.495702999999999
 23
23.796503000000001
 33
0.0
  0
SOLID
  5
72
  8
0
  6
BYBLOCK
 62
     0
 10
29.390702999999998
 20
26.146502999999999
 30
0.0
 11
29.600702999999999
 21
26.146502999999999
 31
0.0
 12
29.495702999999999
 22
25.516503
 32
0.0
 13
29.495702999999999
 23
25.516503
 33
0.0
  0
TEXT
  5
73
  8
0
  6
BYBLOCK
 62
     0
 10
28.921484249999999
 20
24.437753000000001
 30
0.0
 40
0.4375
  1
1.720
 41
0.75
 72
     1
 11
29.495702999999999
 21
24.656503000000001
 31
0.0
 73
     2
  0
POINT
  5
74
  8
DEFPOINTS
  6
BYBLOCK
 62
     0
 10
28.295567999999999
 20
23.796503000000001
 30
0.0
  0
POINT
  5
75
  8
DEFPOINTS
  6
BYBLOCK
 62
     0
 10
28.295567999999999
 20
25.516503
 30
0.0
  0
POINT
  5
76
  8
DEFPOINTS
  6
BYBLOCK
 62
     0
 10
29.495702999999999
 20
25.516503
 30
0.0
  0
ENDBLK
  5
77
  8
0
  0
BLOCK
  8
0
  2
*D5
 70
     1
 10
0.0
 20
0.0
 30
0.0
  3
*D5
  1

  0
LINE
  5
7A
  8
0
  6
BYBLOCK
 62
     0
 10
4.7267559999999991
 20
25.737003000000001
 30
0.0
 11
4.7267559999999991
 21
27.977003
 31
0.0
  0
LINE
  5
7B
  8
0
  6
BYBLOCK
 62
     0
 10
8.5087559999999982
 20
25.710502999999999
 30
0.0
 11
8.5087559999999982
 21
27.977003
 31
0.0
  0
LINE
  5
7C
  8
0
  6
BYBLOCK
 62
     0
 10
4.0967560000000001
 20
27.651503000000002
 30
0.0
 11
3.4667559999999988
 21
27.651503000000002
 31
0.0
  0
LINE
  5
7D
  8
0
  6
BYBLOCK
 62
     0
 10
9.1387559999999972
 20
27.651503000000002
 30
0.0
 11
9.7687559999999998
 21
27.651503000000002
 31
0.0
  0
SOLID
  5
7E
  8
0
  6
BYBLOCK
 62
     0
 10
4.0967560000000001
 20
27.756502999999999
 30
0.0
 11
4.0967560000000001
 21
27.546503000000001
 31
0.0
 12
4.7267559999999991
 22
27.651503000000002
 32
0.0
 13
4.7267559999999991
 23
27.651503000000002
 33
0.0
  0
SOLID
  5
7F
  8
0
  6
BYBLOCK
 62
     0
 10
9.1387559999999972
 20
27.756502999999999
 30
0.0
 11
9.1387559999999972
 21
27.546503000000001
 31
0.0
 12
8.5087559999999982
 22
27.651503000000002
 32
0.0
 13
8.5087559999999982
 23
27.651503000000002
 33
0.0
  0
TEXT
  5
80
  8
0
  6
BYBLOCK
 62
     0
 10
5.9615059999999991
 20
27.432753000000002
 30
0.0
 40
0.4375
  1
3.782
 41
0.75
 72
     1
 11
6.6177559999999991
 21
27.651503000000002
 31
0.0
 73
     2
  0
POINT
  5
81
  8
DEFPOINTS
  6
BYBLOCK
 62
     0
 10
4.7267559999999991
 20
25.516503
 30
0.0
  0
POINT
  5
82
  8
DEFPOINTS
  6
BYBLOCK
 62
     0
 10
8.5087559999999982
 20
25.490003000000002
 30
0.0
  0
POINT
  5
83
  8
DEFPOINTS
  6
BYBLOCK
 62
     0
 10
8.5087559999999982
 20
27.651503000000002
 30
0.0
  0
ENDBLK
  5
84
  8
0
  0
BLOCK
  8
0
  2
*D6
 70
     1
 10
0.0
 20
0.0
 30
0.0
  3
*D6
  1

  0
LINE
  5
87
  8
0
  6
BYBLOCK
 62
     0
 10
23.726755999999991
 20
25.737003000000001
 30
0.0
 11
23.726755999999991
 21
28.852003
 31
0.0
  0
LINE
  5
88
  8
0
  6
BYBLOCK
 62
     0
 10
4.7267559999999991
 20
25.737003000000001
 30
0.0
 11
4.7267559999999991
 21
28.852003
 31
0.0
  0
LINE
  5
89
  8
0
  6
BYBLOCK
 62
     0
 10
23.096755999999989
 20
28.526503000000002
 30
0.0
 11
15.225349
 21
28.526503000000002
 31
0.0
  0
LINE
  5
8A
  8
0
  6
BYBLOCK
 62
     0
 10
5.356755999999999
 20
28.526503000000002
 30
0.0
 11
13.228161999999999
 21
28.526503000000002
 31
0.0
  0
SOLID
  5
8B
  8
0
  6
BYBLOCK
 62
     0
 10
23.096755999999989
 20
28.631502999999999
 30
0.0
 11
23.096755999999989
 21
28.421503000000001
 31
0.0
 12
23.726755999999991
 22
28.526503000000002
 32
0.0
 13
23.726755999999991
 23
28.526503000000002
 33
0.0
  0
SOLID
  5
8C
  8
0
  6
BYBLOCK
 62
     0
 10
5.356755999999999
 20
28.631502999999999
 30
0.0
 11
5.356755999999999
 21
28.421503000000001
 31
0.0
 12
4.7267559999999991
 22
28.526503000000002
 32
0.0
 13
4.7267559999999991
 23
28.526503000000002
 33
0.0
  0
TEXT
  5
8D
  8
0
  6
BYBLOCK
 62
     0
 10
13.54316225
 20
28.307753000000002
 30
0.0
 40
0.4375
  1
19.000
 41
0.75
 72
     1
 11
14.226755999999989
 21
28.526503000000002
 31
0.0
 73
     2
  0
POINT
  5
8E
  8
DEFPOINTS
  6
BYBLOCK
 62
     0
 10
23.726755999999991
 20
25.516503
 30
0.0
  0
POINT
  5
8F
  8
DEFPOINTS
  6
BYBLOCK
 62
     0
 10
4.7267559999999991
 20
25.516503
 30
0.0
  0
POINT
  5
90
  8
DEFPOINTS
  6
BYBLOCK
 62
     0
 10
4.7267559999999991
 20
28.526503000000002
 30
0.0
  0
ENDBLK
  5
91
  8
0
  0
BLOCK
  8
0
  2
*D7
 70
     1
 10
0.0
 20
0.0
 30
0.0
  3
*D7
  1

  0
LINE
  5
94
  8
0
  6
BYBLOCK
 62
     0
 10
23.396756
 20
25.569503000000001
 30
0.0
 11
23.396756
 21
27.977003
 31
0.0
  0
LINE
  5
95
  8
0
  6
BYBLOCK
 62
     0
 10
23.726755999999991
 20
25.737003000000001
 30
0.0
 11
23.726755999999991
 21
27.977003
 31
0.0
  0
LINE
  5
96
  8
0
  6
BYBLOCK
 62
     0
 10
22.766756000000001
 20
27.651503000000002
 30
0.0
 11
22.136755999999991
 21
27.651503000000002
 31
0.0
  0
LINE
  5
97
  8
0
  6
BYBLOCK
 62
     0
 10
24.356756000000001
 20
27.651503000000002
 30
0.0
 11
24.986756
 21
27.651503000000002
 31
0.0
  0
SOLID
  5
98
  8
0
  6
BYBLOCK
 62
     0
 10
22.766756000000001
 20
27.756502999999999
 30
0.0
 11
22.766756000000001
 21
27.546503000000001
 31
0.0
 12
23.396756
 22
27.651503000000002
 32
0.0
 13
23.396756
 23
27.651503000000002
 33
0.0
  0
SOLID
  5
99
  8
0
  6
BYBLOCK
 62
     0
 10
24.356756000000001
 20
27.756502999999999
 30
0.0
 11
24.356756000000001
 21
27.546503000000001
 31
0.0
 12
23.726755999999991
 22
27.651503000000002
 32
0.0
 13
23.726755999999991
 23
27.651503000000002
 33
0.0
  0
TEXT
  5
9A
  8
0
  6
BYBLOCK
 62
     0
 10
25.301755499999999
 20
27.432753000000002
 30
0.0
 40
0.4375
  1
0.330
 41
0.75
 72
     1
 11
25.903317999999992
 21
27.651503000000002
 31
0.0
 73
     2
  0
POINT
  5
9B
  8
DEFPOINTS
  6
BYBLOCK
 62
     0
 10
23.396756
 20
25.349003
 30
0.0
  0
POINT
  5
9C
  8
DEFPOINTS
  6
BYBLOCK
 62
     0
 10
23.726755999999991
 20
25.516503
 30
0.0
  0
POINT
  5
9D
  8
DEFPOINTS
  6
BYBLOCK
 62
     0
 10
23.726755999999991
 20
27.651503000000002
 30
0.0
  0
ENDBLK
  5
9E
  8
0
  0
BLOCK
  8
0
  2
*D8
 70
     1
 10
0.0
 20
0.0
 30
0.0
  3
*D8
  1

  0
LINE
  5
A1
  8
0
  6
BYBLOCK
 62
     0
 10
8.5087559999999982
 20
25.710502999999999
 30
0.0
 11
8.5087559999999982
 21
27.977003
 31
0.0
  0
LINE
  5
A2
  8
0
  6
BYBLOCK
 62
     0
 10
12.32075599999999
 20
25.710502999999999
 30
0.0
 11
12.32075599999999
 21
27.977003
 31
0.0
  0
LINE
  5
A3
  8
0
  6
BYBLOCK
 62
     0
 10
9.1387559999999972
 20
27.651503000000002
 30
0.0
 11
9.4981929999999988
 21
27.651503000000002
 31
0.0
  0
LINE
  5
A4
  8
0
  6
BYBLOCK
 62
     0
 10
11.69075599999999
 20
27.651503000000002
 30
0.0
 11
11.331317999999991
 21
27.651503000000002
 31
0.0
  0
SOLID
  5
A5
  8
0
  6
BYBLOCK
 62
     0
 10
9.1387559999999972
 20
27.756502999999999
 30
0.0
 11
9.1387559999999972
 21
27.546503000000001
 31
0.0
 12
8.5087559999999982
 22
27.651503000000002
 32
0.0
 13
8.5087559999999982
 23
27.651503000000002
 33
0.0
  0
SOLID
  5
A6
  8
0
  6
BYBLOCK
 62
     0
 10
11.69075599999999
 20
27.756502999999999
 30
0.0
 11
11.69075599999999
 21
27.546503000000001
 31
0.0
 12
12.32075599999999
 22
27.651503000000002
 32
0.0
 13
12.32075599999999
 23
27.651503000000002
 33
0.0
  0
TEXT
  5
A7
  8
0
  6
BYBLOCK
 62
     0
 10
9.8131935000000006
 20
27.432753000000002
 30
0.0
 40
0.4375
  1
3.812
 41
0.75
 72
     1
 11
10.414756000000001
 21
27.651503000000002
 31
0.0
 73
     2
  0
POINT
  5
A8
  8
DEFPOINTS
  6
BYBLOCK
 62
     0
 10
8.5087559999999982
 20
25.490003000000002
 30
0.0
  0
POINT
  5
A9
  8
DEFPOINTS
  6
BYBLOCK
 62
     0
 10
12.32075599999999
 20
25.490003000000002
 30
0.0
  0
POINT
  5
AA
  8
DEFPOINTS
  6
BYBLOCK
 62
     0
 10
12.32075599999999
 20
27.651503000000002
 30
0.0
  0
ENDBLK
  5
AB
  8
0
  0
BLOCK
  8
0
  2
*D9
 70
     1
 10
0.0
 20
0.0
 30
0.0
  3
*D9
  1

  0
LINE
  5
AE
  8
0
  6
BYBLOCK
 62
     0
 10
12.32075599999999
 20
25.710502999999999
 30
0.0
 11
12.32075599999999
 21
27.977003
 31
0.0
  0
LINE
  5
AF
  8
0
  6
BYBLOCK
 62
     0
 10
16.132756000000001
 20
25.710502999999999
 30
0.0
 11
16.132756000000001
 21
27.977003
 31
0.0
  0
LINE
  5
B0
  8
0
  6
BYBLOCK
 62
     0
 10
12.950756
 20
27.651503000000002
 30
0.0
 11
13.310193
 21
27.651503000000002
 31
0.0
  0
LINE
  5
B1
  8
0
  6
BYBLOCK
 62
     0
 10
15.502755999999991
 20
27.651503000000002
 30
0.0
 11
15.14331799999999
 21
27.651503000000002
 31
0.0
  0
SOLID
  5
B2
  8
0
  6
BYBLOCK
 62
     0
 10
12.950756
 20
27.756502999999999
 30
0.0
 11
12.950756
 21
27.546503000000001
 31
0.0
 12
12.32075599999999
 22
27.651503000000002
 32
0.0
 13
12.32075599999999
 23
27.651503000000002
 33
0.0
  0
SOLID
  5
B3
  8
0
  6
BYBLOCK
 62
     0
 10
15.502755999999991
 20
27.756502999999999
 30
0.0
 11
15.502755999999991
 21
27.546503000000001
 31
0.0
 12
16.132756000000001
 22
27.651503000000002
 32
0.0
 13
16.132756000000001
 23
27.651503000000002
 33
0.0
  0
TEXT
  5
B4
  8
0
  6
BYBLOCK
 62
     0
 10
13.6251935
 20
27.432753000000002
 30
0.0
 40
0.4375
  1
3.812
 41
0.75
 72
     1
 11
14.226755999999989
 21
27.651503000000002
 31
0.0
 73
     2
  0
POINT
  5
B5
  8
DEFPOINTS
  6
BYBLOCK
 62
     0
 10
12.32075599999999
 20
25.490003000000002
 30
0.0
  0
POINT
  5
B6
  8
DEFPOINTS
  6
BYBLOCK
 62
     0
 10
16.132756000000001
 20
25.490003000000002
 30
0.0
  0
POINT
  5
B7
  8
DEFPOINTS
  6
BYBLOCK
 62
     0
 10
16.132756000000001
 20
27.651503000000002
 30
0.0
  0
ENDBLK
  5
B8
  8
0
  0
BLOCK
  8
0
  2
*D10
 70
     1
 10
0.0
 20
0.0
 30
0.0
  3
*D10
  1

  0
LINE
  5
BB
  8
0
  6
BYBLOCK
 62
     0
 10
16.132756000000001
 20
25.710502999999999
 30
0.0
 11
16.132756000000001
 21
27.977003
 31
0.0
  0
LINE
  5
BC
  8
0
  6
BYBLOCK
 62
     0
 10
19.944755999999991
 20
25.710502999999999
 30
0.0
 11
19.944755999999991
 21
27.977003
 31
0.0
  0
LINE
  5
BD
  8
0
  6
BYBLOCK
 62
     0
 10
16.762756
 20
27.651503000000002
 30
0.0
 11
17.122192999999999
 21
27.651503000000002
 31
0.0
  0
LINE
  5
BE
  8
0
  6
BYBLOCK
 62
     0
 10
19.314755999999988
 20
27.651503000000002
 30
0.0
 11
18.955317999999991
 21
27.651503000000002
 31
0.0
  0
SOLID
  5
BF
  8
0
  6
BYBLOCK
 62
     0
 10
16.762756
 20
27.756502999999999
 30
0.0
 11
16.762756
 21
27.546503000000001
 31
0.0
 12
16.132756000000001
 22
27.651503000000002
 32
0.0
 13
16.132756000000001
 23
27.651503000000002
 33
0.0
  0
SOLID
  5
C0
  8
0
  6
BYBLOCK
 62
     0
 10
19.314755999999988
 20
27.756502999999999
 30
0.0
 11
19.314755999999988
 21
27.546503000000001
 31
0.0
 12
19.944755999999991
 22
27.651503000000002
 32
0.0
 13
19.944755999999991
 23
27.651503000000002
 33
0.0
  0
TEXT
  5
C1
  8
0
  6
BYBLOCK
 62
     0
 10
17.437193499999999
 20
27.432753000000002
 30
0.0
 40
0.4375
  1
3.812
 41
0.75
 72
     1
 11
18.038755999999989
 21
27.651503000000002
 31
0.0
 73
     2
  0
POINT
  5
C2
  8
DEFPOINTS
  6
BYBLOCK
 62
     0
 10
16.132756000000001
 20
25.490003000000002
 30
0.0
  0
POINT
  5
C3
  8
DEFPOINTS
  6
BYBLOCK
 62
     0
 10
19.944755999999991
 20
25.490003000000002
 30
0.0
  0
POINT
  5
C4
  8
DEFPOINTS
  6
BYBLOCK
 62
     0
 10
19.944755999999991
 20
27.651503000000002
 30
0.0
  0
ENDBLK
  5
C5
  8
0
  0
BLOCK
  8
0
  2
*D11
 70
     1
 10
0.0
 20
0.0
 30
0.0
  3
*D11
  1

  0
LINE
  5
C8
  8
0
  6
BYBLOCK
 62
     0
 10
46.591545999999987
 20
4.744972999999999
 30
0.0
 11
46.591545999999987
 21
7.0114729999999987
 31
0.0
  0
LINE
  5
C9
  8
0
  6
BYBLOCK
 62
     0
 10
50.403545999999999
 20
4.744972999999999
 30
0.0
 11
50.403545999999999
 21
7.0114729999999987
 31
0.0
  0
LINE
  5
CA
  8
0
  6
BYBLOCK
 62
     0
 10
47.221545999999996
 20
6.6859729999999988
 30
0.0
 11
47.580983000000003
 21
6.6859729999999988
 31
0.0
  0
LINE
  5
CB
  8
0
  6
BYBLOCK
 62
     0
 10
49.773546000000003
 20
6.6859729999999988
 30
0.0
 11
49.414107999999992
 21
6.6859729999999988
 31
0.0
  0
SOLID
  5
CC
  8
0
  6
BYBLOCK
 62
     0
 10
47.221545999999996
 20
6.7909729999999993
 30
0.0
 11
47.221545999999996
 21
6.5809729999999993
 31
0.0
 12
46.591545999999987
 22
6.6859729999999988
 32
0.0
 13
46.591545999999987
 23
6.6859729999999988
 33
0.0
  0
SOLID
  5
CD
  8
0
  6
BYBLOCK
 62
     0
 10
49.773546000000003
 20
6.7909729999999993
 30
0.0
 11
49.773546000000003
 21
6.5809729999999993
 31
0.0
 12
50.403545999999999
 22
6.6859729999999988
 32
0.0
 13
50.403545999999999
 23
6.6859729999999988
 33
0.0
  0
TEXT
  5
CE
  8
0
  6
BYBLOCK
 62
     0
 10
47.8959835
 20
6.4672229999999988
 30
0.0
 40
0.4375
  1
3.812
 41
0.75
 72
     1
 11
48.497546
 21
6.6859729999999988
 31
0.0
 73
     2
  0
POINT
  5
CF
  8
DEFPOINTS
  6
BYBLOCK
 62
     0
 10
46.591545999999987
 20
4.5244730000000004
 30
0.0
  0
POINT
  5
D0
  8
DEFPOINTS
  6
BYBLOCK
 62
     0
 10
50.403545999999999
 20
4.5244730000000004
 30
0.0
  0
POINT
  5
D1
  8
DEFPOINTS
  6
BYBLOCK
 62
     0
 10
50.403545999999999
 20
6.6859729999999988
 30
0.0
  0
ENDBLK
  5
D2
  8
0
  0
BLOCK
  8
0
  2
*D12
 70
     1
 10
0.0
 20
0.0
 30
0.0
  3
*D12
  1

  0
LINE
  5
D5
  8
0
  6
BYBLOCK
 62
     0
 10
42.715546000000003
 20
4.7714730000000003
 30
0.0
 11
42.715546000000003
 21
7.0114729999999987
 31
0.0
  0
LINE
  5
D6
  8
0
  6
BYBLOCK
 62
     0
 10
46.591545999999987
 20
4.744972999999999
 30
0.0
 11
46.591545999999987
 21
7.0114729999999987
 31
0.0
  0
LINE
  5
D7
  8
0
  6
BYBLOCK
 62
     0
 10
43.345545999999992
 20
6.6859729999999988
 30
0.0
 11
43.682296000000001
 21
6.6859729999999988
 31
0.0
  0
LINE
  5
D8
  8
0
  6
BYBLOCK
 62
     0
 10
45.961546000000013
 20
6.6859729999999988
 30
0.0
 11
45.624796000000003
 21
6.6859729999999988
 31
0.0
  0
SOLID
  5
D9
  8
0
  6
BYBLOCK
 62
     0
 10
43.345545999999992
 20
6.7909729999999993
 30
0.0
 11
43.345545999999992
 21
6.5809729999999993
 31
0.0
 12
42.715546000000003
 22
6.6859729999999988
 32
0.0
 13
42.715546000000003
 23
6.6859729999999988
 33
0.0
  0
SOLID
  5
DA
  8
0
  6
BYBLOCK
 62
     0
 10
45.961546000000013
 20
6.7909729999999993
 30
0.0
 11
45.961546000000013
 21
6.5809729999999993
 31
0.0
 12
46.591545999999987
 22
6.6859729999999988
 32
0.0
 13
46.591545999999987
 23
6.6859729999999988
 33
0.0
  0
TEXT
  5
DB
  8
0
  6
BYBLOCK
 62
     0
 10
43.997295999999992
 20
6.4672229999999988
 30
0.0
 40
0.4375
  1
3.876
 41
0.75
 72
     1
 11
44.653545999999999
 21
6.6859729999999988
 31
0.0
 73
     2
  0
POINT
  5
DC
  8
DEFPOINTS
  6
BYBLOCK
 62
     0
 10
42.715546000000003
 20
4.550972999999999
 30
0.0
  0
POINT
  5
DD
  8
DEFPOINTS
  6
BYBLOCK
 62
     0
 10
46.591545999999987
 20
4.5244730000000004
 30
0.0
  0
POINT
  5
DE
  8
DEFPOINTS
  6
BYBLOCK
 62
     0
 10
46.591545999999987
 20
6.6859729999999988
 30
0.0
  0
ENDBLK
  5
DF
  8
0
  0
BLOCK
  8
0
  2
*D13
 70
     1
 10
0.0
 20
0.0
 30
0.0
  3
*D13
  1

  0
LINE
  5
E2
  8
0
  6
BYBLOCK
 62
     0
 10
54.215546000000003
 20
4.744972999999999
 30
0.0
 11
54.215546000000003
 21
7.0114729999999987
 31
0.0
  0
LINE
  5
E3
  8
0
  6
BYBLOCK
 62
     0
 10
58.027546000000001
 20
4.744972999999999
 30
0.0
 11
58.027546000000001
 21
7.0114729999999987
 31
0.0
  0
LINE
  5
E4
  8
0
  6
BYBLOCK
 62
     0
 10
54.845545999999999
 20
6.6859729999999988
 30
0.0
 11
55.204982999999991
 21
6.6859729999999988
 31
0.0
  0
LINE
  5
E5
  8
0
  6
BYBLOCK
 62
     0
 10
57.397545999999998
 20
6.6859729999999988
 30
0.0
 11
57.038107999999987
 21
6.6859729999999988
 31
0.0
  0
SOLID
  5
E6
  8
0
  6
BYBLOCK
 62
     0
 10
54.845545999999999
 20
6.7909729999999993
 30
0.0
 11
54.845545999999999
 21
6.5809729999999993
 31
0.0
 12
54.215546000000003
 22
6.6859729999999988
 32
0.0
 13
54.215546000000003
 23
6.6859729999999988
 33
0.0
  0
SOLID
  5
E7
  8
0
  6
BYBLOCK
 62
     0
 10
57.397545999999998
 20
6.7909729999999993
 30
0.0
 11
57.397545999999998
 21
6.5809729999999993
 31
0.0
 12
58.027546000000001
 22
6.6859729999999988
 32
0.0
 13
58.027546000000001
 23
6.6859729999999988
 33
0.0
  0
TEXT
  5
E8
  8
0
  6
BYBLOCK
 62
     0
 10
55.519983499999988
 20
6.4672229999999988
 30
0.0
 40
0.4375
  1
3.812
 41
0.75
 72
     1
 11
56.121546000000002
 21
6.6859729999999988
 31
0.0
 73
     2
  0
POINT
  5
E9
  8
DEFPOINTS
  6
BYBLOCK
 62
     0
 10
54.215546000000003
 20
4.5244730000000004
 30
0.0
  0
POINT
  5
EA
  8
DEFPOINTS
  6
BYBLOCK
 62
     0
 10
58.027546000000001
 20
4.5244730000000004
 30
0.0
  0
POINT
  5
EB
  8
DEFPOINTS
  6
BYBLOCK
 62
     0
 10
58.027546000000001
 20
6.6859729999999988
 30
0.0
  0
ENDBLK
  5
EC
  8
0
  0
BLOCK
  8
0
  2
*D14
 70
     1
 10
0.0
 20
0.0
 30
0.0
  3
*D14
  1

  0
LINE
  5
EF
  8
0
  6
BYBLOCK
 62
     0
 10
50.403545999999999
 20
4.744972999999999
 30
0.0
 11
50.403545999999999
 21
7.0114729999999987
 31
0.0
  0
LINE
  5
F0
  8
0
  6
BYBLOCK
 62
     0
 10
54.215546000000003
 20
4.744972999999999
 30
0.0
 11
54.215546000000003
 21
7.0114729999999987
 31
0.0
  0
LINE
  5
F1
  8
0
  6
BYBLOCK
 62
     0
 10
51.033546000000001
 20
6.6859729999999988
 30
0.0
 11
51.392983000000001
 21
6.6859729999999988
 31
0.0
  0
LINE
  5
F2
  8
0
  6
BYBLOCK
 62
     0
 10
53.585545999999987
 20
6.6859729999999988
 30
0.0
 11
53.226107999999989
 21
6.6859729999999988
 31
0.0
  0
SOLID
  5
F3
  8
0
  6
BYBLOCK
 62
     0
 10
51.033546000000001
 20
6.7909729999999993
 30
0.0
 11
51.033546000000001
 21
6.5809729999999993
 31
0.0
 12
50.403545999999999
 22
6.6859729999999988
 32
0.0
 13
50.403545999999999
 23
6.6859729999999988
 33
0.0
  0
SOLID
  5
F4
  8
0
  6
BYBLOCK
 62
     0
 10
53.585545999999987
 20
6.7909729999999993
 30
0.0
 11
53.585545999999987
 21
6.5809729999999993
 31
0.0
 12
54.215546000000003
 22
6.6859729999999988
 32
0.0
 13
54.215546000000003
 23
6.6859729999999988
 33
0.0
  0
TEXT
  5
F5
  8
0
  6
BYBLOCK
 62
     0
 10
51.707983499999997
 20
6.4672229999999988
 30
0.0
 40
0.4375
  1
3.812
 41
0.75
 72
     1
 11
52.309545999999997
 21
6.6859729999999988
 31
0.0
 73
     2
  0
POINT
  5
F6
  8
DEFPOINTS
  6
BYBLOCK
 62
     0
 10
50.403545999999999
 20
4.5244730000000004
 30
0.0
  0
POINT
  5
F7
  8
DEFPOINTS
  6
BYBLOCK
 62
     0
 10
54.215546000000003
 20
4.5244730000000004
 30
0.0
  0
POINT
  5
F8
  8
DEFPOINTS
  6
BYBLOCK
 62
     0
 10
54.215546000000003
 20
6.6859729999999988
 30
0.0
  0
ENDBLK
  5
F9
  8
0
  0
BLOCK
  8
0
  2
*D15
 70
     1
 10
0.0
 20
0.0
 30
0.0
  3
*D15
  1

  0
LINE
  5
FC
  8
0
  6
BYBLOCK
 62
     0
 10
65.715546000000003
 20
4.7714730000000003
 30
0.0
 11
65.715546000000003
 21
7.8864729999999987
 31
0.0
  0
LINE
  5
FD
  8
0
  6
BYBLOCK
 62
     0
 10
42.715546000000003
 20
4.7714730000000003
 30
0.0
 11
42.715546000000003
 21
7.8864729999999987
 31
0.0
  0
LINE
  5
FE
  8
0
  6
BYBLOCK
 62
     0
 10
65.085545999999994
 20
7.5609729999999988
 30
0.0
 11
55.268827000000002
 21
7.5609729999999988
 31
0.0
  0
LINE
  5
FF
  8
0
  6
BYBLOCK
 62
     0
 10
43.345545999999992
 20
7.5609729999999988
 30
0.0
 11
53.162264999999998
 21
7.5609729999999988
 31
0.0
  0
SOLID
  5
100
  8
0
  6
BYBLOCK
 62
     0
 10
65.085545999999994
 20
7.6659729999999993
 30
0.0
 11
65.085545999999994
 21
7.4559729999999993
 31
0.0
 12
65.715546000000003
 22
7.5609729999999988
 32
0.0
 13
65.715546000000003
 23
7.5609729999999988
 33
0.0
  0
SOLID
  5
101
  8
0
  6
BYBLOCK
 62
     0
 10
43.345545999999992
 20
7.6659729999999993
 30
0.0
 11
43.345545999999992
 21
7.4559729999999993
 31
0.0
 12
42.715546000000003
 22
7.5609729999999988
 32
0.0
 13
42.715546000000003
 23
7.5609729999999988
 33
0.0
  0
TEXT
  5
102
  8
0
  6
BYBLOCK
 62
     0
 10
53.477264749999989
 20
7.3422229999999988
 30
0.0
 40
0.4375
  1
23.000
 41
0.75
 72
     1
 11
54.215546000000003
 21
7.5609729999999988
 31
0.0
 73
     2
  0
POINT
  5
103
  8
DEFPOINTS
  6
BYBLOCK
 62
     0
 10
65.715546000000003
 20
4.550972999999999
 30
0.0
  0
POINT
  5
104
  8
DEFPOINTS
  6
BYBLOCK
 62
     0
 10
42.715546000000003
 20
4.550972999999999
 30
0.0
  0
POINT
  5
105
  8
DEFPOINTS
  6
BYBLOCK
 62
     0
 10
42.715546000000003
 20
7.5609729999999988
 30
0.0
  0
ENDBLK
  5
106
  8
0
  0
BLOCK
  8
0
  2
*D16
 70
     1
 10
0.0
 20
0.0
 30
0.0
  3
*D16
  1

  0
LINE
  5
109
  8
0
  6
BYBLOCK
 62
     0
 10
61.839545999999991
 20
4.744972999999999
 30
0.0
 11
61.839545999999991
 21
7.0114729999999987
 31
0.0
  0
LINE
  5
10A
  8
0
  6
BYBLOCK
 62
     0
 10
58.027546000000001
 20
4.744972999999999
 30
0.0
 11
58.027546000000001
 21
7.0114729999999987
 31
0.0
  0
LINE
  5
10B
  8
0
  6
BYBLOCK
 62
     0
 10
61.209546000000003
 20
6.6859729999999988
 30
0.0
 11
60.850107999999999
 21
6.6859729999999988
 31
0.0
  0
LINE
  5
10C
  8
0
  6
BYBLOCK
 62
     0
 10
58.657545999999989
 20
6.6859729999999988
 30
0.0
 11
59.016982999999989
 21
6.6859729999999988
 31
0.0
  0
SOLID
  5
10D
  8
0
  6
BYBLOCK
 62
     0
 10
61.209546000000003
 20
6.7909729999999993
 30
0.0
 11
61.209546000000003
 21
6.5809729999999993
 31
0.0
 12
61.839545999999991
 22
6.6859729999999988
 32
0.0
 13
61.839545999999991
 23
6.6859729999999988
 33
0.0
  0
SOLID
  5
10E
  8
0
  6
BYBLOCK
 62
     0
 10
58.657545999999989
 20
6.7909729999999993
 30
0.0
 11
58.657545999999989
 21
6.5809729999999993
 31
0.0
 12
58.027546000000001
 22
6.6859729999999988
 32
0.0
 13
58.027546000000001
 23
6.6859729999999988
 33
0.0
  0
TEXT
  5
10F
  8
0
  6
BYBLOCK
 62
     0
 10
59.3319835
 20
6.4672229999999988
 30
0.0
 40
0.4375
  1
3.812
 41
0.75
 72
     1
 11
59.933545999999993
 21
6.6859729999999988
 31
0.0
 73
     2
  0
POINT
  5
110
  8
DEFPOINTS
  6
BYBLOCK
 62
     0
 10
61.839545999999991
 20
4.5244730000000004
 30
0.0
  0
POINT
  5
111
  8
DEFPOINTS
  6
BYBLOCK
 62
     0
 10
58.027546000000001
 20
4.5244730000000004
 30
0.0
  0
POINT
  5
112
  8
DEFPOINTS
  6
BYBLOCK
 62
     0
 10
58.027546000000001
 20
6.6859729999999988
 30
0.0
  0
ENDBLK
  5
113
  8
0
  0
BLOCK
  8
0
  2
*D17
 70
     1
 10
0.0
 20
0.0
 30
0.0
  3
*D17
  1

  0
LINE
  5
116
  8
0
  6
BYBLOCK
 62
     0
 10
41.419150000000002
 20
23.766273000000002
 30
0.0
 11
41.419150000000002
 21
24.618272999999999
 31
0.0
  0
LINE
  5
117
  8
0
  6
BYBLOCK
 62
     0
 10
49.419150000000002
 20
23.766273000000002
 30
0.0
 11
49.419150000000002
 21
24.618272999999999
 31
0.0
  0
LINE
  5
118
  8
0
  6
BYBLOCK
 62
     0
 10
42.04914999999999
 20
24.292773
 30
0.0
 11
44.529930999999991
 21
24.292773
 31
0.0
  0
LINE
  5
119
  8
0
  6
BYBLOCK
 62
     0
 10
48.789149999999999
 20
24.292773
 30
0.0
 11
46.308368999999999
 21
24.292773
 31
0.0
  0
SOLID
  5
11A
  8
0
  6
BYBLOCK
 62
     0
 10
42.04914999999999
 20
24.397773000000001
 30
0.0
 11
42.04914999999999
 21
24.187773
 31
0.0
 12
41.419150000000002
 22
24.292773
 32
0.0
 13
41.419150000000002
 23
24.292773
 33
0.0
  0
SOLID
  5
11B
  8
0
  6
BYBLOCK
 62
     0
 10
48.789149999999999
 20
24.397773000000001
 30
0.0
 11
48.789149999999999
 21
24.187773
 31
0.0
 12
49.419150000000002
 22
24.292773
 32
0.0
 13
49.419150000000002
 23
24.292773
 33
0.0
  0
TEXT
  5
11C
  8
0
  6
BYBLOCK
 62
     0
 10
44.844931250000002
 20
24.074023
 30
0.0
 40
0.4375
  1
8.000
 41
0.75
 72
     1
 11
45.419150000000002
 21
24.292773
 31
0.0
 73
     2
  0
POINT
  5
11D
  8
DEFPOINTS
  6
BYBLOCK
 62
     0
 10
41.419150000000002
 20
23.545773000000001
 30
0.0
  0
POINT
  5
11E
  8
DEFPOINTS
  6
BYBLOCK
 62
     0
 10
49.419150000000002
 20
23.545773000000001
 30
0.0
  0
POINT
  5
11F
  8
DEFPOINTS
  6
BYBLOCK
 62
     0
 10
49.419150000000002
 20
24.292773
 30
0.0
  0
ENDBLK
  5
120
  8
0
  0
BLOCK
  8
0
  2
*D18
 70
     1
 10
0.0
 20
0.0
 30
0.0
  3
*D18
  1

  0
LINE
  5
123
  8
0
  6
BYBLOCK
 62
     0
 10
41.198649999999986
 20
23.545773000000001
 30
0.0
 11
40.06765
 21
23.545773000000001
 31
0.0
  0
LINE
  5
124
  8
0
  6
BYBLOCK
 62
     0
 10
41.198649999999986
 20
22.545773000000001
 30
0.0
 11
40.06765
 21
22.545773000000001
 31
0.0
  0
LINE
  5
125
  8
0
  6
BYBLOCK
 62
     0
 10
40.393149999999999
 20
24.175773
 30
0.0
 11
40.393149999999999
 21
24.805772999999999
 31
0.0
  0
LINE
  5
126
  8
0
  6
BYBLOCK
 62
     0
 10
40.393149999999999
 20
21.915773000000002
 30
0.0
 11
40.393149999999999
 21
21.285772999999999
 31
0.0
  0
SOLID
  5
127
  8
0
  6
BYBLOCK
 62
     0
 10
40.288150000000002
 20
24.175773
 30
0.0
 11
40.498150000000003
 21
24.175773
 31
0.0
 12
40.393149999999999
 22
23.545773000000001
 32
0.0
 13
40.393149999999999
 23
23.545773000000001
 33
0.0
  0
SOLID
  5
128
  8
0
  6
BYBLOCK
 62
     0
 10
40.288150000000002
 20
21.915773000000002
 30
0.0
 11
40.498150000000003
 21
21.915773000000002
 31
0.0
 12
40.393149999999999
 22
22.545773000000001
 32
0.0
 13
40.393149999999999
 23
22.545773000000001
 33
0.0
  0
TEXT
  5
129
  8
0
  6
BYBLOCK
 62
     0
 10
39.873618749999991
 20
22.82702299999999
 30
0.0
 40
0.4375
  1
1.000
 41
0.75
 72
     1
 11
40.393149999999999
 21
23.045773000000001
 31
0.0
 73
     2
  0
POINT
  5
12A
  8
DEFPOINTS
  6
BYBLOCK
 62
     0
 10
41.419150000000002
 20
23.545773000000001
 30
0.0
  0
POINT
  5
12B
  8
DEFPOINTS
  6
BYBLOCK
 62
     0
 10
41.419150000000002
 20
22.545773000000001
 30
0.0
  0
POINT
  5
12C
  8
DEFPOINTS
  6
BYBLOCK
 62
     0
 10
40.393149999999999
 20
22.545773000000001
 30
0.0
  0
ENDBLK
  5
12D
  8
0
  0
BLOCK
  8
0
  2
*D19
 70
     1
 10
0.0
 20
0.0
 30
0.0
  3
*D19
  1

  0
LINE
  5
B4B
  8
DIM
 62
     0
 10
11.148562999999999
 20
33.063738000000001
 30
0.0
 11
11.148562999999999
 21
35.330238000000001
 31
0.0
  0
LINE
  5
B4C
  8
DIM
 62
     0
 10
14.960563
 20
33.063738000000001
 30
0.0
 11
14.960563
 21
35.330238000000001
 31
0.0
  0
LINE
  5
B4D
  8
DIM
 62
     0
 10
11.778563
 20
35.004738000000003
 30
0.0
 11
12.1380005
 21
35.004738000000003
 31
0.0
  0
LINE
  5
B4E
  8
DIM
 62
     0
 10
14.330563
 20
35.004738000000003
 30
0.0
 11
13.971125499999999
 21
35.004738000000003
 31
0.0
  0
SOLID
  5
B4F
  8
DIM
 62
     0
 10
11.778563
 20
35.109738
 30
0.0
 11
11.778563
 21
34.899737999999999
 31
0.0
 12
11.148562999999999
 22
35.004738000000003
 32
0.0
 13
11.148562999999999
 23
35.004738000000003
 33
0.0
  0
SOLID
  5
B50
  8
DIM
 62
     0
 10
14.330563
 20
35.109738
 30
0.0
 11
14.330563
 21
34.899737999999999
 31
0.0
 12
14.960563
 22
35.004738000000003
 32
0.0
 13
14.960563
 23
35.004738000000003
 33
0.0
  0
TEXT
  5
B51
  8
DIM
 62
     0
 10
12.4530005
 20
34.785988000000003
 30
0.0
 40
0.4375
  1
3.812
 41
0.75
  7
TXT
  0
POINT
  5
B52
  8
DEFPOINTS
 62
     0
 10
11.148562999999999
 20
32.843237999999999
 30
0.0
  0
POINT
  5
B53
  8
DEFPOINTS
 62
     0
 10
14.960563
 20
32.843237999999999
 30
0.0
  0
POINT
  5
B54
  8
DEFPOINTS
 62
     0
 10
14.960563
 20
35.004738000000003
 30
0.0
  0
ENDBLK
  5
1AC
  8
0
  0
BLOCK
  8
0
  2
*D20
 70
     1
 10
0.0
 20
0.0
 30
0.0
  3
*D20
  1

  0
LINE
  5
B55
  8
DIM
 62
     0
 10
22.554563000000002
 20
33.090237999999999
 30
0.0
 11
22.554563000000002
 21
36.205238000000001
 31
0.0
  0
LINE
  5
B56
  8
DIM
 62
     0
 10
3.554562999999999
 20
33.090237999999999
 30
0.0
 11
3.554562999999999
 21
36.205238000000001
 31
0.0
  0
LINE
  5
B57
  8
DIM
 62
     0
 10
21.924562999999999
 20
35.879738000000003
 30
0.0
 11
14.053156749999999
 21
35.879738000000003
 31
0.0
  0
LINE
  5
B58
  8
DIM
 62
     0
 10
4.1845629999999989
 20
35.879738000000003
 30
0.0
 11
12.05596925
 21
35.879738000000003
 31
0.0
  0
SOLID
  5
B59
  8
DIM
 62
     0
 10
21.924562999999999
 20
35.984738
 30
0.0
 11
21.924562999999999
 21
35.774737999999999
 31
0.0
 12
22.554563000000002
 22
35.879738000000003
 32
0.0
 13
22.554563000000002
 23
35.879738000000003
 33
0.0
  0
SOLID
  5
B5A
  8
DIM
 62
     0
 10
4.1845629999999989
 20
35.984738
 30
0.0
 11
4.1845629999999989
 21
35.774737999999999
 31
0.0
 12
3.554562999999999
 22
35.879738000000003
 32
0.0
 13
3.554562999999999
 23
35.879738000000003
 33
0.0
  0
TEXT
  5
B5B
  8
DIM
 62
     0
 10
12.37096925
 20
35.660988000000003
 30
0.0
 40
0.4375
  1
19.000
 41
0.75
  7
TXT
  0
POINT
  5
B5C
  8
DEFPOINTS
 62
     0
 10
22.554563000000002
 20
32.869737999999998
 30
0.0
  0
POINT
  5
B5D
  8
DEFPOINTS
 62
     0
 10
3.554562999999999
 20
32.869737999999998
 30
0.0
  0
POINT
  5
B5E
  8
DEFPOINTS
 62
     0
 10
3.554562999999999
 20
35.879738000000003
 30
0.0
  0
ENDBLK
  5
1BE
  8
0
  0
BLOCK
  8
0
  2
*D21
 70
     1
 10
0.0
 20
0.0
 30
0.0
  3
*D21
  1

  0
LINE
  5
C0B
  8
DIM
 62
     0
 10
3.554562999999999
 20
33.090237999999999
 30
0.0
 11
3.554562999999999
 21
35.330238000000001
 31
0.0
  0
LINE
  5
C0C
  8
DIM
 62
     0
 10
7.3365629999999999
 20
33.063738000000001
 30
0.0
 11
7.3365629999999999
 21
35.330238000000001
 31
0.0
  0
LINE
  5
C0D
  8
DIM
 62
     0
 10
2.924563
 20
35.004738000000003
 30
0.0
 11
2.2945630000000001
 21
35.004738000000003
 31
0.0
  0
LINE
  5
C0E
  8
DIM
 62
     0
 10
7.9665629999999998
 20
35.004738000000003
 30
0.0
 11
8.5965630000000015
 21
35.004738000000003
 31
0.0
  0
SOLID
  5
C0F
  8
DIM
 62
     0
 10
2.924563
 20
35.109738
 30
0.0
 11
2.924563
 21
34.899737999999999
 31
0.0
 12
3.554562999999999
 22
35.004738000000003
 32
0.0
 13
3.554562999999999
 23
35.004738000000003
 33
0.0
  0
SOLID
  5
C10
  8
DIM
 62
     0
 10
7.9665629999999998
 20
35.109738
 30
0.0
 11
7.9665629999999998
 21
34.899737999999999
 31
0.0
 12
7.3365629999999999
 22
35.004738000000003
 32
0.0
 13
7.3365629999999999
 23
35.004738000000003
 33
0.0
  0
TEXT
  5
C11
  8
DIM
 62
     0
 10
4.789312999999999
 20
34.785988000000003
 30
0.0
 40
0.4375
  1
3.782
 41
0.75
  7
TXT
  0
POINT
  5
C12
  8
DEFPOINTS
 62
     0
 10
3.554562999999999
 20
32.869737999999998
 30
0.0
  0
POINT
  5
C13
  8
DEFPOINTS
 62
     0
 10
7.3365629999999999
 20
32.843237999999999
 30
0.0
  0
POINT
  5
C14
  8
DEFPOINTS
 62
     0
 10
7.3365629999999999
 20
35.004738000000003
 30
0.0
  0
ENDBLK
  5
1CC
  8
0
  0
BLOCK
  8
0
  2
*D22
 70
     1
 10
0.0
 20
0.0
 30
0.0
  3
*D22
  1

  0
LINE
  5
B5F
  8
DIM
 62
     0
 10
7.3365629999999999
 20
33.063738000000001
 30
0.0
 11
7.3365629999999999
 21
35.330238000000001
 31
0.0
  0
LINE
  5
B60
  8
DIM
 62
     0
 10
11.148562999999999
 20
33.063738000000001
 30
0.0
 11
11.148562999999999
 21
35.330238000000001
 31
0.0
  0
LINE
  5
B61
  8
DIM
 62
     0
 10
7.9665629999999998
 20
35.004738000000003
 30
0.0
 11
8.326000500000001
 21
35.004738000000003
 31
0.0
  0
LINE
  5
B62
  8
DIM
 62
     0
 10
10.518563
 20
35.004738000000003
 30
0.0
 11
10.1591255
 21
35.004738000000003
 31
0.0
  0
SOLID
  5
B63
  8
DIM
 62
     0
 10
7.9665629999999998
 20
35.109738
 30
0.0
 11
7.9665629999999998
 21
34.899737999999999
 31
0.0
 12
7.3365629999999999
 22
35.004738000000003
 32
0.0
 13
7.3365629999999999
 23
35.004738000000003
 33
0.0
  0
SOLID
  5
B64
  8
DIM
 62
     0
 10
10.518563
 20
35.109738
 30
0.0
 11
10.518563
 21
34.899737999999999
 31
0.0
 12
11.148562999999999
 22
35.004738000000003
 32
0.0
 13
11.148562999999999
 23
35.004738000000003
 33
0.0
  0
TEXT
  5
B65
  8
DIM
 62
     0
 10
8.6410005000000005
 20
34.785988000000003
 30
0.0
 40
0.4375
  1
3.812
 41
0.75
  7
TXT
  0
POINT
  5
B66
  8
DEFPOINTS
 62
     0
 10
7.3365629999999999
 20
32.843237999999999
 30
0.0
  0
POINT
  5
B67
  8
DEFPOINTS
 62
     0
 10
11.148562999999999
 20
32.843237999999999
 30
0.0
  0
POINT
  5
B68
  8
DEFPOINTS
 62
     0
 10
11.148562999999999
 20
35.004738000000003
 30
0.0
  0
ENDBLK
  5
1DA
  8
0
  0
BLOCK
  8
0
  2
*D23
 70
     1
 10
0.0
 20
0.0
 30
0.0
  3
*D23
  1

  0
LINE
  5
B69
  8
DIM
 62
     0
 10
3.8845629999999991
 20
32.922738000000003
 30
0.0
 11
3.8845629999999991
 21
34.455238000000001
 31
0.0
  0
LINE
  5
B6A
  8
DIM
 62
     0
 10
3.554562999999999
 20
33.090237999999999
 30
0.0
 11
3.554562999999999
 21
34.455238000000001
 31
0.0
  0
LINE
  5
B6B
  8
DIM
 62
     0
 10
4.514562999999999
 20
34.129738000000003
 30
0.0
 11
5.1445629999999989
 21
34.129738000000003
 31
0.0
  0
LINE
  5
B6C
  8
DIM
 62
     0
 10
2.924563
 20
34.129738000000003
 30
0.0
 11
2.2945630000000001
 21
34.129738000000003
 31
0.0
  0
SOLID
  5
B6D
  8
DIM
 62
     0
 10
4.514562999999999
 20
34.234738
 30
0.0
 11
4.514562999999999
 21
34.024737999999999
 31
0.0
 12
3.8845629999999991
 22
34.129738000000003
 32
0.0
 13
3.8845629999999991
 23
34.129738000000003
 33
0.0
  0
SOLID
  5
B6E
  8
DIM
 62
     0
 10
2.924563
 20
34.234738
 30
0.0
 11
2.924563
 21
34.024737999999999
 31
0.0
 12
3.554562999999999
 22
34.129738000000003
 32
0.0
 13
3.554562999999999
 23
34.129738000000003
 33
0.0
  0
TEXT
  5
B6F
  8
DIM
 62
     0
 10
0.7764380000000002
 20
33.910988000000003
 30
0.0
 40
0.4375
  1
0.330
 41
0.75
  7
TXT
  0
POINT
  5
B70
  8
DEFPOINTS
 62
     0
 10
3.8845629999999991
 20
32.702238000000001
 30
0.0
  0
POINT
  5
B71
  8
DEFPOINTS
 62
     0
 10
3.554562999999999
 20
32.869737999999998
 30
0.0
  0
POINT
  5
B72
  8
DEFPOINTS
 62
     0
 10
3.554562999999999
 20
34.129738000000003
 30
0.0
  0
ENDBLK
  5
1E8
  8
0
  0
BLOCK
  8
0
  2
*D24
 70
     1
 10
0.0
 20
0.0
 30
0.0
  3
*D24
  1

  0
LINE
  5
B73
  8
DIM
 62
     0
 10
22.224563
 20
32.922738000000003
 30
0.0
 11
22.224563
 21
35.330238000000001
 31
0.0
  0
LINE
  5
B74
  8
DIM
 62
     0
 10
22.554563000000002
 20
33.090237999999999
 30
0.0
 11
22.554563000000002
 21
35.330238000000001
 31
0.0
  0
LINE
  5
B75
  8
DIM
 62
     0
 10
21.59456299999999
 20
35.004738000000003
 30
0.0
 11
20.964562999999991
 21
35.004738000000003
 31
0.0
  0
LINE
  5
B76
  8
DIM
 62
     0
 10
23.184563000000001
 20
35.004738000000003
 30
0.0
 11
23.814562999999989
 21
35.004738000000003
 31
0.0
  0
SOLID
  5
B77
  8
DIM
 62
     0
 10
21.59456299999999
 20
35.109738
 30
0.0
 11
21.59456299999999
 21
34.899737999999999
 31
0.0
 12
22.224563
 22
35.004738000000003
 32
0.0
 13
22.224563
 23
35.004738000000003
 33
0.0
  0
SOLID
  5
B78
  8
DIM
 62
     0
 10
23.184563000000001
 20
35.109738
 30
0.0
 11
23.184563000000001
 21
34.899737999999999
 31
0.0
 12
22.554563000000002
 22
35.004738000000003
 32
0.0
 13
22.554563000000002
 23
35.004738000000003
 33
0.0
  0
TEXT
  5
B79
  8
DIM
 62
     0
 10
24.129563000000001
 20
34.785988000000003
 30
0.0
 40
0.4375
  1
0.330
 41
0.75
  7
TXT
  0
POINT
  5
B7A
  8
DEFPOINTS
 62
     0
 10
22.224563
 20
32.702238000000001
 30
0.0
  0
POINT
  5
B7B
  8
DEFPOINTS
 62
     0
 10
22.554563000000002
 20
32.869737999999998
 30
0.0
  0
POINT
  5
B7C
  8
DEFPOINTS
 62
     0
 10
22.554563000000002
 20
35.004738000000003
 30
0.0
  0
ENDBLK
  5
246
  8
0
  0
BLOCK
  8
0
  2
*D25
 70
     1
 10
0.0
 20
0.0
 30
0.0
  3
*D25
  1

  0
LINE
  5
B7D
  8
DIM
 62
     0
 10
14.960563
 20
33.063738000000001
 30
0.0
 11
14.960563
 21
35.330238000000001
 31
0.0
  0
LINE
  5
B7E
  8
DIM
 62
     0
 10
18.772563000000002
 20
33.063738000000001
 30
0.0
 11
18.772563000000002
 21
35.330238000000001
 31
0.0
  0
LINE
  5
B7F
  8
DIM
 62
     0
 10
15.590563
 20
35.004738000000003
 30
0.0
 11
15.9500005
 21
35.004738000000003
 31
0.0
  0
LINE
  5
B80
  8
DIM
 62
     0
 10
18.142562999999999
 20
35.004738000000003
 30
0.0
 11
17.783125500000001
 21
35.004738000000003
 31
0.0
  0
SOLID
  5
B81
  8
DIM
 62
     0
 10
15.590563
 20
35.109738
 30
0.0
 11
15.590563
 21
34.899737999999999
 31
0.0
 12
14.960563
 22
35.004738000000003
 32
0.0
 13
14.960563
 23
35.004738000000003
 33
0.0
  0
SOLID
  5
B82
  8
DIM
 62
     0
 10
18.142562999999999
 20
35.109738
 30
0.0
 11
18.142562999999999
 21
34.899737999999999
 31
0.0
 12
18.772563000000002
 22
35.004738000000003
 32
0.0
 13
18.772563000000002
 23
35.004738000000003
 33
0.0
  0
TEXT
  5
B83
  8
DIM
 62
     0
 10
16.265000499999999
 20
34.785988000000003
 30
0.0
 40
0.4375
  1
3.812
 41
0.75
  7
TXT
  0
POINT
  5
B84
  8
DEFPOINTS
 62
     0
 10
14.960563
 20
32.843237999999999
 30
0.0
  0
POINT
  5
B85
  8
DEFPOINTS
 62
     0
 10
18.772563000000002
 20
32.843237999999999
 30
0.0
  0
POINT
  5
B86
  8
DEFPOINTS
 62
     0
 10
18.772563000000002
 20
35.004738000000003
 30
0.0
  0
ENDBLK
  5
254
  8
0
  0
BLOCK
  8
0
  2
*D26
 70
     1
 10
0.0
 20
0.0
 30
0.0
  3
*D26
  1

  0
LINE
  5
B87
  8
DIM
 62
     0
 10
22.512563
 20
32.634737999999992
 30
0.0
 11
23.426062999999999
 21
32.634737999999992
 31
0.0
  0
LINE
  5
B88
  8
DIM
 62
     0
 10
22.775062999999999
 20
32.869737999999998
 30
0.0
 11
23.426062999999999
 21
32.869737999999998
 31
0.0
  0
LINE
  5
B89
  8
DIM
 62
     0
 10
23.100563000000001
 20
32.004737999999989
 30
0.0
 11
23.100563000000001
 21
31.374738000000001
 31
0.0
  0
LINE
  5
B8A
  8
DIM
 62
     0
 10
23.100563000000001
 20
33.499738000000001
 30
0.0
 11
23.100563000000001
 21
34.129737999999989
 31
0.0
  0
LINE
  5
B8B
  8
DIM
 62
     0
 10
23.100563000000001
 20
34.129737999999989
 30
0.0
 11
23.730563
 21
34.129737999999989
 31
0.0
  0
SOLID
  5
B8C
  8
DIM
 62
     0
 10
22.995563000000001
 20
32.004737999999989
 30
0.0
 11
23.205563000000001
 21
32.004737999999989
 31
0.0
 12
23.100563000000001
 22
32.634737999999992
 32
0.0
 13
23.100563000000001
 23
32.634737999999992
 33
0.0
  0
SOLID
  5
B8D
  8
DIM
 62
     0
 10
22.995563000000001
 20
33.499738000000001
 30
0.0
 11
23.205563000000001
 21
33.499738000000001
 31
0.0
 12
23.100563000000001
 22
32.869737999999998
 32
0.0
 13
23.100563000000001
 23
32.869737999999998
 33
0.0
  0
TEXT
  5
B8E
  8
DIM
 62
     0
 10
24.045562999999991
 20
33.910988000000003
 30
0.0
 40
0.4375
  1
0.235
 41
0.75
  7
TXT
  0
POINT
  5
B8F
  8
DEFPOINTS
 62
     0
 10
22.292062999999992
 20
32.634737999999992
 30
0.0
  0
POINT
  5
B90
  8
DEFPOINTS
 62
     0
 10
22.554563000000002
 20
32.869737999999998
 30
0.0
  0
POINT
  5
B91
  8
DEFPOINTS
 62
     0
 10
23.100563000000001
 20
32.869737999999998
 30
0.0
  0
ENDBLK
  5
262
  8
0
  0
BLOCK
  8
0
  2
*D27
 70
     1
 10
0.0
 20
0.0
 30
0.0
  3
*D27
  1

  0
LINE
  5
C15
  8
DIM
 62
     0
 10
22.512563
 20
32.634737999999992
 30
0.0
 11
25.780169000000001
 21
32.634737999999992
 31
0.0
  0
LINE
  5
C16
  8
DIM
 62
     0
 10
22.512563
 20
31.384737999999992
 30
0.0
 11
25.780169000000001
 21
31.384737999999992
 31
0.0
  0
LINE
  5
C17
  8
DIM
 62
     0
 10
25.454668999999999
 20
33.264738000000001
 30
0.0
 11
25.454668999999999
 21
33.89473799999999
 31
0.0
  0
LINE
  5
C18
  8
DIM
 62
     0
 10
25.454668999999999
 20
30.754737999999989
 30
0.0
 11
25.454668999999999
 21
30.12473799999999
 31
0.0
  0
SOLID
  5
C19
  8
DIM
 62
     0
 10
25.349668999999999
 20
33.264738000000001
 30
0.0
 11
25.559669
 21
33.264738000000001
 31
0.0
 12
25.454668999999999
 22
32.634737999999992
 32
0.0
 13
25.454668999999999
 23
32.634737999999992
 33
0.0
  0
SOLID
  5
C1A
  8
DIM
 62
     0
 10
25.349668999999999
 20
30.754737999999989
 30
0.0
 11
25.559669
 21
30.754737999999989
 31
0.0
 12
25.454668999999999
 22
31.384737999999992
 32
0.0
 13
25.454668999999999
 23
31.384737999999992
 33
0.0
  0
TEXT
  5
C1B
  8
DIM
 62
     0
 10
24.880450249999988
 20
31.790987999999999
 30
0.0
 40
0.4375
  1
1.250
 41
0.75
  7
TXT
  0
POINT
  5
C1C
  8
DEFPOINTS
 62
     0
 10
22.292062999999992
 20
32.634737999999992
 30
0.0
  0
POINT
  5
C1D
  8
DEFPOINTS
 62
     0
 10
22.292062999999992
 20
31.384737999999992
 30
0.0
  0
POINT
  5
C1E
  8
DEFPOINTS
 62
     0
 10
25.454668999999999
 20
31.384737999999992
 30
0.0
  0
ENDBLK
  5
270
  8
0
  0
BLOCK
  8
0
  2
*D28
 70
     1
 10
0.0
 20
0.0
 30
0.0
  3
*D28
  1

  0
LINE
  5
B92
  8
DIM
 62
     0
 10
26.873374999999989
 20
30.929237999999991
 30
0.0
 11
26.873374999999989
 21
29.226414999999999
 31
0.0
  0
LINE
  5
B93
  8
DIM
 62
     0
 10
27.123374999999999
 20
30.929237999999991
 30
0.0
 11
27.123374999999999
 21
29.226414999999999
 31
0.0
  0
LINE
  5
B94
  8
DIM
 62
     0
 10
26.243375
 20
29.551915000000001
 30
0.0
 11
25.613375000000001
 21
29.551915000000001
 31
0.0
  0
LINE
  5
B95
  8
DIM
 62
     0
 10
27.753374999999998
 20
29.551915000000001
 30
0.0
 11
28.38337499999999
 21
29.551915000000001
 31
0.0
  0
SOLID
  5
B96
  8
DIM
 62
     0
 10
26.243375
 20
29.656915000000001
 30
0.0
 11
26.243375
 21
29.446915000000001
 31
0.0
 12
26.873374999999989
 22
29.551915000000001
 32
0.0
 13
26.873374999999989
 23
29.551915000000001
 33
0.0
  0
SOLID
  5
B97
  8
DIM
 62
     0
 10
27.753374999999998
 20
29.656915000000001
 30
0.0
 11
27.753374999999998
 21
29.446915000000001
 31
0.0
 12
27.123374999999999
 22
29.551915000000001
 32
0.0
 13
27.123374999999999
 23
29.551915000000001
 33
0.0
  0
TEXT
  5
B98
  8
DIM
 62
     0
 10
28.698374999999999
 20
29.333165000000001
 30
0.0
 40
0.4375
  1
0.250
 41
0.75
  7
TXT
  0
POINT
  5
B99
  8
DEFPOINTS
 62
     0
 10
26.873374999999989
 20
31.149737999999999
 30
0.0
  0
POINT
  5
B9A
  8
DEFPOINTS
 62
     0
 10
27.123374999999999
 20
31.149737999999999
 30
0.0
  0
POINT
  5
B9B
  8
DEFPOINTS
 62
     0
 10
27.123374999999999
 20
29.551915000000001
 30
0.0
  0
ENDBLK
  5
2CB
  8
0
  0
BLOCK
  8
0
  2
*D29
 70
     1
 10
0.0
 20
0.0
 30
0.0
  3
*D29
  1

  0
LINE
  5
C1F
  8
DIM
 62
     0
 10
27.343875000000001
 20
31.149737999999999
 30
0.0
 11
28.649011000000002
 21
31.149737999999999
 31
0.0
  0
LINE
  5
C20
  8
DIM
 62
     0
 10
27.343875000000001
 20
32.869737999999998
 30
0.0
 11
28.649011000000002
 21
32.869737999999998
 31
0.0
  0
LINE
  5
C21
  8
DIM
 62
     0
 10
28.323511
 20
30.519738
 30
0.0
 11
28.323511
 21
29.889738000000001
 31
0.0
  0
LINE
  5
C22
  8
DIM
 62
     0
 10
28.323511
 20
33.499738000000001
 30
0.0
 11
28.323511
 21
34.129737999999989
 31
0.0
  0
SOLID
  5
C23
  8
DIM
 62
     0
 10
28.218510999999989
 20
30.519738
 30
0.0
 11
28.428511
 21
30.519738
 31
0.0
 12
28.323511
 22
31.149737999999999
 32
0.0
 13
28.323511
 23
31.149737999999999
 33
0.0
  0
SOLID
  5
C24
  8
DIM
 62
     0
 10
28.218510999999989
 20
33.499738000000001
 30
0.0
 11
28.428511
 21
33.499738000000001
 31
0.0
 12
28.323511
 22
32.869737999999998
 32
0.0
 13
28.323511
 23
32.869737999999998
 33
0.0
  0
TEXT
  5
C25
  8
DIM
 62
     0
 10
27.749292249999989
 20
31.790987999999999
 30
0.0
 40
0.4375
  1
1.720
 41
0.75
  7
TXT
  0
POINT
  5
C26
  8
DEFPOINTS
 62
     0
 10
27.123374999999999
 20
31.149737999999999
 30
0.0
  0
POINT
  5
C27
  8
DEFPOINTS
 62
     0
 10
27.123374999999999
 20
32.869737999999998
 30
0.0
  0
POINT
  5
C28
  8
DEFPOINTS
 62
     0
 10
28.323511
 20
32.869737999999998
 30
0.0
  0
ENDBLK
  5
2E3
  8
0
  0
BLOCK
  8
0
  2
*D30
 70
     1
 10
0.0
 20
0.0
 30
0.0
  3
*D30
  1

  0
LINE
  5
B9C
  8
DIM
 62
     0
 10
26.224563
 20
5.2069749999999999
 30
0.0
 11
26.224563
 21
7.6144749999999988
 31
0.0
  0
LINE
  5
B9D
  8
DIM
 62
     0
 10
26.554563000000002
 20
5.3744750000000003
 30
0.0
 11
26.554563000000002
 21
7.6144749999999988
 31
0.0
  0
LINE
  5
B9E
  8
DIM
 62
     0
 10
25.594563000000001
 20
7.2889749999999989
 30
0.0
 11
24.964562999999998
 21
7.2889749999999989
 31
0.0
  0
LINE
  5
B9F
  8
DIM
 62
     0
 10
27.184563000000001
 20
7.2889749999999989
 30
0.0
 11
27.814563
 21
7.2889749999999989
 31
0.0
  0
SOLID
  5
BA0
  8
DIM
 62
     0
 10
25.594563000000001
 20
7.3939750000000002
 30
0.0
 11
25.594563000000001
 21
7.1839749999999993
 31
0.0
 12
26.224563
 22
7.2889749999999989
 32
0.0
 13
26.224563
 23
7.2889749999999989
 33
0.0
  0
SOLID
  5
BA1
  8
DIM
 62
     0
 10
27.184563000000001
 20
7.3939750000000002
 30
0.0
 11
27.184563000000001
 21
7.1839749999999993
 31
0.0
 12
26.554563000000002
 22
7.2889749999999989
 32
0.0
 13
26.554563000000002
 23
7.2889749999999989
 33
0.0
  0
TEXT
  5
BA2
  8
DIM
 62
     0
 10
28.129563000000001
 20
7.0702249999999989
 30
0.0
 40
0.4375
  1
0.330
 41
0.75
  7
TXT
  0
POINT
  5
BA3
  8
DEFPOINTS
 62
     0
 10
26.224563
 20
4.9864750000000004
 30
0.0
  0
POINT
  5
BA4
  8
DEFPOINTS
 62
     0
 10
26.554563000000002
 20
5.1539749999999991
 30
0.0
  0
POINT
  5
BA5
  8
DEFPOINTS
 62
     0
 10
26.554563000000002
 20
7.2889749999999989
 30
0.0
  0
ENDBLK
  5
328
  8
0
  0
BLOCK
  8
0
  2
*D31
 70
     1
 10
0.0
 20
0.0
 30
0.0
  3
*D31
  1

  0
LINE
  5
BA6
  8
DIM
 62
     0
 10
26.554563000000002
 20
5.3744750000000003
 30
0.0
 11
26.554563000000002
 21
8.4894750000000005
 31
0.0
  0
LINE
  5
BA7
  8
DIM
 62
     0
 10
3.554562999999999
 20
5.3744750000000003
 30
0.0
 11
3.554562999999999
 21
8.4894750000000005
 31
0.0
  0
LINE
  5
BA8
  8
DIM
 62
     0
 10
25.924562999999999
 20
8.1639750000000006
 30
0.0
 11
16.107844249999999
 21
8.1639750000000006
 31
0.0
  0
LINE
  5
BA9
  8
DIM
 62
     0
 10
4.1845629999999989
 20
8.1639750000000006
 30
0.0
 11
14.00128175
 21
8.1639750000000006
 31
0.0
  0
SOLID
  5
BAA
  8
DIM
 62
     0
 10
25.924562999999999
 20
8.2689750000000011
 30
0.0
 11
25.924562999999999
 21
8.0589750000000002
 31
0.0
 12
26.554563000000002
 22
8.1639750000000006
 32
0.0
 13
26.554563000000002
 23
8.1639750000000006
 33
0.0
  0
SOLID
  5
BAB
  8
DIM
 62
     0
 10
4.1845629999999989
 20
8.2689750000000011
 30
0.0
 11
4.1845629999999989
 21
8.0589750000000002
 31
0.0
 12
3.554562999999999
 22
8.1639750000000006
 32
0.0
 13
3.554562999999999
 23
8.1639750000000006
 33
0.0
  0
TEXT
  5
BAC
  8
DIM
 62
     0
 10
14.31628175
 20
7.9452249999999998
 30
0.0
 40
0.4375
  1
23.000
 41
0.75
  7
TXT
  0
POINT
  5
BAD
  8
DEFPOINTS
 62
     0
 10
26.554563000000002
 20
5.1539749999999991
 30
0.0
  0
POINT
  5
BAE
  8
DEFPOINTS
 62
     0
 10
3.554562999999999
 20
5.1539749999999991
 30
0.0
  0
POINT
  5
BAF
  8
DEFPOINTS
 62
     0
 10
3.554562999999999
 20
8.1639750000000006
 30
0.0
  0
ENDBLK
  5
336
  8
0
  0
BLOCK
  8
0
  2
*D32
 70
     1
 10
0.0
 20
0.0
 30
0.0
  3
*D32
  1

  0
LINE
  5
BB0
  8
DIM
 62
     0
 10
11.242563000000001
 20
5.347974999999999
 30
0.0
 11
11.242563000000001
 21
7.6144749999999988
 31
0.0
  0
LINE
  5
BB1
  8
DIM
 62
     0
 10
15.054563
 20
5.347974999999999
 30
0.0
 11
15.054563
 21
7.6144749999999988
 31
0.0
  0
LINE
  5
BB2
  8
DIM
 62
     0
 10
11.872563
 20
7.2889749999999989
 30
0.0
 11
12.232000499999989
 21
7.2889749999999989
 31
0.0
  0
LINE
  5
BB3
  8
DIM
 62
     0
 10
14.42456299999999
 20
7.2889749999999989
 30
0.0
 11
14.06512549999999
 21
7.2889749999999989
 31
0.0
  0
SOLID
  5
BB4
  8
DIM
 62
     0
 10
11.872563
 20
7.3939750000000002
 30
0.0
 11
11.872563
 21
7.1839749999999993
 31
0.0
 12
11.242563000000001
 22
7.2889749999999989
 32
0.0
 13
11.242563000000001
 23
7.2889749999999989
 33
0.0
  0
SOLID
  5
BB5
  8
DIM
 62
     0
 10
14.42456299999999
 20
7.3939750000000002
 30
0.0
 11
14.42456299999999
 21
7.1839749999999993
 31
0.0
 12
15.054563
 22
7.2889749999999989
 32
0.0
 13
15.054563
 23
7.2889749999999989
 33
0.0
  0
TEXT
  5
BB6
  8
DIM
 62
     0
 10
12.547000499999999
 20
7.0702249999999989
 30
0.0
 40
0.4375
  1
3.812
 41
0.75
  7
TXT
  0
POINT
  5
BB7
  8
DEFPOINTS
 62
     0
 10
11.242563000000001
 20
5.1274749999999987
 30
0.0
  0
POINT
  5
BB8
  8
DEFPOINTS
 62
     0
 10
15.054563
 20
5.1274749999999987
 30
0.0
  0
POINT
  5
BB9
  8
DEFPOINTS
 62
     0
 10
15.054563
 20
7.2889749999999989
 30
0.0
  0
ENDBLK
  5
352
  8
0
  0
BLOCK
  8
0
  2
*D33
 70
     1
 10
0.0
 20
0.0
 30
0.0
  3
*D33
  1

  0
LINE
  5
C29
  8
DIM
 62
     0
 10
3.554562999999999
 20
5.3744750000000003
 30
0.0
 11
3.554562999999999
 21
7.6144749999999988
 31
0.0
  0
LINE
  5
C2A
  8
DIM
 62
     0
 10
7.4305630000000003
 20
5.347974999999999
 30
0.0
 11
7.4305630000000003
 21
7.6144749999999988
 31
0.0
  0
LINE
  5
C2B
  8
DIM
 62
     0
 10
4.1845629999999989
 20
7.2889749999999989
 30
0.0
 11
4.521313000000001
 21
7.2889749999999989
 31
0.0
  0
LINE
  5
C2C
  8
DIM
 62
     0
 10
6.8005630000000004
 20
7.2889749999999989
 30
0.0
 11
6.463813
 21
7.2889749999999989
 31
0.0
  0
SOLID
  5
C2D
  8
DIM
 62
     0
 10
4.1845629999999989
 20
7.3939750000000002
 30
0.0
 11
4.1845629999999989
 21
7.1839749999999993
 31
0.0
 12
3.554562999999999
 22
7.2889749999999989
 32
0.0
 13
3.554562999999999
 23
7.2889749999999989
 33
0.0
  0
SOLID
  5
C2E
  8
DIM
 62
     0
 10
6.8005630000000004
 20
7.3939750000000002
 30
0.0
 11
6.8005630000000004
 21
7.1839749999999993
 31
0.0
 12
7.4305630000000003
 22
7.2889749999999989
 32
0.0
 13
7.4305630000000003
 23
7.2889749999999989
 33
0.0
  0
TEXT
  5
C2F
  8
DIM
 62
     0
 10
4.8363129999999996
 20
7.0702249999999989
 30
0.0
 40
0.4375
  1
3.876
 41
0.75
  7
TXT
  0
POINT
  5
C30
  8
DEFPOINTS
 62
     0
 10
3.554562999999999
 20
5.1539749999999991
 30
0.0
  0
POINT
  5
C31
  8
DEFPOINTS
 62
     0
 10
7.4305630000000003
 20
5.1274749999999987
 30
0.0
  0
POINT
  5
C32
  8
DEFPOINTS
 62
     0
 10
7.4305630000000003
 20
7.2889749999999989
 30
0.0
  0
ENDBLK
  5
364
  8
0
  0
BLOCK
  8
0
  2
*D34
 70
     1
 10
0.0
 20
0.0
 30
0.0
  3
*D34
  1

  0
LINE
  5
BBA
  8
DIM
 62
     0
 10
3.8845629999999991
 20
5.2069749999999999
 30
0.0
 11
3.8845629999999991
 21
6.7394749999999988
 31
0.0
  0
LINE
  5
BBB
  8
DIM
 62
     0
 10
3.554562999999999
 20
5.3744750000000003
 30
0.0
 11
3.554562999999999
 21
6.7394749999999988
 31
0.0
  0
LINE
  5
BBC
  8
DIM
 62
     0
 10
4.514562999999999
 20
6.4139749999999989
 30
0.0
 11
5.1445629999999989
 21
6.4139749999999989
 31
0.0
  0
LINE
  5
BBD
  8
DIM
 62
     0
 10
2.924563
 20
6.4139749999999989
 30
0.0
 11
2.2945630000000001
 21
6.4139749999999989
 31
0.0
  0
SOLID
  5
BBE
  8
DIM
 62
     0
 10
4.514562999999999
 20
6.5189750000000002
 30
0.0
 11
4.514562999999999
 21
6.3089749999999993
 31
0.0
 12
3.8845629999999991
 22
6.4139749999999989
 32
0.0
 13
3.8845629999999991
 23
6.4139749999999989
 33
0.0
  0
SOLID
  5
BBF
  8
DIM
 62
     0
 10
2.924563
 20
6.5189750000000002
 30
0.0
 11
2.924563
 21
6.3089749999999993
 31
0.0
 12
3.554562999999999
 22
6.4139749999999989
 32
0.0
 13
3.554562999999999
 23
6.4139749999999989
 33
0.0
  0
TEXT
  5
BC0
  8
DIM
 62
     0
 10
0.7764380000000002
 20
6.1952249999999989
 30
0.0
 40
0.4375
  1
0.330
 41
0.75
  7
TXT
  0
POINT
  5
BC1
  8
DEFPOINTS
 62
     0
 10
3.8845629999999991
 20
4.9864750000000004
 30
0.0
  0
POINT
  5
BC2
  8
DEFPOINTS
 62
     0
 10
3.554562999999999
 20
5.1539749999999991
 30
0.0
  0
POINT
  5
BC3
  8
DEFPOINTS
 62
     0
 10
3.554562999999999
 20
6.4139749999999989
 30
0.0
  0
ENDBLK
  5
372
  8
0
  0
BLOCK
  8
0
  2
*D35
 70
     1
 10
0.0
 20
0.0
 30
0.0
  3
*D35
  1

  0
LINE
  5
BC4
  8
DIM
 62
     0
 10
7.4305630000000003
 20
5.347974999999999
 30
0.0
 11
7.4305630000000003
 21
7.6144749999999988
 31
0.0
  0
LINE
  5
BC5
  8
DIM
 62
     0
 10
11.242563000000001
 20
5.347974999999999
 30
0.0
 11
11.242563000000001
 21
7.6144749999999988
 31
0.0
  0
LINE
  5
BC6
  8
DIM
 62
     0
 10
8.0605630000000001
 20
7.2889749999999989
 30
0.0
 11
8.4200005000000004
 21
7.2889749999999989
 31
0.0
  0
LINE
  5
BC7
  8
DIM
 62
     0
 10
10.612562999999991
 20
7.2889749999999989
 30
0.0
 11
10.253125499999991
 21
7.2889749999999989
 31
0.0
  0
SOLID
  5
BC8
  8
DIM
 62
     0
 10
8.0605630000000001
 20
7.3939750000000002
 30
0.0
 11
8.0605630000000001
 21
7.1839749999999993
 31
0.0
 12
7.4305630000000003
 22
7.2889749999999989
 32
0.0
 13
7.4305630000000003
 23
7.2889749999999989
 33
0.0
  0
SOLID
  5
BC9
  8
DIM
 62
     0
 10
10.612562999999991
 20
7.3939750000000002
 30
0.0
 11
10.612562999999991
 21
7.1839749999999993
 31
0.0
 12
11.242563000000001
 22
7.2889749999999989
 32
0.0
 13
11.242563000000001
 23
7.2889749999999989
 33
0.0
  0
TEXT
  5
BCA
  8
DIM
 62
     0
 10
8.7350004999999982
 20
7.0702249999999989
 30
0.0
 40
0.4375
  1
3.812
 41
0.75
  7
TXT
  0
POINT
  5
BCB
  8
DEFPOINTS
 62
     0
 10
7.4305630000000003
 20
5.1274749999999987
 30
0.0
  0
POINT
  5
BCC
  8
DEFPOINTS
 62
     0
 10
11.242563000000001
 20
5.1274749999999987
 30
0.0
  0
POINT
  5
BCD
  8
DEFPOINTS
 62
     0
 10
11.242563000000001
 20
7.2889749999999989
 30
0.0
  0
ENDBLK
  5
399
  8
0
  0
BLOCK
  8
0
  2
*D36
 70
     1
 10
0.0
 20
0.0
 30
0.0
  3
*D36
  1

  0
LINE
  5
BCE
  8
DIM
 62
     0
 10
15.054563
 20
5.347974999999999
 30
0.0
 11
15.054563
 21
7.6144749999999988
 31
0.0
  0
LINE
  5
BCF
  8
DIM
 62
     0
 10
18.866562999999999
 20
5.347974999999999
 30
0.0
 11
18.866562999999999
 21
7.6144749999999988
 31
0.0
  0
LINE
  5
BD0
  8
DIM
 62
     0
 10
15.684563000000001
 20
7.2889749999999989
 30
0.0
 11
16.044000499999989
 21
7.2889749999999989
 31
0.0
  0
LINE
  5
BD1
  8
DIM
 62
     0
 10
18.236563
 20
7.2889749999999989
 30
0.0
 11
17.877125499999998
 21
7.2889749999999989
 31
0.0
  0
SOLID
  5
BD2
  8
DIM
 62
     0
 10
15.684563000000001
 20
7.3939750000000002
 30
0.0
 11
15.684563000000001
 21
7.1839749999999993
 31
0.0
 12
15.054563
 22
7.2889749999999989
 32
0.0
 13
15.054563
 23
7.2889749999999989
 33
0.0
  0
SOLID
  5
BD3
  8
DIM
 62
     0
 10
18.236563
 20
7.3939750000000002
 30
0.0
 11
18.236563
 21
7.1839749999999993
 31
0.0
 12
18.866562999999999
 22
7.2889749999999989
 32
0.0
 13
18.866562999999999
 23
7.2889749999999989
 33
0.0
  0
TEXT
  5
BD4
  8
DIM
 62
     0
 10
16.3590005
 20
7.0702249999999989
 30
0.0
 40
0.4375
  1
3.812
 41
0.75
  7
TXT
  0
POINT
  5
BD5
  8
DEFPOINTS
 62
     0
 10
15.054563
 20
5.1274749999999987
 30
0.0
  0
POINT
  5
BD6
  8
DEFPOINTS
 62
     0
 10
18.866562999999999
 20
5.1274749999999987
 30
0.0
  0
POINT
  5
BD7
  8
DEFPOINTS
 62
     0
 10
18.866562999999999
 20
7.2889749999999989
 30
0.0
  0
ENDBLK
  5
3C7
  8
0
  0
BLOCK
  8
0
  2
*D37
 70
     1
 10
0.0
 20
0.0
 30
0.0
  3
*D37
  1

  0
LINE
  5
BD8
  8
DIM
 62
     0
 10
30.873374999999999
 20
3.2134749999999999
 30
0.0
 11
30.873374999999999
 21
1.510651999999999
 31
0.0
  0
LINE
  5
BD9
  8
DIM
 62
     0
 10
31.123374999999999
 20
3.2134749999999999
 30
0.0
 11
31.123374999999999
 21
1.510651999999999
 31
0.0
  0
LINE
  5
BDA
  8
DIM
 62
     0
 10
30.243375
 20
1.836152
 30
0.0
 11
29.613374999999991
 21
1.836152
 31
0.0
  0
LINE
  5
BDB
  8
DIM
 62
     0
 10
31.753374999999991
 20
1.836152
 30
0.0
 11
32.383375000000001
 21
1.836152
 31
0.0
  0
SOLID
  5
BDC
  8
DIM
 62
     0
 10
30.243375
 20
1.9411519999999991
 30
0.0
 11
30.243375
 21
1.7311519999999989
 31
0.0
 12
30.873374999999999
 22
1.836152
 32
0.0
 13
30.873374999999999
 23
1.836152
 33
0.0
  0
SOLID
  5
BDD
  8
DIM
 62
     0
 10
31.753374999999991
 20
1.9411519999999991
 30
0.0
 11
31.753374999999991
 21
1.7311519999999989
 31
0.0
 12
31.123374999999999
 22
1.836152
 32
0.0
 13
31.123374999999999
 23
1.836152
 33
0.0
  0
TEXT
  5
BDE
  8
DIM
 62
     0
 10
32.698374999999992
 20
1.617402
 30
0.0
 40
0.4375
  1
0.250
 41
0.75
  7
TXT
  0
POINT
  5
BDF
  8
DEFPOINTS
 62
     0
 10
30.873374999999999
 20
3.4339750000000002
 30
0.0
  0
POINT
  5
BE0
  8
DEFPOINTS
 62
     0
 10
31.123374999999999
 20
3.4339750000000002
 30
0.0
  0
POINT
  5
BE1
  8
DEFPOINTS
 62
     0
 10
31.123374999999999
 20
1.836152
 30
0.0
  0
ENDBLK
  5
417
  8
0
  0
BLOCK
  8
0
  2
*D38
 70
     1
 10
0.0
 20
0.0
 30
0.0
  3
*D38
  1

  0
LINE
  5
C33
  8
DIM
 62
     0
 10
26.512563
 20
4.9189749999999988
 30
0.0
 11
29.780169000000001
 21
4.9189749999999988
 31
0.0
  0
LINE
  5
C34
  8
DIM
 62
     0
 10
26.512563
 20
3.6689750000000001
 30
0.0
 11
29.780169000000001
 21
3.6689749999999992
 31
0.0
  0
LINE
  5
C35
  8
DIM
 62
     0
 10
29.454668999999988
 20
5.5489749999999987
 30
0.0
 11
29.454668999999988
 21
6.1789749999999994
 31
0.0
  0
LINE
  5
C36
  8
DIM
 62
     0
 10
29.454668999999988
 20
3.0389749999999989
 30
0.0
 11
29.454668999999988
 21
2.408974999999999
 31
0.0
  0
SOLID
  5
C37
  8
DIM
 62
     0
 10
29.349668999999999
 20
5.5489749999999987
 30
0.0
 11
29.559668999999989
 21
5.5489749999999987
 31
0.0
 12
29.454668999999988
 22
4.9189749999999988
 32
0.0
 13
29.454668999999988
 23
4.9189749999999988
 33
0.0
  0
SOLID
  5
C38
  8
DIM
 62
     0
 10
29.349668999999999
 20
3.0389749999999989
 30
0.0
 11
29.559668999999989
 21
3.0389749999999989
 31
0.0
 12
29.454668999999988
 22
3.6689749999999992
 32
0.0
 13
29.454668999999988
 23
3.6689749999999992
 33
0.0
  0
TEXT
  5
C39
  8
DIM
 62
     0
 10
28.880450249999999
 20
4.0752250000000041
 30
0.0
 40
0.4375
  1
1.250
 41
0.75
  7
TXT
  0
POINT
  5
C3A
  8
DEFPOINTS
 62
     0
 10
26.292062999999992
 20
4.9189749999999988
 30
0.0
  0
POINT
  5
C3B
  8
DEFPOINTS
 62
     0
 10
26.292062999999992
 20
3.6689750000000001
 30
0.0
  0
POINT
  5
C3C
  8
DEFPOINTS
 62
     0
 10
29.454668999999988
 20
3.6689749999999992
 30
0.0
  0
ENDBLK
  5
425
  8
0
  0
BLOCK
  8
0
  2
*D39
 70
     1
 10
0.0
 20
0.0
 30
0.0
  3
*D39
  1

  0
LINE
  5
BE2
  8
DIM
 62
     0
 10
26.512563
 20
4.9189749999999988
 30
0.0
 11
27.426062999999999
 21
4.9189749999999988
 31
0.0
  0
LINE
  5
BE3
  8
DIM
 62
     0
 10
26.775062999999999
 20
5.1539749999999991
 30
0.0
 11
27.426062999999999
 21
5.1539749999999991
 31
0.0
  0
LINE
  5
BE4
  8
DIM
 62
     0
 10
27.100563000000001
 20
4.2889749999999989
 30
0.0
 11
27.100563000000001
 21
3.658974999999999
 31
0.0
  0
LINE
  5
BE5
  8
DIM
 62
     0
 10
27.100563000000001
 20
5.783974999999999
 30
0.0
 11
27.100563000000001
 21
6.4139749999999989
 31
0.0
  0
LINE
  5
BE6
  8
DIM
 62
     0
 10
27.100563000000001
 20
6.4139749999999989
 30
0.0
 11
27.730563
 21
6.4139749999999989
 31
0.0
  0
SOLID
  5
BE7
  8
DIM
 62
     0
 10
26.995563000000001
 20
4.2889749999999989
 30
0.0
 11
27.205563000000001
 21
4.2889749999999989
 31
0.0
 12
27.100563000000001
 22
4.9189749999999988
 32
0.0
 13
27.100563000000001
 23
4.9189749999999988
 33
0.0
  0
SOLID
  5
BE8
  8
DIM
 62
     0
 10
26.995563000000001
 20
5.783974999999999
 30
0.0
 11
27.205563000000001
 21
5.783974999999999
 31
0.0
 12
27.100563000000001
 22
5.1539749999999991
 32
0.0
 13
27.100563000000001
 23
5.1539749999999991
 33
0.0
  0
TEXT
  5
BE9
  8
DIM
 62
     0
 10
28.045563000000001
 20
6.1952250000000042
 30
0.0
 40
0.4375
  1
0.235
 41
0.75
  7
TXT
  0
POINT
  5
BEA
  8
DEFPOINTS
 62
     0
 10
26.292062999999992
 20
4.9189749999999988
 30
0.0
  0
POINT
  5
BEB
  8
DEFPOINTS
 62
     0
 10
26.554563000000002
 20
5.1539749999999991
 30
0.0
  0
POINT
  5
BEC
  8
DEFPOINTS
 62
     0
 10
27.100563000000001
 20
5.1539749999999991
 30
0.0
  0
ENDBLK
  5
433
  8
0
  0
BLOCK
  8
0
  2
*D40
 70
     1
 10
0.0
 20
0.0
 30
0.0
  3
*D40
  1

  0
LINE
  5
C3D
  8
DIM
 62
     0
 10
31.343875000000001
 20
3.4339750000000002
 30
0.0
 11
32.649010999999987
 21
3.4339750000000002
 31
0.0
  0
LINE
  5
C3E
  8
DIM
 62
     0
 10
31.343875000000001
 20
5.1539749999999991
 30
0.0
 11
32.649010999999987
 21
5.1539749999999991
 31
0.0
  0
LINE
  5
C3F
  8
DIM
 62
     0
 10
32.323510999999989
 20
2.8039749999999999
 30
0.0
 11
32.323510999999989
 21
2.173975
 31
0.0
  0
LINE
  5
C40
  8
DIM
 62
     0
 10
32.323510999999989
 20
5.783974999999999
 30
0.0
 11
32.323510999999989
 21
6.4139749999999989
 31
0.0
  0
SOLID
  5
C41
  8
DIM
 62
     0
 10
32.218510999999999
 20
2.8039749999999999
 30
0.0
 11
32.428510999999993
 21
2.8039749999999999
 31
0.0
 12
32.323510999999989
 22
3.4339750000000002
 32
0.0
 13
32.323510999999989
 23
3.4339750000000002
 33
0.0
  0
SOLID
  5
C42
  8
DIM
 62
     0
 10
32.218510999999999
 20
5.783974999999999
 30
0.0
 11
32.428510999999993
 21
5.783974999999999
 31
0.0
 12
32.323510999999989
 22
5.1539749999999991
 32
0.0
 13
32.323510999999989
 23
5.1539749999999991
 33
0.0
  0
TEXT
  5
C43
  8
DIM
 62
     0
 10
31.749292249999989
 20
4.0752250000000041
 30
0.0
 40
0.4375
  1
1.720
 41
0.75
  7
TXT
  0
POINT
  5
C44
  8
DEFPOINTS
 62
     0
 10
31.123374999999999
 20
3.4339750000000002
 30
0.0
  0
POINT
  5
C45
  8
DEFPOINTS
 62
     0
 10
31.123374999999999
 20
5.1539749999999991
 30
0.0
  0
POINT
  5
C46
  8
DEFPOINTS
 62
     0
 10
32.323510999999989
 20
5.1539749999999991
 30
0.0
  0
ENDBLK
  5
442
  8
0
  0
BLOCK
  8
0
  2
*D41
 70
     1
 10
0.0
 20
0.0
 30
0.0
  3
*D41
  1

  0
LINE
  5
BED
  8
DIM
 62
     0
 10
22.678563
 20
5.347974999999999
 30
0.0
 11
22.678563
 21
7.6144749999999988
 31
0.0
  0
LINE
  5
BEE
  8
DIM
 62
     0
 10
18.866562999999999
 20
5.347974999999999
 30
0.0
 11
18.866562999999999
 21
7.6144749999999988
 31
0.0
  0
LINE
  5
BEF
  8
DIM
 62
     0
 10
22.048563000000001
 20
7.2889749999999989
 30
0.0
 11
21.689125499999989
 21
7.2889749999999989
 31
0.0
  0
LINE
  5
BF0
  8
DIM
 62
     0
 10
19.496562999999998
 20
7.2889749999999989
 30
0.0
 11
19.85600049999999
 21
7.2889749999999989
 31
0.0
  0
SOLID
  5
BF1
  8
DIM
 62
     0
 10
22.048563000000001
 20
7.3939750000000002
 30
0.0
 11
22.048563000000001
 21
7.1839749999999993
 31
0.0
 12
22.678563
 22
7.2889749999999989
 32
0.0
 13
22.678563
 23
7.2889749999999989
 33
0.0
  0
SOLID
  5
BF2
  8
DIM
 62
     0
 10
19.496562999999998
 20
7.3939750000000002
 30
0.0
 11
19.496562999999998
 21
7.1839749999999993
 31
0.0
 12
18.866562999999999
 22
7.2889749999999989
 32
0.0
 13
18.866562999999999
 23
7.2889749999999989
 33
0.0
  0
TEXT
  5
BF3
  8
DIM
 62
     0
 10
20.171000499999991
 20
7.0702249999999989
 30
0.0
 40
0.4375
  1
3.812
 41
0.75
  7
TXT
  0
POINT
  5
BF4
  8
DEFPOINTS
 62
     0
 10
22.678563
 20
5.1274749999999987
 30
0.0
  0
POINT
  5
BF5
  8
DEFPOINTS
 62
     0
 10
18.866562999999999
 20
5.1274749999999987
 30
0.0
  0
POINT
  5
BF6
  8
DEFPOINTS
 62
     0
 10
18.866562999999999
 20
7.2889749999999989
 30
0.0
  0
ENDBLK
  5
480
  8
0
  0
BLOCK
  8
0
  2
*D42
 70
     1
 10
0.0
 20
0.0
 30
0.0
  3
*D42
  1

  0
LINE
  5
BF7
  8
DIM
 62
     0
 10
7.2422919999999991
 20
39.661681000000002
 30
0.0
 11
7.2422919999999991
 21
40.513680999999998
 31
0.0
  0
LINE
  5
BF8
  8
DIM
 62
     0
 10
15.242292000000001
 20
39.661681000000002
 30
0.0
 11
15.242292000000001
 21
40.513680999999998
 31
0.0
  0
LINE
  5
BF9
  8
DIM
 62
     0
 10
7.872291999999999
 20
40.188180999999993
 30
0.0
 11
10.35307325
 21
40.188180999999993
 31
0.0
  0
LINE
  5
BFA
  8
DIM
 62
     0
 10
14.612292
 20
40.188180999999993
 30
0.0
 11
12.13151074999999
 21
40.188180999999993
 31
0.0
  0
SOLID
  5
BFB
  8
DIM
 62
     0
 10
7.872291999999999
 20
40.293180999999997
 30
0.0
 11
7.872291999999999
 21
40.083181000000003
 31
0.0
 12
7.2422919999999991
 22
40.188180999999993
 32
0.0
 13
7.2422919999999991
 23
40.188180999999993
 33
0.0
  0
SOLID
  5
BFC
  8
DIM
 62
     0
 10
14.612292
 20
40.293180999999997
 30
0.0
 11
14.612292
 21
40.083181000000003
 31
0.0
 12
15.242292000000001
 22
40.188180999999993
 32
0.0
 13
15.242292000000001
 23
40.188180999999993
 33
0.0
  0
TEXT
  5
BFD
  8
DIM
 62
     0
 10
10.66807324999999
 20
39.969431
 30
0.0
 40
0.4375
  1
8.000
 41
0.75
  7
TXT
  0
POINT
  5
BFE
  8
DEFPOINTS
 62
     0
 10
7.2422919999999991
 20
39.441181
 30
0.0
  0
POINT
  5
BFF
  8
DEFPOINTS
 62
     0
 10
15.242292000000001
 20
39.441181
 30
0.0
  0
POINT
  5
C00
  8
DEFPOINTS
 62
     0
 10
15.242292000000001
 20
40.188180999999993
 30
0.0
  0
ENDBLK
  5
4FD
  8
0
  0
BLOCK
  8
0
  2
*D43
 70
     1
 10
0.0
 20
0.0
 30
0.0
  3
*D43
  1

  0
LINE
  5
C47
  8
DIM
 62
     0
 10
7.0217919999999987
 20
39.441181
 30
0.0
 11
5.8907920000000003
 21
39.441181
 31
0.0
  0
LINE
  5
C48
  8
DIM
 62
     0
 10
7.0217919999999987
 20
38.441181
 30
0.0
 11
5.8907920000000003
 21
38.441181
 31
0.0
  0
LINE
  5
C49
  8
DIM
 62
     0
 10
6.2162920000000002
 20
40.071181000000003
 30
0.0
 11
6.2162920000000002
 21
40.701180999999998
 31
0.0
  0
LINE
  5
C4A
  8
DIM
 62
     0
 10
6.2162919999999993
 20
37.811180999999998
 30
0.0
 11
6.2162919999999993
 21
37.181181000000002
 31
0.0
  0
SOLID
  5
C4B
  8
DIM
 62
     0
 10
6.1112919999999988
 20
40.071181000000003
 30
0.0
 11
6.3212919999999997
 21
40.071181000000003
 31
0.0
 12
6.2162920000000002
 22
39.441181
 32
0.0
 13
6.2162920000000002
 23
39.441181
 33
0.0
  0
SOLID
  5
C4C
  8
DIM
 62
     0
 10
6.1112919999999979
 20
37.811180999999998
 30
0.0
 11
6.3212919999999988
 21
37.811180999999998
 31
0.0
 12
6.2162920000000002
 22
38.441181
 32
0.0
 13
6.2162920000000002
 23
38.441181
 33
0.0
  0
TEXT
  5
C4D
  8
DIM
 62
     0
 10
5.696760749999993
 20
38.722431
 30
0.0
 40
0.4375
  1
1.000
 41
0.75
  7
TXT
  0
POINT
  5
C4E
  8
DEFPOINTS
 62
     0
 10
7.2422919999999991
 20
39.441181
 30
0.0
  0
POINT
  5
C4F
  8
DEFPOINTS
 62
     0
 10
7.2422919999999991
 20
38.441181
 30
0.0
  0
POINT
  5
C50
  8
DEFPOINTS
 62
     0
 10
6.2162920000000002
 20
38.441181
 30
0.0
  0
ENDBLK
  5
50D
  8
0
  0
BLOCK
  8
0
  2
*D44
 70
     1
 10
0.0
 20
0.0
 30
0.0
  3
*D44
  1

  0
LINE
  5
C51
  8
DIM
 62
     0
 10
7.0217919999999987
 20
11.725417999999999
 30
0.0
 11
5.8907920000000003
 21
11.725417999999999
 31
0.0
  0
LINE
  5
C52
  8
DIM
 62
     0
 10
7.0217919999999987
 20
10.725417999999991
 30
0.0
 11
5.8907920000000003
 21
10.725417999999991
 31
0.0
  0
LINE
  5
C53
  8
DIM
 62
     0
 10
6.2162920000000002
 20
12.355418
 30
0.0
 11
6.2162920000000002
 21
12.98541799999999
 31
0.0
  0
LINE
  5
C54
  8
DIM
 62
     0
 10
6.2162920000000002
 20
10.09541799999999
 30
0.0
 11
6.2162919999999993
 21
9.4654179999999997
 31
0.0
  0
SOLID
  5
C55
  8
DIM
 62
     0
 10
6.1112919999999988
 20
12.355418
 30
0.0
 11
6.3212919999999997
 21
12.355418
 31
0.0
 12
6.2162920000000002
 22
11.725417999999999
 32
0.0
 13
6.2162920000000002
 23
11.725417999999999
 33
0.0
  0
SOLID
  5
C56
  8
DIM
 62
     0
 10
6.1112919999999988
 20
10.09541799999999
 30
0.0
 11
6.3212919999999997
 21
10.09541799999999
 31
0.0
 12
6.2162920000000002
 22
10.725417999999991
 32
0.0
 13
6.2162920000000002
 23
10.725417999999991
 33
0.0
  0
TEXT
  5
C57
  8
DIM
 62
     0
 10
5.6967607499999984
 20
11.006667999999999
 30
0.0
 40
0.4375
  1
1.000
 41
0.75
  7
TXT
  0
POINT
  5
C58
  8
DEFPOINTS
 62
     0
 10
7.2422919999999991
 20
11.725417999999999
 30
0.0
  0
POINT
  5
C59
  8
DEFPOINTS
 62
     0
 10
7.2422919999999991
 20
10.725417999999991
 30
0.0
  0
POINT
  5
C5A
  8
DEFPOINTS
 62
     0
 10
6.2162920000000002
 20
10.725417999999991
 30
0.0
  0
ENDBLK
  5
B30
  8
0
  0
BLOCK
  8
0
  2
*D45
 70
     1
 10
0.0
 20
0.0
 30
0.0
  3
*D45
  1

  0
LINE
  5
C01
  8
DIM
 62
     0
 10
7.2422919999999991
 20
11.94591799999999
 30
0.0
 11
7.2422919999999991
 21
12.79791799999999
 31
0.0
  0
LINE
  5
C02
  8
DIM
 62
     0
 10
15.242292000000001
 20
11.94591799999999
 30
0.0
 11
15.242292000000001
 21
12.79791799999999
 31
0.0
  0
LINE
  5
C03
  8
DIM
 62
     0
 10
7.872291999999999
 20
12.472417999999999
 30
0.0
 11
10.35307325
 21
12.472417999999999
 31
0.0
  0
LINE
  5
C04
  8
DIM
 62
     0
 10
14.612292
 20
12.472417999999999
 30
0.0
 11
12.13151074999999
 21
12.472417999999999
 31
0.0
  0
SOLID
  5
C05
  8
DIM
 62
     0
 10
7.872291999999999
 20
12.577418
 30
0.0
 11
7.872291999999999
 21
12.36741799999999
 31
0.0
 12
7.2422919999999991
 22
12.472417999999999
 32
0.0
 13
7.2422919999999991
 23
12.472417999999999
 33
0.0
  0
SOLID
  5
C06
  8
DIM
 62
     0
 10
14.612292
 20
12.577418
 30
0.0
 11
14.612292
 21
12.36741799999999
 31
0.0
 12
15.242292000000001
 22
12.472417999999999
 32
0.0
 13
15.242292000000001
 23
12.472417999999999
 33
0.0
  0
TEXT
  5
C07
  8
DIM
 62
     0
 10
10.66807324999999
 20
12.25366799999999
 30
0.0
 40
0.4375
  1
8.000
 41
0.75
  7
TXT
  0
POINT
  5
C08
  8
DEFPOINTS
 62
     0
 10
7.2422919999999991
 20
11.725417999999999
 30
0.0
  0
POINT
  5
C09
  8
DEFPOINTS
 62
     0
 10
15.242292000000001
 20
11.725417999999999
 30
0.0
  0
POINT
  5
C0A
  8
DEFPOINTS
 62
     0
 10
15.242292000000001
 20
12.472417999999999
 30
0.0
  0
ENDBLK
  5
B44
  8
0
  0
ENDSEC
  0
SECTION
  2
ENTITIES
  0
TEXT
  5
12E
  8
DIM
 10
77.653035000000003
 20
81.048613000000003
 30
0.0
 40
0.25
  1

  0
TEXT
  5
12F
  8
DIM
 10
164.54181800000001
 20
99.214793999999998
 30
0.0
 40
0.25
  1

  0
TEXT
  5
130
  8
DIM
 10
183.54102700000001
 20
128.76857699999991
 30
0.0
 40
0.25
  1

  0
TEXT
  5
131
  8
DIM
 10
182.83202299999991
 20
122.289332
 30
0.0
 40
0.25
  1

  0
TEXT
  5
132
  8
DIM
 10
181.66599899999991
 20
122.2690179999999
 30
0.0
 40
0.25
  1

  0
TEXT
  5
133
  8
DIM
 10
176.40838199999999
 20
132.51713099999989
 30
0.0
 40
0.25
  1

  0
TEXT
  5
134
  8
DIM
 10
176.40838199999999
 20
131.75595200000001
 30
0.0
 40
0.25
  1

  0
TEXT
  5
135
  8
DIM
 10
235.79637700000001
 20
64.427599999999984
 30
0.0
 40
0.25
  1

  0
TEXT
  5
136
  8
DIM
 10
235.08737400000001
 20
57.948355000000006
 30
0.0
 40
0.25
  1

  0
TEXT
  5
137
  8
DIM
 10
233.92134999999999
 20
57.928040000000003
 30
0.0
 40
0.25
  1

  0
TEXT
  5
138
  8
DIM
 10
228.66373300000001
 20
68.176152999999985
 30
0.0
 40
0.25
  1

  0
TEXT
  5
139
  8
DIM
 10
228.66373300000001
 20
67.414974000000001
 30
0.0
 40
0.25
  1

  0
TEXT
  5
13A
  8
DIM
 10
164.54181800000001
 20
179.2147939999999
 30
0.0
 40
0.25
  1

  0
TEXT
  5
13B
  8
DIM
 10
164.54181800000001
 20
287.04107099999987
 30
0.0
 40
0.25
  1

  0
TEXT
  5
13C
  8
DIM
 10
203.48369700000001
 20
237.02943099999999
 30
0.0
 40
0.25
  1

  0
TEXT
  5
13D
  8
DIM
 10
202.7746929999999
 20
230.550186
 30
0.0
 40
0.25
  1

  0
TEXT
  5
13E
  8
DIM
 10
201.60866899999991
 20
230.52987200000001
 30
0.0
 40
0.25
  1

  0
TEXT
  5
13F
  8
DIM
 10
196.3510519999999
 20
240.777985
 30
0.0
 40
0.25
  1

  0
TEXT
  5
140
  8
DIM
 10
196.3510519999999
 20
240.01680499999989
 30
0.0
 40
0.25
  1

  0
TEXT
  5
141
  8
DIM
 10
199.624908
 20
236.31264300000001
 30
0.0
 40
0.25
  1

  0
TEXT
  5
142
  8
DIM
 10
198.9159049999999
 20
229.8333979999999
 30
0.0
 40
0.25
  1

  0
TEXT
  5
143
  8
DIM
 10
197.74988099999999
 20
229.81308300000001
 30
0.0
 40
0.25
  1

  0
TEXT
  5
144
  8
DIM
 10
192.49226399999989
 20
240.06119599999991
 30
0.0
 40
0.25
  1

  0
TEXT
  5
145
  8
DIM
 10
192.49226399999989
 20
239.300017
 30
0.0
 40
0.25
  1

  0
TEXT
  5
146
  8
DIM
 10
164.54181800000001
 20
284.06479400000001
 30
0.0
 40
0.25
  1

  0
TEXT
  5
147
  8
DIM
 10
164.54181800000001
 20
391.89107100000001
 30
0.0
 40
0.25
  1

  0
TEXT
  5
148
  8
DIM
 10
170.68436199999999
 20
382.90796999999998
 30
0.0
 40
0.25
  1

  0
TEXT
  5
149
  8
DIM
 10
189.68357099999989
 20
412.46175399999998
 30
0.0
 40
0.25
  1

  0
TEXT
  5
14A
  8
DIM
 10
188.97456699999989
 20
405.98250899999999
 30
0.0
 40
0.25
  1

  0
TEXT
  5
14B
  8
DIM
 10
187.8085429999999
 20
405.96219400000001
 30
0.0
 40
0.25
  1

  0
TEXT
  5
14C
  8
DIM
 10
182.550926
 20
416.21030699999989
 30
0.0
 40
0.25
  1

  0
TEXT
  5
14D
  8
DIM
 10
182.550926
 20
415.44912799999997
 30
0.0
 40
0.25
  1

  0
TEXT
  5
14E
  8
DIM
 10
198.65515899999991
 20
209.82110899999989
 30
0.0
 40
0.25
  1

  0
TEXT
  5
14F
  8
DIM
 10
197.946155
 20
203.3418639999999
 30
0.0
 40
0.25
  1

  0
TEXT
  5
150
  8
DIM
 10
196.78013100000001
 20
203.32154899999989
 30
0.0
 40
0.25
  1

  0
TEXT
  5
151
  8
DIM
 10
191.522514
 20
213.56966199999999
 30
0.0
 40
0.25
  1

  0
TEXT
  5
152
  8
DIM
 10
191.522514
 20
212.808483
 30
0.0
 40
0.25
  1

  0
TEXT
  5
153
  8
DIM
 10
198.65515899999991
 20
234.75438099999991
 30
0.0
 40
0.25
  1

  0
TEXT
  5
154
  8
DIM
 10
197.946155
 20
228.275137
 30
0.0
 40
0.25
  1

  0
TEXT
  5
155
  8
DIM
 10
196.78013100000001
 20
228.25482199999999
 30
0.0
 40
0.25
  1

  0
TEXT
  5
156
  8
DIM
 10
191.522514
 20
238.50293499999989
 30
0.0
 40
0.25
  1

  0
TEXT
  5
157
  8
DIM
 10
191.522514
 20
237.74175600000001
 30
0.0
 40
0.25
  1

  0
TEXT
  5
158
  8
DIM
 10
208.086772
 20
130.54718199999999
 30
0.0
 40
0.25
  1

  0
TEXT
  5
159
  8
DIM
 10
207.377768
 20
124.067937
 30
0.0
 40
0.25
  1

  0
TEXT
  5
15A
  8
DIM
 10
206.2117439999999
 20
124.047622
 30
0.0
 40
0.25
  1

  0
TEXT
  5
15B
  8
DIM
 10
200.954127
 20
134.29573500000001
 30
0.0
 40
0.25
  1

  0
TEXT
  5
15C
  8
DIM
 10
200.954127
 20
133.53455600000001
 30
0.0
 40
0.25
  1

  0
TEXT
  5
15D
  8
DIM
 10
164.54181800000001
 20
284.06479400000001
 30
0.0
 40
0.25
  1

  0
TEXT
  5
15E
  8
DIM
 10
183.54102700000001
 20
313.61857700000002
 30
0.0
 40
0.25
  1

  0
TEXT
  5
15F
  8
DIM
 10
182.83202299999991
 20
307.13933199999991
 30
0.0
 40
0.25
  1

  0
TEXT
  5
160
  8
DIM
 10
181.66599899999991
 20
307.11901799999998
 30
0.0
 40
0.25
  1

  0
TEXT
  5
161
  8
DIM
 10
176.40838199999999
 20
317.36713099999997
 30
0.0
 40
0.25
  1

  0
TEXT
  5
162
  8
DIM
 10
176.40838199999999
 20
316.605952
 30
0.0
 40
0.25
  1

  0
TEXT
  5
163
  8
DIM
 10
314.67149599999999
 20
105.786222
 30
0.0
 40
0.25
  1

  0
TEXT
  5
164
  8
DIM
 10
314.67149599999999
 20
213.61249900000001
 30
0.0
 40
0.25
  1

  0
TEXT
  5
165
  8
DIM
 10
320.81403999999998
 20
204.62939900000001
 30
0.0
 40
0.25
  1

  0
TEXT
  5
166
  8
DIM
 10
339.81324799999999
 20
234.1831819999999
 30
0.0
 40
0.25
  1

  0
TEXT
  5
167
  8
DIM
 10
339.10424499999999
 20
227.703937
 30
0.0
 40
0.25
  1

  0
TEXT
  5
168
  8
DIM
 10
337.938221
 20
227.68362300000001
 30
0.0
 40
0.25
  1

  0
TEXT
  5
169
  8
DIM
 10
332.68060400000002
 20
237.93173599999989
 30
0.0
 40
0.25
  1

  0
TEXT
  5
16A
  8
DIM
 10
332.68060400000002
 20
237.170556
 30
0.0
 40
0.25
  1

  0
TEXT
  5
16B
  8
DIM
 10
273.4661759999999
 20
76.320329999999984
 30
0.0
 40
0.125
  1

  0
TEXT
  5
16C
  8
DIM
 10
273.4661759999999
 20
76.005752999999999
 30
0.0
 40
0.125
  1

  0
TEXT
  5
16D
  8
DIM
 10
269.36734300000001
 20
72.391278999999983
 30
0.0
 40
0.125
  1

  0
TEXT
  5
16E
  8
DIM
 10
266.993471
 20
71.725532000000001
 30
0.0
 40
0.125
  1

  0
TEXT
  5
16F
  8
DIM
 10
267.01180399999993
 20
75.415030999999985
 30
0.0
 40
0.125
  1

  0
TEXT
  5
170
  8
DIM
 10
271.70384300000001
 20
75.312642000000011
 30
0.0
 40
0.125
  1

  0
TEXT
  5
171
  8
DIM
 10
275.20384300000001
 20
75.312642000000011
 30
0.0
 40
0.125
  1

  0
TEXT
  5
172
  8
DIM
 10
290.147785
 20
81.661245999999991
 30
0.0
 40
0.33325
  1

  0
TEXT
  5
173
  8
DIM
 10
278.58203399999991
 20
85.204218999999995
 30
0.0
 40
0.33325
  1

  0
TEXT
  5
174
  8
DIM
 10
274.5148759999999
 20
74.622682999999995
 30
0.0
 40
0.125
  1

  0
TEXT
  5
175
  8
DIM
 10
274.5148759999999
 20
74.308105999999995
 30
0.0
 40
0.125
  1

  0
TEXT
  5
176
  8
DIM
 10
270.416042
 20
70.693631999999994
 30
0.0
 40
0.125
  1

  0
TEXT
  5
177
  8
DIM
 10
268.042171
 20
70.027884999999998
 30
0.0
 40
0.125
  1

  0
TEXT
  5
178
  8
DIM
 10
268.06050399999992
 20
73.717383999999996
 30
0.0
 40
0.125
  1

  0
TEXT
  5
179
  8
DIM
 10
272.75254200000001
 20
73.614995999999991
 30
0.0
 40
0.125
  1

  0
TEXT
  5
17A
  8
DIM
 10
276.25254200000001
 20
73.614995999999991
 30
0.0
 40
0.125
  1

  0
TEXT
  5
17B
  8
DIM
 10
291.196485
 20
79.963599000000002
 30
0.0
 40
0.33325
  1

  0
TEXT
  5
17C
  8
DIM
 10
279.6307339999999
 20
83.506572999999989
 30
0.0
 40
0.33325
  1

  0
TEXT
  5
17D
  8
DIM
 10
273.73450400000002
 20
132.1104179999999
 30
0.0
 40
0.125
  1

  0
TEXT
  5
17E
  8
DIM
 10
273.73450400000002
 20
131.79583999999991
 30
0.0
 40
0.125
  1

  0
TEXT
  5
17F
  8
DIM
 10
269.63567099999989
 20
128.18136699999999
 30
0.0
 40
0.125
  1

  0
TEXT
  5
180
  8
DIM
 10
267.26179899999988
 20
127.51562
 30
0.0
 40
0.125
  1

  0
TEXT
  5
181
  8
DIM
 10
267.28013299999998
 20
131.205119
 30
0.0
 40
0.125
  1

  0
TEXT
  5
182
  8
DIM
 10
271.97217099999989
 20
131.10273000000001
 30
0.0
 40
0.125
  1

  0
TEXT
  5
183
  8
DIM
 10
275.472171
 20
131.10273000000001
 30
0.0
 40
0.125
  1

  0
TEXT
  5
184
  8
DIM
 10
290.41611399999988
 20
137.451334
 30
0.0
 40
0.33325
  1

  0
TEXT
  5
185
  8
DIM
 10
278.85036200000002
 20
140.99430699999999
 30
0.0
 40
0.33325
  1

  0
TEXT
  5
186
  8
DIM
 10
273.70440200000002
 20
154.64133799999991
 30
0.0
 40
0.125
  1

  0
TEXT
  5
187
  8
DIM
 10
273.70440200000002
 20
154.32676000000001
 30
0.0
 40
0.125
  1

  0
TEXT
  5
188
  8
DIM
 10
269.605569
 20
150.712287
 30
0.0
 40
0.125
  1

  0
TEXT
  5
189
  8
DIM
 10
267.231697
 20
150.04653999999991
 30
0.0
 40
0.125
  1

  0
TEXT
  5
18A
  8
DIM
 10
267.25003099999992
 20
153.73603899999989
 30
0.0
 40
0.125
  1

  0
TEXT
  5
18B
  8
DIM
 10
271.942069
 20
153.6336499999999
 30
0.0
 40
0.125
  1

  0
TEXT
  5
18C
  8
DIM
 10
275.44206899999989
 20
153.6336499999999
 30
0.0
 40
0.125
  1

  0
TEXT
  5
18D
  8
DIM
 10
287.29569199999992
 20
151.52196499999991
 30
0.0
 40
0.33325
  1

  0
TEXT
  5
18E
  8
DIM
 10
299.13619199999999
 20
148.00023799999991
 30
0.0
 40
0.33325
  1

  0
TEXT
  5
18F
  8
DIM
 10
312.78349199999991
 20
250.36359899999999
 30
0.0
 40
0.25
  1

  0
TEXT
  5
190
  8
DIM
 10
314.84768700000001
 20
156.94756000000001
 30
0.0
 40
0.125
  1

  0
TEXT
  5
191
  8
DIM
 10
314.84768700000001
 20
156.63298299999991
 30
0.0
 40
0.125
  1

  0
TEXT
  5
192
  8
DIM
 10
310.74885299999988
 20
153.01850899999991
 30
0.0
 40
0.125
  1

  0
TEXT
  5
193
  8
DIM
 10
308.37498199999987
 20
152.35276200000001
 30
0.0
 40
0.125
  1

  0
TEXT
  5
194
  8
DIM
 10
308.39331499999997
 20
156.04226099999991
 30
0.0
 40
0.125
  1

  0
TEXT
  5
195
  8
DIM
 10
313.08535299999988
 20
155.93987300000001
 30
0.0
 40
0.125
  1

  0
TEXT
  5
196
  8
DIM
 10
316.585353
 20
155.93987300000001
 30
0.0
 40
0.125
  1

  0
TEXT
  5
197
  8
DIM
 10
331.52929599999987
 20
162.28847599999989
 30
0.0
 40
0.33325
  1

  0
TEXT
  5
198
  8
DIM
 10
319.96354500000001
 20
165.83144899999991
 30
0.0
 40
0.33325
  1

  0
POLYLINE
  5
199
  8
DIM
 66
     1
 10
0.0
 20
0.0
 30
0.0
 41
0.23625
  0
VERTEX
  5
C60
  8
DIM
 10
14.21621
 20
31.211738
 30
0.0
  0
VERTEX
  5
C61
  8
DIM
 10
13.825075
 20
30.717860999999999
 30
0.0
 41
0.0
  0
VERTEX
  5
C62
  8
DIM
 10
13.24931099999999
 20
29.990856000000001
 30
0.0
 41
0.0
  0
VERTEX
  5
C63
  8
DIM
 10
12.619310999999991
 20
29.990856000000001
 30
0.0
 41
0.0
  0
SEQEND
  5
C64
  8
DIM
  0
DIMENSION
  5
19F
  8
DIM
  2
*D19
 10
14.960563
 20
35.004738000000003
 30
0.0
 11
13.054563
 21
35.004738000000003
 31
0.0
 70
     0
 13
11.148562999999999
 23
32.843237999999999
 33
0.0
 14
14.960563
 24
32.843237999999999
 34
0.0
  0
LINE
  5
1AD
  8
OBJECT
 10
4.554562999999999
 20
31.149737999999999
 30
0.0
 11
21.554563000000002
 21
31.149737999999999
 31
0.0
  0
LINE
  5
1AE
  8
OBJECT
 10
21.554563000000002
 20
32.807738000000001
 30
0.0
 11
4.554562999999999
 21
32.807738000000001
 31
0.0
  0
LINE
  5
1AF
  8
OBJECT
 10
4.554562999999999
 20
31.211738
 30
0.0
 11
21.554563000000002
 21
31.211738
 31
0.0
  0
LINE
  5
1B0
  8
OBJECT
 10
21.554563000000002
 20
32.869737999999998
 30
0.0
 11
4.554562999999999
 21
32.869737999999998
 31
0.0
  0
DIMENSION
  5
1B1
  8
DIM
  2
*D20
 10
3.554562999999999
 20
35.879738000000003
 30
0.0
 11
13.054563
 21
35.879738000000003
 31
0.0
 70
     0
 13
22.554563000000002
 23
32.869737999999998
 33
0.0
 14
3.554562999999999
 24
32.869737999999998
 34
0.0
  0
DIMENSION
  5
1BF
  8
DIM
  2
*D21
 10
7.3365629999999999
 20
35.004738000000003
 30
0.0
 11
5.445562999999999
 21
35.004738000000003
 31
0.0
 70
     0
 13
3.554562999999999
 23
32.869737999999998
 33
0.0
 14
7.3365629999999999
 24
32.843237999999999
 34
0.0
  0
DIMENSION
  5
1CD
  8
DIM
  2
*D22
 10
11.148562999999999
 20
35.004738000000003
 30
0.0
 11
9.2425630000000005
 21
35.004738000000003
 31
0.0
 70
     0
 13
7.3365629999999999
 23
32.843237999999999
 33
0.0
 14
11.148562999999999
 24
32.843237999999999
 34
0.0
  0
DIMENSION
  5
1DB
  8
DIM
  2
*D23
 10
3.554562999999999
 20
34.129738000000003
 30
0.0
 11
1.3780005
 21
34.129738000000003
 31
0.0
 70
     0
 13
3.8845629999999991
 23
32.702238000000001
 33
0.0
 14
3.554562999999999
 24
32.869737999999998
 34
0.0
  0
POLYLINE
  5
1E9
  8
OBJECT
 66
     1
 10
0.0
 20
0.0
 30
0.0
  0
VERTEX
  5
C65
  8
OBJECT
 10
6.6800629999999996
 20
31.337237999999999
 30
0.0
  0
VERTEX
  5
C66
  8
OBJECT
 10
7.9930630000000003
 20
31.337237999999999
 30
0.0
 42
-0.520644
  0
VERTEX
  5
C67
  8
OBJECT
 10
8.0809169999999995
 20
31.211738
 30
0.0
  0
SEQEND
  5
C68
  8
OBJECT
  0
POLYLINE
  5
1EE
  8
OBJECT
 66
     1
 10
0.0
 20
0.0
 30
0.0
  0
VERTEX
  5
C69
  8
OBJECT
 10
6.6800629999999996
 20
32.682237999999991
 30
0.0
  0
VERTEX
  5
C6A
  8
OBJECT
 10
7.9930630000000003
 20
32.682237999999991
 30
0.0
 42
0.520644
  0
VERTEX
  5
C6B
  8
OBJECT
 10
8.0809169999999995
 20
32.807738000000001
 30
0.0
  0
SEQEND
  5
C6C
  8
OBJECT
  0
TEXT
  5
1F3
  8
DIM
 10
7.3277485000000002
 20
29.772106000000001
 30
0.0
 40
0.4375
  1
0.187 x 1.500 SLOT
 41
0.75
 72
     2
 11
12.304311
 21
29.990856000000001
 31
0.0
 73
     2
  0
LINE
  5
1F4
  8
OBJECT
 10
4.4925629999999988
 20
31.149737999999999
 30
0.0
 11
3.554562999999999
 21
31.149737999999999
 31
0.0
  0
LINE
  5
1F5
  8
OBJECT
 10
4.4925629999999988
 20
32.869737999999998
 30
0.0
 11
3.554562999999999
 21
32.869737999999998
 31
0.0
  0
LINE
  5
1F6
  8
OBJECT
 10
3.554562999999999
 20
31.149737999999999
 30
0.0
 11
3.554562999999999
 21
32.869737999999998
 31
0.0
  0
POLYLINE
  5
1F7
  8
OBJECT
 66
     1
 10
0.0
 20
0.0
 30
0.0
 70
     1
  0
VERTEX
  5
C6D
  8
OBJECT
 10
3.820562999999999
 20
31.245737999999999
 30
0.0
  0
VERTEX
  5
C6E
  8
OBJECT
 10
3.9485629999999992
 20
31.245737999999999
 30
0.0
 42
1.0
  0
VERTEX
  5
C6F
  8
OBJECT
 10
3.9485629999999992
 20
31.523738000000002
 30
0.0
  0
VERTEX
  5
C70
  8
OBJECT
 10
3.820562999999999
 20
31.523738000000002
 30
0.0
 42
1.0
  0
SEQEND
  5
C71
  8
OBJECT
  0
LINE
  5
1FD
  8
CENTER
 10
3.952062999999999
 20
31.384737999999992
 30
0.0
 11
3.8170629999999992
 21
31.384737999999992
 31
0.0
  0
LINE
  5
1FE
  8
CENTER
 10
3.8845629999999991
 20
31.317238
 30
0.0
 11
3.8845629999999991
 21
31.452238000000001
 31
0.0
  0
LINE
  5
1FF
  8
OBJECT
 10
4.554562999999999
 20
31.211738
 30
0.0
 11
4.4925629999999988
 21
31.211738
 31
0.0
  0
LINE
  5
200
  8
OBJECT
 10
4.4925629999999988
 20
31.149737999999999
 30
0.0
 11
4.4925629999999988
 21
31.211738
 31
0.0
  0
LINE
  5
201
  8
OBJECT
 10
4.554562999999999
 20
31.149737999999999
 30
0.0
 11
4.554562999999999
 21
31.211738
 31
0.0
  0
LINE
  5
202
  8
CENTER
 10
3.952062999999999
 20
32.634737999999992
 30
0.0
 11
3.8170629999999992
 21
32.634737999999992
 31
0.0
  0
POLYLINE
  5
203
  8
OBJECT
 66
     1
 10
0.0
 20
0.0
 30
0.0
 70
     1
  0
VERTEX
  5
C72
  8
OBJECT
 10
3.820562999999999
 20
32.773738000000002
 30
0.0
  0
VERTEX
  5
C73
  8
OBJECT
 10
3.9485629999999992
 20
32.773738000000002
 30
0.0
 42
-1.0
  0
VERTEX
  5
C74
  8
OBJECT
 10
3.9485629999999992
 20
32.495738000000003
 30
0.0
  0
VERTEX
  5
C75
  8
OBJECT
 10
3.820562999999999
 20
32.495738000000003
 30
0.0
 42
-1.0
  0
SEQEND
  5
C76
  8
OBJECT
  0
LINE
  5
209
  8
CENTER
 10
3.8845629999999991
 20
32.702238000000001
 30
0.0
 11
3.8845629999999991
 21
32.567238000000003
 31
0.0
  0
LINE
  5
20A
  8
OBJECT
 10
4.554562999999999
 20
32.807738000000001
 30
0.0
 11
4.4925629999999988
 21
32.807738000000001
 31
0.0
  0
LINE
  5
20B
  8
OBJECT
 10
4.4925629999999988
 20
32.807738000000001
 30
0.0
 11
4.4925629999999988
 21
32.869737999999998
 31
0.0
  0
LINE
  5
20C
  8
OBJECT
 10
4.554562999999999
 20
32.807738000000001
 30
0.0
 11
4.554562999999999
 21
32.869737999999998
 31
0.0
  0
POLYLINE
  5
20D
  8
OBJECT
 66
     1
 10
0.0
 20
0.0
 30
0.0
  0
VERTEX
  5
C77
  8
OBJECT
 10
6.5922099999999997
 20
31.211738
 30
0.0
 42
-0.5206430000000001
  0
VERTEX
  5
C78
  8
OBJECT
 10
6.6800629999999996
 20
31.337237999999999
 30
0.0
  0
SEQEND
  5
C79
  8
OBJECT
  0
LINE
  5
211
  8
CENTER
 10
7.3365629999999999
 20
31.311237999999999
 30
0.0
 11
7.3365629999999999
 21
31.176238000000001
 31
0.0
  0
LINE
  5
212
  8
CENTER
 10
7.4040629999999998
 20
31.243738
 30
0.0
 11
7.2690630000000001
 21
31.243738
 31
0.0
  0
POLYLINE
  5
213
  8
OBJECT
 66
     1
 10
0.0
 20
0.0
 30
0.0
  0
VERTEX
  5
C7A
  8
OBJECT
 10
6.5922099999999997
 20
32.807738000000001
 30
0.0
 42
0.5206430000000001
  0
VERTEX
  5
C7B
  8
OBJECT
 10
6.6800629999999996
 20
32.682237999999991
 30
0.0
  0
SEQEND
  5
C7C
  8
OBJECT
  0
LINE
  5
217
  8
CENTER
 10
7.4040629999999998
 20
32.77573799999999
 30
0.0
 11
7.2690630000000001
 21
32.77573799999999
 31
0.0
  0
LINE
  5
218
  8
CENTER
 10
7.3365629999999999
 20
32.708238000000001
 30
0.0
 11
7.3365629999999999
 21
32.843237999999999
 31
0.0
  0
POLYLINE
  5
219
  8
OBJECT
 66
     1
 10
0.0
 20
0.0
 30
0.0
  0
VERTEX
  5
C7D
  8
OBJECT
 10
10.404210000000001
 20
32.807738000000001
 30
0.0
 42
0.5206430000000001
  0
VERTEX
  5
C7E
  8
OBJECT
 10
10.492063
 20
32.682237999999991
 30
0.0
  0
SEQEND
  5
C7F
  8
OBJECT
  0
POLYLINE
  5
21D
  8
OBJECT
 66
     1
 10
0.0
 20
0.0
 30
0.0
  0
VERTEX
  5
C80
  8
OBJECT
 10
10.404210000000001
 20
31.211738
 30
0.0
 42
-0.5206430000000001
  0
VERTEX
  5
C81
  8
OBJECT
 10
10.492063
 20
31.337237999999999
 30
0.0
  0
SEQEND
  5
C82
  8
OBJECT
  0
TEXT
  5
221
  8
DIM
 10
9.3511860000000002
 20
29.042940000000002
 30
0.0
 40
0.4375
  1
(8) PLACES
 41
0.75
 72
     2
 11
12.304311
 21
29.261690000000002
 31
0.0
 73
     2
  0
POLYLINE
  5
222
  8
OBJECT
 66
     1
 10
0.0
 20
0.0
 30
0.0
  0
VERTEX
  5
C83
  8
OBJECT
 10
10.492063
 20
31.337237999999999
 30
0.0
  0
VERTEX
  5
C84
  8
OBJECT
 10
11.805063000000001
 20
31.337237999999999
 30
0.0
 42
-0.520644
  0
VERTEX
  5
C85
  8
OBJECT
 10
11.892917000000001
 20
31.211738
 30
0.0
  0
SEQEND
  5
C86
  8
OBJECT
  0
POLYLINE
  5
227
  8
OBJECT
 66
     1
 10
0.0
 20
0.0
 30
0.0
  0
VERTEX
  5
C87
  8
OBJECT
 10
10.492063
 20
32.682237999999991
 30
0.0
  0
VERTEX
  5
C88
  8
OBJECT
 10
11.805063000000001
 20
32.682237999999991
 30
0.0
 42
0.520644
  0
VERTEX
  5
C89
  8
OBJECT
 10
11.892917000000001
 20
32.807738000000001
 30
0.0
  0
SEQEND
  5
C8A
  8
OBJECT
  0
LINE
  5
22C
  8
CENTER
 10
11.216063
 20
31.243738
 30
0.0
 11
11.08106299999999
 21
31.243738
 31
0.0
  0
LINE
  5
22D
  8
CENTER
 10
11.148562999999999
 20
31.311237999999999
 30
0.0
 11
11.148562999999999
 21
31.176238000000001
 31
0.0
  0
LINE
  5
22E
  8
CENTER
 10
11.216063
 20
32.77573799999999
 30
0.0
 11
11.08106299999999
 21
32.77573799999999
 31
0.0
  0
LINE
  5
22F
  8
CENTER
 10
11.148562999999999
 20
32.708238000000001
 30
0.0
 11
11.148562999999999
 21
32.843237999999999
 31
0.0
  0
TEXT
  5
230
  8
TEXT
 10
4.8497969999999988
 20
47.85545599999999
 30
0.0
 40
0.4375
  1
SMOOTH BLACK
 41
0.75
  0
TEXT
  5
231
  8
TEXT
 10
0.917567
 20
45.709663999999997
 30
0.0
 40
0.4375
  1
SUPPLIED WITH FOUR (4) #10-32 x 5/8 LG. SCREWS
 41
0.75
  0
TEXT
  5
232
  8
TEXT
 10
4.8497969999999988
 20
50.751267999999989
 30
0.0
 40
0.4375
  1
16 GA. STEEL
 41
0.75
  0
TEXT
  5
233
  8
TEXT
 10
1.2238109999999991
 20
47.85545599999999
 30
0.0
 40
0.4375
  1
PANEL
 41
0.75
  0
LINE
  5
234
  8
TEXT
 10
4.623016999999999
 20
47.85545599999999
 30
0.0
 11
3.0506129999999998
 21
47.85545599999999
 31
0.0
  0
TEXT
  5
235
  8
TEXT
 10
0.917567
 20
51.480434999999993
 30
0.0
 40
0.4375
  1
%%uMATERIAL:
 41
0.75
  0
TEXT
  5
236
  8
TEXT
 10
0.917567
 20
48.584621999999989
 30
0.0
 40
0.4375
  1
%%uFINISH:
 41
0.75
  0
TEXT
  5
237
  8
TEXT
 10
1.2238109999999991
 20
50.751267999999989
 30
0.0
 40
0.4375
  1
PANEL
 41
0.75
  0
LINE
  5
238
  8
TEXT
 10
4.623016999999999
 20
50.751267999999989
 30
0.0
 11
3.0506129999999998
 21
50.751267999999989
 31
0.0
  0
DIMENSION
  5
239
  8
DIM
  2
*D24
 10
22.554563000000002
 20
35.004738000000003
 30
0.0
 11
24.731125500000001
 21
35.004738000000003
 31
0.0
 70
     0
 13
22.224563
 23
32.702238000000001
 33
0.0
 14
22.554563000000002
 24
32.869737999999998
 34
0.0
  0
DIMENSION
  5
247
  8
DIM
  2
*D25
 10
18.772563000000002
 20
35.004738000000003
 30
0.0
 11
16.866562999999999
 21
35.004738000000003
 31
0.0
 70
     0
 13
14.960563
 23
32.843237999999999
 33
0.0
 14
18.772563000000002
 24
32.843237999999999
 34
0.0
  0
DIMENSION
  5
255
  8
DIM
  2
*D26
 10
23.100563000000001
 20
32.869737999999998
 30
0.0
 11
24.674469249999991
 21
34.129738000000003
 31
0.0
 70
     0
 13
22.292062999999992
 23
32.634737999999992
 33
0.0
 14
22.554563000000002
 24
32.869737999999998
 34
0.0
 50
90.0
  0
DIMENSION
  5
263
  8
DIM
  2
*D27
 10
25.454668999999999
 20
31.384737999999992
 30
0.0
 11
25.454668999999988
 21
32.009737999999999
 31
0.0
 70
     0
 13
22.292062999999992
 23
32.634737999999992
 33
0.0
 14
22.292062999999992
 24
31.384737999999992
 34
0.0
 50
90.0
  0
LINE
  5
271
  8
CENTER
 10
18.705062999999988
 20
32.77573799999999
 30
0.0
 11
18.840063000000001
 21
32.77573799999999
 31
0.0
  0
LINE
  5
272
  8
CENTER
 10
18.705062999999988
 20
31.243738
 30
0.0
 11
18.840063000000001
 21
31.243738
 31
0.0
  0
POLYLINE
  5
273
  8
OBJECT
 66
     1
 10
0.0
 20
0.0
 30
0.0
  0
VERTEX
  5
C8B
  8
OBJECT
 10
19.429062999999989
 20
31.337237999999999
 30
0.0
  0
VERTEX
  5
C8C
  8
OBJECT
 10
18.116063
 20
31.337237999999999
 30
0.0
 42
0.520644
  0
VERTEX
  5
C8D
  8
OBJECT
 10
18.028210000000001
 20
31.211738
 30
0.0
  0
SEQEND
  5
C8E
  8
OBJECT
  0
POLYLINE
  5
278
  8
OBJECT
 66
     1
 10
0.0
 20
0.0
 30
0.0
  0
VERTEX
  5
C8F
  8
OBJECT
 10
19.429062999999989
 20
32.682237999999991
 30
0.0
  0
VERTEX
  5
C90
  8
OBJECT
 10
18.116063
 20
32.682237999999991
 30
0.0
 42
-0.520644
  0
VERTEX
  5
C91
  8
OBJECT
 10
18.028210000000001
 20
32.807738000000001
 30
0.0
  0
SEQEND
  5
C92
  8
OBJECT
  0
TEXT
  5
27D
  8
DIM
 10
17.565265
 20
29.042940000000002
 30
0.0
 40
0.4375
  1
(4) PLACES
 41
0.75
 72
     2
 11
20.51839
 21
29.261690000000002
 31
0.0
 73
     2
  0
TEXT
  5
27E
  8
DIM
 10
15.3230775
 20
29.772106000000001
 30
0.0
 40
0.4375
  1
0.278 x 0.406 SLOT
 41
0.75
 72
     2
 11
20.51839
 21
29.990856000000001
 31
0.0
 73
     2
  0
POLYLINE
  5
27F
  8
OBJECT
 66
     1
 10
0.0
 20
0.0
 30
0.0
  0
VERTEX
  5
C93
  8
OBJECT
 10
15.617062999999989
 20
32.682237999999991
 30
0.0
  0
VERTEX
  5
C94
  8
OBJECT
 10
14.304062999999999
 20
32.682237999999991
 30
0.0
 42
-0.520644
  0
VERTEX
  5
C95
  8
OBJECT
 10
14.21621
 20
32.807738000000001
 30
0.0
  0
SEQEND
  5
C96
  8
OBJECT
  0
POLYLINE
  5
284
  8
OBJECT
 66
     1
 10
0.0
 20
0.0
 30
0.0
  0
VERTEX
  5
C97
  8
OBJECT
 10
15.617062999999989
 20
31.337237999999999
 30
0.0
  0
VERTEX
  5
C98
  8
OBJECT
 10
14.304062999999999
 20
31.337237999999999
 30
0.0
 42
0.520644
  0
VERTEX
  5
C99
  8
OBJECT
 10
14.21621
 20
31.211738
 30
0.0
  0
SEQEND
  5
C9A
  8
OBJECT
  0
LINE
  5
289
  8
CENTER
 10
14.960563
 20
31.311237999999999
 30
0.0
 11
14.960563
 21
31.176238000000001
 31
0.0
  0
LINE
  5
28A
  8
CENTER
 10
14.893062999999991
 20
31.243738
 30
0.0
 11
15.028063
 21
31.243738
 31
0.0
  0
POLYLINE
  5
28B
  8
OBJECT
 66
     1
 10
0.0
 20
0.0
 30
0.0
  0
VERTEX
  5
C9B
  8
OBJECT
 10
15.704917
 20
31.211738
 30
0.0
 42
0.5206430000000001
  0
VERTEX
  5
C9C
  8
OBJECT
 10
15.617062999999989
 20
31.337237999999999
 30
0.0
  0
SEQEND
  5
C9D
  8
OBJECT
  0
LINE
  5
28F
  8
CENTER
 10
14.893062999999991
 20
32.77573799999999
 30
0.0
 11
15.028063
 21
32.77573799999999
 31
0.0
  0
LINE
  5
290
  8
CENTER
 10
14.960563
 20
32.708238000000001
 30
0.0
 11
14.960563
 21
32.843237999999999
 31
0.0
  0
POLYLINE
  5
291
  8
OBJECT
 66
     1
 10
0.0
 20
0.0
 30
0.0
  0
VERTEX
  5
C9E
  8
OBJECT
 10
15.704917
 20
32.807738000000001
 30
0.0
 42
-0.5206430000000001
  0
VERTEX
  5
C9F
  8
OBJECT
 10
15.617062999999989
 20
32.682237999999991
 30
0.0
  0
SEQEND
  5
CA0
  8
OBJECT
  0
LINE
  5
295
  8
CENTER
 10
18.772563000000002
 20
31.311237999999999
 30
0.0
 11
18.772563000000002
 21
31.176238000000001
 31
0.0
  0
LINE
  5
296
  8
CENTER
 10
18.772563000000002
 20
32.708238000000001
 30
0.0
 11
18.772563000000002
 21
32.843237999999999
 31
0.0
  0
POLYLINE
  5
297
  8
DIM
 66
     1
 10
0.0
 20
0.0
 30
0.0
 41
0.23625
  0
VERTEX
  5
CA1
  8
DIM
 10
22.160562999999989
 20
31.245737999999999
 30
0.0
  0
VERTEX
  5
CA2
  8
DIM
 10
21.854603000000001
 20
30.695022000000002
 30
0.0
 41
0.0
  0
VERTEX
  5
CA3
  8
DIM
 10
21.46339
 20
29.990856000000001
 30
0.0
 41
0.0
  0
VERTEX
  5
CA4
  8
DIM
 10
20.833390000000001
 20
29.990856000000001
 30
0.0
 41
0.0
  0
SEQEND
  5
CA5
  8
DIM
  0
POLYLINE
  5
29D
  8
OBJECT
 66
     1
 10
0.0
 20
0.0
 30
0.0
  0
VERTEX
  5
CA6
  8
OBJECT
 10
19.516916999999999
 20
31.211738
 30
0.0
 42
0.5206430000000001
  0
VERTEX
  5
CA7
  8
OBJECT
 10
19.429062999999989
 20
31.337237999999999
 30
0.0
  0
SEQEND
  5
CA8
  8
OBJECT
  0
POLYLINE
  5
2A1
  8
OBJECT
 66
     1
 10
0.0
 20
0.0
 30
0.0
  0
VERTEX
  5
CA9
  8
OBJECT
 10
19.516916999999999
 20
32.807738000000001
 30
0.0
 42
-0.5206430000000001
  0
VERTEX
  5
CAA
  8
OBJECT
 10
19.429062999999989
 20
32.682237999999991
 30
0.0
  0
SEQEND
  5
CAB
  8
OBJECT
  0
LINE
  5
2A5
  8
OBJECT
 10
22.554563000000002
 20
31.149737999999999
 30
0.0
 11
22.554563000000002
 21
32.869737999999998
 31
0.0
  0
LINE
  5
2A6
  8
CENTER
 10
22.157063000000001
 20
31.384737999999992
 30
0.0
 11
22.292062999999992
 21
31.384737999999992
 31
0.0
  0
POLYLINE
  5
2A7
  8
OBJECT
 66
     1
 10
0.0
 20
0.0
 30
0.0
 70
     1
  0
VERTEX
  5
CAC
  8
OBJECT
 10
22.288562999999989
 20
31.245737999999999
 30
0.0
  0
VERTEX
  5
CAD
  8
OBJECT
 10
22.160562999999989
 20
31.245737999999999
 30
0.0
 42
-1.0
  0
VERTEX
  5
CAE
  8
OBJECT
 10
22.160562999999989
 20
31.523738000000002
 30
0.0
  0
VERTEX
  5
CAF
  8
OBJECT
 10
22.288562999999989
 20
31.523738000000002
 30
0.0
 42
-1.0
  0
SEQEND
  5
CB0
  8
OBJECT
  0
LINE
  5
2AD
  8
OBJECT
 10
21.616562999999999
 20
31.149737999999999
 30
0.0
 11
22.554563000000002
 21
31.149737999999999
 31
0.0
  0
LINE
  5
2AE
  8
OBJECT
 10
21.554563000000002
 20
31.211738
 30
0.0
 11
21.616562999999999
 21
31.211738
 31
0.0
  0
LINE
  5
2AF
  8
OBJECT
 10
21.554563000000002
 20
31.149737999999999
 30
0.0
 11
21.554563000000002
 21
31.211738
 31
0.0
  0
LINE
  5
2B0
  8
OBJECT
 10
21.616562999999999
 20
31.149737999999999
 30
0.0
 11
21.616562999999999
 21
31.211738
 31
0.0
  0
LINE
  5
2B1
  8
CENTER
 10
22.224563
 20
31.317238
 30
0.0
 11
22.224563
 21
31.452238000000001
 31
0.0
  0
LINE
  5
2B2
  8
CENTER
 10
22.157063000000001
 20
32.634737999999992
 30
0.0
 11
22.292062999999992
 21
32.634737999999992
 31
0.0
  0
POLYLINE
  5
2B3
  8
OBJECT
 66
     1
 10
0.0
 20
0.0
 30
0.0
 70
     1
  0
VERTEX
  5
CB1
  8
OBJECT
 10
22.288562999999989
 20
32.773738000000002
 30
0.0
  0
VERTEX
  5
CB2
  8
OBJECT
 10
22.160562999999989
 20
32.773738000000002
 30
0.0
 42
1.0
  0
VERTEX
  5
CB3
  8
OBJECT
 10
22.160562999999989
 20
32.495738000000003
 30
0.0
  0
VERTEX
  5
CB4
  8
OBJECT
 10
22.288562999999989
 20
32.495738000000003
 30
0.0
 42
1.0
  0
SEQEND
  5
CB5
  8
OBJECT
  0
LINE
  5
2B9
  8
OBJECT
 10
21.616562999999999
 20
32.869737999999998
 30
0.0
 11
22.554563000000002
 21
32.869737999999998
 31
0.0
  0
LINE
  5
2BA
  8
OBJECT
 10
21.554563000000002
 20
32.807738000000001
 30
0.0
 11
21.616562999999999
 21
32.807738000000001
 31
0.0
  0
LINE
  5
2BB
  8
OBJECT
 10
21.554563000000002
 20
32.807738000000001
 30
0.0
 11
21.554563000000002
 21
32.869737999999998
 31
0.0
  0
LINE
  5
2BC
  8
OBJECT
 10
21.616562999999999
 20
32.807738000000001
 30
0.0
 11
21.616562999999999
 21
32.869737999999998
 31
0.0
  0
LINE
  5
2BD
  8
CENTER
 10
22.224563
 20
32.702238000000001
 30
0.0
 11
22.224563
 21
32.567238000000003
 31
0.0
  0
DIMENSION
  5
2BE
  8
DIM
  2
*D28
 10
27.123374999999999
 20
29.551915000000001
 30
0.0
 11
29.299937499999992
 21
29.551915000000001
 31
0.0
 70
     0
 13
26.873374999999989
 23
31.149737999999999
 33
0.0
 14
27.123374999999999
 24
31.149737999999999
 34
0.0
 50
180.0
  0
POLYLINE
  5
2CC
  8
OBJECT
 66
     1
 10
0.0
 20
0.0
 30
0.0
 70
     1
  0
VERTEX
  5
CB6
  8
OBJECT
 10
26.873374999999989
 20
31.149737999999999
 30
0.0
  0
VERTEX
  5
CB7
  8
OBJECT
 10
26.873374999999989
 20
31.211738
 30
0.0
  0
VERTEX
  5
CB8
  8
OBJECT
 10
27.061375000000002
 20
31.211738
 30
0.0
  0
VERTEX
  5
CB9
  8
OBJECT
 10
27.061375000000002
 20
32.807738000000001
 30
0.0
  0
VERTEX
  5
CBA
  8
OBJECT
 10
26.873374999999989
 20
32.807738000000001
 30
0.0
  0
VERTEX
  5
CBB
  8
OBJECT
 10
26.873374999999989
 20
32.869737999999998
 30
0.0
  0
VERTEX
  5
CBC
  8
OBJECT
 10
27.123374999999999
 20
32.869737999999998
 30
0.0
  0
VERTEX
  5
CBD
  8
OBJECT
 10
27.123374999999999
 20
31.149737999999999
 30
0.0
  0
SEQEND
  5
CBE
  8
OBJECT
  0
DIMENSION
  5
2D6
  8
DIM
  2
*D29
 10
28.323511
 20
32.869737999999998
 30
0.0
 11
28.323510999999989
 21
32.009737999999999
 31
0.0
 70
     0
 13
27.123374999999999
 23
31.149737999999999
 33
0.0
 14
27.123374999999999
 24
32.869737999999998
 34
0.0
 50
90.0
  0
TEXT
  5
2E4
  8
TEXT
 10
3.3228749999999989
 20
52.973374999999997
 30
0.0
 40
0.625
  1
CABLE MANAGEMENT PANEL 1U x 19"
 41
0.75
 72
     1
 11
10.276
 21
52.973374999999997
 31
0.0
  0
TEXT
  5
2E5
  8
TEXT
 10
26.432187500000001
 20
52.973374999999997
 30
0.0
 40
0.625
  1
CM-2201
 41
0.75
 72
     1
 11
27.877500000000001
 21
52.973374999999997
 31
0.0
  0
TEXT
  5
2E6
  8
TEXT
 10
0.7274166666666672
 20
52.710277000000012
 30
0.0
 40
0.4375
  1
NAME
 72
     1
 11
1.5295000000000001
 21
52.710277000000012
 31
0.0
  0
TEXT
  5
2E7
  8
TEXT
 10
0.7274166666666668
 20
53.439443999999988
 30
0.0
 40
0.4375
  1
PART
 72
     1
 11
1.5295000000000001
 21
53.439443999999988
 31
0.0
  0
TEXT
  5
2E8
  8
TEXT
 10
18.802
 20
52.710277000000012
 30
0.0
 40
0.4375
  1
No.
 72
     1
 11
19.239499999999989
 21
52.710277000000012
 31
0.0
  0
TEXT
  5
2E9
  8
TEXT
 10
18.43741666666666
 20
53.439443999999988
 30
0.0
 40
0.4375
  1
PART
 72
     1
 11
19.239499999999989
 21
53.439443999999988
 31
0.0
  0
LINE
  5
2EA
  8
TITLE
 10
20.552
 20
54.033000000000001
 30
0.0
 11
20.552
 21
52.57
 31
0.0
  0
LINE
  5
2EB
  8
TITLE
 10
17.926999999999989
 20
54.033000000000001
 30
0.0
 11
17.926999999999989
 21
52.57
 31
0.0
  0
LINE
  5
2EC
  8
TITLE
 10
17.710000000000001
 20
54.033000000000001
 30
0.0
 11
17.710000000000001
 21
52.57
 31
0.0
  0
LINE
  5
2ED
  8
TITLE
 10
2.8420000000000001
 20
52.57
 30
0.0
 11
2.8420000000000001
 21
54.033000000000001
 31
0.0
  0
LINE
  5
2EE
  8
TITLE
 10
0.217
 20
52.57
 30
0.0
 11
35.203000000000003
 21
52.57
 31
0.0
  0
LINE
  5
2EF
  8
TITLE
 10
35.203000000000003
 20
0.217
 30
0.0
 11
0.217
 21
0.217
 31
0.0
  0
LINE
  5
2F0
  8
TITLE
 10
35.203000000000003
 20
54.033000000000001
 30
0.0
 11
35.203000000000003
 21
27.125
 31
0.0
  0
LINE
  5
2F1
  8
TITLE
 10
0.217
 20
54.033000000000001
 30
0.0
 11
35.203000000000003
 21
54.033000000000001
 31
0.0
  0
LINE
  5
2F2
  8
TITLE
 10
0.217
 20
0.217
 30
0.0
 11
0.217
 21
26.908000000000001
 31
0.0
  0
LINE
  5
2F3
  8
TITLE
 10
0.0
 20
0.0
 30
0.0
 11
0.0
 21
54.25
 31
0.0
  0
LINE
  5
2F4
  8
TITLE
 10
35.420000000000002
 20
0.0
 30
0.0
 11
0.0
 21
0.0
 31
0.0
  0
LINE
  5
2F5
  8
TITLE
 10
35.420000000000002
 20
54.25
 30
0.0
 11
35.420000000000002
 21
0.0
 31
0.0
  0
LINE
  5
2F6
  8
TITLE
 10
0.0
 20
54.25
 30
0.0
 11
35.420000000000002
 21
54.25
 31
0.0
  0
LINE
  5
2F7
  8
TITLE
 10
0.217
 20
27.125
 30
0.0
 11
35.203000000000003
 21
27.125
 31
0.0
  0
LINE
  5
2F8
  8
TITLE
 10
0.217
 20
26.908000000000001
 30
0.0
 11
35.203000000000003
 21
26.908000000000001
 31
0.0
  0
LINE
  5
2F9
  8
TITLE
 10
0.217
 20
25.445
 30
0.0
 11
35.203000000000003
 21
25.445
 31
0.0
  0
TEXT
  5
2FA
  8
TEXT
 10
3.2447499999999989
 20
25.848375000000001
 30
0.0
 40
0.625
  1
CABLE MANAGEMENT PANEL 1U x 23"
 41
0.75
 72
     1
 11
10.276
 21
25.848375000000001
 31
0.0
  0
TEXT
  5
2FB
  8
TEXT
 10
0.7274166666666668
 20
26.314444000000002
 30
0.0
 40
0.4375
  1
PART
 72
     1
 11
1.5295000000000001
 21
26.314444000000002
 31
0.0
  0
TEXT
  5
2FC
  8
TEXT
 10
0.7274166666666672
 20
25.585276999999991
 30
0.0
 40
0.4375
  1
NAME
 72
     1
 11
1.5295000000000001
 21
25.585276999999991
 31
0.0
  0
LINE
  5
2FD
  8
TITLE
 10
2.8420000000000001
 20
25.445
 30
0.0
 11
2.8420000000000001
 21
26.908000000000001
 31
0.0
  0
TEXT
  5
2FE
  8
TEXT
 10
18.43741666666666
 20
26.314444000000002
 30
0.0
 40
0.4375
  1
PART
 72
     1
 11
19.239499999999989
 21
26.314444000000002
 31
0.0
  0
LINE
  5
2FF
  8
TITLE
 10
17.710000000000001
 20
26.908000000000001
 30
0.0
 11
17.710000000000001
 21
25.445
 31
0.0
  0
LINE
  5
300
  8
TITLE
 10
17.926999999999989
 20
26.908000000000001
 30
0.0
 11
17.926999999999989
 21
25.445
 31
0.0
  0
TEXT
  5
301
  8
TEXT
 10
18.802
 20
25.585276999999991
 30
0.0
 40
0.4375
  1
No.
 72
     1
 11
19.239499999999989
 21
25.585276999999991
 31
0.0
  0
LINE
  5
302
  8
TITLE
 10
20.552
 20
26.908000000000001
 30
0.0
 11
20.552
 21
25.445
 31
0.0
  0
TEXT
  5
303
  8
TEXT
 10
26.354062500000001
 20
25.848375000000001
 30
0.0
 40
0.625
  1
CM-2202
 41
0.75
 72
     1
 11
27.877500000000001
 21
25.848375000000001
 31
0.0
  0
TEXT
  5
304
  8
TEXT
 10
1.2238109999999991
 20
50.04295599999999
 30
0.0
 40
0.4375
  1
STRAPS
 41
0.75
  0
TEXT
  5
305
  8
TEXT
 10
4.8497969999999988
 20
50.04295599999999
 30
0.0
 40
0.4375
  1
VELCRO
 41
0.75
  0
LINE
  5
306
  8
TEXT
 10
4.623016999999999
 20
50.04295599999999
 30
0.0
 11
3.256813999999999
 21
50.04295599999999
 31
0.0
  0
TEXT
  5
307
  8
TEXT
 10
4.8497969999999988
 20
47.147142999999993
 30
0.0
 40
0.4375
  1
BLACK
 41
0.75
  0
TEXT
  5
308
  8
TEXT
 10
1.2238109999999991
 20
47.147142999999993
 30
0.0
 40
0.4375
  1
STRAPS
 41
0.75
  0
LINE
  5
309
  8
TEXT
 10
4.623016999999999
 20
47.147142999999993
 30
0.0
 11
3.256813999999999
 21
47.147142999999993
 31
0.0
  0
TEXT
  5
30A
  8
TEXT
 10
0.917567
 20
45.001351
 30
0.0
 40
0.4375
  1
& FOUR (4) #12-24 x 1/2 LG. SCREWS FOR MOUNTING.
 41
0.75
  0
POLYLINE
  5
30B
  8
OBJECT
 66
     1
 10
0.0
 20
0.0
 30
0.0
 70
     1
  0
VERTEX
  5
CBF
  8
OBJECT
 10
26.288563
 20
5.057974999999999
 30
0.0
  0
VERTEX
  5
CC0
  8
OBJECT
 10
26.160563
 20
5.057974999999999
 30
0.0
 42
1.0
  0
VERTEX
  5
CC1
  8
OBJECT
 10
26.160563
 20
4.7799750000000003
 30
0.0
  0
VERTEX
  5
CC2
  8
OBJECT
 10
26.288563
 20
4.7799750000000003
 30
0.0
 42
1.0
  0
SEQEND
  5
CC3
  8
OBJECT
  0
LINE
  5
311
  8
CENTER
 10
26.157063000000001
 20
4.9189749999999988
 30
0.0
 11
26.292062999999992
 21
4.9189749999999988
 31
0.0
  0
POLYLINE
  5
312
  8
OBJECT
 66
     1
 10
0.0
 20
0.0
 30
0.0
 70
     1
  0
VERTEX
  5
CC4
  8
OBJECT
 10
26.288563
 20
3.529974999999999
 30
0.0
  0
VERTEX
  5
CC5
  8
OBJECT
 10
26.160563
 20
3.529974999999999
 30
0.0
 42
-1.0
  0
VERTEX
  5
CC6
  8
OBJECT
 10
26.160563
 20
3.807974999999999
 30
0.0
  0
VERTEX
  5
CC7
  8
OBJECT
 10
26.288563
 20
3.807974999999999
 30
0.0
 42
-1.0
  0
SEQEND
  5
CC8
  8
OBJECT
  0
LINE
  5
318
  8
CENTER
 10
26.157063000000001
 20
3.6689750000000001
 30
0.0
 11
26.292062999999992
 21
3.6689750000000001
 31
0.0
  0
LINE
  5
319
  8
OBJECT
 10
25.616562999999999
 20
5.1539749999999991
 30
0.0
 11
26.554563000000002
 21
5.1539749999999991
 31
0.0
  0
LINE
  5
31A
  8
OBJECT
 10
25.616562999999999
 20
3.4339750000000002
 30
0.0
 11
26.554563000000002
 21
3.4339750000000002
 31
0.0
  0
DIMENSION
  5
31B
  8
DIM
  2
*D30
 10
26.554563000000002
 20
7.2889749999999989
 30
0.0
 11
28.731125500000001
 21
7.2889749999999989
 31
0.0
 70
     0
 13
26.224563
 23
4.9864750000000004
 33
0.0
 14
26.554563000000002
 24
5.1539749999999991
 34
0.0
  0
DIMENSION
  5
329
  8
DIM
  2
*D31
 10
3.554562999999999
 20
8.1639750000000006
 30
0.0
 11
15.054563
 21
8.1639750000000006
 31
0.0
 70
     0
 13
26.554563000000002
 23
5.1539749999999991
 33
0.0
 14
3.554562999999999
 24
5.1539749999999991
 34
0.0
  0
LINE
  5
337
  8
CENTER
 10
11.310063
 20
5.0599749999999988
 30
0.0
 11
11.175063
 21
5.0599749999999988
 31
0.0
  0
LINE
  5
338
  8
CENTER
 10
11.310063
 20
3.5279750000000001
 30
0.0
 11
11.175063
 21
3.5279750000000001
 31
0.0
  0
POLYLINE
  5
339
  8
OBJECT
 66
     1
 10
0.0
 20
0.0
 30
0.0
  0
VERTEX
  5
CC9
  8
OBJECT
 10
10.586062999999999
 20
4.9664749999999991
 30
0.0
  0
VERTEX
  5
CCA
  8
OBJECT
 10
11.899063
 20
4.9664749999999991
 30
0.0
 42
0.520644
  0
VERTEX
  5
CCB
  8
OBJECT
 10
11.986917
 20
5.0919749999999988
 30
0.0
  0
SEQEND
  5
CCC
  8
OBJECT
  0
POLYLINE
  5
33E
  8
OBJECT
 66
     1
 10
0.0
 20
0.0
 30
0.0
  0
VERTEX
  5
CCD
  8
OBJECT
 10
10.586062999999999
 20
3.6214750000000002
 30
0.0
  0
VERTEX
  5
CCE
  8
OBJECT
 10
11.899063
 20
3.6214750000000002
 30
0.0
 42
-0.520644
  0
VERTEX
  5
CCF
  8
OBJECT
 10
11.986917
 20
3.4959750000000001
 30
0.0
  0
SEQEND
  5
CD0
  8
OBJECT
  0
TEXT
  5
343
  8
DIM
 10
9.2811234999999996
 20
1.3271770000000001
 30
0.0
 40
0.4375
  1
(10) PLACES
 41
0.75
 72
     2
 11
12.398310999999991
 21
1.5459270000000001
 31
0.0
 73
     2
  0
TEXT
  5
344
  8
DIM
 10
7.4217484999999987
 20
2.056343
 30
0.0
 40
0.4375
  1
0.187 x 1.500 SLOT
 41
0.75
 72
     2
 11
12.398310999999991
 21
2.275093
 31
0.0
 73
     2
  0
DIMENSION
  5
345
  8
DIM
  2
*D32
 10
15.054563
 20
7.2889749999999989
 30
0.0
 11
13.14856299999999
 21
7.2889749999999989
 31
0.0
 70
     0
 13
11.242563000000001
 23
5.1274749999999987
 33
0.0
 14
15.054563
 24
5.1274749999999987
 34
0.0
  0
LINE
  5
353
  8
OBJECT
 10
25.554563000000002
 20
5.1539749999999991
 30
0.0
 11
4.554562999999999
 21
5.1539749999999991
 31
0.0
  0
LINE
  5
354
  8
OBJECT
 10
4.554562999999999
 20
3.4959750000000001
 30
0.0
 11
25.554563000000002
 21
3.4959750000000001
 31
0.0
  0
LINE
  5
355
  8
OBJECT
 10
25.554563000000002
 20
5.0919749999999988
 30
0.0
 11
4.554562999999999
 21
5.0919749999999988
 31
0.0
  0
LINE
  5
356
  8
OBJECT
 10
4.554562999999999
 20
3.4339750000000002
 30
0.0
 11
25.554563000000002
 21
3.4339750000000002
 31
0.0
  0
DIMENSION
  5
357
  8
DIM
  2
*D33
 10
7.4305630000000003
 20
7.2889749999999989
 30
0.0
 11
5.4925629999999996
 21
7.2889749999999989
 31
0.0
 70
     0
 13
3.554562999999999
 23
5.1539749999999991
 33
0.0
 14
7.4305630000000003
 24
5.1274749999999987
 34
0.0
  0
DIMENSION
  5
365
  8
DIM
  2
*D34
 10
3.554562999999999
 20
6.4139749999999989
 30
0.0
 11
1.3780005
 21
6.4139749999999989
 31
0.0
 70
     0
 13
3.8845629999999991
 23
4.9864750000000004
 33
0.0
 14
3.554562999999999
 24
5.1539749999999991
 34
0.0
  0
LINE
  5
373
  8
OBJECT
 10
4.4925629999999988
 20
5.1539749999999991
 30
0.0
 11
3.554562999999999
 21
5.1539749999999991
 31
0.0
  0
LINE
  5
374
  8
OBJECT
 10
4.4925629999999988
 20
3.4339750000000002
 30
0.0
 11
3.554562999999999
 21
3.4339750000000002
 31
0.0
  0
LINE
  5
375
  8
OBJECT
 10
3.554562999999999
 20
3.4339750000000002
 30
0.0
 11
3.554562999999999
 21
5.1539749999999991
 31
0.0
  0
POLYLINE
  5
376
  8
OBJECT
 66
     1
 10
0.0
 20
0.0
 30
0.0
 70
     1
  0
VERTEX
  5
CD1
  8
OBJECT
 10
3.820562999999999
 20
3.529974999999999
 30
0.0
  0
VERTEX
  5
CD2
  8
OBJECT
 10
3.9485629999999992
 20
3.529974999999999
 30
0.0
 42
1.0
  0
VERTEX
  5
CD3
  8
OBJECT
 10
3.9485629999999992
 20
3.807974999999999
 30
0.0
  0
VERTEX
  5
CD4
  8
OBJECT
 10
3.820562999999999
 20
3.807974999999999
 30
0.0
 42
1.0
  0
SEQEND
  5
CD5
  8
OBJECT
  0
LINE
  5
37C
  8
CENTER
 10
3.952062999999999
 20
3.6689750000000001
 30
0.0
 11
3.8170629999999992
 21
3.6689750000000001
 31
0.0
  0
LINE
  5
37D
  8
CENTER
 10
3.8845629999999991
 20
3.6014750000000002
 30
0.0
 11
3.8845629999999991
 21
3.7364749999999991
 31
0.0
  0
LINE
  5
37E
  8
CENTER
 10
3.952062999999999
 20
4.9189749999999988
 30
0.0
 11
3.8170629999999992
 21
4.9189749999999988
 31
0.0
  0
POLYLINE
  5
37F
  8
OBJECT
 66
     1
 10
0.0
 20
0.0
 30
0.0
 70
     1
  0
VERTEX
  5
CD6
  8
OBJECT
 10
3.820562999999999
 20
5.057974999999999
 30
0.0
  0
VERTEX
  5
CD7
  8
OBJECT
 10
3.9485629999999992
 20
5.057974999999999
 30
0.0
 42
-1.0
  0
VERTEX
  5
CD8
  8
OBJECT
 10
3.9485629999999992
 20
4.7799750000000003
 30
0.0
  0
VERTEX
  5
CD9
  8
OBJECT
 10
3.820562999999999
 20
4.7799750000000003
 30
0.0
 42
-1.0
  0
SEQEND
  5
CDA
  8
OBJECT
  0
LINE
  5
385
  8
CENTER
 10
3.8845629999999991
 20
4.9864750000000004
 30
0.0
 11
3.8845629999999991
 21
4.8514749999999989
 31
0.0
  0
LINE
  5
386
  8
OBJECT
 10
4.554562999999999
 20
3.4339750000000002
 30
0.0
 11
4.554562999999999
 21
3.4959750000000001
 31
0.0
  0
LINE
  5
387
  8
OBJECT
 10
4.4925629999999988
 20
3.4339750000000002
 30
0.0
 11
4.4925629999999988
 21
3.4959750000000001
 31
0.0
  0
LINE
  5
388
  8
OBJECT
 10
4.554562999999999
 20
3.4959750000000001
 30
0.0
 11
4.4925629999999988
 21
3.4959750000000001
 31
0.0
  0
LINE
  5
389
  8
OBJECT
 10
4.554562999999999
 20
5.0919749999999988
 30
0.0
 11
4.554562999999999
 21
5.1539749999999991
 31
0.0
  0
LINE
  5
38A
  8
OBJECT
 10
4.4925629999999988
 20
5.0919749999999988
 30
0.0
 11
4.4925629999999988
 21
5.1539749999999991
 31
0.0
  0
LINE
  5
38B
  8
OBJECT
 10
4.554562999999999
 20
5.0919749999999988
 30
0.0
 11
4.4925629999999988
 21
5.0919749999999988
 31
0.0
  0
DIMENSION
  5
38C
  8
DIM
  2
*D35
 10
11.242563000000001
 20
7.2889749999999989
 30
0.0
 11
9.3365629999999982
 21
7.2889749999999989
 31
0.0
 70
     0
 13
7.4305630000000003
 23
5.1274749999999987
 33
0.0
 14
11.242563000000001
 24
5.1274749999999987
 34
0.0
  0
POLYLINE
  5
39A
  8
OBJECT
 66
     1
 10
0.0
 20
0.0
 30
0.0
  0
VERTEX
  5
CDB
  8
OBJECT
 10
6.7740629999999999
 20
4.9664749999999991
 30
0.0
  0
VERTEX
  5
CDC
  8
OBJECT
 10
8.0870630000000006
 20
4.9664749999999991
 30
0.0
 42
0.520644
  0
VERTEX
  5
CDD
  8
OBJECT
 10
8.1749170000000007
 20
5.0919749999999988
 30
0.0
  0
SEQEND
  5
CDE
  8
OBJECT
  0
POLYLINE
  5
39F
  8
OBJECT
 66
     1
 10
0.0
 20
0.0
 30
0.0
  0
VERTEX
  5
CDF
  8
OBJECT
 10
6.7740629999999999
 20
3.6214750000000002
 30
0.0
  0
VERTEX
  5
CE0
  8
OBJECT
 10
8.0870630000000006
 20
3.6214750000000002
 30
0.0
 42
-0.520644
  0
VERTEX
  5
CE1
  8
OBJECT
 10
8.1749170000000007
 20
3.4959750000000001
 30
0.0
  0
SEQEND
  5
CE2
  8
OBJECT
  0
POLYLINE
  5
3A4
  8
OBJECT
 66
     1
 10
0.0
 20
0.0
 30
0.0
  0
VERTEX
  5
CE3
  8
OBJECT
 10
6.68621
 20
3.4959750000000001
 30
0.0
 42
-0.5206430000000001
  0
VERTEX
  5
CE4
  8
OBJECT
 10
6.7740629999999999
 20
3.6214750000000002
 30
0.0
  0
SEQEND
  5
CE5
  8
OBJECT
  0
POLYLINE
  5
3A8
  8
OBJECT
 66
     1
 10
0.0
 20
0.0
 30
0.0
  0
VERTEX
  5
CE6
  8
OBJECT
 10
6.68621
 20
5.0919749999999988
 30
0.0
 42
0.5206430000000001
  0
VERTEX
  5
CE7
  8
OBJECT
 10
6.7740629999999999
 20
4.9664749999999991
 30
0.0
  0
SEQEND
  5
CE8
  8
OBJECT
  0
LINE
  5
3AC
  8
CENTER
 10
7.4980630000000001
 20
3.5279750000000001
 30
0.0
 11
7.3630630000000004
 21
3.5279750000000001
 31
0.0
  0
LINE
  5
3AD
  8
CENTER
 10
7.4305630000000003
 20
3.5954749999999991
 30
0.0
 11
7.4305630000000003
 21
3.4604750000000002
 31
0.0
  0
LINE
  5
3AE
  8
CENTER
 10
7.4980630000000001
 20
5.0599749999999988
 30
0.0
 11
7.3630630000000004
 21
5.0599749999999988
 31
0.0
  0
LINE
  5
3AF
  8
CENTER
 10
7.4305630000000003
 20
4.9924749999999989
 30
0.0
 11
7.4305630000000003
 21
5.1274749999999987
 31
0.0
  0
POLYLINE
  5
3B0
  8
OBJECT
 66
     1
 10
0.0
 20
0.0
 30
0.0
  0
VERTEX
  5
CE9
  8
OBJECT
 10
10.49821
 20
3.4959750000000001
 30
0.0
 42
-0.5206430000000001
  0
VERTEX
  5
CEA
  8
OBJECT
 10
10.586062999999999
 20
3.6214750000000002
 30
0.0
  0
SEQEND
  5
CEB
  8
OBJECT
  0
LINE
  5
3B4
  8
CENTER
 10
11.242563000000001
 20
3.5954749999999991
 30
0.0
 11
11.242563000000001
 21
3.4604750000000002
 31
0.0
  0
POLYLINE
  5
3B5
  8
OBJECT
 66
     1
 10
0.0
 20
0.0
 30
0.0
  0
VERTEX
  5
CEC
  8
OBJECT
 10
10.49821
 20
5.0919749999999988
 30
0.0
 42
0.5206430000000001
  0
VERTEX
  5
CED
  8
OBJECT
 10
10.586062999999999
 20
4.9664749999999991
 30
0.0
  0
SEQEND
  5
CEE
  8
OBJECT
  0
LINE
  5
3B9
  8
CENTER
 10
11.242563000000001
 20
4.9924749999999989
 30
0.0
 11
11.242563000000001
 21
5.1274749999999987
 31
0.0
  0
DIMENSION
  5
3BA
  8
DIM
  2
*D36
 10
18.866562999999999
 20
7.2889749999999989
 30
0.0
 11
16.960563
 21
7.2889749999999989
 31
0.0
 70
     0
 13
15.054563
 23
5.1274749999999987
 33
0.0
 14
18.866562999999999
 24
5.1274749999999987
 34
0.0
  0
TEXT
  5
3C8
  8
DIM
 10
19.3230775
 20
2.056343
 30
0.0
 40
0.4375
  1
0.278 x 0.406 SLOT
 41
0.75
 72
     2
 11
24.51839
 21
2.275093
 31
0.0
 73
     2
  0
POLYLINE
  5
3C9
  8
DIM
 66
     1
 10
0.0
 20
0.0
 30
0.0
 41
0.23625
  0
VERTEX
  5
CEF
  8
DIM
 10
14.31021
 20
3.4959750000000001
 30
0.0
  0
VERTEX
  5
CF0
  8
DIM
 10
13.919074999999999
 20
3.0020989999999999
 30
0.0
 41
0.0
  0
VERTEX
  5
CF1
  8
DIM
 10
13.343310999999989
 20
2.275093
 30
0.0
 41
0.0
  0
VERTEX
  5
CF2
  8
DIM
 10
12.713310999999999
 20
2.275093
 30
0.0
 41
0.0
  0
SEQEND
  5
CF3
  8
DIM
  0
POLYLINE
  5
3CF
  8
OBJECT
 66
     1
 10
0.0
 20
0.0
 30
0.0
  0
VERTEX
  5
CF4
  8
OBJECT
 10
15.711062999999999
 20
4.9664749999999991
 30
0.0
  0
VERTEX
  5
CF5
  8
OBJECT
 10
14.398063
 20
4.9664749999999991
 30
0.0
 42
-0.520644
  0
VERTEX
  5
CF6
  8
OBJECT
 10
14.31021
 20
5.0919749999999988
 30
0.0
  0
SEQEND
  5
CF7
  8
OBJECT
  0
POLYLINE
  5
3D4
  8
OBJECT
 66
     1
 10
0.0
 20
0.0
 30
0.0
  0
VERTEX
  5
CF8
  8
OBJECT
 10
15.711062999999999
 20
3.6214750000000002
 30
0.0
  0
VERTEX
  5
CF9
  8
OBJECT
 10
14.398063
 20
3.6214750000000002
 30
0.0
 42
0.520644
  0
VERTEX
  5
CFA
  8
OBJECT
 10
14.31021
 20
3.4959750000000001
 30
0.0
  0
SEQEND
  5
CFB
  8
OBJECT
  0
LINE
  5
3D9
  8
CENTER
 10
14.987062999999999
 20
3.5279750000000001
 30
0.0
 11
15.122063000000001
 21
3.5279750000000001
 31
0.0
  0
LINE
  5
3DA
  8
CENTER
 10
15.054563
 20
3.5954749999999991
 30
0.0
 11
15.054563
 21
3.4604750000000002
 31
0.0
  0
LINE
  5
3DB
  8
CENTER
 10
14.987062999999999
 20
5.0599749999999988
 30
0.0
 11
15.122063000000001
 21
5.0599749999999988
 31
0.0
  0
LINE
  5
3DC
  8
CENTER
 10
15.054563
 20
4.9924749999999989
 30
0.0
 11
15.054563
 21
5.1274749999999987
 31
0.0
  0
POLYLINE
  5
3DD
  8
OBJECT
 66
     1
 10
0.0
 20
0.0
 30
0.0
  0
VERTEX
  5
CFC
  8
OBJECT
 10
15.798916999999999
 20
3.4959750000000001
 30
0.0
 42
0.5206430000000001
  0
VERTEX
  5
CFD
  8
OBJECT
 10
15.711062999999999
 20
3.6214750000000002
 30
0.0
  0
SEQEND
  5
CFE
  8
OBJECT
  0
POLYLINE
  5
3E1
  8
OBJECT
 66
     1
 10
0.0
 20
0.0
 30
0.0
  0
VERTEX
  5
CFF
  8
OBJECT
 10
15.798916999999999
 20
5.0919749999999988
 30
0.0
 42
-0.5206430000000001
  0
VERTEX
  5
D00
  8
OBJECT
 10
15.711062999999999
 20
4.9664749999999991
 30
0.0
  0
SEQEND
  5
D01
  8
OBJECT
  0
POLYLINE
  5
3E5
  8
DIM
 66
     1
 10
0.0
 20
0.0
 30
0.0
 41
0.23625
  0
VERTEX
  5
D02
  8
DIM
 10
26.160563
 20
3.529974999999999
 30
0.0
  0
VERTEX
  5
D03
  8
DIM
 10
25.854603000000001
 20
2.979258999999999
 30
0.0
 41
0.0
  0
VERTEX
  5
D04
  8
DIM
 10
25.46339
 20
2.275093
 30
0.0
 41
0.0
  0
VERTEX
  5
D05
  8
DIM
 10
24.833389999999991
 20
2.275093
 30
0.0
 41
0.0
  0
SEQEND
  5
D06
  8
DIM
  0
TEXT
  5
3EB
  8
DIM
 10
21.565265
 20
1.3271770000000001
 30
0.0
 40
0.4375
  1
(4) PLACES
 41
0.75
 72
     2
 11
24.51839
 21
1.5459270000000001
 31
0.0
 73
     2
  0
POLYLINE
  5
3EC
  8
OBJECT
 66
     1
 10
0.0
 20
0.0
 30
0.0
  0
VERTEX
  5
D07
  8
OBJECT
 10
19.610917000000001
 20
5.0919749999999988
 30
0.0
 42
-0.5206430000000001
  0
VERTEX
  5
D08
  8
OBJECT
 10
19.523063
 20
4.9664749999999991
 30
0.0
  0
SEQEND
  5
D09
  8
OBJECT
  0
POLYLINE
  5
3F0
  8
OBJECT
 66
     1
 10
0.0
 20
0.0
 30
0.0
  0
VERTEX
  5
D0A
  8
OBJECT
 10
19.610917000000001
 20
3.4959750000000001
 30
0.0
 42
0.5206430000000001
  0
VERTEX
  5
D0B
  8
OBJECT
 10
19.523063
 20
3.6214750000000002
 30
0.0
  0
SEQEND
  5
D0C
  8
OBJECT
  0
POLYLINE
  5
3F4
  8
OBJECT
 66
     1
 10
0.0
 20
0.0
 30
0.0
  0
VERTEX
  5
D0D
  8
OBJECT
 10
19.523063
 20
4.9664749999999991
 30
0.0
  0
VERTEX
  5
D0E
  8
OBJECT
 10
18.210063000000002
 20
4.9664749999999991
 30
0.0
 42
-0.520644
  0
VERTEX
  5
D0F
  8
OBJECT
 10
18.122209999999999
 20
5.0919749999999988
 30
0.0
  0
SEQEND
  5
D10
  8
OBJECT
  0
POLYLINE
  5
3F9
  8
OBJECT
 66
     1
 10
0.0
 20
0.0
 30
0.0
  0
VERTEX
  5
D11
  8
OBJECT
 10
19.523063
 20
3.6214750000000002
 30
0.0
  0
VERTEX
  5
D12
  8
OBJECT
 10
18.210063000000002
 20
3.6214750000000002
 30
0.0
 42
0.520644
  0
VERTEX
  5
D13
  8
OBJECT
 10
18.122209999999999
 20
3.4959750000000001
 30
0.0
  0
SEQEND
  5
D14
  8
OBJECT
  0
LINE
  5
3FE
  8
CENTER
 10
18.799063
 20
3.5279750000000001
 30
0.0
 11
18.934062999999998
 21
3.5279750000000001
 31
0.0
  0
LINE
  5
3FF
  8
CENTER
 10
18.866562999999999
 20
3.5954749999999991
 30
0.0
 11
18.866562999999999
 21
3.4604750000000002
 31
0.0
  0
LINE
  5
400
  8
CENTER
 10
18.799063
 20
5.0599749999999988
 30
0.0
 11
18.934062999999998
 21
5.0599749999999988
 31
0.0
  0
LINE
  5
401
  8
CENTER
 10
18.866562999999999
 20
4.9924749999999989
 30
0.0
 11
18.866562999999999
 21
5.1274749999999987
 31
0.0
  0
LINE
  5
402
  8
OBJECT
 10
25.554563000000002
 20
3.4959750000000001
 30
0.0
 11
25.616562999999999
 21
3.4959750000000001
 31
0.0
  0
LINE
  5
403
  8
OBJECT
 10
25.554563000000002
 20
3.4339750000000002
 30
0.0
 11
25.554563000000002
 21
3.4959750000000001
 31
0.0
  0
LINE
  5
404
  8
OBJECT
 10
25.616562999999999
 20
3.4339750000000002
 30
0.0
 11
25.616562999999999
 21
3.4959750000000001
 31
0.0
  0
LINE
  5
405
  8
CENTER
 10
26.224563
 20
3.6014750000000002
 30
0.0
 11
26.224563
 21
3.7364749999999991
 31
0.0
  0
LINE
  5
406
  8
OBJECT
 10
25.554563000000002
 20
5.0919749999999988
 30
0.0
 11
25.616562999999999
 21
5.0919749999999988
 31
0.0
  0
LINE
  5
407
  8
OBJECT
 10
25.554563000000002
 20
5.0919749999999988
 30
0.0
 11
25.554563000000002
 21
5.1539749999999991
 31
0.0
  0
LINE
  5
408
  8
OBJECT
 10
25.616562999999999
 20
5.0919749999999988
 30
0.0
 11
25.616562999999999
 21
5.1539749999999991
 31
0.0
  0
LINE
  5
409
  8
CENTER
 10
26.224563
 20
4.9864750000000004
 30
0.0
 11
26.224563
 21
4.8514749999999989
 31
0.0
  0
DIMENSION
  5
40A
  8
DIM
  2
*D37
 10
31.123374999999999
 20
1.836152
 30
0.0
 11
33.299937499999992
 21
1.836152
 31
0.0
 70
     0
 13
30.873374999999999
 23
3.4339750000000002
 33
0.0
 14
31.123374999999999
 24
3.4339750000000002
 34
0.0
 50
180.0
  0
DIMENSION
  5
418
  8
DIM
  2
*D38
 10
29.454668999999988
 20
3.6689749999999992
 30
0.0
 11
29.454668999999988
 21
4.2939750000000041
 31
0.0
 70
     0
 13
26.292062999999992
 23
4.9189749999999988
 33
0.0
 14
26.292062999999992
 24
3.6689750000000001
 34
0.0
 50
90.0
  0
DIMENSION
  5
426
  8
DIM
  2
*D39
 10
27.100563000000001
 20
5.1539749999999991
 30
0.0
 11
28.674469250000001
 21
6.4139750000000042
 31
0.0
 70
     0
 13
26.292062999999992
 23
4.9189749999999988
 33
0.0
 14
26.554563000000002
 24
5.1539749999999991
 34
0.0
 50
90.0
  0
LINE
  5
434
  8
OBJECT
 10
26.554563000000002
 20
3.4339750000000002
 30
0.0
 11
26.554563000000002
 21
5.1539749999999991
 31
0.0
  0
DIMENSION
  5
435
  8
DIM
  2
*D40
 10
32.323510999999989
 20
5.1539749999999991
 30
0.0
 11
32.323510999999989
 21
4.2939750000000041
 31
0.0
 70
     0
 13
31.123374999999999
 23
3.4339750000000002
 33
0.0
 14
31.123374999999999
 24
5.1539749999999991
 34
0.0
 50
90.0
  0
POLYLINE
  5
443
  8
OBJECT
 66
     1
 10
0.0
 20
0.0
 30
0.0
 70
     1
  0
VERTEX
  5
D15
  8
OBJECT
 10
30.873374999999999
 20
3.4339750000000002
 30
0.0
  0
VERTEX
  5
D16
  8
OBJECT
 10
30.873374999999999
 20
3.4959750000000001
 30
0.0
  0
VERTEX
  5
D17
  8
OBJECT
 10
31.061375000000002
 20
3.4959750000000001
 30
0.0
  0
VERTEX
  5
D18
  8
OBJECT
 10
31.061375000000002
 20
5.0919749999999988
 30
0.0
  0
VERTEX
  5
D19
  8
OBJECT
 10
30.873374999999999
 20
5.0919749999999988
 30
0.0
  0
VERTEX
  5
D1A
  8
OBJECT
 10
30.873374999999999
 20
5.1539749999999991
 30
0.0
  0
VERTEX
  5
D1B
  8
OBJECT
 10
31.123374999999999
 20
5.1539749999999991
 30
0.0
  0
VERTEX
  5
D1C
  8
OBJECT
 10
31.123374999999999
 20
3.4339750000000002
 30
0.0
  0
SEQEND
  5
D1D
  8
OBJECT
  0
TEXT
  5
44D
  8
TEXT
 10
0.917567
 20
18.584664
 30
0.0
 40
0.4375
  1
SUPPLIED WITH FOUR (4) #10-32 x 5/8 LG. SCREWS
 41
0.75
  0
TEXT
  5
44E
  8
TEXT
 10
0.917567
 20
17.876351
 30
0.0
 40
0.4375
  1
& FOUR (4) #12-24 x 1/2 LG. SCREWS FOR MOUNTING.
 41
0.75
  0
TEXT
  5
44F
  8
TEXT
 10
4.8497969999999988
 20
23.626268
 30
0.0
 40
0.4375
  1
16 GA. STEEL
 41
0.75
  0
TEXT
  5
450
  8
TEXT
 10
4.8497969999999988
 20
22.91795599999999
 30
0.0
 40
0.4375
  1
VELCRO
 41
0.75
  0
TEXT
  5
451
  8
TEXT
 10
4.8497969999999988
 20
20.73045599999999
 30
0.0
 40
0.4375
  1
SMOOTH BLACK
 41
0.75
  0
TEXT
  5
452
  8
TEXT
 10
4.8497969999999988
 20
20.022142999999989
 30
0.0
 40
0.4375
  1
BLACK
 41
0.75
  0
LINE
  5
453
  8
TEXT
 10
4.623016999999999
 20
23.626268
 30
0.0
 11
3.0506129999999998
 21
23.626268
 31
0.0
  0
LINE
  5
454
  8
TEXT
 10
4.623016999999999
 20
22.91795599999999
 30
0.0
 11
3.256813999999999
 21
22.91795599999999
 31
0.0
  0
LINE
  5
455
  8
TEXT
 10
4.623016999999999
 20
20.73045599999999
 30
0.0
 11
3.0506129999999998
 21
20.73045599999999
 31
0.0
  0
LINE
  5
456
  8
TEXT
 10
4.623016999999999
 20
20.022142999999989
 30
0.0
 11
3.256813999999999
 21
20.022142999999989
 31
0.0
  0
TEXT
  5
457
  8
TEXT
 10
0.917567
 20
24.355435
 30
0.0
 40
0.4375
  1
%%uMATERIAL:
 41
0.75
  0
TEXT
  5
458
  8
TEXT
 10
1.2238109999999991
 20
20.73045599999999
 30
0.0
 40
0.4375
  1
PANEL
 41
0.75
  0
TEXT
  5
459
  8
TEXT
 10
1.2238109999999991
 20
20.022142999999989
 30
0.0
 40
0.4375
  1
STRAPS
 41
0.75
  0
TEXT
  5
45A
  8
TEXT
 10
1.2238109999999991
 20
23.626268
 30
0.0
 40
0.4375
  1
PANEL
 41
0.75
  0
TEXT
  5
45B
  8
TEXT
 10
1.2238109999999991
 20
22.91795599999999
 30
0.0
 40
0.4375
  1
STRAPS
 41
0.75
  0
TEXT
  5
45C
  8
TEXT
 10
0.917567
 20
21.459622
 30
0.0
 40
0.4375
  1
%%uFINISH:
 41
0.75
  0
POLYLINE
  5
45D
  8
OBJECT
 66
     1
 10
0.0
 20
0.0
 30
0.0
  0
VERTEX
  5
D1E
  8
OBJECT
 10
23.335063000000002
 20
4.9664749999999991
 30
0.0
  0
VERTEX
  5
D1F
  8
OBJECT
 10
22.022062999999989
 20
4.9664749999999991
 30
0.0
 42
-0.520644
  0
VERTEX
  5
D20
  8
OBJECT
 10
21.93421
 20
5.0919749999999988
 30
0.0
  0
SEQEND
  5
D21
  8
OBJECT
  0
POLYLINE
  5
462
  8
OBJECT
 66
     1
 10
0.0
 20
0.0
 30
0.0
  0
VERTEX
  5
D22
  8
OBJECT
 10
23.335063000000002
 20
3.6214750000000002
 30
0.0
  0
VERTEX
  5
D23
  8
OBJECT
 10
22.022062999999989
 20
3.6214750000000002
 30
0.0
 42
0.520644
  0
VERTEX
  5
D24
  8
OBJECT
 10
21.93421
 20
3.4959750000000001
 30
0.0
  0
SEQEND
  5
D25
  8
OBJECT
  0
POLYLINE
  5
467
  8
OBJECT
 66
     1
 10
0.0
 20
0.0
 30
0.0
  0
VERTEX
  5
D26
  8
OBJECT
 10
23.422917000000002
 20
3.4959750000000001
 30
0.0
 42
0.5206430000000001
  0
VERTEX
  5
D27
  8
OBJECT
 10
23.335063000000002
 20
3.6214750000000002
 30
0.0
  0
SEQEND
  5
D28
  8
OBJECT
  0
POLYLINE
  5
46B
  8
OBJECT
 66
     1
 10
0.0
 20
0.0
 30
0.0
  0
VERTEX
  5
D29
  8
OBJECT
 10
23.422917000000002
 20
5.0919749999999988
 30
0.0
 42
-0.5206430000000001
  0
VERTEX
  5
D2A
  8
OBJECT
 10
23.335063000000002
 20
4.9664749999999991
 30
0.0
  0
SEQEND
  5
D2B
  8
OBJECT
  0
LINE
  5
46F
  8
CENTER
 10
22.611063000000001
 20
3.5279750000000001
 30
0.0
 11
22.746062999999989
 21
3.5279750000000001
 31
0.0
  0
LINE
  5
470
  8
CENTER
 10
22.678563
 20
3.5954749999999991
 30
0.0
 11
22.678563
 21
3.4604750000000002
 31
0.0
  0
LINE
  5
471
  8
CENTER
 10
22.678563
 20
4.9924749999999989
 30
0.0
 11
22.678563
 21
5.1274749999999987
 31
0.0
  0
LINE
  5
472
  8
CENTER
 10
22.611063000000001
 20
5.0599749999999988
 30
0.0
 11
22.746062999999989
 21
5.0599749999999988
 31
0.0
  0
DIMENSION
  5
473
  8
DIM
  2
*D41
 10
18.866562999999999
 20
7.2889749999999989
 30
0.0
 11
20.772562999999991
 21
7.2889749999999989
 31
0.0
 70
     0
 13
22.678563
 23
5.1274749999999987
 33
0.0
 14
18.866562999999999
 24
5.1274749999999987
 34
0.0
  0
TEXT
  5
481
  8
TEXT
 10
0.917567
 20
43.563871999999989
 30
0.0
 40
0.4375
  1
SUPPLIED WITH FOUR (4) VELCRO STRAPS.
 41
0.75
  0
TEXT
  5
482
  8
TEXT
 10
0.917567
 20
16.438871999999989
 30
0.0
 40
0.4375
  1
SUPPLIED WITH FIVE (5) VELCRO STRAPS.
 41
0.75
  0
LINE
  5
483
  8
TITLE
 10
35.203000000000003
 20
26.908000000000001
 30
0.0
 11
35.203000000000003
 21
0.217
 31
0.0
  0
LINE
  5
484
  8
TITLE
 10
0.217
 20
27.125
 30
0.0
 11
0.217
 21
54.033000000000001
 31
0.0
  0
TEXT
  5
485
  8
DIM
 10
113.073035
 20
81.048613000000003
 30
0.0
 40
0.25
  1

  0
TEXT
  5
486
  8
DIM
 10
199.96181799999991
 20
99.214793999999998
 30
0.0
 40
0.25
  1

  0
TEXT
  5
487
  8
DIM
 10
218.961027
 20
128.76857699999991
 30
0.0
 40
0.25
  1

  0
TEXT
  5
488
  8
DIM
 10
218.25202300000001
 20
122.289332
 30
0.0
 40
0.25
  1

  0
TEXT
  5
489
  8
DIM
 10
217.08599899999999
 20
122.2690179999999
 30
0.0
 40
0.25
  1

  0
TEXT
  5
48A
  8
DIM
 10
211.82838199999989
 20
132.51713099999989
 30
0.0
 40
0.25
  1

  0
TEXT
  5
48B
  8
DIM
 10
211.82838199999989
 20
131.75595200000001
 30
0.0
 40
0.25
  1

  0
TEXT
  5
48C
  8
DIM
 10
271.21637700000002
 20
64.427599999999984
 30
0.0
 40
0.25
  1

  0
TEXT
  5
48D
  8
DIM
 10
270.50737400000003
 20
57.948355000000006
 30
0.0
 40
0.25
  1

  0
TEXT
  5
48E
  8
DIM
 10
269.34134999999992
 20
57.928040000000003
 30
0.0
 40
0.25
  1

  0
TEXT
  5
48F
  8
DIM
 10
264.083733
 20
68.176152999999985
 30
0.0
 40
0.25
  1

  0
TEXT
  5
490
  8
DIM
 10
264.083733
 20
67.414974000000001
 30
0.0
 40
0.25
  1

  0
TEXT
  5
491
  8
DIM
 10
199.96181799999991
 20
179.2147939999999
 30
0.0
 40
0.25
  1

  0
TEXT
  5
492
  8
DIM
 10
199.96181799999991
 20
287.04107099999987
 30
0.0
 40
0.25
  1

  0
TEXT
  5
493
  8
DIM
 10
238.90369699999999
 20
237.02943099999999
 30
0.0
 40
0.25
  1

  0
TEXT
  5
494
  8
DIM
 10
238.194693
 20
230.550186
 30
0.0
 40
0.25
  1

  0
TEXT
  5
495
  8
DIM
 10
237.02866899999989
 20
230.52987200000001
 30
0.0
 40
0.25
  1

  0
TEXT
  5
496
  8
DIM
 10
231.77105199999991
 20
240.777985
 30
0.0
 40
0.25
  1

  0
TEXT
  5
497
  8
DIM
 10
231.77105199999991
 20
240.01680499999989
 30
0.0
 40
0.25
  1

  0
TEXT
  5
498
  8
DIM
 10
235.04490799999999
 20
236.31264300000001
 30
0.0
 40
0.25
  1

  0
TEXT
  5
499
  8
DIM
 10
234.33590499999991
 20
229.8333979999999
 30
0.0
 40
0.25
  1

  0
TEXT
  5
49A
  8
DIM
 10
233.169881
 20
229.81308300000001
 30
0.0
 40
0.25
  1

  0
TEXT
  5
49B
  8
DIM
 10
227.91226399999999
 20
240.06119599999991
 30
0.0
 40
0.25
  1

  0
TEXT
  5
49C
  8
DIM
 10
227.91226399999999
 20
239.300017
 30
0.0
 40
0.25
  1

  0
TEXT
  5
49D
  8
DIM
 10
199.96181799999991
 20
284.06479400000001
 30
0.0
 40
0.25
  1

  0
TEXT
  5
49E
  8
DIM
 10
199.96181799999991
 20
391.89107100000001
 30
0.0
 40
0.25
  1

  0
TEXT
  5
49F
  8
DIM
 10
206.1043619999999
 20
382.90796999999998
 30
0.0
 40
0.25
  1

  0
TEXT
  5
4A0
  8
DIM
 10
225.10357099999999
 20
412.46175399999998
 30
0.0
 40
0.25
  1

  0
TEXT
  5
4A1
  8
DIM
 10
224.394567
 20
405.98250899999999
 30
0.0
 40
0.25
  1

  0
TEXT
  5
4A2
  8
DIM
 10
223.228543
 20
405.96219400000001
 30
0.0
 40
0.25
  1

  0
TEXT
  5
4A3
  8
DIM
 10
217.97092599999999
 20
416.21030699999989
 30
0.0
 40
0.25
  1

  0
TEXT
  5
4A4
  8
DIM
 10
217.97092599999999
 20
415.44912799999997
 30
0.0
 40
0.25
  1

  0
TEXT
  5
4A5
  8
DIM
 10
234.0751589999999
 20
209.82110899999989
 30
0.0
 40
0.25
  1

  0
TEXT
  5
4A6
  8
DIM
 10
233.36615499999991
 20
203.3418639999999
 30
0.0
 40
0.25
  1

  0
TEXT
  5
4A7
  8
DIM
 10
232.200131
 20
203.32154899999989
 30
0.0
 40
0.25
  1

  0
TEXT
  5
4A8
  8
DIM
 10
226.94251399999999
 20
213.56966199999999
 30
0.0
 40
0.25
  1

  0
TEXT
  5
4A9
  8
DIM
 10
226.94251399999999
 20
212.808483
 30
0.0
 40
0.25
  1

  0
TEXT
  5
4AA
  8
DIM
 10
234.0751589999999
 20
234.75438099999991
 30
0.0
 40
0.25
  1

  0
TEXT
  5
4AB
  8
DIM
 10
233.36615499999991
 20
228.275137
 30
0.0
 40
0.25
  1

  0
TEXT
  5
4AC
  8
DIM
 10
232.200131
 20
228.25482199999999
 30
0.0
 40
0.25
  1

  0
TEXT
  5
4AD
  8
DIM
 10
226.94251399999999
 20
238.50293499999989
 30
0.0
 40
0.25
  1

  0
TEXT
  5
4AE
  8
DIM
 10
226.94251399999999
 20
237.74175600000001
 30
0.0
 40
0.25
  1

  0
TEXT
  5
4AF
  8
DIM
 10
243.50677200000001
 20
130.54718199999999
 30
0.0
 40
0.25
  1

  0
TEXT
  5
4B0
  8
DIM
 10
242.79776799999999
 20
124.067937
 30
0.0
 40
0.25
  1

  0
TEXT
  5
4B1
  8
DIM
 10
241.63174399999991
 20
124.047622
 30
0.0
 40
0.25
  1

  0
TEXT
  5
4B2
  8
DIM
 10
236.37412699999999
 20
134.29573500000001
 30
0.0
 40
0.25
  1

  0
TEXT
  5
4B3
  8
DIM
 10
236.37412699999999
 20
133.53455600000001
 30
0.0
 40
0.25
  1

  0
TEXT
  5
4B4
  8
DIM
 10
199.96181799999991
 20
284.06479400000001
 30
0.0
 40
0.25
  1

  0
TEXT
  5
4B5
  8
DIM
 10
218.961027
 20
313.61857700000002
 30
0.0
 40
0.25
  1

  0
TEXT
  5
4B6
  8
DIM
 10
218.25202300000001
 20
307.13933199999991
 30
0.0
 40
0.25
  1

  0
TEXT
  5
4B7
  8
DIM
 10
217.08599899999999
 20
307.11901799999998
 30
0.0
 40
0.25
  1

  0
TEXT
  5
4B8
  8
DIM
 10
211.82838199999989
 20
317.36713099999997
 30
0.0
 40
0.25
  1

  0
TEXT
  5
4B9
  8
DIM
 10
211.82838199999989
 20
316.605952
 30
0.0
 40
0.25
  1

  0
TEXT
  5
4BA
  8
DIM
 10
350.09149600000001
 20
105.786222
 30
0.0
 40
0.25
  1

  0
TEXT
  5
4BB
  8
DIM
 10
350.09149600000001
 20
213.61249900000001
 30
0.0
 40
0.25
  1

  0
TEXT
  5
4BC
  8
DIM
 10
356.23403999999999
 20
204.62939900000001
 30
0.0
 40
0.25
  1

  0
TEXT
  5
4BD
  8
DIM
 10
375.233248
 20
234.1831819999999
 30
0.0
 40
0.25
  1

  0
TEXT
  5
4BE
  8
DIM
 10
374.52424500000001
 20
227.703937
 30
0.0
 40
0.25
  1

  0
TEXT
  5
4BF
  8
DIM
 10
373.35822100000001
 20
227.68362300000001
 30
0.0
 40
0.25
  1

  0
TEXT
  5
4C0
  8
DIM
 10
368.10060399999992
 20
237.93173599999989
 30
0.0
 40
0.25
  1

  0
TEXT
  5
4C1
  8
DIM
 10
368.10060399999992
 20
237.170556
 30
0.0
 40
0.25
  1

  0
TEXT
  5
4C2
  8
DIM
 10
308.88617599999992
 20
76.320329999999984
 30
0.0
 40
0.125
  1

  0
TEXT
  5
4C3
  8
DIM
 10
308.88617599999992
 20
76.005752999999999
 30
0.0
 40
0.125
  1

  0
TEXT
  5
4C4
  8
DIM
 10
304.78734300000002
 20
72.391278999999983
 30
0.0
 40
0.125
  1

  0
TEXT
  5
4C5
  8
DIM
 10
302.41347100000002
 20
71.725532000000001
 30
0.0
 40
0.125
  1

  0
TEXT
  5
4C6
  8
DIM
 10
302.431804
 20
75.415030999999985
 30
0.0
 40
0.125
  1

  0
TEXT
  5
4C7
  8
DIM
 10
307.12384300000002
 20
75.312642000000011
 30
0.0
 40
0.125
  1

  0
TEXT
  5
4C8
  8
DIM
 10
310.62384300000002
 20
75.312642000000011
 30
0.0
 40
0.125
  1

  0
TEXT
  5
4C9
  8
DIM
 10
325.56778500000001
 20
81.661245999999991
 30
0.0
 40
0.33325
  1

  0
TEXT
  5
4CA
  8
DIM
 10
314.00203399999992
 20
85.204218999999995
 30
0.0
 40
0.33325
  1

  0
TEXT
  5
4CB
  8
DIM
 10
309.93487599999992
 20
74.622682999999995
 30
0.0
 40
0.125
  1

  0
TEXT
  5
4CC
  8
DIM
 10
309.93487599999992
 20
74.308105999999995
 30
0.0
 40
0.125
  1

  0
TEXT
  5
4CD
  8
DIM
 10
305.83604200000002
 20
70.693631999999994
 30
0.0
 40
0.125
  1

  0
TEXT
  5
4CE
  8
DIM
 10
303.46217100000001
 20
70.027884999999998
 30
0.0
 40
0.125
  1

  0
TEXT
  5
4CF
  8
DIM
 10
303.480504
 20
73.717383999999996
 30
0.0
 40
0.125
  1

  0
TEXT
  5
4D0
  8
DIM
 10
308.17254199999991
 20
73.614995999999991
 30
0.0
 40
0.125
  1

  0
TEXT
  5
4D1
  8
DIM
 10
311.67254199999991
 20
73.614995999999991
 30
0.0
 40
0.125
  1

  0
TEXT
  5
4D2
  8
DIM
 10
326.61648500000001
 20
79.963599000000002
 30
0.0
 40
0.33325
  1

  0
TEXT
  5
4D3
  8
DIM
 10
315.05073399999992
 20
83.506572999999989
 30
0.0
 40
0.33325
  1

  0
TEXT
  5
4D4
  8
DIM
 10
309.15450399999997
 20
132.1104179999999
 30
0.0
 40
0.125
  1

  0
TEXT
  5
4D5
  8
DIM
 10
309.15450399999997
 20
131.79583999999991
 30
0.0
 40
0.125
  1

  0
TEXT
  5
4D6
  8
DIM
 10
305.05567100000002
 20
128.18136699999999
 30
0.0
 40
0.125
  1

  0
TEXT
  5
4D7
  8
DIM
 10
302.68179900000001
 20
127.51562
 30
0.0
 40
0.125
  1

  0
TEXT
  5
4D8
  8
DIM
 10
302.70013299999999
 20
131.205119
 30
0.0
 40
0.125
  1

  0
TEXT
  5
4D9
  8
DIM
 10
307.39217100000002
 20
131.10273000000001
 30
0.0
 40
0.125
  1

  0
TEXT
  5
4DA
  8
DIM
 10
310.89217100000002
 20
131.10273000000001
 30
0.0
 40
0.125
  1

  0
TEXT
  5
4DB
  8
DIM
 10
325.83611400000001
 20
137.451334
 30
0.0
 40
0.33325
  1

  0
TEXT
  5
4DC
  8
DIM
 10
314.27036199999998
 20
140.99430699999999
 30
0.0
 40
0.33325
  1

  0
TEXT
  5
4DD
  8
DIM
 10
309.12440199999992
 20
154.64133799999991
 30
0.0
 40
0.125
  1

  0
TEXT
  5
4DE
  8
DIM
 10
309.12440199999992
 20
154.32676000000001
 30
0.0
 40
0.125
  1

  0
TEXT
  5
4DF
  8
DIM
 10
305.02556900000002
 20
150.712287
 30
0.0
 40
0.125
  1

  0
TEXT
  5
4E0
  8
DIM
 10
302.65169700000001
 20
150.04653999999991
 30
0.0
 40
0.125
  1

  0
TEXT
  5
4E1
  8
DIM
 10
302.67003099999988
 20
153.73603899999989
 30
0.0
 40
0.125
  1

  0
TEXT
  5
4E2
  8
DIM
 10
307.36206900000002
 20
153.6336499999999
 30
0.0
 40
0.125
  1

  0
TEXT
  5
4E3
  8
DIM
 10
310.86206900000002
 20
153.6336499999999
 30
0.0
 40
0.125
  1

  0
TEXT
  5
4E4
  8
DIM
 10
322.71569199999999
 20
151.52196499999991
 30
0.0
 40
0.33325
  1

  0
TEXT
  5
4E5
  8
DIM
 10
334.55619200000001
 20
148.00023799999991
 30
0.0
 40
0.33325
  1

  0
TEXT
  5
4E6
  8
DIM
 10
348.20349199999993
 20
250.36359899999999
 30
0.0
 40
0.25
  1

  0
TEXT
  5
4E7
  8
DIM
 10
350.26768700000002
 20
156.94756000000001
 30
0.0
 40
0.125
  1

  0
TEXT
  5
4E8
  8
DIM
 10
350.26768700000002
 20
156.63298299999991
 30
0.0
 40
0.125
  1

  0
TEXT
  5
4E9
  8
DIM
 10
346.1688529999999
 20
153.01850899999991
 30
0.0
 40
0.125
  1

  0
TEXT
  5
4EA
  8
DIM
 10
343.794982
 20
152.35276200000001
 30
0.0
 40
0.125
  1

  0
TEXT
  5
4EB
  8
DIM
 10
343.81331499999999
 20
156.04226099999991
 30
0.0
 40
0.125
  1

  0
TEXT
  5
4EC
  8
DIM
 10
348.5053529999999
 20
155.93987300000001
 30
0.0
 40
0.125
  1

  0
TEXT
  5
4ED
  8
DIM
 10
352.0053529999999
 20
155.93987300000001
 30
0.0
 40
0.125
  1

  0
TEXT
  5
4EE
  8
DIM
 10
366.94929599999989
 20
162.28847599999989
 30
0.0
 40
0.33325
  1

  0
TEXT
  5
4EF
  8
DIM
 10
355.38354500000003
 20
165.83144899999991
 30
0.0
 40
0.33325
  1

  0
DIMENSION
  5
4F0
  8
DIM
  2
*D42
 10
15.242292000000001
 20
40.188180999999993
 30
0.0
 11
11.242292000000001
 21
40.188180999999993
 31
0.0
 70
     0
 13
7.2422919999999991
 23
39.441181
 33
0.0
 14
15.242292000000001
 24
39.441181
 34
0.0
  0
LINE
  5
4FE
  8
OBJECT
 10
7.2422919999999991
 20
38.441181
 30
0.0
 11
15.242292000000001
 21
38.441181
 31
0.0
  0
LINE
  5
4FF
  8
OBJECT
 10
15.242292000000001
 20
39.441181
 30
0.0
 11
7.2422919999999991
 21
39.441181
 31
0.0
  0
DIMENSION
  5
500
  8
DIM
  2
*D43
 10
6.2162920000000002
 20
38.441181
 30
0.0
 11
6.216291999999993
 21
38.941181
 31
0.0
 70
     0
 13
7.2422919999999991
 23
39.441181
 33
0.0
 14
7.2422919999999991
 24
38.441181
 34
0.0
 50
90.0
  0
LINE
  5
50E
  8
OBJECT
 10
7.2422919999999991
 20
39.441181
 30
0.0
 11
7.2422919999999991
 21
38.441181
 31
0.0
  0
LINE
  5
50F
  8
OBJECT
 10
15.242292000000001
 20
39.441181
 30
0.0
 11
15.242292000000001
 21
38.441181
 31
0.0
  0
LINE
  5
510
  8
PANEL
 10
33.693837000000002
 20
11.416128999999991
 30
0.0
 11
33.747531000000002
 21
11.44712899999999
 31
0.0
  0
LINE
  5
511
  8
PANEL
 10
33.747531000000002
 20
11.44712899999999
 30
0.0
 11
32.93519899999999
 21
11.916128999999991
 31
0.0
  0
LINE
  5
512
  8
PANEL
 10
13.828946999999999
 20
22.94712899999999
 30
0.0
 11
13.775252999999999
 21
22.916129000000002
 31
0.0
  0
LINE
  5
513
  8
PANEL
 10
14.478465999999999
 20
22.32212899999999
 30
0.0
 11
32.664999000000002
 21
11.82212899999999
 31
0.0
  0
LINE
  5
514
  8
PANEL
 10
33.693837000000002
 20
9.6961289999999991
 30
0.0
 11
33.747531000000002
 21
9.7271289999999997
 31
0.0
  0
LINE
  5
515
  8
PANEL
 10
33.747531000000002
 20
9.7271289999999997
 30
0.0
 11
33.747531000000002
 21
11.44712899999999
 31
0.0
  0
LINE
  5
516
  8
PANEL
 10
13.775252999999999
 20
22.916129000000002
 30
0.0
 11
13.775252999999999
 21
21.196128999999988
 31
0.0
  0
LINE
  5
517
  8
PANEL
 10
14.478465999999999
 20
20.602129000000001
 30
0.0
 11
32.664999000000002
 21
10.102128999999991
 31
0.0
  0
LINE
  5
518
  8
PANEL
 10
33.693837000000002
 20
9.6961289999999991
 30
0.0
 11
33.693837000000002
 21
11.416128999999991
 31
0.0
  0
LINE
  5
519
  8
PANEL
 10
33.693837000000002
 20
11.416128999999991
 30
0.0
 11
32.881506000000002
 21
11.88512899999999
 31
0.0
  0
LINE
  5
51A
  8
PANEL
 10
33.693837000000002
 20
9.6961289999999991
 30
0.0
 11
32.881506000000002
 21
10.16512899999999
 31
0.0
  0
LINE
  5
51B
  8
PANEL
 10
32.881506000000002
 20
10.16512899999999
 30
0.0
 11
32.881506000000002
 21
10.227128999999991
 31
0.0
  0
LINE
  5
51C
  8
PANEL
 10
13.775252999999999
 20
21.196128999999988
 30
0.0
 11
14.587585000000001
 21
20.727129000000001
 31
0.0
  0
LINE
  5
51D
  8
PANEL
 10
14.641277999999989
 20
22.478128999999999
 30
0.0
 11
14.641277999999989
 21
22.416129000000002
 31
0.0
  0
LINE
  5
51E
  8
PANEL
 10
14.694972
 20
22.447129
 30
0.0
 11
14.478465999999999
 21
22.32212899999999
 31
0.0
  0
LINE
  5
51F
  8
PANEL
 10
32.881506000000002
 20
11.94712899999999
 30
0.0
 11
32.664999000000002
 21
11.82212899999999
 31
0.0
  0
LINE
  5
520
  8
PANEL
 10
32.881506000000002
 20
10.227128999999991
 30
0.0
 11
32.664999000000002
 21
10.102128999999991
 31
0.0
  0
POLYLINE
  5
521
  8
PANEL
 66
     1
 10
0.0
 20
0.0
 30
0.0
 70
     1
  0
VERTEX
  5
D2C
  8
PANEL
 10
33.352623000000001
 20
11.51712899999999
 30
0.0
 42
0.106617
  0
VERTEX
  5
D2D
  8
PANEL
 10
33.30276099999999
 20
11.533165999999991
 30
0.0
 42
0.156851
  0
VERTEX
  5
D2E
  8
PANEL
 10
33.267503999999988
 20
11.525560999999991
 30
0.0
 42
0.156851
  0
VERTEX
  5
D2F
  8
PANEL
 10
33.243288999999997
 20
11.49882899999999
 30
0.0
 42
0.106617
  0
VERTEX
  5
D30
  8
PANEL
 10
33.232246000000004
 20
11.44762899999999
 30
0.0
 42
0.072341
  0
VERTEX
  5
D31
  8
PANEL
 10
33.24030599999999
 20
11.392212999999989
 30
0.0
 42
0.058752
  0
VERTEX
  5
D32
  8
PANEL
 10
33.267503999999988
 20
11.328984999999999
 30
0.0
 42
0.058752
  0
VERTEX
  5
D33
  8
PANEL
 10
33.308661999999991
 20
11.27381699999999
 30
0.0
 42
0.072341
  0
VERTEX
  5
D34
  8
PANEL
 10
33.352623000000001
 20
11.239129
 30
0.0
  0
VERTEX
  5
D35
  8
PANEL
 10
33.463475000000003
 20
11.175129
 30
0.0
 42
0.106617
  0
VERTEX
  5
D36
  8
PANEL
 10
33.513337
 20
11.15909299999999
 30
0.0
 42
0.156851
  0
VERTEX
  5
D37
  8
PANEL
 10
33.548594000000001
 20
11.166698
 30
0.0
 42
0.156851
  0
VERTEX
  5
D38
  8
PANEL
 10
33.572808999999999
 20
11.193429
 30
0.0
 42
0.106617
  0
VERTEX
  5
D39
  8
PANEL
 10
33.583852
 20
11.244628999999991
 30
0.0
 42
0.072341
  0
VERTEX
  5
D3A
  8
PANEL
 10
33.575791999999993
 20
11.30004499999999
 30
0.0
 42
0.058752
  0
VERTEX
  5
D3B
  8
PANEL
 10
33.548594000000001
 20
11.363273
 30
0.0
 42
0.058752
  0
VERTEX
  5
D3C
  8
PANEL
 10
33.507435999999991
 20
11.418440999999991
 30
0.0
 42
0.072341
  0
VERTEX
  5
D3D
  8
PANEL
 10
33.463475000000003
 20
11.45312899999999
 30
0.0
  0
SEQEND
  5
D3E
  8
PANEL
  0
POLYLINE
  5
535
  8
PANEL
 66
     1
 10
0.0
 20
0.0
 30
0.0
  0
VERTEX
  5
D3F
  8
PANEL
 10
33.298758999999997
 20
11.53342499999999
 30
0.0
 42
0.017027
  0
VERTEX
  5
D40
  8
PANEL
 10
33.296982
 20
11.529828999999999
 30
0.0
 42
0.106617
  0
VERTEX
  5
D41
  8
PANEL
 10
33.285938999999992
 20
11.478629
 30
0.0
 42
0.072341
  0
VERTEX
  5
D42
  8
PANEL
 10
33.293998999999999
 20
11.423213000000001
 30
0.0
 42
0.058752
  0
VERTEX
  5
D43
  8
PANEL
 10
33.321196999999991
 20
11.359985
 30
0.0
 42
0.058752
  0
VERTEX
  5
D44
  8
PANEL
 10
33.362355000000001
 20
11.304817
 30
0.0
 42
0.072341
  0
VERTEX
  5
D45
  8
PANEL
 10
33.406317000000001
 20
11.27012899999999
 30
0.0
  0
VERTEX
  5
D46
  8
PANEL
 10
33.517167999999998
 20
11.206129000000001
 30
0.0
 42
0.106617
  0
VERTEX
  5
D47
  8
PANEL
 10
33.567029999999988
 20
11.19009299999999
 30
0.0
 42
0.017027
  0
VERTEX
  5
D48
  8
PANEL
 10
33.571032000000002
 20
11.189833999999999
 30
0.0
 42
0.156851
  0
SEQEND
  5
D49
  8
PANEL
  0
POLYLINE
  5
541
  8
PANEL
 66
     1
 10
0.0
 20
0.0
 30
0.0
  0
VERTEX
  5
D4A
  8
PANEL
 10
33.298758999999997
 20
10.28342499999999
 30
0.0
 42
0.017027
  0
VERTEX
  5
D4B
  8
PANEL
 10
33.296982
 20
10.279828999999999
 30
0.0
 42
0.106617
  0
VERTEX
  5
D4C
  8
PANEL
 10
33.285938999999992
 20
10.228629
 30
0.0
 42
0.072341
  0
VERTEX
  5
D4D
  8
PANEL
 10
33.293998999999999
 20
10.173213000000001
 30
0.0
 42
0.058752
  0
VERTEX
  5
D4E
  8
PANEL
 10
33.321196999999991
 20
10.109985
 30
0.0
 42
0.058752
  0
VERTEX
  5
D4F
  8
PANEL
 10
33.362355000000001
 20
10.054817
 30
0.0
 42
0.072341
  0
VERTEX
  5
D50
  8
PANEL
 10
33.406317000000001
 20
10.02012899999999
 30
0.0
  0
VERTEX
  5
D51
  8
PANEL
 10
33.517167999999998
 20
9.9561289999999971
 30
0.0
 42
0.106617
  0
VERTEX
  5
D52
  8
PANEL
 10
33.567029999999988
 20
9.9400929999999992
 30
0.0
 42
0.017027
  0
VERTEX
  5
D53
  8
PANEL
 10
33.571032000000002
 20
9.9398339999999994
 30
0.0
 42
0.156851
  0
SEQEND
  5
D54
  8
PANEL
  0
POLYLINE
  5
54D
  8
PANEL
 66
     1
 10
0.0
 20
0.0
 30
0.0
 70
     1
  0
VERTEX
  5
D55
  8
PANEL
 10
33.352623000000001
 20
10.26712899999999
 30
0.0
 42
0.106617
  0
VERTEX
  5
D56
  8
PANEL
 10
33.30276099999999
 20
10.283165999999991
 30
0.0
 42
0.156851
  0
VERTEX
  5
D57
  8
PANEL
 10
33.267503999999988
 20
10.275560999999991
 30
0.0
 42
0.156851
  0
VERTEX
  5
D58
  8
PANEL
 10
33.243288999999997
 20
10.24882899999999
 30
0.0
 42
0.106617
  0
VERTEX
  5
D59
  8
PANEL
 10
33.232246000000004
 20
10.19762899999999
 30
0.0
 42
0.072341
  0
VERTEX
  5
D5A
  8
PANEL
 10
33.24030599999999
 20
10.142212999999989
 30
0.0
 42
0.058752
  0
VERTEX
  5
D5B
  8
PANEL
 10
33.267503999999988
 20
10.078984999999999
 30
0.0
 42
0.058752
  0
VERTEX
  5
D5C
  8
PANEL
 10
33.308661999999991
 20
10.02381699999999
 30
0.0
 42
0.072341
  0
VERTEX
  5
D5D
  8
PANEL
 10
33.352623000000001
 20
9.9891290000000001
 30
0.0
  0
VERTEX
  5
D5E
  8
PANEL
 10
33.463475000000003
 20
9.9251290000000001
 30
0.0
 42
0.106617
  0
VERTEX
  5
D5F
  8
PANEL
 10
33.513337
 20
9.9090929999999986
 30
0.0
 42
0.156851
  0
VERTEX
  5
D60
  8
PANEL
 10
33.548594000000001
 20
9.9166980000000002
 30
0.0
 42
0.156851
  0
VERTEX
  5
D61
  8
PANEL
 10
33.572808999999999
 20
9.9434290000000001
 30
0.0
 42
0.106617
  0
VERTEX
  5
D62
  8
PANEL
 10
33.583852
 20
9.9946289999999998
 30
0.0
 42
0.072341
  0
VERTEX
  5
D63
  8
PANEL
 10
33.575791999999993
 20
10.05004499999999
 30
0.0
 42
0.058752
  0
VERTEX
  5
D64
  8
PANEL
 10
33.548594000000001
 20
10.113273
 30
0.0
 42
0.058752
  0
VERTEX
  5
D65
  8
PANEL
 10
33.507435999999991
 20
10.168440999999991
 30
0.0
 42
0.072341
  0
VERTEX
  5
D66
  8
PANEL
 10
33.463475000000003
 20
10.20312899999999
 30
0.0
  0
SEQEND
  5
D67
  8
PANEL
  0
POLYLINE
  5
561
  8
PANEL
 66
     1
 10
0.0
 20
0.0
 30
0.0
 70
     1
  0
VERTEX
  5
D68
  8
PANEL
 10
14.005616
 20
21.437128999999999
 30
0.0
 42
0.106617
  0
VERTEX
  5
D69
  8
PANEL
 10
13.955754000000001
 20
21.453166
 30
0.0
 42
0.156851
  0
VERTEX
  5
D6A
  8
PANEL
 10
13.920495999999989
 20
21.445560999999991
 30
0.0
 42
0.156851
  0
VERTEX
  5
D6B
  8
PANEL
 10
13.896281
 20
21.418828999999999
 30
0.0
 42
0.106617
  0
VERTEX
  5
D6C
  8
PANEL
 10
13.885237999999999
 20
21.367629000000001
 30
0.0
 42
0.072341
  0
VERTEX
  5
D6D
  8
PANEL
 10
13.893298
 20
21.312212999999989
 30
0.0
 42
0.058752
  0
VERTEX
  5
D6E
  8
PANEL
 10
13.920495999999989
 20
21.248985000000001
 30
0.0
 42
0.058752
  0
VERTEX
  5
D6F
  8
PANEL
 10
13.961653999999999
 20
21.193816999999999
 30
0.0
 42
0.072341
  0
VERTEX
  5
D70
  8
PANEL
 10
14.005616
 20
21.159129
 30
0.0
  0
VERTEX
  5
D71
  8
PANEL
 10
14.116467
 20
21.095128999999989
 30
0.0
 42
0.106617
  0
VERTEX
  5
D72
  8
PANEL
 10
14.166328999999999
 20
21.079093
 30
0.0
 42
0.156851
  0
VERTEX
  5
D73
  8
PANEL
 10
14.201586999999989
 20
21.086697999999998
 30
0.0
 42
0.156851
  0
VERTEX
  5
D74
  8
PANEL
 10
14.225801000000001
 20
21.113428999999989
 30
0.0
 42
0.106617
  0
VERTEX
  5
D75
  8
PANEL
 10
14.236845000000001
 20
21.164629000000001
 30
0.0
 42
0.072341
  0
VERTEX
  5
D76
  8
PANEL
 10
14.228785
 20
21.220044999999999
 30
0.0
 42
0.058752
  0
VERTEX
  5
D77
  8
PANEL
 10
14.201586999999989
 20
21.283273000000001
 30
0.0
 42
0.058752
  0
VERTEX
  5
D78
  8
PANEL
 10
14.160429000000001
 20
21.338441
 30
0.0
 42
0.072341
  0
VERTEX
  5
D79
  8
PANEL
 10
14.116467
 20
21.373128999999999
 30
0.0
  0
SEQEND
  5
D7A
  8
PANEL
  0
POLYLINE
  5
575
  8
PANEL
 66
     1
 10
0.0
 20
0.0
 30
0.0
  0
VERTEX
  5
D7B
  8
PANEL
 10
13.95175199999999
 20
21.453424999999989
 30
0.0
 42
0.017027
  0
VERTEX
  5
D7C
  8
PANEL
 10
13.949975
 20
21.449829000000001
 30
0.0
 42
0.106617
  0
VERTEX
  5
D7D
  8
PANEL
 10
13.938931999999999
 20
21.398629
 30
0.0
 42
0.072341
  0
VERTEX
  5
D7E
  8
PANEL
 10
13.946992
 20
21.343212999999999
 30
0.0
 42
0.058752
  0
VERTEX
  5
D7F
  8
PANEL
 10
13.97419
 20
21.279984999999989
 30
0.0
 42
0.058752
  0
VERTEX
  5
D80
  8
PANEL
 10
14.015347999999999
 20
21.224817000000002
 30
0.0
 42
0.072341
  0
VERTEX
  5
D81
  8
PANEL
 10
14.05930899999999
 20
21.190128999999999
 30
0.0
  0
VERTEX
  5
D82
  8
PANEL
 10
14.17016099999999
 20
21.126128999999999
 30
0.0
 42
0.106617
  0
VERTEX
  5
D83
  8
PANEL
 10
14.220022999999999
 20
21.110092999999999
 30
0.0
 42
0.017027
  0
VERTEX
  5
D84
  8
PANEL
 10
14.224024999999999
 20
21.109833999999989
 30
0.0
 42
0.156851
  0
SEQEND
  5
D85
  8
PANEL
  0
POLYLINE
  5
581
  8
PANEL
 66
     1
 10
0.0
 20
0.0
 30
0.0
  0
VERTEX
  5
D86
  8
PANEL
 10
13.95175199999999
 20
22.703424999999989
 30
0.0
 42
0.017027
  0
VERTEX
  5
D87
  8
PANEL
 10
13.949975
 20
22.699829000000001
 30
0.0
 42
0.106617
  0
VERTEX
  5
D88
  8
PANEL
 10
13.938931999999999
 20
22.648629
 30
0.0
 42
0.072341
  0
VERTEX
  5
D89
  8
PANEL
 10
13.946992
 20
22.593212999999999
 30
0.0
 42
0.058752
  0
VERTEX
  5
D8A
  8
PANEL
 10
13.97419
 20
22.529984999999989
 30
0.0
 42
0.058752
  0
VERTEX
  5
D8B
  8
PANEL
 10
14.015347999999999
 20
22.474817000000002
 30
0.0
 42
0.072341
  0
VERTEX
  5
D8C
  8
PANEL
 10
14.05930899999999
 20
22.440128999999999
 30
0.0
  0
VERTEX
  5
D8D
  8
PANEL
 10
14.17016099999999
 20
22.376128999999999
 30
0.0
 42
0.106617
  0
VERTEX
  5
D8E
  8
PANEL
 10
14.220022999999999
 20
22.360092999999999
 30
0.0
 42
0.017027
  0
VERTEX
  5
D8F
  8
PANEL
 10
14.224024999999999
 20
22.359833999999989
 30
0.0
 42
0.156851
  0
SEQEND
  5
D90
  8
PANEL
  0
POLYLINE
  5
58D
  8
PANEL
 66
     1
 10
0.0
 20
0.0
 30
0.0
 70
     1
  0
VERTEX
  5
D91
  8
PANEL
 10
14.005616
 20
22.687128999999999
 30
0.0
 42
0.106617
  0
VERTEX
  5
D92
  8
PANEL
 10
13.955754000000001
 20
22.703166
 30
0.0
 42
0.156851
  0
VERTEX
  5
D93
  8
PANEL
 10
13.920495999999989
 20
22.695560999999991
 30
0.0
 42
0.156851
  0
VERTEX
  5
D94
  8
PANEL
 10
13.896281
 20
22.668828999999999
 30
0.0
 42
0.106617
  0
VERTEX
  5
D95
  8
PANEL
 10
13.885237999999999
 20
22.617629000000001
 30
0.0
 42
0.072341
  0
VERTEX
  5
D96
  8
PANEL
 10
13.893298
 20
22.562212999999989
 30
0.0
 42
0.058752
  0
VERTEX
  5
D97
  8
PANEL
 10
13.920495999999989
 20
22.498985000000001
 30
0.0
 42
0.058752
  0
VERTEX
  5
D98
  8
PANEL
 10
13.961653999999999
 20
22.443816999999999
 30
0.0
 42
0.072341
  0
VERTEX
  5
D99
  8
PANEL
 10
14.005616
 20
22.409129
 30
0.0
  0
VERTEX
  5
D9A
  8
PANEL
 10
14.116467
 20
22.345128999999989
 30
0.0
 42
0.106617
  0
VERTEX
  5
D9B
  8
PANEL
 10
14.166328999999999
 20
22.329093
 30
0.0
 42
0.156851
  0
VERTEX
  5
D9C
  8
PANEL
 10
14.201586999999989
 20
22.336697999999998
 30
0.0
 42
0.156851
  0
VERTEX
  5
D9D
  8
PANEL
 10
14.225801000000001
 20
22.363428999999989
 30
0.0
 42
0.106617
  0
VERTEX
  5
D9E
  8
PANEL
 10
14.236845000000001
 20
22.414629000000001
 30
0.0
 42
0.072341
  0
VERTEX
  5
D9F
  8
PANEL
 10
14.228785
 20
22.470044999999999
 30
0.0
 42
0.058752
  0
VERTEX
  5
DA0
  8
PANEL
 10
14.201586999999989
 20
22.533273000000001
 30
0.0
 42
0.058752
  0
VERTEX
  5
DA1
  8
PANEL
 10
14.160429000000001
 20
22.588441
 30
0.0
 42
0.072341
  0
VERTEX
  5
DA2
  8
PANEL
 10
14.116467
 20
22.623128999999999
 30
0.0
  0
SEQEND
  5
DA3
  8
PANEL
  0
LINE
  5
5A1
  8
PANEL
 10
14.478465999999999
 20
20.664128999999988
 30
0.0
 11
32.664999000000002
 21
10.16412899999999
 31
0.0
  0
LINE
  5
5A2
  8
PANEL
 10
14.478465999999999
 20
22.260128999999999
 30
0.0
 11
32.664999000000002
 21
11.76012899999999
 31
0.0
  0
LINE
  5
5A3
  8
PANEL
 10
32.93519899999999
 20
11.916128999999991
 30
0.0
 11
32.881506000000002
 21
11.88512899999999
 31
0.0
  0
LINE
  5
5A4
  8
PANEL
 10
32.827812000000002
 20
10.25812899999999
 30
0.0
 11
32.664999000000002
 21
10.16412899999999
 31
0.0
  0
LINE
  5
5A5
  8
PANEL
 10
14.641277999999989
 20
20.758129
 30
0.0
 11
14.478465999999999
 21
20.664128999999988
 31
0.0
  0
LINE
  5
5A6
  8
PANEL
 10
14.641277999999989
 20
22.478128999999999
 30
0.0
 11
14.587585000000001
 21
22.447129
 31
0.0
  0
LINE
  5
5A7
  8
PANEL
 10
14.587585000000001
 20
20.789128999999999
 30
0.0
 11
14.641277999999989
 21
20.758129
 31
0.0
  0
LINE
  5
5A8
  8
PANEL
 10
14.587585000000001
 20
22.447129
 30
0.0
 11
14.587585000000001
 21
22.385128999999989
 31
0.0
  0
LINE
  5
5A9
  8
PANEL
 10
32.881506000000002
 20
11.823129
 30
0.0
 11
32.827812000000002
 21
11.854129
 31
0.0
  0
LINE
  5
5AA
  8
PANEL
 10
32.881506000000002
 20
10.227128999999991
 30
0.0
 11
30.905850000000001
 21
11.367774999999989
 31
0.0
  0
LINE
  5
5AB
  8
PANEL
 10
32.881506000000002
 20
11.94712899999999
 30
0.0
 11
30.986641999999989
 21
13.041129
 31
0.0
  0
LINE
  5
5AC
  8
PANEL
 10
32.827812000000002
 20
11.854129
 30
0.0
 11
32.664999000000002
 21
11.76012899999999
 31
0.0
  0
LINE
  5
5AD
  8
PANEL
 10
32.881506000000002
 20
11.823129
 30
0.0
 11
32.881506000000002
 21
11.94712899999999
 31
0.0
  0
LINE
  5
5AE
  8
PANEL
 10
32.664999000000002
 20
10.16412899999999
 30
0.0
 11
32.664999000000002
 21
10.102128999999991
 31
0.0
  0
LINE
  5
5AF
  8
PANEL
 10
32.664999000000002
 20
11.76012899999999
 30
0.0
 11
32.664999000000002
 21
11.82212899999999
 31
0.0
  0
LINE
  5
5B0
  8
PANEL
 10
13.775252999999999
 20
22.916129000000002
 30
0.0
 11
14.587585000000001
 21
22.447129
 31
0.0
  0
LINE
  5
5B1
  8
PANEL
 10
14.478465999999999
 20
22.32212899999999
 30
0.0
 11
14.478465999999999
 21
22.260128999999999
 31
0.0
  0
LINE
  5
5B2
  8
PANEL
 10
14.641277999999989
 20
22.478128999999999
 30
0.0
 11
13.828946999999999
 21
22.94712899999999
 31
0.0
  0
LINE
  5
5B3
  8
PANEL
 10
14.478465999999999
 20
20.602129000000001
 30
0.0
 11
14.478465999999999
 21
20.664128999999988
 31
0.0
  0
LINE
  5
5B4
  8
PANEL
 10
14.587585000000001
 20
20.789128999999999
 30
0.0
 11
14.587585000000001
 21
20.727129000000001
 31
0.0
  0
POLYLINE
  5
5B5
  8
PANEL
 66
     1
 10
0.0
 20
0.0
 30
0.0
  0
VERTEX
  5
DA4
  8
PANEL
 10
26.413450000000001
 20
15.540463000000001
 30
0.0
 42
-0.267949
  0
VERTEX
  5
DA5
  8
PANEL
 10
26.386315
 20
15.587463
 30
0.0
  0
VERTEX
  5
DA6
  8
PANEL
 10
26.386315
 20
15.697129
 30
0.0
  0
VERTEX
  5
DA7
  8
PANEL
 10
26.345611999999999
 20
15.673629
 30
0.0
 42
0.5773500000000001
  0
VERTEX
  5
DA8
  8
PANEL
 10
26.345611999999999
 20
15.579629000000001
 30
0.0
  0
VERTEX
  5
DA9
  8
PANEL
 10
27.481836999999999
 20
14.923629
 30
0.0
 42
0.267949
  0
VERTEX
  5
DAA
  8
PANEL
 10
27.644649999999992
 20
14.923629
 30
0.0
  0
VERTEX
  5
DAB
  8
PANEL
 10
27.685352999999999
 20
14.947129
 30
0.0
  0
SEQEND
  5
DAC
  8
PANEL
  0
LINE
  5
5BF
  8
STRAP
 10
27.849326000000001
 20
11.04439799999999
 30
0.0
 11
26.983301000000001
 21
11.544397999999999
 31
0.0
  0
LINE
  5
5C0
  8
STRAP
 10
29.971654000000001
 20
16.074518999999999
 30
0.0
 11
30.018653999999991
 21
16.10165499999999
 31
0.0
  0
POLYLINE
  5
5C1
  8
STRAP
 66
     1
 10
0.0
 20
0.0
 30
0.0
  0
VERTEX
  5
DAD
  8
STRAP
 10
29.247897999999999
 20
16.548117000000001
 30
0.0
  0
VERTEX
  5
DAE
  8
STRAP
 10
29.247897999999999
 20
16.912523
 30
0.0
 42
0.5912950000000001
  0
SEQEND
  5
DAF
  8
STRAP
  0
LINE
  5
5C5
  8
STRAP
 10
29.686443000000001
 20
17.226378
 30
0.0
 11
28.820418
 21
17.726378
 31
0.0
  0
LINE
  5
5C6
  8
PANEL
 10
29.633734999999991
 20
12.102231
 30
0.0
 11
27.604561
 21
13.273775000000001
 31
0.0
  0
LINE
  5
5C7
  8
PANEL
 10
29.68760399999999
 20
13.791129
 30
0.0
 11
27.685352999999999
 21
14.947129
 31
0.0
  0
POLYLINE
  5
5C8
  8
STRAP
 66
     1
 10
0.0
 20
0.0
 30
0.0
  0
VERTEX
  5
DB0
  8
STRAP
 10
29.152628
 20
14.099997999999999
 30
0.0
  0
VERTEX
  5
DB1
  8
STRAP
 10
29.152628
 20
16.547384000000001
 30
0.0
  0
VERTEX
  5
DB2
  8
STRAP
 10
29.200897999999992
 20
16.575251999999999
 30
0.0
  0
VERTEX
  5
DB3
  8
STRAP
 10
30.019922999999991
 20
16.102388000000001
 30
0.0
  0
SEQEND
  5
DB4
  8
STRAP
  0
POLYLINE
  5
5CE
  8
PANEL
 66
     1
 10
0.0
 20
0.0
 30
0.0
  0
VERTEX
  5
DB5
  8
PANEL
 10
27.653136
 20
13.332915
 30
0.0
 42
0.194784
  0
VERTEX
  5
DB6
  8
PANEL
 10
27.603946999999991
 20
13.392390000000001
 30
0.0
  0
VERTEX
  5
DB7
  8
PANEL
 10
27.51584699999999
 20
13.443255000000001
 30
0.0
 42
0.4189020000000001
  0
SEQEND
  5
DB8
  8
PANEL
  0
POLYLINE
  5
5D3
  8
PANEL
 66
     1
 10
0.0
 20
0.0
 30
0.0
  0
VERTEX
  5
DB9
  8
PANEL
 10
26.602820999999999
 20
13.97039
 30
0.0
  0
VERTEX
  5
DBA
  8
PANEL
 10
26.467721000000001
 20
14.048389999999991
 30
0.0
 42
0.4189020000000001
  0
VERTEX
  5
DBB
  8
PANEL
 10
26.337126000000001
 20
13.98186499999999
 30
0.0
  0
SEQEND
  5
DBC
  8
PANEL
  0
POLYLINE
  5
5D8
  8
PANEL
 66
     1
 10
0.0
 20
0.0
 30
0.0
  0
VERTEX
  5
DBD
  8
PANEL
 10
26.386315
 20
13.92239
 30
0.0
  0
VERTEX
  5
DBE
  8
PANEL
 10
27.522539999999999
 20
13.266389999999999
 30
0.0
 42
0.91714
  0
VERTEX
  5
DBF
  8
PANEL
 10
27.603946999999991
 20
13.45439
 30
0.0
  0
VERTEX
  5
DC0
  8
PANEL
 10
27.51584699999999
 20
13.505254999999989
 30
0.0
 42
0.91714
  0
SEQEND
  5
DC1
  8
PANEL
  0
POLYLINE
  5
5DE
  8
PANEL
 66
     1
 10
0.0
 20
0.0
 30
0.0
  0
VERTEX
  5
DC2
  8
PANEL
 10
26.602820999999999
 20
14.032389999999999
 30
0.0
  0
VERTEX
  5
DC3
  8
PANEL
 10
26.467721000000001
 20
14.11038999999999
 30
0.0
 42
0.91714
  0
VERTEX
  5
DC4
  8
PANEL
 10
26.386315
 20
13.92239
 30
0.0
  0
SEQEND
  5
DC5
  8
PANEL
  0
POLYLINE
  5
5E3
  8
STRAP
 66
     1
 10
0.0
 20
0.0
 30
0.0
  0
VERTEX
  5
DC6
  8
STRAP
 10
26.602820999999999
 20
13.602129
 30
0.0
  0
VERTEX
  5
DC7
  8
STRAP
 10
26.602820999999999
 20
12.385388000000001
 30
0.0
 42
0.106617
  0
VERTEX
  5
DC8
  8
STRAP
 10
26.72199199999999
 20
11.832869999999989
 30
0.0
 42
0.156851
  0
VERTEX
  5
DC9
  8
STRAP
 10
26.983301000000001
 20
11.544397999999999
 30
0.0
 42
0.000005
  0
VERTEX
  5
DCA
  8
STRAP
 10
26.983312000000002
 20
11.544390999999999
 30
0.0
 42
0.106617
  0
SEQEND
  5
DCB
  8
STRAP
  0
POLYLINE
  5
5EA
  8
STRAP
 66
     1
 10
0.0
 20
0.0
 30
0.0
  0
VERTEX
  5
DCC
  8
STRAP
 10
27.51584699999999
 20
13.27025499999999
 30
0.0
  0
VERTEX
  5
DCD
  8
STRAP
 10
27.51584699999999
 20
14.732994
 30
0.0
  0
SEQEND
  5
DCE
  8
STRAP
  0
POLYLINE
  5
5EE
  8
STRAP
 66
     1
 10
0.0
 20
0.0
 30
0.0
  0
VERTEX
  5
DCF
  8
STRAP
 10
27.46884699999999
 20
14.760128999999999
 30
0.0
  0
VERTEX
  5
DD0
  8
STRAP
 10
27.46884699999999
 20
13.29739
 30
0.0
 42
0.106617
  0
SEQEND
  5
DD1
  8
STRAP
  0
POLYLINE
  5
5F2
  8
STRAP
 66
     1
 10
0.0
 20
0.0
 30
0.0
  0
VERTEX
  5
DD2
  8
STRAP
 10
26.602820999999999
 20
15.260128999999999
 30
0.0
  0
VERTEX
  5
DD3
  8
STRAP
 10
26.602820999999999
 20
13.79739
 30
0.0
 42
0.106617
  0
SEQEND
  5
DD4
  8
STRAP
  0
POLYLINE
  5
5F6
  8
STRAP
 66
     1
 10
0.0
 20
0.0
 30
0.0
  0
VERTEX
  5
DD5
  8
STRAP
 10
23.301532000000002
 20
15.508129
 30
0.0
  0
VERTEX
  5
DD6
  8
STRAP
 10
23.301532000000002
 20
14.291388
 30
0.0
 42
0.106617
  0
VERTEX
  5
DD7
  8
STRAP
 10
23.420703
 20
13.73887
 30
0.0
 42
0.156851
  0
VERTEX
  5
DD8
  8
STRAP
 10
23.682012
 20
13.450398
 30
0.0
 42
0.000005
  0
VERTEX
  5
DD9
  8
STRAP
 10
23.682023000000001
 20
13.450391
 30
0.0
 42
0.106617
  0
SEQEND
  5
DDA
  8
STRAP
  0
LINE
  5
5FD
  8
STRAP
 10
24.548037000000001
 20
12.950398
 30
0.0
 11
23.682012
 21
13.450398
 31
0.0
  0
POLYLINE
  5
5FE
  8
PANEL
 66
     1
 10
0.0
 20
0.0
 30
0.0
  0
VERTEX
  5
DDB
  8
PANEL
 10
23.085025999999999
 20
15.82838999999999
 30
0.0
  0
VERTEX
  5
DDC
  8
PANEL
 10
24.221250999999999
 20
15.17239
 30
0.0
 42
0.91714
  0
VERTEX
  5
DDD
  8
PANEL
 10
24.30265799999999
 20
15.36038999999999
 30
0.0
  0
VERTEX
  5
DDE
  8
PANEL
 10
24.214558
 20
15.41125499999999
 30
0.0
 42
0.91714
  0
SEQEND
  5
DDF
  8
PANEL
  0
POLYLINE
  5
604
  8
PANEL
 66
     1
 10
0.0
 20
0.0
 30
0.0
  0
VERTEX
  5
DE0
  8
PANEL
 10
23.301532000000002
 20
15.93839
 30
0.0
  0
VERTEX
  5
DE1
  8
PANEL
 10
23.166432999999991
 20
16.016389999999991
 30
0.0
 42
0.91714
  0
VERTEX
  5
DE2
  8
PANEL
 10
23.085025999999999
 20
15.82838999999999
 30
0.0
  0
SEQEND
  5
DE3
  8
PANEL
  0
POLYLINE
  5
609
  8
PANEL
 66
     1
 10
0.0
 20
0.0
 30
0.0
  0
VERTEX
  5
DE4
  8
PANEL
 10
23.301532000000002
 20
15.876390000000001
 30
0.0
  0
VERTEX
  5
DE5
  8
PANEL
 10
23.166432999999991
 20
15.95439
 30
0.0
 42
0.4189020000000001
  0
VERTEX
  5
DE6
  8
PANEL
 10
23.035837000000001
 20
15.887865
 30
0.0
  0
SEQEND
  5
DE7
  8
PANEL
  0
POLYLINE
  5
60E
  8
PANEL
 66
     1
 10
0.0
 20
0.0
 30
0.0
  0
VERTEX
  5
DE8
  8
PANEL
 10
24.351846999999999
 20
15.23891499999999
 30
0.0
 42
0.194784
  0
VERTEX
  5
DE9
  8
PANEL
 10
24.30265799999999
 20
15.298389999999991
 30
0.0
  0
VERTEX
  5
DEA
  8
PANEL
 10
24.214558
 20
15.349254999999991
 30
0.0
 42
0.4189020000000001
  0
SEQEND
  5
DEB
  8
PANEL
  0
POLYLINE
  5
613
  8
STRAP
 66
     1
 10
0.0
 20
0.0
 30
0.0
  0
VERTEX
  5
DEC
  8
STRAP
 10
23.301532000000002
 20
17.166129000000002
 30
0.0
  0
VERTEX
  5
DED
  8
STRAP
 10
23.301532000000002
 20
15.70338999999999
 30
0.0
 42
0.106617
  0
SEQEND
  5
DEE
  8
STRAP
  0
POLYLINE
  5
617
  8
STRAP
 66
     1
 10
0.0
 20
0.0
 30
0.0
  0
VERTEX
  5
DEF
  8
STRAP
 10
24.167558
 20
16.666129000000002
 30
0.0
  0
VERTEX
  5
DF0
  8
STRAP
 10
24.167558
 20
15.20338999999999
 30
0.0
 42
0.106617
  0
SEQEND
  5
DF1
  8
STRAP
  0
POLYLINE
  5
61B
  8
STRAP
 66
     1
 10
0.0
 20
0.0
 30
0.0
  0
VERTEX
  5
DF2
  8
STRAP
 10
24.214558
 20
15.176254999999999
 30
0.0
  0
VERTEX
  5
DF3
  8
STRAP
 10
24.214558
 20
16.638994
 30
0.0
  0
SEQEND
  5
DF4
  8
STRAP
  0
POLYLINE
  5
61F
  8
PANEL
 66
     1
 10
0.0
 20
0.0
 30
0.0
  0
VERTEX
  5
DF5
  8
PANEL
 10
23.112162000000001
 20
17.446463000000001
 30
0.0
 42
-0.267949
  0
VERTEX
  5
DF6
  8
PANEL
 10
23.085025999999999
 20
17.493462999999998
 30
0.0
  0
VERTEX
  5
DF7
  8
PANEL
 10
23.085025999999999
 20
17.603128999999988
 30
0.0
  0
VERTEX
  5
DF8
  8
PANEL
 10
23.044322999999999
 20
17.579629000000001
 30
0.0
 42
0.5773500000000001
  0
VERTEX
  5
DF9
  8
PANEL
 10
23.044322999999999
 20
17.485628999999999
 30
0.0
  0
VERTEX
  5
DFA
  8
PANEL
 10
24.180548000000002
 20
16.829629000000001
 30
0.0
 42
0.267949
  0
VERTEX
  5
DFB
  8
PANEL
 10
24.343360999999991
 20
16.829629000000001
 30
0.0
  0
VERTEX
  5
DFC
  8
PANEL
 10
24.384063999999999
 20
16.853128999999999
 30
0.0
  0
SEQEND
  5
DFD
  8
PANEL
  0
LINE
  5
629
  8
STRAP
 10
26.385155000000001
 20
19.132377999999999
 30
0.0
 11
25.519129
 21
19.632377999999989
 31
0.0
  0
POLYLINE
  5
62A
  8
STRAP
 66
     1
 10
0.0
 20
0.0
 30
0.0
  0
VERTEX
  5
DFE
  8
STRAP
 10
25.851338999999999
 20
16.005998000000002
 30
0.0
  0
VERTEX
  5
DFF
  8
STRAP
 10
25.851338999999999
 20
18.453384
 30
0.0
  0
VERTEX
  5
E00
  8
STRAP
 10
25.899608999999991
 20
18.481251999999991
 30
0.0
  0
VERTEX
  5
E01
  8
STRAP
 10
26.718634000000002
 20
18.008388
 30
0.0
  0
SEQEND
  5
E02
  8
STRAP
  0
POLYLINE
  5
630
  8
STRAP
 66
     1
 10
0.0
 20
0.0
 30
0.0
  0
VERTEX
  5
E03
  8
STRAP
 10
25.946608999999999
 20
18.454117
 30
0.0
  0
VERTEX
  5
E04
  8
STRAP
 10
25.946608999999999
 20
18.818522999999999
 30
0.0
 42
0.5912950000000001
  0
SEQEND
  5
E05
  8
STRAP
  0
LINE
  5
634
  8
STRAP
 10
26.670365
 20
17.980519000000001
 30
0.0
 11
26.717365000000001
 21
18.007654999999989
 31
0.0
  0
POLYLINE
  5
635
  8
STRAP
 66
     1
 10
0.0
 20
0.0
 30
0.0
  0
VERTEX
  5
E06
  8
STRAP
 10
20.000243999999999
 20
17.414128999999999
 30
0.0
  0
VERTEX
  5
E07
  8
STRAP
 10
20.000243999999999
 20
16.197388
 30
0.0
 42
0.106617
  0
VERTEX
  5
E08
  8
STRAP
 10
20.119413999999999
 20
15.644869999999999
 30
0.0
 42
0.156851
  0
VERTEX
  5
E09
  8
STRAP
 10
20.380723
 20
15.356398
 30
0.0
 42
0.000005
  0
VERTEX
  5
E0A
  8
STRAP
 10
20.380735000000001
 20
15.356391
 30
0.0
 42
0.106617
  0
SEQEND
  5
E0B
  8
STRAP
  0
LINE
  5
63C
  8
STRAP
 10
21.246749000000001
 20
14.856398
 30
0.0
 11
20.380723
 21
15.356398
 31
0.0
  0
POLYLINE
  5
63D
  8
PANEL
 66
     1
 10
0.0
 20
0.0
 30
0.0
  0
VERTEX
  5
E0C
  8
PANEL
 10
19.783736999999991
 20
17.734389999999991
 30
0.0
  0
VERTEX
  5
E0D
  8
PANEL
 10
20.919962999999989
 20
17.078389999999992
 30
0.0
 42
0.91714
  0
VERTEX
  5
E0E
  8
PANEL
 10
21.001369
 20
17.266389999999991
 30
0.0
  0
VERTEX
  5
E0F
  8
PANEL
 10
20.913268999999989
 20
17.317254999999999
 30
0.0
 42
0.91714
  0
SEQEND
  5
E10
  8
PANEL
  0
POLYLINE
  5
643
  8
PANEL
 66
     1
 10
0.0
 20
0.0
 30
0.0
  0
VERTEX
  5
E11
  8
PANEL
 10
20.000243999999999
 20
17.844390000000001
 30
0.0
  0
VERTEX
  5
E12
  8
PANEL
 10
19.865144000000001
 20
17.92239
 30
0.0
 42
0.91714
  0
VERTEX
  5
E13
  8
PANEL
 10
19.783736999999991
 20
17.734389999999991
 30
0.0
  0
SEQEND
  5
E14
  8
PANEL
  0
POLYLINE
  5
648
  8
PANEL
 66
     1
 10
0.0
 20
0.0
 30
0.0
  0
VERTEX
  5
E15
  8
PANEL
 10
20.000243999999999
 20
17.782389999999999
 30
0.0
  0
VERTEX
  5
E16
  8
PANEL
 10
19.865144000000001
 20
17.860389999999992
 30
0.0
 42
0.4189020000000001
  0
VERTEX
  5
E17
  8
PANEL
 10
19.734548
 20
17.793865
 30
0.0
  0
SEQEND
  5
E18
  8
PANEL
  0
POLYLINE
  5
64D
  8
PANEL
 66
     1
 10
0.0
 20
0.0
 30
0.0
  0
VERTEX
  5
E19
  8
PANEL
 10
21.050557999999999
 20
17.144915000000001
 30
0.0
 42
0.194784
  0
VERTEX
  5
E1A
  8
PANEL
 10
21.001369
 20
17.20439
 30
0.0
  0
VERTEX
  5
E1B
  8
PANEL
 10
20.913268999999989
 20
17.255254999999991
 30
0.0
 42
0.4189020000000001
  0
SEQEND
  5
E1C
  8
PANEL
  0
POLYLINE
  5
652
  8
STRAP
 66
     1
 10
0.0
 20
0.0
 30
0.0
  0
VERTEX
  5
E1D
  8
STRAP
 10
20.000243999999999
 20
19.072129
 30
0.0
  0
VERTEX
  5
E1E
  8
STRAP
 10
20.000243999999999
 20
17.609389999999991
 30
0.0
 42
0.106617
  0
SEQEND
  5
E1F
  8
STRAP
  0
POLYLINE
  5
656
  8
STRAP
 66
     1
 10
0.0
 20
0.0
 30
0.0
  0
VERTEX
  5
E20
  8
STRAP
 10
20.866268999999999
 20
18.572129
 30
0.0
  0
VERTEX
  5
E21
  8
STRAP
 10
20.866268999999999
 20
17.109389999999991
 30
0.0
 42
0.106617
  0
SEQEND
  5
E22
  8
STRAP
  0
POLYLINE
  5
65A
  8
STRAP
 66
     1
 10
0.0
 20
0.0
 30
0.0
  0
VERTEX
  5
E23
  8
STRAP
 10
20.913268999999989
 20
17.082255
 30
0.0
  0
VERTEX
  5
E24
  8
STRAP
 10
20.913268999999989
 20
18.544993999999988
 30
0.0
  0
SEQEND
  5
E25
  8
STRAP
  0
POLYLINE
  5
65E
  8
PANEL
 66
     1
 10
0.0
 20
0.0
 30
0.0
  0
VERTEX
  5
E26
  8
PANEL
 10
19.810873000000001
 20
19.352463
 30
0.0
 42
-0.267949
  0
VERTEX
  5
E27
  8
PANEL
 10
19.783736999999991
 20
19.399463000000001
 30
0.0
  0
VERTEX
  5
E28
  8
PANEL
 10
19.783736999999991
 20
19.509129000000001
 30
0.0
  0
VERTEX
  5
E29
  8
PANEL
 10
19.743033999999991
 20
19.485628999999989
 30
0.0
 42
0.5773500000000001
  0
VERTEX
  5
E2A
  8
PANEL
 10
19.743033999999991
 20
19.391628999999998
 30
0.0
  0
VERTEX
  5
E2B
  8
PANEL
 10
20.879259000000001
 20
18.735628999999989
 30
0.0
 42
0.267949
  0
VERTEX
  5
E2C
  8
PANEL
 10
21.042072000000001
 20
18.735628999999989
 30
0.0
  0
VERTEX
  5
E2D
  8
PANEL
 10
21.082775000000002
 20
18.759129000000001
 30
0.0
  0
SEQEND
  5
E2E
  8
PANEL
  0
LINE
  5
668
  8
STRAP
 10
23.08386599999999
 20
21.038378000000002
 30
0.0
 11
22.217839999999988
 21
21.538378000000002
 31
0.0
  0
POLYLINE
  5
669
  8
STRAP
 66
     1
 10
0.0
 20
0.0
 30
0.0
  0
VERTEX
  5
E2F
  8
STRAP
 10
22.550050999999989
 20
17.911998000000001
 30
0.0
  0
VERTEX
  5
E30
  8
STRAP
 10
22.550050999999989
 20
20.359383999999999
 30
0.0
  0
VERTEX
  5
E31
  8
STRAP
 10
22.598320000000001
 20
20.387252
 30
0.0
  0
VERTEX
  5
E32
  8
STRAP
 10
23.417345000000001
 20
19.914387999999999
 30
0.0
  0
SEQEND
  5
E33
  8
STRAP
  0
POLYLINE
  5
66F
  8
STRAP
 66
     1
 10
0.0
 20
0.0
 30
0.0
  0
VERTEX
  5
E34
  8
STRAP
 10
22.645320000000002
 20
20.360116999999999
 30
0.0
  0
VERTEX
  5
E35
  8
STRAP
 10
22.645320000000002
 20
20.724523000000001
 30
0.0
 42
0.5912950000000001
  0
SEQEND
  5
E36
  8
STRAP
  0
LINE
  5
673
  8
STRAP
 10
23.369075999999989
 20
19.886518999999989
 30
0.0
 11
23.416076
 21
19.913654999999991
 31
0.0
  0
POLYLINE
  5
674
  8
STRAP
 66
     1
 10
0.0
 20
0.0
 30
0.0
  0
VERTEX
  5
E37
  8
STRAP
 10
16.698954999999991
 20
19.320129000000001
 30
0.0
  0
VERTEX
  5
E38
  8
STRAP
 10
16.698954999999991
 20
18.103387999999999
 30
0.0
 42
0.106617
  0
VERTEX
  5
E39
  8
STRAP
 10
16.818124999999991
 20
17.55087
 30
0.0
 42
0.156851
  0
VERTEX
  5
E3A
  8
STRAP
 10
17.079433999999999
 20
17.262398000000001
 30
0.0
 42
0.000005
  0
VERTEX
  5
E3B
  8
STRAP
 10
17.079446000000001
 20
17.262391000000001
 30
0.0
 42
0.106617
  0
SEQEND
  5
E3C
  8
STRAP
  0
LINE
  5
67B
  8
STRAP
 10
17.945460000000001
 20
16.762398000000001
 30
0.0
 11
17.079433999999999
 21
17.262398000000001
 31
0.0
  0
POLYLINE
  5
67C
  8
PANEL
 66
     1
 10
0.0
 20
0.0
 30
0.0
  0
VERTEX
  5
E3D
  8
PANEL
 10
16.482448000000002
 20
19.64039
 30
0.0
  0
VERTEX
  5
E3E
  8
PANEL
 10
17.618673999999992
 20
18.984389999999991
 30
0.0
 42
0.91714
  0
VERTEX
  5
E3F
  8
PANEL
 10
17.700079999999989
 20
19.17239
 30
0.0
  0
VERTEX
  5
E40
  8
PANEL
 10
17.611979999999999
 20
19.223254999999991
 30
0.0
 42
0.91714
  0
SEQEND
  5
E41
  8
PANEL
  0
POLYLINE
  5
682
  8
PANEL
 66
     1
 10
0.0
 20
0.0
 30
0.0
  0
VERTEX
  5
E42
  8
PANEL
 10
16.698954999999991
 20
19.750389999999989
 30
0.0
  0
VERTEX
  5
E43
  8
PANEL
 10
16.563855
 20
19.828389999999999
 30
0.0
 42
0.91714
  0
VERTEX
  5
E44
  8
PANEL
 10
16.482448000000002
 20
19.64039
 30
0.0
  0
SEQEND
  5
E45
  8
PANEL
  0
POLYLINE
  5
687
  8
PANEL
 66
     1
 10
0.0
 20
0.0
 30
0.0
  0
VERTEX
  5
E46
  8
PANEL
 10
16.698954999999991
 20
19.688389999999998
 30
0.0
  0
VERTEX
  5
E47
  8
PANEL
 10
16.563855
 20
19.766389999999991
 30
0.0
 42
0.4189020000000001
  0
VERTEX
  5
E48
  8
PANEL
 10
16.433258999999989
 20
19.699864999999999
 30
0.0
  0
SEQEND
  5
E49
  8
PANEL
  0
POLYLINE
  5
68C
  8
PANEL
 66
     1
 10
0.0
 20
0.0
 30
0.0
  0
VERTEX
  5
E4A
  8
PANEL
 10
17.749269000000002
 20
19.050915
 30
0.0
 42
0.194784
  0
VERTEX
  5
E4B
  8
PANEL
 10
17.700079999999989
 20
19.110389999999992
 30
0.0
  0
VERTEX
  5
E4C
  8
PANEL
 10
17.611979999999999
 20
19.161255000000001
 30
0.0
 42
0.4189020000000001
  0
SEQEND
  5
E4D
  8
PANEL
  0
POLYLINE
  5
691
  8
STRAP
 66
     1
 10
0.0
 20
0.0
 30
0.0
  0
VERTEX
  5
E4E
  8
STRAP
 10
16.698954999999991
 20
20.978128999999999
 30
0.0
  0
VERTEX
  5
E4F
  8
STRAP
 10
16.698954999999991
 20
19.51539
 30
0.0
 42
0.106617
  0
SEQEND
  5
E50
  8
STRAP
  0
POLYLINE
  5
695
  8
STRAP
 66
     1
 10
0.0
 20
0.0
 30
0.0
  0
VERTEX
  5
E51
  8
STRAP
 10
17.564979999999991
 20
20.478128999999988
 30
0.0
  0
VERTEX
  5
E52
  8
STRAP
 10
17.564979999999991
 20
19.01539
 30
0.0
 42
0.106617
  0
SEQEND
  5
E53
  8
STRAP
  0
POLYLINE
  5
699
  8
STRAP
 66
     1
 10
0.0
 20
0.0
 30
0.0
  0
VERTEX
  5
E54
  8
STRAP
 10
17.611979999999999
 20
18.988254999999999
 30
0.0
  0
VERTEX
  5
E55
  8
STRAP
 10
17.611979999999999
 20
20.450994000000001
 30
0.0
  0
SEQEND
  5
E56
  8
STRAP
  0
POLYLINE
  5
69D
  8
PANEL
 66
     1
 10
0.0
 20
0.0
 30
0.0
  0
VERTEX
  5
E57
  8
PANEL
 10
16.509584
 20
21.258462999999999
 30
0.0
 42
-0.267949
  0
VERTEX
  5
E58
  8
PANEL
 10
16.482448000000002
 20
21.305463
 30
0.0
  0
VERTEX
  5
E59
  8
PANEL
 10
16.482448000000002
 20
21.41512899999999
 30
0.0
  0
VERTEX
  5
E5A
  8
PANEL
 10
16.441745000000001
 20
21.391628999999998
 30
0.0
 42
0.5773500000000001
  0
VERTEX
  5
E5B
  8
PANEL
 10
16.441745000000001
 20
21.297629000000001
 30
0.0
  0
VERTEX
  5
E5C
  8
PANEL
 10
17.577970999999991
 20
20.641628999999998
 30
0.0
 42
0.267949
  0
VERTEX
  5
E5D
  8
PANEL
 10
17.740783
 20
20.641628999999998
 30
0.0
  0
VERTEX
  5
E5E
  8
PANEL
 10
17.781486999999998
 20
20.665129
 30
0.0
  0
SEQEND
  5
E5F
  8
PANEL
  0
LINE
  5
6A7
  8
STRAP
 10
19.782577
 20
22.944378
 30
0.0
 11
18.916551999999989
 21
23.444378
 31
0.0
  0
POLYLINE
  5
6A8
  8
STRAP
 66
     1
 10
0.0
 20
0.0
 30
0.0
  0
VERTEX
  5
E60
  8
STRAP
 10
19.248761999999989
 20
19.817997999999999
 30
0.0
  0
VERTEX
  5
E61
  8
STRAP
 10
19.248761999999989
 20
22.265384000000001
 30
0.0
  0
VERTEX
  5
E62
  8
STRAP
 10
19.297031
 20
22.293251999999988
 30
0.0
  0
VERTEX
  5
E63
  8
STRAP
 10
20.116056
 20
21.820388000000001
 30
0.0
  0
SEQEND
  5
E64
  8
STRAP
  0
POLYLINE
  5
6AE
  8
STRAP
 66
     1
 10
0.0
 20
0.0
 30
0.0
  0
VERTEX
  5
E65
  8
STRAP
 10
19.344031000000001
 20
22.266117000000001
 30
0.0
  0
VERTEX
  5
E66
  8
STRAP
 10
19.344031000000001
 20
22.630523
 30
0.0
 42
0.5912950000000001
  0
SEQEND
  5
E67
  8
STRAP
  0
POLYLINE
  5
6B2
  8
STRAP
 66
     1
 10
0.0
 20
0.0
 30
0.0
  0
VERTEX
  5
E68
  8
STRAP
 10
17.670608999999988
 20
17.218387
 30
0.0
 42
0.066338
  0
VERTEX
  5
E69
  8
STRAP
 10
17.997993000000001
 20
17.353387999999999
 30
0.0
 42
0.132145
  0
VERTEX
  5
E6A
  8
STRAP
 10
18.768429000000001
 20
18.125318
 30
0.0
 42
0.058752
  0
SEQEND
  5
E6B
  8
STRAP
  0
LINE
  5
6B7
  8
STRAP
 10
20.067786999999988
 20
21.792518999999999
 30
0.0
 11
20.114787
 21
21.819655000000001
 31
0.0
  0
POLYLINE
  5
6B8
  8
STRAP
 66
     1
 10
0.0
 20
0.0
 30
0.0
  0
VERTEX
  5
E6C
  8
STRAP
 10
19.248761999999989
 20
22.265384000000001
 30
0.0
  0
VERTEX
  5
E6D
  8
STRAP
 10
20.067786999999988
 20
21.792518999999999
 30
0.0
  0
VERTEX
  5
E6E
  8
STRAP
 10
20.067786999999988
 20
19.727226000000002
 30
0.0
 42
-0.072341
  0
SEQEND
  5
E6F
  8
STRAP
  0
POLYLINE
  5
6BD
  8
STRAP
 66
     1
 10
0.0
 20
0.0
 30
0.0
  0
VERTEX
  5
E70
  8
STRAP
 10
20.114787
 20
19.883452999999989
 30
0.0
  0
VERTEX
  5
E71
  8
STRAP
 10
20.114787
 20
21.819655000000001
 30
0.0
 42
0.081615
  0
SEQEND
  5
E72
  8
STRAP
  0
POLYLINE
  5
6C1
  8
STRAP
 66
     1
 10
0.0
 20
0.0
 30
0.0
  0
VERTEX
  5
E73
  8
STRAP
 10
23.416076
 20
17.977453000000001
 30
0.0
  0
VERTEX
  5
E74
  8
STRAP
 10
23.416076
 20
19.913654999999991
 30
0.0
 42
0.081615
  0
SEQEND
  5
E75
  8
STRAP
  0
POLYLINE
  5
6C5
  8
STRAP
 66
     1
 10
0.0
 20
0.0
 30
0.0
  0
VERTEX
  5
E76
  8
STRAP
 10
22.550050999999989
 20
20.359383999999999
 30
0.0
  0
VERTEX
  5
E77
  8
STRAP
 10
23.369075999999989
 20
19.886518999999989
 30
0.0
  0
VERTEX
  5
E78
  8
STRAP
 10
23.369075999999989
 20
17.821225999999999
 30
0.0
 42
-0.072341
  0
SEQEND
  5
E79
  8
STRAP
  0
POLYLINE
  5
6CA
  8
STRAP
 66
     1
 10
0.0
 20
0.0
 30
0.0
  0
VERTEX
  5
E7A
  8
STRAP
 10
26.717365000000001
 20
16.071452999999991
 30
0.0
  0
VERTEX
  5
E7B
  8
STRAP
 10
26.717365000000001
 20
18.007654999999989
 30
0.0
 42
0.081615
  0
SEQEND
  5
E7C
  8
STRAP
  0
POLYLINE
  5
6CE
  8
STRAP
 66
     1
 10
0.0
 20
0.0
 30
0.0
  0
VERTEX
  5
E7D
  8
STRAP
 10
25.851338999999999
 20
18.453384
 30
0.0
  0
VERTEX
  5
E7E
  8
STRAP
 10
26.670365
 20
17.980519000000001
 30
0.0
  0
VERTEX
  5
E7F
  8
STRAP
 10
26.670365
 20
15.915226000000001
 30
0.0
 42
-0.072341
  0
SEQEND
  5
E80
  8
STRAP
  0
LINE
  5
6D3
  8
PANEL
 10
23.085025999999999
 20
17.603128999999988
 30
0.0
 11
21.082775000000002
 21
18.759129000000001
 31
0.0
  0
LINE
  5
6D4
  8
PANEL
 10
26.386315
 20
15.697129
 30
0.0
 11
24.384063999999999
 21
16.853128999999999
 31
0.0
  0
LINE
  5
6D5
  8
PANEL
 10
16.482448000000002
 20
21.41512899999999
 30
0.0
 11
14.694972
 21
22.447129
 31
0.0
  0
LINE
  5
6D6
  8
PANEL
 10
16.428578999999999
 20
19.726230999999991
 30
0.0
 11
14.641277999999989
 21
20.758129
 31
0.0
  0
LINE
  5
6D7
  8
PANEL
 10
26.332446000000001
 20
14.008231
 30
0.0
 11
24.303272
 21
15.17977499999999
 31
0.0
  0
LINE
  5
6D8
  8
PANEL
 10
23.031157
 20
15.914230999999999
 30
0.0
 11
21.001982999999999
 21
17.085775000000002
 31
0.0
  0
POLYLINE
  5
6D9
  8
STRAP
 66
     1
 10
0.0
 20
0.0
 30
0.0
  0
VERTEX
  5
E81
  8
STRAP
 10
19.610866999999999
 20
17.63893599999999
 30
0.0
 42
-0.039056
  0
VERTEX
  5
E82
  8
STRAP
 10
19.304304999999989
 20
17.260041999999999
 30
0.0
 42
-0.072341
  0
VERTEX
  5
E83
  8
STRAP
 10
18.840517999999989
 20
16.894090999999989
 30
0.0
 42
-0.106617
  0
VERTEX
  5
E84
  8
STRAP
 10
18.321306
 20
16.727104999999991
 30
0.0
 42
-0.156851
  0
VERTEX
  5
E85
  8
STRAP
 10
17.968959999999999
 20
16.803101000000002
 30
0.0
 42
-0.156851
  0
VERTEX
  5
E86
  8
STRAP
 10
17.726972
 20
17.070243999999992
 30
0.0
 42
-0.106617
  0
VERTEX
  5
E87
  8
STRAP
 10
17.611979999999999
 20
17.603387999999988
 30
0.0
  0
VERTEX
  5
E88
  8
STRAP
 10
17.611979999999999
 20
18.792994
 30
0.0
  0
SEQEND
  5
E89
  8
STRAP
  0
POLYLINE
  5
6E3
  8
STRAP
 66
     1
 10
0.0
 20
0.0
 30
0.0
  0
VERTEX
  5
E8A
  8
STRAP
 10
17.564979999999991
 20
18.820129000000001
 30
0.0
  0
VERTEX
  5
E8B
  8
STRAP
 10
17.564979999999991
 20
17.603387999999988
 30
0.0
 42
0.106617
  0
VERTEX
  5
E8C
  8
STRAP
 10
17.684149999999999
 20
17.050869999999989
 30
0.0
 42
0.156851
  0
VERTEX
  5
E8D
  8
STRAP
 10
17.945460000000001
 20
16.762398000000001
 30
0.0
 42
0.156851
  0
VERTEX
  5
E8E
  8
STRAP
 10
18.325939000000002
 20
16.680333999999991
 30
0.0
 42
0.106617
  0
VERTEX
  5
E8F
  8
STRAP
 10
18.864017999999991
 20
16.853387999999999
 30
0.0
 42
0.072341
  0
VERTEX
  5
E90
  8
STRAP
 10
19.338425999999998
 20
17.227720000000001
 30
0.0
 42
0.039348
  0
VERTEX
  5
E91
  8
STRAP
 10
19.651693999999988
 20
17.615365000000001
 30
0.0
 42
0.058752
  0
SEQEND
  5
E92
  8
STRAP
  0
POLYLINE
  5
6ED
  8
STRAP
 66
     1
 10
0.0
 20
0.0
 30
0.0
  0
VERTEX
  5
E93
  8
STRAP
 10
22.912156
 20
15.73293599999999
 30
0.0
 42
-0.039056
  0
VERTEX
  5
E94
  8
STRAP
 10
22.605592999999999
 20
15.354042
 30
0.0
 42
-0.072341
  0
VERTEX
  5
E95
  8
STRAP
 10
22.141807
 20
14.988091000000001
 30
0.0
 42
-0.106617
  0
VERTEX
  5
E96
  8
STRAP
 10
21.622595
 20
14.821104999999999
 30
0.0
 42
-0.156851
  0
VERTEX
  5
E97
  8
STRAP
 10
21.270248999999989
 20
14.897100999999999
 30
0.0
 42
-0.156851
  0
VERTEX
  5
E98
  8
STRAP
 10
21.02826099999999
 20
15.164244
 30
0.0
 42
-0.106617
  0
VERTEX
  5
E99
  8
STRAP
 10
20.913268999999989
 20
15.697388
 30
0.0
  0
VERTEX
  5
E9A
  8
STRAP
 10
20.913268999999989
 20
16.886994000000001
 30
0.0
  0
SEQEND
  5
E9B
  8
STRAP
  0
POLYLINE
  5
6F7
  8
STRAP
 66
     1
 10
0.0
 20
0.0
 30
0.0
  0
VERTEX
  5
E9C
  8
STRAP
 10
20.866268999999999
 20
16.914128999999988
 30
0.0
  0
VERTEX
  5
E9D
  8
STRAP
 10
20.866268999999999
 20
15.697388
 30
0.0
 42
0.106617
  0
VERTEX
  5
E9E
  8
STRAP
 10
20.985439
 20
15.144869999999999
 30
0.0
 42
0.156851
  0
VERTEX
  5
E9F
  8
STRAP
 10
21.246749000000001
 20
14.856398
 30
0.0
 42
0.156851
  0
VERTEX
  5
EA0
  8
STRAP
 10
21.627227999999999
 20
14.774333999999991
 30
0.0
 42
0.106617
  0
VERTEX
  5
EA1
  8
STRAP
 10
22.165306999999999
 20
14.947388
 30
0.0
 42
0.072341
  0
VERTEX
  5
EA2
  8
STRAP
 10
22.639714999999988
 20
15.321719999999999
 30
0.0
 42
0.039348
  0
VERTEX
  5
EA3
  8
STRAP
 10
22.952983
 20
15.709365
 30
0.0
 42
0.058752
  0
SEQEND
  5
EA4
  8
STRAP
  0
LINE
  5
701
  8
PANEL
 10
19.783736999999991
 20
19.509129000000001
 30
0.0
 11
17.781486999999998
 21
20.665129
 31
0.0
  0
LINE
  5
702
  8
PANEL
 10
19.729868
 20
17.820230999999989
 30
0.0
 11
17.700694999999989
 21
18.991775000000001
 31
0.0
  0
POLYLINE
  5
703
  8
STRAP
 66
     1
 10
0.0
 20
0.0
 30
0.0
  0
VERTEX
  5
EA5
  8
STRAP
 10
20.971896999999991
 20
15.312386999999999
 30
0.0
 42
0.066338
  0
VERTEX
  5
EA6
  8
STRAP
 10
21.299282000000002
 20
15.447388
 30
0.0
 42
0.132145
  0
VERTEX
  5
EA7
  8
STRAP
 10
22.069717999999991
 20
16.219317999999991
 30
0.0
 42
0.058752
  0
SEQEND
  5
EA8
  8
STRAP
  0
POLYLINE
  5
708
  8
STRAP
 66
     1
 10
0.0
 20
0.0
 30
0.0
  0
VERTEX
  5
EA9
  8
STRAP
 10
24.273185999999988
 20
13.40638699999999
 30
0.0
 42
0.066338
  0
VERTEX
  5
EAA
  8
STRAP
 10
24.600570999999999
 20
13.541388
 30
0.0
 42
0.132145
  0
VERTEX
  5
EAB
  8
STRAP
 10
25.371006999999999
 20
14.31331799999999
 30
0.0
 42
0.058752
  0
SEQEND
  5
EAC
  8
STRAP
  0
POLYLINE
  5
70D
  8
STRAP
 66
     1
 10
0.0
 20
0.0
 30
0.0
  0
VERTEX
  5
EAD
  8
STRAP
 10
27.574487000000001
 20
11.50038099999999
 30
0.0
 42
0.066338
  0
VERTEX
  5
EAE
  8
STRAP
 10
27.901871
 20
11.635381000000001
 30
0.0
 42
0.132145
  0
VERTEX
  5
EAF
  8
STRAP
 10
28.672307
 20
12.407311
 30
0.0
 42
0.058752
  0
SEQEND
  5
EB0
  8
STRAP
  0
LINE
  5
712
  8
STRAP
 10
32.987732000000001
 20
15.320378
 30
0.0
 11
32.121707000000001
 21
15.820378
 31
0.0
  0
POLYLINE
  5
713
  8
STRAP
 66
     1
 10
0.0
 20
0.0
 30
0.0
  0
VERTEX
  5
EB1
  8
STRAP
 10
32.45391699999999
 20
12.19399799999999
 30
0.0
  0
VERTEX
  5
EB2
  8
STRAP
 10
32.45391699999999
 20
14.641384
 30
0.0
  0
VERTEX
  5
EB3
  8
STRAP
 10
32.502186000000002
 20
14.66925199999999
 30
0.0
  0
VERTEX
  5
EB4
  8
STRAP
 10
33.321212000000003
 20
14.196388000000001
 30
0.0
  0
SEQEND
  5
EB5
  8
STRAP
  0
POLYLINE
  5
719
  8
STRAP
 66
     1
 10
0.0
 20
0.0
 30
0.0
  0
VERTEX
  5
EB6
  8
STRAP
 10
32.45391699999999
 20
14.641384
 30
0.0
  0
VERTEX
  5
EB7
  8
STRAP
 10
33.272942
 20
14.168519
 30
0.0
  0
VERTEX
  5
EB8
  8
STRAP
 10
33.272942
 20
11.721133
 30
0.0
 42
-0.072341
  0
SEQEND
  5
EB9
  8
STRAP
  0
POLYLINE
  5
71E
  8
STRAP
 66
     1
 10
0.0
 20
0.0
 30
0.0
  0
VERTEX
  5
EBA
  8
STRAP
 10
32.549185999999992
 20
14.642117000000001
 30
0.0
  0
VERTEX
  5
EBB
  8
STRAP
 10
32.549185999999992
 20
15.006523
 30
0.0
 42
0.5912950000000001
  0
SEQEND
  5
EBC
  8
STRAP
  0
POLYLINE
  5
722
  8
STRAP
 66
     1
 10
0.0
 20
0.0
 30
0.0
  0
VERTEX
  5
EBD
  8
STRAP
 10
33.319941999999998
 20
11.69399799999999
 30
0.0
  0
VERTEX
  5
EBE
  8
STRAP
 10
33.319941999999998
 20
14.195655
 30
0.0
 42
0.081615
  0
SEQEND
  5
EBF
  8
STRAP
  0
LINE
  5
726
  8
STRAP
 10
33.272942
 20
14.168519
 30
0.0
 11
33.319941999999998
 21
14.195655
 31
0.0
  0
POLYLINE
  5
727
  8
STRAP
 66
     1
 10
0.0
 20
0.0
 30
0.0
  0
VERTEX
  5
EC0
  8
STRAP
 10
30.77013599999999
 20
11.19612899999999
 30
0.0
  0
VERTEX
  5
EC1
  8
STRAP
 10
30.77013599999999
 20
9.9793880000000001
 30
0.0
 42
0.106617
  0
VERTEX
  5
EC2
  8
STRAP
 10
30.889306000000001
 20
9.4268699999999992
 30
0.0
 42
0.156851
  0
VERTEX
  5
EC3
  8
STRAP
 10
31.150614999999998
 20
9.1383980000000005
 30
0.0
 42
0.156851
  0
VERTEX
  5
EC4
  8
STRAP
 10
31.531093999999989
 20
9.0563339999999997
 30
0.0
 42
0.106617
  0
VERTEX
  5
EC5
  8
STRAP
 10
32.069173999999997
 20
9.2293880000000001
 30
0.0
 42
0.072341
  0
VERTEX
  5
EC6
  8
STRAP
 10
32.543581000000003
 20
9.6037199999999991
 30
0.0
 42
0.052228
  0
VERTEX
  5
EC7
  8
STRAP
 10
32.945554999999992
 20
10.12815
 30
0.0
 42
0.058752
  0
SEQEND
  5
EC8
  8
STRAP
  0
POLYLINE
  5
731
  8
STRAP
 66
     1
 10
0.0
 20
0.0
 30
0.0
  0
VERTEX
  5
EC9
  8
STRAP
 10
32.904837999999998
 20
10.151657999999991
 30
0.0
 42
-0.05213
  0
VERTEX
  5
ECA
  8
STRAP
 10
32.50945999999999
 20
9.6360419999999998
 30
0.0
 42
-0.072341
  0
VERTEX
  5
ECB
  8
STRAP
 10
32.045673999999998
 20
9.2700910000000007
 30
0.0
 42
-0.106617
  0
VERTEX
  5
ECC
  8
STRAP
 10
31.526461000000001
 20
9.1031050000000011
 30
0.0
 42
-0.156851
  0
VERTEX
  5
ECD
  8
STRAP
 10
31.174115
 20
9.1791009999999993
 30
0.0
 42
-0.156851
  0
VERTEX
  5
ECE
  8
STRAP
 10
30.932127000000001
 20
9.4462440000000001
 30
0.0
 42
-0.106617
  0
VERTEX
  5
ECF
  8
STRAP
 10
30.817136000000001
 20
9.9793880000000001
 30
0.0
  0
VERTEX
  5
ED0
  8
STRAP
 10
30.817136000000001
 20
11.168994
 30
0.0
  0
SEQEND
  5
ED1
  8
STRAP
  0
POLYLINE
  5
73B
  8
STRAP
 66
     1
 10
0.0
 20
0.0
 30
0.0
  0
VERTEX
  5
ED2
  8
STRAP
 10
29.904109999999989
 20
11.69612899999999
 30
0.0
  0
VERTEX
  5
ED3
  8
STRAP
 10
29.904109999999989
 20
10.479388
 30
0.0
 42
0.106617
  0
VERTEX
  5
ED4
  8
STRAP
 10
30.02328
 20
9.9268699999999992
 30
0.0
 42
0.156851
  0
VERTEX
  5
ED5
  8
STRAP
 10
30.284590000000001
 20
9.6383980000000005
 30
0.0
 42
0.000005
  0
VERTEX
  5
ED6
  8
STRAP
 10
30.284600999999999
 20
9.6383910000000004
 30
0.0
 42
0.106617
  0
SEQEND
  5
ED7
  8
STRAP
  0
POLYLINE
  5
742
  8
STRAP
 66
     1
 10
0.0
 20
0.0
 30
0.0
  0
VERTEX
  5
ED8
  8
STRAP
 10
30.875775000000001
 20
9.5943810000000003
 30
0.0
 42
0.066338
  0
VERTEX
  5
ED9
  8
STRAP
 10
31.20315999999999
 20
9.7293810000000001
 30
0.0
 42
0.132145
  0
VERTEX
  5
EDA
  8
STRAP
 10
31.973596000000001
 20
10.501310999999991
 30
0.0
 42
0.058752
  0
SEQEND
  5
EDB
  8
STRAP
  0
LINE
  5
747
  8
STRAP
 10
31.150614999999998
 20
9.1383980000000005
 30
0.0
 11
30.284590000000001
 21
9.6383980000000005
 31
0.0
  0
POLYLINE
  5
748
  8
PANEL
 66
     1
 10
0.0
 20
0.0
 30
0.0
  0
VERTEX
  5
EDC
  8
PANEL
 10
29.904109999999989
 20
12.126390000000001
 30
0.0
  0
VERTEX
  5
EDD
  8
PANEL
 10
29.769009999999991
 20
12.20439
 30
0.0
 42
0.91714
  0
VERTEX
  5
EDE
  8
PANEL
 10
29.68760399999999
 20
12.016389999999999
 30
0.0
  0
SEQEND
  5
EDF
  8
PANEL
  0
POLYLINE
  5
74D
  8
STRAP
 66
     1
 10
0.0
 20
0.0
 30
0.0
  0
VERTEX
  5
EE0
  8
STRAP
 10
30.817136000000001
 20
11.364255
 30
0.0
  0
VERTEX
  5
EE1
  8
STRAP
 10
30.817136000000001
 20
12.826993999999999
 30
0.0
  0
SEQEND
  5
EE2
  8
STRAP
  0
POLYLINE
  5
751
  8
STRAP
 66
     1
 10
0.0
 20
0.0
 30
0.0
  0
VERTEX
  5
EE3
  8
STRAP
 10
30.77013599999999
 20
12.85412899999999
 30
0.0
  0
VERTEX
  5
EE4
  8
STRAP
 10
30.77013599999999
 20
11.391389999999991
 30
0.0
 42
0.106617
  0
SEQEND
  5
EE5
  8
STRAP
  0
POLYLINE
  5
755
  8
STRAP
 66
     1
 10
0.0
 20
0.0
 30
0.0
  0
VERTEX
  5
EE6
  8
STRAP
 10
29.904109999999989
 20
13.354129
 30
0.0
  0
VERTEX
  5
EE7
  8
STRAP
 10
29.904109999999989
 20
11.891389999999991
 30
0.0
 42
0.106617
  0
SEQEND
  5
EE8
  8
STRAP
  0
POLYLINE
  5
759
  8
PANEL
 66
     1
 10
0.0
 20
0.0
 30
0.0
  0
VERTEX
  5
EE9
  8
PANEL
 10
29.68760399999999
 20
12.016389999999999
 30
0.0
  0
VERTEX
  5
EEA
  8
PANEL
 10
30.823828999999989
 20
11.360390000000001
 30
0.0
 42
0.91714
  0
VERTEX
  5
EEB
  8
PANEL
 10
30.905235999999999
 20
11.548389999999991
 30
0.0
  0
VERTEX
  5
EEC
  8
PANEL
 10
30.817136000000001
 20
11.599254999999991
 30
0.0
 42
0.91714
  0
SEQEND
  5
EED
  8
PANEL
  0
POLYLINE
  5
75F
  8
PANEL
 66
     1
 10
0.0
 20
0.0
 30
0.0
  0
VERTEX
  5
EEE
  8
PANEL
 10
29.904109999999989
 20
12.06439
 30
0.0
  0
VERTEX
  5
EEF
  8
PANEL
 10
29.769009999999991
 20
12.142390000000001
 30
0.0
 42
0.4189020000000001
  0
VERTEX
  5
EF0
  8
PANEL
 10
29.638414999999998
 20
12.075865
 30
0.0
  0
SEQEND
  5
EF1
  8
PANEL
  0
POLYLINE
  5
764
  8
PANEL
 66
     1
 10
0.0
 20
0.0
 30
0.0
  0
VERTEX
  5
EF2
  8
PANEL
 10
30.954425000000001
 20
11.42691499999999
 30
0.0
 42
0.194784
  0
VERTEX
  5
EF3
  8
PANEL
 10
30.905235999999999
 20
11.486389999999989
 30
0.0
  0
VERTEX
  5
EF4
  8
PANEL
 10
30.817136000000001
 20
11.537254999999989
 30
0.0
 42
0.4189020000000001
  0
SEQEND
  5
EF5
  8
PANEL
  0
POLYLINE
  5
769
  8
PANEL
 66
     1
 10
0.0
 20
0.0
 30
0.0
  0
VERTEX
  5
EF6
  8
PANEL
 10
29.714739000000002
 20
13.634463
 30
0.0
 42
-0.267949
  0
VERTEX
  5
EF7
  8
PANEL
 10
29.68760399999999
 20
13.681463000000001
 30
0.0
  0
VERTEX
  5
EF8
  8
PANEL
 10
29.68760399999999
 20
13.791129
 30
0.0
  0
VERTEX
  5
EF9
  8
PANEL
 10
29.646901
 20
13.767628999999999
 30
0.0
 42
0.5773500000000001
  0
VERTEX
  5
EFA
  8
PANEL
 10
29.646901
 20
13.673629
 30
0.0
  0
VERTEX
  5
EFB
  8
PANEL
 10
30.783125999999999
 20
13.017628999999991
 30
0.0
 42
0.267949
  0
VERTEX
  5
EFC
  8
PANEL
 10
30.945938999999999
 20
13.017628999999991
 30
0.0
  0
VERTEX
  5
EFD
  8
PANEL
 10
30.986641999999989
 20
13.041129
 30
0.0
  0
SEQEND
  5
EFE
  8
PANEL
  0
POLYLINE
  5
773
  8
STRAP
 66
     1
 10
0.0
 20
0.0
 30
0.0
  0
VERTEX
  5
EFF
  8
STRAP
 10
30.018653999999991
 20
14.165452999999999
 30
0.0
  0
VERTEX
  5
F00
  8
STRAP
 10
30.018653999999991
 20
16.10165499999999
 30
0.0
 42
0.081615
  0
SEQEND
  5
F01
  8
STRAP
  0
POLYLINE
  5
777
  8
STRAP
 66
     1
 10
0.0
 20
0.0
 30
0.0
  0
VERTEX
  5
F02
  8
STRAP
 10
29.152628
 20
16.547384000000001
 30
0.0
  0
VERTEX
  5
F03
  8
STRAP
 10
29.971654000000001
 20
16.074518999999999
 30
0.0
  0
VERTEX
  5
F04
  8
STRAP
 10
29.971654000000001
 20
14.009226
 30
0.0
 42
-0.072341
  0
SEQEND
  5
F05
  8
STRAP
  0
POLYLINE
  5
77C
  8
STRAP
 66
     1
 10
0.0
 20
0.0
 30
0.0
  0
VERTEX
  5
F06
  8
STRAP
 10
29.514733
 20
11.92093599999999
 30
0.0
 42
-0.039056
  0
VERTEX
  5
F07
  8
STRAP
 10
29.208171
 20
11.542042
 30
0.0
 42
-0.072341
  0
VERTEX
  5
F08
  8
STRAP
 10
28.744385000000001
 20
11.176090999999991
 30
0.0
 42
-0.106617
  0
VERTEX
  5
F09
  8
STRAP
 10
28.225172999999991
 20
11.009105
 30
0.0
 42
-0.156851
  0
VERTEX
  5
F0A
  8
STRAP
 10
27.872826
 20
11.085100999999989
 30
0.0
 42
-0.156851
  0
VERTEX
  5
F0B
  8
STRAP
 10
27.630838000000001
 20
11.352244000000001
 30
0.0
 42
-0.106617
  0
VERTEX
  5
F0C
  8
STRAP
 10
27.51584699999999
 20
11.885388000000001
 30
0.0
  0
VERTEX
  5
F0D
  8
STRAP
 10
27.51584699999999
 20
13.074994
 30
0.0
  0
SEQEND
  5
F0E
  8
STRAP
  0
POLYLINE
  5
786
  8
STRAP
 66
     1
 10
0.0
 20
0.0
 30
0.0
  0
VERTEX
  5
F0F
  8
STRAP
 10
27.46884699999999
 20
13.102129
 30
0.0
  0
VERTEX
  5
F10
  8
STRAP
 10
27.46884699999999
 20
11.885388000000001
 30
0.0
 42
0.106617
  0
VERTEX
  5
F11
  8
STRAP
 10
27.58801699999999
 20
11.332869999999989
 30
0.0
 42
0.156851
  0
VERTEX
  5
F12
  8
STRAP
 10
27.849326000000001
 20
11.04439799999999
 30
0.0
 42
0.156851
  0
VERTEX
  5
F13
  8
STRAP
 10
28.229806
 20
10.962334
 30
0.0
 42
0.106617
  0
VERTEX
  5
F14
  8
STRAP
 10
28.767884999999989
 20
11.135388000000001
 30
0.0
 42
0.072341
  0
VERTEX
  5
F15
  8
STRAP
 10
29.242291999999999
 20
11.50972
 30
0.0
 42
0.039348
  0
VERTEX
  5
F16
  8
STRAP
 10
29.55556099999999
 20
11.89736499999999
 30
0.0
 42
0.058752
  0
SEQEND
  5
F17
  8
STRAP
  0
POLYLINE
  5
790
  8
STRAP
 66
     1
 10
0.0
 20
0.0
 30
0.0
  0
VERTEX
  5
F18
  8
STRAP
 10
24.167558
 20
15.008129
 30
0.0
  0
VERTEX
  5
F19
  8
STRAP
 10
24.167558
 20
13.791388
 30
0.0
 42
0.106617
  0
VERTEX
  5
F1A
  8
STRAP
 10
24.286728
 20
13.23887
 30
0.0
 42
0.156851
  0
VERTEX
  5
F1B
  8
STRAP
 10
24.548037000000001
 20
12.950398
 30
0.0
 42
0.156851
  0
VERTEX
  5
F1C
  8
STRAP
 10
24.928516999999999
 20
12.86833399999999
 30
0.0
 42
0.106617
  0
VERTEX
  5
F1D
  8
STRAP
 10
25.466595999999988
 20
13.041388
 30
0.0
 42
0.072341
  0
VERTEX
  5
F1E
  8
STRAP
 10
25.941002999999998
 20
13.41572
 30
0.0
 42
0.039348
  0
VERTEX
  5
F1F
  8
STRAP
 10
26.25427199999999
 20
13.803364999999999
 30
0.0
 42
0.058752
  0
SEQEND
  5
F20
  8
STRAP
  0
POLYLINE
  5
79A
  8
STRAP
 66
     1
 10
0.0
 20
0.0
 30
0.0
  0
VERTEX
  5
F21
  8
STRAP
 10
26.213443999999988
 20
13.826935999999989
 30
0.0
 42
-0.039056
  0
VERTEX
  5
F22
  8
STRAP
 10
25.906882
 20
13.448041999999999
 30
0.0
 42
-0.072341
  0
VERTEX
  5
F23
  8
STRAP
 10
25.443096000000001
 20
13.082091
 30
0.0
 42
-0.106617
  0
VERTEX
  5
F24
  8
STRAP
 10
24.923884000000001
 20
12.915105000000001
 30
0.0
 42
-0.156851
  0
VERTEX
  5
F25
  8
STRAP
 10
24.571536999999999
 20
12.991101
 30
0.0
 42
-0.156851
  0
VERTEX
  5
F26
  8
STRAP
 10
24.329550000000001
 20
13.258243999999999
 30
0.0
 42
-0.106617
  0
VERTEX
  5
F27
  8
STRAP
 10
24.214558
 20
13.791388
 30
0.0
  0
VERTEX
  5
F28
  8
STRAP
 10
24.214558
 20
14.980994000000001
 30
0.0
  0
SEQEND
  5
F29
  8
STRAP
  0
POLYLINE
  5
7A4
  8
STRAP
 66
     1
 10
0.0
 20
0.0
 30
0.0
  0
VERTEX
  5
F2A
  8
STRAP
 10
30.817136000000001
 20
13.002867999999999
 30
0.0
  0
VERTEX
  5
F2B
  8
STRAP
 10
30.817136000000001
 20
13.198959
 30
0.0
 42
-0.088927
  0
VERTEX
  5
F2C
  8
STRAP
 10
31.191317999999988
 20
14.236217999999999
 30
0.0
 42
-0.058752
  0
VERTEX
  5
F2D
  8
STRAP
 10
31.628886999999992
 20
14.822732999999999
 30
0.0
 42
-0.072341
  0
VERTEX
  5
F2E
  8
STRAP
 10
32.092674000000002
 20
15.188685
 30
0.0
 42
-0.106617
  0
VERTEX
  5
F2F
  8
STRAP
 10
32.611885999999998
 20
15.35567099999999
 30
0.0
 42
-0.156851
  0
VERTEX
  5
F30
  8
STRAP
 10
32.964232000000003
 20
15.27967499999999
 30
0.0
 42
-0.156851
  0
VERTEX
  5
F31
  8
STRAP
 10
33.206220000000002
 20
15.012532
 30
0.0
 42
-0.106617
  0
VERTEX
  5
F32
  8
STRAP
 10
33.321212000000003
 20
14.479388
 30
0.0
  0
VERTEX
  5
F33
  8
STRAP
 10
33.321212000000003
 20
13.520721999999999
 30
0.0
  0
VERTEX
  5
F34
  8
STRAP
 10
33.368212
 20
13.547857
 30
0.0
  0
VERTEX
  5
F35
  8
STRAP
 10
33.368212
 20
14.479388
 30
0.0
 42
0.106617
  0
VERTEX
  5
F36
  8
STRAP
 10
33.249041999999989
 20
15.031904999999989
 30
0.0
 42
0.156851
  0
VERTEX
  5
F37
  8
STRAP
 10
32.987732000000001
 20
15.320378
 30
0.0
 42
0.156851
  0
VERTEX
  5
F38
  8
STRAP
 10
32.607253
 20
15.402442000000001
 30
0.0
 42
0.106617
  0
VERTEX
  5
F39
  8
STRAP
 10
32.069173999999997
 20
15.229388
 30
0.0
 42
0.072341
  0
VERTEX
  5
F3A
  8
STRAP
 10
31.594765999999989
 20
14.85505599999999
 30
0.0
 42
0.058752
  0
VERTEX
  5
F3B
  8
STRAP
 10
31.150614999999998
 20
14.259717999999999
 30
0.0
 42
0.089244
  0
VERTEX
  5
F3C
  8
STRAP
 10
30.77013599999999
 20
13.202921
 30
0.0
  0
VERTEX
  5
F3D
  8
STRAP
 10
30.77013599999999
 20
13.025128999999991
 30
0.0
 42
0.106617
  0
SEQEND
  5
F3E
  8
STRAP
  0
POLYLINE
  5
7BA
  8
STRAP
 66
     1
 10
0.0
 20
0.0
 30
0.0
  0
VERTEX
  5
F3F
  8
STRAP
 10
32.121718000000001
 20
15.820370999999991
 30
0.0
 42
0.000005
  0
VERTEX
  5
F40
  8
STRAP
 10
32.121707000000001
 20
15.820378
 30
0.0
 42
0.156851
  0
VERTEX
  5
F41
  8
STRAP
 10
31.741226999999999
 20
15.902442000000001
 30
0.0
 42
0.106617
  0
VERTEX
  5
F42
  8
STRAP
 10
31.203147999999999
 20
15.729388
 30
0.0
 42
0.072341
  0
VERTEX
  5
F43
  8
STRAP
 10
30.728740999999989
 20
15.355055999999999
 30
0.0
 42
0.058752
  0
VERTEX
  5
F44
  8
STRAP
 10
30.284590000000001
 20
14.759717999999991
 30
0.0
 42
0.089244
  0
VERTEX
  5
F45
  8
STRAP
 10
29.904109999999989
 20
13.702921
 30
0.0
  0
VERTEX
  5
F46
  8
STRAP
 10
29.904109999999989
 20
13.525129
 30
0.0
 42
0.106617
  0
SEQEND
  5
F47
  8
STRAP
  0
POLYLINE
  5
7C4
  8
STRAP
 66
     1
 10
0.0
 20
0.0
 30
0.0
  0
VERTEX
  5
F48
  8
STRAP
 10
27.51584699999999
 20
14.908868
 30
0.0
  0
VERTEX
  5
F49
  8
STRAP
 10
27.51584699999999
 20
15.104958999999999
 30
0.0
 42
-0.088927
  0
VERTEX
  5
F4A
  8
STRAP
 10
27.890028999999991
 20
16.142218
 30
0.0
 42
-0.058752
  0
VERTEX
  5
F4B
  8
STRAP
 10
28.327598999999999
 20
16.728732999999998
 30
0.0
 42
-0.072341
  0
VERTEX
  5
F4C
  8
STRAP
 10
28.791384999999991
 20
17.094684999999998
 30
0.0
 42
-0.106617
  0
VERTEX
  5
F4D
  8
STRAP
 10
29.310597000000001
 20
17.261671
 30
0.0
 42
-0.156851
  0
VERTEX
  5
F4E
  8
STRAP
 10
29.662942999999991
 20
17.185674999999989
 30
0.0
 42
-0.156851
  0
VERTEX
  5
F4F
  8
STRAP
 10
29.904931000000001
 20
16.918531999999988
 30
0.0
 42
-0.106617
  0
VERTEX
  5
F50
  8
STRAP
 10
30.019922999999991
 20
16.385387999999999
 30
0.0
  0
VERTEX
  5
F51
  8
STRAP
 10
30.019922999999991
 20
15.426722
 30
0.0
  0
VERTEX
  5
F52
  8
STRAP
 10
30.066922999999999
 20
15.453856999999999
 30
0.0
  0
VERTEX
  5
F53
  8
STRAP
 10
30.066922999999999
 20
16.385387999999999
 30
0.0
 42
0.106617
  0
VERTEX
  5
F54
  8
STRAP
 10
29.947752999999999
 20
16.93790499999999
 30
0.0
 42
0.156851
  0
VERTEX
  5
F55
  8
STRAP
 10
29.686443000000001
 20
17.226378
 30
0.0
 42
0.156851
  0
VERTEX
  5
F56
  8
STRAP
 10
29.305963999999999
 20
17.308441999999999
 30
0.0
 42
0.106617
  0
VERTEX
  5
F57
  8
STRAP
 10
28.767884999999989
 20
17.135387999999999
 30
0.0
 42
0.072341
  0
VERTEX
  5
F58
  8
STRAP
 10
28.293476999999999
 20
16.761056
 30
0.0
 42
0.058752
  0
VERTEX
  5
F59
  8
STRAP
 10
27.849326000000001
 20
16.165717999999998
 30
0.0
 42
0.089244
  0
VERTEX
  5
F5A
  8
STRAP
 10
27.46884699999999
 20
15.10892099999999
 30
0.0
  0
VERTEX
  5
F5B
  8
STRAP
 10
27.46884699999999
 20
14.931129
 30
0.0
 42
0.106617
  0
SEQEND
  5
F5C
  8
STRAP
  0
POLYLINE
  5
7DA
  8
STRAP
 66
     1
 10
0.0
 20
0.0
 30
0.0
  0
VERTEX
  5
F5D
  8
STRAP
 10
28.820429999999991
 20
17.726371
 30
0.0
 42
0.000005
  0
VERTEX
  5
F5E
  8
STRAP
 10
28.820418
 20
17.726378
 30
0.0
 42
0.156851
  0
VERTEX
  5
F5F
  8
STRAP
 10
28.439938999999999
 20
17.808441999999999
 30
0.0
 42
0.106617
  0
VERTEX
  5
F60
  8
STRAP
 10
27.901859000000002
 20
17.635387999999999
 30
0.0
 42
0.072341
  0
VERTEX
  5
F61
  8
STRAP
 10
27.427451999999999
 20
17.261056
 30
0.0
 42
0.058752
  0
VERTEX
  5
F62
  8
STRAP
 10
26.983301000000001
 20
16.665717999999991
 30
0.0
 42
0.089244
  0
VERTEX
  5
F63
  8
STRAP
 10
26.602820999999999
 20
15.608921
 30
0.0
  0
VERTEX
  5
F64
  8
STRAP
 10
26.602820999999999
 20
15.431129
 30
0.0
 42
0.106617
  0
SEQEND
  5
F65
  8
STRAP
  0
POLYLINE
  5
7E4
  8
STRAP
 66
     1
 10
0.0
 20
0.0
 30
0.0
  0
VERTEX
  5
F66
  8
STRAP
 10
24.214558
 20
16.814868000000001
 30
0.0
  0
VERTEX
  5
F67
  8
STRAP
 10
24.214558
 20
17.010959
 30
0.0
 42
-0.088927
  0
VERTEX
  5
F68
  8
STRAP
 10
24.588740999999999
 20
18.048217999999999
 30
0.0
 42
-0.058752
  0
VERTEX
  5
F69
  8
STRAP
 10
25.026309999999999
 20
18.63473299999999
 30
0.0
 42
-0.072341
  0
VERTEX
  5
F6A
  8
STRAP
 10
25.490095999999991
 20
19.000685000000001
 30
0.0
 42
-0.106617
  0
VERTEX
  5
F6B
  8
STRAP
 10
26.00930799999999
 20
19.167670999999991
 30
0.0
 42
-0.156851
  0
VERTEX
  5
F6C
  8
STRAP
 10
26.361654999999999
 20
19.091674999999992
 30
0.0
 42
-0.156851
  0
VERTEX
  5
F6D
  8
STRAP
 10
26.603642000000001
 20
18.824532000000001
 30
0.0
 42
-0.106617
  0
VERTEX
  5
F6E
  8
STRAP
 10
26.718634000000002
 20
18.291388000000001
 30
0.0
  0
VERTEX
  5
F6F
  8
STRAP
 10
26.718634000000002
 20
17.332722
 30
0.0
  0
VERTEX
  5
F70
  8
STRAP
 10
26.765633999999999
 20
17.359857000000002
 30
0.0
  0
VERTEX
  5
F71
  8
STRAP
 10
26.765633999999999
 20
18.291388000000001
 30
0.0
 42
0.106617
  0
VERTEX
  5
F72
  8
STRAP
 10
26.646464000000002
 20
18.843904999999999
 30
0.0
 42
0.156851
  0
VERTEX
  5
F73
  8
STRAP
 10
26.385155000000001
 20
19.132377999999999
 30
0.0
 42
0.156851
  0
VERTEX
  5
F74
  8
STRAP
 10
26.004674999999999
 20
19.214441999999998
 30
0.0
 42
0.106617
  0
VERTEX
  5
F75
  8
STRAP
 10
25.466595999999988
 20
19.041388000000001
 30
0.0
 42
0.072341
  0
VERTEX
  5
F76
  8
STRAP
 10
24.992189
 20
18.667055999999992
 30
0.0
 42
0.058752
  0
VERTEX
  5
F77
  8
STRAP
 10
24.548037000000001
 20
18.071718000000001
 30
0.0
 42
0.089244
  0
VERTEX
  5
F78
  8
STRAP
 10
24.167558
 20
17.01492099999999
 30
0.0
  0
VERTEX
  5
F79
  8
STRAP
 10
24.167558
 20
16.837129000000001
 30
0.0
 42
0.106617
  0
SEQEND
  5
F7A
  8
STRAP
  0
POLYLINE
  5
7FA
  8
STRAP
 66
     1
 10
0.0
 20
0.0
 30
0.0
  0
VERTEX
  5
F7B
  8
STRAP
 10
25.519141000000001
 20
19.632370999999988
 30
0.0
 42
0.000005
  0
VERTEX
  5
F7C
  8
STRAP
 10
25.519129
 20
19.632377999999989
 30
0.0
 42
0.156851
  0
VERTEX
  5
F7D
  8
STRAP
 10
25.138649999999998
 20
19.714441999999998
 30
0.0
 42
0.106617
  0
VERTEX
  5
F7E
  8
STRAP
 10
24.600570999999999
 20
19.541388000000001
 30
0.0
 42
0.072341
  0
VERTEX
  5
F7F
  8
STRAP
 10
24.126162999999998
 20
19.167055999999999
 30
0.0
 42
0.058752
  0
VERTEX
  5
F80
  8
STRAP
 10
23.682012
 20
18.571718000000001
 30
0.0
 42
0.089244
  0
VERTEX
  5
F81
  8
STRAP
 10
23.301532000000002
 20
17.51492099999999
 30
0.0
  0
VERTEX
  5
F82
  8
STRAP
 10
23.301532000000002
 20
17.337129000000001
 30
0.0
 42
0.106617
  0
SEQEND
  5
F83
  8
STRAP
  0
POLYLINE
  5
804
  8
STRAP
 66
     1
 10
0.0
 20
0.0
 30
0.0
  0
VERTEX
  5
F84
  8
STRAP
 10
20.913268999999989
 20
18.720867999999989
 30
0.0
  0
VERTEX
  5
F85
  8
STRAP
 10
20.913268999999989
 20
18.916958999999999
 30
0.0
 42
-0.088927
  0
VERTEX
  5
F86
  8
STRAP
 10
21.287451999999998
 20
19.954218000000001
 30
0.0
 42
-0.058752
  0
VERTEX
  5
F87
  8
STRAP
 10
21.725020999999991
 20
20.540732999999999
 30
0.0
 42
-0.072341
  0
VERTEX
  5
F88
  8
STRAP
 10
22.188807000000001
 20
20.906685
 30
0.0
 42
-0.106617
  0
VERTEX
  5
F89
  8
STRAP
 10
22.70801899999999
 20
21.073671000000001
 30
0.0
 42
-0.156851
  0
VERTEX
  5
F8A
  8
STRAP
 10
23.060365999999998
 20
20.997675000000001
 30
0.0
 42
-0.156851
  0
VERTEX
  5
F8B
  8
STRAP
 10
23.302354000000001
 20
20.73053199999999
 30
0.0
 42
-0.106617
  0
VERTEX
  5
F8C
  8
STRAP
 10
23.417345000000001
 20
20.197388
 30
0.0
  0
VERTEX
  5
F8D
  8
STRAP
 10
23.417345000000001
 20
19.238721999999989
 30
0.0
  0
VERTEX
  5
F8E
  8
STRAP
 10
23.464345000000002
 20
19.265857
 30
0.0
  0
VERTEX
  5
F8F
  8
STRAP
 10
23.464345000000002
 20
20.197388
 30
0.0
 42
0.106617
  0
VERTEX
  5
F90
  8
STRAP
 10
23.345175000000001
 20
20.749904999999991
 30
0.0
 42
0.156851
  0
VERTEX
  5
F91
  8
STRAP
 10
23.08386599999999
 20
21.038378000000002
 30
0.0
 42
0.156851
  0
VERTEX
  5
F92
  8
STRAP
 10
22.703385999999998
 20
21.120442000000001
 30
0.0
 42
0.106617
  0
VERTEX
  5
F93
  8
STRAP
 10
22.165306999999999
 20
20.947388
 30
0.0
 42
0.072341
  0
VERTEX
  5
F94
  8
STRAP
 10
21.690899999999999
 20
20.573056000000001
 30
0.0
 42
0.058752
  0
VERTEX
  5
F95
  8
STRAP
 10
21.246749000000001
 20
19.977717999999989
 30
0.0
 42
0.089244
  0
VERTEX
  5
F96
  8
STRAP
 10
20.866268999999999
 20
18.920921
 30
0.0
  0
VERTEX
  5
F97
  8
STRAP
 10
20.866268999999999
 20
18.743128999999989
 30
0.0
 42
0.106617
  0
SEQEND
  5
F98
  8
STRAP
  0
POLYLINE
  5
81A
  8
STRAP
 66
     1
 10
0.0
 20
0.0
 30
0.0
  0
VERTEX
  5
F99
  8
STRAP
 10
22.217852000000001
 20
21.538371000000001
 30
0.0
 42
0.000005
  0
VERTEX
  5
F9A
  8
STRAP
 10
22.217839999999988
 20
21.538378000000002
 30
0.0
 42
0.156851
  0
VERTEX
  5
F9B
  8
STRAP
 10
21.837360999999991
 20
21.62044199999999
 30
0.0
 42
0.106617
  0
VERTEX
  5
F9C
  8
STRAP
 10
21.299282000000002
 20
21.447388
 30
0.0
 42
0.072341
  0
VERTEX
  5
F9D
  8
STRAP
 10
20.824873999999991
 20
21.073056000000001
 30
0.0
 42
0.058752
  0
VERTEX
  5
F9E
  8
STRAP
 10
20.380723
 20
20.477717999999999
 30
0.0
 42
0.089244
  0
VERTEX
  5
F9F
  8
STRAP
 10
20.000243999999999
 20
19.420920999999989
 30
0.0
  0
VERTEX
  5
FA0
  8
STRAP
 10
20.000243999999999
 20
19.243129
 30
0.0
 42
0.106617
  0
SEQEND
  5
FA1
  8
STRAP
  0
POLYLINE
  5
824
  8
STRAP
 66
     1
 10
0.0
 20
0.0
 30
0.0
  0
VERTEX
  5
FA2
  8
STRAP
 10
17.611979999999999
 20
20.626867999999991
 30
0.0
  0
VERTEX
  5
FA3
  8
STRAP
 10
17.611979999999999
 20
20.822959000000001
 30
0.0
 42
-0.088927
  0
VERTEX
  5
FA4
  8
STRAP
 10
17.986163000000001
 20
21.860218
 30
0.0
 42
-0.058752
  0
VERTEX
  5
FA5
  8
STRAP
 10
18.423732000000001
 20
22.446732999999998
 30
0.0
 42
-0.072341
  0
VERTEX
  5
FA6
  8
STRAP
 10
18.887518
 20
22.812684999999998
 30
0.0
 42
-0.106617
  0
VERTEX
  5
FA7
  8
STRAP
 10
19.406731000000001
 20
22.979671
 30
0.0
 42
-0.156851
  0
VERTEX
  5
FA8
  8
STRAP
 10
19.759076999999991
 20
22.903674999999989
 30
0.0
 42
-0.156851
  0
VERTEX
  5
FA9
  8
STRAP
 10
20.001065000000001
 20
22.636531999999988
 30
0.0
 42
-0.106617
  0
VERTEX
  5
FAA
  8
STRAP
 10
20.116056
 20
22.103387999999999
 30
0.0
  0
VERTEX
  5
FAB
  8
STRAP
 10
20.116056
 20
21.144722000000002
 30
0.0
  0
VERTEX
  5
FAC
  8
STRAP
 10
20.163056000000001
 20
21.171856999999989
 30
0.0
  0
VERTEX
  5
FAD
  8
STRAP
 10
20.163056000000001
 20
22.103387999999999
 30
0.0
 42
0.106617
  0
VERTEX
  5
FAE
  8
STRAP
 10
20.04388599999999
 20
22.65590499999999
 30
0.0
 42
0.156851
  0
VERTEX
  5
FAF
  8
STRAP
 10
19.782577
 20
22.944378
 30
0.0
 42
0.156851
  0
VERTEX
  5
FB0
  8
STRAP
 10
19.402097999999999
 20
23.026441999999999
 30
0.0
 42
0.106617
  0
VERTEX
  5
FB1
  8
STRAP
 10
18.864017999999991
 20
22.853387999999988
 30
0.0
 42
0.072341
  0
VERTEX
  5
FB2
  8
STRAP
 10
18.389610999999991
 20
22.479056
 30
0.0
 42
0.058752
  0
VERTEX
  5
FB3
  8
STRAP
 10
17.945460000000001
 20
21.883717999999998
 30
0.0
 42
0.089244
  0
VERTEX
  5
FB4
  8
STRAP
 10
17.564979999999991
 20
20.826920999999999
 30
0.0
  0
VERTEX
  5
FB5
  8
STRAP
 10
17.564979999999991
 20
20.649128999999999
 30
0.0
 42
0.106617
  0
SEQEND
  5
FB6
  8
STRAP
  0
POLYLINE
  5
83A
  8
STRAP
 66
     1
 10
0.0
 20
0.0
 30
0.0
  0
VERTEX
  5
FB7
  8
STRAP
 10
18.916563
 20
23.44437099999999
 30
0.0
 42
0.000005
  0
VERTEX
  5
FB8
  8
STRAP
 10
18.916551999999989
 20
23.444378
 30
0.0
 42
0.156851
  0
VERTEX
  5
FB9
  8
STRAP
 10
18.536072000000001
 20
23.526441999999999
 30
0.0
 42
0.106617
  0
VERTEX
  5
FBA
  8
STRAP
 10
17.997993000000001
 20
23.353387999999999
 30
0.0
 42
0.072341
  0
VERTEX
  5
FBB
  8
STRAP
 10
17.523585000000001
 20
22.979055999999989
 30
0.0
 42
0.058752
  0
VERTEX
  5
FBC
  8
STRAP
 10
17.079433999999999
 20
22.383717999999991
 30
0.0
 42
0.089244
  0
VERTEX
  5
FBD
  8
STRAP
 10
16.698954999999991
 20
21.326920999999992
 30
0.0
  0
VERTEX
  5
FBE
  8
STRAP
 10
16.698954999999991
 20
21.149128999999999
 30
0.0
 42
0.106617
  0
SEQEND
  5
FBF
  8
STRAP
  0
POLYLINE
  5
844
  8
STRAP
 66
     1
 10
0.0
 20
0.0
 30
0.0
  0
VERTEX
  5
FC0
  8
STRAP
 10
19.344031000000001
 20
22.630523
 30
0.0
 42
0.063111
  0
VERTEX
  5
FC1
  8
STRAP
 10
19.301658
 20
22.964888999999999
 30
0.0
 42
0.156851
  0
SEQEND
  5
FC2
  8
STRAP
  0
POLYLINE
  5
848
  8
STRAP
 66
     1
 10
0.0
 20
0.0
 30
0.0
  0
VERTEX
  5
FC3
  8
STRAP
 10
22.645320000000002
 20
20.724523000000001
 30
0.0
 42
0.063111
  0
VERTEX
  5
FC4
  8
STRAP
 10
22.602947
 20
21.058889000000001
 30
0.0
 42
0.156851
  0
SEQEND
  5
FC5
  8
STRAP
  0
POLYLINE
  5
84C
  8
STRAP
 66
     1
 10
0.0
 20
0.0
 30
0.0
  0
VERTEX
  5
FC6
  8
STRAP
 10
25.946608999999999
 20
18.818522999999999
 30
0.0
 42
0.063111
  0
VERTEX
  5
FC7
  8
STRAP
 10
25.90423599999999
 20
19.152888999999998
 30
0.0
 42
0.156851
  0
SEQEND
  5
FC8
  8
STRAP
  0
POLYLINE
  5
850
  8
STRAP
 66
     1
 10
0.0
 20
0.0
 30
0.0
  0
VERTEX
  5
FC9
  8
STRAP
 10
29.247897999999999
 20
16.912523
 30
0.0
 42
0.063111
  0
VERTEX
  5
FCA
  8
STRAP
 10
29.205524
 20
17.246888999999999
 30
0.0
 42
0.156851
  0
SEQEND
  5
FCB
  8
STRAP
  0
POLYLINE
  5
854
  8
STRAP
 66
     1
 10
0.0
 20
0.0
 30
0.0
  0
VERTEX
  5
FCC
  8
STRAP
 10
32.549185999999992
 20
15.006523
 30
0.0
 42
0.063111
  0
VERTEX
  5
FCD
  8
STRAP
 10
32.506813000000001
 20
15.340889000000001
 30
0.0
 42
0.156851
  0
SEQEND
  5
FCE
  8
STRAP
  0
LINE
  5
858
  8
PANEL
 10
33.612431000000001
 20
39.063352000000002
 30
0.0
 11
33.666125000000001
 21
39.094352000000001
 31
0.0
  0
LINE
  5
859
  8
PANEL
 10
33.666125000000001
 20
39.094352000000001
 30
0.0
 11
32.853792999999989
 21
39.563352000000002
 31
0.0
  0
LINE
  5
85A
  8
PANEL
 10
17.211642000000001
 20
48.594352000000001
 30
0.0
 11
17.157948000000001
 21
48.563352000000002
 31
0.0
  0
LINE
  5
85B
  8
PANEL
 10
17.861160999999999
 20
47.969352000000001
 30
0.0
 11
32.583593
 21
39.469352000000001
 31
0.0
  0
LINE
  5
85C
  8
PANEL
 10
33.612431000000001
 20
37.343352000000003
 30
0.0
 11
33.666125000000001
 21
37.374352000000002
 31
0.0
  0
LINE
  5
85D
  8
PANEL
 10
33.666125000000001
 20
37.374352000000002
 30
0.0
 11
33.666125000000001
 21
39.094352000000001
 31
0.0
  0
LINE
  5
85E
  8
PANEL
 10
17.157948000000001
 20
48.563352000000002
 30
0.0
 11
17.157948000000001
 21
46.843352000000003
 31
0.0
  0
LINE
  5
85F
  8
PANEL
 10
17.861160999999999
 20
46.249352000000002
 30
0.0
 11
32.583593
 21
37.749352000000002
 31
0.0
  0
LINE
  5
860
  8
PANEL
 10
33.612431000000001
 20
37.343352000000003
 30
0.0
 11
33.612431000000001
 21
39.063352000000002
 31
0.0
  0
LINE
  5
861
  8
PANEL
 10
33.612431000000001
 20
39.063352000000002
 30
0.0
 11
32.800098999999989
 21
39.532352000000003
 31
0.0
  0
LINE
  5
862
  8
PANEL
 10
33.612431000000001
 20
37.343352000000003
 30
0.0
 11
32.800098999999989
 21
37.812351999999997
 31
0.0
  0
LINE
  5
863
  8
PANEL
 10
32.800098999999989
 20
37.812351999999997
 30
0.0
 11
32.800098999999989
 21
37.874352000000002
 31
0.0
  0
LINE
  5
864
  8
PANEL
 10
17.157948000000001
 20
46.843352000000003
 30
0.0
 11
17.970279999999999
 21
46.374352000000002
 31
0.0
  0
LINE
  5
865
  8
PANEL
 10
18.023973999999999
 20
48.125351999999999
 30
0.0
 11
18.023973999999999
 21
48.063352000000002
 31
0.0
  0
LINE
  5
866
  8
PANEL
 10
18.077667000000002
 20
48.094352000000001
 30
0.0
 11
17.861160999999999
 21
47.969352000000001
 31
0.0
  0
LINE
  5
867
  8
PANEL
 10
32.800098999999989
 20
39.594352000000001
 30
0.0
 11
32.583593
 21
39.469352000000001
 31
0.0
  0
LINE
  5
868
  8
PANEL
 10
32.800098999999989
 20
37.874352000000002
 30
0.0
 11
32.583593
 21
37.749352000000002
 31
0.0
  0
POLYLINE
  5
869
  8
PANEL
 66
     1
 10
0.0
 20
0.0
 30
0.0
 70
     1
  0
VERTEX
  5
FCF
  8
PANEL
 10
33.271217
 20
39.164352000000001
 30
0.0
 42
0.106617
  0
VERTEX
  5
FD0
  8
PANEL
 10
33.221354999999988
 20
39.180388999999991
 30
0.0
 42
0.156851
  0
VERTEX
  5
FD1
  8
PANEL
 10
33.18609699999999
 20
39.172784
 30
0.0
 42
0.156851
  0
VERTEX
  5
FD2
  8
PANEL
 10
33.161883000000003
 20
39.146051999999997
 30
0.0
 42
0.106617
  0
VERTEX
  5
FD3
  8
PANEL
 10
33.150838999999998
 20
39.094852000000003
 30
0.0
 42
0.072341
  0
VERTEX
  5
FD4
  8
PANEL
 10
33.158898999999998
 20
39.039436000000002
 30
0.0
 42
0.058752
  0
VERTEX
  5
FD5
  8
PANEL
 10
33.18609699999999
 20
38.976208999999997
 30
0.0
 42
0.058752
  0
VERTEX
  5
FD6
  8
PANEL
 10
33.227255
 20
38.921040999999988
 30
0.0
 42
0.072341
  0
VERTEX
  5
FD7
  8
PANEL
 10
33.271217
 20
38.886352000000002
 30
0.0
  0
VERTEX
  5
FD8
  8
PANEL
 10
33.382067999999997
 20
38.822352000000002
 30
0.0
 42
0.106617
  0
VERTEX
  5
FD9
  8
PANEL
 10
33.431930000000001
 20
38.806315999999988
 30
0.0
 42
0.156851
  0
VERTEX
  5
FDA
  8
PANEL
 10
33.467188
 20
38.813921000000001
 30
0.0
 42
0.156851
  0
VERTEX
  5
FDB
  8
PANEL
 10
33.491402999999998
 20
38.840653000000003
 30
0.0
 42
0.106617
  0
VERTEX
  5
FDC
  8
PANEL
 10
33.502445999999992
 20
38.891852
 30
0.0
 42
0.072341
  0
VERTEX
  5
FDD
  8
PANEL
 10
33.494385999999999
 20
38.947268999999999
 30
0.0
 42
0.058752
  0
VERTEX
  5
FDE
  8
PANEL
 10
33.467188
 20
39.010496000000003
 30
0.0
 42
0.058752
  0
VERTEX
  5
FDF
  8
PANEL
 10
33.42602999999999
 20
39.065663999999991
 30
0.0
 42
0.072341
  0
VERTEX
  5
FE0
  8
PANEL
 10
33.382067999999997
 20
39.100352000000001
 30
0.0
  0
SEQEND
  5
FE1
  8
PANEL
  0
POLYLINE
  5
87D
  8
PANEL
 66
     1
 10
0.0
 20
0.0
 30
0.0
  0
VERTEX
  5
FE2
  8
PANEL
 10
33.217353000000003
 20
39.180647999999991
 30
0.0
 42
0.017027
  0
VERTEX
  5
FE3
  8
PANEL
 10
33.215575999999999
 20
39.177052000000003
 30
0.0
 42
0.106617
  0
VERTEX
  5
FE4
  8
PANEL
 10
33.204532999999998
 20
39.125852000000002
 30
0.0
 42
0.072341
  0
VERTEX
  5
FE5
  8
PANEL
 10
33.212592999999991
 20
39.070436000000001
 30
0.0
 42
0.058752
  0
VERTEX
  5
FE6
  8
PANEL
 10
33.23979099999999
 20
39.007209000000003
 30
0.0
 42
0.058752
  0
VERTEX
  5
FE7
  8
PANEL
 10
33.280948999999993
 20
38.952040999999987
 30
0.0
 42
0.072341
  0
VERTEX
  5
FE8
  8
PANEL
 10
33.324911
 20
38.917352000000001
 30
0.0
  0
VERTEX
  5
FE9
  8
PANEL
 10
33.43576199999999
 20
38.853352000000001
 30
0.0
 42
0.106617
  0
VERTEX
  5
FEA
  8
PANEL
 10
33.485624000000001
 20
38.837315999999987
 30
0.0
 42
0.017027
  0
VERTEX
  5
FEB
  8
PANEL
 10
33.489626000000001
 20
38.837057000000001
 30
0.0
 42
0.156851
  0
SEQEND
  5
FEC
  8
PANEL
  0
POLYLINE
  5
889
  8
PANEL
 66
     1
 10
0.0
 20
0.0
 30
0.0
  0
VERTEX
  5
FED
  8
PANEL
 10
33.217353000000003
 20
37.930647999999991
 30
0.0
 42
0.017027
  0
VERTEX
  5
FEE
  8
PANEL
 10
33.215575999999999
 20
37.927052000000003
 30
0.0
 42
0.106617
  0
VERTEX
  5
FEF
  8
PANEL
 10
33.204532999999998
 20
37.875852000000002
 30
0.0
 42
0.072341
  0
VERTEX
  5
FF0
  8
PANEL
 10
33.212592999999991
 20
37.820436000000001
 30
0.0
 42
0.058752
  0
VERTEX
  5
FF1
  8
PANEL
 10
33.23979099999999
 20
37.757209000000003
 30
0.0
 42
0.058752
  0
VERTEX
  5
FF2
  8
PANEL
 10
33.280948999999993
 20
37.702040999999987
 30
0.0
 42
0.072341
  0
VERTEX
  5
FF3
  8
PANEL
 10
33.324911
 20
37.667352000000001
 30
0.0
  0
VERTEX
  5
FF4
  8
PANEL
 10
33.43576199999999
 20
37.603352000000001
 30
0.0
 42
0.106617
  0
VERTEX
  5
FF5
  8
PANEL
 10
33.485624000000001
 20
37.587315999999987
 30
0.0
 42
0.017027
  0
VERTEX
  5
FF6
  8
PANEL
 10
33.489626000000001
 20
37.587057000000001
 30
0.0
 42
0.156851
  0
SEQEND
  5
FF7
  8
PANEL
  0
POLYLINE
  5
895
  8
PANEL
 66
     1
 10
0.0
 20
0.0
 30
0.0
 70
     1
  0
VERTEX
  5
FF8
  8
PANEL
 10
33.271217
 20
37.914352000000001
 30
0.0
 42
0.106617
  0
VERTEX
  5
FF9
  8
PANEL
 10
33.221354999999988
 20
37.930388999999991
 30
0.0
 42
0.156851
  0
VERTEX
  5
FFA
  8
PANEL
 10
33.18609699999999
 20
37.922784
 30
0.0
 42
0.156851
  0
VERTEX
  5
FFB
  8
PANEL
 10
33.161883000000003
 20
37.896051999999997
 30
0.0
 42
0.106617
  0
VERTEX
  5
FFC
  8
PANEL
 10
33.150838999999998
 20
37.844852000000003
 30
0.0
 42
0.072341
  0
VERTEX
  5
FFD
  8
PANEL
 10
33.158898999999998
 20
37.789436000000002
 30
0.0
 42
0.058752
  0
VERTEX
  5
FFE
  8
PANEL
 10
33.18609699999999
 20
37.726208999999997
 30
0.0
 42
0.058752
  0
VERTEX
  5
FFF
  8
PANEL
 10
33.227255
 20
37.671040999999988
 30
0.0
 42
0.072341
  0
VERTEX
  5
1000
  8
PANEL
 10
33.271217
 20
37.636352000000002
 30
0.0
  0
VERTEX
  5
1001
  8
PANEL
 10
33.382067999999997
 20
37.572352000000002
 30
0.0
 42
0.106617
  0
VERTEX
  5
1002
  8
PANEL
 10
33.431930000000001
 20
37.556315999999988
 30
0.0
 42
0.156851
  0
VERTEX
  5
1003
  8
PANEL
 10
33.467188
 20
37.563921000000001
 30
0.0
 42
0.156851
  0
VERTEX
  5
1004
  8
PANEL
 10
33.491402999999998
 20
37.590653000000003
 30
0.0
 42
0.106617
  0
VERTEX
  5
1005
  8
PANEL
 10
33.502445999999992
 20
37.641852
 30
0.0
 42
0.072341
  0
VERTEX
  5
1006
  8
PANEL
 10
33.494385999999999
 20
37.697268999999999
 30
0.0
 42
0.058752
  0
VERTEX
  5
1007
  8
PANEL
 10
33.467188
 20
37.760496000000003
 30
0.0
 42
0.058752
  0
VERTEX
  5
1008
  8
PANEL
 10
33.42602999999999
 20
37.815663999999991
 30
0.0
 42
0.072341
  0
VERTEX
  5
1009
  8
PANEL
 10
33.382067999999997
 20
37.850352000000001
 30
0.0
  0
SEQEND
  5
100A
  8
PANEL
  0
POLYLINE
  5
8A9
  8
PANEL
 66
     1
 10
0.0
 20
0.0
 30
0.0
 70
     1
  0
VERTEX
  5
100B
  8
PANEL
 10
17.388310999999991
 20
47.084352000000003
 30
0.0
 42
0.106617
  0
VERTEX
  5
100C
  8
PANEL
 10
17.338449000000001
 20
47.100388999999993
 30
0.0
 42
0.156851
  0
VERTEX
  5
100D
  8
PANEL
 10
17.303191000000002
 20
47.092784000000002
 30
0.0
 42
0.156851
  0
VERTEX
  5
100E
  8
PANEL
 10
17.27897699999999
 20
47.066051999999999
 30
0.0
 42
0.106617
  0
VERTEX
  5
100F
  8
PANEL
 10
17.267934
 20
47.014851999999998
 30
0.0
 42
0.072341
  0
VERTEX
  5
1010
  8
PANEL
 10
17.275993
 20
46.95943599999999
 30
0.0
 42
0.058752
  0
VERTEX
  5
1011
  8
PANEL
 10
17.303191000000002
 20
46.896208999999999
 30
0.0
 42
0.058752
  0
VERTEX
  5
1012
  8
PANEL
 10
17.34434899999999
 20
46.84104099999999
 30
0.0
 42
0.072341
  0
VERTEX
  5
1013
  8
PANEL
 10
17.388310999999991
 20
46.806351999999997
 30
0.0
  0
VERTEX
  5
1014
  8
PANEL
 10
17.499161999999991
 20
46.742351999999997
 30
0.0
 42
0.106617
  0
VERTEX
  5
1015
  8
PANEL
 10
17.549023999999989
 20
46.72631599999999
 30
0.0
 42
0.156851
  0
VERTEX
  5
1016
  8
PANEL
 10
17.584282000000002
 20
46.733921000000002
 30
0.0
 42
0.156851
  0
VERTEX
  5
1017
  8
PANEL
 10
17.608497
 20
46.760652999999998
 30
0.0
 42
0.106617
  0
VERTEX
  5
1018
  8
PANEL
 10
17.619540000000001
 20
46.811852000000002
 30
0.0
 42
0.072341
  0
VERTEX
  5
1019
  8
PANEL
 10
17.61148
 20
46.867269
 30
0.0
 42
0.058752
  0
VERTEX
  5
101A
  8
PANEL
 10
17.584282000000002
 20
46.930496000000012
 30
0.0
 42
0.058752
  0
VERTEX
  5
101B
  8
PANEL
 10
17.543123999999992
 20
46.985663999999993
 30
0.0
 42
0.072341
  0
VERTEX
  5
101C
  8
PANEL
 10
17.499161999999991
 20
47.020352000000003
 30
0.0
  0
SEQEND
  5
101D
  8
PANEL
  0
POLYLINE
  5
8BD
  8
PANEL
 66
     1
 10
0.0
 20
0.0
 30
0.0
  0
VERTEX
  5
101E
  8
PANEL
 10
17.334447000000001
 20
47.100648
 30
0.0
 42
0.017027
  0
VERTEX
  5
101F
  8
PANEL
 10
17.33267
 20
47.097052000000012
 30
0.0
 42
0.106617
  0
VERTEX
  5
1020
  8
PANEL
 10
17.321626999999989
 20
47.045851999999996
 30
0.0
 42
0.072341
  0
VERTEX
  5
1021
  8
PANEL
 10
17.329686999999989
 20
46.990435999999988
 30
0.0
 42
0.058752
  0
VERTEX
  5
1022
  8
PANEL
 10
17.356884999999998
 20
46.927208999999998
 30
0.0
 42
0.058752
  0
VERTEX
  5
1023
  8
PANEL
 10
17.398042999999991
 20
46.872040999999989
 30
0.0
 42
0.072341
  0
VERTEX
  5
1024
  8
PANEL
 10
17.442004999999991
 20
46.837352000000003
 30
0.0
  0
VERTEX
  5
1025
  8
PANEL
 10
17.552855999999991
 20
46.773352000000003
 30
0.0
 42
0.106617
  0
VERTEX
  5
1026
  8
PANEL
 10
17.602717999999989
 20
46.757315999999989
 30
0.0
 42
0.017027
  0
VERTEX
  5
1027
  8
PANEL
 10
17.606719999999999
 20
46.757057000000003
 30
0.0
 42
0.156851
  0
SEQEND
  5
1028
  8
PANEL
  0
POLYLINE
  5
8C9
  8
PANEL
 66
     1
 10
0.0
 20
0.0
 30
0.0
  0
VERTEX
  5
1029
  8
PANEL
 10
17.334447000000001
 20
48.350648
 30
0.0
 42
0.017027
  0
VERTEX
  5
102A
  8
PANEL
 10
17.33267
 20
48.347052000000012
 30
0.0
 42
0.106617
  0
VERTEX
  5
102B
  8
PANEL
 10
17.321626999999989
 20
48.295851999999996
 30
0.0
 42
0.072341
  0
VERTEX
  5
102C
  8
PANEL
 10
17.329686999999989
 20
48.240435999999988
 30
0.0
 42
0.058752
  0
VERTEX
  5
102D
  8
PANEL
 10
17.356884999999998
 20
48.177209000000012
 30
0.0
 42
0.058752
  0
VERTEX
  5
102E
  8
PANEL
 10
17.398042999999991
 20
48.122040999999989
 30
0.0
 42
0.072341
  0
VERTEX
  5
102F
  8
PANEL
 10
17.442004999999991
 20
48.087352000000003
 30
0.0
  0
VERTEX
  5
1030
  8
PANEL
 10
17.552855999999991
 20
48.023352000000003
 30
0.0
 42
0.106617
  0
VERTEX
  5
1031
  8
PANEL
 10
17.602717999999989
 20
48.007315999999989
 30
0.0
 42
0.017027
  0
VERTEX
  5
1032
  8
PANEL
 10
17.606719999999999
 20
48.007057000000003
 30
0.0
 42
0.156851
  0
SEQEND
  5
1033
  8
PANEL
  0
POLYLINE
  5
8D5
  8
PANEL
 66
     1
 10
0.0
 20
0.0
 30
0.0
 70
     1
  0
VERTEX
  5
1034
  8
PANEL
 10
17.388310999999991
 20
48.334352000000003
 30
0.0
 42
0.106617
  0
VERTEX
  5
1035
  8
PANEL
 10
17.338449000000001
 20
48.350389
 30
0.0
 42
0.156851
  0
VERTEX
  5
1036
  8
PANEL
 10
17.303191000000002
 20
48.342784000000002
 30
0.0
 42
0.156851
  0
VERTEX
  5
1037
  8
PANEL
 10
17.27897699999999
 20
48.316051999999999
 30
0.0
 42
0.106617
  0
VERTEX
  5
1038
  8
PANEL
 10
17.267934
 20
48.264851999999998
 30
0.0
 42
0.072341
  0
VERTEX
  5
1039
  8
PANEL
 10
17.275993
 20
48.20943599999999
 30
0.0
 42
0.058752
  0
VERTEX
  5
103A
  8
PANEL
 10
17.303191000000002
 20
48.146209000000013
 30
0.0
 42
0.058752
  0
VERTEX
  5
103B
  8
PANEL
 10
17.34434899999999
 20
48.09104099999999
 30
0.0
 42
0.072341
  0
VERTEX
  5
103C
  8
PANEL
 10
17.388310999999991
 20
48.056352000000011
 30
0.0
  0
VERTEX
  5
103D
  8
PANEL
 10
17.499161999999991
 20
47.992351999999997
 30
0.0
 42
0.106617
  0
VERTEX
  5
103E
  8
PANEL
 10
17.549023999999989
 20
47.97631599999999
 30
0.0
 42
0.156851
  0
VERTEX
  5
103F
  8
PANEL
 10
17.584282000000002
 20
47.983921000000002
 30
0.0
 42
0.156851
  0
VERTEX
  5
1040
  8
PANEL
 10
17.608497
 20
48.010653000000012
 30
0.0
 42
0.106617
  0
VERTEX
  5
1041
  8
PANEL
 10
17.619540000000001
 20
48.061852000000002
 30
0.0
 42
0.072341
  0
VERTEX
  5
1042
  8
PANEL
 10
17.61148
 20
48.117269
 30
0.0
 42
0.058752
  0
VERTEX
  5
1043
  8
PANEL
 10
17.584282000000002
 20
48.180496000000012
 30
0.0
 42
0.058752
  0
VERTEX
  5
1044
  8
PANEL
 10
17.543123999999992
 20
48.235664
 30
0.0
 42
0.072341
  0
VERTEX
  5
1045
  8
PANEL
 10
17.499161999999991
 20
48.270352000000003
 30
0.0
  0
SEQEND
  5
1046
  8
PANEL
  0
LINE
  5
8E9
  8
PANEL
 10
17.861160999999999
 20
46.311351999999999
 30
0.0
 11
32.583593
 21
37.811351999999999
 31
0.0
  0
LINE
  5
8EA
  8
PANEL
 10
17.861160999999999
 20
47.907352000000003
 30
0.0
 11
32.583593
 21
39.407352000000003
 31
0.0
  0
LINE
  5
8EB
  8
PANEL
 10
32.853792999999989
 20
39.563352000000002
 30
0.0
 11
32.800098999999989
 21
39.532352000000003
 31
0.0
  0
LINE
  5
8EC
  8
PANEL
 10
32.746406
 20
37.905352000000001
 30
0.0
 11
32.583593
 21
37.811351999999999
 31
0.0
  0
LINE
  5
8ED
  8
PANEL
 10
18.023973999999999
 20
46.405352000000001
 30
0.0
 11
17.861160999999999
 21
46.311351999999999
 31
0.0
  0
LINE
  5
8EE
  8
PANEL
 10
18.023973999999999
 20
48.125351999999999
 30
0.0
 11
17.970279999999999
 21
48.094352000000001
 31
0.0
  0
LINE
  5
8EF
  8
PANEL
 10
17.970279999999999
 20
46.436351999999999
 30
0.0
 11
18.023973999999999
 21
46.405352000000001
 31
0.0
  0
LINE
  5
8F0
  8
PANEL
 10
17.970279999999999
 20
48.094352000000001
 30
0.0
 11
17.970279999999999
 21
48.032352000000003
 31
0.0
  0
LINE
  5
8F1
  8
PANEL
 10
32.800098999999989
 20
39.470351999999998
 30
0.0
 11
32.746406
 21
39.501351999999997
 31
0.0
  0
LINE
  5
8F2
  8
PANEL
 10
32.800098999999989
 20
37.874352000000002
 30
0.0
 11
30.905850000000001
 21
38.967998000000001
 31
0.0
  0
LINE
  5
8F3
  8
PANEL
 10
32.800098999999989
 20
39.594352000000001
 30
0.0
 11
30.986641999999989
 21
40.641351999999998
 31
0.0
  0
LINE
  5
8F4
  8
PANEL
 10
32.746406
 20
39.501351999999997
 30
0.0
 11
32.583593
 21
39.407352000000003
 31
0.0
  0
LINE
  5
8F5
  8
PANEL
 10
32.800098999999989
 20
39.470351999999998
 30
0.0
 11
32.800098999999989
 21
39.594352000000001
 31
0.0
  0
LINE
  5
8F6
  8
PANEL
 10
32.583593
 20
37.811351999999999
 30
0.0
 11
32.583593
 21
37.749352000000002
 31
0.0
  0
LINE
  5
8F7
  8
PANEL
 10
32.583593
 20
39.407352000000003
 30
0.0
 11
32.583593
 21
39.469352000000001
 31
0.0
  0
LINE
  5
8F8
  8
PANEL
 10
17.157948000000001
 20
48.563352000000002
 30
0.0
 11
17.970279999999999
 21
48.094352000000001
 31
0.0
  0
LINE
  5
8F9
  8
PANEL
 10
17.861160999999999
 20
47.969352000000001
 30
0.0
 11
17.861160999999999
 21
47.907352000000003
 31
0.0
  0
LINE
  5
8FA
  8
PANEL
 10
18.023973999999999
 20
48.125351999999999
 30
0.0
 11
17.211642000000001
 21
48.594352000000001
 31
0.0
  0
LINE
  5
8FB
  8
PANEL
 10
17.861160999999999
 20
46.249352000000002
 30
0.0
 11
17.861160999999999
 21
46.311351999999999
 31
0.0
  0
LINE
  5
8FC
  8
PANEL
 10
17.970279999999999
 20
46.436351999999999
 30
0.0
 11
17.970279999999999
 21
46.374352000000002
 31
0.0
  0
POLYLINE
  5
8FD
  8
PANEL
 66
     1
 10
0.0
 20
0.0
 30
0.0
  0
VERTEX
  5
1047
  8
PANEL
 10
29.714739000000002
 20
41.234685999999989
 30
0.0
 42
-0.267949
  0
VERTEX
  5
1048
  8
PANEL
 10
29.68760399999999
 20
41.281686000000001
 30
0.0
  0
VERTEX
  5
1049
  8
PANEL
 10
29.68760399999999
 20
41.391352000000012
 30
0.0
  0
VERTEX
  5
104A
  8
PANEL
 10
29.646901
 20
41.367851999999999
 30
0.0
 42
0.5773500000000001
  0
VERTEX
  5
104B
  8
PANEL
 10
29.646901
 20
41.273851999999998
 30
0.0
  0
VERTEX
  5
104C
  8
PANEL
 10
30.783125999999999
 20
40.617851999999999
 30
0.0
 42
0.267949
  0
VERTEX
  5
104D
  8
PANEL
 10
30.945938999999999
 20
40.617851999999999
 30
0.0
  0
VERTEX
  5
104E
  8
PANEL
 10
30.986641999999989
 20
40.641351999999998
 30
0.0
  0
SEQEND
  5
104F
  8
PANEL
  0
LINE
  5
907
  8
STRAP
 10
31.150614999999998
 20
36.738621000000002
 30
0.0
 11
30.284590000000001
 21
37.238621000000002
 31
0.0
  0
POLYLINE
  5
908
  8
STRAP
 66
     1
 10
0.0
 20
0.0
 30
0.0
  0
VERTEX
  5
1050
  8
STRAP
 10
30.875764
 20
37.194611000000002
 30
0.0
 42
0.066338
  0
VERTEX
  5
1051
  8
STRAP
 10
31.203147999999999
 20
37.329611
 30
0.0
 42
0.132145
  0
VERTEX
  5
1052
  8
STRAP
 10
31.973583999999999
 20
38.101540999999997
 30
0.0
 42
0.058752
  0
SEQEND
  5
1053
  8
STRAP
  0
LINE
  5
90D
  8
STRAP
 10
33.272942
 20
41.768741999999989
 30
0.0
 11
33.319941999999998
 21
41.795878000000002
 31
0.0
  0
POLYLINE
  5
90E
  8
STRAP
 66
     1
 10
0.0
 20
0.0
 30
0.0
  0
VERTEX
  5
1054
  8
STRAP
 10
32.549185999999992
 20
42.242339999999999
 30
0.0
  0
VERTEX
  5
1055
  8
STRAP
 10
32.549185999999992
 20
42.606746000000001
 30
0.0
 42
0.5912950000000001
  0
SEQEND
  5
1056
  8
STRAP
  0
LINE
  5
912
  8
STRAP
 10
32.987732000000001
 20
42.920600999999991
 30
0.0
 11
32.121707000000001
 21
43.420600999999998
 31
0.0
  0
LINE
  5
913
  8
PANEL
 10
29.633734999999991
 20
39.702453999999989
 30
0.0
 11
27.604561
 21
40.873998
 31
0.0
  0
LINE
  5
914
  8
PANEL
 10
29.68760399999999
 20
41.391352000000012
 30
0.0
 11
27.685352999999999
 21
42.547351999999997
 31
0.0
  0
POLYLINE
  5
915
  8
STRAP
 66
     1
 10
0.0
 20
0.0
 30
0.0
  0
VERTEX
  5
1057
  8
STRAP
 10
32.45391699999999
 20
39.794221
 30
0.0
  0
VERTEX
  5
1058
  8
STRAP
 10
32.45391699999999
 20
42.241607000000002
 30
0.0
  0
VERTEX
  5
1059
  8
STRAP
 10
32.502186000000002
 20
42.269475
 30
0.0
  0
VERTEX
  5
105A
  8
STRAP
 10
33.321212000000003
 20
41.796610999999992
 30
0.0
  0
SEQEND
  5
105B
  8
STRAP
  0
POLYLINE
  5
91B
  8
STRAP
 66
     1
 10
0.0
 20
0.0
 30
0.0
  0
VERTEX
  5
105C
  8
STRAP
 10
32.45391699999999
 20
42.241607000000002
 30
0.0
  0
VERTEX
  5
105D
  8
STRAP
 10
33.272942
 20
41.768741999999989
 30
0.0
  0
VERTEX
  5
105E
  8
STRAP
 10
33.272942
 20
39.321356000000002
 30
0.0
 42
-0.072341
  0
SEQEND
  5
105F
  8
STRAP
  0
POLYLINE
  5
920
  8
STRAP
 66
     1
 10
0.0
 20
0.0
 30
0.0
  0
VERTEX
  5
1060
  8
STRAP
 10
33.319941999999998
 20
39.294221
 30
0.0
  0
VERTEX
  5
1061
  8
STRAP
 10
33.319941999999998
 20
41.795878000000002
 30
0.0
 42
0.081615
  0
SEQEND
  5
1062
  8
STRAP
  0
POLYLINE
  5
924
  8
PANEL
 66
     1
 10
0.0
 20
0.0
 30
0.0
  0
VERTEX
  5
1063
  8
PANEL
 10
30.954425000000001
 20
39.027138000000001
 30
0.0
 42
0.194784
  0
VERTEX
  5
1064
  8
PANEL
 10
30.905235999999999
 20
39.086613
 30
0.0
  0
VERTEX
  5
1065
  8
PANEL
 10
30.817136000000001
 20
39.137478000000002
 30
0.0
 42
0.4189020000000001
  0
SEQEND
  5
1066
  8
PANEL
  0
POLYLINE
  5
929
  8
PANEL
 66
     1
 10
0.0
 20
0.0
 30
0.0
  0
VERTEX
  5
1067
  8
PANEL
 10
29.904109999999989
 20
39.664613000000003
 30
0.0
  0
VERTEX
  5
1068
  8
PANEL
 10
29.769009999999991
 20
39.742612999999999
 30
0.0
 42
0.4189020000000001
  0
VERTEX
  5
1069
  8
PANEL
 10
29.638414999999998
 20
39.676088
 30
0.0
  0
SEQEND
  5
106A
  8
PANEL
  0
POLYLINE
  5
92E
  8
PANEL
 66
     1
 10
0.0
 20
0.0
 30
0.0
  0
VERTEX
  5
106B
  8
PANEL
 10
29.68760399999999
 20
39.616613000000001
 30
0.0
  0
VERTEX
  5
106C
  8
PANEL
 10
30.823828999999989
 20
38.960613000000002
 30
0.0
 42
0.91714
  0
VERTEX
  5
106D
  8
PANEL
 10
30.905235999999999
 20
39.148612999999997
 30
0.0
  0
VERTEX
  5
106E
  8
PANEL
 10
30.817136000000001
 20
39.199477999999999
 30
0.0
 42
0.91714
  0
SEQEND
  5
106F
  8
PANEL
  0
POLYLINE
  5
934
  8
PANEL
 66
     1
 10
0.0
 20
0.0
 30
0.0
  0
VERTEX
  5
1070
  8
PANEL
 10
29.904109999999989
 20
39.726613
 30
0.0
  0
VERTEX
  5
1071
  8
PANEL
 10
29.769009999999991
 20
39.804613000000003
 30
0.0
 42
0.91714
  0
VERTEX
  5
1072
  8
PANEL
 10
29.68760399999999
 20
39.616613000000001
 30
0.0
  0
SEQEND
  5
1073
  8
PANEL
  0
POLYLINE
  5
939
  8
STRAP
 66
     1
 10
0.0
 20
0.0
 30
0.0
  0
VERTEX
  5
1074
  8
STRAP
 10
29.904109999999989
 20
39.296351999999992
 30
0.0
  0
VERTEX
  5
1075
  8
STRAP
 10
29.904109999999989
 20
38.079610999999993
 30
0.0
 42
0.106617
  0
VERTEX
  5
1076
  8
STRAP
 10
30.02328
 20
37.527093999999998
 30
0.0
 42
0.156851
  0
VERTEX
  5
1077
  8
STRAP
 10
30.284590000000001
 20
37.238621000000002
 30
0.0
 42
0.000005
  0
VERTEX
  5
1078
  8
STRAP
 10
30.284600999999999
 20
37.238613999999998
 30
0.0
 42
0.106617
  0
SEQEND
  5
1079
  8
STRAP
  0
POLYLINE
  5
940
  8
STRAP
 66
     1
 10
0.0
 20
0.0
 30
0.0
  0
VERTEX
  5
107A
  8
STRAP
 10
30.77013599999999
 20
38.796351999999999
 30
0.0
  0
VERTEX
  5
107B
  8
STRAP
 10
30.77013599999999
 20
37.579611
 30
0.0
 42
0.106617
  0
VERTEX
  5
107C
  8
STRAP
 10
30.889306000000001
 20
37.027093999999991
 30
0.0
 42
0.156851
  0
VERTEX
  5
107D
  8
STRAP
 10
31.150614999999998
 20
36.738621000000002
 30
0.0
 42
0.156851
  0
VERTEX
  5
107E
  8
STRAP
 10
31.531093999999989
 20
36.656556999999999
 30
0.0
 42
0.106617
  0
VERTEX
  5
107F
  8
STRAP
 10
32.069173999999997
 20
36.829610999999993
 30
0.0
 42
0.072341
  0
VERTEX
  5
1080
  8
STRAP
 10
32.543581000000003
 20
37.203943000000002
 30
0.0
 42
0.052228
  0
VERTEX
  5
1081
  8
STRAP
 10
32.945554999999992
 20
37.728374000000002
 30
0.0
 42
0.058752
  0
SEQEND
  5
1082
  8
STRAP
  0
POLYLINE
  5
94A
  8
STRAP
 66
     1
 10
0.0
 20
0.0
 30
0.0
  0
VERTEX
  5
1083
  8
STRAP
 10
32.904837999999998
 20
37.751882000000002
 30
0.0
 42
-0.05213
  0
VERTEX
  5
1084
  8
STRAP
 10
32.50945999999999
 20
37.236266000000001
 30
0.0
 42
-0.072341
  0
VERTEX
  5
1085
  8
STRAP
 10
32.045673999999998
 20
36.870314
 30
0.0
 42
-0.106617
  0
VERTEX
  5
1086
  8
STRAP
 10
31.526461000000001
 20
36.703327999999999
 30
0.0
 42
-0.156851
  0
VERTEX
  5
1087
  8
STRAP
 10
31.174115
 20
36.779324000000003
 30
0.0
 42
-0.156851
  0
VERTEX
  5
1088
  8
STRAP
 10
30.932127000000001
 20
37.046467
 30
0.0
 42
-0.106617
  0
VERTEX
  5
1089
  8
STRAP
 10
30.817136000000001
 20
37.579611
 30
0.0
  0
VERTEX
  5
108A
  8
STRAP
 10
30.817136000000001
 20
38.769216999999998
 30
0.0
  0
SEQEND
  5
108B
  8
STRAP
  0
POLYLINE
  5
954
  8
STRAP
 66
     1
 10
0.0
 20
0.0
 30
0.0
  0
VERTEX
  5
108C
  8
STRAP
 10
30.817136000000001
 20
38.964478
 30
0.0
  0
VERTEX
  5
108D
  8
STRAP
 10
30.817136000000001
 20
40.427216999999999
 30
0.0
  0
SEQEND
  5
108E
  8
STRAP
  0
POLYLINE
  5
958
  8
STRAP
 66
     1
 10
0.0
 20
0.0
 30
0.0
  0
VERTEX
  5
108F
  8
STRAP
 10
30.77013599999999
 20
40.454352
 30
0.0
  0
VERTEX
  5
1090
  8
STRAP
 10
30.77013599999999
 20
38.991613000000001
 30
0.0
 42
0.106617
  0
SEQEND
  5
1091
  8
STRAP
  0
POLYLINE
  5
95C
  8
STRAP
 66
     1
 10
0.0
 20
0.0
 30
0.0
  0
VERTEX
  5
1092
  8
STRAP
 10
29.904109999999989
 20
40.954351999999993
 30
0.0
  0
VERTEX
  5
1093
  8
STRAP
 10
29.904109999999989
 20
39.491613000000001
 30
0.0
 42
0.106617
  0
SEQEND
  5
1094
  8
STRAP
  0
POLYLINE
  5
960
  8
STRAP
 66
     1
 10
0.0
 20
0.0
 30
0.0
  0
VERTEX
  5
1095
  8
STRAP
 10
26.602820999999999
 20
41.202351999999998
 30
0.0
  0
VERTEX
  5
1096
  8
STRAP
 10
26.602820999999999
 20
39.985610999999992
 30
0.0
 42
0.106617
  0
VERTEX
  5
1097
  8
STRAP
 10
26.72199199999999
 20
39.433093999999997
 30
0.0
 42
0.156851
  0
VERTEX
  5
1098
  8
STRAP
 10
26.983301000000001
 20
39.144621000000001
 30
0.0
 42
0.000005
  0
VERTEX
  5
1099
  8
STRAP
 10
26.983312000000002
 20
39.144613999999997
 30
0.0
 42
0.106617
  0
SEQEND
  5
109A
  8
STRAP
  0
LINE
  5
967
  8
STRAP
 10
27.849326000000001
 20
38.644621000000001
 30
0.0
 11
26.983301000000001
 21
39.144621000000001
 31
0.0
  0
POLYLINE
  5
968
  8
PANEL
 66
     1
 10
0.0
 20
0.0
 30
0.0
  0
VERTEX
  5
109B
  8
PANEL
 10
26.386315
 20
41.522613
 30
0.0
  0
VERTEX
  5
109C
  8
PANEL
 10
27.522539999999999
 20
40.866613000000001
 30
0.0
 42
0.91714
  0
VERTEX
  5
109D
  8
PANEL
 10
27.603946999999991
 20
41.054613000000003
 30
0.0
  0
VERTEX
  5
109E
  8
PANEL
 10
27.51584699999999
 20
41.105477999999998
 30
0.0
 42
0.91714
  0
SEQEND
  5
109F
  8
PANEL
  0
POLYLINE
  5
96E
  8
PANEL
 66
     1
 10
0.0
 20
0.0
 30
0.0
  0
VERTEX
  5
10A0
  8
PANEL
 10
26.602820999999999
 20
41.632612999999999
 30
0.0
  0
VERTEX
  5
10A1
  8
PANEL
 10
26.467721000000001
 20
41.710613000000002
 30
0.0
 42
0.91714
  0
VERTEX
  5
10A2
  8
PANEL
 10
26.386315
 20
41.522613
 30
0.0
  0
SEQEND
  5
10A3
  8
PANEL
  0
POLYLINE
  5
973
  8
PANEL
 66
     1
 10
0.0
 20
0.0
 30
0.0
  0
VERTEX
  5
10A4
  8
PANEL
 10
26.602820999999999
 20
41.570613000000002
 30
0.0
  0
VERTEX
  5
10A5
  8
PANEL
 10
26.467721000000001
 20
41.648612999999997
 30
0.0
 42
0.4189020000000001
  0
VERTEX
  5
10A6
  8
PANEL
 10
26.337126000000001
 20
41.582087999999992
 30
0.0
  0
SEQEND
  5
10A7
  8
PANEL
  0
POLYLINE
  5
978
  8
PANEL
 66
     1
 10
0.0
 20
0.0
 30
0.0
  0
VERTEX
  5
10A8
  8
PANEL
 10
27.653136
 20
40.933137999999992
 30
0.0
 42
0.194784
  0
VERTEX
  5
10A9
  8
PANEL
 10
27.603946999999991
 20
40.992612999999999
 30
0.0
  0
VERTEX
  5
10AA
  8
PANEL
 10
27.51584699999999
 20
41.043478
 30
0.0
 42
0.4189020000000001
  0
SEQEND
  5
10AB
  8
PANEL
  0
POLYLINE
  5
97D
  8
STRAP
 66
     1
 10
0.0
 20
0.0
 30
0.0
  0
VERTEX
  5
10AC
  8
STRAP
 10
26.602820999999999
 20
42.860351999999992
 30
0.0
  0
VERTEX
  5
10AD
  8
STRAP
 10
26.602820999999999
 20
41.397612999999993
 30
0.0
 42
0.106617
  0
SEQEND
  5
10AE
  8
STRAP
  0
POLYLINE
  5
981
  8
STRAP
 66
     1
 10
0.0
 20
0.0
 30
0.0
  0
VERTEX
  5
10AF
  8
STRAP
 10
27.46884699999999
 20
42.360351999999992
 30
0.0
  0
VERTEX
  5
10B0
  8
STRAP
 10
27.46884699999999
 20
40.897613
 30
0.0
 42
0.106617
  0
SEQEND
  5
10B1
  8
STRAP
  0
POLYLINE
  5
985
  8
STRAP
 66
     1
 10
0.0
 20
0.0
 30
0.0
  0
VERTEX
  5
10B2
  8
STRAP
 10
27.51584699999999
 20
40.870477999999999
 30
0.0
  0
VERTEX
  5
10B3
  8
STRAP
 10
27.51584699999999
 20
42.333216999999998
 30
0.0
  0
SEQEND
  5
10B4
  8
STRAP
  0
POLYLINE
  5
989
  8
PANEL
 66
     1
 10
0.0
 20
0.0
 30
0.0
  0
VERTEX
  5
10B5
  8
PANEL
 10
26.413450000000001
 20
43.140685999999988
 30
0.0
 42
-0.267949
  0
VERTEX
  5
10B6
  8
PANEL
 10
26.386315
 20
43.187685999999999
 30
0.0
  0
VERTEX
  5
10B7
  8
PANEL
 10
26.386315
 20
43.297351999999997
 30
0.0
  0
VERTEX
  5
10B8
  8
PANEL
 10
26.345611999999999
 20
43.273852000000012
 30
0.0
 42
0.5773500000000001
  0
VERTEX
  5
10B9
  8
PANEL
 10
26.345611999999999
 20
43.179851999999997
 30
0.0
  0
VERTEX
  5
10BA
  8
PANEL
 10
27.481836999999999
 20
42.523851999999998
 30
0.0
 42
0.267949
  0
VERTEX
  5
10BB
  8
PANEL
 10
27.644649999999992
 20
42.523851999999998
 30
0.0
  0
VERTEX
  5
10BC
  8
PANEL
 10
27.685352999999999
 20
42.547351999999997
 30
0.0
  0
SEQEND
  5
10BD
  8
PANEL
  0
LINE
  5
993
  8
STRAP
 10
29.686443000000001
 20
44.826600999999997
 30
0.0
 11
28.820418
 21
45.326600999999997
 31
0.0
  0
POLYLINE
  5
994
  8
STRAP
 66
     1
 10
0.0
 20
0.0
 30
0.0
  0
VERTEX
  5
10BE
  8
STRAP
 10
29.152628
 20
41.700220999999992
 30
0.0
  0
VERTEX
  5
10BF
  8
STRAP
 10
29.152628
 20
44.147607000000001
 30
0.0
  0
VERTEX
  5
10C0
  8
STRAP
 10
29.200897999999992
 20
44.175474999999999
 30
0.0
  0
VERTEX
  5
10C1
  8
STRAP
 10
30.019922999999991
 20
43.70261099999999
 30
0.0
  0
SEQEND
  5
10C2
  8
STRAP
  0
POLYLINE
  5
99A
  8
STRAP
 66
     1
 10
0.0
 20
0.0
 30
0.0
  0
VERTEX
  5
10C3
  8
STRAP
 10
29.247897999999999
 20
44.148339999999997
 30
0.0
  0
VERTEX
  5
10C4
  8
STRAP
 10
29.247897999999999
 20
44.512746
 30
0.0
 42
0.5912950000000001
  0
SEQEND
  5
10C5
  8
STRAP
  0
POLYLINE
  5
99E
  8
STRAP
 66
     1
 10
0.0
 20
0.0
 30
0.0
  0
VERTEX
  5
10C6
  8
STRAP
 10
27.574475
 20
39.100611000000001
 30
0.0
 42
0.066338
  0
VERTEX
  5
10C7
  8
STRAP
 10
27.901859000000002
 20
39.235610999999999
 30
0.0
 42
0.132145
  0
VERTEX
  5
10C8
  8
STRAP
 10
28.672294999999998
 20
40.007540999999989
 30
0.0
 42
0.058752
  0
SEQEND
  5
10C9
  8
STRAP
  0
LINE
  5
9A3
  8
STRAP
 10
29.971654000000001
 20
43.674741999999988
 30
0.0
 11
30.018653999999991
 21
43.701878000000001
 31
0.0
  0
POLYLINE
  5
9A4
  8
STRAP
 66
     1
 10
0.0
 20
0.0
 30
0.0
  0
VERTEX
  5
10CA
  8
STRAP
 10
23.301532000000002
 20
43.108351999999996
 30
0.0
  0
VERTEX
  5
10CB
  8
STRAP
 10
23.301532000000002
 20
41.89161099999999
 30
0.0
 42
0.106617
  0
VERTEX
  5
10CC
  8
STRAP
 10
23.420703
 20
41.339094000000003
 30
0.0
 42
0.156851
  0
VERTEX
  5
10CD
  8
STRAP
 10
23.682012
 20
41.050621
 30
0.0
 42
0.000005
  0
VERTEX
  5
10CE
  8
STRAP
 10
23.682023000000001
 20
41.050614000000003
 30
0.0
 42
0.106617
  0
SEQEND
  5
10CF
  8
STRAP
  0
LINE
  5
9AB
  8
STRAP
 10
24.548037000000001
 20
40.550620999999992
 30
0.0
 11
23.682012
 21
41.050621
 31
0.0
  0
POLYLINE
  5
9AC
  8
PANEL
 66
     1
 10
0.0
 20
0.0
 30
0.0
  0
VERTEX
  5
10D0
  8
PANEL
 10
23.085025999999999
 20
43.428612999999999
 30
0.0
  0
VERTEX
  5
10D1
  8
PANEL
 10
24.221250999999999
 20
42.772613
 30
0.0
 42
0.91714
  0
VERTEX
  5
10D2
  8
PANEL
 10
24.30265799999999
 20
42.960613000000002
 30
0.0
  0
VERTEX
  5
10D3
  8
PANEL
 10
24.214558
 20
43.011477999999997
 30
0.0
 42
0.91714
  0
SEQEND
  5
10D4
  8
PANEL
  0
POLYLINE
  5
9B2
  8
PANEL
 66
     1
 10
0.0
 20
0.0
 30
0.0
  0
VERTEX
  5
10D5
  8
PANEL
 10
23.301532000000002
 20
43.538612999999998
 30
0.0
  0
VERTEX
  5
10D6
  8
PANEL
 10
23.166432999999991
 20
43.616613000000001
 30
0.0
 42
0.91714
  0
VERTEX
  5
10D7
  8
PANEL
 10
23.085025999999999
 20
43.428612999999999
 30
0.0
  0
SEQEND
  5
10D8
  8
PANEL
  0
POLYLINE
  5
9B7
  8
PANEL
 66
     1
 10
0.0
 20
0.0
 30
0.0
  0
VERTEX
  5
10D9
  8
PANEL
 10
23.301532000000002
 20
43.476613
 30
0.0
  0
VERTEX
  5
10DA
  8
PANEL
 10
23.166432999999991
 20
43.554613000000003
 30
0.0
 42
0.4189020000000001
  0
VERTEX
  5
10DB
  8
PANEL
 10
23.035837000000001
 20
43.488087999999991
 30
0.0
  0
SEQEND
  5
10DC
  8
PANEL
  0
POLYLINE
  5
9BC
  8
PANEL
 66
     1
 10
0.0
 20
0.0
 30
0.0
  0
VERTEX
  5
10DD
  8
PANEL
 10
24.351846999999999
 20
42.839137999999991
 30
0.0
 42
0.194784
  0
VERTEX
  5
10DE
  8
PANEL
 10
24.30265799999999
 20
42.898612999999997
 30
0.0
  0
VERTEX
  5
10DF
  8
PANEL
 10
24.214558
 20
42.949477999999999
 30
0.0
 42
0.4189020000000001
  0
SEQEND
  5
10E0
  8
PANEL
  0
POLYLINE
  5
9C1
  8
STRAP
 66
     1
 10
0.0
 20
0.0
 30
0.0
  0
VERTEX
  5
10E1
  8
STRAP
 10
23.301532000000002
 20
44.766351999999998
 30
0.0
  0
VERTEX
  5
10E2
  8
STRAP
 10
23.301532000000002
 20
43.303612999999991
 30
0.0
 42
0.106617
  0
SEQEND
  5
10E3
  8
STRAP
  0
POLYLINE
  5
9C5
  8
STRAP
 66
     1
 10
0.0
 20
0.0
 30
0.0
  0
VERTEX
  5
10E4
  8
STRAP
 10
24.167558
 20
44.266351999999998
 30
0.0
  0
VERTEX
  5
10E5
  8
STRAP
 10
24.167558
 20
42.803612999999999
 30
0.0
 42
0.106617
  0
SEQEND
  5
10E6
  8
STRAP
  0
POLYLINE
  5
9C9
  8
STRAP
 66
     1
 10
0.0
 20
0.0
 30
0.0
  0
VERTEX
  5
10E7
  8
STRAP
 10
24.214558
 20
42.776477999999997
 30
0.0
  0
VERTEX
  5
10E8
  8
STRAP
 10
24.214558
 20
44.239216999999996
 30
0.0
  0
SEQEND
  5
10E9
  8
STRAP
  0
POLYLINE
  5
9CD
  8
PANEL
 66
     1
 10
0.0
 20
0.0
 30
0.0
  0
VERTEX
  5
10EA
  8
PANEL
 10
23.112162000000001
 20
45.046686000000001
 30
0.0
 42
-0.267949
  0
VERTEX
  5
10EB
  8
PANEL
 10
23.085025999999999
 20
45.093685999999998
 30
0.0
  0
VERTEX
  5
10EC
  8
PANEL
 10
23.085025999999999
 20
45.203352000000002
 30
0.0
  0
VERTEX
  5
10ED
  8
PANEL
 10
23.044322999999999
 20
45.179851999999997
 30
0.0
 42
0.5773500000000001
  0
VERTEX
  5
10EE
  8
PANEL
 10
23.044322999999999
 20
45.085852000000003
 30
0.0
  0
VERTEX
  5
10EF
  8
PANEL
 10
24.180548000000002
 20
44.429851999999997
 30
0.0
 42
0.267949
  0
VERTEX
  5
10F0
  8
PANEL
 10
24.343360999999991
 20
44.429851999999997
 30
0.0
  0
VERTEX
  5
10F1
  8
PANEL
 10
24.384063999999999
 20
44.453352000000002
 30
0.0
  0
SEQEND
  5
10F2
  8
PANEL
  0
LINE
  5
9D7
  8
STRAP
 10
26.385155000000001
 20
46.732601000000003
 30
0.0
 11
25.519129
 21
47.232601000000003
 31
0.0
  0
POLYLINE
  5
9D8
  8
STRAP
 66
     1
 10
0.0
 20
0.0
 30
0.0
  0
VERTEX
  5
10F3
  8
STRAP
 10
25.851338999999999
 20
43.606220999999998
 30
0.0
  0
VERTEX
  5
10F4
  8
STRAP
 10
25.851338999999999
 20
46.053607
 30
0.0
  0
VERTEX
  5
10F5
  8
STRAP
 10
25.899608999999991
 20
46.081474999999998
 30
0.0
  0
VERTEX
  5
10F6
  8
STRAP
 10
26.718634000000002
 20
45.608610999999989
 30
0.0
  0
SEQEND
  5
10F7
  8
STRAP
  0
POLYLINE
  5
9DE
  8
STRAP
 66
     1
 10
0.0
 20
0.0
 30
0.0
  0
VERTEX
  5
10F8
  8
STRAP
 10
25.946608999999999
 20
46.054340000000003
 30
0.0
  0
VERTEX
  5
10F9
  8
STRAP
 10
25.946608999999999
 20
46.418745999999999
 30
0.0
 42
0.5912950000000001
  0
SEQEND
  5
10FA
  8
STRAP
  0
POLYLINE
  5
9E2
  8
STRAP
 66
     1
 10
0.0
 20
0.0
 30
0.0
  0
VERTEX
  5
10FB
  8
STRAP
 10
24.273185999999988
 20
41.006610999999992
 30
0.0
 42
0.066338
  0
VERTEX
  5
10FC
  8
STRAP
 10
24.600570999999999
 20
41.14161099999999
 30
0.0
 42
0.132145
  0
VERTEX
  5
10FD
  8
STRAP
 10
25.371006999999999
 20
41.913540999999988
 30
0.0
 42
0.058752
  0
SEQEND
  5
10FE
  8
STRAP
  0
LINE
  5
9E7
  8
STRAP
 10
26.670365
 20
45.580742000000001
 30
0.0
 11
26.717365000000001
 21
45.607877999999992
 31
0.0
  0
POLYLINE
  5
9E8
  8
STRAP
 66
     1
 10
0.0
 20
0.0
 30
0.0
  0
VERTEX
  5
10FF
  8
STRAP
 10
20.000243999999999
 20
45.014352000000002
 30
0.0
  0
VERTEX
  5
1100
  8
STRAP
 10
20.000243999999999
 20
43.797610999999989
 30
0.0
 42
0.106617
  0
VERTEX
  5
1101
  8
STRAP
 10
20.119413999999999
 20
43.245094000000002
 30
0.0
 42
0.156851
  0
VERTEX
  5
1102
  8
STRAP
 10
20.380723
 20
42.956620999999998
 30
0.0
 42
0.000005
  0
VERTEX
  5
1103
  8
STRAP
 10
20.380735000000001
 20
42.956614000000002
 30
0.0
 42
0.106617
  0
SEQEND
  5
1104
  8
STRAP
  0
POLYLINE
  5
9EF
  8
PANEL
 66
     1
 10
0.0
 20
0.0
 30
0.0
  0
VERTEX
  5
1105
  8
PANEL
 10
19.783736999999991
 20
45.33461299999999
 30
0.0
  0
VERTEX
  5
1106
  8
PANEL
 10
20.919962999999989
 20
44.678612999999999
 30
0.0
 42
0.91714
  0
VERTEX
  5
1107
  8
PANEL
 10
21.001369
 20
44.866613000000001
 30
0.0
  0
VERTEX
  5
1108
  8
PANEL
 10
20.913268999999989
 20
44.917478000000003
 30
0.0
 42
0.91714
  0
SEQEND
  5
1109
  8
PANEL
  0
POLYLINE
  5
9F5
  8
PANEL
 66
     1
 10
0.0
 20
0.0
 30
0.0
  0
VERTEX
  5
110A
  8
PANEL
 10
20.000243999999999
 20
45.444612999999997
 30
0.0
  0
VERTEX
  5
110B
  8
PANEL
 10
19.865144000000001
 20
45.522613
 30
0.0
 42
0.91714
  0
VERTEX
  5
110C
  8
PANEL
 10
19.783736999999991
 20
45.33461299999999
 30
0.0
  0
SEQEND
  5
110D
  8
PANEL
  0
POLYLINE
  5
9FA
  8
PANEL
 66
     1
 10
0.0
 20
0.0
 30
0.0
  0
VERTEX
  5
110E
  8
PANEL
 10
20.000243999999999
 20
45.382612999999999
 30
0.0
  0
VERTEX
  5
110F
  8
PANEL
 10
19.865144000000001
 20
45.460613000000002
 30
0.0
 42
0.4189020000000001
  0
VERTEX
  5
1110
  8
PANEL
 10
19.734548
 20
45.394088000000004
 30
0.0
  0
SEQEND
  5
1111
  8
PANEL
  0
POLYLINE
  5
9FF
  8
PANEL
 66
     1
 10
0.0
 20
0.0
 30
0.0
  0
VERTEX
  5
1112
  8
PANEL
 10
21.050557999999999
 20
44.74513799999999
 30
0.0
 42
0.194784
  0
VERTEX
  5
1113
  8
PANEL
 10
21.001369
 20
44.804613000000003
 30
0.0
  0
VERTEX
  5
1114
  8
PANEL
 10
20.913268999999989
 20
44.855477999999998
 30
0.0
 42
0.4189020000000001
  0
SEQEND
  5
1115
  8
PANEL
  0
POLYLINE
  5
A04
  8
STRAP
 66
     1
 10
0.0
 20
0.0
 30
0.0
  0
VERTEX
  5
1116
  8
STRAP
 10
20.000243999999999
 20
46.672351999999997
 30
0.0
  0
VERTEX
  5
1117
  8
STRAP
 10
20.000243999999999
 20
45.20961299999999
 30
0.0
 42
0.106617
  0
SEQEND
  5
1118
  8
STRAP
  0
POLYLINE
  5
A08
  8
STRAP
 66
     1
 10
0.0
 20
0.0
 30
0.0
  0
VERTEX
  5
1119
  8
STRAP
 10
20.866268999999999
 20
46.172351999999997
 30
0.0
  0
VERTEX
  5
111A
  8
STRAP
 10
20.866268999999999
 20
44.70961299999999
 30
0.0
 42
0.106617
  0
SEQEND
  5
111B
  8
STRAP
  0
POLYLINE
  5
A0C
  8
STRAP
 66
     1
 10
0.0
 20
0.0
 30
0.0
  0
VERTEX
  5
111C
  8
STRAP
 10
20.913268999999989
 20
44.682478000000003
 30
0.0
  0
VERTEX
  5
111D
  8
STRAP
 10
20.913268999999989
 20
46.145217000000002
 30
0.0
  0
SEQEND
  5
111E
  8
STRAP
  0
POLYLINE
  5
A10
  8
PANEL
 66
     1
 10
0.0
 20
0.0
 30
0.0
  0
VERTEX
  5
111F
  8
PANEL
 10
19.810873000000001
 20
46.952686
 30
0.0
 42
-0.267949
  0
VERTEX
  5
1120
  8
PANEL
 10
19.783736999999991
 20
46.999685999999997
 30
0.0
  0
VERTEX
  5
1121
  8
PANEL
 10
19.783736999999991
 20
47.109352000000001
 30
0.0
  0
VERTEX
  5
1122
  8
PANEL
 10
19.743033999999991
 20
47.085852000000003
 30
0.0
 42
0.5773500000000001
  0
VERTEX
  5
1123
  8
PANEL
 10
19.743033999999991
 20
46.991852000000002
 30
0.0
  0
VERTEX
  5
1124
  8
PANEL
 10
20.879259000000001
 20
46.335852000000003
 30
0.0
 42
0.267949
  0
VERTEX
  5
1125
  8
PANEL
 10
21.042072000000001
 20
46.335852000000003
 30
0.0
  0
VERTEX
  5
1126
  8
PANEL
 10
21.082775000000002
 20
46.359352000000001
 30
0.0
  0
SEQEND
  5
1127
  8
PANEL
  0
LINE
  5
A1A
  8
STRAP
 10
23.08386599999999
 20
48.638601000000001
 30
0.0
 11
22.217839999999988
 21
49.138601000000001
 31
0.0
  0
POLYLINE
  5
A1B
  8
STRAP
 66
     1
 10
0.0
 20
0.0
 30
0.0
  0
VERTEX
  5
1128
  8
STRAP
 10
22.550050999999989
 20
45.512220999999997
 30
0.0
  0
VERTEX
  5
1129
  8
STRAP
 10
22.550050999999989
 20
47.959606999999998
 30
0.0
  0
VERTEX
  5
112A
  8
STRAP
 10
22.598320000000001
 20
47.987475000000003
 30
0.0
  0
VERTEX
  5
112B
  8
STRAP
 10
23.417345000000001
 20
47.514611000000002
 30
0.0
  0
SEQEND
  5
112C
  8
STRAP
  0
POLYLINE
  5
A21
  8
STRAP
 66
     1
 10
0.0
 20
0.0
 30
0.0
  0
VERTEX
  5
112D
  8
STRAP
 10
22.645320000000002
 20
47.960340000000002
 30
0.0
  0
VERTEX
  5
112E
  8
STRAP
 10
22.645320000000002
 20
48.324746000000012
 30
0.0
 42
0.5912950000000001
  0
SEQEND
  5
112F
  8
STRAP
  0
POLYLINE
  5
A25
  8
STRAP
 66
     1
 10
0.0
 20
0.0
 30
0.0
  0
VERTEX
  5
1130
  8
STRAP
 10
20.971896999999991
 20
42.912610999999991
 30
0.0
 42
0.066338
  0
VERTEX
  5
1131
  8
STRAP
 10
21.299282000000002
 20
43.047610999999989
 30
0.0
 42
0.132145
  0
VERTEX
  5
1132
  8
STRAP
 10
22.069717999999991
 20
43.819541000000001
 30
0.0
 42
0.058752
  0
SEQEND
  5
1133
  8
STRAP
  0
LINE
  5
A2A
  8
STRAP
 10
23.369075999999989
 20
47.486741999999992
 30
0.0
 11
23.416076
 21
47.513877999999998
 31
0.0
  0
POLYLINE
  5
A2B
  8
STRAP
 66
     1
 10
0.0
 20
0.0
 30
0.0
  0
VERTEX
  5
1134
  8
STRAP
 10
22.550050999999989
 20
47.959606999999998
 30
0.0
  0
VERTEX
  5
1135
  8
STRAP
 10
23.369075999999989
 20
47.486741999999992
 30
0.0
  0
VERTEX
  5
1136
  8
STRAP
 10
23.369075999999989
 20
45.421448999999988
 30
0.0
 42
-0.072341
  0
SEQEND
  5
1137
  8
STRAP
  0
POLYLINE
  5
A30
  8
STRAP
 66
     1
 10
0.0
 20
0.0
 30
0.0
  0
VERTEX
  5
1138
  8
STRAP
 10
23.416076
 20
45.577675999999997
 30
0.0
  0
VERTEX
  5
1139
  8
STRAP
 10
23.416076
 20
47.513877999999998
 30
0.0
 42
0.081615
  0
SEQEND
  5
113A
  8
STRAP
  0
POLYLINE
  5
A34
  8
STRAP
 66
     1
 10
0.0
 20
0.0
 30
0.0
  0
VERTEX
  5
113B
  8
STRAP
 10
26.717365000000001
 20
43.671675999999998
 30
0.0
  0
VERTEX
  5
113C
  8
STRAP
 10
26.717365000000001
 20
45.607877999999992
 30
0.0
 42
0.081615
  0
SEQEND
  5
113D
  8
STRAP
  0
POLYLINE
  5
A38
  8
STRAP
 66
     1
 10
0.0
 20
0.0
 30
0.0
  0
VERTEX
  5
113E
  8
STRAP
 10
25.851338999999999
 20
46.053607
 30
0.0
  0
VERTEX
  5
113F
  8
STRAP
 10
26.670365
 20
45.580742000000001
 30
0.0
  0
VERTEX
  5
1140
  8
STRAP
 10
26.670365
 20
43.51544899999999
 30
0.0
 42
-0.072341
  0
SEQEND
  5
1141
  8
STRAP
  0
POLYLINE
  5
A3D
  8
STRAP
 66
     1
 10
0.0
 20
0.0
 30
0.0
  0
VERTEX
  5
1142
  8
STRAP
 10
30.018653999999991
 20
41.765675999999999
 30
0.0
  0
VERTEX
  5
1143
  8
STRAP
 10
30.018653999999991
 20
43.701878000000001
 30
0.0
 42
0.081615
  0
SEQEND
  5
1144
  8
STRAP
  0
POLYLINE
  5
A41
  8
STRAP
 66
     1
 10
0.0
 20
0.0
 30
0.0
  0
VERTEX
  5
1145
  8
STRAP
 10
29.152628
 20
44.147607000000001
 30
0.0
  0
VERTEX
  5
1146
  8
STRAP
 10
29.971654000000001
 20
43.674741999999988
 30
0.0
  0
VERTEX
  5
1147
  8
STRAP
 10
29.971654000000001
 20
41.609448999999991
 30
0.0
 42
-0.072341
  0
SEQEND
  5
1148
  8
STRAP
  0
LINE
  5
A46
  8
PANEL
 10
23.085025999999999
 20
45.203352000000002
 30
0.0
 11
21.082775000000002
 21
46.359352000000001
 31
0.0
  0
LINE
  5
A47
  8
PANEL
 10
26.386315
 20
43.297351999999997
 30
0.0
 11
24.384063999999999
 21
44.453352000000002
 31
0.0
  0
LINE
  5
A48
  8
PANEL
 10
19.783736999999991
 20
47.109352000000001
 30
0.0
 11
18.077667000000002
 21
48.094352000000001
 31
0.0
  0
LINE
  5
A49
  8
PANEL
 10
19.729868
 20
45.420453999999999
 30
0.0
 11
18.023973999999999
 21
46.405352000000001
 31
0.0
  0
LINE
  5
A4A
  8
PANEL
 10
26.332446000000001
 20
41.608453999999988
 30
0.0
 11
24.303272
 21
42.779997999999992
 31
0.0
  0
LINE
  5
A4B
  8
PANEL
 10
23.031157
 20
43.514454000000001
 30
0.0
 11
21.001982999999999
 21
44.685997999999991
 31
0.0
  0
POLYLINE
  5
A4C
  8
STRAP
 66
     1
 10
0.0
 20
0.0
 30
0.0
  0
VERTEX
  5
1149
  8
STRAP
 10
22.912156
 20
43.333159000000002
 30
0.0
 42
-0.039056
  0
VERTEX
  5
114A
  8
STRAP
 10
22.605592999999999
 20
42.95426599999999
 30
0.0
 42
-0.072341
  0
VERTEX
  5
114B
  8
STRAP
 10
22.141807
 20
42.588313999999997
 30
0.0
 42
-0.106617
  0
VERTEX
  5
114C
  8
STRAP
 10
21.622595
 20
42.421328000000003
 30
0.0
 42
-0.156851
  0
VERTEX
  5
114D
  8
STRAP
 10
21.270248999999989
 20
42.497323999999999
 30
0.0
 42
-0.156851
  0
VERTEX
  5
114E
  8
STRAP
 10
21.02826099999999
 20
42.764467000000003
 30
0.0
 42
-0.106617
  0
VERTEX
  5
114F
  8
STRAP
 10
20.913268999999989
 20
43.297610999999989
 30
0.0
  0
VERTEX
  5
1150
  8
STRAP
 10
20.913268999999989
 20
44.487217000000001
 30
0.0
  0
SEQEND
  5
1151
  8
STRAP
  0
POLYLINE
  5
A56
  8
STRAP
 66
     1
 10
0.0
 20
0.0
 30
0.0
  0
VERTEX
  5
1152
  8
STRAP
 10
20.866268999999999
 20
44.514352000000002
 30
0.0
  0
VERTEX
  5
1153
  8
STRAP
 10
20.866268999999999
 20
43.297610999999989
 30
0.0
 42
0.106617
  0
VERTEX
  5
1154
  8
STRAP
 10
20.985439
 20
42.745094000000002
 30
0.0
 42
0.156851
  0
VERTEX
  5
1155
  8
STRAP
 10
21.246749000000001
 20
42.456620999999998
 30
0.0
 42
0.156851
  0
VERTEX
  5
1156
  8
STRAP
 10
21.627227999999999
 20
42.374557000000003
 30
0.0
 42
0.106617
  0
VERTEX
  5
1157
  8
STRAP
 10
22.165306999999999
 20
42.547610999999989
 30
0.0
 42
0.072341
  0
VERTEX
  5
1158
  8
STRAP
 10
22.639714999999988
 20
42.921942999999999
 30
0.0
 42
0.039348
  0
VERTEX
  5
1159
  8
STRAP
 10
22.952983
 20
43.309587999999998
 30
0.0
 42
0.058752
  0
SEQEND
  5
115A
  8
STRAP
  0
POLYLINE
  5
A60
  8
STRAP
 66
     1
 10
0.0
 20
0.0
 30
0.0
  0
VERTEX
  5
115B
  8
STRAP
 10
26.213443999999988
 20
41.427159000000003
 30
0.0
 42
-0.039056
  0
VERTEX
  5
115C
  8
STRAP
 10
25.906882
 20
41.048265999999991
 30
0.0
 42
-0.072341
  0
VERTEX
  5
115D
  8
STRAP
 10
25.443096000000001
 20
40.682313999999998
 30
0.0
 42
-0.106617
  0
VERTEX
  5
115E
  8
STRAP
 10
24.923884000000001
 20
40.515327999999997
 30
0.0
 42
-0.156851
  0
VERTEX
  5
115F
  8
STRAP
 10
24.571536999999999
 20
40.591324
 30
0.0
 42
-0.156851
  0
VERTEX
  5
1160
  8
STRAP
 10
24.329550000000001
 20
40.858466999999997
 30
0.0
 42
-0.106617
  0
VERTEX
  5
1161
  8
STRAP
 10
24.214558
 20
41.39161099999999
 30
0.0
  0
VERTEX
  5
1162
  8
STRAP
 10
24.214558
 20
42.581216999999988
 30
0.0
  0
SEQEND
  5
1163
  8
STRAP
  0
POLYLINE
  5
A6A
  8
STRAP
 66
     1
 10
0.0
 20
0.0
 30
0.0
  0
VERTEX
  5
1164
  8
STRAP
 10
24.167558
 20
42.608351999999996
 30
0.0
  0
VERTEX
  5
1165
  8
STRAP
 10
24.167558
 20
41.39161099999999
 30
0.0
 42
0.106617
  0
VERTEX
  5
1166
  8
STRAP
 10
24.286728
 20
40.839094000000003
 30
0.0
 42
0.156851
  0
VERTEX
  5
1167
  8
STRAP
 10
24.548037000000001
 20
40.550620999999992
 30
0.0
 42
0.156851
  0
VERTEX
  5
1168
  8
STRAP
 10
24.928516999999999
 20
40.468556999999997
 30
0.0
 42
0.106617
  0
VERTEX
  5
1169
  8
STRAP
 10
25.466595999999988
 20
40.64161099999999
 30
0.0
 42
0.072341
  0
VERTEX
  5
116A
  8
STRAP
 10
25.941002999999998
 20
41.015943
 30
0.0
 42
0.039348
  0
VERTEX
  5
116B
  8
STRAP
 10
26.25427199999999
 20
41.403587999999999
 30
0.0
 42
0.058752
  0
SEQEND
  5
116C
  8
STRAP
  0
POLYLINE
  5
A74
  8
STRAP
 66
     1
 10
0.0
 20
0.0
 30
0.0
  0
VERTEX
  5
116D
  8
STRAP
 10
29.544838999999989
 20
39.565778000000002
 30
0.0
 42
-0.04337
  0
VERTEX
  5
116E
  8
STRAP
 10
29.208171
 20
39.142265999999999
 30
0.0
 42
-0.072341
  0
VERTEX
  5
116F
  8
STRAP
 10
28.744385000000001
 20
38.776313999999999
 30
0.0
 42
-0.106617
  0
VERTEX
  5
1170
  8
STRAP
 10
28.225172999999991
 20
38.609327999999998
 30
0.0
 42
-0.156851
  0
VERTEX
  5
1171
  8
STRAP
 10
27.872826
 20
38.685324000000001
 30
0.0
 42
-0.156851
  0
VERTEX
  5
1172
  8
STRAP
 10
27.630838000000001
 20
38.952466999999992
 30
0.0
 42
-0.106617
  0
VERTEX
  5
1173
  8
STRAP
 10
27.51584699999999
 20
39.485610999999999
 30
0.0
  0
VERTEX
  5
1174
  8
STRAP
 10
27.51584699999999
 20
40.675216999999989
 30
0.0
  0
SEQEND
  5
1175
  8
STRAP
  0
POLYLINE
  5
A7E
  8
STRAP
 66
     1
 10
0.0
 20
0.0
 30
0.0
  0
VERTEX
  5
1176
  8
STRAP
 10
27.46884699999999
 20
40.702351999999998
 30
0.0
  0
VERTEX
  5
1177
  8
STRAP
 10
27.46884699999999
 20
39.485610999999999
 30
0.0
 42
0.106617
  0
VERTEX
  5
1178
  8
STRAP
 10
27.58801699999999
 20
38.93309399999999
 30
0.0
 42
0.156851
  0
VERTEX
  5
1179
  8
STRAP
 10
27.849326000000001
 20
38.644621000000001
 30
0.0
 42
0.156851
  0
VERTEX
  5
117A
  8
STRAP
 10
28.229806
 20
38.562556999999998
 30
0.0
 42
0.106617
  0
VERTEX
  5
117B
  8
STRAP
 10
28.767884999999989
 20
38.735610999999992
 30
0.0
 42
0.072341
  0
VERTEX
  5
117C
  8
STRAP
 10
29.242291999999999
 20
39.109943000000001
 30
0.0
 42
0.043598
  0
VERTEX
  5
117D
  8
STRAP
 10
29.585618
 20
39.542234000000001
 30
0.0
 42
0.058752
  0
SEQEND
  5
117E
  8
STRAP
  0
POLYLINE
  5
A88
  8
STRAP
 66
     1
 10
0.0
 20
0.0
 30
0.0
  0
VERTEX
  5
117F
  8
STRAP
 10
21.246749000000001
 20
42.456620999999998
 30
0.0
  0
VERTEX
  5
1180
  8
STRAP
 10
20.380723
 20
42.956620999999998
 30
0.0
  0
SEQEND
  5
1181
  8
STRAP
  0
POLYLINE
  5
A8C
  8
STRAP
 66
     1
 10
0.0
 20
0.0
 30
0.0
  0
VERTEX
  5
1182
  8
STRAP
 10
30.817136000000001
 20
40.603090999999999
 30
0.0
  0
VERTEX
  5
1183
  8
STRAP
 10
30.817136000000001
 20
40.799182000000002
 30
0.0
 42
-0.088927
  0
VERTEX
  5
1184
  8
STRAP
 10
31.191317999999988
 20
41.836441000000001
 30
0.0
 42
-0.058752
  0
VERTEX
  5
1185
  8
STRAP
 10
31.628886999999992
 20
42.422955999999999
 30
0.0
 42
-0.072341
  0
VERTEX
  5
1186
  8
STRAP
 10
32.092674000000002
 20
42.788907999999999
 30
0.0
 42
-0.106617
  0
VERTEX
  5
1187
  8
STRAP
 10
32.611885999999998
 20
42.955893999999986
 30
0.0
 42
-0.156851
  0
VERTEX
  5
1188
  8
STRAP
 10
32.964232000000003
 20
42.879897999999997
 30
0.0
 42
-0.156851
  0
VERTEX
  5
1189
  8
STRAP
 10
33.206220000000002
 20
42.612754999999993
 30
0.0
 42
-0.106617
  0
VERTEX
  5
118A
  8
STRAP
 10
33.321212000000003
 20
42.079611
 30
0.0
  0
VERTEX
  5
118B
  8
STRAP
 10
33.321212000000003
 20
41.120944999999999
 30
0.0
  0
VERTEX
  5
118C
  8
STRAP
 10
33.368212
 20
41.14808
 30
0.0
  0
VERTEX
  5
118D
  8
STRAP
 10
33.368212
 20
42.079611
 30
0.0
 42
0.106617
  0
VERTEX
  5
118E
  8
STRAP
 10
33.249041999999989
 20
42.632128000000002
 30
0.0
 42
0.156851
  0
VERTEX
  5
118F
  8
STRAP
 10
32.987732000000001
 20
42.920600999999991
 30
0.0
 42
0.156851
  0
VERTEX
  5
1190
  8
STRAP
 10
32.607253
 20
43.002665
 30
0.0
 42
0.106617
  0
VERTEX
  5
1191
  8
STRAP
 10
32.069173999999997
 20
42.829611
 30
0.0
 42
0.072341
  0
VERTEX
  5
1192
  8
STRAP
 10
31.594765999999989
 20
42.45527899999999
 30
0.0
 42
0.058752
  0
VERTEX
  5
1193
  8
STRAP
 10
31.150614999999998
 20
41.859940999999999
 30
0.0
 42
0.089244
  0
VERTEX
  5
1194
  8
STRAP
 10
30.77013599999999
 20
40.803144000000003
 30
0.0
  0
VERTEX
  5
1195
  8
STRAP
 10
30.77013599999999
 20
40.625351999999999
 30
0.0
 42
0.106617
  0
SEQEND
  5
1196
  8
STRAP
  0
POLYLINE
  5
AA2
  8
STRAP
 66
     1
 10
0.0
 20
0.0
 30
0.0
  0
VERTEX
  5
1197
  8
STRAP
 10
32.121718000000001
 20
43.420594999999999
 30
0.0
 42
0.000005
  0
VERTEX
  5
1198
  8
STRAP
 10
32.121707000000001
 20
43.420600999999998
 30
0.0
 42
0.156851
  0
VERTEX
  5
1199
  8
STRAP
 10
31.741226999999999
 20
43.502665
 30
0.0
 42
0.106617
  0
VERTEX
  5
119A
  8
STRAP
 10
31.203147999999999
 20
43.329611
 30
0.0
 42
0.072341
  0
VERTEX
  5
119B
  8
STRAP
 10
30.728740999999989
 20
42.95527899999999
 30
0.0
 42
0.058752
  0
VERTEX
  5
119C
  8
STRAP
 10
30.284590000000001
 20
42.359940999999999
 30
0.0
 42
0.089244
  0
VERTEX
  5
119D
  8
STRAP
 10
29.904109999999989
 20
41.303144000000003
 30
0.0
  0
VERTEX
  5
119E
  8
STRAP
 10
29.904109999999989
 20
41.125351999999992
 30
0.0
 42
0.106617
  0
SEQEND
  5
119F
  8
STRAP
  0
POLYLINE
  5
AAC
  8
STRAP
 66
     1
 10
0.0
 20
0.0
 30
0.0
  0
VERTEX
  5
11A0
  8
STRAP
 10
27.51584699999999
 20
42.509090999999998
 30
0.0
  0
VERTEX
  5
11A1
  8
STRAP
 10
27.51584699999999
 20
42.705182000000001
 30
0.0
 42
-0.088927
  0
VERTEX
  5
11A2
  8
STRAP
 10
27.890028999999991
 20
43.742440999999999
 30
0.0
 42
-0.058752
  0
VERTEX
  5
11A3
  8
STRAP
 10
28.327598999999999
 20
44.328955999999998
 30
0.0
 42
-0.072341
  0
VERTEX
  5
11A4
  8
STRAP
 10
28.791384999999991
 20
44.694907999999991
 30
0.0
 42
-0.106617
  0
VERTEX
  5
11A5
  8
STRAP
 10
29.310597000000001
 20
44.861893999999992
 30
0.0
 42
-0.156851
  0
VERTEX
  5
11A6
  8
STRAP
 10
29.662942999999991
 20
44.785897999999989
 30
0.0
 42
-0.156851
  0
VERTEX
  5
11A7
  8
STRAP
 10
29.904931000000001
 20
44.518754999999992
 30
0.0
 42
-0.106617
  0
VERTEX
  5
11A8
  8
STRAP
 10
30.019922999999991
 20
43.985610999999999
 30
0.0
  0
VERTEX
  5
11A9
  8
STRAP
 10
30.019922999999991
 20
43.026944999999998
 30
0.0
  0
VERTEX
  5
11AA
  8
STRAP
 10
30.066922999999999
 20
43.054079999999992
 30
0.0
  0
VERTEX
  5
11AB
  8
STRAP
 10
30.066922999999999
 20
43.985610999999999
 30
0.0
 42
0.106617
  0
VERTEX
  5
11AC
  8
STRAP
 10
29.947752999999999
 20
44.538128
 30
0.0
 42
0.156851
  0
VERTEX
  5
11AD
  8
STRAP
 10
29.686443000000001
 20
44.826600999999997
 30
0.0
 42
0.156851
  0
VERTEX
  5
11AE
  8
STRAP
 10
29.305963999999999
 20
44.908664999999999
 30
0.0
 42
0.106617
  0
VERTEX
  5
11AF
  8
STRAP
 10
28.767884999999989
 20
44.735610999999999
 30
0.0
 42
0.072341
  0
VERTEX
  5
11B0
  8
STRAP
 10
28.293476999999999
 20
44.361278999999989
 30
0.0
 42
0.058752
  0
VERTEX
  5
11B1
  8
STRAP
 10
27.849326000000001
 20
43.765940999999998
 30
0.0
 42
0.089244
  0
VERTEX
  5
11B2
  8
STRAP
 10
27.46884699999999
 20
42.709144000000002
 30
0.0
  0
VERTEX
  5
11B3
  8
STRAP
 10
27.46884699999999
 20
42.531351999999998
 30
0.0
 42
0.106617
  0
SEQEND
  5
11B4
  8
STRAP
  0
POLYLINE
  5
AC2
  8
STRAP
 66
     1
 10
0.0
 20
0.0
 30
0.0
  0
VERTEX
  5
11B5
  8
STRAP
 10
28.820429999999991
 20
45.326594999999998
 30
0.0
 42
0.000005
  0
VERTEX
  5
11B6
  8
STRAP
 10
28.820418
 20
45.326600999999997
 30
0.0
 42
0.156851
  0
VERTEX
  5
11B7
  8
STRAP
 10
28.439938999999999
 20
45.408664999999992
 30
0.0
 42
0.106617
  0
VERTEX
  5
11B8
  8
STRAP
 10
27.901859000000002
 20
45.235610999999999
 30
0.0
 42
0.072341
  0
VERTEX
  5
11B9
  8
STRAP
 10
27.427451999999999
 20
44.861278999999989
 30
0.0
 42
0.058752
  0
VERTEX
  5
11BA
  8
STRAP
 10
26.983301000000001
 20
44.265940999999991
 30
0.0
 42
0.089244
  0
VERTEX
  5
11BB
  8
STRAP
 10
26.602820999999999
 20
43.209144000000002
 30
0.0
  0
VERTEX
  5
11BC
  8
STRAP
 10
26.602820999999999
 20
43.031351999999998
 30
0.0
 42
0.106617
  0
SEQEND
  5
11BD
  8
STRAP
  0
POLYLINE
  5
ACC
  8
STRAP
 66
     1
 10
0.0
 20
0.0
 30
0.0
  0
VERTEX
  5
11BE
  8
STRAP
 10
24.167558
 20
44.437351999999997
 30
0.0
  0
VERTEX
  5
11BF
  8
STRAP
 10
24.167558
 20
44.615144000000001
 30
0.0
 42
-0.089244
  0
VERTEX
  5
11C0
  8
STRAP
 10
24.548037000000001
 20
45.671940999999997
 30
0.0
 42
-0.058752
  0
VERTEX
  5
11C1
  8
STRAP
 10
24.992189
 20
46.267278999999988
 30
0.0
 42
-0.072341
  0
VERTEX
  5
11C2
  8
STRAP
 10
25.466595999999988
 20
46.641610999999997
 30
0.0
 42
-0.106617
  0
VERTEX
  5
11C3
  8
STRAP
 10
26.004674999999999
 20
46.814664999999998
 30
0.0
 42
-0.156851
  0
VERTEX
  5
11C4
  8
STRAP
 10
26.385155000000001
 20
46.732601000000003
 30
0.0
 42
-0.156851
  0
VERTEX
  5
11C5
  8
STRAP
 10
26.646464000000002
 20
46.444127999999999
 30
0.0
 42
-0.106617
  0
VERTEX
  5
11C6
  8
STRAP
 10
26.765633999999999
 20
45.891610999999997
 30
0.0
  0
VERTEX
  5
11C7
  8
STRAP
 10
26.765633999999999
 20
44.960079999999991
 30
0.0
  0
VERTEX
  5
11C8
  8
STRAP
 10
26.718634000000002
 20
44.932944999999997
 30
0.0
  0
VERTEX
  5
11C9
  8
STRAP
 10
26.718634000000002
 20
45.891610999999997
 30
0.0
 42
0.106617
  0
VERTEX
  5
11CA
  8
STRAP
 10
26.603642000000001
 20
46.42475499999999
 30
0.0
 42
0.156851
  0
VERTEX
  5
11CB
  8
STRAP
 10
26.361654999999999
 20
46.691897999999988
 30
0.0
 42
0.156851
  0
VERTEX
  5
11CC
  8
STRAP
 10
26.00930799999999
 20
46.767893999999991
 30
0.0
 42
0.106617
  0
VERTEX
  5
11CD
  8
STRAP
 10
25.490095999999991
 20
46.600907999999997
 30
0.0
 42
0.072341
  0
VERTEX
  5
11CE
  8
STRAP
 10
25.026309999999999
 20
46.234955999999997
 30
0.0
 42
0.058752
  0
VERTEX
  5
11CF
  8
STRAP
 10
24.588740999999999
 20
45.648440999999998
 30
0.0
 42
0.088927
  0
VERTEX
  5
11D0
  8
STRAP
 10
24.214558
 20
44.611181999999999
 30
0.0
  0
VERTEX
  5
11D1
  8
STRAP
 10
24.214558
 20
44.415090999999997
 30
0.0
  0
SEQEND
  5
11D2
  8
STRAP
  0
POLYLINE
  5
AE2
  8
STRAP
 66
     1
 10
0.0
 20
0.0
 30
0.0
  0
VERTEX
  5
11D3
  8
STRAP
 10
25.519141000000001
 20
47.232595000000003
 30
0.0
 42
0.000005
  0
VERTEX
  5
11D4
  8
STRAP
 10
25.519129
 20
47.232601000000003
 30
0.0
 42
0.156851
  0
VERTEX
  5
11D5
  8
STRAP
 10
25.138649999999998
 20
47.314664999999998
 30
0.0
 42
0.106617
  0
VERTEX
  5
11D6
  8
STRAP
 10
24.600570999999999
 20
47.141610999999997
 30
0.0
 42
0.072341
  0
VERTEX
  5
11D7
  8
STRAP
 10
24.126162999999998
 20
46.767278999999988
 30
0.0
 42
0.058752
  0
VERTEX
  5
11D8
  8
STRAP
 10
23.682012
 20
46.17194099999999
 30
0.0
 42
0.089244
  0
VERTEX
  5
11D9
  8
STRAP
 10
23.301532000000002
 20
45.115144000000001
 30
0.0
  0
VERTEX
  5
11DA
  8
STRAP
 10
23.301532000000002
 20
44.937351999999997
 30
0.0
 42
0.106617
  0
SEQEND
  5
11DB
  8
STRAP
  0
POLYLINE
  5
AEC
  8
STRAP
 66
     1
 10
0.0
 20
0.0
 30
0.0
  0
VERTEX
  5
11DC
  8
STRAP
 10
20.913268999999989
 20
46.321091000000003
 30
0.0
  0
VERTEX
  5
11DD
  8
STRAP
 10
20.913268999999989
 20
46.517181999999998
 30
0.0
 42
-0.088927
  0
VERTEX
  5
11DE
  8
STRAP
 10
21.287451999999998
 20
47.554440999999997
 30
0.0
 42
-0.058752
  0
VERTEX
  5
11DF
  8
STRAP
 10
21.725020999999991
 20
48.140956000000003
 30
0.0
 42
-0.072341
  0
VERTEX
  5
11E0
  8
STRAP
 10
22.188807000000001
 20
48.506908000000003
 30
0.0
 42
-0.106617
  0
VERTEX
  5
11E1
  8
STRAP
 10
22.70801899999999
 20
48.673893999999997
 30
0.0
 42
-0.156851
  0
VERTEX
  5
11E2
  8
STRAP
 10
23.060365999999998
 20
48.597898000000001
 30
0.0
 42
-0.156851
  0
VERTEX
  5
11E3
  8
STRAP
 10
23.302354000000001
 20
48.330754999999989
 30
0.0
 42
-0.106617
  0
VERTEX
  5
11E4
  8
STRAP
 10
23.417345000000001
 20
47.797610999999989
 30
0.0
  0
VERTEX
  5
11E5
  8
STRAP
 10
23.417345000000001
 20
46.838945000000002
 30
0.0
  0
VERTEX
  5
11E6
  8
STRAP
 10
23.464345000000002
 20
46.86607999999999
 30
0.0
  0
VERTEX
  5
11E7
  8
STRAP
 10
23.464345000000002
 20
47.797610999999989
 30
0.0
 42
0.106617
  0
VERTEX
  5
11E8
  8
STRAP
 10
23.345175000000001
 20
48.350128000000012
 30
0.0
 42
0.156851
  0
VERTEX
  5
11E9
  8
STRAP
 10
23.08386599999999
 20
48.638601000000001
 30
0.0
 42
0.156851
  0
VERTEX
  5
11EA
  8
STRAP
 10
22.703385999999998
 20
48.720664999999997
 30
0.0
 42
0.106617
  0
VERTEX
  5
11EB
  8
STRAP
 10
22.165306999999999
 20
48.547611000000003
 30
0.0
 42
0.072341
  0
VERTEX
  5
11EC
  8
STRAP
 10
21.690899999999999
 20
48.173279000000001
 30
0.0
 42
0.058752
  0
VERTEX
  5
11ED
  8
STRAP
 10
21.246749000000001
 20
47.577940999999988
 30
0.0
 42
0.089244
  0
VERTEX
  5
11EE
  8
STRAP
 10
20.866268999999999
 20
46.521144
 30
0.0
  0
VERTEX
  5
11EF
  8
STRAP
 10
20.866268999999999
 20
46.343352000000003
 30
0.0
 42
0.106617
  0
SEQEND
  5
11F0
  8
STRAP
  0
POLYLINE
  5
B02
  8
STRAP
 66
     1
 10
0.0
 20
0.0
 30
0.0
  0
VERTEX
  5
11F1
  8
STRAP
 10
22.217852000000001
 20
49.138595000000002
 30
0.0
 42
0.000005
  0
VERTEX
  5
11F2
  8
STRAP
 10
22.217839999999988
 20
49.138601000000001
 30
0.0
 42
0.156851
  0
VERTEX
  5
11F3
  8
STRAP
 10
21.837360999999991
 20
49.220664999999997
 30
0.0
 42
0.106617
  0
VERTEX
  5
11F4
  8
STRAP
 10
21.299282000000002
 20
49.047610999999989
 30
0.0
 42
0.072341
  0
VERTEX
  5
11F5
  8
STRAP
 10
20.824873999999991
 20
48.673279000000001
 30
0.0
 42
0.058752
  0
VERTEX
  5
11F6
  8
STRAP
 10
20.380723
 20
48.077940999999988
 30
0.0
 42
0.089244
  0
VERTEX
  5
11F7
  8
STRAP
 10
20.000243999999999
 20
47.021144
 30
0.0
  0
VERTEX
  5
11F8
  8
STRAP
 10
20.000243999999999
 20
46.843352000000003
 30
0.0
 42
0.106617
  0
SEQEND
  5
11F9
  8
STRAP
  0
POLYLINE
  5
B0C
  8
STRAP
 66
     1
 10
0.0
 20
0.0
 30
0.0
  0
VERTEX
  5
11FA
  8
STRAP
 10
22.645320000000002
 20
48.324746000000012
 30
0.0
 42
0.063111
  0
VERTEX
  5
11FB
  8
STRAP
 10
22.602947
 20
48.659112
 30
0.0
 42
0.156851
  0
SEQEND
  5
11FC
  8
STRAP
  0
POLYLINE
  5
B10
  8
STRAP
 66
     1
 10
0.0
 20
0.0
 30
0.0
  0
VERTEX
  5
11FD
  8
STRAP
 10
25.946608999999999
 20
46.418745999999999
 30
0.0
 42
0.063111
  0
VERTEX
  5
11FE
  8
STRAP
 10
25.90423599999999
 20
46.753112000000002
 30
0.0
 42
0.156851
  0
SEQEND
  5
11FF
  8
STRAP
  0
POLYLINE
  5
B14
  8
STRAP
 66
     1
 10
0.0
 20
0.0
 30
0.0
  0
VERTEX
  5
1200
  8
STRAP
 10
29.247897999999999
 20
44.512746
 30
0.0
 42
0.063111
  0
VERTEX
  5
1201
  8
STRAP
 10
29.205524
 20
44.847112000000003
 30
0.0
 42
0.156851
  0
SEQEND
  5
1202
  8
STRAP
  0
POLYLINE
  5
B18
  8
STRAP
 66
     1
 10
0.0
 20
0.0
 30
0.0
  0
VERTEX
  5
1203
  8
STRAP
 10
32.549185999999992
 20
42.606746000000001
 30
0.0
 42
0.063111
  0
VERTEX
  5
1204
  8
STRAP
 10
32.506813000000001
 20
42.94111199999999
 30
0.0
 42
0.156851
  0
SEQEND
  5
1205
  8
STRAP
  0
POLYLINE
  5
B1C
  8
DIM
 66
     1
 10
0.0
 20
0.0
 30
0.0
 41
0.23625
  0
VERTEX
  5
1206
  8
DIM
 10
11.242292000000001
 20
38.441181
 30
0.0
  0
VERTEX
  5
1207
  8
DIM
 10
11.739285999999989
 20
38.05401599999999
 30
0.0
 41
0.0
  0
VERTEX
  5
1208
  8
DIM
 10
12.445325
 20
37.504002999999997
 30
0.0
 41
0.0
  0
VERTEX
  5
1209
  8
DIM
 10
13.075324999999991
 20
37.504002999999997
 30
0.0
 41
0.0
  0
SEQEND
  5
120A
  8
DIM
  0
TEXT
  5
B22
  8
DIM
 10
13.390325000000001
 20
37.285252999999997
 30
0.0
 40
0.4375
  1
VELCRO STRAP
 41
0.75
 11
13.390325000000001
 21
37.504002999999997
 31
0.0
 73
     2
  0
DIMENSION
  5
B23
  8
DIM
  2
*D44
 10
6.2162920000000002
 20
10.725417999999991
 30
0.0
 11
6.2162919999999984
 21
11.225417999999999
 31
0.0
 70
     0
 13
7.2422919999999991
 23
11.725417999999999
 33
0.0
 14
7.2422919999999991
 24
10.725417999999991
 34
0.0
 50
90.0
  0
POLYLINE
  5
B31
  8
DIM
 66
     1
 10
0.0
 20
0.0
 30
0.0
 41
0.23625
  0
VERTEX
  5
120B
  8
DIM
 10
11.242292000000001
 20
10.725417999999991
 30
0.0
  0
VERTEX
  5
120C
  8
DIM
 10
11.739285999999989
 20
10.338252999999989
 30
0.0
 41
0.0
  0
VERTEX
  5
120D
  8
DIM
 10
12.445325
 20
9.7882400000000001
 30
0.0
 41
0.0
  0
VERTEX
  5
120E
  8
DIM
 10
13.075324999999991
 20
9.7882400000000001
 30
0.0
 41
0.0
  0
SEQEND
  5
120F
  8
DIM
  0
DIMENSION
  5
B37
  8
DIM
  2
*D45
 10
15.242292000000001
 20
12.472417999999999
 30
0.0
 11
11.242292000000001
 21
12.472417999999999
 31
0.0
 70
     0
 13
7.2422919999999991
 23
11.725417999999999
 33
0.0
 14
15.242292000000001
 24
11.725417999999999
 34
0.0
  0
LINE
  5
B45
  8
OBJECT
 10
7.2422919999999991
 20
10.725417999999991
 30
0.0
 11
15.242292000000001
 21
10.725417999999991
 31
0.0
  0
LINE
  5
B46
  8
OBJECT
 10
15.242292000000001
 20
11.725417999999999
 30
0.0
 11
7.2422919999999991
 21
11.725417999999999
 31
0.0
  0
LINE
  5
B47
  8
OBJECT
 10
7.2422919999999991
 20
11.725417999999999
 30
0.0
 11
7.2422919999999991
 21
10.725417999999991
 31
0.0
  0
TEXT
  5
B48
  8
DIM
 10
13.390325000000001
 20
9.5694900000000001
 30
0.0
 40
0.4375
  1
VELCRO STRAP
 41
0.75
 11
13.390325000000001
 21
9.7882400000000001
 31
0.0
 73
     2
  0
LINE
  5
B49
  8
OBJECT
 10
15.242292000000001
 20
11.725417999999999
 30
0.0
 11
15.242292000000001
 21
10.725417999999991
 31
0.0
  0
ENDSEC
  0
EOF
