  0
SECTION
  2
HEADER
  9
$ACADVER
  1
AC1014
  9
$ACADMAINTVER
 70
     9
  9
$DWGCODEPAGE
  3
ANSI_1252
  9
$INSBASE
 10
0.0
 20
0.0
 30
0.0
  9
$EXTMIN
 10
0.0
 20
0.0
 30
0.0
  9
$EXTMAX
 10
49.79999999999998
 20
30.98399999999999
 30
0.0
  9
$LIMMIN
 10
0.0
 20
0.0
  9
$LIMMAX
 10
46.5
 20
30.35999999999999
  9
$ORTHOMODE
 70
     0
  9
$REGENMODE
 70
     1
  9
$FILLMODE
 70
     1
  9
$QTEXTMODE
 70
     0
  9
$MIRRTEXT
 70
     0
  9
$DRAGMODE
 70
     2
  9
$LTSCALE
 40
1.0
  9
$OSMODE
 70
   229
  9
$ATTMODE
 70
     1
  9
$TEXTSIZE
 40
0.375
  9
$TRACEWID
 40
0.05
  9
$TEXTSTYLE
  7
TXT
  9
$CLAYER
  8
OBJECT
  9
$CELTYPE
  6
BYLAYER
  9
$CECOLOR
 62
   256
  9
$CELTSCALE
 40
1.0
  9
$DELOBJ
 70
     1
  9
$DISPSILH
 70
     0
  9
$DIMSCALE
 40
3.0
  9
$DIMASZ
 40
0.18
  9
$DIMEXO
 40
0.063
  9
$DIMDLI
 40
0.281
  9
$DIMRND
 40
0.0
  9
$DIMDLE
 40
0.0
  9
$DIMEXE
 40
0.093
  9
$DIMTP
 40
0.0
  9
$DIMTM
 40
0.0
  9
$DIMTXT
 40
0.125
  9
$DIMCEN
 40
0.09
  9
$DIMTSZ
 40
0.0
  9
$DIMTOL
 70
     0
  9
$DIMLIM
 70
     0
  9
$DIMTIH
 70
     1
  9
$DIMTOH
 70
     1
  9
$DIMSE1
 70
     0
  9
$DIMSE2
 70
     0
  9
$DIMTAD
 70
     0
  9
$DIMZIN
 70
     0
  9
$DIMBLK
  1

  9
$DIMASO
 70
     1
  9
$DIMSHO
 70
     1
  9
$DIMPOST
  1

  9
$DIMAPOST
  1

  9
$DIMALT
 70
     0
  9
$DIMALTD
 70
     2
  9
$DIMALTF
 40
25.4
  9
$DIMLFAC
 40
1.0
  9
$DIMTOFL
 70
     0
  9
$DIMTVP
 40
0.0
  9
$DIMTIX
 70
     0
  9
$DIMSOXD
 70
     0
  9
$DIMSAH
 70
     0
  9
$DIMBLK1
  1

  9
$DIMBLK2
  1

  9
$DIMSTYLE
  2
23NSTD
  9
$DIMCLRD
 70
     0
  9
$DIMCLRE
 70
     0
  9
$DIMCLRT
 70
     0
  9
$DIMTFAC
 40
1.0
  9
$DIMGAP
 40
0.09
  9
$DIMJUST
 70
     0
  9
$DIMSD1
 70
     0
  9
$DIMSD2
 70
     0
  9
$DIMTOLJ
 70
     1
  9
$DIMTZIN
 70
     0
  9
$DIMALTZ
 70
     0
  9
$DIMALTTZ
 70
     0
  9
$DIMFIT
 70
     1
  9
$DIMUPT
 70
     0
  9
$DIMUNIT
 70
     2
  9
$DIMDEC
 70
     3
  9
$DIMTDEC
 70
     3
  9
$DIMALTU
 70
     2
  9
$DIMALTTD
 70
     2
  9
$DIMTXSTY
  7
TXT
  9
$DIMAUNIT
 70
     0
  9
$LUNITS
 70
     2
  9
$LUPREC
 70
     3
  9
$SKETCHINC
 40
0.1
  9
$FILLETRAD
 40
0.0
  9
$AUNITS
 70
     0
  9
$AUPREC
 70
     0
  9
$MENU
  1
acad
  9
$ELEVATION
 40
0.0
  9
$PELEVATION
 40
0.0
  9
$THICKNESS
 40
0.0
  9
$LIMCHECK
 70
     0
  9
$BLIPMODE
 70
     0
  9
$CHAMFERA
 40
0.0
  9
$CHAMFERB
 40
0.0
  9
$CHAMFERC
 40
0.0
  9
$CHAMFERD
 40
0.0
  9
$SKPOLY
 70
     0
  9
$TDCREATE
 40
2448656.525045717
  9
$TDUPDATE
 40
2455336.410535833
  9
$TDINDWG
 40
0.0490733218
  9
$TDUSRTIMER
 40
0.0490733218
  9
$USRTIMER
 70
     1
  9
$ANGBASE
 50
0.0
  9
$ANGDIR
 70
     0
  9
$PDMODE
 70
     0
  9
$PDSIZE
 40
0.0
  9
$PLINEWID
 40
0.0
  9
$COORDS
 70
     0
  9
$SPLFRAME
 70
     0
  9
$SPLINETYPE
 70
     6
  9
$SPLINESEGS
 70
     8
  9
$ATTDIA
 70
     0
  9
$ATTREQ
 70
     1
  9
$HANDLING
 70
  4097
  9
$HANDSEED
  5
1063
  9
$SURFTAB1
 70
     6
  9
$SURFTAB2
 70
     6
  9
$SURFTYPE
 70
     6
  9
$SURFU
 70
     6
  9
$SURFV
 70
     6
  9
$UCSNAME
  2

  9
$UCSORG
 10
0.0
 20
0.0
 30
0.0
  9
$UCSXDIR
 10
1.0
 20
0.0
 30
0.0
  9
$UCSYDIR
 10
0.0
 20
1.0
 30
0.0
  9
$PUCSNAME
  2

  9
$PUCSORG
 10
0.0
 20
0.0
 30
0.0
  9
$PUCSXDIR
 10
1.0
 20
0.0
 30
0.0
  9
$PUCSYDIR
 10
0.0
 20
1.0
 30
0.0
  9
$USERI1
 70
     0
  9
$USERI2
 70
     0
  9
$USERI3
 70
     0
  9
$USERI4
 70
     0
  9
$USERI5
 70
     0
  9
$USERR1
 40
0.0
  9
$USERR2
 40
0.0
  9
$USERR3
 40
0.0
  9
$USERR4
 40
0.0
  9
$USERR5
 40
0.0
  9
$WORLDVIEW
 70
     1
  9
$SHADEDGE
 70
     3
  9
$SHADEDIF
 70
    70
  9
$TILEMODE
 70
     1
  9
$MAXACTVP
 70
    16
  9
$PINSBASE
 10
0.0
 20
0.0
 30
0.0
  9
$PLIMCHECK
 70
     0
  9
$PEXTMIN
 10
1.000000000000000E+20
 20
1.000000000000000E+20
 30
1.000000000000000E+20
  9
$PEXTMAX
 10
-1.000000000000000E+20
 20
-1.000000000000000E+20
 30
-1.000000000000000E+20
  9
$PLIMMIN
 10
0.0
 20
0.0
  9
$PLIMMAX
 10
12.0
 20
9.0
  9
$UNITMODE
 70
     0
  9
$VISRETAIN
 70
     0
  9
$PLINEGEN
 70
     0
  9
$PSLTSCALE
 70
     0
  9
$TREEDEPTH
 70
  3020
  9
$PICKSTYLE
 70
     1
  9
$CMLSTYLE
  2
STANDARD
  9
$CMLJUST
 70
     0
  9
$CMLSCALE
 40
1.0
  9
$PROXYGRAPHICS
 70
     1
  9
$MEASUREMENT
 70
     0
  0
ENDSEC
  0
SECTION
  2
CLASSES
  0
CLASS
  1
ACDBDICTIONARYWDFLT
  2
AcDbDictionaryWithDefault
  3
AutoCAD 2000
 90
        0
280
     0
281
     0
  0
CLASS
  1
ACDBPLACEHOLDER
  2
AcDbPlaceHolder
  3
AutoCAD 2000
 90
        0
280
     0
281
     0
  0
CLASS
  1
LAYOUT
  2
AcDbLayout
  3
AutoCAD 2000
 90
        0
280
     0
281
     0
  0
CLASS
  1
LONG_TRANSACTION
  2
AcDbLongTransaction
  3
AutoCAD 2000
 90
        0
280
     0
281
     0
  0
CLASS
  1
LWPOLYLINE
  2
AcDbPolyline
  3
AutoCAD 2000
 90
        0
280
     0
281
     1
  0
CLASS
  1
HATCH
  2
AcDbHatch
  3
AutoCAD 2000
 90
        0
280
     0
281
     1
  0
CLASS
  1
XRECORD
  2
AcDbXrecord
  3
AutoCAD 2000
 90
        0
280
     0
281
     0
  0
ENDSEC
  0
SECTION
  2
TABLES
  0
TABLE
  2
VPORT
  5
749
330
0
100
AcDbSymbolTable
 70
     2
  0
VPORT
  5
103D
330
749
100
AcDbSymbolTableRecord
100
AcDbViewportTableRecord
  2
*ACTIVE
 70
     0
 10
0.0
 20
0.0
 11
1.0
 21
1.0
 12
24.89986754062824
 22
15.49273674904896
 13
0.0
 23
0.0
 14
1.0
 24
1.0
 15
0.5
 25
0.5
 16
0.0
 26
0.0
 36
1.0
 17
0.0
 27
0.0
 37
0.0
 40
31.31429776735156
 41
1.931095406360423
 42
50.0
 43
0.0
 44
0.0
 50
0.0
 51
0.0
 71
     0
 72
   100
 73
     1
 74
     0
 75
     0
 76
     0
 77
     0
 78
     0
  0
ENDTAB
  0
TABLE
  2
LTYPE
  5
746
330
0
100
AcDbSymbolTable
 70
     6
  0
LTYPE
  5
754
330
746
100
AcDbSymbolTableRecord
100
AcDbLinetypeTableRecord
  2
BYBLOCK
 70
     0
  3

 72
    65
 73
     0
 40
0.0
  0
LTYPE
  5
755
330
746
100
AcDbSymbolTableRecord
100
AcDbLinetypeTableRecord
  2
BYLAYER
 70
     0
  3

 72
    65
 73
     0
 40
0.0
  0
LTYPE
  5
756
330
746
100
AcDbSymbolTableRecord
100
AcDbLinetypeTableRecord
  2
CONTINUOUS
 70
     0
  3
Solid line
 72
    65
 73
     0
 40
0.0
  0
LTYPE
  5
766
330
746
100
AcDbSymbolTableRecord
100
AcDbLinetypeTableRecord
  2
HIDDEN
 70
     0
  3
_ _ _ _ _ _ _ _ _ _ _ _ _ _ _ _ _ _ _ _ _ _ _
 72
    65
 73
     2
 40
0.375
 49
0.25
 74
     0
 49
-0.125
 74
     0
  0
LTYPE
  5
767
330
746
100
AcDbSymbolTableRecord
100
AcDbLinetypeTableRecord
  2
PHANTOM
 70
     0
  3
_____ _ _ _____ _ _ _____ _ _ _____ _ _ ____
 72
    65
 73
     6
 40
2.5
 49
1.25
 74
     0
 49
-0.25
 74
     0
 49
0.25
 74
     0
 49
-0.25
 74
     0
 49
0.25
 74
     0
 49
-0.25
 74
     0
  0
LTYPE
  5
768
330
746
100
AcDbSymbolTableRecord
100
AcDbLinetypeTableRecord
  2
CENTER
 70
     0
  3
____ _ ____ _ ____ _ ____ _ ____ _ ____ _ ____
 72
    65
 73
     4
 40
2.0
 49
1.25
 74
     0
 49
-0.25
 74
     0
 49
0.25
 74
     0
 49
-0.25
 74
     0
  0
LTYPE
  5
EAB
330
746
100
AcDbSymbolTableRecord
100
AcDbLinetypeTableRecord
  2
HIDDEN2
 70
     0
  3
_ _ _ _ _ _ _ _ _ _ _ _ _ _ _ _ _ _ _ _ _ _ _ _
 72
    65
 73
     2
 40
0.1875
 49
0.125
 74
     0
 49
-0.0625
 74
     0
  0
LTYPE
  5
EAC
330
746
100
AcDbSymbolTableRecord
100
AcDbLinetypeTableRecord
  2
PHANTOM2
 70
     0
  3
___ _ _ ___ _ _ ___ _ _ ___ _ _ ___ _ _ ___ _ _
 72
    65
 73
     6
 40
1.25
 49
0.625
 74
     0
 49
-0.125
 74
     0
 49
0.125
 74
     0
 49
-0.125
 74
     0
 49
0.125
 74
     0
 49
-0.125
 74
     0
  0
ENDTAB
  0
TABLE
  2
LAYER
  5
743
330
0
100
AcDbSymbolTable
 70
     9
  0
LAYER
  5
751
330
743
100
AcDbSymbolTableRecord
100
AcDbLayerTableRecord
  2
0
 70
     0
 62
     7
  6
CONTINUOUS
  0
LAYER
  5
763
330
743
100
AcDbSymbolTableRecord
100
AcDbLayerTableRecord
  2
OBJECT
 70
     0
 62
     7
  6
CONTINUOUS
  0
LAYER
  5
769
330
743
100
AcDbSymbolTableRecord
100
AcDbLayerTableRecord
  2
DIM
 70
     0
 62
     7
  6
CONTINUOUS
  0
LAYER
  5
76A
330
743
100
AcDbSymbolTableRecord
100
AcDbLayerTableRecord
  2
HIDDEN
 70
     0
 62
     7
  6
HIDDEN
  0
LAYER
  5
76B
330
743
100
AcDbSymbolTableRecord
100
AcDbLayerTableRecord
  2
BEND
 70
     0
 62
     7
  6
PHANTOM
  0
LAYER
  5
76C
330
743
100
AcDbSymbolTableRecord
100
AcDbLayerTableRecord
  2
TEXT
 70
     0
 62
     7
  6
CONTINUOUS
  0
LAYER
  5
76D
330
743
100
AcDbSymbolTableRecord
100
AcDbLayerTableRecord
  2
TITLE
 70
     0
 62
     7
  6
CONTINUOUS
  0
LAYER
  5
76E
330
743
100
AcDbSymbolTableRecord
100
AcDbLayerTableRecord
  2
CENTER
 70
     0
 62
     7
  6
CENTER
  0
LAYER
  5
76F
330
743
100
AcDbSymbolTableRecord
100
AcDbLayerTableRecord
  2
DEFPOINTS
 70
     0
 62
     7
  6
CONTINUOUS
  0
ENDTAB
  0
TABLE
  2
STYLE
  5
744
330
0
100
AcDbSymbolTable
 70
     2
  0
STYLE
  5
752
330
744
100
AcDbSymbolTableRecord
100
AcDbTextStyleTableRecord
  2
STANDARD
 70
     0
 40
0.0
 41
1.0
 50
0.0
 71
     0
 42
0.2
  3
txt
  4

  0
STYLE
  5
764
330
744
100
AcDbSymbolTableRecord
100
AcDbTextStyleTableRecord
  2
TXT
 70
     0
 40
0.0
 41
0.75
 50
0.0
 71
     0
 42
0.375
  3
TXT.shx
  4

  0
ENDTAB
  0
TABLE
  2
VIEW
  5
747
330
0
100
AcDbSymbolTable
 70
     0
  0
ENDTAB
  0
TABLE
  2
UCS
  5
748
330
0
100
AcDbSymbolTable
 70
     0
  0
ENDTAB
  0
TABLE
  2
APPID
  5
74A
330
0
100
AcDbSymbolTable
 70
     1
  0
APPID
  5
753
330
74A
100
AcDbSymbolTableRecord
100
AcDbRegAppTableRecord
  2
ACAD
 70
     0
  0
ENDTAB
  0
TABLE
  2
DIMSTYLE
  5
74B
330
0
100
AcDbSymbolTable
 70
     2
  0
DIMSTYLE
105
770
102
{ACAD_REACTORS
330
A5B
330
A69
330
A77
330
A85
330
A93
330
AA1
330
AB2
330
AC0
330
ACE
330
ADC
330
AE9
330
AF7
330
B05
330
B13
330
B21
330
B2F
330
B3D
330
B4B
330
B59
330
B66
330
B74
330
B81
330
B8E
330
B9C
330
BAA
330
BB8
330
BC6
330
BDC
330
BF2
330
C2E
330
C3C
330
C4A
330
C5A
330
C78
330
E1F
330
E4F
102
}
330
74B
100
AcDbSymbolTableRecord
100
AcDbDimStyleTableRecord
  2
23NSTD
 70
     0
  3

  4

  5

  6

  7

 40
3.0
 41
0.18
 42
0.063
 43
0.281
 44
0.093
 45
0.0
 46
0.0
 47
0.0
 48
0.0
140
0.125
141
0.09
142
0.0
143
25.4
144
1.0
145
0.0
146
1.0
147
0.09
 71
     0
 72
     0
 73
     1
 74
     1
 75
     0
 76
     0
 77
     0
 78
     0
170
     0
171
     2
172
     0
173
     0
174
     0
175
     0
176
     0
177
     0
178
     0
270
     2
271
     3
272
     3
273
     2
274
     2
340
764
275
     0
280
     0
281
     0
282
     0
283
     1
284
     0
285
     0
286
     0
287
     1
288
     0
  0
DIMSTYLE
105
771
330
74B
100
AcDbSymbolTableRecord
100
AcDbDimStyleTableRecord
  2
23NSTDI
 70
     0
  3

  4

  5

  6

  7

 40
3.0
 41
0.18
 42
0.063
 43
0.38
 44
0.093
 45
0.0
 46
0.0
 47
0.0
 48
0.0
140
0.125
141
0.09
142
0.0
143
25.4
144
1.0
145
0.0
146
1.0
147
0.09
 71
     0
 72
     0
 73
     1
 74
     1
 75
     0
 76
     0
 77
     0
 78
     0
170
     0
171
     2
172
     0
173
     0
174
     1
175
     0
176
     0
177
     0
178
     0
270
     2
271
     3
272
     3
273
     2
274
     2
340
764
275
     0
280
     0
281
     0
282
     0
283
     1
284
     0
285
     0
286
     0
287
     3
288
     0
  0
ENDTAB
  0
TABLE
  2
BLOCK_RECORD
  5
742
330
0
100
AcDbSymbolTable
 70
    37
  0
BLOCK_RECORD
  5
75F
102
{ACAD_XDICTIONARY
360
1061
102
}
330
742
100
AcDbSymbolTableRecord
100
AcDbBlockTableRecord
  2
*MODEL_SPACE
  0
BLOCK_RECORD
  5
75B
102
{ACAD_XDICTIONARY
360
105F
102
}
330
742
100
AcDbSymbolTableRecord
100
AcDbBlockTableRecord
  2
*PAPER_SPACE
  0
BLOCK_RECORD
  5
779
330
742
100
AcDbSymbolTableRecord
100
AcDbBlockTableRecord
  2
HBS
  0
BLOCK_RECORD
  5
A5C
330
742
100
AcDbSymbolTableRecord
100
AcDbBlockTableRecord
  2
*D1
  0
BLOCK_RECORD
  5
A6A
330
742
100
AcDbSymbolTableRecord
100
AcDbBlockTableRecord
  2
*D2
  0
BLOCK_RECORD
  5
A78
330
742
100
AcDbSymbolTableRecord
100
AcDbBlockTableRecord
  2
*D3
  0
BLOCK_RECORD
  5
A86
330
742
100
AcDbSymbolTableRecord
100
AcDbBlockTableRecord
  2
*D4
  0
BLOCK_RECORD
  5
A94
330
742
100
AcDbSymbolTableRecord
100
AcDbBlockTableRecord
  2
*D5
  0
BLOCK_RECORD
  5
AA2
330
742
100
AcDbSymbolTableRecord
100
AcDbBlockTableRecord
  2
*D6
  0
BLOCK_RECORD
  5
AB3
330
742
100
AcDbSymbolTableRecord
100
AcDbBlockTableRecord
  2
*D7
  0
BLOCK_RECORD
  5
AC1
330
742
100
AcDbSymbolTableRecord
100
AcDbBlockTableRecord
  2
*D8
  0
BLOCK_RECORD
  5
ACF
330
742
100
AcDbSymbolTableRecord
100
AcDbBlockTableRecord
  2
*D9
  0
BLOCK_RECORD
  5
ADD
330
742
100
AcDbSymbolTableRecord
100
AcDbBlockTableRecord
  2
*D10
  0
BLOCK_RECORD
  5
AEA
330
742
100
AcDbSymbolTableRecord
100
AcDbBlockTableRecord
  2
*D11
  0
BLOCK_RECORD
  5
AF8
330
742
100
AcDbSymbolTableRecord
100
AcDbBlockTableRecord
  2
*D12
  0
BLOCK_RECORD
  5
B06
330
742
100
AcDbSymbolTableRecord
100
AcDbBlockTableRecord
  2
*D13
  0
BLOCK_RECORD
  5
B14
330
742
100
AcDbSymbolTableRecord
100
AcDbBlockTableRecord
  2
*D14
  0
BLOCK_RECORD
  5
B22
330
742
100
AcDbSymbolTableRecord
100
AcDbBlockTableRecord
  2
*D15
  0
BLOCK_RECORD
  5
B30
330
742
100
AcDbSymbolTableRecord
100
AcDbBlockTableRecord
  2
*D16
  0
BLOCK_RECORD
  5
B3E
330
742
100
AcDbSymbolTableRecord
100
AcDbBlockTableRecord
  2
*D17
  0
BLOCK_RECORD
  5
B4C
330
742
100
AcDbSymbolTableRecord
100
AcDbBlockTableRecord
  2
*D18
  0
BLOCK_RECORD
  5
B5A
330
742
100
AcDbSymbolTableRecord
100
AcDbBlockTableRecord
  2
*D19
  0
BLOCK_RECORD
  5
B67
330
742
100
AcDbSymbolTableRecord
100
AcDbBlockTableRecord
  2
*D20
  0
BLOCK_RECORD
  5
B75
330
742
100
AcDbSymbolTableRecord
100
AcDbBlockTableRecord
  2
*D21
  0
BLOCK_RECORD
  5
B82
330
742
100
AcDbSymbolTableRecord
100
AcDbBlockTableRecord
  2
*D22
  0
BLOCK_RECORD
  5
B8F
330
742
100
AcDbSymbolTableRecord
100
AcDbBlockTableRecord
  2
*D23
  0
BLOCK_RECORD
  5
B9D
330
742
100
AcDbSymbolTableRecord
100
AcDbBlockTableRecord
  2
*D24
  0
BLOCK_RECORD
  5
BAB
330
742
100
AcDbSymbolTableRecord
100
AcDbBlockTableRecord
  2
*D25
  0
BLOCK_RECORD
  5
BB9
330
742
100
AcDbSymbolTableRecord
100
AcDbBlockTableRecord
  2
*D26
  0
BLOCK_RECORD
  5
BC7
330
742
100
AcDbSymbolTableRecord
100
AcDbBlockTableRecord
  2
*D27
  0
BLOCK_RECORD
  5
BDD
330
742
100
AcDbSymbolTableRecord
100
AcDbBlockTableRecord
  2
*D28
  0
BLOCK_RECORD
  5
BF3
330
742
100
AcDbSymbolTableRecord
100
AcDbBlockTableRecord
  2
*D29
  0
BLOCK_RECORD
  5
C2F
330
742
100
AcDbSymbolTableRecord
100
AcDbBlockTableRecord
  2
*D30
  0
BLOCK_RECORD
  5
C3D
330
742
100
AcDbSymbolTableRecord
100
AcDbBlockTableRecord
  2
*D31
  0
BLOCK_RECORD
  5
C4B
330
742
100
AcDbSymbolTableRecord
100
AcDbBlockTableRecord
  2
*D32
  0
BLOCK_RECORD
  5
C5B
330
742
100
AcDbSymbolTableRecord
100
AcDbBlockTableRecord
  2
*D33
  0
BLOCK_RECORD
  5
C79
330
742
100
AcDbSymbolTableRecord
100
AcDbBlockTableRecord
  2
*D34
  0
BLOCK_RECORD
  5
E20
330
742
100
AcDbSymbolTableRecord
100
AcDbBlockTableRecord
  2
*D35
  0
BLOCK_RECORD
  5
E50
330
742
100
AcDbSymbolTableRecord
100
AcDbBlockTableRecord
  2
*D36
  0
ENDTAB
  0
ENDSEC
  0
SECTION
  2
BLOCKS
  0
BLOCK
  5
760
330
75F
100
AcDbEntity
  8
0
100
AcDbBlockBegin
  2
*MODEL_SPACE
 70
     0
 10
0.0
 20
0.0
 30
0.0
  3
*MODEL_SPACE
  1

  0
ENDBLK
  5
761
330
75F
100
AcDbEntity
  8
0
100
AcDbBlockEnd
  0
BLOCK
  5
75C
330
75B
100
AcDbEntity
 67
     1
  8
0
100
AcDbBlockBegin
  2
*PAPER_SPACE
 70
     0
 10
0.0
 20
0.0
 30
0.0
  3
*PAPER_SPACE
  1

  0
ENDBLK
  5
75D
330
75B
100
AcDbEntity
 67
     1
  8
0
100
AcDbBlockEnd
  0
BLOCK
  5
77A
330
779
100
AcDbEntity
  8
0
100
AcDbBlockBegin
  2
HBS
 70
     0
 10
0.0
 20
0.0
 30
0.0
  3
HBS
  1

  0
LINE
  5
EAD
330
779
100
AcDbEntity
  8
TITLE
100
AcDbLine
 10
0.0620000000000118
 20
10.266
 30
0.0
 11
16.53800000000001
 21
10.266
 31
0.0
  0
LINE
  5
EAE
330
779
100
AcDbEntity
  8
TITLE
100
AcDbLine
 10
16.53800000000001
 20
0.0620000000000012
 30
0.0
 11
0.0620000000000118
 21
0.0620000000000012
 31
0.0
  0
LINE
  5
EAF
330
779
100
AcDbEntity
  8
TITLE
100
AcDbLine
 10
0.0
 20
10.32799999999999
 30
0.0
 11
16.59999999999999
 21
10.32799999999999
 31
0.0
  0
LINE
  5
EB0
330
779
100
AcDbEntity
  8
TITLE
100
AcDbLine
 10
16.59999999999999
 20
0.0
 30
0.0
 11
0.0
 21
0.0
 31
0.0
  0
LINE
  5
EB1
330
779
100
AcDbEntity
  8
TITLE
100
AcDbLine
 10
0.0620000000000118
 20
9.848000000000002
 30
0.0
 11
16.53800000000001
 21
9.848000000000006
 31
0.0
  0
LINE
  5
EB2
330
779
100
AcDbEntity
  8
TITLE
100
AcDbLine
 10
0.0620000000000118
 20
0.0620000000000012
 30
0.0
 11
0.0620000000000118
 21
10.266
 31
0.0
  0
LINE
  5
EB3
330
779
100
AcDbEntity
  8
TITLE
100
AcDbLine
 10
0.0
 20
0.0
 30
0.0
 11
0.0
 21
10.32799999999999
 31
0.0
  0
TEXT
  5
EB4
330
779
100
AcDbEntity
  8
TEXT
100
AcDbText
 10
0.2078333333333452
 20
9.888079195640081
 30
0.0
 40
0.125
  1
NAME
  7
TXT
 72
     1
 11
0.4370000000000119
 21
9.888079195640081
 31
0.0
100
AcDbText
  0
TEXT
  5
EB5
330
779
100
AcDbEntity
  8
TEXT
100
AcDbText
 10
0.2078333333333452
 20
10.09641252897341
 30
0.0
 40
0.125
  1
PART
  7
TXT
 72
     1
 11
0.4370000000000119
 21
10.09641252897341
 31
0.0
100
AcDbText
  0
LINE
  5
EB6
330
779
100
AcDbEntity
  8
TITLE
100
AcDbLine
 10
0.8120000000000118
 20
9.848000000000002
 30
0.0
 11
0.8120000000000118
 21
10.266
 31
0.0
  0
LINE
  5
EB7
330
779
100
AcDbEntity
  8
TITLE
100
AcDbLine
 10
7.0
 20
10.266
 30
0.0
 11
7.0
 21
9.848000000000002
 31
0.0
  0
LINE
  5
EB8
330
779
100
AcDbEntity
  8
TITLE
100
AcDbLine
 10
7.062000000000011
 20
10.266
 30
0.0
 11
7.062000000000011
 21
9.848000000000002
 31
0.0
  0
LINE
  5
EB9
330
779
100
AcDbEntity
  8
TITLE
100
AcDbLine
 10
7.812000000000011
 20
10.266
 30
0.0
 11
7.812000000000011
 21
9.848000000000002
 31
0.0
  0
TEXT
  5
EBA
330
779
100
AcDbEntity
  8
TEXT
100
AcDbText
 10
7.312000000000011
 20
9.888079195640081
 30
0.0
 40
0.125
  1
No.
  7
TXT
 72
     1
 11
7.437000000000011
 21
9.888079195640081
 31
0.0
100
AcDbText
  0
TEXT
  5
EBB
330
779
100
AcDbEntity
  8
TEXT
100
AcDbText
 10
7.207833333333344
 20
10.09641252897341
 30
0.0
 40
0.125
  1
PART
  7
TXT
 72
     1
 11
7.437000000000011
 21
10.09641252897341
 31
0.0
100
AcDbText
  0
LINE
  5
EBC
330
779
100
AcDbEntity
  8
TITLE
100
AcDbLine
 10
16.53800000000001
 20
10.266
 30
0.0
 11
16.53800000000001
 21
0.0620000000000012
 31
0.0
  0
LINE
  5
EBD
330
779
100
AcDbEntity
  8
TITLE
100
AcDbLine
 10
16.59999999999999
 20
10.32799999999999
 30
0.0
 11
16.59999999999999
 21
0.0
 31
0.0
  0
TEXT
  5
EBE
330
779
100
AcDbEntity
  8
TEXT
100
AcDbText
 10
14.22865779971668
 20
10.09641252897341
 30
0.0
 40
0.125
  1
REV.
  7
TXT
 72
     1
 11
14.43699113305001
 21
10.09641252897341
 31
0.0
100
AcDbText
  0
TEXT
  5
EBF
330
779
100
AcDbEntity
  8
TEXT
100
AcDbText
 10
14.20782446638335
 20
9.888079195640081
 30
0.0
 40
0.125
  1
DATE
  7
TXT
 72
     1
 11
14.43699113305001
 21
9.888079195640081
 31
0.0
100
AcDbText
  0
LINE
  5
EC0
330
779
100
AcDbEntity
  8
TITLE
100
AcDbLine
 10
14.06199113305001
 20
10.266
 30
0.0
 11
14.06199113305001
 21
9.848000000000002
 31
0.0
  0
LINE
  5
EC1
330
779
100
AcDbEntity
  8
TITLE
100
AcDbLine
 10
14.81199113305001
 20
10.266
 30
0.0
 11
14.81199113305001
 21
9.848000000000002
 31
0.0
  0
LINE
  5
EC2
330
779
100
AcDbEntity
  8
TITLE
100
AcDbLine
 10
13.99999113305
 20
10.266
 30
0.0
 11
13.99999113305
 21
9.848000000000002
 31
0.0
  0
ENDBLK
  5
790
330
779
100
AcDbEntity
  8
0
100
AcDbBlockEnd
  0
BLOCK
  5
A67
330
A5C
100
AcDbEntity
  8
0
100
AcDbBlockBegin
  2
*D1
 70
     1
 10
0.0
 20
0.0
 30
0.0
  3
*D1
  1

  0
LINE
  5
EEE
330
A5C
100
AcDbEntity
  8
DIM
 62
     0
100
AcDbLine
 10
8.658874226310963
 20
14.01031736295449
 30
0.0
 11
3.087804703291564
 21
14.01031736295449
 31
0.0
  0
LINE
  5
EEF
330
A5C
100
AcDbEntity
  8
DIM
 62
     0
100
AcDbLine
 10
8.658874226310963
 20
10.6303173629545
 30
0.0
 11
3.087804703291563
 21
10.6303173629545
 31
0.0
  0
LINE
  5
EF0
330
A5C
100
AcDbEntity
  8
DIM
 62
     0
100
AcDbLine
 10
3.366804703291564
 20
13.47031736295449
 30
0.0
 11
3.366804703291563
 21
12.77781736295449
 31
0.0
  0
LINE
  5
EF1
330
A5C
100
AcDbEntity
  8
DIM
 62
     0
100
AcDbLine
 10
3.366804703291563
 20
11.1703173629545
 30
0.0
 11
3.366804703291563
 21
11.8628173629545
 31
0.0
  0
SOLID
  5
EF2
330
A5C
100
AcDbEntity
  8
DIM
 62
     0
100
AcDbTrace
 10
3.276804703291564
 20
13.47031736295449
 30
0.0
 11
3.456804703291564
 21
13.47031736295449
 31
0.0
 12
3.366804703291564
 22
14.01031736295449
 32
0.0
 13
3.366804703291564
 23
14.01031736295449
 33
0.0
  0
SOLID
  5
EF3
330
A5C
100
AcDbEntity
  8
DIM
 62
     0
100
AcDbTrace
 10
3.276804703291563
 20
11.1703173629545
 30
0.0
 11
3.456804703291563
 21
11.1703173629545
 31
0.0
 12
3.366804703291563
 22
10.6303173629545
 32
0.0
 13
3.366804703291563
 23
10.6303173629545
 33
0.0
  0
MTEXT
  5
EF4
330
A5C
100
AcDbEntity
  8
DIM
 62
     0
100
AcDbMText
 10
3.366804703291562
 20
12.3203173629545
 30
0.0
 40
0.375
 41
0.0
 71
     5
 72
     1
  1
\A1;3.380
  7
TXT
1001
ACAD
1000
MTEXTBEGIN
1070
    73
1070
     1
1070
    44
1040
1.0
1070
    74
1070
     0
1000
MTEXTEND
  0
POINT
  5
EF5
330
A5C
100
AcDbEntity
  8
DEFPOINTS
 62
     0
100
AcDbPoint
 10
8.847874226310963
 20
14.01031736295449
 30
0.0
  0
POINT
  5
EF6
330
A5C
100
AcDbEntity
  8
DEFPOINTS
 62
     0
100
AcDbPoint
 10
8.847874226310963
 20
10.6303173629545
 30
0.0
  0
POINT
  5
EF7
330
A5C
100
AcDbEntity
  8
DEFPOINTS
 62
     0
100
AcDbPoint
 10
3.366804703291563
 20
10.6303173629545
 30
0.0
  0
ENDBLK
  5
A68
330
A5C
100
AcDbEntity
  8
0
100
AcDbBlockEnd
  0
BLOCK
  5
A75
330
A6A
100
AcDbEntity
  8
0
100
AcDbBlockBegin
  2
*D2
 70
     1
 10
0.0
 20
0.0
 30
0.0
  3
*D2
  1

  0
LINE
  5
F18
330
A6A
100
AcDbEntity
  8
DIM
 62
     0
100
AcDbLine
 10
8.94387422631096
 20
12.07031736295449
 30
0.0
 11
7.618677908239798
 21
12.07031736295449
 31
0.0
  0
LINE
  5
F19
330
A6A
100
AcDbEntity
  8
DIM
 62
     0
100
AcDbLine
 10
8.94387422631096
 20
11.44531736295449
 30
0.0
 11
7.618677908239798
 21
11.44531736295449
 31
0.0
  0
LINE
  5
F1A
330
A6A
100
AcDbEntity
  8
DIM
 62
     0
100
AcDbLine
 10
7.897677908239798
 20
12.61031736295449
 30
0.0
 11
7.897677908239798
 21
13.15031736295449
 31
0.0
  0
LINE
  5
F1B
330
A6A
100
AcDbEntity
  8
DIM
 62
     0
100
AcDbLine
 10
7.897677908239798
 20
10.90531736295449
 30
0.0
 11
7.897677908239798
 21
10.36531736295449
 31
0.0
  0
LINE
  5
F1C
330
A6A
100
AcDbEntity
  8
DIM
 62
     0
100
AcDbLine
 10
7.897677908239798
 20
10.36531736295449
 30
0.0
 11
7.357677908239798
 21
10.36531736295449
 31
0.0
  0
SOLID
  5
F1D
330
A6A
100
AcDbEntity
  8
DIM
 62
     0
100
AcDbTrace
 10
7.807677908239798
 20
12.61031736295449
 30
0.0
 11
7.987677908239798
 21
12.61031736295449
 31
0.0
 12
7.897677908239798
 22
12.07031736295449
 32
0.0
 13
7.897677908239798
 23
12.07031736295449
 33
0.0
  0
SOLID
  5
F1E
330
A6A
100
AcDbEntity
  8
DIM
 62
     0
100
AcDbTrace
 10
7.807677908239798
 20
10.90531736295449
 30
0.0
 11
7.987677908239798
 21
10.90531736295449
 31
0.0
 12
7.897677908239798
 22
11.44531736295449
 32
0.0
 13
7.897677908239798
 23
11.44531736295449
 33
0.0
  0
MTEXT
  5
F1F
330
A6A
100
AcDbEntity
  8
DIM
 62
     0
100
AcDbMText
 10
6.548615408239796
 20
10.36531736295449
 30
0.0
 40
0.375
 41
0.0
 71
     5
 72
     1
  1
\A1;0.625
  7
TXT
1001
ACAD
1000
MTEXTBEGIN
1070
    73
1070
     1
1070
    44
1040
1.0
1070
    74
1070
     0
1000
MTEXTEND
  0
POINT
  5
F20
330
A6A
100
AcDbEntity
  8
DEFPOINTS
 62
     0
100
AcDbPoint
 10
9.13287422631096
 20
12.07031736295449
 30
0.0
  0
POINT
  5
F21
330
A6A
100
AcDbEntity
  8
DEFPOINTS
 62
     0
100
AcDbPoint
 10
9.13287422631096
 20
11.44531736295449
 30
0.0
  0
POINT
  5
F22
330
A6A
100
AcDbEntity
  8
DEFPOINTS
 62
     0
100
AcDbPoint
 10
7.897677908239798
 20
11.44531736295449
 30
0.0
  0
ENDBLK
  5
A76
330
A6A
100
AcDbEntity
  8
0
100
AcDbBlockEnd
  0
BLOCK
  5
A83
330
A78
100
AcDbEntity
  8
0
100
AcDbBlockBegin
  2
*D3
 70
     1
 10
0.0
 20
0.0
 30
0.0
  3
*D3
  1

  0
LINE
  5
F0D
330
A78
100
AcDbEntity
  8
DIM
 62
     0
100
AcDbLine
 10
8.94387422631096
 20
13.19531736295449
 30
0.0
 11
5.550808451330285
 21
13.19531736295449
 31
0.0
  0
LINE
  5
F0E
330
A78
100
AcDbEntity
  8
DIM
 62
     0
100
AcDbLine
 10
8.94387422631096
 20
12.57031736295449
 30
0.0
 11
5.550808451330285
 21
12.57031736295449
 31
0.0
  0
LINE
  5
F0F
330
A78
100
AcDbEntity
  8
DIM
 62
     0
100
AcDbLine
 10
5.829808451330285
 20
13.73531736295449
 30
0.0
 11
5.829808451330286
 21
14.27531736295449
 31
0.0
  0
LINE
  5
F10
330
A78
100
AcDbEntity
  8
DIM
 62
     0
100
AcDbLine
 10
5.829808451330285
 20
12.03031736295449
 30
0.0
 11
5.829808451330285
 21
11.49031736295449
 31
0.0
  0
LINE
  5
F11
330
A78
100
AcDbEntity
  8
DIM
 62
     0
100
AcDbLine
 10
5.829808451330285
 20
11.49031736295449
 30
0.0
 11
5.289808451330285
 21
11.49031736295449
 31
0.0
  0
SOLID
  5
F12
330
A78
100
AcDbEntity
  8
DIM
 62
     0
100
AcDbTrace
 10
5.739808451330286
 20
13.73531736295449
 30
0.0
 11
5.919808451330285
 21
13.73531736295449
 31
0.0
 12
5.829808451330285
 22
13.19531736295449
 32
0.0
 13
5.829808451330285
 23
13.19531736295449
 33
0.0
  0
SOLID
  5
F13
330
A78
100
AcDbEntity
  8
DIM
 62
     0
100
AcDbTrace
 10
5.739808451330286
 20
12.03031736295449
 30
0.0
 11
5.919808451330285
 21
12.03031736295449
 31
0.0
 12
5.829808451330285
 22
12.57031736295449
 32
0.0
 13
5.829808451330285
 23
12.57031736295449
 33
0.0
  0
MTEXT
  5
F14
330
A78
100
AcDbEntity
  8
DIM
 62
     0
100
AcDbMText
 10
4.480745951330283
 20
11.49031736295449
 30
0.0
 40
0.375
 41
0.0
 71
     5
 72
     1
  1
\A1;0.625
  7
TXT
1001
ACAD
1000
MTEXTBEGIN
1070
    73
1070
     1
1070
    44
1040
1.0
1070
    74
1070
     0
1000
MTEXTEND
  0
POINT
  5
F15
330
A78
100
AcDbEntity
  8
DEFPOINTS
 62
     0
100
AcDbPoint
 10
9.13287422631096
 20
13.19531736295449
 30
0.0
  0
POINT
  5
F16
330
A78
100
AcDbEntity
  8
DEFPOINTS
 62
     0
100
AcDbPoint
 10
9.13287422631096
 20
12.57031736295449
 30
0.0
  0
POINT
  5
F17
330
A78
100
AcDbEntity
  8
DEFPOINTS
 62
     0
100
AcDbPoint
 10
5.829808451330285
 20
12.57031736295449
 30
0.0
  0
ENDBLK
  5
A84
330
A78
100
AcDbEntity
  8
0
100
AcDbBlockEnd
  0
BLOCK
  5
A91
330
A86
100
AcDbEntity
  8
0
100
AcDbBlockBegin
  2
*D4
 70
     1
 10
0.0
 20
0.0
 30
0.0
  3
*D4
  1

  0
LINE
  5
F02
330
A86
100
AcDbEntity
  8
DIM
 62
     0
100
AcDbLine
 10
8.94387422631096
 20
12.57031736295449
 30
0.0
 11
6.485959607002742
 21
12.57031736295449
 31
0.0
  0
LINE
  5
F03
330
A86
100
AcDbEntity
  8
DIM
 62
     0
100
AcDbLine
 10
8.94387422631096
 20
12.07031736295449
 30
0.0
 11
6.485959607002742
 21
12.07031736295449
 31
0.0
  0
LINE
  5
F04
330
A86
100
AcDbEntity
  8
DIM
 62
     0
100
AcDbLine
 10
6.764959607002742
 20
13.11031736295449
 30
0.0
 11
6.764959607002742
 21
13.65031736295449
 31
0.0
  0
LINE
  5
F05
330
A86
100
AcDbEntity
  8
DIM
 62
     0
100
AcDbLine
 10
6.764959607002742
 20
11.53031736295449
 30
0.0
 11
6.764959607002742
 21
10.99031736295449
 31
0.0
  0
LINE
  5
F06
330
A86
100
AcDbEntity
  8
DIM
 62
     0
100
AcDbLine
 10
6.764959607002742
 20
10.99031736295449
 30
0.0
 11
6.224959607002742
 21
10.99031736295449
 31
0.0
  0
SOLID
  5
F07
330
A86
100
AcDbEntity
  8
DIM
 62
     0
100
AcDbTrace
 10
6.674959607002742
 20
13.11031736295449
 30
0.0
 11
6.854959607002742
 21
13.11031736295449
 31
0.0
 12
6.764959607002742
 22
12.57031736295449
 32
0.0
 13
6.764959607002742
 23
12.57031736295449
 33
0.0
  0
SOLID
  5
F08
330
A86
100
AcDbEntity
  8
DIM
 62
     0
100
AcDbTrace
 10
6.674959607002742
 20
11.53031736295449
 30
0.0
 11
6.854959607002742
 21
11.53031736295449
 31
0.0
 12
6.764959607002742
 22
12.07031736295449
 32
0.0
 13
6.764959607002742
 23
12.07031736295449
 33
0.0
  0
MTEXT
  5
F09
330
A86
100
AcDbEntity
  8
DIM
 62
     0
100
AcDbMText
 10
5.462772107002741
 20
10.99031736295449
 30
0.0
 40
0.375
 41
0.0
 71
     5
 72
     1
  1
\A1;0.500
  7
TXT
1001
ACAD
1000
MTEXTBEGIN
1070
    73
1070
     1
1070
    44
1040
1.0
1070
    74
1070
     0
1000
MTEXTEND
  0
POINT
  5
F0A
330
A86
100
AcDbEntity
  8
DEFPOINTS
 62
     0
100
AcDbPoint
 10
9.13287422631096
 20
12.57031736295449
 30
0.0
  0
POINT
  5
F0B
330
A86
100
AcDbEntity
  8
DEFPOINTS
 62
     0
100
AcDbPoint
 10
9.13287422631096
 20
12.07031736295449
 30
0.0
  0
POINT
  5
F0C
330
A86
100
AcDbEntity
  8
DEFPOINTS
 62
     0
100
AcDbPoint
 10
6.764959607002742
 20
12.07031736295449
 30
0.0
  0
ENDBLK
  5
A92
330
A86
100
AcDbEntity
  8
0
100
AcDbBlockEnd
  0
BLOCK
  5
A9F
330
A94
100
AcDbEntity
  8
0
100
AcDbBlockBegin
  2
*D5
 70
     1
 10
0.0
 20
0.0
 30
0.0
  3
*D5
  1

  0
LINE
  5
F23
330
A94
100
AcDbEntity
  8
DIM
 62
     0
100
AcDbLine
 10
8.94387422631096
 20
13.19531736295449
 30
0.0
 11
4.207351861490979
 21
13.19531736295449
 31
0.0
  0
LINE
  5
F24
330
A94
100
AcDbEntity
  8
DIM
 62
     0
100
AcDbLine
 10
8.658874226310963
 20
14.01031736295449
 30
0.0
 11
4.207351861490979
 21
14.01031736295449
 31
0.0
  0
LINE
  5
F25
330
A94
100
AcDbEntity
  8
DIM
 62
     0
100
AcDbLine
 10
4.486351861490978
 20
12.65531736295449
 30
0.0
 11
4.486351861490978
 21
12.11531736295449
 31
0.0
  0
LINE
  5
F26
330
A94
100
AcDbEntity
  8
DIM
 62
     0
100
AcDbLine
 10
4.486351861490979
 20
14.55031736295449
 30
0.0
 11
4.486351861490979
 21
15.09031736295449
 31
0.0
  0
LINE
  5
F27
330
A94
100
AcDbEntity
  8
DIM
 62
     0
100
AcDbLine
 10
4.486351861490979
 20
15.09031736295449
 30
0.0
 11
5.026351861490979
 21
15.09031736295449
 31
0.0
  0
SOLID
  5
F28
330
A94
100
AcDbEntity
  8
DIM
 62
     0
100
AcDbTrace
 10
4.396351861490979
 20
12.65531736295449
 30
0.0
 11
4.576351861490978
 21
12.65531736295449
 31
0.0
 12
4.486351861490978
 22
13.19531736295449
 32
0.0
 13
4.486351861490978
 23
13.19531736295449
 33
0.0
  0
SOLID
  5
F29
330
A94
100
AcDbEntity
  8
DIM
 62
     0
100
AcDbTrace
 10
4.39635186149098
 20
14.55031736295449
 30
0.0
 11
4.576351861490979
 21
14.55031736295449
 31
0.0
 12
4.486351861490979
 22
14.01031736295449
 32
0.0
 13
4.486351861490979
 23
14.01031736295449
 33
0.0
  0
MTEXT
  5
F2A
330
A94
100
AcDbEntity
  8
DIM
 62
     0
100
AcDbMText
 10
5.788539361490976
 20
15.09031736295449
 30
0.0
 40
0.375
 41
0.0
 71
     5
 72
     1
  1
\A1;0.815
  7
TXT
1001
ACAD
1000
MTEXTBEGIN
1070
    73
1070
     1
1070
    44
1040
1.0
1070
    74
1070
     0
1000
MTEXTEND
  0
POINT
  5
F2B
330
A94
100
AcDbEntity
  8
DEFPOINTS
 62
     0
100
AcDbPoint
 10
9.13287422631096
 20
13.19531736295449
 30
0.0
  0
POINT
  5
F2C
330
A94
100
AcDbEntity
  8
DEFPOINTS
 62
     0
100
AcDbPoint
 10
8.847874226310963
 20
14.01031736295449
 30
0.0
  0
POINT
  5
F2D
330
A94
100
AcDbEntity
  8
DEFPOINTS
 62
     0
100
AcDbPoint
 10
4.486351861490979
 20
14.01031736295449
 30
0.0
  0
ENDBLK
  5
AA0
330
A94
100
AcDbEntity
  8
0
100
AcDbBlockEnd
  0
BLOCK
  5
AAD
330
AA2
100
AcDbEntity
  8
0
100
AcDbBlockBegin
  2
*D6
 70
     1
 10
0.0
 20
0.0
 30
0.0
  3
*D6
  1

  0
LINE
  5
EF8
330
AA2
100
AcDbEntity
  8
DIM
 62
     0
100
AcDbLine
 10
8.907874226310966
 20
11.25631736295449
 30
0.0
 11
8.907874226310966
 21
9.219123097123333
 31
0.0
  0
LINE
  5
EF9
330
AA2
100
AcDbEntity
  8
DIM
 62
     0
100
AcDbLine
 10
8.847874226310963
 20
10.4413173629545
 30
0.0
 11
8.847874226310963
 21
9.219123097123333
 31
0.0
  0
LINE
  5
EFA
330
AA2
100
AcDbEntity
  8
DIM
 62
     0
100
AcDbLine
 10
9.447874226310965
 20
9.498123097123333
 30
0.0
 11
9.987874226310966
 21
9.498123097123333
 31
0.0
  0
LINE
  5
EFB
330
AA2
100
AcDbEntity
  8
DIM
 62
     0
100
AcDbLine
 10
8.307874226310964
 20
9.498123097123333
 30
0.0
 11
7.767874226310963
 21
9.498123097123333
 31
0.0
  0
SOLID
  5
EFC
330
AA2
100
AcDbEntity
  8
DIM
 62
     0
100
AcDbTrace
 10
9.447874226310965
 20
9.588123097123332
 30
0.0
 11
9.447874226310965
 21
9.408123097123333
 31
0.0
 12
8.907874226310966
 22
9.498123097123333
 32
0.0
 13
8.907874226310966
 23
9.498123097123333
 33
0.0
  0
SOLID
  5
EFD
330
AA2
100
AcDbEntity
  8
DIM
 62
     0
100
AcDbTrace
 10
8.307874226310964
 20
9.588123097123332
 30
0.0
 11
8.307874226310964
 21
9.408123097123333
 31
0.0
 12
8.847874226310963
 22
9.498123097123333
 32
0.0
 13
8.847874226310963
 23
9.498123097123333
 33
0.0
  0
MTEXT
  5
EFE
330
AA2
100
AcDbEntity
  8
DIM
 62
     0
100
AcDbMText
 10
7.005686726310964
 20
9.498123097123333
 30
0.0
 40
0.375
 41
0.0
 71
     5
 72
     1
  1
\A1;0.060
  7
TXT
1001
ACAD
1000
MTEXTBEGIN
1070
    73
1070
     1
1070
    44
1040
1.0
1070
    74
1070
     0
1000
MTEXTEND
  0
POINT
  5
EFF
330
AA2
100
AcDbEntity
  8
DEFPOINTS
 62
     0
100
AcDbPoint
 10
8.907874226310966
 20
11.44531736295449
 30
0.0
  0
POINT
  5
F00
330
AA2
100
AcDbEntity
  8
DEFPOINTS
 62
     0
100
AcDbPoint
 10
8.847874226310963
 20
10.6303173629545
 30
0.0
  0
POINT
  5
F01
330
AA2
100
AcDbEntity
  8
DEFPOINTS
 62
     0
100
AcDbPoint
 10
8.847874226310963
 20
9.498123097123333
 30
0.0
  0
ENDBLK
  5
AAE
330
AA2
100
AcDbEntity
  8
0
100
AcDbBlockEnd
  0
BLOCK
  5
ABE
330
AB3
100
AcDbEntity
  8
0
100
AcDbBlockBegin
  2
*D7
 70
     1
 10
0.0
 20
0.0
 30
0.0
  3
*D7
  1

  0
LINE
  5
FAA
330
AB3
100
AcDbEntity
  8
DIM
 62
     0
100
AcDbLine
 10
40.22287422631096
 20
10.38131736295451
 30
0.0
 11
40.22287422631096
 21
5.004123097123335
 31
0.0
  0
LINE
  5
FAB
330
AB3
100
AcDbEntity
  8
DIM
 62
     0
100
AcDbLine
 10
26.22287422631096
 20
10.38131736295449
 30
0.0
 11
26.22287422631096
 21
5.004123097123335
 31
0.0
  0
LINE
  5
FAC
330
AB3
100
AcDbEntity
  8
DIM
 62
     0
100
AcDbLine
 10
39.68287422631096
 20
5.283123097123335
 30
0.0
 11
34.07881172631096
 21
5.283123097123335
 31
0.0
  0
LINE
  5
FAD
330
AB3
100
AcDbEntity
  8
DIM
 62
     0
100
AcDbLine
 10
26.76287422631096
 20
5.283123097123335
 30
0.0
 11
32.36693672631096
 21
5.283123097123335
 31
0.0
  0
SOLID
  5
FAE
330
AB3
100
AcDbEntity
  8
DIM
 62
     0
100
AcDbTrace
 10
39.68287422631096
 20
5.373123097123335
 30
0.0
 11
39.68287422631096
 21
5.193123097123335
 31
0.0
 12
40.22287422631096
 22
5.283123097123335
 32
0.0
 13
40.22287422631096
 23
5.283123097123335
 33
0.0
  0
SOLID
  5
FAF
330
AB3
100
AcDbEntity
  8
DIM
 62
     0
100
AcDbTrace
 10
26.76287422631096
 20
5.373123097123335
 30
0.0
 11
26.76287422631096
 21
5.193123097123335
 31
0.0
 12
26.22287422631096
 22
5.283123097123335
 32
0.0
 13
26.22287422631096
 23
5.283123097123335
 33
0.0
  0
MTEXT
  5
FB0
330
AB3
100
AcDbEntity
  8
DIM
 62
     0
100
AcDbMText
 10
33.22287422631096
 20
5.283123097123335
 30
0.0
 40
0.375
 41
0.0
 71
     5
 72
     1
  1
\A1;14.000
  7
TXT
1001
ACAD
1000
MTEXTBEGIN
1070
    73
1070
     1
1070
    44
1040
1.0
1070
    74
1070
     0
1000
MTEXTEND
  0
POINT
  5
FB1
330
AB3
100
AcDbEntity
  8
DEFPOINTS
 62
     0
100
AcDbPoint
 10
40.22287422631096
 20
10.57031736295451
 30
0.0
  0
POINT
  5
FB2
330
AB3
100
AcDbEntity
  8
DEFPOINTS
 62
     0
100
AcDbPoint
 10
26.22287422631096
 20
10.57031736295449
 30
0.0
  0
POINT
  5
FB3
330
AB3
100
AcDbEntity
  8
DEFPOINTS
 62
     0
100
AcDbPoint
 10
26.22287422631096
 20
5.283123097123335
 30
0.0
  0
ENDBLK
  5
ABF
330
AB3
100
AcDbEntity
  8
0
100
AcDbBlockEnd
  0
BLOCK
  5
ACC
330
AC1
100
AcDbEntity
  8
0
100
AcDbBlockBegin
  2
*D8
 70
     1
 10
0.0
 20
0.0
 30
0.0
  3
*D8
  1

  0
LINE
  5
EDA
330
AC1
100
AcDbEntity
  8
DIM
 62
     0
100
AcDbLine
 10
26.22287422631096
 20
10.38131736295449
 30
0.0
 11
26.22287422631096
 21
5.004123097123335
 31
0.0
  0
LINE
  5
EDB
330
AC1
100
AcDbEntity
  8
DIM
 62
     0
100
AcDbLine
 10
10.22287422631096
 20
10.38131736295446
 30
0.0
 11
10.22287422631096
 21
5.004123097123335
 31
0.0
  0
LINE
  5
EDC
330
AC1
100
AcDbEntity
  8
DIM
 62
     0
100
AcDbLine
 10
25.68287422631096
 20
5.283123097123335
 30
0.0
 11
19.07881172631096
 21
5.283123097123335
 31
0.0
  0
LINE
  5
EDD
330
AC1
100
AcDbEntity
  8
DIM
 62
     0
100
AcDbLine
 10
10.76287422631096
 20
5.283123097123335
 30
0.0
 11
17.36693672631096
 21
5.283123097123335
 31
0.0
  0
SOLID
  5
EDE
330
AC1
100
AcDbEntity
  8
DIM
 62
     0
100
AcDbTrace
 10
25.68287422631096
 20
5.373123097123335
 30
0.0
 11
25.68287422631096
 21
5.193123097123335
 31
0.0
 12
26.22287422631096
 22
5.283123097123335
 32
0.0
 13
26.22287422631096
 23
5.283123097123335
 33
0.0
  0
SOLID
  5
EDF
330
AC1
100
AcDbEntity
  8
DIM
 62
     0
100
AcDbTrace
 10
10.76287422631096
 20
5.373123097123335
 30
0.0
 11
10.76287422631096
 21
5.193123097123335
 31
0.0
 12
10.22287422631096
 22
5.283123097123335
 32
0.0
 13
10.22287422631096
 23
5.283123097123335
 33
0.0
  0
MTEXT
  5
EE0
330
AC1
100
AcDbEntity
  8
DIM
 62
     0
100
AcDbMText
 10
18.22287422631096
 20
5.283123097123335
 30
0.0
 40
0.375
 41
0.0
 71
     5
 72
     1
  1
\A1;16.000
  7
TXT
1001
ACAD
1000
MTEXTBEGIN
1070
    73
1070
     1
1070
    44
1040
1.0
1070
    74
1070
     0
1000
MTEXTEND
  0
POINT
  5
EE1
330
AC1
100
AcDbEntity
  8
DEFPOINTS
 62
     0
100
AcDbPoint
 10
26.22287422631096
 20
10.57031736295449
 30
0.0
  0
POINT
  5
EE2
330
AC1
100
AcDbEntity
  8
DEFPOINTS
 62
     0
100
AcDbPoint
 10
10.22287422631096
 20
10.57031736295446
 30
0.0
  0
POINT
  5
EE3
330
AC1
100
AcDbEntity
  8
DEFPOINTS
 62
     0
100
AcDbPoint
 10
10.22287422631096
 20
5.283123097123335
 30
0.0
  0
ENDBLK
  5
ACD
330
AC1
100
AcDbEntity
  8
0
100
AcDbBlockEnd
  0
BLOCK
  5
ADA
330
ACF
100
AcDbEntity
  8
0
100
AcDbBlockBegin
  2
*D9
 70
     1
 10
0.0
 20
0.0
 30
0.0
  3
*D9
  1

  0
LINE
  5
EE4
330
ACF
100
AcDbEntity
  8
DIM
 62
     0
100
AcDbLine
 10
10.22287422631096
 20
10.38131736295446
 30
0.0
 11
10.22287422631096
 21
8.376123097123336
 31
0.0
  0
LINE
  5
EE5
330
ACF
100
AcDbEntity
  8
DIM
 62
     0
100
AcDbLine
 10
8.847874226310963
 20
10.4413173629545
 30
0.0
 11
8.847874226310963
 21
8.376123097123336
 31
0.0
  0
LINE
  5
EE6
330
ACF
100
AcDbEntity
  8
DIM
 62
     0
100
AcDbLine
 10
10.76287422631096
 20
8.655123097123336
 30
0.0
 11
11.30287422631096
 21
8.655123097123336
 31
0.0
  0
LINE
  5
EE7
330
ACF
100
AcDbEntity
  8
DIM
 62
     0
100
AcDbLine
 10
8.307874226310964
 20
8.655123097123336
 30
0.0
 11
7.767874226310963
 21
8.655123097123336
 31
0.0
  0
SOLID
  5
EE8
330
ACF
100
AcDbEntity
  8
DIM
 62
     0
100
AcDbTrace
 10
10.76287422631096
 20
8.745123097123336
 30
0.0
 11
10.76287422631096
 21
8.565123097123336
 31
0.0
 12
10.22287422631096
 22
8.655123097123336
 32
0.0
 13
10.22287422631096
 23
8.655123097123336
 33
0.0
  0
SOLID
  5
EE9
330
ACF
100
AcDbEntity
  8
DIM
 62
     0
100
AcDbTrace
 10
8.307874226310964
 20
8.745123097123336
 30
0.0
 11
8.307874226310964
 21
8.565123097123336
 31
0.0
 12
8.847874226310963
 22
8.655123097123336
 32
0.0
 13
8.847874226310963
 23
8.655123097123336
 33
0.0
  0
MTEXT
  5
EEA
330
ACF
100
AcDbEntity
  8
DIM
 62
     0
100
AcDbMText
 10
6.982249226310964
 20
8.655123097123336
 30
0.0
 40
0.375
 41
0.0
 71
     5
 72
     1
  1
\A1;1.375
  7
TXT
1001
ACAD
1000
MTEXTBEGIN
1070
    73
1070
     1
1070
    44
1040
1.0
1070
    74
1070
     0
1000
MTEXTEND
  0
POINT
  5
EEB
330
ACF
100
AcDbEntity
  8
DEFPOINTS
 62
     0
100
AcDbPoint
 10
10.22287422631096
 20
10.57031736295446
 30
0.0
  0
POINT
  5
EEC
330
ACF
100
AcDbEntity
  8
DEFPOINTS
 62
     0
100
AcDbPoint
 10
8.847874226310963
 20
10.6303173629545
 30
0.0
  0
POINT
  5
EED
330
ACF
100
AcDbEntity
  8
DEFPOINTS
 62
     0
100
AcDbPoint
 10
8.847874226310963
 20
8.655123097123336
 30
0.0
  0
ENDBLK
  5
ADB
330
ACF
100
AcDbEntity
  8
0
100
AcDbBlockEnd
  0
BLOCK
  5
AE7
330
ADD
100
AcDbEntity
  8
0
100
AcDbBlockBegin
  2
*D10
 70
     1
 10
0.0
 20
0.0
 30
0.0
  3
*D10
  1

  0
LINE
  5
FE6
330
ADD
100
AcDbEntity
  8
DIM
 62
     0
100
AcDbLine
 10
26.22287422631096
 20
10.38131736295449
 30
0.0
 11
26.22287422631096
 21
7.533123097123333
 31
0.0
  0
LINE
  5
FE7
330
ADD
100
AcDbEntity
  8
DIM
 62
     0
100
AcDbLine
 10
28.22287422631096
 20
10.53231736295449
 30
0.0
 11
28.22287422631096
 21
7.533123097123333
 31
0.0
  0
LINE
  5
FE8
330
ADD
100
AcDbEntity
  8
DIM
 62
     0
100
AcDbLine
 10
25.68287422631096
 20
7.812123097123333
 30
0.0
 11
25.14287422631096
 21
7.812123097123333
 31
0.0
  0
LINE
  5
FE9
330
ADD
100
AcDbEntity
  8
DIM
 62
     0
100
AcDbLine
 10
28.76287422631096
 20
7.812123097123333
 30
0.0
 11
29.30287422631096
 21
7.812123097123333
 31
0.0
  0
SOLID
  5
FEA
330
ADD
100
AcDbEntity
  8
DIM
 62
     0
100
AcDbTrace
 10
25.68287422631096
 20
7.902123097123332
 30
0.0
 11
25.68287422631096
 21
7.722123097123333
 31
0.0
 12
26.22287422631096
 22
7.812123097123333
 32
0.0
 13
26.22287422631096
 23
7.812123097123333
 33
0.0
  0
SOLID
  5
FEB
330
ADD
100
AcDbEntity
  8
DIM
 62
     0
100
AcDbTrace
 10
28.76287422631096
 20
7.902123097123332
 30
0.0
 11
28.76287422631096
 21
7.722123097123333
 31
0.0
 12
28.22287422631096
 22
7.812123097123333
 32
0.0
 13
28.22287422631096
 23
7.812123097123333
 33
0.0
  0
MTEXT
  5
FEC
330
ADD
100
AcDbEntity
  8
DIM
 62
     0
100
AcDbMText
 10
27.22287422631096
 20
7.812123097123333
 30
0.0
 40
0.375
 41
0.0
 71
     5
 72
     1
  1
\A1;2.000
  7
TXT
1001
ACAD
1000
MTEXTBEGIN
1070
    73
1070
     1
1070
    44
1040
1.0
1070
    74
1070
     0
1000
MTEXTEND
  0
POINT
  5
FED
330
ADD
100
AcDbEntity
  8
DEFPOINTS
 62
     0
100
AcDbPoint
 10
26.22287422631096
 20
10.57031736295449
 30
0.0
  0
POINT
  5
FEE
330
ADD
100
AcDbEntity
  8
DEFPOINTS
 62
     0
100
AcDbPoint
 10
28.22287422631096
 20
10.72131736295449
 30
0.0
  0
POINT
  5
FEF
330
ADD
100
AcDbEntity
  8
DEFPOINTS
 62
     0
100
AcDbPoint
 10
28.22287422631096
 20
7.812123097123333
 30
0.0
  0
ENDBLK
  5
AE8
330
ADD
100
AcDbEntity
  8
0
100
AcDbBlockEnd
  0
BLOCK
  5
AF5
330
AEA
100
AcDbEntity
  8
0
100
AcDbBlockBegin
  2
*D11
 70
     1
 10
0.0
 20
0.0
 30
0.0
  3
*D11
  1

  0
LINE
  5
FD2
330
AEA
100
AcDbEntity
  8
DIM
 62
     0
100
AcDbLine
 10
28.22287422631096
 20
10.53231736295449
 30
0.0
 11
28.22287422631096
 21
8.376123097123336
 31
0.0
  0
LINE
  5
FD3
330
AEA
100
AcDbEntity
  8
DIM
 62
     0
100
AcDbLine
 10
32.22287422631096
 20
10.53231736295449
 30
0.0
 11
32.22287422631096
 21
8.376123097123336
 31
0.0
  0
LINE
  5
FD4
330
AEA
100
AcDbEntity
  8
DIM
 62
     0
100
AcDbLine
 10
28.76287422631096
 20
8.655123097123336
 30
0.0
 11
29.46068672631096
 21
8.655123097123336
 31
0.0
  0
LINE
  5
FD5
330
AEA
100
AcDbEntity
  8
DIM
 62
     0
100
AcDbLine
 10
31.68287422631096
 20
8.655123097123336
 30
0.0
 11
30.98506172631096
 21
8.655123097123336
 31
0.0
  0
SOLID
  5
FD6
330
AEA
100
AcDbEntity
  8
DIM
 62
     0
100
AcDbTrace
 10
28.76287422631096
 20
8.745123097123336
 30
0.0
 11
28.76287422631096
 21
8.565123097123336
 31
0.0
 12
28.22287422631096
 22
8.655123097123336
 32
0.0
 13
28.22287422631096
 23
8.655123097123336
 33
0.0
  0
SOLID
  5
FD7
330
AEA
100
AcDbEntity
  8
DIM
 62
     0
100
AcDbTrace
 10
31.68287422631096
 20
8.745123097123336
 30
0.0
 11
31.68287422631096
 21
8.565123097123336
 31
0.0
 12
32.22287422631096
 22
8.655123097123336
 32
0.0
 13
32.22287422631096
 23
8.655123097123336
 33
0.0
  0
MTEXT
  5
FD8
330
AEA
100
AcDbEntity
  8
DIM
 62
     0
100
AcDbMText
 10
30.22287422631096
 20
8.655123097123336
 30
0.0
 40
0.375
 41
0.0
 71
     5
 72
     1
  1
\A1;4.000
  7
TXT
1001
ACAD
1000
MTEXTBEGIN
1070
    73
1070
     1
1070
    44
1040
1.0
1070
    74
1070
     0
1000
MTEXTEND
  0
POINT
  5
FD9
330
AEA
100
AcDbEntity
  8
DEFPOINTS
 62
     0
100
AcDbPoint
 10
28.22287422631096
 20
10.72131736295449
 30
0.0
  0
POINT
  5
FDA
330
AEA
100
AcDbEntity
  8
DEFPOINTS
 62
     0
100
AcDbPoint
 10
32.22287422631096
 20
10.72131736295449
 30
0.0
  0
POINT
  5
FDB
330
AEA
100
AcDbEntity
  8
DEFPOINTS
 62
     0
100
AcDbPoint
 10
32.22287422631096
 20
8.655123097123336
 30
0.0
  0
ENDBLK
  5
AF6
330
AEA
100
AcDbEntity
  8
0
100
AcDbBlockEnd
  0
BLOCK
  5
B03
330
AF8
100
AcDbEntity
  8
0
100
AcDbBlockBegin
  2
*D12
 70
     1
 10
0.0
 20
0.0
 30
0.0
  3
*D12
  1

  0
LINE
  5
FC8
330
AF8
100
AcDbEntity
  8
DIM
 62
     0
100
AcDbLine
 10
28.22287422631096
 20
10.53231736295449
 30
0.0
 11
28.22287422631096
 21
7.533123097123333
 31
0.0
  0
LINE
  5
FC9
330
AF8
100
AcDbEntity
  8
DIM
 62
     0
100
AcDbLine
 10
36.22287422631095
 20
10.53231736295449
 30
0.0
 11
36.22287422631095
 21
7.533123097123333
 31
0.0
  0
LINE
  5
FCA
330
AF8
100
AcDbEntity
  8
DIM
 62
     0
100
AcDbLine
 10
28.76287422631096
 20
7.812123097123333
 30
0.0
 11
31.46068672631096
 21
7.812123097123333
 31
0.0
  0
LINE
  5
FCB
330
AF8
100
AcDbEntity
  8
DIM
 62
     0
100
AcDbLine
 10
35.68287422631096
 20
7.812123097123333
 30
0.0
 11
32.98506172631096
 21
7.812123097123333
 31
0.0
  0
SOLID
  5
FCC
330
AF8
100
AcDbEntity
  8
DIM
 62
     0
100
AcDbTrace
 10
28.76287422631096
 20
7.902123097123332
 30
0.0
 11
28.76287422631096
 21
7.722123097123333
 31
0.0
 12
28.22287422631096
 22
7.812123097123333
 32
0.0
 13
28.22287422631096
 23
7.812123097123333
 33
0.0
  0
SOLID
  5
FCD
330
AF8
100
AcDbEntity
  8
DIM
 62
     0
100
AcDbTrace
 10
35.68287422631096
 20
7.902123097123332
 30
0.0
 11
35.68287422631096
 21
7.722123097123333
 31
0.0
 12
36.22287422631095
 22
7.812123097123333
 32
0.0
 13
36.22287422631095
 23
7.812123097123333
 33
0.0
  0
MTEXT
  5
FCE
330
AF8
100
AcDbEntity
  8
DIM
 62
     0
100
AcDbMText
 10
32.22287422631096
 20
7.812123097123333
 30
0.0
 40
0.375
 41
0.0
 71
     5
 72
     1
  1
\A1;8.000
  7
TXT
1001
ACAD
1000
MTEXTBEGIN
1070
    73
1070
     1
1070
    44
1040
1.0
1070
    74
1070
     0
1000
MTEXTEND
  0
POINT
  5
FCF
330
AF8
100
AcDbEntity
  8
DEFPOINTS
 62
     0
100
AcDbPoint
 10
28.22287422631096
 20
10.72131736295449
 30
0.0
  0
POINT
  5
FD0
330
AF8
100
AcDbEntity
  8
DEFPOINTS
 62
     0
100
AcDbPoint
 10
36.22287422631095
 20
10.72131736295449
 30
0.0
  0
POINT
  5
FD1
330
AF8
100
AcDbEntity
  8
DEFPOINTS
 62
     0
100
AcDbPoint
 10
36.22287422631095
 20
7.812123097123333
 30
0.0
  0
ENDBLK
  5
B04
330
AF8
100
AcDbEntity
  8
0
100
AcDbBlockEnd
  0
BLOCK
  5
B11
330
B06
100
AcDbEntity
  8
0
100
AcDbBlockBegin
  2
*D13
 70
     1
 10
0.0
 20
0.0
 30
0.0
  3
*D13
  1

  0
LINE
  5
FB4
330
B06
100
AcDbEntity
  8
DIM
 62
     0
100
AcDbLine
 10
28.22287422631096
 20
10.53231736295449
 30
0.0
 11
28.22287422631096
 21
5.847123097123333
 31
0.0
  0
LINE
  5
FB5
330
B06
100
AcDbEntity
  8
DIM
 62
     0
100
AcDbLine
 10
38.22287422631096
 20
10.53231736295449
 30
0.0
 11
38.22287422631096
 21
5.847123097123333
 31
0.0
  0
LINE
  5
FB6
330
B06
100
AcDbEntity
  8
DIM
 62
     0
100
AcDbLine
 10
28.76287422631096
 20
6.126123097123333
 30
0.0
 11
32.39037422631096
 21
6.126123097123333
 31
0.0
  0
LINE
  5
FB7
330
B06
100
AcDbEntity
  8
DIM
 62
     0
100
AcDbLine
 10
37.68287422631096
 20
6.126123097123333
 30
0.0
 11
34.05537422631097
 21
6.126123097123333
 31
0.0
  0
SOLID
  5
FB8
330
B06
100
AcDbEntity
  8
DIM
 62
     0
100
AcDbTrace
 10
28.76287422631096
 20
6.216123097123332
 30
0.0
 11
28.76287422631096
 21
6.036123097123333
 31
0.0
 12
28.22287422631096
 22
6.126123097123333
 32
0.0
 13
28.22287422631096
 23
6.126123097123333
 33
0.0
  0
SOLID
  5
FB9
330
B06
100
AcDbEntity
  8
DIM
 62
     0
100
AcDbTrace
 10
37.68287422631096
 20
6.216123097123332
 30
0.0
 11
37.68287422631096
 21
6.036123097123333
 31
0.0
 12
38.22287422631096
 22
6.126123097123333
 32
0.0
 13
38.22287422631096
 23
6.126123097123333
 33
0.0
  0
MTEXT
  5
FBA
330
B06
100
AcDbEntity
  8
DIM
 62
     0
100
AcDbMText
 10
33.22287422631096
 20
6.126123097123333
 30
0.0
 40
0.375
 41
0.0
 71
     5
 72
     1
  1
\A1;10.000
  7
TXT
1001
ACAD
1000
MTEXTBEGIN
1070
    73
1070
     1
1070
    44
1040
1.0
1070
    74
1070
     0
1000
MTEXTEND
  0
POINT
  5
FBB
330
B06
100
AcDbEntity
  8
DEFPOINTS
 62
     0
100
AcDbPoint
 10
28.22287422631096
 20
10.72131736295449
 30
0.0
  0
POINT
  5
FBC
330
B06
100
AcDbEntity
  8
DEFPOINTS
 62
     0
100
AcDbPoint
 10
38.22287422631096
 20
10.72131736295449
 30
0.0
  0
POINT
  5
FBD
330
B06
100
AcDbEntity
  8
DEFPOINTS
 62
     0
100
AcDbPoint
 10
38.22287422631096
 20
6.126123097123333
 30
0.0
  0
ENDBLK
  5
B12
330
B06
100
AcDbEntity
  8
0
100
AcDbBlockEnd
  0
BLOCK
  5
B1F
330
B14
100
AcDbEntity
  8
0
100
AcDbBlockBegin
  2
*D14
 70
     1
 10
0.0
 20
0.0
 30
0.0
  3
*D14
  1

  0
LINE
  5
FA0
330
B14
100
AcDbEntity
  8
DIM
 62
     0
100
AcDbLine
 10
40.22287422631096
 20
10.38131736295451
 30
0.0
 11
40.22287422631096
 21
9.219123097123333
 31
0.0
  0
LINE
  5
FA1
330
B14
100
AcDbEntity
  8
DIM
 62
     0
100
AcDbLine
 10
41.22287422631095
 20
11.16631736295448
 30
0.0
 11
41.22287422631095
 21
9.219123097123333
 31
0.0
  0
LINE
  5
FA2
330
B14
100
AcDbEntity
  8
DIM
 62
     0
100
AcDbLine
 10
39.68287422631096
 20
9.498123097123333
 30
0.0
 11
39.14287422631096
 21
9.498123097123333
 31
0.0
  0
LINE
  5
FA3
330
B14
100
AcDbEntity
  8
DIM
 62
     0
100
AcDbLine
 10
41.76287422631095
 20
9.498123097123333
 30
0.0
 11
42.30287422631096
 21
9.498123097123333
 31
0.0
  0
SOLID
  5
FA4
330
B14
100
AcDbEntity
  8
DIM
 62
     0
100
AcDbTrace
 10
39.68287422631096
 20
9.588123097123332
 30
0.0
 11
39.68287422631096
 21
9.408123097123333
 31
0.0
 12
40.22287422631096
 22
9.498123097123333
 32
0.0
 13
40.22287422631096
 23
9.498123097123333
 33
0.0
  0
SOLID
  5
FA5
330
B14
100
AcDbEntity
  8
DIM
 62
     0
100
AcDbTrace
 10
41.76287422631095
 20
9.588123097123332
 30
0.0
 11
41.76287422631095
 21
9.408123097123333
 31
0.0
 12
41.22287422631095
 22
9.498123097123333
 32
0.0
 13
41.22287422631095
 23
9.498123097123333
 33
0.0
  0
MTEXT
  5
FA6
330
B14
100
AcDbEntity
  8
DIM
 62
     0
100
AcDbMText
 10
43.01818672631095
 20
9.498123097123333
 30
0.0
 40
0.375
 41
0.0
 71
     5
 72
     1
  1
\A1;1.000
  7
TXT
1001
ACAD
1000
MTEXTBEGIN
1070
    73
1070
     1
1070
    44
1040
1.0
1070
    74
1070
     0
1000
MTEXTEND
  0
POINT
  5
FA7
330
B14
100
AcDbEntity
  8
DEFPOINTS
 62
     0
100
AcDbPoint
 10
40.22287422631096
 20
10.57031736295451
 30
0.0
  0
POINT
  5
FA8
330
B14
100
AcDbEntity
  8
DEFPOINTS
 62
     0
100
AcDbPoint
 10
41.22287422631095
 20
11.35531736295448
 30
0.0
  0
POINT
  5
FA9
330
B14
100
AcDbEntity
  8
DEFPOINTS
 62
     0
100
AcDbPoint
 10
41.22287422631095
 20
9.498123097123333
 30
0.0
  0
ENDBLK
  5
B20
330
B14
100
AcDbEntity
  8
0
100
AcDbBlockEnd
  0
BLOCK
  5
B2D
330
B22
100
AcDbEntity
  8
0
100
AcDbBlockBegin
  2
*D15
 70
     1
 10
0.0
 20
0.0
 30
0.0
  3
*D15
  1

  0
LINE
  5
F96
330
B22
100
AcDbEntity
  8
DIM
 62
     0
100
AcDbLine
 10
40.22287422631096
 20
10.38131736295451
 30
0.0
 11
40.22287422631096
 21
8.376123097123336
 31
0.0
  0
LINE
  5
F97
330
B22
100
AcDbEntity
  8
DIM
 62
     0
100
AcDbLine
 10
41.72287422631096
 20
10.94131736295448
 30
0.0
 11
41.72287422631096
 21
8.376123097123336
 31
0.0
  0
LINE
  5
F98
330
B22
100
AcDbEntity
  8
DIM
 62
     0
100
AcDbLine
 10
39.68287422631096
 20
8.655123097123336
 30
0.0
 11
39.14287422631096
 21
8.655123097123336
 31
0.0
  0
LINE
  5
F99
330
B22
100
AcDbEntity
  8
DIM
 62
     0
100
AcDbLine
 10
42.26287422631096
 20
8.655123097123336
 30
0.0
 11
42.80287422631096
 21
8.655123097123336
 31
0.0
  0
SOLID
  5
F9A
330
B22
100
AcDbEntity
  8
DIM
 62
     0
100
AcDbTrace
 10
39.68287422631096
 20
8.745123097123336
 30
0.0
 11
39.68287422631096
 21
8.565123097123336
 31
0.0
 12
40.22287422631096
 22
8.655123097123336
 32
0.0
 13
40.22287422631096
 23
8.655123097123336
 33
0.0
  0
SOLID
  5
F9B
330
B22
100
AcDbEntity
  8
DIM
 62
     0
100
AcDbTrace
 10
42.26287422631096
 20
8.745123097123336
 30
0.0
 11
42.26287422631096
 21
8.565123097123336
 31
0.0
 12
41.72287422631096
 22
8.655123097123336
 32
0.0
 13
41.72287422631096
 23
8.655123097123336
 33
0.0
  0
MTEXT
  5
F9C
330
B22
100
AcDbEntity
  8
DIM
 62
     0
100
AcDbMText
 10
40.97287422631096
 20
8.655123097123336
 30
0.0
 40
0.375
 41
0.0
 71
     5
 72
     1
  1
\A1;1.500
  7
TXT
1001
ACAD
1000
MTEXTBEGIN
1070
    73
1070
     1
1070
    44
1040
1.0
1070
    74
1070
     0
1000
MTEXTEND
  0
POINT
  5
F9D
330
B22
100
AcDbEntity
  8
DEFPOINTS
 62
     0
100
AcDbPoint
 10
40.22287422631096
 20
10.57031736295451
 30
0.0
  0
POINT
  5
F9E
330
B22
100
AcDbEntity
  8
DEFPOINTS
 62
     0
100
AcDbPoint
 10
41.72287422631096
 20
11.13031736295448
 30
0.0
  0
POINT
  5
F9F
330
B22
100
AcDbEntity
  8
DEFPOINTS
 62
     0
100
AcDbPoint
 10
41.72287422631096
 20
8.655123097123336
 30
0.0
  0
ENDBLK
  5
B2E
330
B22
100
AcDbEntity
  8
0
100
AcDbBlockEnd
  0
BLOCK
  5
B3B
330
B30
100
AcDbEntity
  8
0
100
AcDbBlockBegin
  2
*D16
 70
     1
 10
0.0
 20
0.0
 30
0.0
  3
*D16
  1

  0
LINE
  5
F60
330
B30
100
AcDbEntity
  8
DIM
 62
     0
100
AcDbLine
 10
24.22287422631096
 20
10.53231736295449
 30
0.0
 11
24.22287422631096
 21
8.376123097123336
 31
0.0
  0
LINE
  5
F61
330
B30
100
AcDbEntity
  8
DIM
 62
     0
100
AcDbLine
 10
20.22287422631096
 20
10.53231736295449
 30
0.0
 11
20.22287422631096
 21
8.376123097123336
 31
0.0
  0
LINE
  5
F62
330
B30
100
AcDbEntity
  8
DIM
 62
     0
100
AcDbLine
 10
23.68287422631096
 20
8.655123097123336
 30
0.0
 11
22.98506172631096
 21
8.655123097123336
 31
0.0
  0
LINE
  5
F63
330
B30
100
AcDbEntity
  8
DIM
 62
     0
100
AcDbLine
 10
20.76287422631096
 20
8.655123097123336
 30
0.0
 11
21.46068672631096
 21
8.655123097123336
 31
0.0
  0
SOLID
  5
F64
330
B30
100
AcDbEntity
  8
DIM
 62
     0
100
AcDbTrace
 10
23.68287422631096
 20
8.745123097123336
 30
0.0
 11
23.68287422631096
 21
8.565123097123336
 31
0.0
 12
24.22287422631096
 22
8.655123097123336
 32
0.0
 13
24.22287422631096
 23
8.655123097123336
 33
0.0
  0
SOLID
  5
F65
330
B30
100
AcDbEntity
  8
DIM
 62
     0
100
AcDbTrace
 10
20.76287422631096
 20
8.745123097123336
 30
0.0
 11
20.76287422631096
 21
8.565123097123336
 31
0.0
 12
20.22287422631096
 22
8.655123097123336
 32
0.0
 13
20.22287422631096
 23
8.655123097123336
 33
0.0
  0
MTEXT
  5
F66
330
B30
100
AcDbEntity
  8
DIM
 62
     0
100
AcDbMText
 10
22.22287422631096
 20
8.655123097123336
 30
0.0
 40
0.375
 41
0.0
 71
     5
 72
     1
  1
\A1;4.000
  7
TXT
1001
ACAD
1000
MTEXTBEGIN
1070
    73
1070
     1
1070
    44
1040
1.0
1070
    74
1070
     0
1000
MTEXTEND
  0
POINT
  5
F67
330
B30
100
AcDbEntity
  8
DEFPOINTS
 62
     0
100
AcDbPoint
 10
24.22287422631096
 20
10.72131736295449
 30
0.0
  0
POINT
  5
F68
330
B30
100
AcDbEntity
  8
DEFPOINTS
 62
     0
100
AcDbPoint
 10
20.22287422631096
 20
10.72131736295449
 30
0.0
  0
POINT
  5
F69
330
B30
100
AcDbEntity
  8
DEFPOINTS
 62
     0
100
AcDbPoint
 10
20.22287422631096
 20
8.655123097123336
 30
0.0
  0
ENDBLK
  5
B3C
330
B30
100
AcDbEntity
  8
0
100
AcDbBlockEnd
  0
BLOCK
  5
B49
330
B3E
100
AcDbEntity
  8
0
100
AcDbBlockBegin
  2
*D17
 70
     1
 10
0.0
 20
0.0
 30
0.0
  3
*D17
  1

  0
LINE
  5
F4C
330
B3E
100
AcDbEntity
  8
DIM
 62
     0
100
AcDbLine
 10
24.22287422631096
 20
10.53231736295449
 30
0.0
 11
24.22287422631096
 21
7.533123097123333
 31
0.0
  0
LINE
  5
F4D
330
B3E
100
AcDbEntity
  8
DIM
 62
     0
100
AcDbLine
 10
16.22287422631096
 20
10.53231736295449
 30
0.0
 11
16.22287422631096
 21
7.533123097123333
 31
0.0
  0
LINE
  5
F4E
330
B3E
100
AcDbEntity
  8
DIM
 62
     0
100
AcDbLine
 10
23.68287422631096
 20
7.812123097123333
 30
0.0
 11
20.98506172631096
 21
7.812123097123333
 31
0.0
  0
LINE
  5
F4F
330
B3E
100
AcDbEntity
  8
DIM
 62
     0
100
AcDbLine
 10
16.76287422631096
 20
7.812123097123333
 30
0.0
 11
19.46068672631096
 21
7.812123097123333
 31
0.0
  0
SOLID
  5
F50
330
B3E
100
AcDbEntity
  8
DIM
 62
     0
100
AcDbTrace
 10
23.68287422631096
 20
7.902123097123332
 30
0.0
 11
23.68287422631096
 21
7.722123097123333
 31
0.0
 12
24.22287422631096
 22
7.812123097123333
 32
0.0
 13
24.22287422631096
 23
7.812123097123333
 33
0.0
  0
SOLID
  5
F51
330
B3E
100
AcDbEntity
  8
DIM
 62
     0
100
AcDbTrace
 10
16.76287422631096
 20
7.902123097123332
 30
0.0
 11
16.76287422631096
 21
7.722123097123333
 31
0.0
 12
16.22287422631096
 22
7.812123097123333
 32
0.0
 13
16.22287422631096
 23
7.812123097123333
 33
0.0
  0
MTEXT
  5
F52
330
B3E
100
AcDbEntity
  8
DIM
 62
     0
100
AcDbMText
 10
20.22287422631096
 20
7.812123097123333
 30
0.0
 40
0.375
 41
0.0
 71
     5
 72
     1
  1
\A1;8.000
  7
TXT
1001
ACAD
1000
MTEXTBEGIN
1070
    73
1070
     1
1070
    44
1040
1.0
1070
    74
1070
     0
1000
MTEXTEND
  0
POINT
  5
F53
330
B3E
100
AcDbEntity
  8
DEFPOINTS
 62
     0
100
AcDbPoint
 10
24.22287422631096
 20
10.72131736295449
 30
0.0
  0
POINT
  5
F54
330
B3E
100
AcDbEntity
  8
DEFPOINTS
 62
     0
100
AcDbPoint
 10
16.22287422631096
 20
10.72131736295449
 30
0.0
  0
POINT
  5
F55
330
B3E
100
AcDbEntity
  8
DEFPOINTS
 62
     0
100
AcDbPoint
 10
16.22287422631096
 20
7.812123097123333
 30
0.0
  0
ENDBLK
  5
B4A
330
B3E
100
AcDbEntity
  8
0
100
AcDbBlockEnd
  0
BLOCK
  5
B57
330
B4C
100
AcDbEntity
  8
0
100
AcDbBlockBegin
  2
*D18
 70
     1
 10
0.0
 20
0.0
 30
0.0
  3
*D18
  1

  0
LINE
  5
F42
330
B4C
100
AcDbEntity
  8
DIM
 62
     0
100
AcDbLine
 10
24.22287422631096
 20
10.53231736295449
 30
0.0
 11
24.22287422631096
 21
6.690123097123328
 31
0.0
  0
LINE
  5
F43
330
B4C
100
AcDbEntity
  8
DIM
 62
     0
100
AcDbLine
 10
15.22287422631096
 20
12.04131736295449
 30
0.0
 11
15.22287422631096
 21
6.690123097123328
 31
0.0
  0
LINE
  5
F44
330
B4C
100
AcDbEntity
  8
DIM
 62
     0
100
AcDbLine
 10
23.68287422631096
 20
6.969123097123328
 30
0.0
 11
20.48506172631096
 21
6.969123097123328
 31
0.0
  0
LINE
  5
F45
330
B4C
100
AcDbEntity
  8
DIM
 62
     0
100
AcDbLine
 10
15.76287422631096
 20
6.969123097123328
 30
0.0
 11
18.96068672631096
 21
6.969123097123328
 31
0.0
  0
SOLID
  5
F46
330
B4C
100
AcDbEntity
  8
DIM
 62
     0
100
AcDbTrace
 10
23.68287422631096
 20
7.059123097123328
 30
0.0
 11
23.68287422631096
 21
6.879123097123328
 31
0.0
 12
24.22287422631096
 22
6.969123097123328
 32
0.0
 13
24.22287422631096
 23
6.969123097123328
 33
0.0
  0
SOLID
  5
F47
330
B4C
100
AcDbEntity
  8
DIM
 62
     0
100
AcDbTrace
 10
15.76287422631096
 20
7.059123097123328
 30
0.0
 11
15.76287422631096
 21
6.879123097123328
 31
0.0
 12
15.22287422631096
 22
6.969123097123328
 32
0.0
 13
15.22287422631096
 23
6.969123097123328
 33
0.0
  0
MTEXT
  5
F48
330
B4C
100
AcDbEntity
  8
DIM
 62
     0
100
AcDbMText
 10
19.72287422631096
 20
6.969123097123328
 30
0.0
 40
0.375
 41
0.0
 71
     5
 72
     1
  1
\A1;9.000
  7
TXT
1001
ACAD
1000
MTEXTBEGIN
1070
    73
1070
     1
1070
    44
1040
1.0
1070
    74
1070
     0
1000
MTEXTEND
  0
POINT
  5
F49
330
B4C
100
AcDbEntity
  8
DEFPOINTS
 62
     0
100
AcDbPoint
 10
24.22287422631096
 20
10.72131736295449
 30
0.0
  0
POINT
  5
F4A
330
B4C
100
AcDbEntity
  8
DEFPOINTS
 62
     0
100
AcDbPoint
 10
15.22287422631096
 20
12.23031736295449
 30
0.0
  0
POINT
  5
F4B
330
B4C
100
AcDbEntity
  8
DEFPOINTS
 62
     0
100
AcDbPoint
 10
15.22287422631096
 20
6.969123097123328
 30
0.0
  0
ENDBLK
  5
B58
330
B4C
100
AcDbEntity
  8
0
100
AcDbBlockEnd
  0
BLOCK
  5
B64
330
B5A
100
AcDbEntity
  8
0
100
AcDbBlockBegin
  2
*D19
 70
     1
 10
0.0
 20
0.0
 30
0.0
  3
*D19
  1

  0
LINE
  5
ED0
330
B5A
100
AcDbEntity
  8
DIM
 62
     0
100
AcDbLine
 10
26.22287422631096
 20
10.38131736295449
 30
0.0
 11
26.22287422631096
 21
8.376123097123336
 31
0.0
  0
LINE
  5
ED1
330
B5A
100
AcDbEntity
  8
DIM
 62
     0
100
AcDbLine
 10
24.22287422631096
 20
10.53231736295449
 30
0.0
 11
24.22287422631096
 21
8.376123097123336
 31
0.0
  0
LINE
  5
ED2
330
B5A
100
AcDbEntity
  8
DIM
 62
     0
100
AcDbLine
 10
26.76287422631096
 20
8.655123097123336
 30
0.0
 11
27.30287422631096
 21
8.655123097123336
 31
0.0
  0
LINE
  5
ED3
330
B5A
100
AcDbEntity
  8
DIM
 62
     0
100
AcDbLine
 10
23.68287422631096
 20
8.655123097123336
 30
0.0
 11
23.14287422631096
 21
8.655123097123336
 31
0.0
  0
SOLID
  5
ED4
330
B5A
100
AcDbEntity
  8
DIM
 62
     0
100
AcDbTrace
 10
26.76287422631096
 20
8.745123097123336
 30
0.0
 11
26.76287422631096
 21
8.565123097123336
 31
0.0
 12
26.22287422631096
 22
8.655123097123336
 32
0.0
 13
26.22287422631096
 23
8.655123097123336
 33
0.0
  0
SOLID
  5
ED5
330
B5A
100
AcDbEntity
  8
DIM
 62
     0
100
AcDbTrace
 10
23.68287422631096
 20
8.745123097123336
 30
0.0
 11
23.68287422631096
 21
8.565123097123336
 31
0.0
 12
24.22287422631096
 22
8.655123097123336
 32
0.0
 13
24.22287422631096
 23
8.655123097123336
 33
0.0
  0
MTEXT
  5
ED6
330
B5A
100
AcDbEntity
  8
DIM
 62
     0
100
AcDbMText
 10
25.22287422631096
 20
8.655123097123336
 30
0.0
 40
0.375
 41
0.0
 71
     5
 72
     1
  1
\A1;2.000
  7
TXT
1001
ACAD
1000
MTEXTBEGIN
1070
    73
1070
     1
1070
    44
1040
1.0
1070
    74
1070
     0
1000
MTEXTEND
  0
POINT
  5
ED7
330
B5A
100
AcDbEntity
  8
DEFPOINTS
 62
     0
100
AcDbPoint
 10
26.22287422631096
 20
10.57031736295449
 30
0.0
  0
POINT
  5
ED8
330
B5A
100
AcDbEntity
  8
DEFPOINTS
 62
     0
100
AcDbPoint
 10
24.22287422631096
 20
10.72131736295449
 30
0.0
  0
POINT
  5
ED9
330
B5A
100
AcDbEntity
  8
DEFPOINTS
 62
     0
100
AcDbPoint
 10
24.22287422631096
 20
8.655123097123336
 30
0.0
  0
ENDBLK
  5
B65
330
B5A
100
AcDbEntity
  8
0
100
AcDbBlockEnd
  0
BLOCK
  5
B72
330
B67
100
AcDbEntity
  8
0
100
AcDbBlockBegin
  2
*D20
 70
     1
 10
0.0
 20
0.0
 30
0.0
  3
*D20
  1

  0
LINE
  5
100E
330
B67
100
AcDbEntity
  8
DIM
 62
     0
100
AcDbLine
 10
41.50187422631097
 20
13.19531736295447
 30
0.0
 11
42.69837318659623
 21
13.19531736295447
 31
0.0
  0
LINE
  5
100F
330
B67
100
AcDbEntity
  8
DIM
 62
     0
100
AcDbLine
 10
41.91187422631096
 20
13.51031736295448
 30
0.0
 11
42.69837318659623
 21
13.51031736295448
 31
0.0
  0
LINE
  5
1010
330
B67
100
AcDbEntity
  8
DIM
 62
     0
100
AcDbLine
 10
42.41937318659623
 20
12.65531736295447
 30
0.0
 11
42.41937318659623
 21
12.11531736295447
 31
0.0
  0
LINE
  5
1011
330
B67
100
AcDbEntity
  8
DIM
 62
     0
100
AcDbLine
 10
42.41937318659623
 20
14.05031736295448
 30
0.0
 11
42.41937318659623
 21
14.59031736295448
 31
0.0
  0
LINE
  5
1012
330
B67
100
AcDbEntity
  8
DIM
 62
     0
100
AcDbLine
 10
42.41937318659623
 20
14.59031736295448
 30
0.0
 11
42.95937318659623
 21
14.59031736295448
 31
0.0
  0
SOLID
  5
1013
330
B67
100
AcDbEntity
  8
DIM
 62
     0
100
AcDbTrace
 10
42.32937318659622
 20
12.65531736295447
 30
0.0
 11
42.50937318659623
 21
12.65531736295447
 31
0.0
 12
42.41937318659623
 22
13.19531736295447
 32
0.0
 13
42.41937318659623
 23
13.19531736295447
 33
0.0
  0
SOLID
  5
1014
330
B67
100
AcDbEntity
  8
DIM
 62
     0
100
AcDbTrace
 10
42.32937318659622
 20
14.05031736295448
 30
0.0
 11
42.50937318659623
 21
14.05031736295448
 31
0.0
 12
42.41937318659623
 22
13.51031736295448
 32
0.0
 13
42.41937318659623
 23
13.51031736295448
 33
0.0
  0
MTEXT
  5
1015
330
B67
100
AcDbEntity
  8
DIM
 62
     0
100
AcDbMText
 10
43.72156068659623
 20
14.59031736295449
 30
0.0
 40
0.375
 41
0.0
 71
     5
 72
     1
  1
\A1;0.315
  7
TXT
1001
ACAD
1000
MTEXTBEGIN
1070
    73
1070
     1
1070
    44
1040
1.0
1070
    74
1070
     0
1000
MTEXTEND
  0
POINT
  5
1016
330
B67
100
AcDbEntity
  8
DEFPOINTS
 62
     0
100
AcDbPoint
 10
41.31287422631096
 20
13.19531736295447
 30
0.0
  0
POINT
  5
1017
330
B67
100
AcDbEntity
  8
DEFPOINTS
 62
     0
100
AcDbPoint
 10
41.72287422631096
 20
13.51031736295448
 30
0.0
  0
POINT
  5
1018
330
B67
100
AcDbEntity
  8
DEFPOINTS
 62
     0
100
AcDbPoint
 10
42.41937318659623
 20
13.51031736295448
 30
0.0
  0
ENDBLK
  5
B73
330
B67
100
AcDbEntity
  8
0
100
AcDbBlockEnd
  0
BLOCK
  5
B7F
330
B75
100
AcDbEntity
  8
0
100
AcDbBlockBegin
  2
*D21
 70
     1
 10
0.0
 20
0.0
 30
0.0
  3
*D21
  1

  0
LINE
  5
1004
330
B75
100
AcDbEntity
  8
DIM
 62
     0
100
AcDbLine
 10
41.50187422631097
 20
11.44531736295447
 30
0.0
 11
45.07572020404353
 21
11.44531736295447
 31
0.0
  0
LINE
  5
1005
330
B75
100
AcDbEntity
  8
DIM
 62
     0
100
AcDbLine
 10
41.50187422631097
 20
13.19531736295447
 30
0.0
 11
45.07572020404353
 21
13.19531736295447
 31
0.0
  0
LINE
  5
1006
330
B75
100
AcDbEntity
  8
DIM
 62
     0
100
AcDbLine
 10
44.79672020404353
 20
10.90531736295447
 30
0.0
 11
44.79672020404353
 21
10.36531736295447
 31
0.0
  0
LINE
  5
1007
330
B75
100
AcDbEntity
  8
DIM
 62
     0
100
AcDbLine
 10
44.79672020404353
 20
13.73531736295447
 30
0.0
 11
44.79672020404353
 21
14.27531736295447
 31
0.0
  0
SOLID
  5
1008
330
B75
100
AcDbEntity
  8
DIM
 62
     0
100
AcDbTrace
 10
44.70672020404353
 20
10.90531736295447
 30
0.0
 11
44.88672020404353
 21
10.90531736295447
 31
0.0
 12
44.79672020404353
 22
11.44531736295447
 32
0.0
 13
44.79672020404353
 23
11.44531736295447
 33
0.0
  0
SOLID
  5
1009
330
B75
100
AcDbEntity
  8
DIM
 62
     0
100
AcDbTrace
 10
44.70672020404353
 20
13.73531736295447
 30
0.0
 11
44.88672020404353
 21
13.73531736295447
 31
0.0
 12
44.79672020404353
 22
13.19531736295447
 32
0.0
 13
44.79672020404353
 23
13.19531736295447
 33
0.0
  0
MTEXT
  5
100A
330
B75
100
AcDbEntity
  8
DIM
 62
     0
100
AcDbMText
 10
44.79672020404353
 20
12.32031736295448
 30
0.0
 40
0.375
 41
0.0
 71
     5
 72
     1
  1
\A1;1.750
  7
TXT
1001
ACAD
1000
MTEXTBEGIN
1070
    73
1070
     1
1070
    44
1040
1.0
1070
    74
1070
     0
1000
MTEXTEND
  0
POINT
  5
100B
330
B75
100
AcDbEntity
  8
DEFPOINTS
 62
     0
100
AcDbPoint
 10
41.31287422631096
 20
11.44531736295447
 30
0.0
  0
POINT
  5
100C
330
B75
100
AcDbEntity
  8
DEFPOINTS
 62
     0
100
AcDbPoint
 10
41.31287422631096
 20
13.19531736295447
 30
0.0
  0
POINT
  5
100D
330
B75
100
AcDbEntity
  8
DEFPOINTS
 62
     0
100
AcDbPoint
 10
44.79672020404353
 20
13.19531736295447
 30
0.0
  0
ENDBLK
  5
B80
330
B75
100
AcDbEntity
  8
0
100
AcDbBlockEnd
  0
BLOCK
  5
B8C
330
B82
100
AcDbEntity
  8
0
100
AcDbBlockBegin
  2
*D22
 70
     1
 10
0.0
 20
0.0
 30
0.0
  3
*D22
  1

  0
LINE
  5
FFA
330
B82
100
AcDbEntity
  8
DIM
 62
     0
100
AcDbLine
 10
41.91187422631096
 20
11.13031736295448
 30
0.0
 11
46.62662976814622
 21
11.13031736295448
 31
0.0
  0
LINE
  5
FFB
330
B82
100
AcDbEntity
  8
DIM
 62
     0
100
AcDbLine
 10
41.91187422631096
 20
13.51031736295448
 30
0.0
 11
46.62662976814622
 21
13.51031736295448
 31
0.0
  0
LINE
  5
FFC
330
B82
100
AcDbEntity
  8
DIM
 62
     0
100
AcDbLine
 10
46.34762976814622
 20
10.59031736295448
 30
0.0
 11
46.34762976814622
 21
10.05031736295448
 31
0.0
  0
LINE
  5
FFD
330
B82
100
AcDbEntity
  8
DIM
 62
     0
100
AcDbLine
 10
46.34762976814622
 20
14.05031736295448
 30
0.0
 11
46.34762976814622
 21
14.59031736295448
 31
0.0
  0
SOLID
  5
FFE
330
B82
100
AcDbEntity
  8
DIM
 62
     0
100
AcDbTrace
 10
46.25762976814622
 20
10.59031736295448
 30
0.0
 11
46.43762976814622
 21
10.59031736295448
 31
0.0
 12
46.34762976814622
 22
11.13031736295448
 32
0.0
 13
46.34762976814622
 23
11.13031736295448
 33
0.0
  0
SOLID
  5
FFF
330
B82
100
AcDbEntity
  8
DIM
 62
     0
100
AcDbTrace
 10
46.25762976814622
 20
14.05031736295448
 30
0.0
 11
46.43762976814622
 21
14.05031736295448
 31
0.0
 12
46.34762976814622
 22
13.51031736295448
 32
0.0
 13
46.34762976814622
 23
13.51031736295448
 33
0.0
  0
MTEXT
  5
1000
330
B82
100
AcDbEntity
  8
DIM
 62
     0
100
AcDbMText
 10
46.34762976814622
 20
12.32031736295448
 30
0.0
 40
0.375
 41
0.0
 71
     5
 72
     1
  1
\A1;2.380
  7
TXT
1001
ACAD
1000
MTEXTBEGIN
1070
    73
1070
     1
1070
    44
1040
1.0
1070
    74
1070
     0
1000
MTEXTEND
  0
POINT
  5
1001
330
B82
100
AcDbEntity
  8
DEFPOINTS
 62
     0
100
AcDbPoint
 10
41.72287422631096
 20
11.13031736295448
 30
0.0
  0
POINT
  5
1002
330
B82
100
AcDbEntity
  8
DEFPOINTS
 62
     0
100
AcDbPoint
 10
41.72287422631096
 20
13.51031736295448
 30
0.0
  0
POINT
  5
1003
330
B82
100
AcDbEntity
  8
DEFPOINTS
 62
     0
100
AcDbPoint
 10
46.34762976814622
 20
13.51031736295448
 30
0.0
  0
ENDBLK
  5
B8D
330
B82
100
AcDbEntity
  8
0
100
AcDbBlockEnd
  0
BLOCK
  5
B9A
330
B8F
100
AcDbEntity
  8
0
100
AcDbBlockBegin
  2
*D23
 70
     1
 10
0.0
 20
0.0
 30
0.0
  3
*D23
  1

  0
LINE
  5
102D
330
B8F
100
AcDbEntity
  8
DIM
 62
     0
100
AcDbLine
 10
41.91187422631096
 20
18.04778660280603
 30
0.0
 11
42.69837318659623
 21
18.04778660280603
 31
0.0
  0
LINE
  5
102E
330
B8F
100
AcDbEntity
  8
DIM
 62
     0
100
AcDbLine
 10
40.47687422631094
 20
18.54778660280603
 30
0.0
 11
42.69837318659623
 21
18.54778660280603
 31
0.0
  0
LINE
  5
102F
330
B8F
100
AcDbEntity
  8
DIM
 62
     0
100
AcDbLine
 10
42.41937318659623
 20
17.50778660280603
 30
0.0
 11
42.41937318659623
 21
16.96778660280603
 31
0.0
  0
LINE
  5
1030
330
B8F
100
AcDbEntity
  8
DIM
 62
     0
100
AcDbLine
 10
42.41937318659623
 20
19.08778660280603
 30
0.0
 11
42.41937318659623
 21
19.62778660280603
 31
0.0
  0
LINE
  5
1031
330
B8F
100
AcDbEntity
  8
DIM
 62
     0
100
AcDbLine
 10
42.41937318659623
 20
19.62778660280603
 30
0.0
 11
42.95937318659623
 21
19.62778660280603
 31
0.0
  0
SOLID
  5
1032
330
B8F
100
AcDbEntity
  8
DIM
 62
     0
100
AcDbTrace
 10
42.32937318659622
 20
17.50778660280603
 30
0.0
 11
42.50937318659623
 21
17.50778660280603
 31
0.0
 12
42.41937318659623
 22
18.04778660280603
 32
0.0
 13
42.41937318659623
 23
18.04778660280603
 33
0.0
  0
SOLID
  5
1033
330
B8F
100
AcDbEntity
  8
DIM
 62
     0
100
AcDbTrace
 10
42.32937318659622
 20
19.08778660280603
 30
0.0
 11
42.50937318659623
 21
19.08778660280603
 31
0.0
 12
42.41937318659623
 22
18.54778660280603
 32
0.0
 13
42.41937318659623
 23
18.54778660280603
 33
0.0
  0
MTEXT
  5
1034
330
B8F
100
AcDbEntity
  8
DIM
 62
     0
100
AcDbMText
 10
43.72156068659623
 20
19.62778660280604
 30
0.0
 40
0.375
 41
0.0
 71
     5
 72
     1
  1
\A1;0.500
  7
TXT
1001
ACAD
1000
MTEXTBEGIN
1070
    73
1070
     1
1070
    44
1040
1.0
1070
    74
1070
     0
1000
MTEXTEND
  0
POINT
  5
1035
330
B8F
100
AcDbEntity
  8
DEFPOINTS
 62
     0
100
AcDbPoint
 10
41.72287422631096
 20
18.04778660280603
 30
0.0
  0
POINT
  5
1036
330
B8F
100
AcDbEntity
  8
DEFPOINTS
 62
     0
100
AcDbPoint
 10
40.28787422631094
 20
18.54778660280603
 30
0.0
  0
POINT
  5
1037
330
B8F
100
AcDbEntity
  8
DEFPOINTS
 62
     0
100
AcDbPoint
 10
42.41937318659623
 20
18.54778660280603
 30
0.0
  0
ENDBLK
  5
B9B
330
B8F
100
AcDbEntity
  8
0
100
AcDbBlockEnd
  0
BLOCK
  5
BA8
330
B9D
100
AcDbEntity
  8
0
100
AcDbBlockBegin
  2
*D24
 70
     1
 10
0.0
 20
0.0
 30
0.0
  3
*D24
  1

  0
LINE
  5
1019
330
B9D
100
AcDbEntity
  8
DIM
 62
     0
100
AcDbLine
 10
36.09787422631096
 20
18.26778660280604
 30
0.0
 11
36.09787422631096
 21
16.94522596938597
 31
0.0
  0
LINE
  5
101A
330
B9D
100
AcDbEntity
  8
DIM
 62
     0
100
AcDbLine
 10
36.34787422631096
 20
18.26778660280604
 30
0.0
 11
36.34787422631096
 21
16.94522596938597
 31
0.0
  0
LINE
  5
101B
330
B9D
100
AcDbEntity
  8
DIM
 62
     0
100
AcDbLine
 10
35.55787422631096
 20
17.22422596938597
 30
0.0
 11
35.01787422631096
 21
17.22422596938597
 31
0.0
  0
LINE
  5
101C
330
B9D
100
AcDbEntity
  8
DIM
 62
     0
100
AcDbLine
 10
36.88787422631096
 20
17.22422596938597
 30
0.0
 11
37.42787422631096
 21
17.22422596938597
 31
0.0
  0
SOLID
  5
101D
330
B9D
100
AcDbEntity
  8
DIM
 62
     0
100
AcDbTrace
 10
35.55787422631096
 20
17.31422596938597
 30
0.0
 11
35.55787422631096
 21
17.13422596938597
 31
0.0
 12
36.09787422631096
 22
17.22422596938597
 32
0.0
 13
36.09787422631096
 23
17.22422596938597
 33
0.0
  0
SOLID
  5
101E
330
B9D
100
AcDbEntity
  8
DIM
 62
     0
100
AcDbTrace
 10
36.88787422631096
 20
17.31422596938597
 30
0.0
 11
36.88787422631096
 21
17.13422596938597
 31
0.0
 12
36.34787422631096
 22
17.22422596938597
 32
0.0
 13
36.34787422631096
 23
17.22422596938597
 33
0.0
  0
MTEXT
  5
101F
330
B9D
100
AcDbEntity
  8
DIM
 62
     0
100
AcDbMText
 10
38.82287422631096
 20
17.22422596938597
 30
0.0
 40
0.375
 41
0.0
 71
     5
 72
     1
  1
\A1;0.250 TYP.
  7
TXT
1001
ACAD
1000
MTEXTBEGIN
1070
    73
1070
     1
1070
    44
1040
1.0
1070
    74
1070
     0
1000
MTEXTEND
  0
POINT
  5
1020
330
B9D
100
AcDbEntity
  8
DEFPOINTS
 62
     0
100
AcDbPoint
 10
36.09787422631096
 20
18.45678660280604
 30
0.0
  0
POINT
  5
1021
330
B9D
100
AcDbEntity
  8
DEFPOINTS
 62
     0
100
AcDbPoint
 10
36.34787422631096
 20
18.45678660280604
 30
0.0
  0
POINT
  5
1022
330
B9D
100
AcDbEntity
  8
DEFPOINTS
 62
     0
100
AcDbPoint
 10
36.34787422631096
 20
17.22422596938597
 30
0.0
  0
ENDBLK
  5
BA9
330
B9D
100
AcDbEntity
  8
0
100
AcDbBlockEnd
  0
BLOCK
  5
BB6
330
BAB
100
AcDbEntity
  8
0
100
AcDbBlockBegin
  2
*D25
 70
     1
 10
0.0
 20
0.0
 30
0.0
  3
*D25
  1

  0
LINE
  5
F8B
330
BAB
100
AcDbEntity
  8
DIM
 62
     0
100
AcDbLine
 10
8.658874226310956
 20
18.42778660280604
 30
0.0
 11
7.623481204165233
 21
18.42778660280604
 31
0.0
  0
LINE
  5
F8C
330
BAB
100
AcDbEntity
  8
DIM
 62
     0
100
AcDbLine
 10
8.658874226310956
 20
18.48778660280605
 30
0.0
 11
7.623481204165233
 21
18.48778660280605
 31
0.0
  0
LINE
  5
F8D
330
BAB
100
AcDbEntity
  8
DIM
 62
     0
100
AcDbLine
 10
7.902481204165232
 20
17.88778660280605
 30
0.0
 11
7.902481204165232
 21
17.34778660280604
 31
0.0
  0
LINE
  5
F8E
330
BAB
100
AcDbEntity
  8
DIM
 62
     0
100
AcDbLine
 10
7.902481204165233
 20
19.02778660280605
 30
0.0
 11
7.902481204165233
 21
19.56778660280606
 31
0.0
  0
LINE
  5
F8F
330
BAB
100
AcDbEntity
  8
DIM
 62
     0
100
AcDbLine
 10
7.902481204165233
 20
19.56778660280606
 30
0.0
 11
8.442481204165233
 21
19.56778660280605
 31
0.0
  0
SOLID
  5
F90
330
BAB
100
AcDbEntity
  8
DIM
 62
     0
100
AcDbTrace
 10
7.812481204165232
 20
17.88778660280605
 30
0.0
 11
7.992481204165232
 21
17.88778660280605
 31
0.0
 12
7.902481204165233
 22
18.42778660280604
 32
0.0
 13
7.902481204165233
 23
18.42778660280604
 33
0.0
  0
SOLID
  5
F91
330
BAB
100
AcDbEntity
  8
DIM
 62
     0
100
AcDbTrace
 10
7.812481204165233
 20
19.02778660280605
 30
0.0
 11
7.992481204165232
 21
19.02778660280605
 31
0.0
 12
7.902481204165233
 22
18.48778660280605
 32
0.0
 13
7.902481204165233
 23
18.48778660280605
 33
0.0
  0
MTEXT
  5
F92
330
BAB
100
AcDbEntity
  8
DIM
 62
     0
100
AcDbMText
 10
9.20466870416523
 20
19.56778660280606
 30
0.0
 40
0.375
 41
0.0
 71
     5
 72
     1
  1
\A1;0.060
  7
TXT
1001
ACAD
1000
MTEXTBEGIN
1070
    73
1070
     1
1070
    44
1040
1.0
1070
    74
1070
     0
1000
MTEXTEND
  0
POINT
  5
F93
330
BAB
100
AcDbEntity
  8
DEFPOINTS
 62
     0
100
AcDbPoint
 10
8.847874226310956
 20
18.42778660280604
 30
0.0
  0
POINT
  5
F94
330
BAB
100
AcDbEntity
  8
DEFPOINTS
 62
     0
100
AcDbPoint
 10
8.847874226310956
 20
18.48778660280605
 30
0.0
  0
POINT
  5
F95
330
BAB
100
AcDbEntity
  8
DEFPOINTS
 62
     0
100
AcDbPoint
 10
7.902481204165233
 20
18.48778660280605
 30
0.0
  0
ENDBLK
  5
BB7
330
BAB
100
AcDbEntity
  8
0
100
AcDbBlockEnd
  0
BLOCK
  5
BC4
330
BB9
100
AcDbEntity
  8
0
100
AcDbBlockBegin
  2
*D26
 70
     1
 10
0.0
 20
0.0
 30
0.0
  3
*D26
  1

  0
LINE
  5
F80
330
BB9
100
AcDbEntity
  8
DIM
 62
     0
100
AcDbLine
 10
10.18987422631096
 20
18.54778660280605
 30
0.0
 11
6.477161991307734
 21
18.54778660280605
 31
0.0
  0
LINE
  5
F81
330
BB9
100
AcDbEntity
  8
DIM
 62
     0
100
AcDbLine
 10
10.18987422631096
 20
18.16778660280604
 30
0.0
 11
6.477161991307734
 21
18.16778660280605
 31
0.0
  0
LINE
  5
F82
330
BB9
100
AcDbEntity
  8
DIM
 62
     0
100
AcDbLine
 10
6.756161991307734
 20
19.08778660280606
 30
0.0
 11
6.756161991307734
 21
19.62778660280606
 31
0.0
  0
LINE
  5
F83
330
BB9
100
AcDbEntity
  8
DIM
 62
     0
100
AcDbLine
 10
6.756161991307733
 20
17.62778660280605
 30
0.0
 11
6.756161991307733
 21
17.08778660280605
 31
0.0
  0
LINE
  5
F84
330
BB9
100
AcDbEntity
  8
DIM
 62
     0
100
AcDbLine
 10
6.756161991307733
 20
17.08778660280605
 30
0.0
 11
6.216161991307733
 21
17.08778660280605
 31
0.0
  0
SOLID
  5
F85
330
BB9
100
AcDbEntity
  8
DIM
 62
     0
100
AcDbTrace
 10
6.666161991307734
 20
19.08778660280606
 30
0.0
 11
6.846161991307734
 21
19.08778660280606
 31
0.0
 12
6.756161991307734
 22
18.54778660280605
 32
0.0
 13
6.756161991307734
 23
18.54778660280605
 33
0.0
  0
SOLID
  5
F86
330
BB9
100
AcDbEntity
  8
DIM
 62
     0
100
AcDbTrace
 10
6.666161991307733
 20
17.62778660280605
 30
0.0
 11
6.846161991307733
 21
17.62778660280605
 31
0.0
 12
6.756161991307734
 22
18.16778660280605
 32
0.0
 13
6.756161991307734
 23
18.16778660280605
 33
0.0
  0
MTEXT
  5
F87
330
BB9
100
AcDbEntity
  8
DIM
 62
     0
100
AcDbMText
 10
5.43053699130773
 20
17.08778660280605
 30
0.0
 40
0.375
 41
0.0
 71
     5
 72
     1
  1
\A1;0.380
  7
TXT
1001
ACAD
1000
MTEXTBEGIN
1070
    73
1070
     1
1070
    44
1040
1.0
1070
    74
1070
     0
1000
MTEXTEND
  0
POINT
  5
F88
330
BB9
100
AcDbEntity
  8
DEFPOINTS
 62
     0
100
AcDbPoint
 10
10.37887422631096
 20
18.54778660280605
 30
0.0
  0
POINT
  5
F89
330
BB9
100
AcDbEntity
  8
DEFPOINTS
 62
     0
100
AcDbPoint
 10
10.37887422631096
 20
18.16778660280604
 30
0.0
  0
POINT
  5
F8A
330
BB9
100
AcDbEntity
  8
DEFPOINTS
 62
     0
100
AcDbPoint
 10
6.756161991307734
 20
18.16778660280605
 30
0.0
  0
ENDBLK
  5
BC5
330
BB9
100
AcDbEntity
  8
0
100
AcDbBlockEnd
  0
BLOCK
  5
BD2
330
BC7
100
AcDbEntity
  8
0
100
AcDbBlockBegin
  2
*D27
 70
     1
 10
0.0
 20
0.0
 30
0.0
  3
*D27
  1

  0
LINE
  5
1023
330
BC7
100
AcDbEntity
  8
DIM
 62
     0
100
AcDbLine
 10
26.09787422631096
 20
18.86178660280603
 30
0.0
 11
26.09787422631096
 21
19.90678660280602
 31
0.0
  0
LINE
  5
1024
330
BC7
100
AcDbEntity
  8
DIM
 62
     0
100
AcDbLine
 10
26.34787422631096
 20
18.86178660280603
 30
0.0
 11
26.34787422631096
 21
19.90678660280602
 31
0.0
  0
LINE
  5
1025
330
BC7
100
AcDbEntity
  8
DIM
 62
     0
100
AcDbLine
 10
25.55787422631096
 20
19.62778660280602
 30
0.0
 11
25.01787422631096
 21
19.62778660280602
 31
0.0
  0
LINE
  5
1026
330
BC7
100
AcDbEntity
  8
DIM
 62
     0
100
AcDbLine
 10
26.88787422631096
 20
19.62778660280602
 30
0.0
 11
27.42787422631096
 21
19.62778660280602
 31
0.0
  0
SOLID
  5
1027
330
BC7
100
AcDbEntity
  8
DIM
 62
     0
100
AcDbTrace
 10
25.55787422631096
 20
19.71778660280602
 30
0.0
 11
25.55787422631096
 21
19.53778660280602
 31
0.0
 12
26.09787422631096
 22
19.62778660280602
 32
0.0
 13
26.09787422631096
 23
19.62778660280602
 33
0.0
  0
SOLID
  5
1028
330
BC7
100
AcDbEntity
  8
DIM
 62
     0
100
AcDbTrace
 10
26.88787422631096
 20
19.71778660280602
 30
0.0
 11
26.88787422631096
 21
19.53778660280602
 31
0.0
 12
26.34787422631096
 22
19.62778660280602
 32
0.0
 13
26.34787422631096
 23
19.62778660280602
 33
0.0
  0
MTEXT
  5
1029
330
BC7
100
AcDbEntity
  8
DIM
 62
     0
100
AcDbMText
 10
28.77599922631096
 20
19.62778660280602
 30
0.0
 40
0.375
 41
0.0
 71
     5
 72
     1
  1
\A1;0.250 DIA.
  7
TXT
1001
ACAD
1000
MTEXTBEGIN
1070
    73
1070
     1
1070
    44
1040
1.0
1070
    74
1070
     0
1000
MTEXTEND
  0
POINT
  5
102A
330
BC7
100
AcDbEntity
  8
DEFPOINTS
 62
     0
100
AcDbPoint
 10
26.09787422631096
 20
18.67278660280603
 30
0.0
  0
POINT
  5
102B
330
BC7
100
AcDbEntity
  8
DEFPOINTS
 62
     0
100
AcDbPoint
 10
26.34787422631096
 20
18.67278660280603
 30
0.0
  0
POINT
  5
102C
330
BC7
100
AcDbEntity
  8
DEFPOINTS
 62
     0
100
AcDbPoint
 10
26.34787422631096
 20
19.62778660280602
 30
0.0
  0
ENDBLK
  5
BD3
330
BC7
100
AcDbEntity
  8
0
100
AcDbBlockEnd
  0
BLOCK
  5
BE8
330
BDD
100
AcDbEntity
  8
0
100
AcDbBlockBegin
  2
*D28
 70
     1
 10
0.0
 20
0.0
 30
0.0
  3
*D28
  1

  0
LINE
  5
F6A
330
BDD
100
AcDbEntity
  8
DIM
 62
     0
100
AcDbLine
 10
20.97248750293089
 20
13.95031736295448
 30
0.0
 11
21.90412607108659
 21
13.95031736295448
 31
0.0
  0
LINE
  5
F6B
330
BDD
100
AcDbEntity
  8
DIM
 62
     0
100
AcDbLine
 10
20.97248750293089
 20
14.01031736295449
 30
0.0
 11
21.90412607108659
 21
14.01031736295449
 31
0.0
  0
LINE
  5
F6C
330
BDD
100
AcDbEntity
  8
DIM
 62
     0
100
AcDbLine
 10
21.62512607108659
 20
13.41031736295448
 30
0.0
 11
21.62512607108659
 21
12.87031736295448
 31
0.0
  0
LINE
  5
F6D
330
BDD
100
AcDbEntity
  8
DIM
 62
     0
100
AcDbLine
 10
21.62512607108659
 20
14.55031736295449
 30
0.0
 11
21.62512607108659
 21
15.09031736295449
 31
0.0
  0
LINE
  5
F6E
330
BDD
100
AcDbEntity
  8
DIM
 62
     0
100
AcDbLine
 10
21.62512607108659
 20
15.09031736295449
 30
0.0
 11
22.16512607108659
 21
15.09031736295449
 31
0.0
  0
SOLID
  5
F6F
330
BDD
100
AcDbEntity
  8
DIM
 62
     0
100
AcDbTrace
 10
21.53512607108658
 20
13.41031736295448
 30
0.0
 11
21.71512607108659
 21
13.41031736295448
 31
0.0
 12
21.62512607108659
 22
13.95031736295448
 32
0.0
 13
21.62512607108659
 23
13.95031736295448
 33
0.0
  0
SOLID
  5
F70
330
BDD
100
AcDbEntity
  8
DIM
 62
     0
100
AcDbTrace
 10
21.53512607108658
 20
14.55031736295449
 30
0.0
 11
21.71512607108659
 21
14.55031736295449
 31
0.0
 12
21.62512607108659
 22
14.01031736295449
 32
0.0
 13
21.62512607108659
 23
14.01031736295449
 33
0.0
  0
MTEXT
  5
F71
330
BDD
100
AcDbEntity
  8
DIM
 62
     0
100
AcDbMText
 10
22.92731357108658
 20
15.09031736295449
 30
0.0
 40
0.375
 41
0.0
 71
     5
 72
     1
  1
\A1;0.060
  7
TXT
1001
ACAD
1000
MTEXTBEGIN
1070
    73
1070
     1
1070
    44
1040
1.0
1070
    74
1070
     0
1000
MTEXTEND
  0
POINT
  5
F72
330
BDD
100
AcDbEntity
  8
DEFPOINTS
 62
     0
100
AcDbPoint
 10
20.78348750293089
 20
13.95031736295448
 30
0.0
  0
POINT
  5
F73
330
BDD
100
AcDbEntity
  8
DEFPOINTS
 62
     0
100
AcDbPoint
 10
20.78348750293089
 20
14.01031736295449
 30
0.0
  0
POINT
  5
F74
330
BDD
100
AcDbEntity
  8
DEFPOINTS
 62
     0
100
AcDbPoint
 10
21.62512607108659
 20
14.01031736295449
 30
0.0
  0
ENDBLK
  5
BE9
330
BDD
100
AcDbEntity
  8
0
100
AcDbBlockEnd
  0
BLOCK
  5
BFE
330
BF3
100
AcDbEntity
  8
0
100
AcDbBlockBegin
  2
*D29
 70
     1
 10
0.0
 20
0.0
 30
0.0
  3
*D29
  1

  0
LINE
  5
F75
330
BF3
100
AcDbEntity
  8
DIM
 62
     0
100
AcDbLine
 10
10.53387422631096
 20
23.93353452379512
 30
0.0
 11
7.580605467904507
 21
23.93353452379512
 31
0.0
  0
LINE
  5
F76
330
BF3
100
AcDbEntity
  8
DIM
 62
     0
100
AcDbLine
 10
8.658874226310956
 20
23.06353452379513
 30
0.0
 11
7.580605467904507
 21
23.06353452379513
 31
0.0
  0
LINE
  5
F77
330
BF3
100
AcDbEntity
  8
DIM
 62
     0
100
AcDbLine
 10
7.859605467904507
 20
24.47353452379513
 30
0.0
 11
7.859605467904507
 21
25.01353452379513
 31
0.0
  0
LINE
  5
F78
330
BF3
100
AcDbEntity
  8
DIM
 62
     0
100
AcDbLine
 10
7.859605467904507
 20
22.52353452379514
 30
0.0
 11
7.859605467904506
 21
21.98353452379513
 31
0.0
  0
LINE
  5
F79
330
BF3
100
AcDbEntity
  8
DIM
 62
     0
100
AcDbLine
 10
7.859605467904506
 20
21.98353452379513
 30
0.0
 11
7.319605467904506
 21
21.98353452379513
 31
0.0
  0
SOLID
  5
F7A
330
BF3
100
AcDbEntity
  8
DIM
 62
     0
100
AcDbTrace
 10
7.769605467904507
 20
24.47353452379513
 30
0.0
 11
7.949605467904507
 21
24.47353452379513
 31
0.0
 12
7.859605467904507
 22
23.93353452379512
 32
0.0
 13
7.859605467904507
 23
23.93353452379512
 33
0.0
  0
SOLID
  5
F7B
330
BF3
100
AcDbEntity
  8
DIM
 62
     0
100
AcDbTrace
 10
7.769605467904507
 20
22.52353452379514
 30
0.0
 11
7.949605467904507
 21
22.52353452379514
 31
0.0
 12
7.859605467904507
 22
23.06353452379513
 32
0.0
 13
7.859605467904507
 23
23.06353452379513
 33
0.0
  0
MTEXT
  5
F7C
330
BF3
100
AcDbEntity
  8
DIM
 62
     0
100
AcDbMText
 10
6.533980467904504
 20
21.98353452379513
 30
0.0
 40
0.375
 41
0.0
 71
     5
 72
     1
  1
\A1;0.880
  7
TXT
1001
ACAD
1000
MTEXTBEGIN
1070
    73
1070
     1
1070
    44
1040
1.0
1070
    74
1070
     0
1000
MTEXTEND
  0
POINT
  5
F7D
330
BF3
100
AcDbEntity
  8
DEFPOINTS
 62
     0
100
AcDbPoint
 10
10.72287422631096
 20
23.93353452379512
 30
0.0
  0
POINT
  5
F7E
330
BF3
100
AcDbEntity
  8
DEFPOINTS
 62
     0
100
AcDbPoint
 10
8.847874226310956
 20
23.06353452379513
 30
0.0
  0
POINT
  5
F7F
330
BF3
100
AcDbEntity
  8
DEFPOINTS
 62
     0
100
AcDbPoint
 10
7.859605467904507
 20
23.06353452379513
 30
0.0
  0
ENDBLK
  5
BFF
330
BF3
100
AcDbEntity
  8
0
100
AcDbBlockEnd
  0
BLOCK
  5
C3A
330
C2F
100
AcDbEntity
  8
0
100
AcDbBlockBegin
  2
*D30
 70
     1
 10
0.0
 20
0.0
 30
0.0
  3
*D30
  1

  0
LINE
  5
EC6
330
C2F
100
AcDbEntity
  8
DIM
 62
     0
100
AcDbLine
 10
24.22287422631095
 20
10.53231736295449
 30
0.0
 11
24.22287422631095
 21
9.219123097123333
 31
0.0
  0
LINE
  5
EC7
330
C2F
100
AcDbEntity
  8
DIM
 62
     0
100
AcDbLine
 10
23.22287422631096
 20
12.04131736295449
 30
0.0
 11
23.22287422631096
 21
9.219123097123333
 31
0.0
  0
LINE
  5
EC8
330
C2F
100
AcDbEntity
  8
DIM
 62
     0
100
AcDbLine
 10
24.76287422631095
 20
9.498123097123333
 30
0.0
 11
25.30287422631095
 21
9.498123097123333
 31
0.0
  0
LINE
  5
EC9
330
C2F
100
AcDbEntity
  8
DIM
 62
     0
100
AcDbLine
 10
22.68287422631096
 20
9.498123097123333
 30
0.0
 11
22.14287422631096
 21
9.498123097123333
 31
0.0
  0
SOLID
  5
ECA
330
C2F
100
AcDbEntity
  8
DIM
 62
     0
100
AcDbTrace
 10
24.76287422631095
 20
9.588123097123332
 30
0.0
 11
24.76287422631095
 21
9.408123097123333
 31
0.0
 12
24.22287422631095
 22
9.498123097123333
 32
0.0
 13
24.22287422631095
 23
9.498123097123333
 33
0.0
  0
SOLID
  5
ECB
330
C2F
100
AcDbEntity
  8
DIM
 62
     0
100
AcDbTrace
 10
22.68287422631096
 20
9.588123097123332
 30
0.0
 11
22.68287422631096
 21
9.408123097123333
 31
0.0
 12
23.22287422631096
 22
9.498123097123333
 32
0.0
 13
23.22287422631096
 23
9.498123097123333
 33
0.0
  0
MTEXT
  5
ECC
330
C2F
100
AcDbEntity
  8
DIM
 62
     0
100
AcDbMText
 10
21.42756172631096
 20
9.498123097123333
 30
0.0
 40
0.375
 41
0.0
 71
     5
 72
     1
  1
\A1;1.000
  7
TXT
1001
ACAD
1000
MTEXTBEGIN
1070
    73
1070
     1
1070
    44
1040
1.0
1070
    74
1070
     0
1000
MTEXTEND
  0
POINT
  5
ECD
330
C2F
100
AcDbEntity
  8
DEFPOINTS
 62
     0
100
AcDbPoint
 10
24.22287422631095
 20
10.72131736295449
 30
0.0
  0
POINT
  5
ECE
330
C2F
100
AcDbEntity
  8
DEFPOINTS
 62
     0
100
AcDbPoint
 10
23.22287422631096
 20
12.23031736295449
 30
0.0
  0
POINT
  5
ECF
330
C2F
100
AcDbEntity
  8
DEFPOINTS
 62
     0
100
AcDbPoint
 10
23.22287422631096
 20
9.498123097123333
 30
0.0
  0
ENDBLK
  5
C3B
330
C2F
100
AcDbEntity
  8
0
100
AcDbBlockEnd
  0
BLOCK
  5
C48
330
C3D
100
AcDbEntity
  8
0
100
AcDbBlockBegin
  2
*D31
 70
     1
 10
0.0
 20
0.0
 30
0.0
  3
*D31
  1

  0
LINE
  5
FDC
330
C3D
100
AcDbEntity
  8
DIM
 62
     0
100
AcDbLine
 10
28.22287422631096
 20
10.53231736295449
 30
0.0
 11
28.22287422631096
 21
9.219123097123333
 31
0.0
  0
LINE
  5
FDD
330
C3D
100
AcDbEntity
  8
DIM
 62
     0
100
AcDbLine
 10
29.22287422631096
 20
12.04131736295449
 30
0.0
 11
29.22287422631096
 21
9.219123097123333
 31
0.0
  0
LINE
  5
FDE
330
C3D
100
AcDbEntity
  8
DIM
 62
     0
100
AcDbLine
 10
27.68287422631096
 20
9.498123097123333
 30
0.0
 11
27.14287422631096
 21
9.498123097123333
 31
0.0
  0
LINE
  5
FDF
330
C3D
100
AcDbEntity
  8
DIM
 62
     0
100
AcDbLine
 10
29.76287422631096
 20
9.498123097123333
 30
0.0
 11
30.30287422631096
 21
9.498123097123333
 31
0.0
  0
SOLID
  5
FE0
330
C3D
100
AcDbEntity
  8
DIM
 62
     0
100
AcDbTrace
 10
27.68287422631096
 20
9.588123097123332
 30
0.0
 11
27.68287422631096
 21
9.408123097123333
 31
0.0
 12
28.22287422631096
 22
9.498123097123333
 32
0.0
 13
28.22287422631096
 23
9.498123097123333
 33
0.0
  0
SOLID
  5
FE1
330
C3D
100
AcDbEntity
  8
DIM
 62
     0
100
AcDbTrace
 10
29.76287422631096
 20
9.588123097123332
 30
0.0
 11
29.76287422631096
 21
9.408123097123333
 31
0.0
 12
29.22287422631096
 22
9.498123097123333
 32
0.0
 13
29.22287422631096
 23
9.498123097123333
 33
0.0
  0
MTEXT
  5
FE2
330
C3D
100
AcDbEntity
  8
DIM
 62
     0
100
AcDbMText
 10
31.01818672631096
 20
9.498123097123333
 30
0.0
 40
0.375
 41
0.0
 71
     5
 72
     1
  1
\A1;1.000
  7
TXT
1001
ACAD
1000
MTEXTBEGIN
1070
    73
1070
     1
1070
    44
1040
1.0
1070
    74
1070
     0
1000
MTEXTEND
  0
POINT
  5
FE3
330
C3D
100
AcDbEntity
  8
DEFPOINTS
 62
     0
100
AcDbPoint
 10
28.22287422631096
 20
10.72131736295449
 30
0.0
  0
POINT
  5
FE4
330
C3D
100
AcDbEntity
  8
DEFPOINTS
 62
     0
100
AcDbPoint
 10
29.22287422631096
 20
12.23031736295449
 30
0.0
  0
POINT
  5
FE5
330
C3D
100
AcDbEntity
  8
DEFPOINTS
 62
     0
100
AcDbPoint
 10
29.22287422631096
 20
9.498123097123333
 30
0.0
  0
ENDBLK
  5
C49
330
C3D
100
AcDbEntity
  8
0
100
AcDbBlockEnd
  0
BLOCK
  5
C56
330
C4B
100
AcDbEntity
  8
0
100
AcDbBlockBegin
  2
*D32
 70
     1
 10
0.0
 20
0.0
 30
0.0
  3
*D32
  1

  0
LINE
  5
FBE
330
C4B
100
AcDbEntity
  8
DIM
 62
     0
100
AcDbLine
 10
28.22287422631096
 20
10.53231736295449
 30
0.0
 11
28.22287422631096
 21
6.690123097123328
 31
0.0
  0
LINE
  5
FBF
330
C4B
100
AcDbEntity
  8
DIM
 62
     0
100
AcDbLine
 10
37.22287422631096
 20
12.04131736295449
 30
0.0
 11
37.22287422631096
 21
6.690123097123328
 31
0.0
  0
LINE
  5
FC0
330
C4B
100
AcDbEntity
  8
DIM
 62
     0
100
AcDbLine
 10
28.76287422631096
 20
6.969123097123328
 30
0.0
 11
31.96068672631096
 21
6.969123097123328
 31
0.0
  0
LINE
  5
FC1
330
C4B
100
AcDbEntity
  8
DIM
 62
     0
100
AcDbLine
 10
36.68287422631096
 20
6.969123097123328
 30
0.0
 11
33.48506172631096
 21
6.969123097123328
 31
0.0
  0
SOLID
  5
FC2
330
C4B
100
AcDbEntity
  8
DIM
 62
     0
100
AcDbTrace
 10
28.76287422631096
 20
7.059123097123328
 30
0.0
 11
28.76287422631096
 21
6.879123097123328
 31
0.0
 12
28.22287422631096
 22
6.969123097123328
 32
0.0
 13
28.22287422631096
 23
6.969123097123328
 33
0.0
  0
SOLID
  5
FC3
330
C4B
100
AcDbEntity
  8
DIM
 62
     0
100
AcDbTrace
 10
36.68287422631096
 20
7.059123097123328
 30
0.0
 11
36.68287422631096
 21
6.879123097123328
 31
0.0
 12
37.22287422631096
 22
6.969123097123328
 32
0.0
 13
37.22287422631096
 23
6.969123097123328
 33
0.0
  0
MTEXT
  5
FC4
330
C4B
100
AcDbEntity
  8
DIM
 62
     0
100
AcDbMText
 10
32.72287422631096
 20
6.969123097123328
 30
0.0
 40
0.375
 41
0.0
 71
     5
 72
     1
  1
\A1;9.000
  7
TXT
1001
ACAD
1000
MTEXTBEGIN
1070
    73
1070
     1
1070
    44
1040
1.0
1070
    74
1070
     0
1000
MTEXTEND
  0
POINT
  5
FC5
330
C4B
100
AcDbEntity
  8
DEFPOINTS
 62
     0
100
AcDbPoint
 10
28.22287422631096
 20
10.72131736295449
 30
0.0
  0
POINT
  5
FC6
330
C4B
100
AcDbEntity
  8
DEFPOINTS
 62
     0
100
AcDbPoint
 10
37.22287422631096
 20
12.23031736295449
 30
0.0
  0
POINT
  5
FC7
330
C4B
100
AcDbEntity
  8
DEFPOINTS
 62
     0
100
AcDbPoint
 10
37.22287422631096
 20
6.969123097123328
 30
0.0
  0
ENDBLK
  5
C57
330
C4B
100
AcDbEntity
  8
0
100
AcDbBlockEnd
  0
BLOCK
  5
C65
330
C5B
100
AcDbEntity
  8
0
100
AcDbBlockBegin
  2
*D33
 70
     1
 10
0.0
 20
0.0
 30
0.0
  3
*D33
  1

  0
LINE
  5
F56
330
C5B
100
AcDbEntity
  8
DIM
 62
     0
100
AcDbLine
 10
14.94387422631096
 20
12.32031736295449
 30
0.0
 11
12.80673117705026
 21
12.32031736295449
 31
0.0
  0
LINE
  5
F57
330
C5B
100
AcDbEntity
  8
DIM
 62
     0
100
AcDbLine
 10
14.03387422631096
 20
10.6303173629545
 30
0.0
 11
12.80673117705026
 21
10.6303173629545
 31
0.0
  0
LINE
  5
F58
330
C5B
100
AcDbEntity
  8
DIM
 62
     0
100
AcDbLine
 10
13.08573117705026
 20
12.86031736295449
 30
0.0
 11
13.08573117705026
 21
13.40031736295449
 31
0.0
  0
LINE
  5
F59
330
C5B
100
AcDbEntity
  8
DIM
 62
     0
100
AcDbLine
 10
13.08573117705026
 20
10.0903173629545
 30
0.0
 11
13.08573117705026
 21
9.550317362954499
 31
0.0
  0
SOLID
  5
F5A
330
C5B
100
AcDbEntity
  8
DIM
 62
     0
100
AcDbTrace
 10
12.99573117705026
 20
12.86031736295449
 30
0.0
 11
13.17573117705026
 21
12.86031736295449
 31
0.0
 12
13.08573117705026
 22
12.32031736295449
 32
0.0
 13
13.08573117705026
 23
12.32031736295449
 33
0.0
  0
SOLID
  5
F5B
330
C5B
100
AcDbEntity
  8
DIM
 62
     0
100
AcDbTrace
 10
12.99573117705026
 20
10.0903173629545
 30
0.0
 11
13.17573117705026
 21
10.0903173629545
 31
0.0
 12
13.08573117705026
 22
10.6303173629545
 32
0.0
 13
13.08573117705026
 23
10.6303173629545
 33
0.0
  0
MTEXT
  5
F5C
330
C5B
100
AcDbEntity
  8
DIM
 62
     0
100
AcDbMText
 10
13.08573117705026
 20
11.4753173629545
 30
0.0
 40
0.375
 41
0.0
 71
     5
 72
     1
  1
\A1;1.690
  7
TXT
1001
ACAD
1000
MTEXTBEGIN
1070
    73
1070
     1
1070
    44
1040
1.0
1070
    74
1070
     0
1000
MTEXTEND
  0
POINT
  5
F5D
330
C5B
100
AcDbEntity
  8
DEFPOINTS
 62
     0
100
AcDbPoint
 10
15.13287422631096
 20
12.32031736295449
 30
0.0
  0
POINT
  5
F5E
330
C5B
100
AcDbEntity
  8
DEFPOINTS
 62
     0
100
AcDbPoint
 10
14.22287422631096
 20
10.6303173629545
 30
0.0
  0
POINT
  5
F5F
330
C5B
100
AcDbEntity
  8
DEFPOINTS
 62
     0
100
AcDbPoint
 10
13.08573117705026
 20
10.6303173629545
 30
0.0
  0
ENDBLK
  5
C66
330
C5B
100
AcDbEntity
  8
0
100
AcDbBlockEnd
  0
BLOCK
  5
C84
330
C79
100
AcDbEntity
  8
0
100
AcDbBlockBegin
  2
*D34
 70
     1
 10
0.0
 20
0.0
 30
0.0
  3
*D34
  1

  0
LINE
  5
F2E
330
C79
100
AcDbEntity
  8
DIM
 62
     0
100
AcDbLine
 10
24.22287422631095
 20
10.53231736295449
 30
0.0
 11
24.22287422631095
 21
5.847123097123333
 31
0.0
  0
LINE
  5
F2F
330
C79
100
AcDbEntity
  8
DIM
 62
     0
100
AcDbLine
 10
14.22287422631095
 20
10.53231736295449
 30
0.0
 11
14.22287422631095
 21
5.847123097123333
 31
0.0
  0
LINE
  5
F30
330
C79
100
AcDbEntity
  8
DIM
 62
     0
100
AcDbLine
 10
23.68287422631095
 20
6.126123097123333
 30
0.0
 11
20.05537422631095
 21
6.126123097123333
 31
0.0
  0
LINE
  5
F31
330
C79
100
AcDbEntity
  8
DIM
 62
     0
100
AcDbLine
 10
14.76287422631095
 20
6.126123097123333
 30
0.0
 11
18.39037422631095
 21
6.126123097123333
 31
0.0
  0
SOLID
  5
F32
330
C79
100
AcDbEntity
  8
DIM
 62
     0
100
AcDbTrace
 10
23.68287422631095
 20
6.216123097123332
 30
0.0
 11
23.68287422631095
 21
6.036123097123333
 31
0.0
 12
24.22287422631095
 22
6.126123097123333
 32
0.0
 13
24.22287422631095
 23
6.126123097123333
 33
0.0
  0
SOLID
  5
F33
330
C79
100
AcDbEntity
  8
DIM
 62
     0
100
AcDbTrace
 10
14.76287422631095
 20
6.216123097123332
 30
0.0
 11
14.76287422631095
 21
6.036123097123333
 31
0.0
 12
14.22287422631095
 22
6.126123097123333
 32
0.0
 13
14.22287422631095
 23
6.126123097123333
 33
0.0
  0
MTEXT
  5
F34
330
C79
100
AcDbEntity
  8
DIM
 62
     0
100
AcDbMText
 10
19.22287422631095
 20
6.126123097123333
 30
0.0
 40
0.375
 41
0.0
 71
     5
 72
     1
  1
\A1;10.000
  7
TXT
1001
ACAD
1000
MTEXTBEGIN
1070
    73
1070
     1
1070
    44
1040
1.0
1070
    74
1070
     0
1000
MTEXTEND
  0
POINT
  5
F35
330
C79
100
AcDbEntity
  8
DEFPOINTS
 62
     0
100
AcDbPoint
 10
24.22287422631095
 20
10.72131736295449
 30
0.0
  0
POINT
  5
F36
330
C79
100
AcDbEntity
  8
DEFPOINTS
 62
     0
100
AcDbPoint
 10
14.22287422631095
 20
10.72131736295449
 30
0.0
  0
POINT
  5
F37
330
C79
100
AcDbEntity
  8
DEFPOINTS
 62
     0
100
AcDbPoint
 10
14.22287422631095
 20
6.126123097123333
 30
0.0
  0
ENDBLK
  5
C85
330
C79
100
AcDbEntity
  8
0
100
AcDbBlockEnd
  0
BLOCK
  5
E2B
330
E20
100
AcDbEntity
  8
0
100
AcDbBlockBegin
  2
*D35
 70
     1
 10
0.0
 20
0.0
 30
0.0
  3
*D35
  1

  0
LINE
  5
F38
330
E20
100
AcDbEntity
  8
DIM
 62
     0
100
AcDbLine
 10
14.90787422631096
 20
12.13131736295449
 30
0.0
 11
14.90787422631096
 21
11.34558479605455
 31
0.0
  0
LINE
  5
F39
330
E20
100
AcDbEntity
  8
DIM
 62
     0
100
AcDbLine
 10
15.53787422631096
 20
12.13131736295449
 30
0.0
 11
15.53787422631096
 21
11.34558479605455
 31
0.0
  0
LINE
  5
F3A
330
E20
100
AcDbEntity
  8
DIM
 62
     0
100
AcDbLine
 10
14.36787422631096
 20
11.62458479605456
 30
0.0
 11
13.82787422631096
 21
11.62458479605456
 31
0.0
  0
LINE
  5
F3B
330
E20
100
AcDbEntity
  8
DIM
 62
     0
100
AcDbLine
 10
16.07787422631096
 20
11.62458479605456
 30
0.0
 11
16.61787422631096
 21
11.62458479605456
 31
0.0
  0
SOLID
  5
F3C
330
E20
100
AcDbEntity
  8
DIM
 62
     0
100
AcDbTrace
 10
14.36787422631096
 20
11.71458479605455
 30
0.0
 11
14.36787422631096
 21
11.53458479605456
 31
0.0
 12
14.90787422631096
 22
11.62458479605456
 32
0.0
 13
14.90787422631096
 23
11.62458479605456
 33
0.0
  0
SOLID
  5
F3D
330
E20
100
AcDbEntity
  8
DIM
 62
     0
100
AcDbTrace
 10
16.07787422631096
 20
11.71458479605455
 30
0.0
 11
16.07787422631096
 21
11.53458479605456
 31
0.0
 12
15.53787422631096
 22
11.62458479605456
 32
0.0
 13
15.53787422631096
 23
11.62458479605456
 33
0.0
  0
MTEXT
  5
F3E
330
E20
100
AcDbEntity
  8
DIM
 62
     0
100
AcDbMText
 10
18.01287422631096
 20
11.62458479605456
 30
0.0
 40
0.375
 41
0.0
 71
     5
 72
     1
  1
\A1;0.630 REF.
  7
TXT
1001
ACAD
1000
MTEXTBEGIN
1070
    73
1070
     1
1070
    44
1040
1.0
1070
    74
1070
     0
1000
MTEXTEND
  0
POINT
  5
F3F
330
E20
100
AcDbEntity
  8
DEFPOINTS
 62
     0
100
AcDbPoint
 10
14.90787422631096
 20
12.32031736295449
 30
0.0
  0
POINT
  5
F40
330
E20
100
AcDbEntity
  8
DEFPOINTS
 62
     0
100
AcDbPoint
 10
15.53787422631096
 20
12.32031736295449
 30
0.0
  0
POINT
  5
F41
330
E20
100
AcDbEntity
  8
DEFPOINTS
 62
     0
100
AcDbPoint
 10
15.53787422631096
 20
11.62458479605456
 30
0.0
  0
ENDBLK
  5
E2C
330
E20
100
AcDbEntity
  8
0
100
AcDbBlockEnd
  0
BLOCK
  5
E5B
330
E50
100
AcDbEntity
  8
0
100
AcDbBlockBegin
  2
*D36
 70
     1
 10
0.0
 20
0.0
 30
0.0
  3
*D36
  1

  0
LINE
  5
FF0
330
E50
100
AcDbEntity
  8
DIM
 62
     0
100
AcDbLine
 10
36.90787422631096
 20
12.13131736295449
 30
0.0
 11
36.90787422631096
 21
11.34558479605455
 31
0.0
  0
LINE
  5
FF1
330
E50
100
AcDbEntity
  8
DIM
 62
     0
100
AcDbLine
 10
37.53787422631096
 20
12.13131736295449
 30
0.0
 11
37.53787422631096
 21
11.34558479605455
 31
0.0
  0
LINE
  5
FF2
330
E50
100
AcDbEntity
  8
DIM
 62
     0
100
AcDbLine
 10
38.07787422631096
 20
11.62458479605456
 30
0.0
 11
38.61787422631095
 21
11.62458479605456
 31
0.0
  0
LINE
  5
FF3
330
E50
100
AcDbEntity
  8
DIM
 62
     0
100
AcDbLine
 10
36.36787422631096
 20
11.62458479605456
 30
0.0
 11
35.82787422631096
 21
11.62458479605456
 31
0.0
  0
SOLID
  5
FF4
330
E50
100
AcDbEntity
  8
DIM
 62
     0
100
AcDbTrace
 10
38.07787422631096
 20
11.71458479605455
 30
0.0
 11
38.07787422631096
 21
11.53458479605456
 31
0.0
 12
37.53787422631096
 22
11.62458479605456
 32
0.0
 13
37.53787422631096
 23
11.62458479605456
 33
0.0
  0
SOLID
  5
FF5
330
E50
100
AcDbEntity
  8
DIM
 62
     0
100
AcDbTrace
 10
36.36787422631096
 20
11.71458479605455
 30
0.0
 11
36.36787422631096
 21
11.53458479605456
 31
0.0
 12
36.90787422631096
 22
11.62458479605456
 32
0.0
 13
36.90787422631096
 23
11.62458479605456
 33
0.0
  0
MTEXT
  5
FF6
330
E50
100
AcDbEntity
  8
DIM
 62
     0
100
AcDbMText
 10
34.43287422631096
 20
11.62458479605456
 30
0.0
 40
0.375
 41
0.0
 71
     5
 72
     1
  1
\A1;0.630 REF.
  7
TXT
1001
ACAD
1000
MTEXTBEGIN
1070
    73
1070
     1
1070
    44
1040
1.0
1070
    74
1070
     0
1000
MTEXTEND
  0
POINT
  5
FF7
330
E50
100
AcDbEntity
  8
DEFPOINTS
 62
     0
100
AcDbPoint
 10
36.90787422631096
 20
12.32031736295449
 30
0.0
  0
POINT
  5
FF8
330
E50
100
AcDbEntity
  8
DEFPOINTS
 62
     0
100
AcDbPoint
 10
37.53787422631096
 20
12.32031736295449
 30
0.0
  0
POINT
  5
FF9
330
E50
100
AcDbEntity
  8
DEFPOINTS
 62
     0
100
AcDbPoint
 10
37.53787422631096
 20
11.62458479605456
 30
0.0
  0
ENDBLK
  5
E5C
330
E50
100
AcDbEntity
  8
0
100
AcDbBlockEnd
  0
ENDSEC
  0
SECTION
  2
ENTITIES
  0
TEXT
  5
96B
330
75F
100
AcDbEntity
  8
TEXT
100
AcDbText
 10
33.74300276604355
 20
25.85223467697526
 30
0.0
 40
0.375
  1
MATERIAL:  16 GA. STEEL
 41
0.75
100
AcDbText
  0
TEXT
  5
96C
330
75F
100
AcDbEntity
  8
TEXT
100
AcDbText
 10
33.74300276604355
 20
25.22723467697526
 30
0.0
 40
0.375
  1
FINISH:  ZINC PLATED WITH CLEAR CHROMATE
 41
0.75
100
AcDbText
  0
TEXT
  5
96D
330
75F
100
AcDbEntity
  8
TEXT
100
AcDbText
 10
9.275479024347202
 20
29.7966847291643
 30
0.0
 40
0.5620000000000001
  1
CABLE CARRIER
 41
0.75
 72
     1
 11
11.8747290243472
 21
29.7966847291643
 31
0.0
100
AcDbText
  0
TEXT
  5
96E
330
75F
100
AcDbEntity
  8
TEXT
100
AcDbText
 10
32.49432543147448
 20
29.84517488628751
 30
0.0
 40
0.5620000000000001
  1
CC-5190
 41
0.75
 72
     1
 11
33.79395043147447
 21
29.84517488628751
 31
0.0
100
AcDbText
  0
LINE
  5
96F
330
75F
100
AcDbEntity
  8
OBJECT
100
AcDbLine
 10
8.847874226310963
 20
10.6303173629545
 30
0.0
 11
8.847874226310963
 21
14.01031736295449
 31
0.0
  0
LINE
  5
970
330
75F
100
AcDbEntity
  8
OBJECT
100
AcDbLine
 10
8.847874226310963
 20
14.01031736295449
 30
0.0
 11
10.06687422631096
 21
14.01031736295449
 31
0.0
  0
LINE
  5
971
330
75F
100
AcDbEntity
  8
OBJECT
100
AcDbLine
 10
40.06687422631094
 20
10.63031736295449
 30
0.0
 11
26.37887422631095
 21
10.6303173629545
 31
0.0
  0
LINE
  5
972
330
75F
100
AcDbEntity
  8
CENTER
100
AcDbLine
 10
9.13287422631096
 20
12.57031736295449
 30
0.0
 11
9.31287422631096
 21
12.57031736295449
 31
0.0
  0
LINE
  5
973
330
75F
100
AcDbEntity
  8
CENTER
100
AcDbLine
 10
9.222874226310961
 20
12.48031736295449
 30
0.0
 11
9.222874226310961
 21
12.66031736295449
 31
0.0
  0
LINE
  5
974
330
75F
100
AcDbEntity
  8
CENTER
100
AcDbLine
 10
9.222874226310961
 20
13.10531736295449
 30
0.0
 11
9.222874226310961
 21
13.28531736295449
 31
0.0
  0
LINE
  5
975
330
75F
100
AcDbEntity
  8
CENTER
100
AcDbLine
 10
9.13287422631096
 20
13.19531736295449
 30
0.0
 11
9.31287422631096
 21
13.19531736295449
 31
0.0
  0
LINE
  5
976
330
75F
100
AcDbEntity
  8
CENTER
100
AcDbLine
 10
9.13287422631096
 20
11.44531736295449
 30
0.0
 11
9.31287422631096
 21
11.44531736295449
 31
0.0
  0
LINE
  5
977
330
75F
100
AcDbEntity
  8
CENTER
100
AcDbLine
 10
9.222874226310961
 20
11.53531736295449
 30
0.0
 11
9.222874226310961
 21
11.35531736295449
 31
0.0
  0
LINE
  5
978
330
75F
100
AcDbEntity
  8
CENTER
100
AcDbLine
 10
9.222874226310961
 20
12.16031736295449
 30
0.0
 11
9.222874226310961
 21
11.98031736295449
 31
0.0
  0
LINE
  5
979
330
75F
100
AcDbEntity
  8
CENTER
100
AcDbLine
 10
9.13287422631096
 20
12.07031736295449
 30
0.0
 11
9.31287422631096
 21
12.07031736295449
 31
0.0
  0
LINE
  5
97A
330
75F
100
AcDbEntity
  8
OBJECT
100
AcDbLine
 10
10.09787422631096
 20
10.6303173629545
 30
0.0
 11
10.09787422631096
 21
14.01031736295449
 31
0.0
  0
LINE
  5
97B
330
75F
100
AcDbEntity
  8
OBJECT
100
AcDbLine
 10
10.34787422631096
 20
10.6303173629545
 30
0.0
 11
10.34787422631096
 21
14.01031736295449
 31
0.0
  0
LINE
  5
97C
330
75F
100
AcDbEntity
  8
OBJECT
100
AcDbLine
 10
10.06687422631096
 20
10.69531736295449
 30
0.0
 11
10.34787422631096
 21
10.69531736295449
 31
0.0
  0
LINE
  5
97D
330
75F
100
AcDbEntity
  8
OBJECT
100
AcDbLine
 10
10.09787422631096
 20
10.94531736295449
 30
0.0
 11
10.37887422631096
 21
10.94531736295449
 31
0.0
  0
LINE
  5
97E
330
75F
100
AcDbEntity
  8
OBJECT
100
AcDbLine
 10
10.09787422631096
 20
11.19531736295449
 30
0.0
 11
10.34787422631096
 21
11.19531736295449
 31
0.0
  0
LINE
  5
97F
330
75F
100
AcDbEntity
  8
OBJECT
100
AcDbLine
 10
10.09787422631096
 20
11.44531736295449
 30
0.0
 11
10.34787422631096
 21
11.44531736295449
 31
0.0
  0
LINE
  5
980
330
75F
100
AcDbEntity
  8
OBJECT
100
AcDbLine
 10
10.09787422631096
 20
11.69531736295449
 30
0.0
 11
10.34787422631096
 21
11.69531736295449
 31
0.0
  0
LINE
  5
981
330
75F
100
AcDbEntity
  8
OBJECT
100
AcDbLine
 10
10.09787422631096
 20
11.94531736295449
 30
0.0
 11
10.34787422631096
 21
11.94531736295449
 31
0.0
  0
LINE
  5
982
330
75F
100
AcDbEntity
  8
OBJECT
100
AcDbLine
 10
10.09787422631096
 20
12.19531736295449
 30
0.0
 11
10.34787422631096
 21
12.19531736295449
 31
0.0
  0
LINE
  5
983
330
75F
100
AcDbEntity
  8
OBJECT
100
AcDbLine
 10
10.09787422631096
 20
12.44531736295449
 30
0.0
 11
10.34787422631096
 21
12.44531736295449
 31
0.0
  0
LINE
  5
984
330
75F
100
AcDbEntity
  8
OBJECT
100
AcDbLine
 10
10.09787422631096
 20
12.69531736295449
 30
0.0
 11
10.34787422631096
 21
12.69531736295449
 31
0.0
  0
LINE
  5
985
330
75F
100
AcDbEntity
  8
OBJECT
100
AcDbLine
 10
10.09787422631096
 20
12.94531736295449
 30
0.0
 11
10.34787422631096
 21
12.94531736295449
 31
0.0
  0
LINE
  5
986
330
75F
100
AcDbEntity
  8
OBJECT
100
AcDbLine
 10
10.09787422631096
 20
13.19531736295449
 30
0.0
 11
10.34787422631096
 21
13.19531736295449
 31
0.0
  0
LINE
  5
987
330
75F
100
AcDbEntity
  8
OBJECT
100
AcDbLine
 10
10.09787422631096
 20
13.44531736295449
 30
0.0
 11
10.34787422631096
 21
13.44531736295449
 31
0.0
  0
LINE
  5
988
330
75F
100
AcDbEntity
  8
OBJECT
100
AcDbLine
 10
10.09787422631096
 20
13.69531736295449
 30
0.0
 11
10.37887422631096
 21
13.69531736295449
 31
0.0
  0
LINE
  5
989
330
75F
100
AcDbEntity
  8
OBJECT
100
AcDbLine
 10
10.06687422631096
 20
13.94531736295449
 30
0.0
 11
10.34787422631096
 21
13.94531736295449
 31
0.0
  0
LINE
  5
98A
330
75F
100
AcDbEntity
  8
OBJECT
100
AcDbLine
 10
11.72287422631095
 20
10.88281736295449
 30
0.0
 11
11.72287422631095
 21
13.75781736295449
 31
0.0
  0
LINE
  5
98B
330
75F
100
AcDbEntity
  8
OBJECT
100
AcDbLine
 10
11.72287422631095
 20
13.75781736295449
 30
0.0
 11
10.37887422631096
 21
13.75781736295449
 31
0.0
  0
LINE
  5
98C
330
75F
100
AcDbEntity
  8
OBJECT
100
AcDbLine
 10
11.72287422631095
 20
10.88281736295449
 30
0.0
 11
10.37887422631096
 21
10.88281736295449
 31
0.0
  0
LINE
  5
98D
330
75F
100
AcDbEntity
  8
OBJECT
100
AcDbLine
 10
26.06687422631096
 20
10.6303173629545
 30
0.0
 11
10.37887422631096
 21
10.6303173629545
 31
0.0
  0
LINE
  5
98E
330
75F
100
AcDbEntity
  8
OBJECT
100
AcDbLine
 10
26.37887422631095
 20
14.01031736295448
 30
0.0
 11
40.06687422631094
 21
14.01031736295447
 31
0.0
  0
LINE
  5
98F
330
75F
100
AcDbEntity
  8
OBJECT
100
AcDbLine
 10
10.37887422631096
 20
10.6303173629545
 30
0.0
 11
10.37887422631096
 21
14.01031736295449
 31
0.0
  0
LINE
  5
990
330
75F
100
AcDbEntity
  8
OBJECT
100
AcDbLine
 10
10.06687422631096
 20
10.6303173629545
 30
0.0
 11
10.06687422631096
 21
10.69531736295449
 31
0.0
  0
LINE
  5
991
330
75F
100
AcDbEntity
  8
OBJECT
100
AcDbLine
 10
10.37887422631096
 20
14.01031736295449
 30
0.0
 11
26.06687422631096
 21
14.01031736295448
 31
0.0
  0
LINE
  5
992
330
75F
100
AcDbEntity
  8
OBJECT
100
AcDbLine
 10
10.34787422631096
 20
10.6303173629545
 30
0.0
 11
10.09787422631096
 21
10.6303173629545
 31
0.0
  0
LINE
  5
993
330
75F
100
AcDbEntity
  8
OBJECT
100
AcDbLine
 10
10.09787422631096
 20
14.01031736295449
 30
0.0
 11
10.34787422631096
 21
14.01031736295449
 31
0.0
  0
LINE
  5
994
330
75F
100
AcDbEntity
  8
OBJECT
100
AcDbLine
 10
10.06687422631096
 20
13.94531736295449
 30
0.0
 11
10.06687422631096
 21
14.01031736295449
 31
0.0
  0
LINE
  5
995
330
75F
100
AcDbEntity
  8
OBJECT
100
AcDbLine
 10
10.06687422631096
 20
10.6303173629545
 30
0.0
 11
8.847874226310963
 21
10.6303173629545
 31
0.0
  0
LINE
  5
996
330
75F
100
AcDbEntity
  8
OBJECT
100
AcDbLine
 10
26.06687422631096
 20
10.6303173629545
 30
0.0
 11
26.06687422631096
 21
14.01031736295448
 31
0.0
  0
LINE
  5
997
330
75F
100
AcDbEntity
  8
OBJECT
100
AcDbLine
 10
26.06687422631096
 20
13.69531736295449
 30
0.0
 11
26.34787422631096
 21
13.69531736295449
 31
0.0
  0
LINE
  5
998
330
75F
100
AcDbEntity
  8
OBJECT
100
AcDbLine
 10
26.09787422631096
 20
13.44531736295449
 30
0.0
 11
26.37887422631095
 21
13.44531736295449
 31
0.0
  0
LINE
  5
999
330
75F
100
AcDbEntity
  8
OBJECT
100
AcDbLine
 10
26.09787422631096
 20
13.19531736295449
 30
0.0
 11
26.34787422631096
 21
13.19531736295449
 31
0.0
  0
LINE
  5
99A
330
75F
100
AcDbEntity
  8
OBJECT
100
AcDbLine
 10
26.09787422631096
 20
12.94531736295449
 30
0.0
 11
26.34787422631096
 21
12.94531736295449
 31
0.0
  0
LINE
  5
99B
330
75F
100
AcDbEntity
  8
OBJECT
100
AcDbLine
 10
26.09787422631096
 20
12.69531736295449
 30
0.0
 11
26.34787422631096
 21
12.69531736295449
 31
0.0
  0
LINE
  5
99C
330
75F
100
AcDbEntity
  8
OBJECT
100
AcDbLine
 10
26.09787422631096
 20
12.44531736295449
 30
0.0
 11
26.34787422631096
 21
12.44531736295449
 31
0.0
  0
LINE
  5
99D
330
75F
100
AcDbEntity
  8
OBJECT
100
AcDbLine
 10
26.09787422631096
 20
12.19531736295449
 30
0.0
 11
26.34787422631096
 21
12.19531736295449
 31
0.0
  0
LINE
  5
99E
330
75F
100
AcDbEntity
  8
OBJECT
100
AcDbLine
 10
26.09787422631096
 20
11.94531736295449
 30
0.0
 11
26.34787422631096
 21
11.94531736295449
 31
0.0
  0
LINE
  5
99F
330
75F
100
AcDbEntity
  8
OBJECT
100
AcDbLine
 10
26.09787422631096
 20
11.69531736295449
 30
0.0
 11
26.34787422631096
 21
11.69531736295449
 31
0.0
  0
LINE
  5
9A0
330
75F
100
AcDbEntity
  8
OBJECT
100
AcDbLine
 10
26.09787422631096
 20
11.44531736295449
 30
0.0
 11
26.34787422631096
 21
11.44531736295449
 31
0.0
  0
LINE
  5
9A1
330
75F
100
AcDbEntity
  8
OBJECT
100
AcDbLine
 10
26.09787422631096
 20
11.19531736295449
 30
0.0
 11
26.37887422631095
 21
11.19531736295449
 31
0.0
  0
LINE
  5
9A2
330
75F
100
AcDbEntity
  8
OBJECT
100
AcDbLine
 10
26.06687422631096
 20
10.94531736295449
 30
0.0
 11
26.34787422631096
 21
10.94531736295449
 31
0.0
  0
LINE
  5
9A3
330
75F
100
AcDbEntity
  8
OBJECT
100
AcDbLine
 10
26.34787422631096
 20
10.88281736295449
 30
0.0
 11
26.34787422631096
 21
13.75781736295449
 31
0.0
  0
LINE
  5
9A4
330
75F
100
AcDbEntity
  8
OBJECT
100
AcDbLine
 10
26.09787422631096
 20
10.88281736295449
 30
0.0
 11
26.09787422631096
 21
13.75781736295449
 31
0.0
  0
LINE
  5
9A5
330
75F
100
AcDbEntity
  8
OBJECT
100
AcDbLine
 10
26.09787422631096
 20
10.88281736295449
 30
0.0
 11
26.34787422631096
 21
10.88281736295449
 31
0.0
  0
LINE
  5
9A6
330
75F
100
AcDbEntity
  8
OBJECT
100
AcDbLine
 10
26.09787422631096
 20
13.75781736295449
 30
0.0
 11
26.34787422631096
 21
13.75781736295449
 31
0.0
  0
LINE
  5
9A7
330
75F
100
AcDbEntity
  8
OBJECT
100
AcDbLine
 10
26.37887422631095
 20
10.6303173629545
 30
0.0
 11
26.37887422631095
 21
14.01031736295448
 31
0.0
  0
LINE
  5
9A8
330
75F
100
AcDbEntity
  8
HIDDEN
100
AcDbLine
 10
24.72287422631096
 20
10.88281736295449
 30
0.0
 11
24.72287422631096
 21
13.75781736295449
 31
0.0
  0
LINE
  5
9A9
330
75F
100
AcDbEntity
  8
HIDDEN
100
AcDbLine
 10
24.72287422631096
 20
13.75781736295449
 30
0.0
 11
26.06687422631096
 21
13.75781736295449
 31
0.0
  0
LINE
  5
9AA
330
75F
100
AcDbEntity
  8
HIDDEN
100
AcDbLine
 10
24.72287422631096
 20
10.88281736295449
 30
0.0
 11
26.06687422631096
 21
10.88281736295449
 31
0.0
  0
LINE
  5
9AB
330
75F
100
AcDbEntity
  8
OBJECT
100
AcDbLine
 10
26.06687422631096
 20
10.69031736295449
 30
0.0
 11
10.37887422631096
 21
10.6903173629545
 31
0.0
  0
LINE
  5
9AC
330
75F
100
AcDbEntity
  8
OBJECT
100
AcDbLine
 10
10.37887422631096
 20
13.95031736295449
 30
0.0
 11
26.06687422631096
 21
13.95031736295448
 31
0.0
  0
LINE
  5
9AD
330
75F
100
AcDbEntity
  8
HIDDEN
100
AcDbLine
 10
27.72287422631095
 20
11.07031736295449
 30
0.0
 11
27.72287422631095
 21
13.57031736295448
 31
0.0
  0
LINE
  5
9AE
330
75F
100
AcDbEntity
  8
HIDDEN
100
AcDbLine
 10
26.37887422631095
 20
13.57031736295449
 30
0.0
 11
27.72287422631095
 21
13.57031736295448
 31
0.0
  0
LINE
  5
9AF
330
75F
100
AcDbEntity
  8
HIDDEN
100
AcDbLine
 10
26.37887422631095
 20
11.07031736295449
 30
0.0
 11
27.72287422631095
 21
11.07031736295449
 31
0.0
  0
LINE
  5
9B0
330
75F
100
AcDbEntity
  8
OBJECT
100
AcDbLine
 10
40.37887422631094
 20
11.13031736295448
 30
0.0
 11
40.37887422631094
 21
11.19531736295449
 31
0.0
  0
LINE
  5
9B1
330
75F
100
AcDbEntity
  8
OBJECT
100
AcDbLine
 10
40.09787422631094
 20
13.75781736295449
 30
0.0
 11
40.34787422631094
 21
13.75781736295449
 31
0.0
  0
LINE
  5
9B2
330
75F
100
AcDbEntity
  8
OBJECT
100
AcDbLine
 10
40.09787422631094
 20
10.88281736295449
 30
0.0
 11
40.34787422631094
 21
10.88281736295449
 31
0.0
  0
LINE
  5
9B3
330
75F
100
AcDbEntity
  8
OBJECT
100
AcDbLine
 10
40.09787422631094
 20
10.88281736295449
 30
0.0
 11
40.09787422631094
 21
13.75781736295449
 31
0.0
  0
LINE
  5
9B4
330
75F
100
AcDbEntity
  8
OBJECT
100
AcDbLine
 10
40.34787422631094
 20
10.88281736295449
 30
0.0
 11
40.34787422631094
 21
11.19531736295449
 31
0.0
  0
LINE
  5
9B5
330
75F
100
AcDbEntity
  8
OBJECT
100
AcDbLine
 10
40.06687422631094
 20
10.94531736295449
 30
0.0
 11
40.34787422631094
 21
10.94531736295449
 31
0.0
  0
LINE
  5
9B6
330
75F
100
AcDbEntity
  8
OBJECT
100
AcDbLine
 10
40.09787422631094
 20
11.19531736295449
 30
0.0
 11
40.37887422631094
 21
11.19531736295449
 31
0.0
  0
LINE
  5
9B7
330
75F
100
AcDbEntity
  8
OBJECT
100
AcDbLine
 10
40.09787422631094
 20
11.44531736295449
 30
0.0
 11
40.37887422631094
 21
11.44531736295449
 31
0.0
  0
LINE
  5
9B8
330
75F
100
AcDbEntity
  8
OBJECT
100
AcDbLine
 10
40.09787422631094
 20
11.69531736295449
 30
0.0
 11
40.37887422631094
 21
11.69531736295449
 31
0.0
  0
LINE
  5
9B9
330
75F
100
AcDbEntity
  8
OBJECT
100
AcDbLine
 10
40.09787422631094
 20
11.94531736295449
 30
0.0
 11
40.37887422631094
 21
11.94531736295449
 31
0.0
  0
LINE
  5
9BA
330
75F
100
AcDbEntity
  8
OBJECT
100
AcDbLine
 10
40.09787422631094
 20
12.19531736295449
 30
0.0
 11
40.37887422631094
 21
12.19531736295449
 31
0.0
  0
LINE
  5
9BB
330
75F
100
AcDbEntity
  8
OBJECT
100
AcDbLine
 10
40.09787422631094
 20
12.44531736295449
 30
0.0
 11
40.37887422631094
 21
12.44531736295449
 31
0.0
  0
LINE
  5
9BC
330
75F
100
AcDbEntity
  8
OBJECT
100
AcDbLine
 10
40.09787422631094
 20
12.69531736295449
 30
0.0
 11
40.37887422631094
 21
12.69531736295449
 31
0.0
  0
LINE
  5
9BD
330
75F
100
AcDbEntity
  8
OBJECT
100
AcDbLine
 10
40.09787422631094
 20
12.94531736295449
 30
0.0
 11
40.37887422631094
 21
12.94531736295449
 31
0.0
  0
LINE
  5
9BE
330
75F
100
AcDbEntity
  8
OBJECT
100
AcDbLine
 10
40.09787422631094
 20
13.19531736295449
 30
0.0
 11
40.37887422631094
 21
13.19531736295449
 31
0.0
  0
LINE
  5
9BF
330
75F
100
AcDbEntity
  8
OBJECT
100
AcDbLine
 10
40.09787422631094
 20
13.44531736295449
 30
0.0
 11
40.37887422631094
 21
13.44531736295449
 31
0.0
  0
LINE
  5
9C0
330
75F
100
AcDbEntity
  8
OBJECT
100
AcDbLine
 10
40.06687422631094
 20
13.69531736295449
 30
0.0
 11
40.34787422631094
 21
13.69531736295449
 31
0.0
  0
LINE
  5
9C1
330
75F
100
AcDbEntity
  8
OBJECT
100
AcDbLine
 10
40.06687422631094
 20
10.6303173629545
 30
0.0
 11
40.06687422631094
 21
10.94531736295449
 31
0.0
  0
LINE
  5
9C2
330
75F
100
AcDbEntity
  8
OBJECT
100
AcDbLine
 10
41.72287422631096
 20
13.51031736295448
 30
0.0
 11
41.72287422631096
 21
11.13031736295448
 31
0.0
  0
LINE
  5
9C3
330
75F
100
AcDbEntity
  8
OBJECT
100
AcDbLine
 10
40.06687422631094
 20
13.69531736295449
 30
0.0
 11
40.06687422631094
 21
14.01031736295448
 31
0.0
  0
LINE
  5
9C4
330
75F
100
AcDbEntity
  8
OBJECT
100
AcDbLine
 10
41.72287422631096
 20
13.51031736295448
 30
0.0
 11
40.37887422631094
 21
13.51031736295448
 31
0.0
  0
LINE
  5
9C5
330
75F
100
AcDbEntity
  8
OBJECT
100
AcDbLine
 10
41.72287422631096
 20
11.13031736295448
 30
0.0
 11
40.37887422631094
 21
11.13031736295448
 31
0.0
  0
LINE
  5
9C6
330
75F
100
AcDbEntity
  8
OBJECT
100
AcDbLine
 10
40.37887422631094
 20
11.44531736295449
 30
0.0
 11
40.37887422631094
 21
11.69531736295449
 31
0.0
  0
LINE
  5
9C7
330
75F
100
AcDbEntity
  8
OBJECT
100
AcDbLine
 10
40.37887422631094
 20
11.94531736295449
 30
0.0
 11
40.37887422631094
 21
12.19531736295449
 31
0.0
  0
LINE
  5
9C8
330
75F
100
AcDbEntity
  8
OBJECT
100
AcDbLine
 10
40.37887422631094
 20
12.44531736295449
 30
0.0
 11
40.37887422631093
 21
12.69531736295449
 31
0.0
  0
LINE
  5
9C9
330
75F
100
AcDbEntity
  8
OBJECT
100
AcDbLine
 10
40.37887422631093
 20
12.94531736295449
 30
0.0
 11
40.37887422631093
 21
13.19531736295449
 31
0.0
  0
LINE
  5
9CA
330
75F
100
AcDbEntity
  8
OBJECT
100
AcDbLine
 10
40.37887422631094
 20
13.44531736295449
 30
0.0
 11
40.37887422631094
 21
13.51031736295448
 31
0.0
  0
LINE
  5
9CB
330
75F
100
AcDbEntity
  8
OBJECT
100
AcDbLine
 10
40.34787422631094
 20
11.44531736295449
 30
0.0
 11
40.34787422631094
 21
11.69531736295449
 31
0.0
  0
LINE
  5
9CC
330
75F
100
AcDbEntity
  8
OBJECT
100
AcDbLine
 10
40.34787422631094
 20
11.94531736295449
 30
0.0
 11
40.34787422631094
 21
12.19531736295449
 31
0.0
  0
LINE
  5
9CD
330
75F
100
AcDbEntity
  8
OBJECT
100
AcDbLine
 10
40.34787422631094
 20
12.44531736295449
 30
0.0
 11
40.34787422631094
 21
12.69531736295449
 31
0.0
  0
LINE
  5
9CE
330
75F
100
AcDbEntity
  8
OBJECT
100
AcDbLine
 10
40.34787422631094
 20
12.94531736295449
 30
0.0
 11
40.34787422631094
 21
13.19531736295449
 31
0.0
  0
LINE
  5
9CF
330
75F
100
AcDbEntity
  8
OBJECT
100
AcDbLine
 10
40.34787422631094
 20
13.44531736295449
 30
0.0
 11
40.34787422631094
 21
13.75781736295449
 31
0.0
  0
CIRCLE
  5
9D0
330
75F
100
AcDbEntity
  8
OBJECT
100
AcDbCircle
 10
41.22287422631095
 20
13.19531736295447
 30
0.0
 40
0.1485
  0
LINE
  5
9D1
330
75F
100
AcDbEntity
  8
CENTER
100
AcDbLine
 10
41.13287422631095
 20
13.19531736295447
 30
0.0
 11
41.31287422631096
 21
13.19531736295447
 31
0.0
  0
LINE
  5
9D2
330
75F
100
AcDbEntity
  8
CENTER
100
AcDbLine
 10
41.22287422631095
 20
13.10531736295448
 30
0.0
 11
41.22287422631095
 21
13.28531736295448
 31
0.0
  0
LINE
  5
9D3
330
75F
100
AcDbEntity
  8
CENTER
100
AcDbLine
 10
41.22287422631095
 20
11.53531736295448
 30
0.0
 11
41.22287422631095
 21
11.35531736295448
 31
0.0
  0
LINE
  5
9D4
330
75F
100
AcDbEntity
  8
CENTER
100
AcDbLine
 10
41.13287422631095
 20
11.44531736295447
 30
0.0
 11
41.31287422631096
 21
11.44531736295447
 31
0.0
  0
CIRCLE
  5
9D5
330
75F
100
AcDbEntity
  8
OBJECT
100
AcDbCircle
 10
41.22287422631095
 20
11.44531736295447
 30
0.0
 40
0.1485
  0
LINE
  5
9D6
330
75F
100
AcDbEntity
  8
OBJECT
100
AcDbLine
 10
40.06687422631094
 20
10.69031736295449
 30
0.0
 11
26.37887422631095
 21
10.69031736295449
 31
0.0
  0
LINE
  5
9D7
330
75F
100
AcDbEntity
  8
OBJECT
100
AcDbLine
 10
26.37887422631095
 20
13.95031736295448
 30
0.0
 11
40.06687422631094
 21
13.95031736295447
 31
0.0
  0
ARC
  5
9D8
330
75F
100
AcDbEntity
  8
OBJECT
100
AcDbCircle
 10
28.22287422631096
 20
10.72131736295449
 30
0.0
 40
0.125
100
AcDbArc
 50
345.6408060083077
 51
194.3591939916919
  0
ARC
  5
9D9
330
75F
100
AcDbEntity
  8
OBJECT
100
AcDbCircle
 10
32.22287422631096
 20
10.72131736295449
 30
0.0
 40
0.125
100
AcDbArc
 50
345.6408060083077
 51
194.3591939916919
  0
ARC
  5
9DA
330
75F
100
AcDbEntity
  8
OBJECT
100
AcDbCircle
 10
36.22287422631095
 20
10.72131736295449
 30
0.0
 40
0.125
100
AcDbArc
 50
345.6408060083077
 51
194.3591939916919
  0
ARC
  5
9DB
330
75F
100
AcDbEntity
  8
OBJECT
100
AcDbCircle
 10
38.22287422631096
 20
10.72131736295449
 30
0.0
 40
0.125
100
AcDbArc
 50
345.6408060083077
 51
194.3591939916919
  0
ARC
  5
9DC
330
75F
100
AcDbEntity
  8
OBJECT
100
AcDbCircle
 10
38.22287422631096
 20
13.91931736295448
 30
0.0
 40
0.125
100
AcDbArc
 50
165.640806008308
 51
14.35919399169229
  0
ARC
  5
9DD
330
75F
100
AcDbEntity
  8
OBJECT
100
AcDbCircle
 10
36.22287422631095
 20
13.91931736295448
 30
0.0
 40
0.125
100
AcDbArc
 50
165.640806008308
 51
14.35919399169229
  0
ARC
  5
9DE
330
75F
100
AcDbEntity
  8
OBJECT
100
AcDbCircle
 10
32.22287422631096
 20
13.91931736295448
 30
0.0
 40
0.125
100
AcDbArc
 50
165.640806008308
 51
14.35919399169229
  0
ARC
  5
9DF
330
75F
100
AcDbEntity
  8
OBJECT
100
AcDbCircle
 10
28.22287422631096
 20
13.91931736295448
 30
0.0
 40
0.125
100
AcDbArc
 50
165.640806008308
 51
14.35919399169229
  0
ARC
  5
9E0
330
75F
100
AcDbEntity
  8
OBJECT
100
AcDbCircle
 10
24.22287422631095
 20
13.91931736295448
 30
0.0
 40
0.125
100
AcDbArc
 50
165.6408060083077
 51
14.35919399169189
  0
ARC
  5
9E1
330
75F
100
AcDbEntity
  8
OBJECT
100
AcDbCircle
 10
20.22287422631095
 20
13.91931736295448
 30
0.0
 40
0.125
100
AcDbArc
 50
165.6408060083077
 51
14.35919399169189
  0
ARC
  5
9E2
330
75F
100
AcDbEntity
  8
OBJECT
100
AcDbCircle
 10
16.22287422631095
 20
13.91931736295448
 30
0.0
 40
0.125
100
AcDbArc
 50
165.6408060083077
 51
14.35919399169189
  0
ARC
  5
9E3
330
75F
100
AcDbEntity
  8
OBJECT
100
AcDbCircle
 10
14.22287422631095
 20
13.91931736295448
 30
0.0
 40
0.125
100
AcDbArc
 50
165.6408060083077
 51
14.35919399169189
  0
ARC
  5
9E4
330
75F
100
AcDbEntity
  8
OBJECT
100
AcDbCircle
 10
14.22287422631095
 20
10.72131736295449
 30
0.0
 40
0.125
100
AcDbArc
 50
345.6408060083079
 51
194.3591939916921
  0
ARC
  5
9E5
330
75F
100
AcDbEntity
  8
OBJECT
100
AcDbCircle
 10
16.22287422631095
 20
10.72131736295449
 30
0.0
 40
0.125
100
AcDbArc
 50
345.6408060083079
 51
194.3591939916921
  0
ARC
  5
9E6
330
75F
100
AcDbEntity
  8
OBJECT
100
AcDbCircle
 10
20.22287422631095
 20
10.72131736295449
 30
0.0
 40
0.125
100
AcDbArc
 50
345.6408060083079
 51
194.3591939916921
  0
ARC
  5
9E7
330
75F
100
AcDbEntity
  8
OBJECT
100
AcDbCircle
 10
24.22287422631095
 20
10.72131736295449
 30
0.0
 40
0.125
100
AcDbArc
 50
345.6408060083079
 51
194.3591939916921
  0
LINE
  5
9E8
330
75F
100
AcDbEntity
  8
HIDDEN
100
AcDbLine
 10
38.84787422631094
 20
10.88281736295447
 30
0.0
 11
38.84787422631094
 21
13.75781736295449
 31
0.0
  0
LINE
  5
9E9
330
75F
100
AcDbEntity
  8
HIDDEN
100
AcDbLine
 10
40.06687422631094
 20
13.75781736295449
 30
0.0
 11
38.84787422631094
 21
13.75781736295449
 31
0.0
  0
LINE
  5
9EA
330
75F
100
AcDbEntity
  8
HIDDEN
100
AcDbLine
 10
40.06687422631094
 20
10.88281736295447
 30
0.0
 11
38.84787422631094
 21
10.88281736295447
 31
0.0
  0
LINE
  5
9EB
330
75F
100
AcDbEntity
  8
HIDDEN
100
AcDbLine
 10
26.37887422631095
 20
18.48778660280603
 30
0.0
 11
28.10177922228515
 21
18.48778660280603
 31
0.0
  0
LINE
  5
9EC
330
75F
100
AcDbEntity
  8
HIDDEN
100
AcDbLine
 10
10.37887422631096
 20
18.48778660280605
 30
0.0
 11
14.1017792222852
 21
18.48778660280605
 31
0.0
  0
LINE
  5
9ED
330
75F
100
AcDbEntity
  8
OBJECT
100
AcDbLine
 10
10.37887422631096
 20
18.54778660280605
 30
0.0
 11
26.06687422631096
 21
18.54778660280603
 31
0.0
  0
LINE
  5
9EE
330
75F
100
AcDbEntity
  8
OBJECT
100
AcDbLine
 10
26.37887422631095
 20
18.54778660280603
 30
0.0
 11
40.06687422631094
 21
18.54778660280603
 31
0.0
  0
LINE
  5
9EF
330
75F
100
AcDbEntity
  8
OBJECT
100
AcDbLine
 10
10.37887422631096
 20
18.16778660280604
 30
0.0
 11
26.06687422631096
 21
18.16778660280604
 31
0.0
  0
LINE
  5
9F0
330
75F
100
AcDbEntity
  8
HIDDEN
100
AcDbLine
 10
11.72287422631095
 20
18.42778660280604
 30
0.0
 11
11.72287422631095
 21
18.48778660280605
 31
0.0
  0
LINE
  5
9F1
330
75F
100
AcDbEntity
  8
OBJECT
100
AcDbLine
 10
8.847874226310956
 20
18.48778660280605
 30
0.0
 11
8.847874226310956
 21
18.42778660280604
 31
0.0
  0
LINE
  5
9F2
330
75F
100
AcDbEntity
  8
OBJECT
100
AcDbLine
 10
8.847874226310956
 20
18.48778660280605
 30
0.0
 11
10.37887422631096
 21
18.48778660280605
 31
0.0
  0
LINE
  5
9F3
330
75F
100
AcDbEntity
  8
OBJECT
100
AcDbLine
 10
8.847874226310956
 20
18.42778660280604
 30
0.0
 11
10.11610344379061
 21
18.42778660280604
 31
0.0
  0
CIRCLE
  5
9F4
330
75F
100
AcDbEntity
  8
OBJECT
100
AcDbCircle
 10
10.22287422631096
 20
18.36278660280603
 30
0.0
 40
0.125
  0
LINE
  5
9F5
330
75F
100
AcDbEntity
  8
OBJECT
100
AcDbLine
 10
10.37887422631096
 20
18.16778660280604
 30
0.0
 11
10.37887422631096
 21
18.54778660280605
 31
0.0
  0
LINE
  5
9F6
330
75F
100
AcDbEntity
  8
HIDDEN
100
AcDbLine
 10
10.3296450088313
 20
18.42778660280604
 30
0.0
 11
11.72287422631095
 21
18.42778660280604
 31
0.0
  0
LINE
  5
9F7
330
75F
100
AcDbEntity
  8
OBJECT
100
AcDbLine
 10
26.37887422631095
 20
18.16778660280604
 30
0.0
 11
40.06687422631094
 21
18.16778660280602
 31
0.0
  0
LINE
  5
9F8
330
75F
100
AcDbEntity
  8
OBJECT
100
AcDbLine
 10
26.06687422631096
 20
18.16778660280604
 30
0.0
 11
26.06687422631096
 21
18.54778660280603
 31
0.0
  0
LINE
  5
9F9
330
75F
100
AcDbEntity
  8
OBJECT
100
AcDbLine
 10
26.37887422631095
 20
18.54778660280603
 30
0.0
 11
26.37887422631095
 21
18.16778660280604
 31
0.0
  0
LINE
  5
9FA
330
75F
100
AcDbEntity
  8
OBJECT
100
AcDbLine
 10
24.72287422631096
 20
18.54778660280603
 30
0.0
 11
24.72287422631096
 21
18.60778660280602
 31
0.0
  0
LINE
  5
9FB
330
75F
100
AcDbEntity
  8
OBJECT
100
AcDbLine
 10
27.72287422631095
 20
18.54778660280603
 30
0.0
 11
27.72287422631095
 21
18.60778660280605
 31
0.0
  0
LINE
  5
9FC
330
75F
100
AcDbEntity
  8
OBJECT
100
AcDbLine
 10
26.06687422631096
 20
18.54778660280603
 30
0.0
 11
26.22287422631095
 21
18.54778660280603
 31
0.0
  0
LINE
  5
9FD
330
75F
100
AcDbEntity
  8
OBJECT
100
AcDbLine
 10
24.72287422631096
 20
18.60778660280602
 30
0.0
 11
26.11610344379059
 21
18.60778660280603
 31
0.0
  0
CIRCLE
  5
9FE
330
75F
100
AcDbEntity
  8
OBJECT
100
AcDbCircle
 10
26.22287422631095
 20
18.67278660280603
 30
0.0
 40
0.125
  0
LINE
  5
9FF
330
75F
100
AcDbEntity
  8
OBJECT
100
AcDbLine
 10
26.32964500883132
 20
18.60778660280603
 30
0.0
 11
27.72287422631095
 21
18.60778660280605
 31
0.0
  0
LINE
  5
A00
330
75F
100
AcDbEntity
  8
OBJECT
100
AcDbLine
 10
40.06687422631094
 20
18.54778660280603
 30
0.0
 11
40.28787422631094
 21
18.54778660280603
 31
0.0
  0
LINE
  5
A01
330
75F
100
AcDbEntity
  8
OBJECT
100
AcDbLine
 10
38.84787422631094
 20
18.60778660280602
 30
0.0
 11
40.34787422631094
 21
18.60778660280602
 31
0.0
  0
LINE
  5
A02
330
75F
100
AcDbEntity
  8
OBJECT
100
AcDbLine
 10
38.84787422631094
 20
18.54778660280603
 30
0.0
 11
38.84787422631094
 21
18.60778660280602
 31
0.0
  0
LINE
  5
A03
330
75F
100
AcDbEntity
  8
OBJECT
100
AcDbLine
 10
40.34787422631096
 20
18.11278660280603
 30
0.0
 11
40.34787422631094
 21
18.60778660280602
 31
0.0
  0
LINE
  5
A04
330
75F
100
AcDbEntity
  8
OBJECT
100
AcDbLine
 10
40.28787422631094
 20
18.21955738532647
 30
0.0
 11
40.28787422631094
 21
18.54778660280603
 31
0.0
  0
LINE
  5
A05
330
75F
100
AcDbEntity
  8
OBJECT
100
AcDbLine
 10
40.32964500883135
 20
18.04778660280602
 30
0.0
 11
41.72287422631096
 21
18.04778660280603
 31
0.0
  0
LINE
  5
A06
330
75F
100
AcDbEntity
  8
OBJECT
100
AcDbLine
 10
41.72287422631096
 20
17.98778660280603
 30
0.0
 11
41.72287422631096
 21
18.04778660280603
 31
0.0
  0
LINE
  5
A07
330
75F
100
AcDbEntity
  8
OBJECT
100
AcDbLine
 10
40.22287422631094
 20
17.98778660280603
 30
0.0
 11
41.72287422631096
 21
17.98778660280603
 31
0.0
  0
CIRCLE
  5
A08
330
75F
100
AcDbEntity
  8
OBJECT
100
AcDbCircle
 10
40.22287422631094
 20
18.11278660280603
 30
0.0
 40
0.125
  0
LINE
  5
A09
330
75F
100
AcDbEntity
  8
OBJECT
100
AcDbLine
 10
40.06687422631094
 20
18.16778660280602
 30
0.0
 11
40.06687422631094
 21
18.54778660280603
 31
0.0
  0
ARC
  5
A0A
330
75F
100
AcDbEntity
  8
OBJECT
100
AcDbCircle
 10
28.22287422631096
 20
18.45678660280604
 30
0.0
 40
0.125
100
AcDbArc
 50
133.2810120024551
 51
46.71898799754471
  0
ARC
  5
A0B
330
75F
100
AcDbEntity
  8
OBJECT
100
AcDbCircle
 10
32.22287422631096
 20
18.45678660280604
 30
0.0
 40
0.125
100
AcDbArc
 50
133.2810120025671
 51
46.71898799743391
  0
ARC
  5
A0C
330
75F
100
AcDbEntity
  8
OBJECT
100
AcDbCircle
 10
36.22287422631095
 20
18.45678660280604
 30
0.0
 40
0.125
100
AcDbArc
 50
133.2810120025682
 51
46.71898799743277
  0
ARC
  5
A0D
330
75F
100
AcDbEntity
  8
OBJECT
100
AcDbCircle
 10
38.22287422631096
 20
18.45678660280604
 30
0.0
 40
0.125
100
AcDbArc
 50
133.2810120025682
 51
46.71898799743277
  0
LINE
  5
A0E
330
75F
100
AcDbEntity
  8
HIDDEN
100
AcDbLine
 10
28.34396923033677
 20
18.48778660280603
 30
0.0
 11
32.10177922228514
 21
18.48778660280603
 31
0.0
  0
LINE
  5
A0F
330
75F
100
AcDbEntity
  8
OBJECT
100
AcDbLine
 10
28.10177922228515
 20
18.48778660280603
 30
0.0
 11
28.34396923033677
 21
18.48778660280603
 31
0.0
  0
LINE
  5
A10
330
75F
100
AcDbEntity
  8
HIDDEN
100
AcDbLine
 10
32.34396923033677
 20
18.48778660280603
 30
0.0
 11
36.10177922228514
 21
18.48778660280603
 31
0.0
  0
LINE
  5
A11
330
75F
100
AcDbEntity
  8
OBJECT
100
AcDbLine
 10
32.10177922228514
 20
18.48778660280603
 30
0.0
 11
32.34396923033677
 21
18.48778660280603
 31
0.0
  0
LINE
  5
A12
330
75F
100
AcDbEntity
  8
HIDDEN
100
AcDbLine
 10
38.34396923033676
 20
18.48778660280603
 30
0.0
 11
40.06687422631094
 21
18.48778660280603
 31
0.0
  0
LINE
  5
A13
330
75F
100
AcDbEntity
  8
HIDDEN
100
AcDbLine
 10
36.34396923033677
 20
18.48778660280603
 30
0.0
 11
38.10177922228514
 21
18.48778660280603
 31
0.0
  0
LINE
  5
A14
330
75F
100
AcDbEntity
  8
OBJECT
100
AcDbLine
 10
36.10177922228514
 20
18.48778660280603
 30
0.0
 11
36.34396923033677
 21
18.48778660280603
 31
0.0
  0
LINE
  5
A15
330
75F
100
AcDbEntity
  8
OBJECT
100
AcDbLine
 10
38.10177922228514
 20
18.48778660280603
 30
0.0
 11
38.34396923033676
 21
18.48778660280603
 31
0.0
  0
ARC
  5
A16
330
75F
100
AcDbEntity
  8
OBJECT
100
AcDbCircle
 10
14.22287422631095
 20
18.45678660280605
 30
0.0
 40
0.125
100
AcDbArc
 50
133.2810120024285
 51
46.71898799757164
  0
ARC
  5
A17
330
75F
100
AcDbEntity
  8
OBJECT
100
AcDbCircle
 10
16.22287422631095
 20
18.45678660280605
 30
0.0
 40
0.125
100
AcDbArc
 50
133.281012002414
 51
46.71898799758589
  0
ARC
  5
A18
330
75F
100
AcDbEntity
  8
OBJECT
100
AcDbCircle
 10
20.22287422631095
 20
18.45678660280605
 30
0.0
 40
0.125
100
AcDbArc
 50
133.2810120024146
 51
46.71898799758532
  0
ARC
  5
A19
330
75F
100
AcDbEntity
  8
OBJECT
100
AcDbCircle
 10
24.22287422631095
 20
18.45678660280605
 30
0.0
 40
0.125
100
AcDbArc
 50
133.2810120024371
 51
46.71898799756109
  0
LINE
  5
A1A
330
75F
100
AcDbEntity
  8
HIDDEN
100
AcDbLine
 10
20.34396923033667
 20
18.48778660280603
 30
0.0
 11
24.10177922228518
 21
18.48778660280603
 31
0.0
  0
LINE
  5
A1B
330
75F
100
AcDbEntity
  8
HIDDEN
100
AcDbLine
 10
16.34396923033672
 20
18.48778660280605
 30
0.0
 11
20.10177922228522
 21
18.48778660280603
 31
0.0
  0
LINE
  5
A1C
330
75F
100
AcDbEntity
  8
HIDDEN
100
AcDbLine
 10
14.34396923033669
 20
18.48778660280605
 30
0.0
 11
16.10177922228517
 21
18.48778660280605
 31
0.0
  0
LINE
  5
A1D
330
75F
100
AcDbEntity
  8
HIDDEN
100
AcDbLine
 10
24.34396923033672
 20
18.48778660280603
 30
0.0
 11
26.06687422631096
 21
18.48778660280603
 31
0.0
  0
LINE
  5
A1E
330
75F
100
AcDbEntity
  8
OBJECT
100
AcDbLine
 10
14.1017792222852
 20
18.48778660280605
 30
0.0
 11
14.34396923033669
 21
18.48778660280605
 31
0.0
  0
LINE
  5
A1F
330
75F
100
AcDbEntity
  8
OBJECT
100
AcDbLine
 10
16.10177922228517
 20
18.48778660280605
 30
0.0
 11
16.34396923033672
 21
18.48778660280605
 31
0.0
  0
LINE
  5
A20
330
75F
100
AcDbEntity
  8
OBJECT
100
AcDbLine
 10
20.10177922228522
 20
18.48778660280603
 30
0.0
 11
20.34396923033667
 21
18.48778660280603
 31
0.0
  0
LINE
  5
A21
330
75F
100
AcDbEntity
  8
OBJECT
100
AcDbLine
 10
24.10177922228518
 20
18.48778660280603
 30
0.0
 11
24.34396923033672
 21
18.48778660280603
 31
0.0
  0
LINE
  5
A22
330
75F
100
AcDbEntity
  8
OBJECT
100
AcDbLine
 10
26.22287422631095
 20
18.54778660280603
 30
0.0
 11
26.37887422631095
 21
18.54778660280603
 31
0.0
  0
LINE
  5
A23
330
75F
100
AcDbEntity
  8
OBJECT
100
AcDbLine
 10
26.22287422631095
 20
23.37353452379512
 30
0.0
 11
26.06687422631096
 21
23.37353452379512
 31
0.0
  0
LINE
  5
A24
330
75F
100
AcDbEntity
  8
OBJECT
100
AcDbLine
 10
24.10177922228518
 20
23.06353452379512
 30
0.0
 11
24.34396923033672
 21
23.06353452379512
 31
0.0
  0
LINE
  5
A25
330
75F
100
AcDbEntity
  8
OBJECT
100
AcDbLine
 10
20.10177922228522
 20
23.06353452379512
 30
0.0
 11
20.34396923033667
 21
23.06353452379512
 31
0.0
  0
LINE
  5
A26
330
75F
100
AcDbEntity
  8
OBJECT
100
AcDbLine
 10
16.10177922228517
 20
23.06353452379513
 30
0.0
 11
16.34396923033672
 21
23.06353452379513
 31
0.0
  0
LINE
  5
A27
330
75F
100
AcDbEntity
  8
OBJECT
100
AcDbLine
 10
14.1017792222852
 20
23.06353452379513
 30
0.0
 11
14.34396923033669
 21
23.06353452379513
 31
0.0
  0
LINE
  5
A28
330
75F
100
AcDbEntity
  8
HIDDEN
100
AcDbLine
 10
24.34396923033672
 20
23.06353452379512
 30
0.0
 11
26.06687422631096
 21
23.06353452379512
 31
0.0
  0
LINE
  5
A29
330
75F
100
AcDbEntity
  8
HIDDEN
100
AcDbLine
 10
14.34396923033669
 20
23.06353452379513
 30
0.0
 11
16.10177922228517
 21
23.06353452379513
 31
0.0
  0
LINE
  5
A2A
330
75F
100
AcDbEntity
  8
HIDDEN
100
AcDbLine
 10
16.34396923033672
 20
23.06353452379513
 30
0.0
 11
20.10177922228522
 21
23.06353452379512
 31
0.0
  0
LINE
  5
A2B
330
75F
100
AcDbEntity
  8
HIDDEN
100
AcDbLine
 10
20.34396923033667
 20
23.06353452379512
 30
0.0
 11
24.10177922228518
 21
23.06353452379512
 31
0.0
  0
ARC
  5
A2C
330
75F
100
AcDbEntity
  8
OBJECT
100
AcDbCircle
 10
24.22287422631095
 20
23.03253452379514
 30
0.0
 40
0.125
100
AcDbArc
 50
133.2810120024371
 51
46.71898799756109
  0
ARC
  5
A2D
330
75F
100
AcDbEntity
  8
OBJECT
100
AcDbCircle
 10
20.22287422631095
 20
23.03253452379514
 30
0.0
 40
0.125
100
AcDbArc
 50
133.2810120024146
 51
46.71898799758532
  0
ARC
  5
A2E
330
75F
100
AcDbEntity
  8
OBJECT
100
AcDbCircle
 10
16.22287422631095
 20
23.03253452379514
 30
0.0
 40
0.125
100
AcDbArc
 50
133.281012002414
 51
46.71898799758589
  0
ARC
  5
A2F
330
75F
100
AcDbEntity
  8
OBJECT
100
AcDbCircle
 10
14.22287422631095
 20
23.03253452379514
 30
0.0
 40
0.125
100
AcDbArc
 50
133.2810120024285
 51
46.71898799757164
  0
LINE
  5
A30
330
75F
100
AcDbEntity
  8
OBJECT
100
AcDbLine
 10
14.34396923033677
 20
23.43353452379512
 30
0.0
 11
14.10177922228514
 21
23.43353452379512
 31
0.0
  0
LINE
  5
A31
330
75F
100
AcDbEntity
  8
OBJECT
100
AcDbLine
 10
16.34396923033677
 20
23.43353452379512
 30
0.0
 11
16.10177922228514
 21
23.43353452379512
 31
0.0
  0
LINE
  5
A32
330
75F
100
AcDbEntity
  8
HIDDEN
100
AcDbLine
 10
16.10177922228514
 20
23.43353452379512
 30
0.0
 11
14.34396923033677
 21
23.43353452379512
 31
0.0
  0
LINE
  5
A33
330
75F
100
AcDbEntity
  8
HIDDEN
100
AcDbLine
 10
14.10177922228514
 20
23.43353452379512
 30
0.0
 11
12.37887422631097
 21
23.43353452379513
 31
0.0
  0
LINE
  5
A34
330
75F
100
AcDbEntity
  8
OBJECT
100
AcDbLine
 10
20.34396923033677
 20
23.43353452379512
 30
0.0
 11
20.10177922228514
 21
23.43353452379512
 31
0.0
  0
LINE
  5
A35
330
75F
100
AcDbEntity
  8
HIDDEN
100
AcDbLine
 10
20.10177922228514
 20
23.43353452379512
 30
0.0
 11
16.34396923033677
 21
23.43353452379512
 31
0.0
  0
LINE
  5
A36
330
75F
100
AcDbEntity
  8
OBJECT
100
AcDbLine
 10
24.34396923033677
 20
23.43353452379512
 30
0.0
 11
24.10177922228514
 21
23.43353452379512
 31
0.0
  0
LINE
  5
A37
330
75F
100
AcDbEntity
  8
HIDDEN
100
AcDbLine
 10
24.10177922228514
 20
23.43353452379512
 30
0.0
 11
20.34396923033677
 21
23.43353452379512
 31
0.0
  0
ARC
  5
A38
330
75F
100
AcDbEntity
  8
OBJECT
100
AcDbCircle
 10
14.22287422631095
 20
23.46453452379511
 30
0.0
 40
0.125
100
AcDbArc
 50
313.2810120025683
 51
226.7189879974328
  0
ARC
  5
A39
330
75F
100
AcDbEntity
  8
OBJECT
100
AcDbCircle
 10
16.22287422631095
 20
23.46453452379511
 30
0.0
 40
0.125
100
AcDbArc
 50
313.2810120025683
 51
226.7189879974328
  0
ARC
  5
A3A
330
75F
100
AcDbEntity
  8
OBJECT
100
AcDbCircle
 10
20.22287422631095
 20
23.46453452379511
 30
0.0
 40
0.125
100
AcDbArc
 50
313.2810120025672
 51
226.7189879974338
  0
ARC
  5
A3B
330
75F
100
AcDbEntity
  8
OBJECT
100
AcDbCircle
 10
24.22287422631095
 20
23.46453452379511
 30
0.0
 40
0.125
100
AcDbArc
 50
313.2810120024551
 51
226.7189879975446
  0
LINE
  5
A3C
330
75F
100
AcDbEntity
  8
OBJECT
100
AcDbLine
 10
12.37887422631097
 20
23.75353452379513
 30
0.0
 11
12.37887422631097
 21
23.37353452379513
 31
0.0
  0
CIRCLE
  5
A3D
330
75F
100
AcDbEntity
  8
OBJECT
100
AcDbCircle
 10
12.22287422631097
 20
23.80853452379512
 30
0.0
 40
0.125
  0
LINE
  5
A3E
330
75F
100
AcDbEntity
  8
OBJECT
100
AcDbLine
 10
12.22287422631097
 20
23.93353452379512
 30
0.0
 11
10.72287422631096
 21
23.93353452379512
 31
0.0
  0
LINE
  5
A3F
330
75F
100
AcDbEntity
  8
OBJECT
100
AcDbLine
 10
10.72287422631096
 20
23.93353452379512
 30
0.0
 11
10.72287422631096
 21
23.87353452379513
 31
0.0
  0
LINE
  5
A40
330
75F
100
AcDbEntity
  8
OBJECT
100
AcDbLine
 10
12.11610344379056
 20
23.87353452379513
 30
0.0
 11
10.72287422631096
 21
23.87353452379513
 31
0.0
  0
LINE
  5
A41
330
75F
100
AcDbEntity
  8
OBJECT
100
AcDbLine
 10
12.15787422631096
 20
23.70176374127468
 30
0.0
 11
12.15787422631097
 21
23.37353452379513
 31
0.0
  0
LINE
  5
A42
330
75F
100
AcDbEntity
  8
OBJECT
100
AcDbLine
 10
12.09787422631096
 20
23.80853452379512
 30
0.0
 11
12.09787422631097
 21
23.31353452379513
 31
0.0
  0
LINE
  5
A43
330
75F
100
AcDbEntity
  8
OBJECT
100
AcDbLine
 10
13.59787422631097
 20
23.37353452379513
 30
0.0
 11
13.59787422631097
 21
23.31353452379513
 31
0.0
  0
LINE
  5
A44
330
75F
100
AcDbEntity
  8
OBJECT
100
AcDbLine
 10
13.59787422631097
 20
23.31353452379513
 30
0.0
 11
12.09787422631097
 21
23.31353452379513
 31
0.0
  0
LINE
  5
A45
330
75F
100
AcDbEntity
  8
OBJECT
100
AcDbLine
 10
12.37887422631097
 20
23.37353452379513
 30
0.0
 11
12.15787422631097
 21
23.37353452379513
 31
0.0
  0
LINE
  5
A46
330
75F
100
AcDbEntity
  8
OBJECT
100
AcDbLine
 10
26.11610344379059
 20
23.31353452379512
 30
0.0
 11
24.72287422631096
 21
23.31353452379511
 31
0.0
  0
CIRCLE
  5
A47
330
75F
100
AcDbEntity
  8
OBJECT
100
AcDbCircle
 10
26.22287422631095
 20
23.24853452379512
 30
0.0
 40
0.125
  0
LINE
  5
A48
330
75F
100
AcDbEntity
  8
OBJECT
100
AcDbLine
 10
24.72287422631096
 20
23.18353452379511
 30
0.0
 11
26.11610344379059
 21
23.18353452379512
 31
0.0
  0
LINE
  5
A49
330
75F
100
AcDbEntity
  8
OBJECT
100
AcDbLine
 10
26.06687422631096
 20
23.12353452379512
 30
0.0
 11
26.22287422631095
 21
23.12353452379512
 31
0.0
  0
LINE
  5
A4A
330
75F
100
AcDbEntity
  8
OBJECT
100
AcDbLine
 10
24.72287422631096
 20
23.37353452379512
 30
0.0
 11
24.72287422631096
 21
23.31353452379511
 31
0.0
  0
LINE
  5
A4B
330
75F
100
AcDbEntity
  8
OBJECT
100
AcDbLine
 10
24.72287422631096
 20
23.12353452379512
 30
0.0
 11
24.72287422631096
 21
23.18353452379511
 31
0.0
  0
LINE
  5
A4C
330
75F
100
AcDbEntity
  8
OBJECT
100
AcDbLine
 10
26.06687422631096
 20
23.37353452379512
 30
0.0
 11
26.06687422631096
 21
23.75353452379512
 31
0.0
  0
LINE
  5
A4D
330
75F
100
AcDbEntity
  8
OBJECT
100
AcDbLine
 10
26.06687422631096
 20
22.74353452379512
 30
0.0
 11
26.06687422631096
 21
23.12353452379512
 31
0.0
  0
LINE
  5
A4E
330
75F
100
AcDbEntity
  8
OBJECT
100
AcDbLine
 10
26.06687422631096
 20
23.75353452379512
 30
0.0
 11
12.37887422631097
 21
23.75353452379513
 31
0.0
  0
LINE
  5
A4F
330
75F
100
AcDbEntity
  8
HIDDEN
100
AcDbLine
 10
10.3296450088313
 20
23.00353452379513
 30
0.0
 11
11.72287422631095
 21
23.00353452379512
 31
0.0
  0
LINE
  5
A50
330
75F
100
AcDbEntity
  8
OBJECT
100
AcDbLine
 10
10.37887422631096
 20
22.74353452379512
 30
0.0
 11
10.37887422631096
 21
23.12353452379513
 31
0.0
  0
CIRCLE
  5
A51
330
75F
100
AcDbEntity
  8
OBJECT
100
AcDbCircle
 10
10.22287422631096
 20
22.93853452379511
 30
0.0
 40
0.125
  0
LINE
  5
A52
330
75F
100
AcDbEntity
  8
OBJECT
100
AcDbLine
 10
8.847874226310956
 20
23.00353452379513
 30
0.0
 11
10.11610344379061
 21
23.00353452379513
 31
0.0
  0
LINE
  5
A53
330
75F
100
AcDbEntity
  8
OBJECT
100
AcDbLine
 10
8.847874226310956
 20
23.06353452379513
 30
0.0
 11
10.37887422631096
 21
23.06353452379513
 31
0.0
  0
LINE
  5
A54
330
75F
100
AcDbEntity
  8
OBJECT
100
AcDbLine
 10
8.847874226310956
 20
23.06353452379513
 30
0.0
 11
8.847874226310956
 21
23.00353452379513
 31
0.0
  0
LINE
  5
A55
330
75F
100
AcDbEntity
  8
HIDDEN
100
AcDbLine
 10
11.72287422631095
 20
23.00353452379512
 30
0.0
 11
11.72287422631095
 21
23.06353452379513
 31
0.0
  0
LINE
  5
A56
330
75F
100
AcDbEntity
  8
OBJECT
100
AcDbLine
 10
10.37887422631096
 20
22.74353452379512
 30
0.0
 11
26.06687422631096
 21
22.74353452379512
 31
0.0
  0
LINE
  5
A57
330
75F
100
AcDbEntity
  8
OBJECT
100
AcDbLine
 10
26.06687422631096
 20
23.37353452379512
 30
0.0
 11
12.37887422631097
 21
23.37353452379513
 31
0.0
  0
LINE
  5
A58
330
75F
100
AcDbEntity
  8
OBJECT
100
AcDbLine
 10
10.37887422631096
 20
23.12353452379513
 30
0.0
 11
26.06687422631096
 21
23.12353452379512
 31
0.0
  0
LINE
  5
A59
330
75F
100
AcDbEntity
  8
HIDDEN
100
AcDbLine
 10
10.37887422631096
 20
23.06353452379513
 30
0.0
 11
14.1017792222852
 21
23.06353452379513
 31
0.0
  0
LINE
  5
A5A
330
75F
100
AcDbEntity
  8
HIDDEN
100
AcDbLine
 10
26.06687422631096
 20
23.43353452379512
 30
0.0
 11
24.34396923033677
 21
23.43353452379512
 31
0.0
  0
DIMENSION
  5
A5B
330
75F
100
AcDbEntity
  8
DIM
100
AcDbDimension
  2
*D1
 10
3.366804703291563
 20
10.6303173629545
 30
0.0
 11
3.366804703291562
 21
12.3203173629545
 31
0.0
 70
    32
  3
23NSTD
100
AcDbAlignedDimension
 13
8.847874226310963
 23
14.01031736295449
 33
0.0
 14
8.847874226310963
 24
10.6303173629545
 34
0.0
 50
90.0
100
AcDbRotatedDimension
  0
DIMENSION
  5
A69
330
75F
100
AcDbEntity
  8
DIM
100
AcDbDimension
  2
*D2
 10
7.897677908239798
 20
11.44531736295449
 30
0.0
 11
6.548615408239796
 21
10.36531736295449
 31
0.0
 70
    32
  3
23NSTD
100
AcDbAlignedDimension
 13
9.13287422631096
 23
12.07031736295449
 33
0.0
 14
9.13287422631096
 24
11.44531736295449
 34
0.0
 50
90.0
100
AcDbRotatedDimension
  0
DIMENSION
  5
A77
330
75F
100
AcDbEntity
  8
DIM
100
AcDbDimension
  2
*D3
 10
5.829808451330285
 20
12.57031736295449
 30
0.0
 11
4.480745951330283
 21
11.49031736295449
 31
0.0
 70
    32
  3
23NSTD
100
AcDbAlignedDimension
 13
9.13287422631096
 23
13.19531736295449
 33
0.0
 14
9.13287422631096
 24
12.57031736295449
 34
0.0
 50
90.0
100
AcDbRotatedDimension
  0
DIMENSION
  5
A85
330
75F
100
AcDbEntity
  8
DIM
100
AcDbDimension
  2
*D4
 10
6.764959607002742
 20
12.07031736295449
 30
0.0
 11
5.462772107002741
 21
10.99031736295449
 31
0.0
 70
    32
  3
23NSTD
100
AcDbAlignedDimension
 13
9.13287422631096
 23
12.57031736295449
 33
0.0
 14
9.13287422631096
 24
12.07031736295449
 34
0.0
 50
90.0
100
AcDbRotatedDimension
  0
DIMENSION
  5
A93
330
75F
100
AcDbEntity
  8
DIM
100
AcDbDimension
  2
*D5
 10
4.486351861490979
 20
14.01031736295449
 30
0.0
 11
5.788539361490976
 21
15.09031736295449
 31
0.0
 70
    32
  3
23NSTD
100
AcDbAlignedDimension
 13
9.13287422631096
 23
13.19531736295449
 33
0.0
 14
8.847874226310963
 24
14.01031736295449
 34
0.0
 50
90.0
100
AcDbRotatedDimension
  0
DIMENSION
  5
AA1
330
75F
100
AcDbEntity
  8
DIM
100
AcDbDimension
  2
*D6
 10
8.847874226310963
 20
9.498123097123333
 30
0.0
 11
7.005686726310964
 21
9.498123097123333
 31
0.0
 70
    32
  3
23NSTD
100
AcDbAlignedDimension
 13
8.907874226310966
 23
11.44531736295449
 33
0.0
 14
8.847874226310963
 24
10.6303173629545
 34
0.0
100
AcDbRotatedDimension
  0
LINE
  5
AAF
330
75F
100
AcDbEntity
  8
CENTER
100
AcDbLine
 10
26.22287422631096
 20
10.57031736295449
 30
0.0
 11
26.22287422631095
 21
13.95031736295448
 31
0.0
  0
LINE
  5
AB0
330
75F
100
AcDbEntity
  8
CENTER
100
AcDbLine
 10
40.22287422631096
 20
10.57031736295451
 30
0.0
 11
40.22287422631095
 21
13.9503173629545
 31
0.0
  0
LINE
  5
AB1
330
75F
100
AcDbEntity
  8
CENTER
100
AcDbLine
 10
10.22287422631096
 20
10.57031736295446
 30
0.0
 11
10.22287422631096
 21
13.95031736295446
 31
0.0
  0
DIMENSION
  5
AB2
330
75F
100
AcDbEntity
  8
DIM
100
AcDbDimension
  2
*D7
 10
26.22287422631096
 20
5.283123097123335
 30
0.0
 11
33.22287422631096
 21
5.283123097123335
 31
0.0
 70
    32
  3
23NSTD
100
AcDbAlignedDimension
 13
40.22287422631096
 23
10.57031736295451
 33
0.0
 14
26.22287422631096
 24
10.57031736295449
 34
0.0
100
AcDbRotatedDimension
  0
DIMENSION
  5
AC0
330
75F
100
AcDbEntity
  8
DIM
100
AcDbDimension
  2
*D8
 10
10.22287422631096
 20
5.283123097123335
 30
0.0
 11
18.22287422631096
 21
5.283123097123335
 31
0.0
 70
    32
  3
23NSTD
100
AcDbAlignedDimension
 13
26.22287422631096
 23
10.57031736295449
 33
0.0
 14
10.22287422631096
 24
10.57031736295446
 34
0.0
100
AcDbRotatedDimension
  0
DIMENSION
  5
ACE
330
75F
100
AcDbEntity
  8
DIM
100
AcDbDimension
  2
*D9
 10
8.847874226310963
 20
8.655123097123336
 30
0.0
 11
6.982249226310964
 21
8.655123097123336
 31
0.0
 70
    32
  3
23NSTD
100
AcDbAlignedDimension
 13
10.22287422631096
 23
10.57031736295446
 33
0.0
 14
8.847874226310963
 24
10.6303173629545
 34
0.0
100
AcDbRotatedDimension
  0
DIMENSION
  5
ADC
330
75F
100
AcDbEntity
  8
DIM
100
AcDbDimension
  2
*D10
 10
28.22287422631096
 20
7.812123097123333
 30
0.0
 11
27.22287422631096
 21
7.812123097123333
 31
0.0
 70
    32
  3
23NSTD
100
AcDbAlignedDimension
 13
26.22287422631096
 23
10.57031736295449
 33
0.0
 14
28.22287422631096
 24
10.72131736295449
 34
0.0
100
AcDbRotatedDimension
  0
DIMENSION
  5
AE9
330
75F
100
AcDbEntity
  8
DIM
100
AcDbDimension
  2
*D11
 10
32.22287422631096
 20
8.655123097123336
 30
0.0
 11
30.22287422631096
 21
8.655123097123336
 31
0.0
 70
    32
  3
23NSTD
100
AcDbAlignedDimension
 13
28.22287422631096
 23
10.72131736295449
 33
0.0
 14
32.22287422631096
 24
10.72131736295449
 34
0.0
100
AcDbRotatedDimension
  0
DIMENSION
  5
AF7
330
75F
100
AcDbEntity
  8
DIM
100
AcDbDimension
  2
*D12
 10
36.22287422631095
 20
7.812123097123333
 30
0.0
 11
32.22287422631096
 21
7.812123097123333
 31
0.0
 70
    32
  3
23NSTD
100
AcDbAlignedDimension
 13
28.22287422631096
 23
10.72131736295449
 33
0.0
 14
36.22287422631095
 24
10.72131736295449
 34
0.0
100
AcDbRotatedDimension
  0
DIMENSION
  5
B05
330
75F
100
AcDbEntity
  8
DIM
100
AcDbDimension
  2
*D13
 10
38.22287422631096
 20
6.126123097123333
 30
0.0
 11
33.22287422631096
 21
6.126123097123333
 31
0.0
 70
    32
  3
23NSTD
100
AcDbAlignedDimension
 13
28.22287422631096
 23
10.72131736295449
 33
0.0
 14
38.22287422631096
 24
10.72131736295449
 34
0.0
100
AcDbRotatedDimension
  0
DIMENSION
  5
B13
330
75F
100
AcDbEntity
  8
DIM
100
AcDbDimension
  2
*D14
 10
41.22287422631095
 20
9.498123097123333
 30
0.0
 11
43.01818672631095
 21
9.498123097123333
 31
0.0
 70
    32
  3
23NSTD
100
AcDbAlignedDimension
 13
40.22287422631096
 23
10.57031736295451
 33
0.0
 14
41.22287422631095
 24
11.35531736295448
 34
0.0
100
AcDbRotatedDimension
  0
DIMENSION
  5
B21
330
75F
100
AcDbEntity
  8
DIM
100
AcDbDimension
  2
*D15
 10
41.72287422631096
 20
8.655123097123336
 30
0.0
 11
40.97287422631096
 21
8.655123097123336
 31
0.0
 70
    32
  3
23NSTD
100
AcDbAlignedDimension
 13
40.22287422631096
 23
10.57031736295451
 33
0.0
 14
41.72287422631096
 24
11.13031736295448
 34
0.0
100
AcDbRotatedDimension
  0
DIMENSION
  5
B2F
330
75F
100
AcDbEntity
  8
DIM
100
AcDbDimension
  2
*D16
 10
20.22287422631096
 20
8.655123097123336
 30
0.0
 11
22.22287422631096
 21
8.655123097123336
 31
0.0
 70
    32
  3
23NSTD
100
AcDbAlignedDimension
 13
24.22287422631096
 23
10.72131736295449
 33
0.0
 14
20.22287422631096
 24
10.72131736295449
 34
0.0
100
AcDbRotatedDimension
  0
DIMENSION
  5
B3D
330
75F
100
AcDbEntity
  8
DIM
100
AcDbDimension
  2
*D17
 10
16.22287422631096
 20
7.812123097123333
 30
0.0
 11
20.22287422631096
 21
7.812123097123333
 31
0.0
 70
    32
  3
23NSTD
100
AcDbAlignedDimension
 13
24.22287422631096
 23
10.72131736295449
 33
0.0
 14
16.22287422631096
 24
10.72131736295449
 34
0.0
100
AcDbRotatedDimension
  0
DIMENSION
  5
B4B
330
75F
100
AcDbEntity
  8
DIM
100
AcDbDimension
  2
*D18
 10
15.22287422631096
 20
6.969123097123328
 30
0.0
 11
19.72287422631096
 21
6.969123097123328
 31
0.0
 70
    32
  3
23NSTD
100
AcDbAlignedDimension
 13
24.22287422631096
 23
10.72131736295449
 33
0.0
 14
15.22287422631096
 24
12.23031736295449
 34
0.0
100
AcDbRotatedDimension
  0
DIMENSION
  5
B59
330
75F
100
AcDbEntity
  8
DIM
100
AcDbDimension
  2
*D19
 10
24.22287422631096
 20
8.655123097123336
 30
0.0
 11
25.22287422631096
 21
8.655123097123336
 31
0.0
 70
    32
  3
23NSTD
100
AcDbAlignedDimension
 13
26.22287422631096
 23
10.57031736295449
 33
0.0
 14
24.22287422631096
 24
10.72131736295449
 34
0.0
100
AcDbRotatedDimension
  0
DIMENSION
  5
B66
330
75F
100
AcDbEntity
  8
DIM
100
AcDbDimension
  2
*D20
 10
42.41937318659623
 20
13.51031736295448
 30
0.0
 11
43.72156068659623
 21
14.59031736295449
 31
0.0
 70
    32
  3
23NSTD
100
AcDbAlignedDimension
 13
41.31287422631096
 23
13.19531736295447
 33
0.0
 14
41.72287422631096
 24
13.51031736295448
 34
0.0
 50
90.0
100
AcDbRotatedDimension
  0
DIMENSION
  5
B74
330
75F
100
AcDbEntity
  8
DIM
100
AcDbDimension
  2
*D21
 10
44.79672020404353
 20
13.19531736295447
 30
0.0
 11
44.79672020404353
 21
12.32031736295448
 31
0.0
 70
    32
  3
23NSTD
100
AcDbAlignedDimension
 13
41.31287422631096
 23
11.44531736295447
 33
0.0
 14
41.31287422631096
 24
13.19531736295447
 34
0.0
 50
90.0
100
AcDbRotatedDimension
  0
DIMENSION
  5
B81
330
75F
100
AcDbEntity
  8
DIM
100
AcDbDimension
  2
*D22
 10
46.34762976814622
 20
13.51031736295448
 30
0.0
 11
46.34762976814622
 21
12.32031736295448
 31
0.0
 70
    32
  3
23NSTD
100
AcDbAlignedDimension
 13
41.72287422631096
 23
11.13031736295448
 33
0.0
 14
41.72287422631096
 24
13.51031736295448
 34
0.0
 50
90.0
100
AcDbRotatedDimension
  0
DIMENSION
  5
B8E
330
75F
100
AcDbEntity
  8
DIM
100
AcDbDimension
  2
*D23
 10
42.41937318659623
 20
18.54778660280603
 30
0.0
 11
43.72156068659623
 21
19.62778660280604
 31
0.0
 70
    32
  3
23NSTD
100
AcDbAlignedDimension
 13
41.72287422631096
 23
18.04778660280603
 33
0.0
 14
40.28787422631094
 24
18.54778660280603
 34
0.0
 50
90.0
100
AcDbRotatedDimension
  0
DIMENSION
  5
B9C
330
75F
100
AcDbEntity
  8
DIM
100
AcDbDimension
  2
*D24
 10
36.34787422631096
 20
17.22422596938597
 30
0.0
 11
38.82287422631096
 21
17.22422596938597
 31
0.0
 70
    32
  1
<> TYP.
  3
23NSTD
100
AcDbAlignedDimension
 13
36.09787422631096
 23
18.45678660280604
 33
0.0
 14
36.34787422631096
 24
18.45678660280604
 34
0.0
100
AcDbRotatedDimension
  0
DIMENSION
  5
BAA
330
75F
100
AcDbEntity
  8
DIM
100
AcDbDimension
  2
*D25
 10
7.902481204165233
 20
18.48778660280605
 30
0.0
 11
9.20466870416523
 21
19.56778660280606
 31
0.0
 70
    32
  3
23NSTD
100
AcDbAlignedDimension
 13
8.847874226310956
 23
18.42778660280604
 33
0.0
 14
8.847874226310956
 24
18.48778660280605
 34
0.0
 50
90.0
100
AcDbRotatedDimension
  0
DIMENSION
  5
BB8
330
75F
100
AcDbEntity
  8
DIM
100
AcDbDimension
  2
*D26
 10
6.756161991307734
 20
18.16778660280605
 30
0.0
 11
5.43053699130773
 21
17.08778660280605
 31
0.0
 70
    32
  3
23NSTD
100
AcDbAlignedDimension
 13
10.37887422631096
 23
18.54778660280605
 33
0.0
 14
10.37887422631096
 24
18.16778660280604
 34
0.0
 50
90.0
100
AcDbRotatedDimension
  0
DIMENSION
  5
BC6
330
75F
100
AcDbEntity
  8
DIM
100
AcDbDimension
  2
*D27
 10
26.34787422631096
 20
19.62778660280602
 30
0.0
 11
28.77599922631096
 21
19.62778660280602
 31
0.0
 70
    32
  1
<> DIA.
  3
23NSTD
100
AcDbAlignedDimension
 13
26.09787422631096
 23
18.67278660280603
 33
0.0
 14
26.34787422631096
 24
18.67278660280603
 34
0.0
100
AcDbRotatedDimension
  0
LWPOLYLINE
  5
BD4
330
75F
100
AcDbEntity
  8
DIM
100
AcDbPolyline
 90
        4
 70
     0
 10
9.173717345593438
 20
13.30431736295448
 40
0.0
 41
0.2025
 10
9.395129200455748
 20
13.79683821583935
 40
0.0
 41
0.0
 10
10.17749709768358
 20
15.53718091000997
 40
0.0
 41
0.0
 10
10.55249709768358
 20
15.53718091000997
 40
0.0
 41
0.0
  0
TEXT
  5
BDA
330
75F
100
AcDbEntity
  8
DIM
100
AcDbText
 10
10.92749709768358
 20
15.34968091000997
 30
0.0
 40
0.375
  1
0.218 x 0.625 OBLONG
 41
0.75
100
AcDbText
  0
TEXT
  5
BDB
330
75F
100
AcDbEntity
  8
DIM
100
AcDbText
 10
10.92749709768358
 20
14.72468091000997
 30
0.0
 40
0.375
  1
(4) HOLES
 41
0.75
100
AcDbText
  0
DIMENSION
  5
BDC
330
75F
100
AcDbEntity
  8
DIM
100
AcDbDimension
  2
*D28
 10
21.62512607108659
 20
14.01031736295449
 30
0.0
 11
22.92731357108658
 21
15.09031736295449
 31
0.0
 70
    32
  3
23NSTD
100
AcDbAlignedDimension
 13
20.78348750293089
 23
13.95031736295448
 33
0.0
 14
20.78348750293089
 24
14.01031736295449
 34
0.0
 50
90.0
100
AcDbRotatedDimension
  0
LWPOLYLINE
  5
BEA
330
75F
100
AcDbEntity
  8
DIM
100
AcDbPolyline
 90
        4
 70
     0
 10
41.12775684266244
 20
13.30935653748613
 40
0.0
 41
0.2025
 10
40.87309895573897
 20
13.78553860416617
 40
0.0
 41
0.0
 10
39.93633640320947
 20
15.53718091000997
 40
0.0
 41
0.0
 10
39.56133640320947
 20
15.53718091000997
 40
0.0
 41
0.0
  0
TEXT
  5
BF0
330
75F
100
AcDbEntity
  8
DIM
100
AcDbText
 10
36.98321140320947
 20
15.34968091000997
 30
0.0
 40
0.375
  1
0.296 DIA.
 41
0.75
 72
     2
 11
39.18633640320947
 21
15.34968091000997
 31
0.0
100
AcDbText
  0
TEXT
  5
BF1
330
75F
100
AcDbEntity
  8
DIM
100
AcDbText
 10
36.93633640320947
 20
14.72468091000997
 30
0.0
 40
0.375
  1
(2) HOLES
 41
0.75
 72
     2
 11
39.18633640320947
 21
14.72468091000997
 31
0.0
100
AcDbText
  0
DIMENSION
  5
BF2
330
75F
100
AcDbEntity
  8
DIM
100
AcDbDimension
  2
*D29
 10
7.859605467904507
 20
23.06353452379513
 30
0.0
 11
6.533980467904504
 21
21.98353452379513
 31
0.0
 70
    32
  1
0.880
  3
23NSTD
100
AcDbAlignedDimension
 13
10.72287422631096
 23
23.93353452379512
 33
0.0
 14
8.847874226310956
 24
23.06353452379513
 34
0.0
 50
90.0
100
AcDbRotatedDimension
  0
LINE
  5
C00
330
75F
100
AcDbEntity
  8
CENTER
100
AcDbLine
 10
15.22287422631096
 20
12.41031736295449
 30
0.0
 11
15.22287422631096
 21
12.23031736295449
 31
0.0
  0
LINE
  5
C01
330
75F
100
AcDbEntity
  8
CENTER
100
AcDbLine
 10
15.13287422631096
 20
12.32031736295449
 30
0.0
 11
15.31287422631096
 21
12.32031736295449
 31
0.0
  0
LWPOLYLINE
  5
C02
330
75F
100
AcDbEntity
  8
OBJECT
100
AcDbPolyline
 90
        4
 70
     1
 43
0.0
 10
9.016874261931604
 20
11.33631736295449
 10
9.428874261931603
 20
11.33631736295449
 42
0.9999998366025664
 10
9.428874226310959
 20
11.55431736295449
 10
9.01687422631096
 20
11.5543173629545
 42
1.000000163397454
  0
LWPOLYLINE
  5
C08
330
75F
100
AcDbEntity
  8
OBJECT
100
AcDbPolyline
 90
        4
 70
     1
 43
0.0
 10
9.016874261931604
 20
11.96131736295449
 10
9.428874261931603
 20
11.96131736295449
 42
0.9999998366025646
 10
9.428874226310959
 20
12.17931736295449
 10
9.01687422631096
 20
12.1793173629545
 42
1.000000163397462
  0
LWPOLYLINE
  5
C0E
330
75F
100
AcDbEntity
  8
OBJECT
100
AcDbPolyline
 90
        4
 70
     1
 43
0.0
 10
9.01687422631096
 20
12.46131736295449
 10
9.428874226310959
 20
12.46131736295449
 42
1.0
 10
9.428874226310959
 20
12.67931736295449
 10
9.01687422631096
 20
12.67931736295448
 42
1.0
  0
LWPOLYLINE
  5
C14
330
75F
100
AcDbEntity
  8
OBJECT
100
AcDbPolyline
 90
        4
 70
     1
 43
0.0
 10
9.01687422631096
 20
13.30431736295448
 42
1.0
 10
9.01687422631096
 20
13.08631736295449
 10
9.428874226310959
 20
13.0863173629545
 42
1.0
 10
9.428874226310959
 20
13.30431736295449
  0
LINE
  5
C1A
330
75F
100
AcDbEntity
  8
CENTER
100
AcDbLine
 10
23.13287422631096
 20
12.32031736295449
 30
0.0
 11
23.31287422631096
 21
12.32031736295449
 31
0.0
  0
LINE
  5
C1B
330
75F
100
AcDbEntity
  8
CENTER
100
AcDbLine
 10
23.22287422631096
 20
12.41031736295449
 30
0.0
 11
23.22287422631096
 21
12.23031736295449
 31
0.0
  0
CIRCLE
  5
C1C
330
75F
100
AcDbEntity
  8
OBJECT
100
AcDbCircle
 10
23.22287422631096
 20
12.32031736295449
 30
0.0
 40
0.3125
  0
CIRCLE
  5
C23
330
75F
100
AcDbEntity
  8
OBJECT
100
AcDbCircle
 10
29.22287422631096
 20
12.32031736295449
 30
0.0
 40
0.3125
  0
LINE
  5
C24
330
75F
100
AcDbEntity
  8
CENTER
100
AcDbLine
 10
29.22287422631096
 20
12.41031736295449
 30
0.0
 11
29.22287422631096
 21
12.23031736295449
 31
0.0
  0
LINE
  5
C25
330
75F
100
AcDbEntity
  8
CENTER
100
AcDbLine
 10
29.13287422631095
 20
12.32031736295449
 30
0.0
 11
29.31287422631095
 21
12.32031736295449
 31
0.0
  0
LINE
  5
C2C
330
75F
100
AcDbEntity
  8
CENTER
100
AcDbLine
 10
37.13287422631096
 20
12.32031736295449
 30
0.0
 11
37.31287422631096
 21
12.32031736295449
 31
0.0
  0
LINE
  5
C2D
330
75F
100
AcDbEntity
  8
CENTER
100
AcDbLine
 10
37.22287422631096
 20
12.41031736295449
 30
0.0
 11
37.22287422631096
 21
12.23031736295449
 31
0.0
  0
DIMENSION
  5
C2E
330
75F
100
AcDbEntity
  8
DIM
100
AcDbDimension
  2
*D30
 10
23.22287422631096
 20
9.498123097123333
 30
0.0
 11
21.42756172631096
 21
9.498123097123333
 31
0.0
 70
    32
  3
23NSTD
100
AcDbAlignedDimension
 13
24.22287422631095
 23
10.72131736295449
 33
0.0
 14
23.22287422631096
 24
12.23031736295449
 34
0.0
100
AcDbRotatedDimension
  0
DIMENSION
  5
C3C
330
75F
100
AcDbEntity
  8
DIM
100
AcDbDimension
  2
*D31
 10
29.22287422631096
 20
9.498123097123333
 30
0.0
 11
31.01818672631096
 21
9.498123097123333
 31
0.0
 70
    32
  3
23NSTD
100
AcDbAlignedDimension
 13
28.22287422631096
 23
10.72131736295449
 33
0.0
 14
29.22287422631096
 24
12.23031736295449
 34
0.0
100
AcDbRotatedDimension
  0
DIMENSION
  5
C4A
330
75F
100
AcDbEntity
  8
DIM
100
AcDbDimension
  2
*D32
 10
37.22287422631096
 20
6.969123097123328
 30
0.0
 11
32.72287422631096
 21
6.969123097123328
 31
0.0
 70
    32
  3
23NSTD
100
AcDbAlignedDimension
 13
28.22287422631096
 23
10.72131736295449
 33
0.0
 14
37.22287422631096
 24
12.23031736295449
 34
0.0
100
AcDbRotatedDimension
  0
LINE
  5
C58
330
75F
100
AcDbEntity
  8
CENTER
100
AcDbLine
 10
15.50187422631096
 20
12.32031736295449
 30
0.0
 11
22.94387422631097
 21
12.32031736295449
 31
0.0
  0
LINE
  5
C59
330
75F
100
AcDbEntity
  8
CENTER
100
AcDbLine
 10
36.94387422631096
 20
12.32031736295449
 30
0.0
 11
29.50187422631096
 21
12.32031736295449
 31
0.0
  0
DIMENSION
  5
C5A
330
75F
100
AcDbEntity
  8
DIM
100
AcDbDimension
  2
*D33
 10
13.08573117705026
 20
10.6303173629545
 30
0.0
 11
13.08573117705026
 21
11.4753173629545
 31
0.0
 70
    32
  3
23NSTD
100
AcDbAlignedDimension
 13
15.13287422631096
 23
12.32031736295449
 33
0.0
 14
14.22287422631096
 24
10.6303173629545
 34
0.0
 50
90.0
100
AcDbRotatedDimension
  0
LWPOLYLINE
  5
C67
330
75F
100
AcDbEntity
  8
DIM
100
AcDbPolyline
 90
        4
 70
     0
 10
15.247874287585
 20
12.50781736295448
 40
0.0
 41
0.2025
 10
15.46928614244731
 20
13.00033821583934
 40
0.0
 41
0.0
 10
16.81261008204067
 20
15.98850275129572
 40
0.0
 41
0.0
 10
17.18761008204068
 20
15.98850275129572
 40
0.0
 41
0.0
  0
TEXT
  5
C6D
330
75F
100
AcDbEntity
  8
DIM
100
AcDbText
 10
17.56261008204067
 20
15.80100275129572
 30
0.0
 40
0.375
  1
0.380 x 0.630 OBLONG
 41
0.75
100
AcDbText
  0
TEXT
  5
C6E
330
75F
100
AcDbEntity
  8
DIM
100
AcDbText
 10
17.56261008204067
 20
15.17600275129572
 30
0.0
 40
0.375
  1
(2) HOLES
 41
0.75
100
AcDbText
  0
LWPOLYLINE
  5
C6F
330
75F
100
AcDbEntity
  8
DIM
100
AcDbPolyline
 90
        4
 70
     0
 10
29.1223256300869
 20
12.64280169015848
 40
0.0
 41
0.2025
 10
28.86766774316343
 20
13.11898375683852
 40
0.0
 41
0.0
 10
27.46252391436918
 20
15.74644721560423
 40
0.0
 41
0.0
 10
27.08752391436918
 20
15.74644721560423
 40
0.0
 41
0.0
  0
TEXT
  5
C75
330
75F
100
AcDbEntity
  8
DIM
100
AcDbText
 10
24.46252391436918
 20
14.93394721560423
 30
0.0
 40
0.375
  1
(2) HOLES
 41
0.75
 72
     2
 11
26.71252391436918
 21
14.93394721560423
 31
0.0
100
AcDbText
  0
TEXT
  5
C76
330
75F
100
AcDbEntity
  8
DIM
100
AcDbText
 10
24.50939891436918
 20
15.55894721560423
 30
0.0
 40
0.375
  1
0.625 DIA.
 41
0.75
 72
     2
 11
26.71252391436918
 21
15.55894721560423
 31
0.0
100
AcDbText
  0
INSERT
  5
C77
330
75F
100
AcDbEntity
  8
TEXT
100
AcDbBlockReference
  2
HBS
 10
0.0
 20
0.0
 30
0.0
 41
3.0
 42
3.0
 43
3.0
  0
DIMENSION
  5
C78
330
75F
100
AcDbEntity
  8
DIM
100
AcDbDimension
  2
*D34
 10
14.22287422631095
 20
6.126123097123333
 30
0.0
 11
19.22287422631095
 21
6.126123097123333
 31
0.0
 70
    32
  3
23NSTD
100
AcDbAlignedDimension
 13
24.22287422631095
 23
10.72131736295449
 33
0.0
 14
14.22287422631095
 24
10.72131736295449
 34
0.0
100
AcDbRotatedDimension
  0
DIMENSION
  5
E1F
330
75F
100
AcDbEntity
  8
DIM
100
AcDbDimension
  2
*D35
 10
15.53787422631096
 20
11.62458479605456
 30
0.0
 11
18.01287422631096
 21
11.62458479605456
 31
0.0
 70
    32
  1
<> REF.
  3
23NSTD
100
AcDbAlignedDimension
 13
14.90787422631096
 23
12.32031736295449
 33
0.0
 14
15.53787422631096
 24
12.32031736295449
 34
0.0
100
AcDbRotatedDimension
  0
LWPOLYLINE
  5
E37
330
75F
100
AcDbEntity
  8
OBJECT
100
AcDbPolyline
 90
        4
 70
     1
 43
0.0
 10
15.09787422631096
 20
12.13031736295449
 42
-0.9999999999999998
 10
15.09787422631096
 20
12.51031736295449
 10
15.34787422631096
 20
12.51031736295449
 42
-0.9999999999999998
 10
15.34787422631096
 20
12.13031736295449
  0
LWPOLYLINE
  5
E4E
330
75F
100
AcDbEntity
  8
OBJECT
100
AcDbPolyline
 90
        4
 70
     1
 43
0.0
 10
37.09787422631096
 20
12.13031736295449
 42
-0.9999999999999998
 10
37.09787422631096
 20
12.51031736295449
 10
37.34787422631096
 20
12.51031736295449
 42
-0.9999999999999998
 10
37.34787422631096
 20
12.13031736295449
  0
DIMENSION
  5
E4F
330
75F
100
AcDbEntity
  8
DIM
100
AcDbDimension
  2
*D36
 10
37.53787422631096
 20
11.62458479605456
 30
0.0
 11
34.43287422631096
 21
11.62458479605456
 31
0.0
 70
   160
  1
<> REF.
  3
23NSTD
100
AcDbAlignedDimension
 13
36.90787422631096
 23
12.32031736295449
 33
0.0
 14
37.53787422631096
 24
12.32031736295449
 34
0.0
100
AcDbRotatedDimension
  0
TEXT
  5
EC5
330
75F
100
AcDbEntity
  8
TEXT
100
AcDbText
 10
45.66476057238316
 20
29.84517488628751
 30
0.0
 40
0.5620000000000001
  1
5-19-10
 41
0.75
 72
     1
 11
46.89413557238315
 21
29.84517488628751
 31
0.0
100
AcDbText
  0
ENDSEC
  0
SECTION
  2
OBJECTS
  0
DICTIONARY
  5
74D
330
0
100
AcDbDictionary
  3
ACAD_GROUP
350
74E
  3
ACAD_LAYOUT
350
75A
  3
ACAD_MLINESTYLE
350
757
  3
ACAD_PLOTSETTINGS
350
759
  3
ACAD_PLOTSTYLENAME
350
74F
  3
ACDBHEADERROUNDTRIPXREC
350
103E
  0
DICTIONARY
  5
1061
330
75F
100
AcDbDictionary
280
     1
  3
ACAD_LAYOUTSELFREF
360
1062
  0
DICTIONARY
  5
105F
330
75B
100
AcDbDictionary
280
     1
  3
ACAD_LAYOUTSELFREF
360
1060
  0
DICTIONARY
  5
74E
102
{ACAD_REACTORS
330
74D
102
}
330
74D
100
AcDbDictionary
  0
DICTIONARY
  5
75A
102
{ACAD_REACTORS
330
74D
102
}
330
74D
100
AcDbDictionary
  0
DICTIONARY
  5
757
102
{ACAD_REACTORS
330
74D
102
}
330
74D
100
AcDbDictionary
  3
STANDARD
350
758
  0
DICTIONARY
  5
759
102
{ACAD_REACTORS
330
74D
102
}
330
74D
100
AcDbDictionary
  0
ACDBDICTIONARYWDFLT
  5
74F
102
{ACAD_REACTORS
330
74D
102
}
330
74D
100
AcDbDictionary
281
     1
  3
Normal
350
750
100
AcDbDictionaryWithDefault
340
750
  0
DICTIONARY
  5
103E
102
{ACAD_REACTORS
330
74D
102
}
330
74D
100
AcDbDictionary
  3
TSTACKALIGN
350
103F
  3
TSTACKSIZE
350
1040
  3
HYPERLINKBASE
350
1041
  3
STYLESHEET
350
1042
  3
LAYOUTDICT
350
1043
  3
PLOTSETDICT
350
1044
  3
PLOTSTYLNAMDICT
350
1045
  3
LWETCUNION
350
1046
  3
INSUNITS
350
1047
  3
CEPSNTYPE
350
1048
  3
FINGERPRINTGUID
350
1049
  3
VERSIONGUID
350
104A
  3
PSVPSCALE
350
104B
  3
DIMSTYLEDATA
350
104C
  3
PUCSORTHOREF
350
104D
  3
PUCSORTHOVIEW
350
104E
  3
PUCSBASE
350
104F
  3
PUCSORGTOP
350
1050
  3
PUCSORGBOTTOM
350
1051
  3
PUCSORGLEFT
350
1052
  3
PUCSORGRIGHT
350
1053
  3
PUCSORGFRONT
350
1054
  3
PUCSORGBACK
350
1055
  3
UCSORTHOREF
350
1056
  3
UCSORTHOVIEW
350
1057
  3
UCSBASE
350
1058
  3
UCSORGTOP
350
1059
  3
UCSORGBOTTOM
350
105A
  3
UCSORGLEFT
350
105B
  3
UCSORGRIGHT
350
105C
  3
UCSORGFRONT
350
105D
  3
UCSORGBACK
350
105E
  0
XRECORD
  5
1062
102
{ACAD_REACTORS
330
1061
102
}
330
1061
100
AcDbXrecord
340
75F
  0
XRECORD
  5
1060
102
{ACAD_REACTORS
330
105F
102
}
330
105F
100
AcDbXrecord
340
75B
  0
MLINESTYLE
  5
758
102
{ACAD_REACTORS
330
757
102
}
330
757
100
AcDbMlineStyle
  2
STANDARD
 70
     0
  3

 62
   256
 51
90.0
 52
90.0
 71
     2
 49
0.5
 62
   256
  6
BYLAYER
 49
-0.5
 62
   256
  6
BYLAYER
  0
ACDBPLACEHOLDER
  5
750
102
{ACAD_REACTORS
330
74F
102
}
330
74F
100
AcDbPlaceHolder
280
     0
  0
XRECORD
  5
103F
102
{ACAD_REACTORS
330
103E
102
}
330
103E
100
AcDbXrecord
 90
        1
  0
XRECORD
  5
1040
102
{ACAD_REACTORS
330
103E
102
}
330
103E
100
AcDbXrecord
 90
       70
  0
XRECORD
  5
1041
102
{ACAD_REACTORS
330
103E
102
}
330
103E
100
AcDbXrecord
  1

  0
XRECORD
  5
1042
102
{ACAD_REACTORS
330
103E
102
}
330
103E
100
AcDbXrecord
  1
monochrome.ctb
  0
XRECORD
  5
1043
102
{ACAD_REACTORS
330
103E
102
}
330
103E
100
AcDbXrecord
340
75A
  0
XRECORD
  5
1044
102
{ACAD_REACTORS
330
103E
102
}
330
103E
100
AcDbXrecord
340
759
  0
XRECORD
  5
1045
102
{ACAD_REACTORS
330
103E
102
}
330
103E
100
AcDbXrecord
340
74F
  0
XRECORD
  5
1046
102
{ACAD_REACTORS
330
103E
102
}
330
103E
100
AcDbXrecord
 90
    10781
  0
XRECORD
  5
1047
102
{ACAD_REACTORS
330
103E
102
}
330
103E
100
AcDbXrecord
 90
        0
  0
XRECORD
  5
1048
102
{ACAD_REACTORS
330
103E
102
}
330
103E
100
AcDbXrecord
 90
        0
  0
XRECORD
  5
1049
102
{ACAD_REACTORS
330
103E
102
}
330
103E
100
AcDbXrecord
  1
{440C3AC0-1FC7-4128-838D-2ED4A6EAE362}
  0
XRECORD
  5
104A
102
{ACAD_REACTORS
330
103E
102
}
330
103E
100
AcDbXrecord
  1
{707D6FCE-0D8E-4823-B422-DFCDDEB9A347}
  0
XRECORD
  5
104B
102
{ACAD_REACTORS
330
103E
102
}
330
103E
100
AcDbXrecord
 40
0.0
  0
XRECORD
  5
104C
102
{ACAD_REACTORS
330
103E
102
}
330
103E
100
AcDbXrecord
1000
DSTYLE
1002
{
1070
   289
 70
     1
1002
}
  0
XRECORD
  5
104D
102
{ACAD_REACTORS
330
103E
102
}
330
103E
100
AcDbXrecord
340
0
  0
XRECORD
  5
104E
102
{ACAD_REACTORS
330
103E
102
}
330
103E
100
AcDbXrecord
 70
     0
  0
XRECORD
  5
104F
102
{ACAD_REACTORS
330
103E
102
}
330
103E
100
AcDbXrecord
340
0
  0
XRECORD
  5
1050
102
{ACAD_REACTORS
330
103E
102
}
330
103E
100
AcDbXrecord
 10
0.0
 20
0.0
 30
0.0
  0
XRECORD
  5
1051
102
{ACAD_REACTORS
330
103E
102
}
330
103E
100
AcDbXrecord
 10
0.0
 20
0.0
 30
0.0
  0
XRECORD
  5
1052
102
{ACAD_REACTORS
330
103E
102
}
330
103E
100
AcDbXrecord
 10
0.0
 20
0.0
 30
0.0
  0
XRECORD
  5
1053
102
{ACAD_REACTORS
330
103E
102
}
330
103E
100
AcDbXrecord
 10
0.0
 20
0.0
 30
0.0
  0
XRECORD
  5
1054
102
{ACAD_REACTORS
330
103E
102
}
330
103E
100
AcDbXrecord
 10
0.0
 20
0.0
 30
0.0
  0
XRECORD
  5
1055
102
{ACAD_REACTORS
330
103E
102
}
330
103E
100
AcDbXrecord
 10
0.0
 20
0.0
 30
0.0
  0
XRECORD
  5
1056
102
{ACAD_REACTORS
330
103E
102
}
330
103E
100
AcDbXrecord
340
0
  0
XRECORD
  5
1057
102
{ACAD_REACTORS
330
103E
102
}
330
103E
100
AcDbXrecord
 70
     0
  0
XRECORD
  5
1058
102
{ACAD_REACTORS
330
103E
102
}
330
103E
100
AcDbXrecord
340
0
  0
XRECORD
  5
1059
102
{ACAD_REACTORS
330
103E
102
}
330
103E
100
AcDbXrecord
 10
0.0
 20
0.0
 30
0.0
  0
XRECORD
  5
105A
102
{ACAD_REACTORS
330
103E
102
}
330
103E
100
AcDbXrecord
 10
0.0
 20
0.0
 30
0.0
  0
XRECORD
  5
105B
102
{ACAD_REACTORS
330
103E
102
}
330
103E
100
AcDbXrecord
 10
0.0
 20
0.0
 30
0.0
  0
XRECORD
  5
105C
102
{ACAD_REACTORS
330
103E
102
}
330
103E
100
AcDbXrecord
 10
0.0
 20
0.0
 30
0.0
  0
XRECORD
  5
105D
102
{ACAD_REACTORS
330
103E
102
}
330
103E
100
AcDbXrecord
 10
0.0
 20
0.0
 30
0.0
  0
XRECORD
  5
105E
102
{ACAD_REACTORS
330
103E
102
}
330
103E
100
AcDbXrecord
 10
0.0
 20
0.0
 30
0.0
  0
ENDSEC
  0
EOF
