  0
SECTION
  2
HEADER
  9
$ACADVER
  1
AC1014
  9
$ACADMAINTVER
 70
     9
  9
$DWGCODEPAGE
  3
ANSI_1252
  9
$INSBASE
 10
0.0
 20
0.0
 30
0.0
  9
$EXTMIN
 10
0.0
 20
0.0
 30
0.0
  9
$EXTMAX
 10
49.8
 20
28.97999999999999
 30
0.0
  9
$LIMMIN
 10
0.0
 20
0.0
  9
$LIMMAX
 10
46.5
 20
30.35999999999999
  9
$ORTHOMODE
 70
     1
  9
$REGENMODE
 70
     1
  9
$FILLMODE
 70
     1
  9
$QTEXTMODE
 70
     0
  9
$MIRRTEXT
 70
     0
  9
$DRAGMODE
 70
     2
  9
$LTSCALE
 40
1.0
  9
$OSMODE
 70
   229
  9
$ATTMODE
 70
     1
  9
$TEXTSIZE
 40
0.375
  9
$TRACEWID
 40
0.05
  9
$TEXTSTYLE
  7
TXT
  9
$CLAYER
  8
OBJECT
  9
$CELTYPE
  6
BYLAYER
  9
$CECOLOR
 62
   256
  9
$CELTSCALE
 40
1.0
  9
$DELOBJ
 70
     1
  9
$DISPSILH
 70
     0
  9
$DIMSCALE
 40
3.0
  9
$DIMASZ
 40
0.18
  9
$DIMEXO
 40
0.063
  9
$DIMDLI
 40
0.281
  9
$DIMRND
 40
0.0
  9
$DIMDLE
 40
0.0
  9
$DIMEXE
 40
0.093
  9
$DIMTP
 40
0.0
  9
$DIMTM
 40
0.0
  9
$DIMTXT
 40
0.125
  9
$DIMCEN
 40
0.09
  9
$DIMTSZ
 40
0.0
  9
$DIMTOL
 70
     0
  9
$DIMLIM
 70
     0
  9
$DIMTIH
 70
     1
  9
$DIMTOH
 70
     1
  9
$DIMSE1
 70
     0
  9
$DIMSE2
 70
     0
  9
$DIMTAD
 70
     0
  9
$DIMZIN
 70
     0
  9
$DIMBLK
  1

  9
$DIMASO
 70
     1
  9
$DIMSHO
 70
     1
  9
$DIMPOST
  1

  9
$DIMAPOST
  1

  9
$DIMALT
 70
     0
  9
$DIMALTD
 70
     2
  9
$DIMALTF
 40
25.4
  9
$DIMLFAC
 40
1.0
  9
$DIMTOFL
 70
     0
  9
$DIMTVP
 40
0.0
  9
$DIMTIX
 70
     0
  9
$DIMSOXD
 70
     0
  9
$DIMSAH
 70
     0
  9
$DIMBLK1
  1

  9
$DIMBLK2
  1

  9
$DIMSTYLE
  2
23NSTD
  9
$DIMCLRD
 70
     0
  9
$DIMCLRE
 70
     0
  9
$DIMCLRT
 70
     0
  9
$DIMTFAC
 40
1.0
  9
$DIMGAP
 40
0.09
  9
$DIMJUST
 70
     0
  9
$DIMSD1
 70
     0
  9
$DIMSD2
 70
     0
  9
$DIMTOLJ
 70
     1
  9
$DIMTZIN
 70
     0
  9
$DIMALTZ
 70
     0
  9
$DIMALTTZ
 70
     0
  9
$DIMFIT
 70
     1
  9
$DIMUPT
 70
     0
  9
$DIMUNIT
 70
     2
  9
$DIMDEC
 70
     3
  9
$DIMTDEC
 70
     3
  9
$DIMALTU
 70
     2
  9
$DIMALTTD
 70
     2
  9
$DIMTXSTY
  7
TXT
  9
$DIMAUNIT
 70
     0
  9
$LUNITS
 70
     2
  9
$LUPREC
 70
     3
  9
$SKETCHINC
 40
0.1
  9
$FILLETRAD
 40
0.0
  9
$AUNITS
 70
     0
  9
$AUPREC
 70
     0
  9
$MENU
  1
acad
  9
$ELEVATION
 40
0.0
  9
$PELEVATION
 40
0.0
  9
$THICKNESS
 40
0.0
  9
$LIMCHECK
 70
     0
  9
$BLIPMODE
 70
     0
  9
$CHAMFERA
 40
0.0
  9
$CHAMFERB
 40
0.0
  9
$CHAMFERC
 40
0.0
  9
$CHAMFERD
 40
0.0
  9
$SKPOLY
 70
     0
  9
$TDCREATE
 40
2448656.525045717
  9
$TDUPDATE
 40
2455336.414585497
  9
$TDINDWG
 40
0.4412495255
  9
$TDUSRTIMER
 40
0.4412495255
  9
$USRTIMER
 70
     1
  9
$ANGBASE
 50
0.0
  9
$ANGDIR
 70
     0
  9
$PDMODE
 70
     0
  9
$PDSIZE
 40
0.0
  9
$PLINEWID
 40
0.0
  9
$COORDS
 70
     0
  9
$SPLFRAME
 70
     0
  9
$SPLINETYPE
 70
     6
  9
$SPLINESEGS
 70
     8
  9
$ATTDIA
 70
     0
  9
$ATTREQ
 70
     1
  9
$HANDLING
 70
  4097
  9
$HANDSEED
  5
1381
  9
$SURFTAB1
 70
     6
  9
$SURFTAB2
 70
     6
  9
$SURFTYPE
 70
     6
  9
$SURFU
 70
     6
  9
$SURFV
 70
     6
  9
$UCSNAME
  2

  9
$UCSORG
 10
0.0
 20
0.0
 30
0.0
  9
$UCSXDIR
 10
1.0
 20
0.0
 30
0.0
  9
$UCSYDIR
 10
0.0
 20
1.0
 30
0.0
  9
$PUCSNAME
  2

  9
$PUCSORG
 10
0.0
 20
0.0
 30
0.0
  9
$PUCSXDIR
 10
1.0
 20
0.0
 30
0.0
  9
$PUCSYDIR
 10
0.0
 20
1.0
 30
0.0
  9
$USERI1
 70
     0
  9
$USERI2
 70
     0
  9
$USERI3
 70
     0
  9
$USERI4
 70
     0
  9
$USERI5
 70
     0
  9
$USERR1
 40
0.0
  9
$USERR2
 40
0.0
  9
$USERR3
 40
0.0
  9
$USERR4
 40
0.0
  9
$USERR5
 40
0.0
  9
$WORLDVIEW
 70
     1
  9
$SHADEDGE
 70
     3
  9
$SHADEDIF
 70
    70
  9
$TILEMODE
 70
     1
  9
$MAXACTVP
 70
    16
  9
$PINSBASE
 10
0.0
 20
0.0
 30
0.0
  9
$PLIMCHECK
 70
     0
  9
$PEXTMIN
 10
1.000000000000000E+20
 20
1.000000000000000E+20
 30
1.000000000000000E+20
  9
$PEXTMAX
 10
-1.000000000000000E+20
 20
-1.000000000000000E+20
 30
-1.000000000000000E+20
  9
$PLIMMIN
 10
0.0
 20
0.0
  9
$PLIMMAX
 10
12.0
 20
9.0
  9
$UNITMODE
 70
     0
  9
$VISRETAIN
 70
     0
  9
$PLINEGEN
 70
     0
  9
$PSLTSCALE
 70
     0
  9
$TREEDEPTH
 70
  3020
  9
$PICKSTYLE
 70
     1
  9
$CMLSTYLE
  2
STANDARD
  9
$CMLJUST
 70
     0
  9
$CMLSCALE
 40
1.0
  9
$PROXYGRAPHICS
 70
     1
  9
$MEASUREMENT
 70
     0
  0
ENDSEC
  0
SECTION
  2
CLASSES
  0
CLASS
  1
ACDBDICTIONARYWDFLT
  2
AcDbDictionaryWithDefault
  3
AutoCAD 2000
 90
        0
280
     0
281
     0
  0
CLASS
  1
ACDBPLACEHOLDER
  2
AcDbPlaceHolder
  3
AutoCAD 2000
 90
        0
280
     0
281
     0
  0
CLASS
  1
LAYOUT
  2
AcDbLayout
  3
AutoCAD 2000
 90
        0
280
     0
281
     0
  0
CLASS
  1
LONG_TRANSACTION
  2
AcDbLongTransaction
  3
AutoCAD 2000
 90
        0
280
     0
281
     0
  0
CLASS
  1
LWPOLYLINE
  2
AcDbPolyline
  3
AutoCAD 2000
 90
        0
280
     0
281
     1
  0
CLASS
  1
HATCH
  2
AcDbHatch
  3
AutoCAD 2000
 90
        0
280
     0
281
     1
  0
CLASS
  1
XRECORD
  2
AcDbXrecord
  3
AutoCAD 2000
 90
        0
280
     0
281
     0
  0
ENDSEC
  0
SECTION
  2
TABLES
  0
TABLE
  2
VPORT
  5
8
330
0
100
AcDbSymbolTable
 70
     2
  0
VPORT
  5
135B
330
8
100
AcDbSymbolTableRecord
100
AcDbViewportTableRecord
  2
*ACTIVE
 70
     0
 10
0.0
 20
0.0
 11
1.0
 21
1.0
 12
24.90000011594966
 22
14.48974738433695
 13
0.0
 23
0.0
 14
1.0
 24
1.0
 15
0.5
 25
0.5
 16
0.0
 26
0.0
 36
1.0
 17
0.0
 27
0.0
 37
0.0
 40
29.28802858220741
 41
1.931095406360423
 42
50.0
 43
0.0
 44
0.0
 50
0.0
 51
0.0
 71
     0
 72
   100
 73
     1
 74
     0
 75
     0
 76
     0
 77
     0
 78
     0
  0
ENDTAB
  0
TABLE
  2
LTYPE
  5
5
330
0
100
AcDbSymbolTable
 70
     4
  0
LTYPE
  5
13
330
5
100
AcDbSymbolTableRecord
100
AcDbLinetypeTableRecord
  2
BYBLOCK
 70
     0
  3

 72
    65
 73
     0
 40
0.0
  0
LTYPE
  5
14
330
5
100
AcDbSymbolTableRecord
100
AcDbLinetypeTableRecord
  2
BYLAYER
 70
     0
  3

 72
    65
 73
     0
 40
0.0
  0
LTYPE
  5
15
330
5
100
AcDbSymbolTableRecord
100
AcDbLinetypeTableRecord
  2
CONTINUOUS
 70
     0
  3
Solid line
 72
    65
 73
     0
 40
0.0
  0
LTYPE
  5
144
330
5
100
AcDbSymbolTableRecord
100
AcDbLinetypeTableRecord
  2
HIDDEN
 70
     0
  3
_ _ _ _ _ _ _ _ _ _ _ _ _ _ _ _ _ _ _ _ _ _ _
 72
    65
 73
     2
 40
0.375
 49
0.25
 74
     0
 49
-0.125
 74
     0
  0
LTYPE
  5
145
330
5
100
AcDbSymbolTableRecord
100
AcDbLinetypeTableRecord
  2
PHANTOM
 70
     0
  3
_____ _ _ _____ _ _ _____ _ _ _____ _ _ ____
 72
    65
 73
     6
 40
2.5
 49
1.25
 74
     0
 49
-0.25
 74
     0
 49
0.25
 74
     0
 49
-0.25
 74
     0
 49
0.25
 74
     0
 49
-0.25
 74
     0
  0
LTYPE
  5
146
330
5
100
AcDbSymbolTableRecord
100
AcDbLinetypeTableRecord
  2
CENTER
 70
     0
  3
____ _ ____ _ ____ _ ____ _ ____ _ ____ _ ____
 72
    65
 73
     4
 40
2.0
 49
1.25
 74
     0
 49
-0.25
 74
     0
 49
0.25
 74
     0
 49
-0.25
 74
     0
  0
ENDTAB
  0
TABLE
  2
LAYER
  5
2
330
0
100
AcDbSymbolTable
 70
     9
  0
LAYER
  5
10
330
2
100
AcDbSymbolTableRecord
100
AcDbLayerTableRecord
  2
0
 70
     0
 62
     7
  6
CONTINUOUS
  0
LAYER
  5
14B
330
2
100
AcDbSymbolTableRecord
100
AcDbLayerTableRecord
  2
OBJECT
 70
     0
 62
     7
  6
CONTINUOUS
  0
LAYER
  5
14C
330
2
100
AcDbSymbolTableRecord
100
AcDbLayerTableRecord
  2
DIM
 70
     0
 62
     7
  6
CONTINUOUS
  0
LAYER
  5
14D
330
2
100
AcDbSymbolTableRecord
100
AcDbLayerTableRecord
  2
HIDDEN
 70
     0
 62
     7
  6
HIDDEN
  0
LAYER
  5
14E
330
2
100
AcDbSymbolTableRecord
100
AcDbLayerTableRecord
  2
BEND
 70
     0
 62
     7
  6
PHANTOM
  0
LAYER
  5
14F
330
2
100
AcDbSymbolTableRecord
100
AcDbLayerTableRecord
  2
TEXT
 70
     0
 62
     7
  6
CONTINUOUS
  0
LAYER
  5
150
330
2
100
AcDbSymbolTableRecord
100
AcDbLayerTableRecord
  2
TITLE
 70
     0
 62
     7
  6
CONTINUOUS
  0
LAYER
  5
151
330
2
100
AcDbSymbolTableRecord
100
AcDbLayerTableRecord
  2
CENTER
 70
     0
 62
     7
  6
CENTER
  0
LAYER
  5
152
330
2
100
AcDbSymbolTableRecord
100
AcDbLayerTableRecord
  2
DEFPOINTS
 70
     0
 62
     7
  6
CONTINUOUS
  0
ENDTAB
  0
TABLE
  2
STYLE
  5
3
330
0
100
AcDbSymbolTable
 70
     2
  0
STYLE
  5
11
330
3
100
AcDbSymbolTableRecord
100
AcDbTextStyleTableRecord
  2
TXT
 70
     0
 40
0.0
 41
0.75
 50
0.0
 71
     0
 42
0.375
  3
TXT.shx
  4

  0
STYLE
  5
134F
330
3
100
AcDbSymbolTableRecord
100
AcDbTextStyleTableRecord
  2
STANDARD
 70
     0
 40
0.0
 41
1.0
 50
0.0
 71
     0
 42
0.2
  3

  4

  0
ENDTAB
  0
TABLE
  2
VIEW
  5
6
330
0
100
AcDbSymbolTable
 70
     0
  0
ENDTAB
  0
TABLE
  2
UCS
  5
7
330
0
100
AcDbSymbolTable
 70
     0
  0
ENDTAB
  0
TABLE
  2
APPID
  5
9
330
0
100
AcDbSymbolTable
 70
     1
  0
APPID
  5
12
330
9
100
AcDbSymbolTableRecord
100
AcDbRegAppTableRecord
  2
ACAD
 70
     0
  0
ENDTAB
  0
TABLE
  2
DIMSTYLE
  5
A
330
0
100
AcDbSymbolTable
 70
     2
  0
DIMSTYLE
105
149
102
{ACAD_REACTORS
330
410
330
413
330
419
330
41A
330
41B
330
41D
330
41E
330
41F
330
420
330
422
330
423
330
424
330
429
330
42A
330
42B
330
42C
330
42D
330
46F
330
470
330
46E
330
4BC
330
6AB
330
123A
330
129D
102
}
330
A
100
AcDbSymbolTableRecord
100
AcDbDimStyleTableRecord
  2
23NSTD
 70
     0
  3

  4

  5

  6

  7

 40
3.0
 41
0.18
 42
0.063
 43
0.281
 44
0.093
 45
0.0
 46
0.0
 47
0.0
 48
0.0
140
0.125
141
0.09
142
0.0
143
25.4
144
1.0
145
0.0
146
1.0
147
0.09
 71
     0
 72
     0
 73
     1
 74
     1
 75
     0
 76
     0
 77
     0
 78
     0
170
     0
171
     2
172
     0
173
     0
174
     0
175
     0
176
     0
177
     0
178
     0
270
     2
271
     3
272
     3
273
     2
274
     2
340
11
275
     0
280
     0
281
     0
282
     0
283
     1
284
     0
285
     0
286
     0
287
     1
288
     0
  0
DIMSTYLE
105
14A
102
{ACAD_REACTORS
330
412
330
414
330
41C
330
421
330
425
330
427
330
43F
330
473
102
}
330
A
100
AcDbSymbolTableRecord
100
AcDbDimStyleTableRecord
  2
23NSTDI
 70
     0
  3

  4

  5

  6

  7

 40
3.0
 41
0.18
 42
0.063
 43
0.38
 44
0.093
 45
0.0
 46
0.0
 47
0.0
 48
0.0
140
0.125
141
0.09
142
0.0
143
25.4
144
1.0
145
0.0
146
1.0
147
0.09
 71
     0
 72
     0
 73
     1
 74
     1
 75
     0
 76
     0
 77
     0
 78
     0
170
     0
171
     2
172
     0
173
     0
174
     1
175
     0
176
     0
177
     0
178
     0
270
     2
271
     3
272
     3
273
     2
274
     2
340
11
275
     0
280
     0
281
     0
282
     0
283
     1
284
     0
285
     0
286
     0
287
     3
288
     0
  0
ENDTAB
  0
TABLE
  2
BLOCK_RECORD
  5
1
330
0
100
AcDbSymbolTable
 70
    33
  0
BLOCK_RECORD
  5
1E
102
{ACAD_XDICTIONARY
360
137F
102
}
330
1
100
AcDbSymbolTableRecord
100
AcDbBlockTableRecord
  2
*MODEL_SPACE
  0
BLOCK_RECORD
  5
1A
102
{ACAD_XDICTIONARY
360
137D
102
}
330
1
100
AcDbSymbolTableRecord
100
AcDbBlockTableRecord
  2
*PAPER_SPACE
  0
BLOCK_RECORD
  5
143
330
1
100
AcDbSymbolTableRecord
100
AcDbBlockTableRecord
  2
HBS
  0
BLOCK_RECORD
  5
488
330
1
100
AcDbSymbolTableRecord
100
AcDbBlockTableRecord
  2
*D1
  0
BLOCK_RECORD
  5
4A2
330
1
100
AcDbSymbolTableRecord
100
AcDbBlockTableRecord
  2
*D2
  0
BLOCK_RECORD
  5
4AF
330
1
100
AcDbSymbolTableRecord
100
AcDbBlockTableRecord
  2
*D3
  0
BLOCK_RECORD
  5
4BD
330
1
100
AcDbSymbolTableRecord
100
AcDbBlockTableRecord
  2
*D4
  0
BLOCK_RECORD
  5
4D4
330
1
100
AcDbSymbolTableRecord
100
AcDbBlockTableRecord
  2
*D5
  0
BLOCK_RECORD
  5
4E1
330
1
100
AcDbSymbolTableRecord
100
AcDbBlockTableRecord
  2
*D6
  0
BLOCK_RECORD
  5
4FC
330
1
100
AcDbSymbolTableRecord
100
AcDbBlockTableRecord
  2
*D7
  0
BLOCK_RECORD
  5
509
330
1
100
AcDbSymbolTableRecord
100
AcDbBlockTableRecord
  2
*D8
  0
BLOCK_RECORD
  5
516
330
1
100
AcDbSymbolTableRecord
100
AcDbBlockTableRecord
  2
*D9
  0
BLOCK_RECORD
  5
523
330
1
100
AcDbSymbolTableRecord
100
AcDbBlockTableRecord
  2
*D10
  0
BLOCK_RECORD
  5
530
330
1
100
AcDbSymbolTableRecord
100
AcDbBlockTableRecord
  2
*D11
  0
BLOCK_RECORD
  5
53D
330
1
100
AcDbSymbolTableRecord
100
AcDbBlockTableRecord
  2
*D12
  0
BLOCK_RECORD
  5
54A
330
1
100
AcDbSymbolTableRecord
100
AcDbBlockTableRecord
  2
*D13
  0
BLOCK_RECORD
  5
557
330
1
100
AcDbSymbolTableRecord
100
AcDbBlockTableRecord
  2
*D14
  0
BLOCK_RECORD
  5
564
330
1
100
AcDbSymbolTableRecord
100
AcDbBlockTableRecord
  2
*D15
  0
BLOCK_RECORD
  5
589
330
1
100
AcDbSymbolTableRecord
100
AcDbBlockTableRecord
  2
*D16
  0
BLOCK_RECORD
  5
597
330
1
100
AcDbSymbolTableRecord
100
AcDbBlockTableRecord
  2
*D17
  0
BLOCK_RECORD
  5
5A4
330
1
100
AcDbSymbolTableRecord
100
AcDbBlockTableRecord
  2
*D18
  0
BLOCK_RECORD
  5
5B2
330
1
100
AcDbSymbolTableRecord
100
AcDbBlockTableRecord
  2
*D19
  0
BLOCK_RECORD
  5
5C0
330
1
100
AcDbSymbolTableRecord
100
AcDbBlockTableRecord
  2
*D20
  0
BLOCK_RECORD
  5
5DB
330
1
100
AcDbSymbolTableRecord
100
AcDbBlockTableRecord
  2
*D21
  0
BLOCK_RECORD
  5
5E8
330
1
100
AcDbSymbolTableRecord
100
AcDbBlockTableRecord
  2
*D22
  0
BLOCK_RECORD
  5
62F
330
1
100
AcDbSymbolTableRecord
100
AcDbBlockTableRecord
  2
*D23
  0
BLOCK_RECORD
  5
63C
330
1
100
AcDbSymbolTableRecord
100
AcDbBlockTableRecord
  2
*D24
  0
BLOCK_RECORD
  5
649
330
1
100
AcDbSymbolTableRecord
100
AcDbBlockTableRecord
  2
*D25
  0
BLOCK_RECORD
  5
656
330
1
100
AcDbSymbolTableRecord
100
AcDbBlockTableRecord
  2
*D26
  0
BLOCK_RECORD
  5
663
330
1
100
AcDbSymbolTableRecord
100
AcDbBlockTableRecord
  2
*D27
  0
BLOCK_RECORD
  5
670
330
1
100
AcDbSymbolTableRecord
100
AcDbBlockTableRecord
  2
*D28
  0
BLOCK_RECORD
  5
68A
330
1
100
AcDbSymbolTableRecord
100
AcDbBlockTableRecord
  2
*D29
  0
BLOCK_RECORD
  5
6AC
330
1
100
AcDbSymbolTableRecord
100
AcDbBlockTableRecord
  2
*D30
  0
BLOCK_RECORD
  5
123B
330
1
100
AcDbSymbolTableRecord
100
AcDbBlockTableRecord
  2
*D31
  0
BLOCK_RECORD
  5
129E
330
1
100
AcDbSymbolTableRecord
100
AcDbBlockTableRecord
  2
*D32
  0
ENDTAB
  0
ENDSEC
  0
SECTION
  2
BLOCKS
  0
BLOCK
  5
156
330
1E
100
AcDbEntity
  8
0
100
AcDbBlockBegin
  2
*MODEL_SPACE
 70
     0
 10
0.0
 20
0.0
 30
0.0
  3
*MODEL_SPACE
  1

  0
ENDBLK
  5
157
330
1E
100
AcDbEntity
  8
0
100
AcDbBlockEnd
  0
BLOCK
  5
154
330
1A
100
AcDbEntity
 67
     1
  8
0
100
AcDbBlockBegin
  2
*PAPER_SPACE
 70
     0
 10
0.0
 20
0.0
 30
0.0
  3
*PAPER_SPACE
  1

  0
ENDBLK
  5
155
330
1A
100
AcDbEntity
 67
     1
  8
0
100
AcDbBlockEnd
  0
BLOCK
  5
309
330
143
100
AcDbEntity
  8
0
100
AcDbBlockBegin
  2
HBS
 70
     0
 10
0.0
 20
0.0
 30
0.0
  3
HBS
  1

  0
LINE
  5
B20
330
143
100
AcDbEntity
  8
TITLE
100
AcDbLine
 10
0.0619999999999976
 20
9.179999999999999
 30
0.0
 11
16.53799999999999
 21
9.180000000000003
 31
0.0
  0
TEXT
  5
B21
330
143
100
AcDbEntity
  8
TEXT
100
AcDbText
 10
0.2078333333333346
 20
9.220079195640076
 30
0.0
 40
0.125
  1
NAME
 72
     1
 11
0.4370000000000013
 21
9.220079195640076
 31
0.0
100
AcDbText
  0
TEXT
  5
B22
330
143
100
AcDbEntity
  8
TEXT
100
AcDbText
 10
0.2078333333333346
 20
9.42841252897341
 30
0.0
 40
0.125
  1
PART
 72
     1
 11
0.4370000000000013
 21
9.42841252897341
 31
0.0
100
AcDbText
  0
LINE
  5
B23
330
143
100
AcDbEntity
  8
TITLE
100
AcDbLine
 10
0.8120000000000009
 20
9.179999999999999
 30
0.0
 11
0.8119999999999976
 21
9.597999999999997
 31
0.0
  0
TEXT
  5
B24
330
143
100
AcDbEntity
  8
TEXT
100
AcDbText
 10
7.207833333333331
 20
9.42841252897341
 30
0.0
 40
0.125
  1
PART
 72
     1
 11
7.436999999999998
 21
9.42841252897341
 31
0.0
100
AcDbText
  0
TEXT
  5
B25
330
143
100
AcDbEntity
  8
TEXT
100
AcDbText
 10
7.311999999999998
 20
9.220079195640076
 30
0.0
 40
0.125
  1
No.
 72
     1
 11
7.436999999999998
 21
9.220079195640076
 31
0.0
100
AcDbText
  0
LINE
  5
B26
330
143
100
AcDbEntity
  8
TITLE
100
AcDbLine
 10
7.061999999999998
 20
9.597999999999997
 30
0.0
 11
7.061999999999998
 21
9.179999999999999
 31
0.0
  0
LINE
  5
B27
330
143
100
AcDbEntity
  8
TITLE
100
AcDbLine
 10
7.0
 20
9.597999999999997
 30
0.0
 11
7.0
 21
9.179999999999999
 31
0.0
  0
LINE
  5
B28
330
143
100
AcDbEntity
  8
TITLE
100
AcDbLine
 10
7.811999999999998
 20
9.597999999999997
 30
0.0
 11
7.811999999999998
 21
9.179999999999999
 31
0.0
  0
LINE
  5
B29
330
143
100
AcDbEntity
  8
TITLE
100
AcDbLine
 10
16.6
 20
9.659999999999996
 30
0.0
 11
16.59999999999999
 21
0.0
 31
0.0
  0
LINE
  5
B2A
330
143
100
AcDbEntity
  8
TITLE
100
AcDbLine
 10
16.59999999999999
 20
0.0
 30
0.0
 11
0.0
 21
0.0
 31
0.0
  0
LINE
  5
B2B
330
143
100
AcDbEntity
  8
TITLE
100
AcDbLine
 10
0.0
 20
0.0
 30
0.0
 11
0.0
 21
9.659999999999996
 31
0.0
  0
LINE
  5
B2C
330
143
100
AcDbEntity
  8
TITLE
100
AcDbLine
 10
0.0
 20
9.659999999999996
 30
0.0
 11
16.6
 21
9.659999999999996
 31
0.0
  0
LINE
  5
B2D
330
143
100
AcDbEntity
  8
TITLE
100
AcDbLine
 10
16.53799999999999
 20
9.598000000000006
 30
0.0
 11
16.53799999999999
 21
0.0620000000000012
 31
0.0
  0
LINE
  5
B2E
330
143
100
AcDbEntity
  8
TITLE
100
AcDbLine
 10
16.53799999999999
 20
0.0620000000000012
 30
0.0
 11
0.0620000000000012
 21
0.0620000000000012
 31
0.0
  0
LINE
  5
B2F
330
143
100
AcDbEntity
  8
TITLE
100
AcDbLine
 10
0.0620000000000012
 20
0.0620000000000012
 30
0.0
 11
0.0620000000000012
 21
9.597999999999997
 31
0.0
  0
LINE
  5
B30
330
143
100
AcDbEntity
  8
TITLE
100
AcDbLine
 10
0.0620000000000012
 20
9.597999999999997
 30
0.0
 11
16.53799999999999
 21
9.598000000000006
 31
0.0
  0
LINE
  5
B31
330
143
100
AcDbEntity
  8
TITLE
100
AcDbLine
 10
13.99999113305
 20
9.597999999999997
 30
0.0
 11
13.99999113305
 21
9.179999999999999
 31
0.0
  0
LINE
  5
B32
330
143
100
AcDbEntity
  8
TITLE
100
AcDbLine
 10
14.81199113305
 20
9.597999999999997
 30
0.0
 11
14.81199113305
 21
9.179999999999999
 31
0.0
  0
LINE
  5
B33
330
143
100
AcDbEntity
  8
TITLE
100
AcDbLine
 10
14.06199113305
 20
9.597999999999997
 30
0.0
 11
14.06199113305
 21
9.179999999999999
 31
0.0
  0
TEXT
  5
B34
330
143
100
AcDbEntity
  8
TEXT
100
AcDbText
 10
14.20782446638333
 20
9.220079195640076
 30
0.0
 40
0.125
  1
DATE
 72
     1
 11
14.43699113305
 21
9.220079195640076
 31
0.0
100
AcDbText
  0
TEXT
  5
B35
330
143
100
AcDbEntity
  8
TEXT
100
AcDbText
 10
14.22865779971666
 20
9.42841252897341
 30
0.0
 40
0.125
  1
REV.
 72
     1
 11
14.43699113305
 21
9.42841252897341
 31
0.0
100
AcDbText
  0
ENDBLK
  5
31F
330
143
100
AcDbEntity
  8
0
100
AcDbBlockEnd
  0
BLOCK
  5
493
330
488
100
AcDbEntity
  8
0
100
AcDbBlockBegin
  2
*D1
 70
     1
 10
0.0
 20
0.0
 30
0.0
  3
*D1
  1

  0
LINE
  5
107A
330
488
100
AcDbEntity
  8
DIM
 62
     0
100
AcDbLine
 10
24.48942655106796
 20
11.26456547604598
 30
0.0
 11
24.48942655106796
 21
9.013586876935708
 31
0.0
  0
LINE
  5
107B
330
488
100
AcDbEntity
  8
DIM
 62
     0
100
AcDbLine
 10
23.48942655106798
 20
11.89606547604599
 30
0.0
 11
23.48942655106798
 21
9.013586876935708
 31
0.0
  0
LINE
  5
107C
330
488
100
AcDbEntity
  8
DIM
 62
     0
100
AcDbLine
 10
25.02942655106796
 20
9.292586876935708
 30
0.0
 11
25.56942655106796
 21
9.292586876935708
 31
0.0
  0
LINE
  5
107D
330
488
100
AcDbEntity
  8
DIM
 62
     0
100
AcDbLine
 10
22.94942655106798
 20
9.292586876935708
 30
0.0
 11
22.40942655106798
 21
9.292586876935708
 31
0.0
  0
SOLID
  5
107E
330
488
100
AcDbEntity
  8
DIM
 62
     0
100
AcDbTrace
 10
25.02942655106796
 20
9.382586876935707
 30
0.0
 11
25.02942655106796
 21
9.202586876935708
 31
0.0
 12
24.48942655106796
 22
9.292586876935708
 32
0.0
 13
24.48942655106796
 23
9.292586876935708
 33
0.0
  0
SOLID
  5
107F
330
488
100
AcDbEntity
  8
DIM
 62
     0
100
AcDbTrace
 10
22.94942655106798
 20
9.382586876935707
 30
0.0
 11
22.94942655106798
 21
9.202586876935708
 31
0.0
 12
23.48942655106798
 22
9.292586876935708
 32
0.0
 13
23.48942655106798
 23
9.292586876935708
 33
0.0
  0
MTEXT
  5
1080
330
488
100
AcDbEntity
  8
DIM
 62
     0
100
AcDbMText
 10
21.69411405106798
 20
9.292586876935708
 30
0.0
 40
0.375
 41
0.0
 71
     5
 72
     1
  1
\A1;1.000
1001
ACAD
1000
MTEXTBEGIN
1070
    73
1070
     1
1070
    44
1040
1.0
1070
    74
1070
     0
1000
MTEXTEND
  0
POINT
  5
1081
330
488
100
AcDbEntity
  8
DEFPOINTS
 62
     0
100
AcDbPoint
 10
24.48942655106796
 20
11.45356547604598
 30
0.0
  0
POINT
  5
1082
330
488
100
AcDbEntity
  8
DEFPOINTS
 62
     0
100
AcDbPoint
 10
23.48942655106798
 20
12.08506547604599
 30
0.0
  0
POINT
  5
1083
330
488
100
AcDbEntity
  8
DEFPOINTS
 62
     0
100
AcDbPoint
 10
23.48942655106798
 20
9.292586876935708
 30
0.0
  0
ENDBLK
  5
494
330
488
100
AcDbEntity
  8
0
100
AcDbBlockEnd
  0
BLOCK
  5
4AD
330
4A2
100
AcDbEntity
  8
0
100
AcDbBlockBegin
  2
*D2
 70
     1
 10
0.0
 20
0.0
 30
0.0
  3
*D2
  1

  0
LINE
  5
10B6
330
4A2
100
AcDbEntity
  8
DIM
 62
     0
100
AcDbLine
 10
24.48942655106798
 20
11.26456547604598
 30
0.0
 11
24.48942655106798
 21
6.484586876935703
 31
0.0
  0
LINE
  5
10B7
330
4A2
100
AcDbEntity
  8
DIM
 62
     0
100
AcDbLine
 10
15.48942655106797
 20
11.89606547604599
 30
0.0
 11
15.48942655106797
 21
6.484586876935703
 31
0.0
  0
LINE
  5
10B8
330
4A2
100
AcDbEntity
  8
DIM
 62
     0
100
AcDbLine
 10
23.94942655106798
 20
6.763586876935703
 30
0.0
 11
20.75161405106797
 21
6.763586876935703
 31
0.0
  0
LINE
  5
10B9
330
4A2
100
AcDbEntity
  8
DIM
 62
     0
100
AcDbLine
 10
16.02942655106797
 20
6.763586876935703
 30
0.0
 11
19.22723905106797
 21
6.763586876935703
 31
0.0
  0
SOLID
  5
10BA
330
4A2
100
AcDbEntity
  8
DIM
 62
     0
100
AcDbTrace
 10
23.94942655106798
 20
6.853586876935703
 30
0.0
 11
23.94942655106798
 21
6.673586876935703
 31
0.0
 12
24.48942655106798
 22
6.763586876935703
 32
0.0
 13
24.48942655106798
 23
6.763586876935703
 33
0.0
  0
SOLID
  5
10BB
330
4A2
100
AcDbEntity
  8
DIM
 62
     0
100
AcDbTrace
 10
16.02942655106797
 20
6.853586876935703
 30
0.0
 11
16.02942655106797
 21
6.673586876935703
 31
0.0
 12
15.48942655106797
 22
6.763586876935703
 32
0.0
 13
15.48942655106797
 23
6.763586876935703
 33
0.0
  0
MTEXT
  5
10BC
330
4A2
100
AcDbEntity
  8
DIM
 62
     0
100
AcDbMText
 10
19.98942655106797
 20
6.763586876935703
 30
0.0
 40
0.375
 41
0.0
 71
     5
 72
     1
  1
\A1;9.000
1001
ACAD
1000
MTEXTBEGIN
1070
    73
1070
     1
1070
    44
1040
1.0
1070
    74
1070
     0
1000
MTEXTEND
  0
POINT
  5
10BD
330
4A2
100
AcDbEntity
  8
DEFPOINTS
 62
     0
100
AcDbPoint
 10
24.48942655106798
 20
11.45356547604598
 30
0.0
  0
POINT
  5
10BE
330
4A2
100
AcDbEntity
  8
DEFPOINTS
 62
     0
100
AcDbPoint
 10
15.48942655106797
 20
12.08506547604599
 30
0.0
  0
POINT
  5
10BF
330
4A2
100
AcDbEntity
  8
DEFPOINTS
 62
     0
100
AcDbPoint
 10
15.48942655106797
 20
6.763586876935703
 30
0.0
  0
ENDBLK
  5
4AE
330
4A2
100
AcDbEntity
  8
0
100
AcDbBlockEnd
  0
BLOCK
  5
4BA
330
4AF
100
AcDbEntity
  8
0
100
AcDbBlockBegin
  2
*D3
 70
     1
 10
0.0
 20
0.0
 30
0.0
  3
*D3
  1

  0
LINE
  5
1024
330
4AF
100
AcDbEntity
  8
DIM
 62
     0
100
AcDbLine
 10
15.21042655106797
 20
12.17456547604598
 30
0.0
 11
13.07328350180728
 21
12.17456547604598
 31
0.0
  0
LINE
  5
1025
330
4AF
100
AcDbEntity
  8
DIM
 62
     0
100
AcDbLine
 10
14.30042655106797
 20
11.31556547604599
 30
0.0
 11
13.07328350180728
 21
11.31556547604599
 31
0.0
  0
LINE
  5
1026
330
4AF
100
AcDbEntity
  8
DIM
 62
     0
100
AcDbLine
 10
13.35228350180728
 20
12.71456547604598
 30
0.0
 11
13.35228350180728
 21
13.25456547604598
 31
0.0
  0
LINE
  5
1027
330
4AF
100
AcDbEntity
  8
DIM
 62
     0
100
AcDbLine
 10
13.35228350180728
 20
10.77556547604599
 30
0.0
 11
13.35228350180728
 21
10.23556547604598
 31
0.0
  0
SOLID
  5
1028
330
4AF
100
AcDbEntity
  8
DIM
 62
     0
100
AcDbTrace
 10
13.26228350180728
 20
12.71456547604598
 30
0.0
 11
13.44228350180728
 21
12.71456547604598
 31
0.0
 12
13.35228350180728
 22
12.17456547604598
 32
0.0
 13
13.35228350180728
 23
12.17456547604598
 33
0.0
  0
SOLID
  5
1029
330
4AF
100
AcDbEntity
  8
DIM
 62
     0
100
AcDbTrace
 10
13.26228350180728
 20
10.77556547604599
 30
0.0
 11
13.44228350180728
 21
10.77556547604599
 31
0.0
 12
13.35228350180728
 22
11.31556547604599
 32
0.0
 13
13.35228350180728
 23
11.31556547604599
 33
0.0
  0
MTEXT
  5
102A
330
4AF
100
AcDbEntity
  8
DIM
 62
     0
100
AcDbMText
 10
13.35228350180728
 20
11.74506547604599
 30
0.0
 40
0.375
 41
0.0
 71
     5
 72
     1
  1
\A1;0.859
1001
ACAD
1000
MTEXTBEGIN
1070
    73
1070
     1
1070
    44
1040
1.0
1070
    74
1070
     0
1000
MTEXTEND
  0
POINT
  5
102B
330
4AF
100
AcDbEntity
  8
DEFPOINTS
 62
     0
100
AcDbPoint
 10
15.39942655106798
 20
12.17456547604598
 30
0.0
  0
POINT
  5
102C
330
4AF
100
AcDbEntity
  8
DEFPOINTS
 62
     0
100
AcDbPoint
 10
14.48942655106797
 20
11.31556547604599
 30
0.0
  0
POINT
  5
102D
330
4AF
100
AcDbEntity
  8
DEFPOINTS
 62
     0
100
AcDbPoint
 10
13.35228350180728
 20
11.31556547604599
 30
0.0
  0
ENDBLK
  5
4BB
330
4AF
100
AcDbEntity
  8
0
100
AcDbBlockEnd
  0
BLOCK
  5
4C8
330
4BD
100
AcDbEntity
  8
0
100
AcDbBlockBegin
  2
*D4
 70
     1
 10
0.0
 20
0.0
 30
0.0
  3
*D4
  1

  0
LINE
  5
10AC
330
4BD
100
AcDbEntity
  8
DIM
 62
     0
100
AcDbLine
 10
24.48942655106796
 20
11.26456547604598
 30
0.0
 11
24.48942655106796
 21
5.641586876935707
 31
0.0
  0
LINE
  5
10AD
330
4BD
100
AcDbEntity
  8
DIM
 62
     0
100
AcDbLine
 10
14.48942655106796
 20
11.26456547604598
 30
0.0
 11
14.48942655106796
 21
5.641586876935707
 31
0.0
  0
LINE
  5
10AE
330
4BD
100
AcDbEntity
  8
DIM
 62
     0
100
AcDbLine
 10
23.94942655106797
 20
5.920586876935707
 30
0.0
 11
20.32192655106797
 21
5.920586876935707
 31
0.0
  0
LINE
  5
10AF
330
4BD
100
AcDbEntity
  8
DIM
 62
     0
100
AcDbLine
 10
15.02942655106797
 20
5.920586876935707
 30
0.0
 11
18.65692655106796
 21
5.920586876935707
 31
0.0
  0
SOLID
  5
10B0
330
4BD
100
AcDbEntity
  8
DIM
 62
     0
100
AcDbTrace
 10
23.94942655106797
 20
6.010586876935707
 30
0.0
 11
23.94942655106797
 21
5.830586876935707
 31
0.0
 12
24.48942655106796
 22
5.920586876935707
 32
0.0
 13
24.48942655106796
 23
5.920586876935707
 33
0.0
  0
SOLID
  5
10B1
330
4BD
100
AcDbEntity
  8
DIM
 62
     0
100
AcDbTrace
 10
15.02942655106797
 20
6.010586876935707
 30
0.0
 11
15.02942655106797
 21
5.830586876935707
 31
0.0
 12
14.48942655106796
 22
5.920586876935707
 32
0.0
 13
14.48942655106796
 23
5.920586876935707
 33
0.0
  0
MTEXT
  5
10B2
330
4BD
100
AcDbEntity
  8
DIM
 62
     0
100
AcDbMText
 10
19.48942655106796
 20
5.920586876935707
 30
0.0
 40
0.375
 41
0.0
 71
     5
 72
     1
  1
\A1;10.000
1001
ACAD
1000
MTEXTBEGIN
1070
    73
1070
     1
1070
    44
1040
1.0
1070
    74
1070
     0
1000
MTEXTEND
  0
POINT
  5
10B3
330
4BD
100
AcDbEntity
  8
DEFPOINTS
 62
     0
100
AcDbPoint
 10
24.48942655106796
 20
11.45356547604598
 30
0.0
  0
POINT
  5
10B4
330
4BD
100
AcDbEntity
  8
DEFPOINTS
 62
     0
100
AcDbPoint
 10
14.48942655106796
 20
11.45356547604598
 30
0.0
  0
POINT
  5
10B5
330
4BD
100
AcDbEntity
  8
DEFPOINTS
 62
     0
100
AcDbPoint
 10
14.48942655106796
 20
5.920586876935707
 30
0.0
  0
ENDBLK
  5
4C9
330
4BD
100
AcDbEntity
  8
0
100
AcDbBlockEnd
  0
BLOCK
  5
4DF
330
4D4
100
AcDbEntity
  8
0
100
AcDbBlockBegin
  2
*D5
 70
     1
 10
0.0
 20
0.0
 30
0.0
  3
*D5
  1

  0
LINE
  5
118D
330
4D4
100
AcDbEntity
  8
DIM
 62
     0
100
AcDbLine
 10
10.45642655106796
 20
13.03356547604598
 30
0.0
 11
3.769104976957163
 21
13.03356547604598
 31
0.0
  0
LINE
  5
118E
330
4D4
100
AcDbEntity
  8
DIM
 62
     0
100
AcDbLine
 10
10.45642655106796
 20
11.31556547604599
 30
0.0
 11
3.769104976957161
 21
11.31556547604599
 31
0.0
  0
LINE
  5
118F
330
4D4
100
AcDbEntity
  8
DIM
 62
     0
100
AcDbLine
 10
4.048104976957161
 20
13.57356547604599
 30
0.0
 11
4.048104976957163
 21
14.11356547604599
 31
0.0
  0
LINE
  5
1190
330
4D4
100
AcDbEntity
  8
DIM
 62
     0
100
AcDbLine
 10
4.048104976957161
 20
10.77556547604599
 30
0.0
 11
4.048104976957161
 21
10.23556547604598
 31
0.0
  0
SOLID
  5
1191
330
4D4
100
AcDbEntity
  8
DIM
 62
     0
100
AcDbTrace
 10
3.958104976957163
 20
13.57356547604599
 30
0.0
 11
4.138104976957161
 21
13.57356547604599
 31
0.0
 12
4.048104976957161
 22
13.03356547604598
 32
0.0
 13
4.048104976957161
 23
13.03356547604598
 33
0.0
  0
SOLID
  5
1192
330
4D4
100
AcDbEntity
  8
DIM
 62
     0
100
AcDbTrace
 10
3.958104976957161
 20
10.77556547604599
 30
0.0
 11
4.138104976957161
 21
10.77556547604599
 31
0.0
 12
4.048104976957161
 22
11.31556547604599
 32
0.0
 13
4.048104976957161
 23
11.31556547604599
 33
0.0
  0
MTEXT
  5
1193
330
4D4
100
AcDbEntity
  8
DIM
 62
     0
100
AcDbMText
 10
4.048104976957159
 20
12.17456547604599
 30
0.0
 40
0.375
 41
0.0
 71
     5
 72
     1
  1
\A1;1.718
1001
ACAD
1000
MTEXTBEGIN
1070
    73
1070
     1
1070
    44
1040
1.0
1070
    74
1070
     0
1000
MTEXTEND
  0
POINT
  5
1194
330
4D4
100
AcDbEntity
  8
DEFPOINTS
 62
     0
100
AcDbPoint
 10
10.64542655106797
 20
13.03356547604598
 30
0.0
  0
POINT
  5
1195
330
4D4
100
AcDbEntity
  8
DEFPOINTS
 62
     0
100
AcDbPoint
 10
10.64542655106797
 20
11.31556547604599
 30
0.0
  0
POINT
  5
1196
330
4D4
100
AcDbEntity
  8
DEFPOINTS
 62
     0
100
AcDbPoint
 10
4.048104976957161
 20
11.31556547604599
 30
0.0
  0
ENDBLK
  5
4E0
330
4D4
100
AcDbEntity
  8
0
100
AcDbBlockEnd
  0
BLOCK
  5
4ED
330
4E1
100
AcDbEntity
  8
0
100
AcDbBlockBegin
  2
*D6
 70
     1
 10
0.0
 20
0.0
 30
0.0
  3
*D6
  1

  0
LINE
  5
1197
330
4E1
100
AcDbEntity
  8
DIM
 62
     0
100
AcDbLine
 10
9.085426551067977
 20
12.17456547604598
 30
0.0
 11
7.588847335260854
 21
12.17456547604598
 31
0.0
  0
LINE
  5
1198
330
4E1
100
AcDbEntity
  8
DIM
 62
     0
100
AcDbLine
 10
9.085426551067977
 20
11.54956547604598
 30
0.0
 11
7.588847335260854
 21
11.54956547604598
 31
0.0
  0
LINE
  5
1199
330
4E1
100
AcDbEntity
  8
DIM
 62
     0
100
AcDbLine
 10
7.867847335260854
 20
12.71456547604598
 30
0.0
 11
7.867847335260854
 21
13.25456547604598
 31
0.0
  0
LINE
  5
119A
330
4E1
100
AcDbEntity
  8
DIM
 62
     0
100
AcDbLine
 10
7.867847335260854
 20
11.00956547604597
 30
0.0
 11
7.867847335260854
 21
10.46956547604598
 31
0.0
  0
LINE
  5
119B
330
4E1
100
AcDbEntity
  8
DIM
 62
     0
100
AcDbLine
 10
7.867847335260854
 20
10.46956547604598
 30
0.0
 11
7.327847335260853
 21
10.46956547604598
 31
0.0
  0
SOLID
  5
119C
330
4E1
100
AcDbEntity
  8
DIM
 62
     0
100
AcDbTrace
 10
7.777847335260855
 20
12.71456547604598
 30
0.0
 11
7.957847335260853
 21
12.71456547604598
 31
0.0
 12
7.867847335260854
 22
12.17456547604598
 32
0.0
 13
7.867847335260854
 23
12.17456547604598
 33
0.0
  0
SOLID
  5
119D
330
4E1
100
AcDbEntity
  8
DIM
 62
     0
100
AcDbTrace
 10
7.777847335260855
 20
11.00956547604597
 30
0.0
 11
7.957847335260853
 21
11.00956547604597
 31
0.0
 12
7.867847335260854
 22
11.54956547604598
 32
0.0
 13
7.867847335260854
 23
11.54956547604598
 33
0.0
  0
MTEXT
  5
119E
330
4E1
100
AcDbEntity
  8
DIM
 62
     0
100
AcDbMText
 10
6.518784835260852
 20
10.46956547604598
 30
0.0
 40
0.375
 41
0.0
 71
     5
 72
     1
  1
\A1;0.625
1001
ACAD
1000
MTEXTBEGIN
1070
    73
1070
     1
1070
    44
1040
1.0
1070
    74
1070
     0
1000
MTEXTEND
  0
POINT
  5
119F
330
4E1
100
AcDbEntity
  8
DEFPOINTS
 62
     0
100
AcDbPoint
 10
9.274426551067977
 20
12.17456547604598
 30
0.0
  0
POINT
  5
11A0
330
4E1
100
AcDbEntity
  8
DEFPOINTS
 62
     0
100
AcDbPoint
 10
9.274426551067977
 20
11.54956547604598
 30
0.0
  0
POINT
  5
11A1
330
4E1
100
AcDbEntity
  8
DEFPOINTS
 62
     0
100
AcDbPoint
 10
7.867847335260854
 20
11.54956547604598
 30
0.0
  0
ENDBLK
  5
4EE
330
4E1
100
AcDbEntity
  8
0
100
AcDbBlockEnd
  0
BLOCK
  5
507
330
4FC
100
AcDbEntity
  8
0
100
AcDbBlockBegin
  2
*D7
 70
     1
 10
0.0
 20
0.0
 30
0.0
  3
*D7
  1

  0
LINE
  5
10E8
330
4FC
100
AcDbEntity
  8
DIM
 62
     0
100
AcDbLine
 10
40.48942655106798
 20
10.988565476046
 30
0.0
 11
40.48942655106798
 21
4.79858687693571
 31
0.0
  0
LINE
  5
10E9
330
4FC
100
AcDbEntity
  8
DIM
 62
     0
100
AcDbLine
 10
26.48942655106798
 20
10.98606547604598
 30
0.0
 11
26.48942655106798
 21
4.79858687693571
 31
0.0
  0
LINE
  5
10EA
330
4FC
100
AcDbEntity
  8
DIM
 62
     0
100
AcDbLine
 10
39.94942655106799
 20
5.07758687693571
 30
0.0
 11
34.34536405106798
 21
5.07758687693571
 31
0.0
  0
LINE
  5
10EB
330
4FC
100
AcDbEntity
  8
DIM
 62
     0
100
AcDbLine
 10
27.02942655106796
 20
5.07758687693571
 30
0.0
 11
32.63348905106797
 21
5.07758687693571
 31
0.0
  0
SOLID
  5
10EC
330
4FC
100
AcDbEntity
  8
DIM
 62
     0
100
AcDbTrace
 10
39.94942655106799
 20
5.16758687693571
 30
0.0
 11
39.94942655106799
 21
4.987586876935711
 31
0.0
 12
40.48942655106798
 22
5.07758687693571
 32
0.0
 13
40.48942655106798
 23
5.07758687693571
 33
0.0
  0
SOLID
  5
10ED
330
4FC
100
AcDbEntity
  8
DIM
 62
     0
100
AcDbTrace
 10
27.02942655106796
 20
5.16758687693571
 30
0.0
 11
27.02942655106796
 21
4.987586876935711
 31
0.0
 12
26.48942655106798
 22
5.07758687693571
 32
0.0
 13
26.48942655106798
 23
5.07758687693571
 33
0.0
  0
MTEXT
  5
10EE
330
4FC
100
AcDbEntity
  8
DIM
 62
     0
100
AcDbMText
 10
33.48942655106798
 20
5.07758687693571
 30
0.0
 40
0.375
 41
0.0
 71
     5
 72
     1
  1
\A1;14.000
1001
ACAD
1000
MTEXTBEGIN
1070
    73
1070
     1
1070
    44
1040
1.0
1070
    74
1070
     0
1000
MTEXTEND
  0
POINT
  5
10EF
330
4FC
100
AcDbEntity
  8
DEFPOINTS
 62
     0
100
AcDbPoint
 10
40.48942655106798
 20
11.177565476046
 30
0.0
  0
POINT
  5
10F0
330
4FC
100
AcDbEntity
  8
DEFPOINTS
 62
     0
100
AcDbPoint
 10
26.48942655106798
 20
11.17506547604598
 30
0.0
  0
POINT
  5
10F1
330
4FC
100
AcDbEntity
  8
DEFPOINTS
 62
     0
100
AcDbPoint
 10
26.48942655106798
 20
5.07758687693571
 30
0.0
  0
ENDBLK
  5
508
330
4FC
100
AcDbEntity
  8
0
100
AcDbBlockEnd
  0
BLOCK
  5
514
330
509
100
AcDbEntity
  8
0
100
AcDbBlockBegin
  2
*D8
 70
     1
 10
0.0
 20
0.0
 30
0.0
  3
*D8
  1

  0
LINE
  5
108E
330
509
100
AcDbEntity
  8
DIM
 62
     0
100
AcDbLine
 10
26.48942655106798
 20
10.98606547604598
 30
0.0
 11
26.48942655106798
 21
4.79858687693571
 31
0.0
  0
LINE
  5
108F
330
509
100
AcDbEntity
  8
DIM
 62
     0
100
AcDbLine
 10
10.48942655106797
 20
10.98856547604594
 30
0.0
 11
10.48942655106797
 21
4.79858687693571
 31
0.0
  0
LINE
  5
1090
330
509
100
AcDbEntity
  8
DIM
 62
     0
100
AcDbLine
 10
25.94942655106798
 20
5.07758687693571
 30
0.0
 11
19.34536405106797
 21
5.07758687693571
 31
0.0
  0
LINE
  5
1091
330
509
100
AcDbEntity
  8
DIM
 62
     0
100
AcDbLine
 10
11.02942655106796
 20
5.07758687693571
 30
0.0
 11
17.63348905106798
 21
5.07758687693571
 31
0.0
  0
SOLID
  5
1092
330
509
100
AcDbEntity
  8
DIM
 62
     0
100
AcDbTrace
 10
25.94942655106798
 20
5.16758687693571
 30
0.0
 11
25.94942655106798
 21
4.987586876935711
 31
0.0
 12
26.48942655106798
 22
5.07758687693571
 32
0.0
 13
26.48942655106798
 23
5.07758687693571
 33
0.0
  0
SOLID
  5
1093
330
509
100
AcDbEntity
  8
DIM
 62
     0
100
AcDbTrace
 10
11.02942655106796
 20
5.16758687693571
 30
0.0
 11
11.02942655106796
 21
4.987586876935711
 31
0.0
 12
10.48942655106797
 22
5.07758687693571
 32
0.0
 13
10.48942655106797
 23
5.07758687693571
 33
0.0
  0
MTEXT
  5
1094
330
509
100
AcDbEntity
  8
DIM
 62
     0
100
AcDbMText
 10
18.48942655106798
 20
5.07758687693571
 30
0.0
 40
0.375
 41
0.0
 71
     5
 72
     1
  1
\A1;16.000
1001
ACAD
1000
MTEXTBEGIN
1070
    73
1070
     1
1070
    44
1040
1.0
1070
    74
1070
     0
1000
MTEXTEND
  0
POINT
  5
1095
330
509
100
AcDbEntity
  8
DEFPOINTS
 62
     0
100
AcDbPoint
 10
26.48942655106798
 20
11.17506547604598
 30
0.0
  0
POINT
  5
1096
330
509
100
AcDbEntity
  8
DEFPOINTS
 62
     0
100
AcDbPoint
 10
10.48942655106797
 20
11.17756547604594
 30
0.0
  0
POINT
  5
1097
330
509
100
AcDbEntity
  8
DEFPOINTS
 62
     0
100
AcDbPoint
 10
10.48942655106797
 20
5.07758687693571
 30
0.0
  0
ENDBLK
  5
515
330
509
100
AcDbEntity
  8
0
100
AcDbBlockEnd
  0
BLOCK
  5
521
330
516
100
AcDbEntity
  8
0
100
AcDbBlockBegin
  2
*D9
 70
     1
 10
0.0
 20
0.0
 30
0.0
  3
*D9
  1

  0
LINE
  5
1098
330
516
100
AcDbEntity
  8
DIM
 62
     0
100
AcDbLine
 10
10.48942655106797
 20
10.98856547604594
 30
0.0
 11
10.48942655106797
 21
8.170586876935711
 31
0.0
  0
LINE
  5
1099
330
516
100
AcDbEntity
  8
DIM
 62
     0
100
AcDbLine
 10
8.989426551067976
 20
11.17356547604598
 30
0.0
 11
8.989426551067976
 21
8.170586876935711
 31
0.0
  0
LINE
  5
109A
330
516
100
AcDbEntity
  8
DIM
 62
     0
100
AcDbLine
 10
11.02942655106796
 20
8.449586876935711
 30
0.0
 11
11.56942655106796
 21
8.449586876935711
 31
0.0
  0
LINE
  5
109B
330
516
100
AcDbEntity
  8
DIM
 62
     0
100
AcDbLine
 10
8.449426551067977
 20
8.449586876935711
 30
0.0
 11
7.909426551067976
 21
8.449586876935711
 31
0.0
  0
SOLID
  5
109C
330
516
100
AcDbEntity
  8
DIM
 62
     0
100
AcDbTrace
 10
11.02942655106796
 20
8.539586876935711
 30
0.0
 11
11.02942655106796
 21
8.359586876935711
 31
0.0
 12
10.48942655106797
 22
8.449586876935711
 32
0.0
 13
10.48942655106797
 23
8.449586876935711
 33
0.0
  0
SOLID
  5
109D
330
516
100
AcDbEntity
  8
DIM
 62
     0
100
AcDbTrace
 10
8.449426551067977
 20
8.539586876935711
 30
0.0
 11
8.449426551067977
 21
8.359586876935711
 31
0.0
 12
8.989426551067976
 22
8.449586876935711
 32
0.0
 13
8.989426551067976
 23
8.449586876935711
 33
0.0
  0
MTEXT
  5
109E
330
516
100
AcDbEntity
  8
DIM
 62
     0
100
AcDbMText
 10
9.739426551067976
 20
8.449586876935711
 30
0.0
 40
0.375
 41
0.0
 71
     5
 72
     1
  1
\A1;1.500
1001
ACAD
1000
MTEXTBEGIN
1070
    73
1070
     1
1070
    44
1040
1.0
1070
    74
1070
     0
1000
MTEXTEND
  0
POINT
  5
109F
330
516
100
AcDbEntity
  8
DEFPOINTS
 62
     0
100
AcDbPoint
 10
10.48942655106797
 20
11.17756547604594
 30
0.0
  0
POINT
  5
10A0
330
516
100
AcDbEntity
  8
DEFPOINTS
 62
     0
100
AcDbPoint
 10
8.989426551067976
 20
11.36256547604598
 30
0.0
  0
POINT
  5
10A1
330
516
100
AcDbEntity
  8
DEFPOINTS
 62
     0
100
AcDbPoint
 10
8.989426551067976
 20
8.449586876935711
 30
0.0
  0
ENDBLK
  5
522
330
516
100
AcDbEntity
  8
0
100
AcDbBlockEnd
  0
BLOCK
  5
52E
330
523
100
AcDbEntity
  8
0
100
AcDbBlockBegin
  2
*D10
 70
     1
 10
0.0
 20
0.0
 30
0.0
  3
*D10
  1

  0
LINE
  5
111A
330
523
100
AcDbEntity
  8
DIM
 62
     0
100
AcDbLine
 10
28.48942655106798
 20
11.26456547604598
 30
0.0
 11
28.48942655106798
 21
8.170586876935711
 31
0.0
  0
LINE
  5
111B
330
523
100
AcDbEntity
  8
DIM
 62
     0
100
AcDbLine
 10
32.48942655106798
 20
11.26456547604598
 30
0.0
 11
32.48942655106798
 21
8.170586876935711
 31
0.0
  0
LINE
  5
111C
330
523
100
AcDbEntity
  8
DIM
 62
     0
100
AcDbLine
 10
29.02942655106798
 20
8.449586876935711
 30
0.0
 11
29.72723905106798
 21
8.449586876935711
 31
0.0
  0
LINE
  5
111D
330
523
100
AcDbEntity
  8
DIM
 62
     0
100
AcDbLine
 10
31.94942655106798
 20
8.449586876935711
 30
0.0
 11
31.25161405106798
 21
8.449586876935711
 31
0.0
  0
SOLID
  5
111E
330
523
100
AcDbEntity
  8
DIM
 62
     0
100
AcDbTrace
 10
29.02942655106798
 20
8.539586876935711
 30
0.0
 11
29.02942655106798
 21
8.359586876935711
 31
0.0
 12
28.48942655106798
 22
8.449586876935711
 32
0.0
 13
28.48942655106798
 23
8.449586876935711
 33
0.0
  0
SOLID
  5
111F
330
523
100
AcDbEntity
  8
DIM
 62
     0
100
AcDbTrace
 10
31.94942655106798
 20
8.539586876935711
 30
0.0
 11
31.94942655106798
 21
8.359586876935711
 31
0.0
 12
32.48942655106798
 22
8.449586876935711
 32
0.0
 13
32.48942655106798
 23
8.449586876935711
 33
0.0
  0
MTEXT
  5
1120
330
523
100
AcDbEntity
  8
DIM
 62
     0
100
AcDbMText
 10
30.48942655106797
 20
8.449586876935711
 30
0.0
 40
0.375
 41
0.0
 71
     5
 72
     1
  1
\A1;4.000
1001
ACAD
1000
MTEXTBEGIN
1070
    73
1070
     1
1070
    44
1040
1.0
1070
    74
1070
     0
1000
MTEXTEND
  0
POINT
  5
1121
330
523
100
AcDbEntity
  8
DEFPOINTS
 62
     0
100
AcDbPoint
 10
28.48942655106798
 20
11.45356547604598
 30
0.0
  0
POINT
  5
1122
330
523
100
AcDbEntity
  8
DEFPOINTS
 62
     0
100
AcDbPoint
 10
32.48942655106798
 20
11.45356547604598
 30
0.0
  0
POINT
  5
1123
330
523
100
AcDbEntity
  8
DEFPOINTS
 62
     0
100
AcDbPoint
 10
32.48942655106798
 20
8.449586876935711
 30
0.0
  0
ENDBLK
  5
52F
330
523
100
AcDbEntity
  8
0
100
AcDbBlockEnd
  0
BLOCK
  5
53B
330
530
100
AcDbEntity
  8
0
100
AcDbBlockBegin
  2
*D11
 70
     1
 10
0.0
 20
0.0
 30
0.0
  3
*D11
  1

  0
LINE
  5
1106
330
530
100
AcDbEntity
  8
DIM
 62
     0
100
AcDbLine
 10
28.48942655106798
 20
11.26456547604598
 30
0.0
 11
28.48942655106798
 21
7.327586876935707
 31
0.0
  0
LINE
  5
1107
330
530
100
AcDbEntity
  8
DIM
 62
     0
100
AcDbLine
 10
36.48942655106798
 20
11.26456547604598
 30
0.0
 11
36.48942655106798
 21
7.327586876935707
 31
0.0
  0
LINE
  5
1108
330
530
100
AcDbEntity
  8
DIM
 62
     0
100
AcDbLine
 10
29.02942655106798
 20
7.606586876935707
 30
0.0
 11
31.72723905106797
 21
7.606586876935707
 31
0.0
  0
LINE
  5
1109
330
530
100
AcDbEntity
  8
DIM
 62
     0
100
AcDbLine
 10
35.94942655106798
 20
7.606586876935707
 30
0.0
 11
33.25161405106798
 21
7.606586876935707
 31
0.0
  0
SOLID
  5
110A
330
530
100
AcDbEntity
  8
DIM
 62
     0
100
AcDbTrace
 10
29.02942655106798
 20
7.696586876935707
 30
0.0
 11
29.02942655106798
 21
7.516586876935707
 31
0.0
 12
28.48942655106798
 22
7.606586876935707
 32
0.0
 13
28.48942655106798
 23
7.606586876935707
 33
0.0
  0
SOLID
  5
110B
330
530
100
AcDbEntity
  8
DIM
 62
     0
100
AcDbTrace
 10
35.94942655106798
 20
7.696586876935707
 30
0.0
 11
35.94942655106798
 21
7.516586876935707
 31
0.0
 12
36.48942655106798
 22
7.606586876935707
 32
0.0
 13
36.48942655106798
 23
7.606586876935707
 33
0.0
  0
MTEXT
  5
110C
330
530
100
AcDbEntity
  8
DIM
 62
     0
100
AcDbMText
 10
32.48942655106798
 20
7.606586876935707
 30
0.0
 40
0.375
 41
0.0
 71
     5
 72
     1
  1
\A1;8.000
1001
ACAD
1000
MTEXTBEGIN
1070
    73
1070
     1
1070
    44
1040
1.0
1070
    74
1070
     0
1000
MTEXTEND
  0
POINT
  5
110D
330
530
100
AcDbEntity
  8
DEFPOINTS
 62
     0
100
AcDbPoint
 10
28.48942655106798
 20
11.45356547604598
 30
0.0
  0
POINT
  5
110E
330
530
100
AcDbEntity
  8
DEFPOINTS
 62
     0
100
AcDbPoint
 10
36.48942655106798
 20
11.45356547604598
 30
0.0
  0
POINT
  5
110F
330
530
100
AcDbEntity
  8
DEFPOINTS
 62
     0
100
AcDbPoint
 10
36.48942655106798
 20
7.606586876935707
 30
0.0
  0
ENDBLK
  5
53C
330
530
100
AcDbEntity
  8
0
100
AcDbBlockEnd
  0
BLOCK
  5
548
330
53D
100
AcDbEntity
  8
0
100
AcDbBlockBegin
  2
*D12
 70
     1
 10
0.0
 20
0.0
 30
0.0
  3
*D12
  1

  0
LINE
  5
10FC
330
53D
100
AcDbEntity
  8
DIM
 62
     0
100
AcDbLine
 10
28.48942655106798
 20
11.26456547604598
 30
0.0
 11
28.48942655106798
 21
5.641586876935707
 31
0.0
  0
LINE
  5
10FD
330
53D
100
AcDbEntity
  8
DIM
 62
     0
100
AcDbLine
 10
38.48942655106798
 20
11.26456547604598
 30
0.0
 11
38.48942655106798
 21
5.641586876935707
 31
0.0
  0
LINE
  5
10FE
330
53D
100
AcDbEntity
  8
DIM
 62
     0
100
AcDbLine
 10
29.02942655106798
 20
5.920586876935707
 30
0.0
 11
32.65692655106796
 21
5.920586876935707
 31
0.0
  0
LINE
  5
10FF
330
53D
100
AcDbEntity
  8
DIM
 62
     0
100
AcDbLine
 10
37.94942655106796
 20
5.920586876935707
 30
0.0
 11
34.32192655106798
 21
5.920586876935707
 31
0.0
  0
SOLID
  5
1100
330
53D
100
AcDbEntity
  8
DIM
 62
     0
100
AcDbTrace
 10
29.02942655106798
 20
6.010586876935707
 30
0.0
 11
29.02942655106798
 21
5.830586876935707
 31
0.0
 12
28.48942655106798
 22
5.920586876935707
 32
0.0
 13
28.48942655106798
 23
5.920586876935707
 33
0.0
  0
SOLID
  5
1101
330
53D
100
AcDbEntity
  8
DIM
 62
     0
100
AcDbTrace
 10
37.94942655106796
 20
6.010586876935707
 30
0.0
 11
37.94942655106796
 21
5.830586876935707
 31
0.0
 12
38.48942655106798
 22
5.920586876935707
 32
0.0
 13
38.48942655106798
 23
5.920586876935707
 33
0.0
  0
MTEXT
  5
1102
330
53D
100
AcDbEntity
  8
DIM
 62
     0
100
AcDbMText
 10
33.48942655106798
 20
5.920586876935707
 30
0.0
 40
0.375
 41
0.0
 71
     5
 72
     1
  1
\A1;10.000
1001
ACAD
1000
MTEXTBEGIN
1070
    73
1070
     1
1070
    44
1040
1.0
1070
    74
1070
     0
1000
MTEXTEND
  0
POINT
  5
1103
330
53D
100
AcDbEntity
  8
DEFPOINTS
 62
     0
100
AcDbPoint
 10
28.48942655106798
 20
11.45356547604598
 30
0.0
  0
POINT
  5
1104
330
53D
100
AcDbEntity
  8
DEFPOINTS
 62
     0
100
AcDbPoint
 10
38.48942655106798
 20
11.45356547604598
 30
0.0
  0
POINT
  5
1105
330
53D
100
AcDbEntity
  8
DEFPOINTS
 62
     0
100
AcDbPoint
 10
38.48942655106798
 20
5.920586876935707
 30
0.0
  0
ENDBLK
  5
549
330
53D
100
AcDbEntity
  8
0
100
AcDbBlockEnd
  0
BLOCK
  5
555
330
54A
100
AcDbEntity
  8
0
100
AcDbBlockBegin
  2
*D13
 70
     1
 10
0.0
 20
0.0
 30
0.0
  3
*D13
  1

  0
LINE
  5
1209
330
54A
100
AcDbEntity
  8
DIM
 62
     0
100
AcDbLine
 10
40.48942655106798
 20
10.988565476046
 30
0.0
 11
40.48942655106798
 21
9.013586876935708
 31
0.0
  0
LINE
  5
120A
330
54A
100
AcDbEntity
  8
DIM
 62
     0
100
AcDbLine
 10
41.48942655106798
 20
11.31456547604597
 30
0.0
 11
41.48942655106798
 21
9.013586876935708
 31
0.0
  0
LINE
  5
120B
330
54A
100
AcDbEntity
  8
DIM
 62
     0
100
AcDbLine
 10
39.94942655106799
 20
9.292586876935708
 30
0.0
 11
39.40942655106798
 21
9.292586876935708
 31
0.0
  0
LINE
  5
120C
330
54A
100
AcDbEntity
  8
DIM
 62
     0
100
AcDbLine
 10
42.02942655106798
 20
9.292586876935708
 30
0.0
 11
42.56942655106797
 21
9.292586876935708
 31
0.0
  0
SOLID
  5
120D
330
54A
100
AcDbEntity
  8
DIM
 62
     0
100
AcDbTrace
 10
39.94942655106799
 20
9.382586876935707
 30
0.0
 11
39.94942655106799
 21
9.202586876935708
 31
0.0
 12
40.48942655106798
 22
9.292586876935708
 32
0.0
 13
40.48942655106798
 23
9.292586876935708
 33
0.0
  0
SOLID
  5
120E
330
54A
100
AcDbEntity
  8
DIM
 62
     0
100
AcDbTrace
 10
42.02942655106798
 20
9.382586876935707
 30
0.0
 11
42.02942655106798
 21
9.202586876935708
 31
0.0
 12
41.48942655106798
 22
9.292586876935708
 32
0.0
 13
41.48942655106798
 23
9.292586876935708
 33
0.0
  0
MTEXT
  5
120F
330
54A
100
AcDbEntity
  8
DIM
 62
     0
100
AcDbMText
 10
43.28473905106799
 20
9.292586876935708
 30
0.0
 40
0.375
 41
0.0
 71
     5
 72
     1
  1
\A1;1.000
1001
ACAD
1000
MTEXTBEGIN
1070
    73
1070
     1
1070
    44
1040
1.0
1070
    74
1070
     0
1000
MTEXTEND
  0
POINT
  5
1210
330
54A
100
AcDbEntity
  8
DEFPOINTS
 62
     0
100
AcDbPoint
 10
40.48942655106798
 20
11.177565476046
 30
0.0
  0
POINT
  5
1211
330
54A
100
AcDbEntity
  8
DEFPOINTS
 62
     0
100
AcDbPoint
 10
41.48942655106798
 20
11.50356547604596
 30
0.0
  0
POINT
  5
1212
330
54A
100
AcDbEntity
  8
DEFPOINTS
 62
     0
100
AcDbPoint
 10
41.48942655106798
 20
9.292586876935708
 30
0.0
  0
ENDBLK
  5
556
330
54A
100
AcDbEntity
  8
0
100
AcDbBlockEnd
  0
BLOCK
  5
562
330
557
100
AcDbEntity
  8
0
100
AcDbBlockBegin
  2
*D14
 70
     1
 10
0.0
 20
0.0
 30
0.0
  3
*D14
  1

  0
LINE
  5
10CA
330
557
100
AcDbEntity
  8
DIM
 62
     0
100
AcDbLine
 10
24.48942655106798
 20
11.26456547604598
 30
0.0
 11
24.48942655106798
 21
8.170586876935711
 31
0.0
  0
LINE
  5
10CB
330
557
100
AcDbEntity
  8
DIM
 62
     0
100
AcDbLine
 10
20.48942655106797
 20
11.26456547604598
 30
0.0
 11
20.48942655106797
 21
8.170586876935711
 31
0.0
  0
LINE
  5
10CC
330
557
100
AcDbEntity
  8
DIM
 62
     0
100
AcDbLine
 10
23.94942655106798
 20
8.449586876935711
 30
0.0
 11
23.25161405106797
 21
8.449586876935711
 31
0.0
  0
LINE
  5
10CD
330
557
100
AcDbEntity
  8
DIM
 62
     0
100
AcDbLine
 10
21.02942655106797
 20
8.449586876935711
 30
0.0
 11
21.72723905106797
 21
8.449586876935711
 31
0.0
  0
SOLID
  5
10CE
330
557
100
AcDbEntity
  8
DIM
 62
     0
100
AcDbTrace
 10
23.94942655106798
 20
8.539586876935711
 30
0.0
 11
23.94942655106798
 21
8.359586876935711
 31
0.0
 12
24.48942655106798
 22
8.449586876935711
 32
0.0
 13
24.48942655106798
 23
8.449586876935711
 33
0.0
  0
SOLID
  5
10CF
330
557
100
AcDbEntity
  8
DIM
 62
     0
100
AcDbTrace
 10
21.02942655106797
 20
8.539586876935711
 30
0.0
 11
21.02942655106797
 21
8.359586876935711
 31
0.0
 12
20.48942655106797
 22
8.449586876935711
 32
0.0
 13
20.48942655106797
 23
8.449586876935711
 33
0.0
  0
MTEXT
  5
10D0
330
557
100
AcDbEntity
  8
DIM
 62
     0
100
AcDbMText
 10
22.48942655106798
 20
8.449586876935711
 30
0.0
 40
0.375
 41
0.0
 71
     5
 72
     1
  1
\A1;4.000
1001
ACAD
1000
MTEXTBEGIN
1070
    73
1070
     1
1070
    44
1040
1.0
1070
    74
1070
     0
1000
MTEXTEND
  0
POINT
  5
10D1
330
557
100
AcDbEntity
  8
DEFPOINTS
 62
     0
100
AcDbPoint
 10
24.48942655106798
 20
11.45356547604598
 30
0.0
  0
POINT
  5
10D2
330
557
100
AcDbEntity
  8
DEFPOINTS
 62
     0
100
AcDbPoint
 10
20.48942655106797
 20
11.45356547604598
 30
0.0
  0
POINT
  5
10D3
330
557
100
AcDbEntity
  8
DEFPOINTS
 62
     0
100
AcDbPoint
 10
20.48942655106797
 20
8.449586876935711
 30
0.0
  0
ENDBLK
  5
563
330
557
100
AcDbEntity
  8
0
100
AcDbBlockEnd
  0
BLOCK
  5
56F
330
564
100
AcDbEntity
  8
0
100
AcDbBlockBegin
  2
*D15
 70
     1
 10
0.0
 20
0.0
 30
0.0
  3
*D15
  1

  0
LINE
  5
10C0
330
564
100
AcDbEntity
  8
DIM
 62
     0
100
AcDbLine
 10
24.48942655106798
 20
11.26456547604598
 30
0.0
 11
24.48942655106798
 21
7.327586876935707
 31
0.0
  0
LINE
  5
10C1
330
564
100
AcDbEntity
  8
DIM
 62
     0
100
AcDbLine
 10
16.48942655106796
 20
11.26456547604598
 30
0.0
 11
16.48942655106796
 21
7.327586876935707
 31
0.0
  0
LINE
  5
10C2
330
564
100
AcDbEntity
  8
DIM
 62
     0
100
AcDbLine
 10
23.94942655106798
 20
7.606586876935707
 30
0.0
 11
21.25161405106797
 21
7.606586876935707
 31
0.0
  0
LINE
  5
10C3
330
564
100
AcDbEntity
  8
DIM
 62
     0
100
AcDbLine
 10
17.02942655106797
 20
7.606586876935707
 30
0.0
 11
19.72723905106796
 21
7.606586876935707
 31
0.0
  0
SOLID
  5
10C4
330
564
100
AcDbEntity
  8
DIM
 62
     0
100
AcDbTrace
 10
23.94942655106798
 20
7.696586876935707
 30
0.0
 11
23.94942655106798
 21
7.516586876935707
 31
0.0
 12
24.48942655106798
 22
7.606586876935707
 32
0.0
 13
24.48942655106798
 23
7.606586876935707
 33
0.0
  0
SOLID
  5
10C5
330
564
100
AcDbEntity
  8
DIM
 62
     0
100
AcDbTrace
 10
17.02942655106797
 20
7.696586876935707
 30
0.0
 11
17.02942655106797
 21
7.516586876935707
 31
0.0
 12
16.48942655106796
 22
7.606586876935707
 32
0.0
 13
16.48942655106796
 23
7.606586876935707
 33
0.0
  0
MTEXT
  5
10C6
330
564
100
AcDbEntity
  8
DIM
 62
     0
100
AcDbMText
 10
20.48942655106797
 20
7.606586876935707
 30
0.0
 40
0.375
 41
0.0
 71
     5
 72
     1
  1
\A1;8.000
1001
ACAD
1000
MTEXTBEGIN
1070
    73
1070
     1
1070
    44
1040
1.0
1070
    74
1070
     0
1000
MTEXTEND
  0
POINT
  5
10C7
330
564
100
AcDbEntity
  8
DEFPOINTS
 62
     0
100
AcDbPoint
 10
24.48942655106798
 20
11.45356547604598
 30
0.0
  0
POINT
  5
10C8
330
564
100
AcDbEntity
  8
DEFPOINTS
 62
     0
100
AcDbPoint
 10
16.48942655106796
 20
11.45356547604598
 30
0.0
  0
POINT
  5
10C9
330
564
100
AcDbEntity
  8
DEFPOINTS
 62
     0
100
AcDbPoint
 10
16.48942655106796
 20
7.606586876935707
 30
0.0
  0
ENDBLK
  5
570
330
564
100
AcDbEntity
  8
0
100
AcDbBlockEnd
  0
BLOCK
  5
595
330
589
100
AcDbEntity
  8
0
100
AcDbBlockBegin
  2
*D16
 70
     1
 10
0.0
 20
0.0
 30
0.0
  3
*D16
  1

  0
LINE
  5
11D7
330
589
100
AcDbEntity
  8
DIM
 62
     0
100
AcDbLine
 10
42.17842655106798
 20
17.02503471589753
 30
0.0
 11
43.30996387357695
 21
17.02503471589753
 31
0.0
  0
LINE
  5
11D8
330
589
100
AcDbEntity
  8
DIM
 62
     0
100
AcDbLine
 10
40.74342655106796
 20
17.52503471589752
 30
0.0
 11
43.30996387357695
 21
17.52503471589752
 31
0.0
  0
LINE
  5
11D9
330
589
100
AcDbEntity
  8
DIM
 62
     0
100
AcDbLine
 10
43.03096387357697
 20
16.48503471589753
 30
0.0
 11
43.03096387357696
 21
15.94503471589753
 31
0.0
  0
LINE
  5
11DA
330
589
100
AcDbEntity
  8
DIM
 62
     0
100
AcDbLine
 10
43.03096387357697
 20
18.06503471589753
 30
0.0
 11
43.03096387357697
 21
18.60503471589753
 31
0.0
  0
LINE
  5
11DB
330
589
100
AcDbEntity
  8
DIM
 62
     0
100
AcDbLine
 10
43.03096387357697
 20
18.60503471589753
 30
0.0
 11
43.57096387357695
 21
18.60503471589753
 31
0.0
  0
SOLID
  5
11DC
330
589
100
AcDbEntity
  8
DIM
 62
     0
100
AcDbTrace
 10
42.94096387357694
 20
16.48503471589753
 30
0.0
 11
43.12096387357697
 21
16.48503471589753
 31
0.0
 12
43.03096387357697
 22
17.02503471589753
 32
0.0
 13
43.03096387357697
 23
17.02503471589753
 33
0.0
  0
SOLID
  5
11DD
330
589
100
AcDbEntity
  8
DIM
 62
     0
100
AcDbTrace
 10
42.94096387357694
 20
18.06503471589753
 30
0.0
 11
43.12096387357697
 21
18.06503471589753
 31
0.0
 12
43.03096387357697
 22
17.52503471589752
 32
0.0
 13
43.03096387357697
 23
17.52503471589752
 33
0.0
  0
MTEXT
  5
11DE
330
589
100
AcDbEntity
  8
DIM
 62
     0
100
AcDbMText
 10
44.33315137357695
 20
18.60503471589753
 30
0.0
 40
0.375
 41
0.0
 71
     5
 72
     1
  1
\A1;0.500
1001
ACAD
1000
MTEXTBEGIN
1070
    73
1070
     1
1070
    44
1040
1.0
1070
    74
1070
     0
1000
MTEXTEND
  0
POINT
  5
11DF
330
589
100
AcDbEntity
  8
DEFPOINTS
 62
     0
100
AcDbPoint
 10
41.98942655106796
 20
17.02503471589753
 30
0.0
  0
POINT
  5
11E0
330
589
100
AcDbEntity
  8
DEFPOINTS
 62
     0
100
AcDbPoint
 10
40.55442655106796
 20
17.52503471589752
 30
0.0
  0
POINT
  5
11E1
330
589
100
AcDbEntity
  8
DEFPOINTS
 62
     0
100
AcDbPoint
 10
43.03096387357697
 20
17.52503471589752
 30
0.0
  0
ENDBLK
  5
596
330
589
100
AcDbEntity
  8
0
100
AcDbBlockEnd
  0
BLOCK
  5
5A2
330
597
100
AcDbEntity
  8
0
100
AcDbBlockBegin
  2
*D17
 70
     1
 10
0.0
 20
0.0
 30
0.0
  3
*D17
  1

  0
LINE
  5
FBD
330
597
100
AcDbEntity
  8
DIM
 62
     0
100
AcDbLine
 10
36.36442655106796
 20
17.24503471589754
 30
0.0
 11
36.36442655106796
 21
15.92247408247747
 31
0.0
  0
LINE
  5
FBE
330
597
100
AcDbEntity
  8
DIM
 62
     0
100
AcDbLine
 10
36.61442655106798
 20
17.24503471589754
 30
0.0
 11
36.61442655106798
 21
15.92247408247747
 31
0.0
  0
LINE
  5
FBF
330
597
100
AcDbEntity
  8
DIM
 62
     0
100
AcDbLine
 10
35.82442655106798
 20
16.20147408247747
 30
0.0
 11
35.28442655106798
 21
16.20147408247747
 31
0.0
  0
LINE
  5
FC0
330
597
100
AcDbEntity
  8
DIM
 62
     0
100
AcDbLine
 10
37.15442655106798
 20
16.20147408247747
 30
0.0
 11
37.69442655106796
 21
16.20147408247747
 31
0.0
  0
SOLID
  5
FC1
330
597
100
AcDbEntity
  8
DIM
 62
     0
100
AcDbTrace
 10
35.82442655106798
 20
16.29147408247747
 30
0.0
 11
35.82442655106798
 21
16.11147408247747
 31
0.0
 12
36.36442655106796
 22
16.20147408247747
 32
0.0
 13
36.36442655106796
 23
16.20147408247747
 33
0.0
  0
SOLID
  5
FC2
330
597
100
AcDbEntity
  8
DIM
 62
     0
100
AcDbTrace
 10
37.15442655106798
 20
16.29147408247747
 30
0.0
 11
37.15442655106798
 21
16.11147408247747
 31
0.0
 12
36.61442655106798
 22
16.20147408247747
 32
0.0
 13
36.61442655106798
 23
16.20147408247747
 33
0.0
  0
MTEXT
  5
FC3
330
597
100
AcDbEntity
  8
DIM
 62
     0
100
AcDbMText
 10
39.65192655106798
 20
16.20147408247747
 30
0.0
 40
0.375
 41
0.0
 71
     5
 72
     1
  1
\A1;0.250 DIA. TYP.
1001
ACAD
1000
MTEXTBEGIN
1070
    73
1070
     1
1070
    44
1040
1.0
1070
    74
1070
     0
1000
MTEXTEND
  0
POINT
  5
FC4
330
597
100
AcDbEntity
  8
DEFPOINTS
 62
     0
100
AcDbPoint
 10
36.36442655106796
 20
17.43403471589752
 30
0.0
  0
POINT
  5
FC5
330
597
100
AcDbEntity
  8
DEFPOINTS
 62
     0
100
AcDbPoint
 10
36.61442655106798
 20
17.43403471589752
 30
0.0
  0
POINT
  5
FC6
330
597
100
AcDbEntity
  8
DEFPOINTS
 62
     0
100
AcDbPoint
 10
36.61442655106798
 20
16.20147408247747
 30
0.0
  0
ENDBLK
  5
5A3
330
597
100
AcDbEntity
  8
0
100
AcDbBlockEnd
  0
BLOCK
  5
5B0
330
5A4
100
AcDbEntity
  8
0
100
AcDbBlockBegin
  2
*D18
 70
     1
 10
0.0
 20
0.0
 30
0.0
  3
*D18
  1

  0
LINE
  5
11B7
330
5A4
100
AcDbEntity
  8
DIM
 62
     0
100
AcDbLine
 10
8.800426551067971
 20
17.40503471589754
 30
0.0
 11
7.588847335260854
 21
17.40503471589754
 31
0.0
  0
LINE
  5
11B8
330
5A4
100
AcDbEntity
  8
DIM
 62
     0
100
AcDbLine
 10
8.800426551067971
 20
17.46503471589753
 30
0.0
 11
7.588847335260854
 21
17.46503471589753
 31
0.0
  0
LINE
  5
11B9
330
5A4
100
AcDbEntity
  8
DIM
 62
     0
100
AcDbLine
 10
7.867847335260854
 20
16.86503471589753
 30
0.0
 11
7.867847335260854
 21
16.32503471589753
 31
0.0
  0
LINE
  5
11BA
330
5A4
100
AcDbEntity
  8
DIM
 62
     0
100
AcDbLine
 10
7.867847335260854
 20
18.00503471589753
 30
0.0
 11
7.867847335260854
 21
18.54503471589755
 31
0.0
  0
LINE
  5
11BB
330
5A4
100
AcDbEntity
  8
DIM
 62
     0
100
AcDbLine
 10
7.867847335260854
 20
18.54503471589755
 30
0.0
 11
8.407847335260854
 21
18.54503471589754
 31
0.0
  0
SOLID
  5
11BC
330
5A4
100
AcDbEntity
  8
DIM
 62
     0
100
AcDbTrace
 10
7.777847335260855
 20
16.86503471589753
 30
0.0
 11
7.957847335260853
 21
16.86503471589753
 31
0.0
 12
7.867847335260854
 22
17.40503471589754
 32
0.0
 13
7.867847335260854
 23
17.40503471589754
 33
0.0
  0
SOLID
  5
11BD
330
5A4
100
AcDbEntity
  8
DIM
 62
     0
100
AcDbTrace
 10
7.777847335260855
 20
18.00503471589753
 30
0.0
 11
7.957847335260854
 21
18.00503471589753
 31
0.0
 12
7.867847335260854
 22
17.46503471589753
 32
0.0
 13
7.867847335260854
 23
17.46503471589753
 33
0.0
  0
MTEXT
  5
11BE
330
5A4
100
AcDbEntity
  8
DIM
 62
     0
100
AcDbMText
 10
9.170034835260851
 20
18.54503471589755
 30
0.0
 40
0.375
 41
0.0
 71
     5
 72
     1
  1
\A1;0.060
1001
ACAD
1000
MTEXTBEGIN
1070
    73
1070
     1
1070
    44
1040
1.0
1070
    74
1070
     0
1000
MTEXTEND
  0
POINT
  5
11BF
330
5A4
100
AcDbEntity
  8
DEFPOINTS
 62
     0
100
AcDbPoint
 10
8.989426551067971
 20
17.40503471589754
 30
0.0
  0
POINT
  5
11C0
330
5A4
100
AcDbEntity
  8
DEFPOINTS
 62
     0
100
AcDbPoint
 10
8.989426551067971
 20
17.46503471589753
 30
0.0
  0
POINT
  5
11C1
330
5A4
100
AcDbEntity
  8
DEFPOINTS
 62
     0
100
AcDbPoint
 10
7.867847335260854
 20
17.46503471589753
 30
0.0
  0
ENDBLK
  5
5B1
330
5A4
100
AcDbEntity
  8
0
100
AcDbBlockEnd
  0
BLOCK
  5
5BE
330
5B2
100
AcDbEntity
  8
0
100
AcDbBlockBegin
  2
*D19
 70
     1
 10
0.0
 20
0.0
 30
0.0
  3
*D19
  1

  0
LINE
  5
11AC
330
5B2
100
AcDbEntity
  8
DIM
 62
     0
100
AcDbLine
 10
10.45642655106796
 20
17.52503471589754
 30
0.0
 11
6.442528122403357
 21
17.52503471589755
 31
0.0
  0
LINE
  5
11AD
330
5B2
100
AcDbEntity
  8
DIM
 62
     0
100
AcDbLine
 10
10.45642655106796
 20
17.15003471589753
 30
0.0
 11
6.442528122403357
 21
17.15003471589754
 31
0.0
  0
LINE
  5
11AE
330
5B2
100
AcDbEntity
  8
DIM
 62
     0
100
AcDbLine
 10
6.721528122403356
 20
18.06503471589754
 30
0.0
 11
6.721528122403356
 21
18.60503471589755
 31
0.0
  0
LINE
  5
11AF
330
5B2
100
AcDbEntity
  8
DIM
 62
     0
100
AcDbLine
 10
6.721528122403356
 20
16.61003471589753
 30
0.0
 11
6.721528122403356
 21
16.07003471589753
 31
0.0
  0
LINE
  5
11B0
330
5B2
100
AcDbEntity
  8
DIM
 62
     0
100
AcDbLine
 10
6.721528122403356
 20
16.07003471589753
 30
0.0
 11
6.181528122403356
 21
16.07003471589753
 31
0.0
  0
SOLID
  5
11B1
330
5B2
100
AcDbEntity
  8
DIM
 62
     0
100
AcDbTrace
 10
6.631528122403357
 20
18.06503471589754
 30
0.0
 11
6.811528122403356
 21
18.06503471589754
 31
0.0
 12
6.721528122403356
 22
17.52503471589755
 32
0.0
 13
6.721528122403356
 23
17.52503471589755
 33
0.0
  0
SOLID
  5
11B2
330
5B2
100
AcDbEntity
  8
DIM
 62
     0
100
AcDbTrace
 10
6.631528122403357
 20
16.61003471589753
 30
0.0
 11
6.811528122403355
 21
16.61003471589753
 31
0.0
 12
6.721528122403356
 22
17.15003471589754
 32
0.0
 13
6.721528122403356
 23
17.15003471589754
 33
0.0
  0
MTEXT
  5
11B3
330
5B2
100
AcDbEntity
  8
DIM
 62
     0
100
AcDbMText
 10
5.372465622403351
 20
16.07003471589753
 30
0.0
 40
0.375
 41
0.0
 71
     5
 72
     1
  1
\A1;0.375
1001
ACAD
1000
MTEXTBEGIN
1070
    73
1070
     1
1070
    44
1040
1.0
1070
    74
1070
     0
1000
MTEXTEND
  0
POINT
  5
11B4
330
5B2
100
AcDbEntity
  8
DEFPOINTS
 62
     0
100
AcDbPoint
 10
10.64542655106797
 20
17.52503471589754
 30
0.0
  0
POINT
  5
11B5
330
5B2
100
AcDbEntity
  8
DEFPOINTS
 62
     0
100
AcDbPoint
 10
10.64542655106797
 20
17.15003471589753
 30
0.0
  0
POINT
  5
11B6
330
5B2
100
AcDbEntity
  8
DEFPOINTS
 62
     0
100
AcDbPoint
 10
6.721528122403356
 20
17.15003471589754
 30
0.0
  0
ENDBLK
  5
5BF
330
5B2
100
AcDbEntity
  8
0
100
AcDbBlockEnd
  0
BLOCK
  5
5CB
330
5C0
100
AcDbEntity
  8
0
100
AcDbBlockBegin
  2
*D20
 70
     1
 10
0.0
 20
0.0
 30
0.0
  3
*D20
  1

  0
LINE
  5
1338
330
5C0
100
AcDbEntity
  8
DIM
 62
     0
100
AcDbLine
 10
26.36442655106796
 20
17.83903471589753
 30
0.0
 11
26.36442655106796
 21
18.88403471589753
 31
0.0
  0
LINE
  5
1339
330
5C0
100
AcDbEntity
  8
DIM
 62
     0
100
AcDbLine
 10
26.61442655106798
 20
17.83903471589753
 30
0.0
 11
26.61442655106798
 21
18.88403471589753
 31
0.0
  0
LINE
  5
133A
330
5C0
100
AcDbEntity
  8
DIM
 62
     0
100
AcDbLine
 10
25.82442655106798
 20
18.60503471589753
 30
0.0
 11
25.28442655106798
 21
18.60503471589753
 31
0.0
  0
LINE
  5
133B
330
5C0
100
AcDbEntity
  8
DIM
 62
     0
100
AcDbLine
 10
27.15442655106798
 20
18.60503471589753
 30
0.0
 11
27.69442655106798
 21
18.60503471589753
 31
0.0
  0
SOLID
  5
133C
330
5C0
100
AcDbEntity
  8
DIM
 62
     0
100
AcDbTrace
 10
25.82442655106798
 20
18.69503471589753
 30
0.0
 11
25.82442655106798
 21
18.51503471589753
 31
0.0
 12
26.36442655106796
 22
18.60503471589753
 32
0.0
 13
26.36442655106796
 23
18.60503471589753
 33
0.0
  0
SOLID
  5
133D
330
5C0
100
AcDbEntity
  8
DIM
 62
     0
100
AcDbTrace
 10
27.15442655106798
 20
18.69503471589753
 30
0.0
 11
27.15442655106798
 21
18.51503471589753
 31
0.0
 12
26.61442655106798
 22
18.60503471589753
 32
0.0
 13
26.61442655106798
 23
18.60503471589753
 33
0.0
  0
MTEXT
  5
133E
330
5C0
100
AcDbEntity
  8
DIM
 62
     0
100
AcDbMText
 10
29.65192655106798
 20
18.60503471589753
 30
0.0
 40
0.375
 41
0.0
 71
     5
 72
     1
  1
\A1;0.250 DIA. TYP.
1001
ACAD
1000
MTEXTBEGIN
1070
    73
1070
     1
1070
    44
1040
1.0
1070
    74
1070
     0
1000
MTEXTEND
  0
POINT
  5
133F
330
5C0
100
AcDbEntity
  8
DEFPOINTS
 62
     0
100
AcDbPoint
 10
26.36442655106796
 20
17.65003471589753
 30
0.0
  0
POINT
  5
1340
330
5C0
100
AcDbEntity
  8
DEFPOINTS
 62
     0
100
AcDbPoint
 10
26.61442655106798
 20
17.65003471589753
 30
0.0
  0
POINT
  5
1341
330
5C0
100
AcDbEntity
  8
DEFPOINTS
 62
     0
100
AcDbPoint
 10
26.61442655106798
 20
18.60503471589753
 30
0.0
  0
ENDBLK
  5
5CC
330
5C0
100
AcDbEntity
  8
0
100
AcDbBlockEnd
  0
BLOCK
  5
5E6
330
5DB
100
AcDbEntity
  8
0
100
AcDbBlockBegin
  2
*D21
 70
     1
 10
0.0
 20
0.0
 30
0.0
  3
*D21
  1

  0
LINE
  5
1110
330
5DB
100
AcDbEntity
  8
DIM
 62
     0
100
AcDbLine
 10
28.48942655106798
 20
11.26456547604598
 30
0.0
 11
28.48942655106798
 21
9.013586876935708
 31
0.0
  0
LINE
  5
1111
330
5DB
100
AcDbEntity
  8
DIM
 62
     0
100
AcDbLine
 10
29.48942655106798
 20
11.89556547604599
 30
0.0
 11
29.48942655106798
 21
9.013586876935708
 31
0.0
  0
LINE
  5
1112
330
5DB
100
AcDbEntity
  8
DIM
 62
     0
100
AcDbLine
 10
27.94942655106797
 20
9.292586876935708
 30
0.0
 11
27.40942655106798
 21
9.292586876935708
 31
0.0
  0
LINE
  5
1113
330
5DB
100
AcDbEntity
  8
DIM
 62
     0
100
AcDbLine
 10
30.02942655106798
 20
9.292586876935708
 30
0.0
 11
30.56942655106798
 21
9.292586876935708
 31
0.0
  0
SOLID
  5
1114
330
5DB
100
AcDbEntity
  8
DIM
 62
     0
100
AcDbTrace
 10
27.94942655106797
 20
9.382586876935707
 30
0.0
 11
27.94942655106797
 21
9.202586876935708
 31
0.0
 12
28.48942655106798
 22
9.292586876935708
 32
0.0
 13
28.48942655106798
 23
9.292586876935708
 33
0.0
  0
SOLID
  5
1115
330
5DB
100
AcDbEntity
  8
DIM
 62
     0
100
AcDbTrace
 10
30.02942655106798
 20
9.382586876935707
 30
0.0
 11
30.02942655106798
 21
9.202586876935708
 31
0.0
 12
29.48942655106798
 22
9.292586876935708
 32
0.0
 13
29.48942655106798
 23
9.292586876935708
 33
0.0
  0
MTEXT
  5
1116
330
5DB
100
AcDbEntity
  8
DIM
 62
     0
100
AcDbMText
 10
31.28473905106798
 20
9.292586876935708
 30
0.0
 40
0.375
 41
0.0
 71
     5
 72
     1
  1
\A1;1.000
1001
ACAD
1000
MTEXTBEGIN
1070
    73
1070
     1
1070
    44
1040
1.0
1070
    74
1070
     0
1000
MTEXTEND
  0
POINT
  5
1117
330
5DB
100
AcDbEntity
  8
DEFPOINTS
 62
     0
100
AcDbPoint
 10
28.48942655106798
 20
11.45356547604598
 30
0.0
  0
POINT
  5
1118
330
5DB
100
AcDbEntity
  8
DEFPOINTS
 62
     0
100
AcDbPoint
 10
29.48942655106798
 20
12.08456547604598
 30
0.0
  0
POINT
  5
1119
330
5DB
100
AcDbEntity
  8
DEFPOINTS
 62
     0
100
AcDbPoint
 10
29.48942655106798
 20
9.292586876935708
 30
0.0
  0
ENDBLK
  5
5E7
330
5DB
100
AcDbEntity
  8
0
100
AcDbBlockEnd
  0
BLOCK
  5
5F3
330
5E8
100
AcDbEntity
  8
0
100
AcDbBlockBegin
  2
*D22
 70
     1
 10
0.0
 20
0.0
 30
0.0
  3
*D22
  1

  0
LINE
  5
10F2
330
5E8
100
AcDbEntity
  8
DIM
 62
     0
100
AcDbLine
 10
28.48942655106798
 20
11.26456547604598
 30
0.0
 11
28.48942655106798
 21
6.484586876935703
 31
0.0
  0
LINE
  5
10F3
330
5E8
100
AcDbEntity
  8
DIM
 62
     0
100
AcDbLine
 10
37.48942655106798
 20
11.89556547604599
 30
0.0
 11
37.48942655106798
 21
6.484586876935703
 31
0.0
  0
LINE
  5
10F4
330
5E8
100
AcDbEntity
  8
DIM
 62
     0
100
AcDbLine
 10
29.02942655106798
 20
6.763586876935703
 30
0.0
 11
32.22723905106796
 21
6.763586876935703
 31
0.0
  0
LINE
  5
10F5
330
5E8
100
AcDbEntity
  8
DIM
 62
     0
100
AcDbLine
 10
36.94942655106798
 20
6.763586876935703
 30
0.0
 11
33.75161405106798
 21
6.763586876935703
 31
0.0
  0
SOLID
  5
10F6
330
5E8
100
AcDbEntity
  8
DIM
 62
     0
100
AcDbTrace
 10
29.02942655106798
 20
6.853586876935703
 30
0.0
 11
29.02942655106798
 21
6.673586876935703
 31
0.0
 12
28.48942655106798
 22
6.763586876935703
 32
0.0
 13
28.48942655106798
 23
6.763586876935703
 33
0.0
  0
SOLID
  5
10F7
330
5E8
100
AcDbEntity
  8
DIM
 62
     0
100
AcDbTrace
 10
36.94942655106798
 20
6.853586876935703
 30
0.0
 11
36.94942655106798
 21
6.673586876935703
 31
0.0
 12
37.48942655106798
 22
6.763586876935703
 32
0.0
 13
37.48942655106798
 23
6.763586876935703
 33
0.0
  0
MTEXT
  5
10F8
330
5E8
100
AcDbEntity
  8
DIM
 62
     0
100
AcDbMText
 10
32.98942655106796
 20
6.763586876935703
 30
0.0
 40
0.375
 41
0.0
 71
     5
 72
     1
  1
\A1;9.000
1001
ACAD
1000
MTEXTBEGIN
1070
    73
1070
     1
1070
    44
1040
1.0
1070
    74
1070
     0
1000
MTEXTEND
  0
POINT
  5
10F9
330
5E8
100
AcDbEntity
  8
DEFPOINTS
 62
     0
100
AcDbPoint
 10
28.48942655106798
 20
11.45356547604598
 30
0.0
  0
POINT
  5
10FA
330
5E8
100
AcDbEntity
  8
DEFPOINTS
 62
     0
100
AcDbPoint
 10
37.48942655106798
 20
12.08456547604598
 30
0.0
  0
POINT
  5
10FB
330
5E8
100
AcDbEntity
  8
DEFPOINTS
 62
     0
100
AcDbPoint
 10
37.48942655106798
 20
6.763586876935703
 30
0.0
  0
ENDBLK
  5
5F4
330
5E8
100
AcDbEntity
  8
0
100
AcDbBlockEnd
  0
BLOCK
  5
63A
330
62F
100
AcDbEntity
  8
0
100
AcDbBlockBegin
  2
*D23
 70
     1
 10
0.0
 20
0.0
 30
0.0
  3
*D23
  1

  0
LINE
  5
11A2
330
62F
100
AcDbEntity
  8
DIM
 62
     0
100
AcDbLine
 10
9.085426551067977
 20
12.79956547604598
 30
0.0
 11
6.34638943863904
 21
12.79956547604598
 31
0.0
  0
LINE
  5
11A3
330
62F
100
AcDbEntity
  8
DIM
 62
     0
100
AcDbLine
 10
9.085426551067977
 20
12.17456547604598
 30
0.0
 11
6.34638943863904
 21
12.17456547604598
 31
0.0
  0
LINE
  5
11A4
330
62F
100
AcDbEntity
  8
DIM
 62
     0
100
AcDbLine
 10
6.625389438639039
 20
13.33956547604598
 30
0.0
 11
6.625389438639039
 21
13.87956547604598
 31
0.0
  0
LINE
  5
11A5
330
62F
100
AcDbEntity
  8
DIM
 62
     0
100
AcDbLine
 10
6.625389438639039
 20
11.63456547604597
 30
0.0
 11
6.625389438639039
 21
11.09456547604598
 31
0.0
  0
SOLID
  5
11A6
330
62F
100
AcDbEntity
  8
DIM
 62
     0
100
AcDbTrace
 10
6.53538943863904
 20
13.33956547604598
 30
0.0
 11
6.715389438639038
 21
13.33956547604598
 31
0.0
 12
6.625389438639039
 22
12.79956547604598
 32
0.0
 13
6.625389438639039
 23
12.79956547604598
 33
0.0
  0
SOLID
  5
11A7
330
62F
100
AcDbEntity
  8
DIM
 62
     0
100
AcDbTrace
 10
6.53538943863904
 20
11.63456547604597
 30
0.0
 11
6.715389438639038
 21
11.63456547604597
 31
0.0
 12
6.625389438639039
 22
12.17456547604598
 32
0.0
 13
6.625389438639039
 23
12.17456547604598
 33
0.0
  0
MTEXT
  5
11A8
330
62F
100
AcDbEntity
  8
DIM
 62
     0
100
AcDbMText
 10
6.625389438639037
 20
12.48706547604598
 30
0.0
 40
0.375
 41
0.0
 71
     5
 72
     1
  1
\A1;0.625
1001
ACAD
1000
MTEXTBEGIN
1070
    73
1070
     1
1070
    44
1040
1.0
1070
    74
1070
     0
1000
MTEXTEND
  0
POINT
  5
11A9
330
62F
100
AcDbEntity
  8
DEFPOINTS
 62
     0
100
AcDbPoint
 10
9.274426551067977
 20
12.79956547604598
 30
0.0
  0
POINT
  5
11AA
330
62F
100
AcDbEntity
  8
DEFPOINTS
 62
     0
100
AcDbPoint
 10
9.274426551067977
 20
12.17456547604598
 30
0.0
  0
POINT
  5
11AB
330
62F
100
AcDbEntity
  8
DEFPOINTS
 62
     0
100
AcDbPoint
 10
6.625389438639039
 20
12.17456547604598
 30
0.0
  0
ENDBLK
  5
63B
330
62F
100
AcDbEntity
  8
0
100
AcDbBlockEnd
  0
BLOCK
  5
647
330
63C
100
AcDbEntity
  8
0
100
AcDbBlockBegin
  2
*D24
 70
     1
 10
0.0
 20
0.0
 30
0.0
  3
*D24
  1

  0
LINE
  5
1182
330
63C
100
AcDbEntity
  8
DIM
 62
     0
100
AcDbLine
 10
9.085426551067977
 20
12.79956547604598
 30
0.0
 11
4.954098606356605
 21
12.79956547604598
 31
0.0
  0
LINE
  5
1183
330
63C
100
AcDbEntity
  8
DIM
 62
     0
100
AcDbLine
 10
10.45642655106796
 20
13.03356547604598
 30
0.0
 11
4.954098606356605
 21
13.03356547604598
 31
0.0
  0
LINE
  5
1184
330
63C
100
AcDbEntity
  8
DIM
 62
     0
100
AcDbLine
 10
5.233098606356603
 20
12.25956547604598
 30
0.0
 11
5.233098606356603
 21
11.71956547604598
 31
0.0
  0
LINE
  5
1185
330
63C
100
AcDbEntity
  8
DIM
 62
     0
100
AcDbLine
 10
5.233098606356603
 20
13.57356547604599
 30
0.0
 11
5.233098606356604
 21
14.4404873542104
 31
0.0
  0
LINE
  5
1186
330
63C
100
AcDbEntity
  8
DIM
 62
     0
100
AcDbLine
 10
5.233098606356604
 20
14.4404873542104
 30
0.0
 11
5.773098606356604
 21
14.4404873542104
 31
0.0
  0
SOLID
  5
1187
330
63C
100
AcDbEntity
  8
DIM
 62
     0
100
AcDbTrace
 10
5.143098606356605
 20
12.25956547604598
 30
0.0
 11
5.323098606356603
 21
12.25956547604598
 31
0.0
 12
5.233098606356603
 22
12.79956547604598
 32
0.0
 13
5.233098606356603
 23
12.79956547604598
 33
0.0
  0
SOLID
  5
1188
330
63C
100
AcDbEntity
  8
DIM
 62
     0
100
AcDbTrace
 10
5.143098606356605
 20
13.57356547604599
 30
0.0
 11
5.323098606356603
 21
13.57356547604599
 31
0.0
 12
5.233098606356603
 22
13.03356547604598
 32
0.0
 13
5.233098606356603
 23
13.03356547604598
 33
0.0
  0
MTEXT
  5
1189
330
63C
100
AcDbEntity
  8
DIM
 62
     0
100
AcDbMText
 10
6.582161106356602
 20
14.4404873542104
 30
0.0
 40
0.375
 41
0.0
 71
     5
 72
     1
  1
\A1;0.234
1001
ACAD
1000
MTEXTBEGIN
1070
    73
1070
     1
1070
    44
1040
1.0
1070
    74
1070
     0
1000
MTEXTEND
  0
POINT
  5
118A
330
63C
100
AcDbEntity
  8
DEFPOINTS
 62
     0
100
AcDbPoint
 10
9.274426551067977
 20
12.79956547604598
 30
0.0
  0
POINT
  5
118B
330
63C
100
AcDbEntity
  8
DEFPOINTS
 62
     0
100
AcDbPoint
 10
10.64542655106797
 20
13.03356547604598
 30
0.0
  0
POINT
  5
118C
330
63C
100
AcDbEntity
  8
DEFPOINTS
 62
     0
100
AcDbPoint
 10
5.233098606356603
 20
13.03356547604598
 30
0.0
  0
ENDBLK
  5
648
330
63C
100
AcDbEntity
  8
0
100
AcDbBlockEnd
  0
BLOCK
  5
654
330
649
100
AcDbEntity
  8
0
100
AcDbBlockBegin
  2
*D25
 70
     1
 10
0.0
 20
0.0
 30
0.0
  3
*D25
  1

  0
LINE
  5
1124
330
649
100
AcDbEntity
  8
DIM
 62
     0
100
AcDbLine
 10
26.48942655106798
 20
10.98606547604598
 30
0.0
 11
26.48942655106798
 21
7.327586876935707
 31
0.0
  0
LINE
  5
1125
330
649
100
AcDbEntity
  8
DIM
 62
     0
100
AcDbLine
 10
28.48942655106798
 20
11.26456547604598
 30
0.0
 11
28.48942655106798
 21
7.327586876935707
 31
0.0
  0
LINE
  5
1126
330
649
100
AcDbEntity
  8
DIM
 62
     0
100
AcDbLine
 10
25.94942655106798
 20
7.606586876935707
 30
0.0
 11
25.40942655106798
 21
7.606586876935707
 31
0.0
  0
LINE
  5
1127
330
649
100
AcDbEntity
  8
DIM
 62
     0
100
AcDbLine
 10
29.02942655106798
 20
7.606586876935707
 30
0.0
 11
29.56942655106796
 21
7.606586876935707
 31
0.0
  0
SOLID
  5
1128
330
649
100
AcDbEntity
  8
DIM
 62
     0
100
AcDbTrace
 10
25.94942655106798
 20
7.696586876935707
 30
0.0
 11
25.94942655106798
 21
7.516586876935707
 31
0.0
 12
26.48942655106798
 22
7.606586876935707
 32
0.0
 13
26.48942655106798
 23
7.606586876935707
 33
0.0
  0
SOLID
  5
1129
330
649
100
AcDbEntity
  8
DIM
 62
     0
100
AcDbTrace
 10
29.02942655106798
 20
7.696586876935707
 30
0.0
 11
29.02942655106798
 21
7.516586876935707
 31
0.0
 12
28.48942655106798
 22
7.606586876935707
 32
0.0
 13
28.48942655106798
 23
7.606586876935707
 33
0.0
  0
MTEXT
  5
112A
330
649
100
AcDbEntity
  8
DIM
 62
     0
100
AcDbMText
 10
27.48942655106798
 20
7.606586876935707
 30
0.0
 40
0.375
 41
0.0
 71
     5
 72
     1
  1
\A1;2.000
1001
ACAD
1000
MTEXTBEGIN
1070
    73
1070
     1
1070
    44
1040
1.0
1070
    74
1070
     0
1000
MTEXTEND
  0
POINT
  5
112B
330
649
100
AcDbEntity
  8
DEFPOINTS
 62
     0
100
AcDbPoint
 10
26.48942655106798
 20
11.17506547604598
 30
0.0
  0
POINT
  5
112C
330
649
100
AcDbEntity
  8
DEFPOINTS
 62
     0
100
AcDbPoint
 10
28.48942655106798
 20
11.45356547604598
 30
0.0
  0
POINT
  5
112D
330
649
100
AcDbEntity
  8
DEFPOINTS
 62
     0
100
AcDbPoint
 10
28.48942655106798
 20
7.606586876935707
 30
0.0
  0
ENDBLK
  5
655
330
649
100
AcDbEntity
  8
0
100
AcDbBlockEnd
  0
BLOCK
  5
661
330
656
100
AcDbEntity
  8
0
100
AcDbBlockBegin
  2
*D26
 70
     1
 10
0.0
 20
0.0
 30
0.0
  3
*D26
  1

  0
LINE
  5
10D4
330
656
100
AcDbEntity
  8
DIM
 62
     0
100
AcDbLine
 10
40.48942655106798
 20
10.988565476046
 30
0.0
 11
40.48942655106798
 21
8.170586876935711
 31
0.0
  0
LINE
  5
10D5
330
656
100
AcDbEntity
  8
DIM
 62
     0
100
AcDbLine
 10
41.98942655106797
 20
11.23556547604598
 30
0.0
 11
41.98942655106797
 21
8.170586876935711
 31
0.0
  0
LINE
  5
10D6
330
656
100
AcDbEntity
  8
DIM
 62
     0
100
AcDbLine
 10
39.94942655106799
 20
8.449586876935711
 30
0.0
 11
39.40942655106798
 21
8.449586876935711
 31
0.0
  0
LINE
  5
10D7
330
656
100
AcDbEntity
  8
DIM
 62
     0
100
AcDbLine
 10
42.52942655106799
 20
8.449586876935711
 30
0.0
 11
43.06942655106797
 21
8.449586876935711
 31
0.0
  0
SOLID
  5
10D8
330
656
100
AcDbEntity
  8
DIM
 62
     0
100
AcDbTrace
 10
39.94942655106799
 20
8.539586876935711
 30
0.0
 11
39.94942655106799
 21
8.359586876935711
 31
0.0
 12
40.48942655106798
 22
8.449586876935711
 32
0.0
 13
40.48942655106798
 23
8.449586876935711
 33
0.0
  0
SOLID
  5
10D9
330
656
100
AcDbEntity
  8
DIM
 62
     0
100
AcDbTrace
 10
42.52942655106799
 20
8.539586876935711
 30
0.0
 11
42.52942655106799
 21
8.359586876935711
 31
0.0
 12
41.98942655106797
 22
8.449586876935711
 32
0.0
 13
41.98942655106797
 23
8.449586876935711
 33
0.0
  0
MTEXT
  5
10DA
330
656
100
AcDbEntity
  8
DIM
 62
     0
100
AcDbMText
 10
41.23942655106797
 20
8.449586876935711
 30
0.0
 40
0.375
 41
0.0
 71
     5
 72
     1
  1
\A1;1.500
1001
ACAD
1000
MTEXTBEGIN
1070
    73
1070
     1
1070
    44
1040
1.0
1070
    74
1070
     0
1000
MTEXTEND
  0
POINT
  5
10DB
330
656
100
AcDbEntity
  8
DEFPOINTS
 62
     0
100
AcDbPoint
 10
40.48942655106798
 20
11.177565476046
 30
0.0
  0
POINT
  5
10DC
330
656
100
AcDbEntity
  8
DEFPOINTS
 62
     0
100
AcDbPoint
 10
41.98942655106797
 20
11.42456547604598
 30
0.0
  0
POINT
  5
10DD
330
656
100
AcDbEntity
  8
DEFPOINTS
 62
     0
100
AcDbPoint
 10
41.98942655106797
 20
8.449586876935711
 30
0.0
  0
ENDBLK
  5
662
330
656
100
AcDbEntity
  8
0
100
AcDbBlockEnd
  0
BLOCK
  5
66E
330
663
100
AcDbEntity
  8
0
100
AcDbBlockBegin
  2
*D27
 70
     1
 10
0.0
 20
0.0
 30
0.0
  3
*D27
  1

  0
LINE
  5
1084
330
663
100
AcDbEntity
  8
DIM
 62
     0
100
AcDbLine
 10
26.48942655106798
 20
10.98606547604598
 30
0.0
 11
26.48942655106798
 21
8.170586876935711
 31
0.0
  0
LINE
  5
1085
330
663
100
AcDbEntity
  8
DIM
 62
     0
100
AcDbLine
 10
24.48942655106798
 20
11.26456547604598
 30
0.0
 11
24.48942655106798
 21
8.170586876935711
 31
0.0
  0
LINE
  5
1086
330
663
100
AcDbEntity
  8
DIM
 62
     0
100
AcDbLine
 10
27.02942655106796
 20
8.449586876935711
 30
0.0
 11
27.56942655106796
 21
8.449586876935711
 31
0.0
  0
LINE
  5
1087
330
663
100
AcDbEntity
  8
DIM
 62
     0
100
AcDbLine
 10
23.94942655106798
 20
8.449586876935711
 30
0.0
 11
23.40942655106798
 21
8.449586876935711
 31
0.0
  0
SOLID
  5
1088
330
663
100
AcDbEntity
  8
DIM
 62
     0
100
AcDbTrace
 10
27.02942655106796
 20
8.539586876935711
 30
0.0
 11
27.02942655106796
 21
8.359586876935711
 31
0.0
 12
26.48942655106798
 22
8.449586876935711
 32
0.0
 13
26.48942655106798
 23
8.449586876935711
 33
0.0
  0
SOLID
  5
1089
330
663
100
AcDbEntity
  8
DIM
 62
     0
100
AcDbTrace
 10
23.94942655106798
 20
8.539586876935711
 30
0.0
 11
23.94942655106798
 21
8.359586876935711
 31
0.0
 12
24.48942655106798
 22
8.449586876935711
 32
0.0
 13
24.48942655106798
 23
8.449586876935711
 33
0.0
  0
MTEXT
  5
108A
330
663
100
AcDbEntity
  8
DIM
 62
     0
100
AcDbMText
 10
25.48942655106798
 20
8.449586876935711
 30
0.0
 40
0.375
 41
0.0
 71
     5
 72
     1
  1
\A1;2.000
1001
ACAD
1000
MTEXTBEGIN
1070
    73
1070
     1
1070
    44
1040
1.0
1070
    74
1070
     0
1000
MTEXTEND
  0
POINT
  5
108B
330
663
100
AcDbEntity
  8
DEFPOINTS
 62
     0
100
AcDbPoint
 10
26.48942655106798
 20
11.17506547604598
 30
0.0
  0
POINT
  5
108C
330
663
100
AcDbEntity
  8
DEFPOINTS
 62
     0
100
AcDbPoint
 10
24.48942655106798
 20
11.45356547604598
 30
0.0
  0
POINT
  5
108D
330
663
100
AcDbEntity
  8
DEFPOINTS
 62
     0
100
AcDbPoint
 10
24.48942655106798
 20
8.449586876935711
 30
0.0
  0
ENDBLK
  5
66F
330
663
100
AcDbEntity
  8
0
100
AcDbBlockEnd
  0
BLOCK
  5
67B
330
670
100
AcDbEntity
  8
0
100
AcDbBlockBegin
  2
*D28
 70
     1
 10
0.0
 20
0.0
 30
0.0
  3
*D28
  1

  0
LINE
  5
1213
330
670
100
AcDbEntity
  8
DIM
 62
     0
100
AcDbLine
 10
41.76842655106797
 20
11.61256547604596
 30
0.0
 11
44.58808519129725
 21
11.61256547604596
 31
0.0
  0
LINE
  5
1214
330
670
100
AcDbEntity
  8
DIM
 62
     0
100
AcDbLine
 10
41.78742655106797
 20
12.73756547604597
 30
0.0
 11
44.58808519129725
 21
12.73756547604596
 31
0.0
  0
LINE
  5
1215
330
670
100
AcDbEntity
  8
DIM
 62
     0
100
AcDbLine
 10
44.30908519129725
 20
11.07256547604596
 30
0.0
 11
44.30908519129725
 21
10.53256547604596
 31
0.0
  0
LINE
  5
1216
330
670
100
AcDbEntity
  8
DIM
 62
     0
100
AcDbLine
 10
44.30908519129725
 20
13.27756547604596
 30
0.0
 11
44.30908519129725
 21
13.81756547604596
 31
0.0
  0
SOLID
  5
1217
330
670
100
AcDbEntity
  8
DIM
 62
     0
100
AcDbTrace
 10
44.21908519129725
 20
11.07256547604596
 30
0.0
 11
44.39908519129725
 21
11.07256547604596
 31
0.0
 12
44.30908519129725
 22
11.61256547604596
 32
0.0
 13
44.30908519129725
 23
11.61256547604596
 33
0.0
  0
SOLID
  5
1218
330
670
100
AcDbEntity
  8
DIM
 62
     0
100
AcDbTrace
 10
44.21908519129725
 20
13.27756547604596
 30
0.0
 11
44.39908519129725
 21
13.27756547604596
 31
0.0
 12
44.30908519129725
 22
12.73756547604596
 32
0.0
 13
44.30908519129725
 23
12.73756547604596
 33
0.0
  0
MTEXT
  5
1219
330
670
100
AcDbEntity
  8
DIM
 62
     0
100
AcDbMText
 10
44.30908519129725
 20
12.17506547604597
 30
0.0
 40
0.375
 41
0.0
 71
     5
 72
     1
  1
\A1;1.125
1001
ACAD
1000
MTEXTBEGIN
1070
    73
1070
     1
1070
    44
1040
1.0
1070
    74
1070
     0
1000
MTEXTEND
  0
POINT
  5
121A
330
670
100
AcDbEntity
  8
DEFPOINTS
 62
     0
100
AcDbPoint
 10
41.57942655106799
 20
11.61256547604596
 30
0.0
  0
POINT
  5
121B
330
670
100
AcDbEntity
  8
DEFPOINTS
 62
     0
100
AcDbPoint
 10
41.59842655106799
 20
12.73756547604597
 30
0.0
  0
POINT
  5
121C
330
670
100
AcDbEntity
  8
DEFPOINTS
 62
     0
100
AcDbPoint
 10
44.30908519129725
 20
12.73756547604596
 30
0.0
  0
ENDBLK
  5
67C
330
670
100
AcDbEntity
  8
0
100
AcDbBlockEnd
  0
BLOCK
  5
695
330
68A
100
AcDbEntity
  8
0
100
AcDbBlockBegin
  2
*D29
 70
     1
 10
0.0
 20
0.0
 30
0.0
  3
*D29
  1

  0
LINE
  5
11F7
330
68A
100
AcDbEntity
  8
DIM
 62
     0
100
AcDbLine
 10
10.80042655106796
 20
22.91078263688662
 30
0.0
 11
7.588847335260854
 21
22.91078263688662
 31
0.0
  0
LINE
  5
11F8
330
68A
100
AcDbEntity
  8
DIM
 62
     0
100
AcDbLine
 10
8.800426551067971
 20
22.04078263688662
 30
0.0
 11
7.588847335260854
 21
22.04078263688662
 31
0.0
  0
LINE
  5
11F9
330
68A
100
AcDbEntity
  8
DIM
 62
     0
100
AcDbLine
 10
7.867847335260854
 20
23.45078263688662
 30
0.0
 11
7.867847335260854
 21
23.99078263688662
 31
0.0
  0
LINE
  5
11FA
330
68A
100
AcDbEntity
  8
DIM
 62
     0
100
AcDbLine
 10
7.867847335260854
 20
21.50078263688663
 30
0.0
 11
7.867847335260854
 21
20.96078263688663
 31
0.0
  0
SOLID
  5
11FB
330
68A
100
AcDbEntity
  8
DIM
 62
     0
100
AcDbTrace
 10
7.777847335260855
 20
23.45078263688662
 30
0.0
 11
7.957847335260854
 21
23.45078263688662
 31
0.0
 12
7.867847335260854
 22
22.91078263688662
 32
0.0
 13
7.867847335260854
 23
22.91078263688662
 33
0.0
  0
SOLID
  5
11FC
330
68A
100
AcDbEntity
  8
DIM
 62
     0
100
AcDbTrace
 10
7.777847335260855
 20
21.50078263688663
 30
0.0
 11
7.957847335260853
 21
21.50078263688663
 31
0.0
 12
7.867847335260854
 22
22.04078263688662
 32
0.0
 13
7.867847335260854
 23
22.04078263688662
 33
0.0
  0
MTEXT
  5
11FD
330
68A
100
AcDbEntity
  8
DIM
 62
     0
100
AcDbMText
 10
7.867847335260852
 20
22.47578263688663
 30
0.0
 40
0.375
 41
0.0
 71
     5
 72
     1
  1
\A1;0.880
1001
ACAD
1000
MTEXTBEGIN
1070
    73
1070
     1
1070
    44
1040
1.0
1070
    74
1070
     0
1000
MTEXTEND
  0
POINT
  5
11FE
330
68A
100
AcDbEntity
  8
DEFPOINTS
 62
     0
100
AcDbPoint
 10
10.98942655106798
 20
22.91078263688662
 30
0.0
  0
POINT
  5
11FF
330
68A
100
AcDbEntity
  8
DEFPOINTS
 62
     0
100
AcDbPoint
 10
8.989426551067971
 20
22.04078263688662
 30
0.0
  0
POINT
  5
1200
330
68A
100
AcDbEntity
  8
DEFPOINTS
 62
     0
100
AcDbPoint
 10
7.867847335260854
 20
22.04078263688662
 30
0.0
  0
ENDBLK
  5
696
330
68A
100
AcDbEntity
  8
0
100
AcDbBlockEnd
  0
BLOCK
  5
6B7
330
6AC
100
AcDbEntity
  8
0
100
AcDbBlockBegin
  2
*D30
 70
     1
 10
0.0
 20
0.0
 30
0.0
  3
*D30
  1

  0
LINE
  5
1293
330
6AC
100
AcDbEntity
  8
DIM
 62
     0
100
AcDbLine
 10
15.17442655106798
 20
11.98556550668177
 30
0.0
 11
15.17442655106798
 21
10.30079337343501
 31
0.0
  0
LINE
  5
1294
330
6AC
100
AcDbEntity
  8
DIM
 62
     0
100
AcDbLine
 10
15.80442655106798
 20
11.98556544540773
 30
0.0
 11
15.80442655106798
 21
10.30079337343501
 31
0.0
  0
LINE
  5
1295
330
6AC
100
AcDbEntity
  8
DIM
 62
     0
100
AcDbLine
 10
14.63442655106798
 20
10.579793373435
 30
0.0
 11
14.09442655106799
 21
10.579793373435
 31
0.0
  0
LINE
  5
1296
330
6AC
100
AcDbEntity
  8
DIM
 62
     0
100
AcDbLine
 10
16.34442655106798
 20
10.579793373435
 30
0.0
 11
16.88442655106799
 21
10.579793373435
 31
0.0
  0
SOLID
  5
1297
330
6AC
100
AcDbEntity
  8
DIM
 62
     0
100
AcDbTrace
 10
14.63442655106798
 20
10.66979337343501
 30
0.0
 11
14.63442655106798
 21
10.48979337343501
 31
0.0
 12
15.17442655106798
 22
10.579793373435
 32
0.0
 13
15.17442655106798
 23
10.579793373435
 33
0.0
  0
SOLID
  5
1298
330
6AC
100
AcDbEntity
  8
DIM
 62
     0
100
AcDbTrace
 10
16.34442655106798
 20
10.66979337343501
 30
0.0
 11
16.34442655106798
 21
10.48979337343501
 31
0.0
 12
15.80442655106798
 22
10.579793373435
 32
0.0
 13
15.80442655106798
 23
10.579793373435
 33
0.0
  0
MTEXT
  5
1299
330
6AC
100
AcDbEntity
  8
DIM
 62
     0
100
AcDbMText
 10
18.88880155106797
 20
10.579793373435
 30
0.0
 40
0.375
 41
0.0
 71
     5
 72
     1
  1
\A1;0.630 REF. TYP.
1001
ACAD
1000
MTEXTBEGIN
1070
    73
1070
     1
1070
    44
1040
1.0
1070
    74
1070
     0
1000
MTEXTEND
  0
POINT
  5
129A
330
6AC
100
AcDbEntity
  8
DEFPOINTS
 62
     0
100
AcDbPoint
 10
15.17442655106798
 20
12.17456550668178
 30
0.0
  0
POINT
  5
129B
330
6AC
100
AcDbEntity
  8
DEFPOINTS
 62
     0
100
AcDbPoint
 10
15.80442655106798
 20
12.17456544540773
 30
0.0
  0
POINT
  5
129C
330
6AC
100
AcDbEntity
  8
DEFPOINTS
 62
     0
100
AcDbPoint
 10
15.80442655106798
 20
10.579793373435
 30
0.0
  0
ENDBLK
  5
6B8
330
6AC
100
AcDbEntity
  8
0
100
AcDbBlockEnd
  0
BLOCK
  5
1247
330
123B
100
AcDbEntity
  8
0
100
AcDbBlockBegin
  2
*D31
 70
     1
 10
0.0
 20
0.0
 30
0.0
  3
*D31
  1

  0
LINE
  5
1254
330
123B
100
AcDbEntity
  8
DIM
 62
     0
100
AcDbLine
 10
41.76842655106797
 20
12.73756547604597
 30
0.0
 11
43.30996387357695
 21
12.73756547604597
 31
0.0
  0
LINE
  5
1255
330
123B
100
AcDbEntity
  8
DIM
 62
     0
100
AcDbLine
 10
40.52242655106796
 20
13.03356547604597
 30
0.0
 11
43.30996387357695
 21
13.03356547604597
 31
0.0
  0
LINE
  5
1256
330
123B
100
AcDbEntity
  8
DIM
 62
     0
100
AcDbLine
 10
43.03096387357696
 20
12.19756547604597
 30
0.0
 11
43.03096387357696
 21
11.65756547604597
 31
0.0
  0
LINE
  5
1257
330
123B
100
AcDbEntity
  8
DIM
 62
     0
100
AcDbLine
 10
43.03096387357696
 20
13.57356547604597
 30
0.0
 11
43.03096387357696
 21
14.42763484159175
 31
0.0
  0
LINE
  5
1258
330
123B
100
AcDbEntity
  8
DIM
 62
     0
100
AcDbLine
 10
43.03096387357696
 20
14.42763484159175
 30
0.0
 11
43.57096387357695
 21
14.42763484159175
 31
0.0
  0
SOLID
  5
1259
330
123B
100
AcDbEntity
  8
DIM
 62
     0
100
AcDbTrace
 10
42.94096387357693
 20
12.19756547604597
 30
0.0
 11
43.12096387357695
 21
12.19756547604597
 31
0.0
 12
43.03096387357696
 22
12.73756547604597
 32
0.0
 13
43.03096387357696
 23
12.73756547604597
 33
0.0
  0
SOLID
  5
125A
330
123B
100
AcDbEntity
  8
DIM
 62
     0
100
AcDbTrace
 10
42.94096387357693
 20
13.57356547604597
 30
0.0
 11
43.12096387357695
 21
13.57356547604597
 31
0.0
 12
43.03096387357696
 22
13.03356547604597
 32
0.0
 13
43.03096387357696
 23
13.03356547604597
 33
0.0
  0
MTEXT
  5
125B
330
123B
100
AcDbEntity
  8
DIM
 62
     0
100
AcDbMText
 10
44.38002637357695
 20
14.42763484159176
 30
0.0
 40
0.375
 41
0.0
 71
     5
 72
     1
  1
\A1;0.296
1001
ACAD
1000
MTEXTBEGIN
1070
    73
1070
     1
1070
    44
1040
1.0
1070
    74
1070
     0
1000
MTEXTEND
  0
POINT
  5
125C
330
123B
100
AcDbEntity
  8
DEFPOINTS
 62
     0
100
AcDbPoint
 10
41.57942655106799
 20
12.73756547604597
 30
0.0
  0
POINT
  5
125D
330
123B
100
AcDbEntity
  8
DEFPOINTS
 62
     0
100
AcDbPoint
 10
40.33342655106796
 20
13.03356547604597
 30
0.0
  0
POINT
  5
125E
330
123B
100
AcDbEntity
  8
DEFPOINTS
 62
     0
100
AcDbPoint
 10
43.03096387357696
 20
13.03356547604597
 30
0.0
  0
ENDBLK
  5
1248
330
123B
100
AcDbEntity
  8
0
100
AcDbBlockEnd
  0
BLOCK
  5
12A9
330
129E
100
AcDbEntity
  8
0
100
AcDbBlockBegin
  2
*D32
 70
     1
 10
0.0
 20
0.0
 30
0.0
  3
*D32
  1

  0
LINE
  5
12B5
330
129E
100
AcDbEntity
  8
DIM
 62
     0
100
AcDbLine
 10
9.364426551067976
 20
11.27056547604598
 30
0.0
 11
9.364426551067976
 21
9.013586876935708
 31
0.0
  0
LINE
  5
12B6
330
129E
100
AcDbEntity
  8
DIM
 62
     0
100
AcDbLine
 10
8.989426551067976
 20
11.18856547604597
 30
0.0
 11
8.989426551067976
 21
9.013586876935708
 31
0.0
  0
LINE
  5
12B7
330
129E
100
AcDbEntity
  8
DIM
 62
     0
100
AcDbLine
 10
9.904426551067976
 20
9.292586876935708
 30
0.0
 11
10.44442655106798
 21
9.292586876935708
 31
0.0
  0
LINE
  5
12B8
330
129E
100
AcDbEntity
  8
DIM
 62
     0
100
AcDbLine
 10
8.449426551067977
 20
9.292586876935708
 30
0.0
 11
7.909426551067976
 21
9.292586876935708
 31
0.0
  0
SOLID
  5
12B9
330
129E
100
AcDbEntity
  8
DIM
 62
     0
100
AcDbTrace
 10
9.904426551067976
 20
9.382586876935707
 30
0.0
 11
9.904426551067976
 21
9.202586876935708
 31
0.0
 12
9.364426551067976
 22
9.292586876935708
 32
0.0
 13
9.364426551067976
 23
9.292586876935708
 33
0.0
  0
SOLID
  5
12BA
330
129E
100
AcDbEntity
  8
DIM
 62
     0
100
AcDbTrace
 10
8.449426551067977
 20
9.382586876935707
 30
0.0
 11
8.449426551067977
 21
9.202586876935708
 31
0.0
 12
8.989426551067976
 22
9.292586876935708
 32
0.0
 13
8.989426551067976
 23
9.292586876935708
 33
0.0
  0
MTEXT
  5
12BB
330
129E
100
AcDbEntity
  8
DIM
 62
     0
100
AcDbMText
 10
7.100364051067978
 20
9.292586876935708
 30
0.0
 40
0.375
 41
0.0
 71
     5
 72
     1
  1
\A1;0.375
1001
ACAD
1000
MTEXTBEGIN
1070
    73
1070
     1
1070
    44
1040
1.0
1070
    74
1070
     0
1000
MTEXTEND
  0
POINT
  5
12BC
330
129E
100
AcDbEntity
  8
DEFPOINTS
 62
     0
100
AcDbPoint
 10
9.364426551067976
 20
11.45956547604598
 30
0.0
  0
POINT
  5
12BD
330
129E
100
AcDbEntity
  8
DEFPOINTS
 62
     0
100
AcDbPoint
 10
8.989426551067976
 20
11.37756547604598
 30
0.0
  0
POINT
  5
12BE
330
129E
100
AcDbEntity
  8
DEFPOINTS
 62
     0
100
AcDbPoint
 10
8.989426551067976
 20
9.292586876935708
 30
0.0
  0
ENDBLK
  5
12AA
330
129E
100
AcDbEntity
  8
0
100
AcDbBlockEnd
  0
ENDSEC
  0
SECTION
  2
ENTITIES
  0
TEXT
  5
320
330
1E
100
AcDbEntity
  8
TEXT
100
AcDbText
 10
30.82473252779466
 20
24.1366271650208
 30
0.0
 40
0.375
  1
MATERIAL:  16 GA. STEEL
 41
0.75
100
AcDbText
  0
TEXT
  5
321
330
1E
100
AcDbEntity
  8
TEXT
100
AcDbText
 10
30.82473252779466
 20
23.5116271650208
 30
0.0
 40
0.375
  1
FINISH:  ZINC PLATED & CLEAR CHROMATED
 41
0.75
100
AcDbText
  0
TEXT
  5
322
330
1E
100
AcDbEntity
  8
TEXT
100
AcDbText
 10
9.717679320670709
 20
27.90486211751372
 30
0.0
 40
0.5620000000000001
  1
CABLE CARRIER
 41
0.75
 72
     1
 11
12.31692932067071
 21
27.90486211751372
 31
0.0
100
AcDbText
  0
TEXT
  5
323
330
1E
100
AcDbEntity
  8
TEXT
100
AcDbText
 10
31.8092221575286
 20
27.95335227463693
 30
0.0
 40
0.5620000000000001
  1
CC-5191
 41
0.75
 72
     1
 11
33.0737221575286
 21
27.95335227463693
 31
0.0
100
AcDbText
  0
LINE
  5
324
330
1E
100
AcDbEntity
  8
OBJECT
100
AcDbLine
 10
8.989426551067976
 20
11.37756547604598
 30
0.0
 11
8.989426551067976
 21
12.97156547604598
 31
0.0
  0
LINE
  5
326
330
1E
100
AcDbEntity
  8
OBJECT
100
AcDbLine
 10
40.33342655106796
 20
11.31556547604598
 30
0.0
 11
26.64542655106798
 21
11.31556547604599
 31
0.0
  0
LINE
  5
327
330
1E
100
AcDbEntity
  8
CENTER
100
AcDbLine
 10
9.274426551067977
 20
12.17456547604598
 30
0.0
 11
9.454426551067976
 21
12.17456547604598
 31
0.0
  0
LINE
  5
328
330
1E
100
AcDbEntity
  8
CENTER
100
AcDbLine
 10
9.364426551067976
 20
11.45956547604598
 30
0.0
 11
9.364426551067976
 21
11.63956547604598
 31
0.0
  0
LINE
  5
329
330
1E
100
AcDbEntity
  8
CENTER
100
AcDbLine
 10
9.364426551067976
 20
12.08456547604598
 30
0.0
 11
9.364426551067976
 21
12.26456547604598
 31
0.0
  0
LINE
  5
32A
330
1E
100
AcDbEntity
  8
CENTER
100
AcDbLine
 10
9.274426551067977
 20
12.79956547604598
 30
0.0
 11
9.454426551067976
 21
12.79956547604598
 31
0.0
  0
LINE
  5
32D
330
1E
100
AcDbEntity
  8
CENTER
100
AcDbLine
 10
9.364426551067976
 20
12.88956547604598
 30
0.0
 11
9.364426551067976
 21
12.70956547604598
 31
0.0
  0
LINE
  5
32E
330
1E
100
AcDbEntity
  8
CENTER
100
AcDbLine
 10
9.274426551067977
 20
11.54956547604598
 30
0.0
 11
9.454426551067976
 21
11.54956547604598
 31
0.0
  0
LINE
  5
32F
330
1E
100
AcDbEntity
  8
OBJECT
100
AcDbLine
 10
10.36442655106798
 20
11.37756547604598
 30
0.0
 11
10.36442655106798
 21
12.97156547604598
 31
0.0
  0
LINE
  5
330
330
1E
100
AcDbEntity
  8
OBJECT
100
AcDbLine
 10
10.61442655106798
 20
11.37756547604598
 30
0.0
 11
10.61442655106798
 21
12.97156547604598
 31
0.0
  0
LINE
  5
342
330
1E
100
AcDbEntity
  8
OBJECT
100
AcDbLine
 10
26.33342655106796
 20
11.31556547604599
 30
0.0
 11
10.64542655106797
 21
11.31556547604599
 31
0.0
  0
LINE
  5
343
330
1E
100
AcDbEntity
  8
OBJECT
100
AcDbLine
 10
26.64542655106798
 20
13.03356547604598
 30
0.0
 11
40.33342655106796
 21
13.03356547604597
 31
0.0
  0
LINE
  5
344
330
1E
100
AcDbEntity
  8
OBJECT
100
AcDbLine
 10
10.64542655106797
 20
11.31556547604599
 30
0.0
 11
10.64542655106797
 21
11.37756547604598
 31
0.0
  0
LINE
  5
346
330
1E
100
AcDbEntity
  8
OBJECT
100
AcDbLine
 10
10.64542655106797
 20
13.03356547604598
 30
0.0
 11
26.33342655106796
 21
13.03356547604598
 31
0.0
  0
LINE
  5
34B
330
1E
100
AcDbEntity
  8
OBJECT
100
AcDbLine
 10
26.33342655106796
 20
11.31556547604599
 30
0.0
 11
26.33342655106796
 21
13.03356547604598
 31
0.0
  0
LINE
  5
358
330
1E
100
AcDbEntity
  8
OBJECT
100
AcDbLine
 10
26.61442655106798
 20
11.92456547604598
 30
0.0
 11
26.61442655106798
 21
12.42456547604599
 31
0.0
  0
LINE
  5
359
330
1E
100
AcDbEntity
  8
OBJECT
100
AcDbLine
 10
26.36442655106796
 20
11.42456547604598
 30
0.0
 11
26.36442655106796
 21
11.92456547604598
 31
0.0
  0
LINE
  5
35C
330
1E
100
AcDbEntity
  8
OBJECT
100
AcDbLine
 10
26.64542655106798
 20
11.31556547604599
 30
0.0
 11
26.64542655106798
 21
13.03356547604598
 31
0.0
  0
LINE
  5
35D
330
1E
100
AcDbEntity
  8
HIDDEN
100
AcDbLine
 10
24.98942655106798
 20
11.42456547604598
 30
0.0
 11
24.98942655106798
 21
12.92456547604598
 31
0.0
  0
LINE
  5
360
330
1E
100
AcDbEntity
  8
OBJECT
100
AcDbLine
 10
26.33342655106796
 20
11.37556547604598
 30
0.0
 11
10.64542655106797
 21
11.37556547604599
 31
0.0
  0
LINE
  5
361
330
1E
100
AcDbEntity
  8
OBJECT
100
AcDbLine
 10
10.64542655106797
 20
12.97356547604599
 30
0.0
 11
26.33342655106796
 21
12.97356547604598
 31
0.0
  0
LINE
  5
362
330
1E
100
AcDbEntity
  8
HIDDEN
100
AcDbLine
 10
27.98942655106798
 20
11.42456547604598
 30
0.0
 11
27.98942655106798
 21
12.92456547604598
 31
0.0
  0
LINE
  5
368
330
1E
100
AcDbEntity
  8
OBJECT
100
AcDbLine
 10
40.36442655106796
 20
11.42456547604598
 30
0.0
 11
40.36442655106796
 21
12.92456547604598
 31
0.0
  0
LINE
  5
378
330
1E
100
AcDbEntity
  8
OBJECT
100
AcDbLine
 10
40.33342655106796
 20
11.31556547604598
 30
0.0
 11
40.33342655106796
 21
13.03356547604597
 31
0.0
  0
LINE
  5
386
330
1E
100
AcDbEntity
  8
CENTER
100
AcDbLine
 10
41.39942655106797
 20
12.73756547604597
 30
0.0
 11
41.57942655106799
 21
12.73756547604597
 31
0.0
  0
LINE
  5
387
330
1E
100
AcDbEntity
  8
CENTER
100
AcDbLine
 10
41.48942655106798
 20
12.64756547604597
 30
0.0
 11
41.48942655106798
 21
12.82756547604597
 31
0.0
  0
LINE
  5
388
330
1E
100
AcDbEntity
  8
CENTER
100
AcDbLine
 10
41.48942655106798
 20
11.70256547604597
 30
0.0
 11
41.48942655106798
 21
11.52256547604597
 31
0.0
  0
LINE
  5
389
330
1E
100
AcDbEntity
  8
CENTER
100
AcDbLine
 10
41.39942655106797
 20
11.61256547604596
 30
0.0
 11
41.57942655106799
 21
11.61256547604596
 31
0.0
  0
LINE
  5
38B
330
1E
100
AcDbEntity
  8
OBJECT
100
AcDbLine
 10
40.33342655106795
 20
11.37556547604598
 30
0.0
 11
26.64542655106796
 21
11.37556547604598
 31
0.0
  0
LINE
  5
38C
330
1E
100
AcDbEntity
  8
OBJECT
100
AcDbLine
 10
26.64542655106798
 20
12.97356547604598
 30
0.0
 11
40.33342655106796
 21
12.97356547604597
 31
0.0
  0
LINE
  5
39E
330
1E
100
AcDbEntity
  8
HIDDEN
100
AcDbLine
 10
40.2740640006971
 20
12.92456547604598
 30
0.0
 11
39.52042655106797
 21
12.92456547604598
 31
0.0
  0
LINE
  5
3A0
330
1E
100
AcDbEntity
  8
HIDDEN
100
AcDbLine
 10
26.64542655106798
 20
17.46503471589753
 30
0.0
 11
28.36833154704216
 21
17.46503471589753
 31
0.0
  0
LINE
  5
3A1
330
1E
100
AcDbEntity
  8
HIDDEN
100
AcDbLine
 10
10.64542655106797
 20
17.46503471589753
 30
0.0
 11
14.36833154704221
 21
17.46503471589753
 31
0.0
  0
LINE
  5
3A2
330
1E
100
AcDbEntity
  8
OBJECT
100
AcDbLine
 10
10.64542655106797
 20
17.52503471589754
 30
0.0
 11
26.33342655106796
 21
17.52503471589752
 31
0.0
  0
LINE
  5
3A3
330
1E
100
AcDbEntity
  8
OBJECT
100
AcDbLine
 10
26.64542655106798
 20
17.52503471589752
 30
0.0
 11
40.33342655106796
 21
17.52503471589752
 31
0.0
  0
LINE
  5
3A4
330
1E
100
AcDbEntity
  8
OBJECT
100
AcDbLine
 10
10.64542655106797
 20
17.15003471589753
 30
0.0
 11
26.33342655106796
 21
17.15003471589753
 31
0.0
  0
LINE
  5
3A5
330
1E
100
AcDbEntity
  8
HIDDEN
100
AcDbLine
 10
11.98942655106796
 20
17.40503471589754
 30
0.0
 11
11.98942655106796
 21
17.46503471589753
 31
0.0
  0
LINE
  5
3A6
330
1E
100
AcDbEntity
  8
OBJECT
100
AcDbLine
 10
8.989426551067971
 20
17.46503471589753
 30
0.0
 11
8.989426551067971
 21
17.40503471589754
 31
0.0
  0
LINE
  5
3A7
330
1E
100
AcDbEntity
  8
OBJECT
100
AcDbLine
 10
8.989426551067971
 20
17.46503471589753
 30
0.0
 11
10.64542655106797
 21
17.46503471589753
 31
0.0
  0
LINE
  5
3A8
330
1E
100
AcDbEntity
  8
OBJECT
100
AcDbLine
 10
8.989426551067971
 20
17.40503471589754
 30
0.0
 11
10.38265576854761
 21
17.40503471589754
 31
0.0
  0
CIRCLE
  5
3A9
330
1E
100
AcDbEntity
  8
OBJECT
100
AcDbCircle
 10
10.48942655106797
 20
17.34003471589753
 30
0.0
 40
0.125
  0
LINE
  5
3AA
330
1E
100
AcDbEntity
  8
OBJECT
100
AcDbLine
 10
10.64542655106797
 20
17.15003471589753
 30
0.0
 11
10.64542655106797
 21
17.52503471589754
 31
0.0
  0
LINE
  5
3AB
330
1E
100
AcDbEntity
  8
HIDDEN
100
AcDbLine
 10
10.59619733358831
 20
17.40503471589754
 30
0.0
 11
11.98942655106796
 21
17.40503471589754
 31
0.0
  0
LINE
  5
3AC
330
1E
100
AcDbEntity
  8
OBJECT
100
AcDbLine
 10
26.64542655106798
 20
17.15003471589753
 30
0.0
 11
40.33342655106796
 21
17.15003471589751
 31
0.0
  0
LINE
  5
3AD
330
1E
100
AcDbEntity
  8
OBJECT
100
AcDbLine
 10
26.33342655106796
 20
17.15003471589753
 30
0.0
 11
26.33342655106796
 21
17.52503471589752
 31
0.0
  0
LINE
  5
3AE
330
1E
100
AcDbEntity
  8
OBJECT
100
AcDbLine
 10
26.64542655106798
 20
17.52503471589752
 30
0.0
 11
26.64542655106798
 21
17.15003471589753
 31
0.0
  0
LINE
  5
3AF
330
1E
100
AcDbEntity
  8
OBJECT
100
AcDbLine
 10
24.98942655106798
 20
17.52503471589752
 30
0.0
 11
24.98942655106798
 21
17.58503471589752
 31
0.0
  0
LINE
  5
3B0
330
1E
100
AcDbEntity
  8
OBJECT
100
AcDbLine
 10
27.98942655106797
 20
17.52503471589752
 30
0.0
 11
27.98942655106797
 21
17.58503471589754
 31
0.0
  0
LINE
  5
3B1
330
1E
100
AcDbEntity
  8
OBJECT
100
AcDbLine
 10
26.33342655106796
 20
17.52503471589752
 30
0.0
 11
26.48942655106798
 21
17.52503471589752
 31
0.0
  0
LINE
  5
3B2
330
1E
100
AcDbEntity
  8
OBJECT
100
AcDbLine
 10
24.98942655106798
 20
17.58503471589752
 30
0.0
 11
26.38265576854761
 21
17.58503471589752
 31
0.0
  0
CIRCLE
  5
3B3
330
1E
100
AcDbEntity
  8
OBJECT
100
AcDbCircle
 10
26.48942655106798
 20
17.65003471589753
 30
0.0
 40
0.125
  0
LINE
  5
3B4
330
1E
100
AcDbEntity
  8
OBJECT
100
AcDbLine
 10
26.59619733358834
 20
17.58503471589752
 30
0.0
 11
27.98942655106797
 21
17.58503471589754
 31
0.0
  0
LINE
  5
3B5
330
1E
100
AcDbEntity
  8
OBJECT
100
AcDbLine
 10
40.33342655106796
 20
17.52503471589752
 30
0.0
 11
40.55442655106796
 21
17.52503471589752
 31
0.0
  0
LINE
  5
3B6
330
1E
100
AcDbEntity
  8
OBJECT
100
AcDbLine
 10
39.52042655106797
 20
17.58503471589752
 30
0.0
 11
40.61442655106796
 21
17.58503471589752
 31
0.0
  0
LINE
  5
3B7
330
1E
100
AcDbEntity
  8
OBJECT
100
AcDbLine
 10
39.52042655106797
 20
17.52503471589752
 30
0.0
 11
39.52042655106797
 21
17.58503471589752
 31
0.0
  0
LINE
  5
3B8
330
1E
100
AcDbEntity
  8
OBJECT
100
AcDbLine
 10
40.61442655106796
 20
17.09003471589753
 30
0.0
 11
40.61442655106796
 21
17.58503471589752
 31
0.0
  0
LINE
  5
3B9
330
1E
100
AcDbEntity
  8
OBJECT
100
AcDbLine
 10
40.55442655106797
 20
17.19680549841797
 30
0.0
 11
40.55442655106796
 21
17.52503471589752
 31
0.0
  0
LINE
  5
3BA
330
1E
100
AcDbEntity
  8
OBJECT
100
AcDbLine
 10
40.59619733358836
 20
17.02503471589752
 30
0.0
 11
41.98942655106796
 21
17.02503471589753
 31
0.0
  0
LINE
  5
3BB
330
1E
100
AcDbEntity
  8
OBJECT
100
AcDbLine
 10
41.98942655106796
 20
16.96503471589753
 30
0.0
 11
41.98942655106796
 21
17.02503471589753
 31
0.0
  0
LINE
  5
3BC
330
1E
100
AcDbEntity
  8
OBJECT
100
AcDbLine
 10
40.48942655106796
 20
16.96503471589753
 30
0.0
 11
41.98942655106796
 21
16.96503471589753
 31
0.0
  0
CIRCLE
  5
3BD
330
1E
100
AcDbEntity
  8
OBJECT
100
AcDbCircle
 10
40.48942655106796
 20
17.09003471589753
 30
0.0
 40
0.125
  0
LINE
  5
3BE
330
1E
100
AcDbEntity
  8
OBJECT
100
AcDbLine
 10
40.33342655106796
 20
17.15003471589751
 30
0.0
 11
40.33342655106796
 21
17.52503471589752
 31
0.0
  0
LINE
  5
3C3
330
1E
100
AcDbEntity
  8
HIDDEN
100
AcDbLine
 10
28.6105215550938
 20
17.46503471589753
 30
0.0
 11
32.36833154704216
 21
17.46503471589753
 31
0.0
  0
LINE
  5
3C5
330
1E
100
AcDbEntity
  8
HIDDEN
100
AcDbLine
 10
32.61052155509378
 20
17.46503471589753
 30
0.0
 11
36.36833154704215
 21
17.46503471589753
 31
0.0
  0
LINE
  5
3C7
330
1E
100
AcDbEntity
  8
HIDDEN
100
AcDbLine
 10
38.61052155509378
 20
17.46503471589753
 30
0.0
 11
40.33342655106796
 21
17.46503471589753
 31
0.0
  0
LINE
  5
3C8
330
1E
100
AcDbEntity
  8
HIDDEN
100
AcDbLine
 10
36.61052155509379
 20
17.46503471589753
 30
0.0
 11
38.36833154704215
 21
17.46503471589753
 31
0.0
  0
LINE
  5
3CF
330
1E
100
AcDbEntity
  8
HIDDEN
100
AcDbLine
 10
20.61052155509369
 20
17.46503471589753
 30
0.0
 11
24.36833154704221
 21
17.46503471589753
 31
0.0
  0
LINE
  5
3D0
330
1E
100
AcDbEntity
  8
HIDDEN
100
AcDbLine
 10
16.61052155509374
 20
17.46503471589753
 30
0.0
 11
20.36833154704225
 21
17.46503471589753
 31
0.0
  0
LINE
  5
3D1
330
1E
100
AcDbEntity
  8
HIDDEN
100
AcDbLine
 10
14.61052155509372
 20
17.46503471589753
 30
0.0
 11
16.36833154704218
 21
17.46503471589753
 31
0.0
  0
LINE
  5
3D2
330
1E
100
AcDbEntity
  8
HIDDEN
100
AcDbLine
 10
24.61052155509373
 20
17.46503471589753
 30
0.0
 11
26.33342655106796
 21
17.46503471589753
 31
0.0
  0
LINE
  5
3D7
330
1E
100
AcDbEntity
  8
OBJECT
100
AcDbLine
 10
26.48942655106798
 20
17.52503471589752
 30
0.0
 11
26.64542655106798
 21
17.52503471589752
 31
0.0
  0
LINE
  5
3D8
330
1E
100
AcDbEntity
  8
OBJECT
100
AcDbLine
 10
26.48942655106798
 20
22.35078263688662
 30
0.0
 11
26.33342655106796
 21
22.35078263688662
 31
0.0
  0
LINE
  5
3DD
330
1E
100
AcDbEntity
  8
HIDDEN
100
AcDbLine
 10
24.61052155509373
 20
22.04078263688661
 30
0.0
 11
26.33342655106796
 21
22.04078263688661
 31
0.0
  0
LINE
  5
3DE
330
1E
100
AcDbEntity
  8
HIDDEN
100
AcDbLine
 10
14.61052155509372
 20
22.04078263688662
 30
0.0
 11
16.36833154704218
 21
22.04078263688662
 31
0.0
  0
LINE
  5
3DF
330
1E
100
AcDbEntity
  8
HIDDEN
100
AcDbLine
 10
16.61052155509374
 20
22.04078263688662
 30
0.0
 11
20.36833154704225
 21
22.04078263688661
 31
0.0
  0
LINE
  5
3E0
330
1E
100
AcDbEntity
  8
HIDDEN
100
AcDbLine
 10
20.61052155509369
 20
22.04078263688661
 30
0.0
 11
24.36833154704221
 21
22.04078263688661
 31
0.0
  0
LINE
  5
3E7
330
1E
100
AcDbEntity
  8
HIDDEN
100
AcDbLine
 10
16.36833154704216
 20
22.41078263688661
 30
0.0
 11
14.61052155509379
 21
22.41078263688661
 31
0.0
  0
LINE
  5
3E8
330
1E
100
AcDbEntity
  8
HIDDEN
100
AcDbLine
 10
14.36833154704216
 20
22.41078263688661
 30
0.0
 11
12.64542655106799
 21
22.41078263688663
 31
0.0
  0
LINE
  5
3EA
330
1E
100
AcDbEntity
  8
HIDDEN
100
AcDbLine
 10
20.36833154704216
 20
22.41078263688661
 30
0.0
 11
16.61052155509379
 21
22.41078263688661
 31
0.0
  0
LINE
  5
3EC
330
1E
100
AcDbEntity
  8
HIDDEN
100
AcDbLine
 10
24.36833154704217
 20
22.41078263688661
 30
0.0
 11
20.61052155509379
 21
22.41078263688661
 31
0.0
  0
LINE
  5
3F1
330
1E
100
AcDbEntity
  8
OBJECT
100
AcDbLine
 10
12.64542655106799
 20
22.72578263688663
 30
0.0
 11
12.64542655106799
 21
22.35078263688663
 31
0.0
  0
CIRCLE
  5
3F2
330
1E
100
AcDbEntity
  8
OBJECT
100
AcDbCircle
 10
12.48942655106799
 20
22.78578263688662
 30
0.0
 40
0.125
  0
LINE
  5
3F3
330
1E
100
AcDbEntity
  8
OBJECT
100
AcDbLine
 10
12.48942655106799
 20
22.91078263688662
 30
0.0
 11
10.98942655106798
 21
22.91078263688662
 31
0.0
  0
LINE
  5
3F4
330
1E
100
AcDbEntity
  8
OBJECT
100
AcDbLine
 10
10.98942655106798
 20
22.91078263688662
 30
0.0
 11
10.98942655106798
 21
22.85078263688661
 31
0.0
  0
LINE
  5
3F5
330
1E
100
AcDbEntity
  8
OBJECT
100
AcDbLine
 10
12.38265576854758
 20
22.85078263688661
 30
0.0
 11
10.98942655106798
 21
22.85078263688661
 31
0.0
  0
LINE
  5
3F6
330
1E
100
AcDbEntity
  8
OBJECT
100
AcDbLine
 10
12.42442655106797
 20
22.67901185436617
 30
0.0
 11
12.42442655106799
 21
22.35078263688663
 31
0.0
  0
LINE
  5
3F7
330
1E
100
AcDbEntity
  8
OBJECT
100
AcDbLine
 10
12.36442655106797
 20
22.78578263688662
 30
0.0
 11
12.36442655106799
 21
22.29078263688662
 31
0.0
  0
LINE
  5
3F8
330
1E
100
AcDbEntity
  8
OBJECT
100
AcDbLine
 10
13.45842655106799
 20
22.35078263688663
 30
0.0
 11
13.45842655106799
 21
22.29078263688662
 31
0.0
  0
LINE
  5
3F9
330
1E
100
AcDbEntity
  8
OBJECT
100
AcDbLine
 10
13.45842655106799
 20
22.29078263688662
 30
0.0
 11
12.36442655106799
 21
22.29078263688662
 31
0.0
  0
LINE
  5
3FA
330
1E
100
AcDbEntity
  8
OBJECT
100
AcDbLine
 10
12.64542655106799
 20
22.35078263688663
 30
0.0
 11
12.42442655106799
 21
22.35078263688663
 31
0.0
  0
LINE
  5
3FB
330
1E
100
AcDbEntity
  8
OBJECT
100
AcDbLine
 10
26.38265576854761
 20
22.29078263688661
 30
0.0
 11
24.98942655106798
 21
22.29078263688661
 31
0.0
  0
CIRCLE
  5
3FC
330
1E
100
AcDbEntity
  8
OBJECT
100
AcDbCircle
 10
26.48942655106798
 20
22.22578263688661
 30
0.0
 40
0.125
  0
LINE
  5
3FD
330
1E
100
AcDbEntity
  8
OBJECT
100
AcDbLine
 10
24.98942655106798
 20
22.16078263688661
 30
0.0
 11
26.38265576854761
 21
22.16078263688662
 31
0.0
  0
LINE
  5
3FE
330
1E
100
AcDbEntity
  8
OBJECT
100
AcDbLine
 10
26.33342655106796
 20
22.10078263688662
 30
0.0
 11
26.48942655106798
 21
22.10078263688662
 31
0.0
  0
LINE
  5
3FF
330
1E
100
AcDbEntity
  8
OBJECT
100
AcDbLine
 10
24.98942655106798
 20
22.35078263688662
 30
0.0
 11
24.98942655106798
 21
22.29078263688661
 31
0.0
  0
LINE
  5
400
330
1E
100
AcDbEntity
  8
OBJECT
100
AcDbLine
 10
24.98942655106798
 20
22.10078263688662
 30
0.0
 11
24.98942655106798
 21
22.16078263688661
 31
0.0
  0
LINE
  5
401
330
1E
100
AcDbEntity
  8
OBJECT
100
AcDbLine
 10
26.33342655106796
 20
22.35078263688662
 30
0.0
 11
26.33342655106796
 21
22.7257826368866
 31
0.0
  0
LINE
  5
402
330
1E
100
AcDbEntity
  8
OBJECT
100
AcDbLine
 10
26.33342655106796
 20
21.72578263688661
 30
0.0
 11
26.33342655106796
 21
22.10078263688662
 31
0.0
  0
LINE
  5
403
330
1E
100
AcDbEntity
  8
OBJECT
100
AcDbLine
 10
26.33342655106796
 20
22.7257826368866
 30
0.0
 11
12.64542655106799
 21
22.72578263688663
 31
0.0
  0
LINE
  5
404
330
1E
100
AcDbEntity
  8
HIDDEN
100
AcDbLine
 10
10.59619733358831
 20
21.98078263688663
 30
0.0
 11
11.98942655106796
 21
21.98078263688662
 31
0.0
  0
LINE
  5
405
330
1E
100
AcDbEntity
  8
OBJECT
100
AcDbLine
 10
10.64542655106797
 20
21.72578263688662
 30
0.0
 11
10.64542655106797
 21
22.10078263688662
 31
0.0
  0
CIRCLE
  5
406
330
1E
100
AcDbEntity
  8
OBJECT
100
AcDbCircle
 10
10.48942655106797
 20
21.91578263688662
 30
0.0
 40
0.125
  0
LINE
  5
407
330
1E
100
AcDbEntity
  8
OBJECT
100
AcDbLine
 10
8.989426551067971
 20
21.98078263688663
 30
0.0
 11
10.38265576854761
 21
21.98078263688663
 31
0.0
  0
LINE
  5
408
330
1E
100
AcDbEntity
  8
OBJECT
100
AcDbLine
 10
8.989426551067971
 20
22.04078263688662
 30
0.0
 11
10.64542655106797
 21
22.04078263688662
 31
0.0
  0
LINE
  5
409
330
1E
100
AcDbEntity
  8
OBJECT
100
AcDbLine
 10
8.989426551067971
 20
22.04078263688662
 30
0.0
 11
8.989426551067971
 21
21.98078263688663
 31
0.0
  0
LINE
  5
40A
330
1E
100
AcDbEntity
  8
HIDDEN
100
AcDbLine
 10
11.98942655106796
 20
21.98078263688662
 30
0.0
 11
11.98942655106796
 21
22.04078263688662
 31
0.0
  0
LINE
  5
40B
330
1E
100
AcDbEntity
  8
OBJECT
100
AcDbLine
 10
10.64542655106797
 20
21.72578263688662
 30
0.0
 11
26.33342655106796
 21
21.72578263688661
 31
0.0
  0
LINE
  5
40C
330
1E
100
AcDbEntity
  8
OBJECT
100
AcDbLine
 10
26.33342655106796
 20
22.35078263688662
 30
0.0
 11
12.64542655106799
 21
22.35078263688663
 31
0.0
  0
LINE
  5
40D
330
1E
100
AcDbEntity
  8
OBJECT
100
AcDbLine
 10
10.64542655106797
 20
22.10078263688662
 30
0.0
 11
26.33342655106796
 21
22.10078263688662
 31
0.0
  0
LINE
  5
40E
330
1E
100
AcDbEntity
  8
HIDDEN
100
AcDbLine
 10
10.64542655106797
 20
22.04078263688662
 30
0.0
 11
14.36833154704221
 21
22.04078263688662
 31
0.0
  0
LINE
  5
40F
330
1E
100
AcDbEntity
  8
HIDDEN
100
AcDbLine
 10
26.33342655106796
 20
22.41078263688661
 30
0.0
 11
24.6105215550938
 21
22.41078263688661
 31
0.0
  0
DIMENSION
  5
410
330
1E
100
AcDbEntity
  8
DIM
100
AcDbDimension
  2
*D5
 10
4.048104976957161
 20
11.31556547604599
 30
0.0
 11
4.048104976957159
 21
12.17456547604599
 31
0.0
 70
    32
  3
23NSTD
100
AcDbAlignedDimension
 13
10.64542655106797
 23
13.03356547604598
 33
0.0
 14
10.64542655106797
 24
11.31556547604599
 34
0.0
 50
90.0
100
AcDbRotatedDimension
  0
DIMENSION
  5
412
330
1E
100
AcDbEntity
  8
DIM
100
AcDbDimension
  2
*D23
 10
6.625389438639039
 20
12.17456547604598
 30
0.0
 11
6.625389438639037
 21
12.48706547604598
 31
0.0
 70
    32
  3
23NSTDI
100
AcDbAlignedDimension
 13
9.274426551067977
 23
12.79956547604598
 33
0.0
 14
9.274426551067977
 24
12.17456547604598
 34
0.0
 50
90.0
100
AcDbRotatedDimension
  0
DIMENSION
  5
413
330
1E
100
AcDbEntity
  8
DIM
100
AcDbDimension
  2
*D6
 10
7.867847335260854
 20
11.54956547604598
 30
0.0
 11
6.518784835260852
 21
10.46956547604598
 31
0.0
 70
    32
  3
23NSTD
100
AcDbAlignedDimension
 13
9.274426551067977
 23
12.17456547604598
 33
0.0
 14
9.274426551067977
 24
11.54956547604598
 34
0.0
 50
90.0
100
AcDbRotatedDimension
  0
DIMENSION
  5
414
330
1E
100
AcDbEntity
  8
DIM
100
AcDbDimension
  2
*D24
 10
5.233098606356603
 20
13.03356547604598
 30
0.0
 11
6.582161106356602
 21
14.4404873542104
 31
0.0
 70
   160
  3
23NSTDI
100
AcDbAlignedDimension
 13
9.274426551067977
 23
12.79956547604598
 33
0.0
 14
10.64542655106797
 24
13.03356547604598
 34
0.0
 50
90.0
100
AcDbRotatedDimension
1001
ACAD
1000
DSTYLE
1002
{
1070
   279
1070
     0
1002
}
  0
LINE
  5
416
330
1E
100
AcDbEntity
  8
CENTER
100
AcDbLine
 10
26.48942655106798
 20
11.17506547604598
 30
0.0
 11
26.48942655106798
 21
13.17756547604598
 31
0.0
  0
LINE
  5
417
330
1E
100
AcDbEntity
  8
CENTER
100
AcDbLine
 10
40.48942655106798
 20
11.177565476046
 30
0.0
 11
40.48942655106798
 21
13.180065476046
 31
0.0
  0
LINE
  5
418
330
1E
100
AcDbEntity
  8
CENTER
100
AcDbLine
 10
10.48942655106797
 20
11.17756547604594
 30
0.0
 11
10.48942655106797
 21
13.18006547604595
 31
0.0
  0
DIMENSION
  5
419
330
1E
100
AcDbEntity
  8
DIM
100
AcDbDimension
  2
*D7
 10
26.48942655106798
 20
5.07758687693571
 30
0.0
 11
33.48942655106798
 21
5.07758687693571
 31
0.0
 70
    32
  3
23NSTD
100
AcDbAlignedDimension
 13
40.48942655106798
 23
11.177565476046
 33
0.0
 14
26.48942655106798
 24
11.17506547604598
 34
0.0
100
AcDbRotatedDimension
  0
DIMENSION
  5
41A
330
1E
100
AcDbEntity
  8
DIM
100
AcDbDimension
  2
*D8
 10
10.48942655106797
 20
5.07758687693571
 30
0.0
 11
18.48942655106798
 21
5.07758687693571
 31
0.0
 70
    32
  3
23NSTD
100
AcDbAlignedDimension
 13
26.48942655106798
 23
11.17506547604598
 33
0.0
 14
10.48942655106797
 24
11.17756547604594
 34
0.0
100
AcDbRotatedDimension
  0
DIMENSION
  5
41B
330
1E
100
AcDbEntity
  8
DIM
100
AcDbDimension
  2
*D9
 10
8.989426551067976
 20
8.449586876935711
 30
0.0
 11
9.739426551067976
 21
8.449586876935711
 31
0.0
 70
    32
  3
23NSTD
100
AcDbAlignedDimension
 13
10.48942655106797
 23
11.17756547604594
 33
0.0
 14
8.989426551067976
 24
11.36256547604598
 34
0.0
100
AcDbRotatedDimension
  0
DIMENSION
  5
41C
330
1E
100
AcDbEntity
  8
DIM
100
AcDbDimension
  2
*D25
 10
28.48942655106798
 20
7.606586876935707
 30
0.0
 11
27.48942655106798
 21
7.606586876935707
 31
0.0
 70
    32
  3
23NSTDI
100
AcDbAlignedDimension
 13
26.48942655106798
 23
11.17506547604598
 33
0.0
 14
28.48942655106798
 24
11.45356547604598
 34
0.0
100
AcDbRotatedDimension
  0
DIMENSION
  5
41D
330
1E
100
AcDbEntity
  8
DIM
100
AcDbDimension
  2
*D10
 10
32.48942655106798
 20
8.449586876935711
 30
0.0
 11
30.48942655106797
 21
8.449586876935711
 31
0.0
 70
    32
  3
23NSTD
100
AcDbAlignedDimension
 13
28.48942655106798
 23
11.45356547604598
 33
0.0
 14
32.48942655106798
 24
11.45356547604598
 34
0.0
100
AcDbRotatedDimension
  0
DIMENSION
  5
41E
330
1E
100
AcDbEntity
  8
DIM
100
AcDbDimension
  2
*D11
 10
36.48942655106798
 20
7.606586876935707
 30
0.0
 11
32.48942655106798
 21
7.606586876935707
 31
0.0
 70
    32
  3
23NSTD
100
AcDbAlignedDimension
 13
28.48942655106798
 23
11.45356547604598
 33
0.0
 14
36.48942655106798
 24
11.45356547604598
 34
0.0
100
AcDbRotatedDimension
  0
DIMENSION
  5
41F
330
1E
100
AcDbEntity
  8
DIM
100
AcDbDimension
  2
*D12
 10
38.48942655106798
 20
5.920586876935707
 30
0.0
 11
33.48942655106798
 21
5.920586876935707
 31
0.0
 70
    32
  3
23NSTD
100
AcDbAlignedDimension
 13
28.48942655106798
 23
11.45356547604598
 33
0.0
 14
38.48942655106798
 24
11.45356547604598
 34
0.0
100
AcDbRotatedDimension
  0
DIMENSION
  5
420
330
1E
100
AcDbEntity
  8
DIM
100
AcDbDimension
  2
*D13
 10
41.48942655106798
 20
9.292586876935708
 30
0.0
 11
43.28473905106799
 21
9.292586876935708
 31
0.0
 70
    32
  3
23NSTD
100
AcDbAlignedDimension
 13
40.48942655106798
 23
11.177565476046
 33
0.0
 14
41.48942655106798
 24
11.50356547604596
 34
0.0
100
AcDbRotatedDimension
  0
DIMENSION
  5
421
330
1E
100
AcDbEntity
  8
DIM
100
AcDbDimension
  2
*D26
 10
41.98942655106797
 20
8.449586876935711
 30
0.0
 11
41.23942655106797
 21
8.449586876935711
 31
0.0
 70
    32
  3
23NSTDI
100
AcDbAlignedDimension
 13
40.48942655106798
 23
11.177565476046
 33
0.0
 14
41.98942655106797
 24
11.42456547604598
 34
0.0
100
AcDbRotatedDimension
  0
DIMENSION
  5
422
330
1E
100
AcDbEntity
  8
DIM
100
AcDbDimension
  2
*D14
 10
20.48942655106797
 20
8.449586876935711
 30
0.0
 11
22.48942655106798
 21
8.449586876935711
 31
0.0
 70
    32
  3
23NSTD
100
AcDbAlignedDimension
 13
24.48942655106798
 23
11.45356547604598
 33
0.0
 14
20.48942655106797
 24
11.45356547604598
 34
0.0
100
AcDbRotatedDimension
  0
DIMENSION
  5
423
330
1E
100
AcDbEntity
  8
DIM
100
AcDbDimension
  2
*D15
 10
16.48942655106796
 20
7.606586876935707
 30
0.0
 11
20.48942655106797
 21
7.606586876935707
 31
0.0
 70
    32
  3
23NSTD
100
AcDbAlignedDimension
 13
24.48942655106798
 23
11.45356547604598
 33
0.0
 14
16.48942655106796
 24
11.45356547604598
 34
0.0
100
AcDbRotatedDimension
  0
DIMENSION
  5
424
330
1E
100
AcDbEntity
  8
DIM
100
AcDbDimension
  2
*D2
 10
15.48942655106797
 20
6.763586876935703
 30
0.0
 11
19.98942655106797
 21
6.763586876935703
 31
0.0
 70
    32
  3
23NSTD
100
AcDbAlignedDimension
 13
24.48942655106798
 23
11.45356547604598
 33
0.0
 14
15.48942655106797
 24
12.08506547604599
 34
0.0
100
AcDbRotatedDimension
  0
DIMENSION
  5
425
330
1E
100
AcDbEntity
  8
DIM
100
AcDbDimension
  2
*D27
 10
24.48942655106798
 20
8.449586876935711
 30
0.0
 11
25.48942655106798
 21
8.449586876935711
 31
0.0
 70
    32
  3
23NSTDI
100
AcDbAlignedDimension
 13
26.48942655106798
 23
11.17506547604598
 33
0.0
 14
24.48942655106798
 24
11.45356547604598
 34
0.0
100
AcDbRotatedDimension
  0
DIMENSION
  5
427
330
1E
100
AcDbEntity
  8
DIM
100
AcDbDimension
  2
*D28
 10
44.30908519129725
 20
12.73756547604596
 30
0.0
 11
44.30908519129725
 21
12.17506547604597
 31
0.0
 70
    32
  3
23NSTDI
100
AcDbAlignedDimension
 13
41.57942655106799
 23
11.61256547604596
 33
0.0
 14
41.59842655106799
 24
12.73756547604597
 34
0.0
 50
90.0
100
AcDbRotatedDimension
  0
DIMENSION
  5
429
330
1E
100
AcDbEntity
  8
DIM
100
AcDbDimension
  2
*D16
 10
43.03096387357697
 20
17.52503471589752
 30
0.0
 11
44.33315137357695
 21
18.60503471589753
 31
0.0
 70
    32
  3
23NSTD
100
AcDbAlignedDimension
 13
41.98942655106796
 23
17.02503471589753
 33
0.0
 14
40.55442655106796
 24
17.52503471589752
 34
0.0
 50
90.0
100
AcDbRotatedDimension
  0
DIMENSION
  5
42A
330
1E
100
AcDbEntity
  8
DIM
100
AcDbDimension
  2
*D17
 10
36.61442655106798
 20
16.20147408247747
 30
0.0
 11
39.65192655106798
 21
16.20147408247747
 31
0.0
 70
    32
  1
<> DIA. TYP.
  3
23NSTD
100
AcDbAlignedDimension
 13
36.36442655106796
 23
17.43403471589752
 33
0.0
 14
36.61442655106798
 24
17.43403471589752
 34
0.0
100
AcDbRotatedDimension
  0
DIMENSION
  5
42B
330
1E
100
AcDbEntity
  8
DIM
100
AcDbDimension
  2
*D18
 10
7.867847335260854
 20
17.46503471589753
 30
0.0
 11
9.170034835260851
 21
18.54503471589755
 31
0.0
 70
    32
  3
23NSTD
100
AcDbAlignedDimension
 13
8.989426551067971
 23
17.40503471589754
 33
0.0
 14
8.989426551067971
 24
17.46503471589753
 34
0.0
 50
90.0
100
AcDbRotatedDimension
  0
DIMENSION
  5
42C
330
1E
100
AcDbEntity
  8
DIM
100
AcDbDimension
  2
*D19
 10
6.721528122403356
 20
17.15003471589754
 30
0.0
 11
5.372465622403351
 21
16.07003471589753
 31
0.0
 70
    32
  3
23NSTD
100
AcDbAlignedDimension
 13
10.64542655106797
 23
17.52503471589754
 33
0.0
 14
10.64542655106797
 24
17.15003471589753
 34
0.0
 50
90.0
100
AcDbRotatedDimension
  0
DIMENSION
  5
42D
330
1E
100
AcDbEntity
  8
DIM
100
AcDbDimension
  2
*D20
 10
26.61442655106798
 20
18.60503471589753
 30
0.0
 11
29.65192655106798
 21
18.60503471589753
 31
0.0
 70
    32
  1
<> DIA. TYP.
  3
23NSTD
100
AcDbAlignedDimension
 13
26.36442655106796
 23
17.65003471589753
 33
0.0
 14
26.61442655106798
 24
17.65003471589753
 34
0.0
100
AcDbRotatedDimension
  0
LWPOLYLINE
  5
42E
330
1E
100
AcDbEntity
  8
DIM
100
AcDbPolyline
 90
        4
 70
     0
 10
9.537005726630075
 20
12.91492372319605
 40
0.0
 41
0.2025
 10
9.758417581492386
 20
13.40744457608092
 40
0.0
 41
0.0
 10
10.66578547872021
 20
15.14778727025154
 40
0.0
 41
0.0
 10
11.04078547872022
 20
15.14778727025154
 40
0.0
 41
0.0
  0
TEXT
  5
434
330
1E
100
AcDbEntity
  8
DIM
100
AcDbText
 10
11.41578547872022
 20
14.96028727025153
 30
0.0
 40
0.375
  1
0.218 x 0.625 OBLONG
 41
0.75
100
AcDbText
  0
TEXT
  5
435
330
1E
100
AcDbEntity
  8
DIM
100
AcDbText
 10
11.41578547872022
 20
14.33528727025152
 30
0.0
 40
0.375
  1
(3) HOLES
 41
0.75
100
AcDbText
  0
LWPOLYLINE
  5
437
330
1E
100
AcDbEntity
  8
DIM
100
AcDbPolyline
 90
        4
 70
     0
 10
41.42942885956162
 20
12.81780121917471
 40
0.0
 41
0.2025
 10
41.17477097263814
 20
13.29398328585475
 40
0.0
 41
0.0
 10
40.11300842010864
 20
15.04562559169855
 40
0.0
 41
0.0
 10
39.73800842010865
 20
15.04562559169855
 40
0.0
 41
0.0
  0
TEXT
  5
43D
330
1E
100
AcDbEntity
  8
DIM
100
AcDbText
 10
37.15988342010865
 20
14.85812559169855
 30
0.0
 40
0.375
  1
0.296 DIA.
 41
0.75
 72
     2
 11
39.36300842010865
 21
14.85812559169855
 31
0.0
100
AcDbText
  0
TEXT
  5
43E
330
1E
100
AcDbEntity
  8
DIM
100
AcDbText
 10
37.11300842010865
 20
14.23312559169853
 30
0.0
 40
0.375
  1
(2) HOLES
 41
0.75
 72
     2
 11
39.36300842010865
 21
14.23312559169853
 31
0.0
100
AcDbText
  0
DIMENSION
  5
43F
330
1E
100
AcDbEntity
  8
DIM
100
AcDbDimension
  2
*D29
 10
7.867847335260854
 20
22.04078263688662
 30
0.0
 11
7.867847335260852
 21
22.47578263688663
 31
0.0
 70
    32
  1
0.880
  3
23NSTDI
100
AcDbAlignedDimension
 13
10.98942655106798
 23
22.91078263688662
 33
0.0
 14
8.989426551067971
 24
22.04078263688662
 34
0.0
 50
90.0
100
AcDbRotatedDimension
  0
LINE
  5
440
330
1E
100
AcDbEntity
  8
CENTER
100
AcDbLine
 10
15.48942655106799
 20
12.26456547604598
 30
0.0
 11
15.48942655106799
 21
12.08456547604598
 31
0.0
  0
LINE
  5
441
330
1E
100
AcDbEntity
  8
CENTER
100
AcDbLine
 10
15.39942655106798
 20
12.17456547604598
 30
0.0
 11
15.57942655106797
 21
12.17456547604598
 31
0.0
  0
LWPOLYLINE
  5
448
330
1E
100
AcDbEntity
  8
OBJECT
100
AcDbPolyline
 90
        4
 70
     1
 43
0.0
 10
9.160926586688619
 20
11.44056547604598
 10
9.567926586688619
 20
11.44056547604598
 42
0.9999998366025646
 10
9.567926551067976
 20
11.65856547604598
 10
9.160926551067976
 20
11.65856547604599
 42
1.000000163397462
  0
LWPOLYLINE
  5
44E
330
1E
100
AcDbEntity
  8
OBJECT
100
AcDbPolyline
 90
        4
 70
     1
 43
0.0
 10
9.160926551067976
 20
12.06556547604598
 10
9.567926551067976
 20
12.06556547604598
 42
1.0
 10
9.567926551067976
 20
12.28356547604598
 10
9.160926551067976
 20
12.28356547604598
 42
1.0
  0
LWPOLYLINE
  5
454
330
1E
100
AcDbEntity
  8
OBJECT
100
AcDbPolyline
 90
        4
 70
     1
 43
0.0
 10
9.160926551067976
 20
12.90856547604598
 42
1.0
 10
9.160926551067976
 20
12.69056547604598
 10
9.567926551067976
 20
12.69056547604598
 42
1.0
 10
9.567926551067976
 20
12.90856547604598
  0
LINE
  5
45A
330
1E
100
AcDbEntity
  8
CENTER
100
AcDbLine
 10
23.39942655106798
 20
12.17456547604598
 30
0.0
 11
23.57942655106798
 21
12.17456547604598
 31
0.0
  0
LINE
  5
45B
330
1E
100
AcDbEntity
  8
CENTER
100
AcDbLine
 10
23.48942655106798
 20
12.26456547604598
 30
0.0
 11
23.48942655106798
 21
12.08456547604598
 31
0.0
  0
CIRCLE
  5
45C
330
1E
100
AcDbEntity
  8
OBJECT
100
AcDbCircle
 10
23.48942655106798
 20
12.17456547604598
 30
0.0
 40
0.3125
  0
CIRCLE
  5
463
330
1E
100
AcDbEntity
  8
OBJECT
100
AcDbCircle
 10
29.48942655106798
 20
12.17456547604598
 30
0.0
 40
0.3125
  0
LINE
  5
464
330
1E
100
AcDbEntity
  8
CENTER
100
AcDbLine
 10
29.48942655106798
 20
12.26456547604598
 30
0.0
 11
29.48942655106798
 21
12.08456547604598
 31
0.0
  0
LINE
  5
465
330
1E
100
AcDbEntity
  8
CENTER
100
AcDbLine
 10
29.39942655106797
 20
12.17456547604598
 30
0.0
 11
29.57942655106798
 21
12.17456547604598
 31
0.0
  0
LINE
  5
46C
330
1E
100
AcDbEntity
  8
CENTER
100
AcDbLine
 10
37.39942655106796
 20
12.17456547604598
 30
0.0
 11
37.57942655106797
 21
12.17456547604598
 31
0.0
  0
LINE
  5
46D
330
1E
100
AcDbEntity
  8
CENTER
100
AcDbLine
 10
37.48942655106798
 20
12.26456547604598
 30
0.0
 11
37.48942655106798
 21
12.08456547604598
 31
0.0
  0
DIMENSION
  5
46E
330
1E
100
AcDbEntity
  8
DIM
100
AcDbDimension
  2
*D1
 10
23.48942655106798
 20
9.292586876935708
 30
0.0
 11
21.69411405106798
 21
9.292586876935708
 31
0.0
 70
    32
  3
23NSTD
100
AcDbAlignedDimension
 13
24.48942655106796
 23
11.45356547604598
 33
0.0
 14
23.48942655106798
 24
12.08506547604599
 34
0.0
100
AcDbRotatedDimension
  0
DIMENSION
  5
46F
330
1E
100
AcDbEntity
  8
DIM
100
AcDbDimension
  2
*D21
 10
29.48942655106798
 20
9.292586876935708
 30
0.0
 11
31.28473905106798
 21
9.292586876935708
 31
0.0
 70
    32
  3
23NSTD
100
AcDbAlignedDimension
 13
28.48942655106798
 23
11.45356547604598
 33
0.0
 14
29.48942655106798
 24
12.08456547604598
 34
0.0
100
AcDbRotatedDimension
  0
DIMENSION
  5
470
330
1E
100
AcDbEntity
  8
DIM
100
AcDbDimension
  2
*D22
 10
37.48942655106798
 20
6.763586876935703
 30
0.0
 11
32.98942655106796
 21
6.763586876935703
 31
0.0
 70
    32
  3
23NSTD
100
AcDbAlignedDimension
 13
28.48942655106798
 23
11.45356547604598
 33
0.0
 14
37.48942655106798
 24
12.08456547604598
 34
0.0
100
AcDbRotatedDimension
  0
LINE
  5
471
330
1E
100
AcDbEntity
  8
CENTER
100
AcDbLine
 10
15.87092655106799
 20
12.17456547604598
 30
0.0
 11
23.21042655106798
 21
12.17456547604598
 31
0.0
  0
LINE
  5
472
330
1E
100
AcDbEntity
  8
CENTER
100
AcDbLine
 10
37.21042655106797
 20
12.17456547604598
 30
0.0
 11
29.76842655106798
 21
12.17456547604598
 31
0.0
  0
DIMENSION
  5
473
330
1E
100
AcDbEntity
  8
DIM
100
AcDbDimension
  2
*D3
 10
13.35228350180728
 20
11.31556547604599
 30
0.0
 11
13.35228350180728
 21
11.74506547604599
 31
0.0
 70
    32
  3
23NSTDI
100
AcDbAlignedDimension
 13
15.39942655106798
 23
12.17456547604598
 33
0.0
 14
14.48942655106797
 24
11.31556547604599
 34
0.0
 50
90.0
100
AcDbRotatedDimension
  0
LWPOLYLINE
  5
475
330
1E
100
AcDbEntity
  8
DIM
100
AcDbPolyline
 90
        4
 70
     0
 10
15.63727197051756
 20
12.36692909416051
 40
0.0
 41
0.2025
 10
15.85868382537987
 20
12.85944994704537
 40
0.0
 41
0.0
 10
17.20200776497323
 20
15.84761448250175
 40
0.0
 41
0.0
 10
17.57700776497324
 20
15.84761448250175
 40
0.0
 41
0.0
  0
TEXT
  5
47B
330
1E
100
AcDbEntity
  8
DIM
100
AcDbText
 10
17.95200776497323
 20
15.66011448250175
 30
0.0
 40
0.375
  1
0.380 x 0.630 OBLONG
 41
0.75
100
AcDbText
  0
TEXT
  5
47C
330
1E
100
AcDbEntity
  8
DIM
100
AcDbText
 10
17.95200776497323
 20
15.03511448250176
 30
0.0
 40
0.375
  1
(2) HOLES
 41
0.75
100
AcDbText
  0
LWPOLYLINE
  5
47E
330
1E
100
AcDbEntity
  8
DIM
100
AcDbPolyline
 90
        4
 70
     0
 10
29.33672373866569
 20
12.46796378075063
 40
0.0
 41
0.2025
 10
29.08206585174221
 20
12.94414584743067
 40
0.0
 41
0.0
 10
27.67692202294798
 20
15.57160930619637
 40
0.0
 41
0.0
 10
27.30192202294797
 20
15.57160930619637
 40
0.0
 41
0.0
  0
TEXT
  5
484
330
1E
100
AcDbEntity
  8
DIM
100
AcDbText
 10
24.67692202294797
 20
14.75910930619637
 30
0.0
 40
0.375
  1
(2) HOLES
 41
0.75
 72
     2
 11
26.92692202294797
 21
14.75910930619637
 31
0.0
100
AcDbText
  0
TEXT
  5
485
330
1E
100
AcDbEntity
  8
DIM
100
AcDbText
 10
24.72379702294797
 20
15.38410930619637
 30
0.0
 40
0.375
  1
0.625 DIA.
 41
0.75
 72
     2
 11
26.92692202294797
 21
15.38410930619637
 31
0.0
100
AcDbText
  0
INSERT
  5
486
330
1E
100
AcDbEntity
  8
TEXT
100
AcDbBlockReference
  2
HBS
 10
0.0
 20
0.0
 30
0.0
 41
3.0
 42
3.0
 43
3.0
  0
DIMENSION
  5
4BC
330
1E
100
AcDbEntity
  8
DIM
100
AcDbDimension
  2
*D4
 10
14.48942655106796
 20
5.920586876935707
 30
0.0
 11
19.48942655106796
 21
5.920586876935707
 31
0.0
 70
    32
  3
23NSTD
100
AcDbAlignedDimension
 13
24.48942655106796
 23
11.45356547604598
 33
0.0
 14
14.48942655106796
 24
11.45356547604598
 34
0.0
100
AcDbRotatedDimension
  0
DIMENSION
  5
6AB
330
1E
100
AcDbEntity
  8
DIM
100
AcDbDimension
  2
*D30
 10
15.80442655106798
 20
10.579793373435
 30
0.0
 11
18.88880155106797
 21
10.579793373435
 31
0.0
 70
    32
  1
<> REF. TYP.
  3
23NSTD
100
AcDbAlignedDimension
 13
15.17442655106798
 23
12.17456550668178
 33
0.0
 14
15.80442655106798
 24
12.17456544540773
 34
0.0
100
AcDbRotatedDimension
  0
LINE
  5
77C
330
1E
100
AcDbEntity
  8
OBJECT
100
AcDbLine
 10
41.98942655106797
 20
12.92456547604598
 30
0.0
 11
41.98942655106797
 21
11.42456547604598
 31
0.0
  0
LINE
  5
77D
330
1E
100
AcDbEntity
  8
OBJECT
100
AcDbLine
 10
41.98942655106797
 20
12.92456547604598
 30
0.0
 11
40.33342655106796
 21
12.92456547604598
 31
0.0
  0
LINE
  5
77E
330
1E
100
AcDbEntity
  8
OBJECT
100
AcDbLine
 10
41.98942655106797
 20
11.42456547604598
 30
0.0
 11
40.33342655106796
 21
11.42456547604598
 31
0.0
  0
CIRCLE
  5
7BB
330
1E
100
AcDbEntity
  8
OBJECT
100
AcDbCircle
 10
41.48942655106798
 20
12.73756547604597
 30
0.0
 40
0.148
  0
CIRCLE
  5
7BC
330
1E
100
AcDbEntity
  8
OBJECT
100
AcDbCircle
 10
41.48942655106798
 20
11.61256547604596
 30
0.0
 40
0.148
  0
INSERT
  5
B36
330
1E
100
AcDbEntity
  8
OBJECT
100
AcDbBlockReference
  2
HBS
 10
0.0
 20
0.0
 30
0.0
 41
3.0
 42
3.0
 43
3.0
  0
LINE
  5
D7B
330
1E
100
AcDbEntity
  8
HIDDEN
100
AcDbLine
 10
24.98942655106798
 20
11.42456547604598
 30
0.0
 11
26.30306717448543
 21
11.42456547604598
 31
0.0
  0
LINE
  5
D7C
330
1E
100
AcDbEntity
  8
HIDDEN
100
AcDbLine
 10
24.98942655106798
 20
12.92456547604598
 30
0.0
 11
26.30119440215365
 21
12.92456547604598
 31
0.0
  0
LINE
  5
D8F
330
1E
100
AcDbEntity
  8
OBJECT
100
AcDbLine
 10
26.33342655106796
 20
12.92456547604598
 30
0.0
 11
26.64542655106798
 21
12.92456547604599
 31
0.0
  0
LINE
  5
D90
330
1E
100
AcDbEntity
  8
HIDDEN
100
AcDbLine
 10
26.67080196509526
 20
12.92456547604598
 30
0.0
 11
27.98942655106798
 21
12.92456547604598
 31
0.0
  0
LINE
  5
D91
330
1E
100
AcDbEntity
  8
OBJECT
100
AcDbLine
 10
26.33342655106796
 20
11.42456547604598
 30
0.0
 11
26.64542655106798
 21
11.42456547604598
 31
0.0
  0
LINE
  5
D92
330
1E
100
AcDbEntity
  8
HIDDEN
100
AcDbLine
 10
26.67042849793835
 20
11.42456547604598
 30
0.0
 11
27.98942655106798
 21
11.42456547604598
 31
0.0
  0
LINE
  5
D93
330
1E
100
AcDbEntity
  8
OBJECT
100
AcDbLine
 10
26.36442655106796
 20
12.42456547604598
 30
0.0
 11
26.61442655106796
 21
12.42456547604599
 31
0.0
  0
LINE
  5
D94
330
1E
100
AcDbEntity
  8
OBJECT
100
AcDbLine
 10
26.36442655106796
 20
11.92456547604598
 30
0.0
 11
26.61442655106798
 21
11.92456547604598
 31
0.0
  0
LINE
  5
D99
330
1E
100
AcDbEntity
  8
OBJECT
100
AcDbLine
 10
26.36442655106796
 20
12.42456547604598
 30
0.0
 11
26.36442655106796
 21
12.92456547604598
 31
0.0
  0
LINE
  5
DD8
330
1E
100
AcDbEntity
  8
OBJECT
100
AcDbLine
 10
11.98942655106796
 20
12.97156547604598
 30
0.0
 11
11.98942655106796
 21
11.37756547604598
 31
0.0
  0
LINE
  5
FF2
330
1E
100
AcDbEntity
  8
OBJECT
100
AcDbLine
 10
8.989426551067976
 20
12.97156547604598
 30
0.0
 11
11.98942655106796
 21
12.97156547604598
 31
0.0
  0
LINE
  5
FF3
330
1E
100
AcDbEntity
  8
OBJECT
100
AcDbLine
 10
8.989426551067976
 20
11.37756547604598
 30
0.0
 11
11.98942655106796
 21
11.37756547604598
 31
0.0
  0
LINE
  5
1020
330
1E
100
AcDbEntity
  8
OBJECT
100
AcDbLine
 10
10.64542655106797
 20
12.97156547604598
 30
0.0
 11
10.64542655106797
 21
13.03356547604598
 31
0.0
  0
LINE
  5
1021
330
1E
100
AcDbEntity
  8
HIDDEN
100
AcDbLine
 10
10.64542655106797
 20
11.42027712379001
 30
0.0
 11
10.64542655106797
 21
12.9220820820626
 31
0.0
  0
LINE
  5
1022
330
1E
100
AcDbEntity
  8
OBJECT
100
AcDbLine
 10
10.36442655106798
 20
12.47156547604598
 30
0.0
 11
10.61442655106798
 21
12.47156547604598
 31
0.0
  0
LINE
  5
1023
330
1E
100
AcDbEntity
  8
OBJECT
100
AcDbLine
 10
10.36442655106798
 20
11.97156547604598
 30
0.0
 11
10.61442655106798
 21
11.97156547604598
 31
0.0
  0
LINE
  5
1050
330
1E
100
AcDbEntity
  8
HIDDEN
100
AcDbLine
 10
39.52042655106797
 20
11.42456547604598
 30
0.0
 11
39.52042655106797
 21
12.92456547604598
 31
0.0
  0
LINE
  5
1051
330
1E
100
AcDbEntity
  8
HIDDEN
100
AcDbLine
 10
40.2740640006971
 20
11.42456547604598
 30
0.0
 11
39.52042655106797
 21
11.42456547604598
 31
0.0
  0
LINE
  5
1067
330
1E
100
AcDbEntity
  8
OBJECT
100
AcDbLine
 10
40.61442655106796
 20
12.42456547604598
 30
0.0
 11
40.61442655106796
 21
11.92456547604598
 31
0.0
  0
LINE
  5
1068
330
1E
100
AcDbEntity
  8
OBJECT
100
AcDbLine
 10
40.61442655106796
 20
12.42456547604598
 30
0.0
 11
40.36442655106796
 21
12.42456547604598
 31
0.0
  0
LINE
  5
1069
330
1E
100
AcDbEntity
  8
OBJECT
100
AcDbLine
 10
40.61442655106796
 20
11.92456547604598
 30
0.0
 11
40.36442655106796
 21
11.92456547604598
 31
0.0
  0
DIMENSION
  5
123A
330
1E
100
AcDbEntity
  8
DIM
100
AcDbDimension
  2
*D31
 10
43.03096387357696
 20
13.03356547604597
 30
0.0
 11
44.38002637357695
 21
14.42763484159176
 31
0.0
 70
   160
  3
23NSTD
100
AcDbAlignedDimension
 13
41.57942655106799
 23
12.73756547604597
 33
0.0
 14
40.33342655106796
 24
13.03356547604597
 34
0.0
 50
90.0
100
AcDbRotatedDimension
  0
CIRCLE
  5
1277
330
1E
100
AcDbEntity
  8
OBJECT
100
AcDbCircle
 10
10.48942655106797
 20
21.91578263688662
 30
0.0
 40
0.0625
  0
CIRCLE
  5
1278
330
1E
100
AcDbEntity
  8
OBJECT
100
AcDbCircle
 10
12.48942655106799
 20
22.78578263688662
 30
0.0
 40
0.0625
  0
CIRCLE
  5
1279
330
1E
100
AcDbEntity
  8
OBJECT
100
AcDbCircle
 10
26.48942655106798
 20
22.22578263688661
 30
0.0
 40
0.0625
  0
CIRCLE
  5
127A
330
1E
100
AcDbEntity
  8
OBJECT
100
AcDbCircle
 10
10.48942655106797
 20
17.34003471589753
 30
0.0
 40
0.0625
  0
CIRCLE
  5
127B
330
1E
100
AcDbEntity
  8
OBJECT
100
AcDbCircle
 10
26.48942655106798
 20
17.65003471589753
 30
0.0
 40
0.0625
  0
CIRCLE
  5
127C
330
1E
100
AcDbEntity
  8
OBJECT
100
AcDbCircle
 10
40.48942655106796
 20
17.09003471589753
 30
0.0
 40
0.0625
  0
DIMENSION
  5
129D
330
1E
100
AcDbEntity
  8
DIM
100
AcDbDimension
  2
*D32
 10
8.989426551067976
 20
9.292586876935708
 30
0.0
 11
7.100364051067978
 21
9.292586876935708
 31
0.0
 70
    32
  3
23NSTD
100
AcDbAlignedDimension
 13
9.364426551067976
 23
11.45956547604598
 33
0.0
 14
8.989426551067976
 24
11.37756547604598
 34
0.0
100
AcDbRotatedDimension
  0
LWPOLYLINE
  5
12C3
330
1E
100
AcDbEntity
  8
OBJECT
100
AcDbPolyline
 90
        4
 70
     0
 43
0.0
 10
28.61442655106797
 20
11.37556547604598
 10
28.61442655106797
 20
11.41356547604599
 42
0.9999999999999998
 10
28.36442655106798
 20
11.41356547604599
 10
28.36442655106798
 20
11.37556547604598
  0
LWPOLYLINE
  5
12C4
330
1E
100
AcDbEntity
  8
OBJECT
100
AcDbPolyline
 90
        4
 70
     0
 43
0.0
 10
28.61442655106797
 20
12.97356547604598
 10
28.61442655106797
 20
12.93556547604598
 42
-0.9999999999999998
 10
28.36442655106798
 20
12.93556547604598
 10
28.36442655106798
 20
12.97356547604598
  0
LWPOLYLINE
  5
12C5
330
1E
100
AcDbEntity
  8
OBJECT
100
AcDbPolyline
 90
        4
 70
     0
 43
0.0
 10
32.61442655106796
 20
11.37556547604598
 10
32.61442655106796
 20
11.41356547604599
 42
0.9999999999999998
 10
32.36442655106796
 20
11.41356547604599
 10
32.36442655106796
 20
11.37556547604598
  0
LWPOLYLINE
  5
12C6
330
1E
100
AcDbEntity
  8
OBJECT
100
AcDbPolyline
 90
        4
 70
     0
 43
0.0
 10
32.61442655106796
 20
12.97356547604598
 10
32.61442655106796
 20
12.93556547604598
 42
-0.9999999999999998
 10
32.36442655106796
 20
12.93556547604598
 10
32.36442655106796
 20
12.97356547604598
  0
LWPOLYLINE
  5
12C7
330
1E
100
AcDbEntity
  8
OBJECT
100
AcDbPolyline
 90
        4
 70
     0
 43
0.0
 10
36.61442655106798
 20
11.37556547604598
 10
36.61442655106798
 20
11.41356547604599
 42
0.9999999999999998
 10
36.36442655106796
 20
11.41356547604599
 10
36.36442655106796
 20
11.37556547604598
  0
LWPOLYLINE
  5
12C8
330
1E
100
AcDbEntity
  8
OBJECT
100
AcDbPolyline
 90
        4
 70
     0
 43
0.0
 10
36.61442655106798
 20
12.97356547604598
 10
36.61442655106798
 20
12.93556547604598
 42
-0.9999999999999998
 10
36.36442655106796
 20
12.93556547604598
 10
36.36442655106796
 20
12.97356547604598
  0
LWPOLYLINE
  5
12C9
330
1E
100
AcDbEntity
  8
OBJECT
100
AcDbPolyline
 90
        4
 70
     0
 43
0.0
 10
38.61442655106796
 20
12.97356547604598
 10
38.61442655106796
 20
12.93556547604598
 42
-0.9999999999999998
 10
38.36442655106798
 20
12.93556547604598
 10
38.36442655106798
 20
12.97356547604598
  0
LWPOLYLINE
  5
12CA
330
1E
100
AcDbEntity
  8
OBJECT
100
AcDbPolyline
 90
        4
 70
     0
 43
0.0
 10
38.61442655106796
 20
11.37556547604598
 10
38.61442655106796
 20
11.41356547604599
 42
0.9999999999999998
 10
38.36442655106798
 20
11.41356547604599
 10
38.36442655106798
 20
11.37556547604598
  0
LWPOLYLINE
  5
12CB
330
1E
100
AcDbEntity
  8
OBJECT
100
AcDbPolyline
 90
        4
 70
     0
 43
0.0
 10
24.36442655106798
 20
11.37556547604598
 10
24.36442655106798
 20
11.41356547604599
 42
-0.9999999999999998
 10
24.61442655106798
 20
11.41356547604599
 10
24.61442655106798
 20
11.37556547604598
  0
LWPOLYLINE
  5
12CC
330
1E
100
AcDbEntity
  8
OBJECT
100
AcDbPolyline
 90
        4
 70
     0
 43
0.0
 10
24.36442655106798
 20
12.97356547604598
 10
24.36442655106798
 20
12.93556547604598
 42
0.9999999999999998
 10
24.61442655106798
 20
12.93556547604598
 10
24.61442655106798
 20
12.97356547604598
  0
LWPOLYLINE
  5
12CD
330
1E
100
AcDbEntity
  8
OBJECT
100
AcDbPolyline
 90
        4
 70
     0
 43
0.0
 10
20.36442655106796
 20
11.37556547604598
 10
20.36442655106796
 20
11.41356547604599
 42
-0.9999999999999998
 10
20.61442655106798
 20
11.41356547604599
 10
20.61442655106798
 20
11.37556547604598
  0
LWPOLYLINE
  5
12CE
330
1E
100
AcDbEntity
  8
OBJECT
100
AcDbPolyline
 90
        4
 70
     0
 43
0.0
 10
20.36442655106796
 20
12.97356547604598
 10
20.36442655106796
 20
12.93556547604598
 42
0.9999999999999998
 10
20.61442655106798
 20
12.93556547604598
 10
20.61442655106798
 20
12.97356547604598
  0
LWPOLYLINE
  5
12CF
330
1E
100
AcDbEntity
  8
OBJECT
100
AcDbPolyline
 90
        4
 70
     0
 43
0.0
 10
16.36442655106796
 20
12.97356547604598
 10
16.36442655106796
 20
12.93556547604598
 42
0.9999999999999998
 10
16.61442655106798
 20
12.93556547604598
 10
16.61442655106798
 20
12.97356547604598
  0
LWPOLYLINE
  5
12D0
330
1E
100
AcDbEntity
  8
OBJECT
100
AcDbPolyline
 90
        4
 70
     0
 43
0.0
 10
16.36442655106796
 20
11.37556547604598
 10
16.36442655106796
 20
11.41356547604599
 42
-0.9999999999999998
 10
16.61442655106798
 20
11.41356547604599
 10
16.61442655106798
 20
11.37556547604598
  0
LWPOLYLINE
  5
12D1
330
1E
100
AcDbEntity
  8
OBJECT
100
AcDbPolyline
 90
        4
 70
     0
 43
0.0
 10
14.36442655106796
 20
11.37556547604598
 10
14.36442655106796
 20
11.41356547604599
 42
-0.9999999999999998
 10
14.61442655106798
 20
11.41356547604599
 10
14.61442655106798
 20
11.37556547604598
  0
LWPOLYLINE
  5
12D2
330
1E
100
AcDbEntity
  8
OBJECT
100
AcDbPolyline
 90
        4
 70
     0
 43
0.0
 10
14.36442655106796
 20
12.97356547604598
 10
14.36442655106796
 20
12.93556547604598
 42
0.9999999999999998
 10
14.61442655106798
 20
12.93556547604598
 10
14.61442655106798
 20
12.97356547604598
  0
LWPOLYLINE
  5
12DA
330
1E
100
AcDbEntity
  8
OBJECT
100
AcDbPolyline
 90
        4
 70
     1
 43
0.0
 10
37.36442655106796
 20
11.98456547604598
 42
-0.9999999999999998
 10
37.36442655106796
 20
12.36456547604598
 10
37.61442655106796
 20
12.36456547604598
 42
-0.9999999999999998
 10
37.61442655106796
 20
11.98456547604598
  0
LWPOLYLINE
  5
12DC
330
1E
100
AcDbEntity
  8
OBJECT
100
AcDbPolyline
 90
        4
 70
     1
 43
0.0
 10
15.36442655106798
 20
11.98456547604598
 42
-0.9999999999999998
 10
15.36442655106798
 20
12.36456547604598
 10
15.61442655106799
 20
12.36456547604598
 42
-0.9999999999999998
 10
15.61442655106799
 20
11.98456547604598
  0
LWPOLYLINE
  5
12DD
330
1E
100
AcDbEntity
  8
OBJECT
100
AcDbPolyline
 90
        4
 70
     0
 43
0.0
 10
28.61442655106797
 20
17.52503471589752
 10
28.61442655106797
 20
17.42703471589753
 42
-0.9999999999999998
 10
28.36442655106797
 20
17.42703471589753
 10
28.36442655106797
 20
17.52503471589752
  0
LINE
  5
12FD
330
1E
100
AcDbEntity
  8
OBJECT
100
AcDbLine
 10
28.36442655106797
 20
17.46503471589753
 30
0.0
 11
28.6105215550938
 21
17.46503471589753
 31
0.0
  0
LINE
  5
12FE
330
1E
100
AcDbEntity
  8
OBJECT
100
AcDbLine
 10
32.36442655106796
 20
17.46503471589753
 30
0.0
 11
32.61052155509378
 21
17.46503471589753
 31
0.0
  0
LWPOLYLINE
  5
12FF
330
1E
100
AcDbEntity
  8
OBJECT
100
AcDbPolyline
 90
        4
 70
     0
 43
0.0
 10
32.61442655106796
 20
17.52503471589752
 10
32.61442655106796
 20
17.42703471589753
 42
-0.9999999999999998
 10
32.36442655106796
 20
17.42703471589753
 10
32.36442655106796
 20
17.52503471589752
  0
LWPOLYLINE
  5
1300
330
1E
100
AcDbEntity
  8
OBJECT
100
AcDbPolyline
 90
        4
 70
     0
 43
0.0
 10
36.61442655106796
 20
17.52503471589752
 10
36.61442655106796
 20
17.42703471589753
 42
-0.9999999999999998
 10
36.36442655106796
 20
17.42703471589753
 10
36.36442655106796
 20
17.52503471589752
  0
LINE
  5
1301
330
1E
100
AcDbEntity
  8
OBJECT
100
AcDbLine
 10
36.36442655106796
 20
17.46503471589753
 30
0.0
 11
36.61052155509379
 21
17.46503471589753
 31
0.0
  0
LINE
  5
1302
330
1E
100
AcDbEntity
  8
OBJECT
100
AcDbLine
 10
38.36442655106796
 20
17.46503471589753
 30
0.0
 11
38.6105215550938
 21
17.46503471589753
 31
0.0
  0
LWPOLYLINE
  5
1303
330
1E
100
AcDbEntity
  8
OBJECT
100
AcDbPolyline
 90
        4
 70
     0
 43
0.0
 10
38.61442655106796
 20
17.52503471589752
 10
38.61442655106796
 20
17.42703471589753
 42
-0.9999999999999998
 10
38.36442655106796
 20
17.42703471589753
 10
38.36442655106796
 20
17.52503471589752
  0
LINE
  5
1304
330
1E
100
AcDbEntity
  8
OBJECT
100
AcDbLine
 10
24.61442655106798
 20
17.46503471589753
 30
0.0
 11
24.36833154704216
 21
17.46503471589753
 31
0.0
  0
LWPOLYLINE
  5
1305
330
1E
100
AcDbEntity
  8
OBJECT
100
AcDbPolyline
 90
        4
 70
     0
 43
0.0
 10
24.36442655106798
 20
17.52503471589752
 10
24.36442655106798
 20
17.42703471589753
 42
0.9999999999999998
 10
24.61442655106798
 20
17.42703471589753
 10
24.61442655106798
 20
17.52503471589752
  0
LWPOLYLINE
  5
1306
330
1E
100
AcDbEntity
  8
OBJECT
100
AcDbPolyline
 90
        4
 70
     0
 43
0.0
 10
20.36442655106797
 20
17.52503471589752
 10
20.36442655106797
 20
17.42703471589753
 42
0.9999999999999998
 10
20.61442655106798
 20
17.42703471589753
 10
20.61442655106798
 20
17.52503471589752
  0
LINE
  5
1307
330
1E
100
AcDbEntity
  8
OBJECT
100
AcDbLine
 10
20.61442655106798
 20
17.46503471589753
 30
0.0
 11
20.36833154704216
 21
17.46503471589753
 31
0.0
  0
LINE
  5
1308
330
1E
100
AcDbEntity
  8
OBJECT
100
AcDbLine
 10
16.61442655106798
 20
17.46503471589753
 30
0.0
 11
16.36833154704216
 21
17.46503471589753
 31
0.0
  0
LWPOLYLINE
  5
1309
330
1E
100
AcDbEntity
  8
OBJECT
100
AcDbPolyline
 90
        4
 70
     0
 43
0.0
 10
16.36442655106797
 20
17.52503471589752
 10
16.36442655106797
 20
17.42703471589753
 42
0.9999999999999998
 10
16.61442655106798
 20
17.42703471589753
 10
16.61442655106798
 20
17.52503471589752
  0
LWPOLYLINE
  5
130A
330
1E
100
AcDbEntity
  8
OBJECT
100
AcDbPolyline
 90
        4
 70
     0
 43
0.0
 10
14.36442655106797
 20
17.52503471589752
 10
14.36442655106797
 20
17.42703471589753
 42
0.9999999999999998
 10
14.61442655106798
 20
17.42703471589753
 10
14.61442655106798
 20
17.52503471589752
  0
LINE
  5
130B
330
1E
100
AcDbEntity
  8
OBJECT
100
AcDbLine
 10
14.61442655106798
 20
17.46503471589753
 30
0.0
 11
14.36833154704216
 21
17.46503471589753
 31
0.0
  0
LINE
  5
130C
330
1E
100
AcDbEntity
  8
OBJECT
100
AcDbLine
 10
14.61442655106798
 20
22.04078263688661
 30
0.0
 11
14.36833154704216
 21
22.04078263688661
 31
0.0
  0
LWPOLYLINE
  5
130D
330
1E
100
AcDbEntity
  8
OBJECT
100
AcDbPolyline
 90
        4
 70
     0
 43
0.0
 10
14.36442655106797
 20
22.1007826368866
 10
14.36442655106797
 20
22.00278263688661
 42
0.9999999999999998
 10
14.61442655106798
 20
22.00278263688661
 10
14.61442655106798
 20
22.1007826368866
  0
LWPOLYLINE
  5
130E
330
1E
100
AcDbEntity
  8
OBJECT
100
AcDbPolyline
 90
        4
 70
     0
 43
0.0
 10
16.36442655106797
 20
22.1007826368866
 10
16.36442655106797
 20
22.00278263688661
 42
0.9999999999999998
 10
16.61442655106798
 20
22.00278263688661
 10
16.61442655106798
 20
22.1007826368866
  0
LINE
  5
130F
330
1E
100
AcDbEntity
  8
OBJECT
100
AcDbLine
 10
16.61442655106798
 20
22.04078263688661
 30
0.0
 11
16.36833154704216
 21
22.04078263688661
 31
0.0
  0
LINE
  5
1310
330
1E
100
AcDbEntity
  8
OBJECT
100
AcDbLine
 10
20.61442655106798
 20
22.04078263688661
 30
0.0
 11
20.36833154704216
 21
22.04078263688661
 31
0.0
  0
LWPOLYLINE
  5
1311
330
1E
100
AcDbEntity
  8
OBJECT
100
AcDbPolyline
 90
        4
 70
     0
 43
0.0
 10
20.36442655106797
 20
22.1007826368866
 10
20.36442655106797
 20
22.00278263688661
 42
0.9999999999999998
 10
20.61442655106798
 20
22.00278263688661
 10
20.61442655106798
 20
22.1007826368866
  0
LWPOLYLINE
  5
1312
330
1E
100
AcDbEntity
  8
OBJECT
100
AcDbPolyline
 90
        4
 70
     0
 43
0.0
 10
24.36442655106798
 20
22.1007826368866
 10
24.36442655106798
 20
22.00278263688661
 42
0.9999999999999998
 10
24.61442655106798
 20
22.00278263688661
 10
24.61442655106798
 20
22.1007826368866
  0
LINE
  5
1313
330
1E
100
AcDbEntity
  8
OBJECT
100
AcDbLine
 10
24.61442655106798
 20
22.04078263688661
 30
0.0
 11
24.36833154704216
 21
22.04078263688661
 31
0.0
  0
LWPOLYLINE
  5
1324
330
1E
100
AcDbEntity
  8
OBJECT
100
AcDbPolyline
 90
        4
 70
     0
 43
0.0
 10
14.36442655106797
 20
22.35078263688663
 10
14.36442655106797
 20
22.44878263688661
 42
-0.9999999999999998
 10
14.61442655106798
 20
22.44878263688661
 10
14.61442655106798
 20
22.35078263688663
  0
LINE
  5
1325
330
1E
100
AcDbEntity
  8
OBJECT
100
AcDbLine
 10
14.61442655106798
 20
22.41078263688663
 30
0.0
 11
14.36833154704216
 21
22.41078263688663
 31
0.0
  0
LINE
  5
1326
330
1E
100
AcDbEntity
  8
OBJECT
100
AcDbLine
 10
16.61442655106798
 20
22.41078263688663
 30
0.0
 11
16.36833154704216
 21
22.41078263688663
 31
0.0
  0
LWPOLYLINE
  5
1327
330
1E
100
AcDbEntity
  8
OBJECT
100
AcDbPolyline
 90
        4
 70
     0
 43
0.0
 10
16.36442655106797
 20
22.35078263688663
 10
16.36442655106797
 20
22.44878263688661
 42
-0.9999999999999998
 10
16.61442655106798
 20
22.44878263688661
 10
16.61442655106798
 20
22.35078263688663
  0
LWPOLYLINE
  5
1328
330
1E
100
AcDbEntity
  8
OBJECT
100
AcDbPolyline
 90
        4
 70
     0
 43
0.0
 10
20.36442655106797
 20
22.35078263688663
 10
20.36442655106797
 20
22.44878263688661
 42
-0.9999999999999998
 10
20.61442655106798
 20
22.44878263688661
 10
20.61442655106798
 20
22.35078263688663
  0
LINE
  5
1329
330
1E
100
AcDbEntity
  8
OBJECT
100
AcDbLine
 10
20.61442655106798
 20
22.41078263688663
 30
0.0
 11
20.36833154704216
 21
22.41078263688663
 31
0.0
  0
LINE
  5
132A
330
1E
100
AcDbEntity
  8
OBJECT
100
AcDbLine
 10
24.61442655106798
 20
22.41078263688663
 30
0.0
 11
24.36833154704216
 21
22.41078263688663
 31
0.0
  0
LWPOLYLINE
  5
132B
330
1E
100
AcDbEntity
  8
OBJECT
100
AcDbPolyline
 90
        4
 70
     0
 43
0.0
 10
24.36442655106798
 20
22.35078263688663
 10
24.36442655106798
 20
22.44878263688661
 42
-0.9999999999999998
 10
24.61442655106798
 20
22.44878263688661
 10
24.61442655106798
 20
22.35078263688663
  0
TEXT
  5
1356
330
1E
100
AcDbEntity
  8
TEXT
100
AcDbText
 10
45.80289741340268
 20
27.95335227463693
 30
0.0
 40
0.5620000000000001
  1
5-19-10
 41
0.75
 72
     1
 11
47.03227241340268
 21
27.95335227463693
 31
0.0
100
AcDbText
  0
ENDSEC
  0
SECTION
  2
OBJECTS
  0
DICTIONARY
  5
C
330
0
100
AcDbDictionary
  3
ACAD_GROUP
350
D
  3
ACAD_LAYOUT
350
19
  3
ACAD_MLINESTYLE
350
16
  3
ACAD_PLOTSETTINGS
350
18
  3
ACAD_PLOTSTYLENAME
350
E
  3
ACADDIM
350
813
  3
ACDBHEADERROUNDTRIPXREC
350
135C
  0
DICTIONARY
  5
137F
330
1E
100
AcDbDictionary
280
     1
  3
ACAD_LAYOUTSELFREF
360
1380
  0
DICTIONARY
  5
137D
330
1A
100
AcDbDictionary
280
     1
  3
ACAD_LAYOUTSELFREF
360
137E
  0
DICTIONARY
  5
D
102
{ACAD_REACTORS
330
C
102
}
330
C
100
AcDbDictionary
  0
DICTIONARY
  5
19
102
{ACAD_REACTORS
330
C
102
}
330
C
100
AcDbDictionary
  0
DICTIONARY
  5
16
102
{ACAD_REACTORS
330
C
102
}
330
C
100
AcDbDictionary
  3
STANDARD
350
17
  0
DICTIONARY
  5
18
102
{ACAD_REACTORS
330
C
102
}
330
C
100
AcDbDictionary
  0
ACDBDICTIONARYWDFLT
  5
E
102
{ACAD_REACTORS
330
C
102
}
330
C
100
AcDbDictionary
281
     1
  3
Normal
350
F
100
AcDbDictionaryWithDefault
340
F
  0
XRECORD
  5
813
102
{ACAD_REACTORS
330
C
102
}
330
C
100
AcDbXrecord
 90
   990106
  3

 60
     3
 61
     0
 62
     1
 63
     3
 64
     0
 65
     0
 66
     0
 67
     3
 68
     1
 69
     0
 70
     0
 71
     0
 72
     0
 40
0.0
170
     1
340
0
  0
DICTIONARY
  5
135C
102
{ACAD_REACTORS
330
C
102
}
330
C
100
AcDbDictionary
  3
TSTACKALIGN
350
135D
  3
TSTACKSIZE
350
135E
  3
HYPERLINKBASE
350
135F
  3
STYLESHEET
350
1360
  3
LAYOUTDICT
350
1361
  3
PLOTSETDICT
350
1362
  3
PLOTSTYLNAMDICT
350
1363
  3
LWETCUNION
350
1364
  3
INSUNITS
350
1365
  3
CEPSNTYPE
350
1366
  3
FINGERPRINTGUID
350
1367
  3
VERSIONGUID
350
1368
  3
PSVPSCALE
350
1369
  3
DIMSTYLEDATA
350
136A
  3
PUCSORTHOREF
350
136B
  3
PUCSORTHOVIEW
350
136C
  3
PUCSBASE
350
136D
  3
PUCSORGTOP
350
136E
  3
PUCSORGBOTTOM
350
136F
  3
PUCSORGLEFT
350
1370
  3
PUCSORGRIGHT
350
1371
  3
PUCSORGFRONT
350
1372
  3
PUCSORGBACK
350
1373
  3
UCSORTHOREF
350
1374
  3
UCSORTHOVIEW
350
1375
  3
UCSBASE
350
1376
  3
UCSORGTOP
350
1377
  3
UCSORGBOTTOM
350
1378
  3
UCSORGLEFT
350
1379
  3
UCSORGRIGHT
350
137A
  3
UCSORGFRONT
350
137B
  3
UCSORGBACK
350
137C
  0
XRECORD
  5
1380
102
{ACAD_REACTORS
330
137F
102
}
330
137F
100
AcDbXrecord
340
1E
  0
XRECORD
  5
137E
102
{ACAD_REACTORS
330
137D
102
}
330
137D
100
AcDbXrecord
340
1A
  0
MLINESTYLE
  5
17
102
{ACAD_REACTORS
330
16
102
}
330
16
100
AcDbMlineStyle
  2
STANDARD
 70
     0
  3

 62
   256
 51
90.0
 52
90.0
 71
     2
 49
0.5
 62
   256
  6
BYLAYER
 49
-0.5
 62
   256
  6
BYLAYER
  0
ACDBPLACEHOLDER
  5
F
102
{ACAD_REACTORS
330
E
102
}
330
E
100
AcDbPlaceHolder
280
     0
  0
XRECORD
  5
135D
102
{ACAD_REACTORS
330
135C
102
}
330
135C
100
AcDbXrecord
 90
        1
  0
XRECORD
  5
135E
102
{ACAD_REACTORS
330
135C
102
}
330
135C
100
AcDbXrecord
 90
       70
  0
XRECORD
  5
135F
102
{ACAD_REACTORS
330
135C
102
}
330
135C
100
AcDbXrecord
  1

  0
XRECORD
  5
1360
102
{ACAD_REACTORS
330
135C
102
}
330
135C
100
AcDbXrecord
  1
monochrome.ctb
  0
XRECORD
  5
1361
102
{ACAD_REACTORS
330
135C
102
}
330
135C
100
AcDbXrecord
340
19
  0
XRECORD
  5
1362
102
{ACAD_REACTORS
330
135C
102
}
330
135C
100
AcDbXrecord
340
18
  0
XRECORD
  5
1363
102
{ACAD_REACTORS
330
135C
102
}
330
135C
100
AcDbXrecord
340
E
  0
XRECORD
  5
1364
102
{ACAD_REACTORS
330
135C
102
}
330
135C
100
AcDbXrecord
 90
    10781
  0
XRECORD
  5
1365
102
{ACAD_REACTORS
330
135C
102
}
330
135C
100
AcDbXrecord
 90
        0
  0
XRECORD
  5
1366
102
{ACAD_REACTORS
330
135C
102
}
330
135C
100
AcDbXrecord
 90
        0
  0
XRECORD
  5
1367
102
{ACAD_REACTORS
330
135C
102
}
330
135C
100
AcDbXrecord
  1
{7FCE3A07-1CF6-11D4-8148-00C04F604D21}
  0
XRECORD
  5
1368
102
{ACAD_REACTORS
330
135C
102
}
330
135C
100
AcDbXrecord
  1
{39CF0DF1-4894-4550-A5BE-1040A403288D}
  0
XRECORD
  5
1369
102
{ACAD_REACTORS
330
135C
102
}
330
135C
100
AcDbXrecord
 40
0.0
  0
XRECORD
  5
136A
102
{ACAD_REACTORS
330
135C
102
}
330
135C
100
AcDbXrecord
1000
DSTYLE
1002
{
1070
   289
 70
     1
1002
}
  0
XRECORD
  5
136B
102
{ACAD_REACTORS
330
135C
102
}
330
135C
100
AcDbXrecord
340
0
  0
XRECORD
  5
136C
102
{ACAD_REACTORS
330
135C
102
}
330
135C
100
AcDbXrecord
 70
     0
  0
XRECORD
  5
136D
102
{ACAD_REACTORS
330
135C
102
}
330
135C
100
AcDbXrecord
340
0
  0
XRECORD
  5
136E
102
{ACAD_REACTORS
330
135C
102
}
330
135C
100
AcDbXrecord
 10
0.0
 20
0.0
 30
0.0
  0
XRECORD
  5
136F
102
{ACAD_REACTORS
330
135C
102
}
330
135C
100
AcDbXrecord
 10
0.0
 20
0.0
 30
0.0
  0
XRECORD
  5
1370
102
{ACAD_REACTORS
330
135C
102
}
330
135C
100
AcDbXrecord
 10
0.0
 20
0.0
 30
0.0
  0
XRECORD
  5
1371
102
{ACAD_REACTORS
330
135C
102
}
330
135C
100
AcDbXrecord
 10
0.0
 20
0.0
 30
0.0
  0
XRECORD
  5
1372
102
{ACAD_REACTORS
330
135C
102
}
330
135C
100
AcDbXrecord
 10
0.0
 20
0.0
 30
0.0
  0
XRECORD
  5
1373
102
{ACAD_REACTORS
330
135C
102
}
330
135C
100
AcDbXrecord
 10
0.0
 20
0.0
 30
0.0
  0
XRECORD
  5
1374
102
{ACAD_REACTORS
330
135C
102
}
330
135C
100
AcDbXrecord
340
0
  0
XRECORD
  5
1375
102
{ACAD_REACTORS
330
135C
102
}
330
135C
100
AcDbXrecord
 70
     0
  0
XRECORD
  5
1376
102
{ACAD_REACTORS
330
135C
102
}
330
135C
100
AcDbXrecord
340
0
  0
XRECORD
  5
1377
102
{ACAD_REACTORS
330
135C
102
}
330
135C
100
AcDbXrecord
 10
0.0
 20
0.0
 30
0.0
  0
XRECORD
  5
1378
102
{ACAD_REACTORS
330
135C
102
}
330
135C
100
AcDbXrecord
 10
0.0
 20
0.0
 30
0.0
  0
XRECORD
  5
1379
102
{ACAD_REACTORS
330
135C
102
}
330
135C
100
AcDbXrecord
 10
0.0
 20
0.0
 30
0.0
  0
XRECORD
  5
137A
102
{ACAD_REACTORS
330
135C
102
}
330
135C
100
AcDbXrecord
 10
0.0
 20
0.0
 30
0.0
  0
XRECORD
  5
137B
102
{ACAD_REACTORS
330
135C
102
}
330
135C
100
AcDbXrecord
 10
0.0
 20
0.0
 30
0.0
  0
XRECORD
  5
137C
102
{ACAD_REACTORS
330
135C
102
}
330
135C
100
AcDbXrecord
 10
0.0
 20
0.0
 30
0.0
  0
ENDSEC
  0
EOF
