  0
SECTION
  2
HEADER
  9
$ACADVER
  1
AC1009
  9
$INSBASE
 10
0.0
 20
0.0
 30
0.0
  9
$EXTMIN
 10
0.0
 20
-0.726400784222804
 30
0.0
  9
$EXTMAX
 10
91.299999999999997
 20
53.129999999999981
 30
0.0
  9
$LIMMIN
 10
0.0
 20
0.0
  9
$LIMMAX
 10
11.0
 20
8.5
  9
$ORTHOMODE
 70
     0
  9
$REGENMODE
 70
     1
  9
$FILLMODE
 70
     1
  9
$QTEXTMODE
 70
     0
  9
$MIRRTEXT
 70
     0
  9
$DRAGMODE
 70
     2
  9
$LTSCALE
 40
1.0
  9
$OSMODE
 70
   229
  9
$ATTMODE
 70
     1
  9
$TEXTSIZE
 40
0.6875
  9
$TRACEWID
 40
0.05
  9
$TEXTSTYLE
  7
TXT
  9
$CLAYER
  8
OBJECT
  9
$CELTYPE
  6
BYLAYER
  9
$CECOLOR
 62
   256
  9
$DIMSCALE
 40
5.5
  9
$DIMASZ
 40
0.18
  9
$DIMEXO
 40
0.063
  9
$DIMDLI
 40
0.281
  9
$DIMRND
 40
0.0
  9
$DIMDLE
 40
0.0
  9
$DIMEXE
 40
0.093
  9
$DIMTP
 40
0.0
  9
$DIMTM
 40
0.0
  9
$DIMTXT
 40
0.125
  9
$DIMCEN
 40
0.09
  9
$DIMTSZ
 40
0.0
  9
$DIMTOL
 70
     0
  9
$DIMLIM
 70
     0
  9
$DIMTIH
 70
     1
  9
$DIMTOH
 70
     1
  9
$DIMSE1
 70
     0
  9
$DIMSE2
 70
     0
  9
$DIMTAD
 70
     0
  9
$DIMZIN
 70
     0
  9
$DIMBLK
  1

  9
$DIMASO
 70
     1
  9
$DIMSHO
 70
     1
  9
$DIMPOST
  1

  9
$DIMAPOST
  1

  9
$DIMALT
 70
     0
  9
$DIMALTD
 70
     2
  9
$DIMALTF
 40
25.399999999999999
  9
$DIMLFAC
 40
1.0
  9
$DIMTOFL
 70
     0
  9
$DIMTVP
 40
0.0
  9
$DIMTIX
 70
     0
  9
$DIMSOXD
 70
     0
  9
$DIMSAH
 70
     0
  9
$DIMBLK1
  1

  9
$DIMBLK2
  1

  9
$DIMSTYLE
  2
23NSTD
  9
$DIMCLRD
 70
     0
  9
$DIMCLRE
 70
     0
  9
$DIMCLRT
 70
     0
  9
$DIMTFAC
 40
1.0
  9
$DIMGAP
 40
0.09
  9
$LUNITS
 70
     2
  9
$LUPREC
 70
     3
  9
$SKETCHINC
 40
0.1
  9
$FILLETRAD
 40
0.0
  9
$AUNITS
 70
     0
  9
$AUPREC
 70
     0
  9
$MENU
  1
acad
  9
$ELEVATION
 40
0.0
  9
$PELEVATION
 40
0.0
  9
$THICKNESS
 40
0.0
  9
$LIMCHECK
 70
     0
  9
$BLIPMODE
 70
     0
  9
$CHAMFERA
 40
0.0
  9
$CHAMFERB
 40
0.0
  9
$SKPOLY
 70
     0
  9
$TDCREATE
 40
2452474.4593576388
  9
$TDUPDATE
 40
2452474.553978587
  9
$TDINDWG
 40
0.0722211227
  9
$TDUSRTIMER
 40
0.0722211227
  9
$USRTIMER
 70
     1
  9
$ANGBASE
 50
0.0
  9
$ANGDIR
 70
     0
  9
$PDMODE
 70
     0
  9
$PDSIZE
 40
0.0
  9
$PLINEWID
 40
0.0
  9
$COORDS
 70
     1
  9
$SPLFRAME
 70
     0
  9
$SPLINETYPE
 70
     6
  9
$SPLINESEGS
 70
     8
  9
$ATTDIA
 70
     0
  9
$ATTREQ
 70
     1
  9
$HANDLING
 70
  4097
  9
$HANDSEED
  5
7EE
  9
$SURFTAB1
 70
     6
  9
$SURFTAB2
 70
     6
  9
$SURFTYPE
 70
     6
  9
$SURFU
 70
     6
  9
$SURFV
 70
     6
  9
$UCSNAME
  2

  9
$UCSORG
 10
0.0
 20
0.0
 30
0.0
  9
$UCSXDIR
 10
1.0
 20
0.0
 30
0.0
  9
$UCSYDIR
 10
0.0
 20
1.0
 30
0.0
  9
$PUCSNAME
  2

  9
$PUCSORG
 10
0.0
 20
0.0
 30
0.0
  9
$PUCSXDIR
 10
1.0
 20
0.0
 30
0.0
  9
$PUCSYDIR
 10
0.0
 20
1.0
 30
0.0
  9
$USERI1
 70
     0
  9
$USERI2
 70
     0
  9
$USERI3
 70
     0
  9
$USERI4
 70
     0
  9
$USERI5
 70
     0
  9
$USERR1
 40
0.0
  9
$USERR2
 40
0.0
  9
$USERR3
 40
0.0
  9
$USERR4
 40
0.0
  9
$USERR5
 40
0.0
  9
$WORLDVIEW
 70
     1
  9
$SHADEDGE
 70
     3
  9
$SHADEDIF
 70
    70
  9
$TILEMODE
 70
     1
  9
$MAXACTVP
 70
    16
  9
$PLIMCHECK
 70
     0
  9
$PEXTMIN
 10
1.0000000000000000E+020
 20
1.0000000000000000E+020
 30
1.0000000000000000E+020
  9
$PEXTMAX
 10
-1.0000000000000000E+020
 20
-1.0000000000000000E+020
 30
-1.0000000000000000E+020
  9
$PLIMMIN
 10
0.0
 20
0.0
  9
$PLIMMAX
 10
12.0
 20
9.0
  9
$UNITMODE
 70
     0
  9
$VISRETAIN
 70
     0
  9
$PLINEGEN
 70
     0
  9
$PSLTSCALE
 70
     1
  0
ENDSEC
  0
SECTION
  2
TABLES
  0
TABLE
  2
VPORT
 70
     2
  0
VPORT
  2
*ACTIVE
 70
     0
 10
0.0
 20
0.0
 11
1.0
 21
1.0
 12
45.650000710242381
 22
26.20218019738288
 13
0.0
 23
0.0
 14
0.125
 24
0.125
 15
0.125
 25
0.125
 16
0.0
 26
0.0
 36
1.0
 17
0.0
 27
0.0
 37
0.0
 40
54.438834124782851
 41
1.714028776978417
 42
50.0
 43
0.0
 44
0.0
 50
0.0
 51
0.0
 71
     0
 72
   100
 73
     1
 74
     0
 75
     0
 76
     0
 77
     0
 78
     0
  0
ENDTAB
  0
TABLE
  2
LTYPE
 70
     6
  0
LTYPE
  2
CONTINUOUS
 70
     0
  3
Solid line
 72
    65
 73
     0
 40
0.0
  0
LTYPE
  2
HIDDEN
 70
     0
  3
_ _ _ _ _ _ _ _ _ _ _ _ _ _ _ _ _ _ _ _ _ _ _
 72
    65
 73
     2
 40
0.375
 49
0.25
 49
-0.125
  0
LTYPE
  2
PHANTOM
 70
     0
  3
_____ _ _ _____ _ _ _____ _ _ _____ _ _ ____
 72
    65
 73
     6
 40
2.5
 49
1.25
 49
-0.25
 49
0.25
 49
-0.25
 49
0.25
 49
-0.25
  0
LTYPE
  2
CENTER
 70
     0
  3
____ _ ____ _ ____ _ ____ _ ____ _ ____ _ ____
 72
    65
 73
     4
 40
2.0
 49
1.25
 49
-0.25
 49
0.25
 49
-0.25
  0
LTYPE
  2
HIDDEN2
 70
     0
  3
_ _ _ _ _ _ _ _ _ _ _ _ _ _ _ _ _ _ _ _ _ _ _ _
 72
    65
 73
     2
 40
0.1875
 49
0.125
 49
-0.0625
  0
LTYPE
  2
PHANTOM2
 70
     0
  3
___ _ _ ___ _ _ ___ _ _ ___ _ _ ___ _ _ ___ _ _
 72
    65
 73
     6
 40
1.25
 49
0.625
 49
-0.125
 49
0.125
 49
-0.125
 49
0.125
 49
-0.125
  0
ENDTAB
  0
TABLE
  2
LAYER
 70
     9
  0
LAYER
  2
0
 70
     0
 62
     7
  6
CONTINUOUS
  0
LAYER
  2
OBJECT
 70
     0
 62
     7
  6
CONTINUOUS
  0
LAYER
  2
DIM
 70
     0
 62
     2
  6
CONTINUOUS
  0
LAYER
  2
HIDDEN
 70
     0
 62
     6
  6
HIDDEN
  0
LAYER
  2
BEND
 70
     0
 62
     4
  6
PHANTOM
  0
LAYER
  2
TEXT
 70
     0
 62
     1
  6
CONTINUOUS
  0
LAYER
  2
TITLE
 70
     0
 62
     8
  6
CONTINUOUS
  0
LAYER
  2
CENTER
 70
     0
 62
     3
  6
CENTER
  0
LAYER
  2
DEFPOINTS
 70
     0
 62
     7
  6
CONTINUOUS
  0
ENDTAB
  0
TABLE
  2
STYLE
 70
     2
  0
STYLE
  2
TXT
 70
     0
 40
0.0
 41
0.75
 50
0.0
 71
     0
 42
0.6875
  3
TXT.shx
  4

  0
STYLE
  2
STANDARD
 70
     0
 40
0.2
 41
1.0
 50
0.0
 71
     0
 42
0.2
  3
txt
  4

  0
ENDTAB
  0
TABLE
  2
VIEW
 70
     0
  0
ENDTAB
  0
TABLE
  2
UCS
 70
     0
  0
ENDTAB
  0
TABLE
  2
APPID
 70
     2
  0
APPID
  2
ACAD
 70
     0
  0
APPID
  2
DCO15
 70
     0
  0
ENDTAB
  0
TABLE
  2
DIMSTYLE
 70
     3
  0
DIMSTYLE
  2
23NSTD
 70
     0
  3

  4

  5

  6

  7

 40
5.5
 41
0.18
 42
0.063
 43
0.281
 44
0.093
 45
0.0
 46
0.0
 47
0.0
 48
0.0
140
0.125
141
0.09
142
0.0
143
25.399999999999999
144
1.0
145
0.0
146
1.0
147
0.09
 71
     0
 72
     0
 73
     1
 74
     1
 75
     0
 76
     0
 77
     0
 78
     0
170
     0
171
     2
172
     0
173
     0
174
     0
175
     0
176
     0
177
     0
178
     0
  0
DIMSTYLE
  2
23NSTDI
 70
     0
  3

  4

  5

  6

  7

 40
5.5
 41
0.18
 42
0.063
 43
0.281
 44
0.093
 45
0.0
 46
0.0
 47
0.0
 48
0.0
140
0.125
141
0.09
142
0.0
143
25.399999999999999
144
1.0
145
0.0
146
1.0
147
0.09
 71
     0
 72
     0
 73
     1
 74
     1
 75
     0
 76
     0
 77
     0
 78
     0
170
     0
171
     2
172
     0
173
     0
174
     1
175
     0
176
     0
177
     0
178
     0
  0
DIMSTYLE
  2
STANDARD
 70
     0
  3

  4

  5

  6

  7

 40
1.0
 41
0.18
 42
0.0625
 43
0.38
 44
0.18
 45
0.0
 46
0.0
 47
0.0
 48
0.0
140
0.18
141
0.09
142
0.0
143
25.399999999999999
144
1.0
145
0.0
146
1.0
147
0.09
 71
     0
 72
     0
 73
     1
 74
     1
 75
     0
 76
     0
 77
     0
 78
     0
170
     0
171
     2
172
     0
173
     0
174
     0
175
     0
176
     0
177
     0
178
     0
  0
ENDTAB
  0
ENDSEC
  0
SECTION
  2
BLOCKS
  0
BLOCK
  8
0
  2
$MODEL_SPACE
 70
     0
 10
0.0
 20
0.0
 30
0.0
  3
$MODEL_SPACE
  1

  0
ENDBLK
  5
34
  8
0
  0
BLOCK
 67
     1
  8
0
  2
$PAPER_SPACE
 70
     0
 10
0.0
 20
0.0
 30
0.0
  3
$PAPER_SPACE
  1

  0
ENDBLK
  5
32
 67
     1
  8
0
  0
BLOCK
  8
0
  2
HBS
 70
     0
 10
0.0
 20
0.0
 30
0.0
  3
HBS
  1

  0
LINE
  5
13B
  8
TITLE
 10
0.0619999999999976
 20
9.1799999999999997
 30
0.0
 11
16.53799999999999
 21
9.1800000000000033
 31
0.0
  0
TEXT
  5
13C
  8
TEXT
 10
0.2078333333333345
 20
9.2200791956400785
 30
0.0
 40
0.125
  1
NAME
 72
     1
 11
0.4370000000000012
 21
9.2200791956400785
 31
0.0
  0
TEXT
  5
13D
  8
TEXT
 10
0.2078333333333345
 20
9.4284125289734106
 30
0.0
 40
0.125
  1
PART
 72
     1
 11
0.4370000000000012
 21
9.4284125289734106
 31
0.0
  0
LINE
  5
13E
  8
TITLE
 10
0.8120000000000011
 20
9.1799999999999997
 30
0.0
 11
0.8119999999999976
 21
9.5979999999999972
 31
0.0
  0
TEXT
  5
13F
  8
TEXT
 10
7.2078333333333324
 20
9.4284125289734106
 30
0.0
 40
0.125
  1
PART
 72
     1
 11
7.4369999999999994
 21
9.4284125289734106
 31
0.0
  0
TEXT
  5
140
  8
TEXT
 10
7.3119999999999994
 20
9.2200791956400785
 30
0.0
 40
0.125
  1
No.
 72
     1
 11
7.4369999999999994
 21
9.2200791956400785
 31
0.0
  0
LINE
  5
141
  8
TITLE
 10
7.0619999999999994
 20
9.5979999999999972
 30
0.0
 11
7.0619999999999994
 21
9.1799999999999997
 31
0.0
  0
LINE
  5
142
  8
TITLE
 10
7.0000000000000009
 20
9.5979999999999972
 30
0.0
 11
7.0000000000000009
 21
9.1799999999999997
 31
0.0
  0
LINE
  5
143
  8
TITLE
 10
7.8119999999999994
 20
9.5979999999999972
 30
0.0
 11
7.8119999999999994
 21
9.1799999999999997
 31
0.0
  0
LINE
  5
144
  8
TITLE
 10
16.600000000000001
 20
9.6599999999999966
 30
0.0
 11
16.599999999999991
 21
0.0
 31
0.0
  0
LINE
  5
145
  8
TITLE
 10
16.599999999999991
 20
0.0
 30
0.0
 11
0.0
 21
0.0
 31
0.0
  0
LINE
  5
146
  8
TITLE
 10
0.0
 20
0.0
 30
0.0
 11
0.0
 21
9.6599999999999966
 31
0.0
  0
LINE
  5
147
  8
TITLE
 10
0.0
 20
9.6599999999999966
 30
0.0
 11
16.600000000000001
 21
9.6599999999999966
 31
0.0
  0
LINE
  5
148
  8
TITLE
 10
16.53799999999999
 20
9.5980000000000061
 30
0.0
 11
16.53799999999999
 21
0.0620000000000012
 31
0.0
  0
LINE
  5
149
  8
TITLE
 10
16.53799999999999
 20
0.0620000000000012
 30
0.0
 11
0.0620000000000012
 21
0.0620000000000012
 31
0.0
  0
LINE
  5
14A
  8
TITLE
 10
0.0620000000000012
 20
0.0620000000000012
 30
0.0
 11
0.0620000000000012
 21
9.5979999999999972
 31
0.0
  0
LINE
  5
14B
  8
TITLE
 10
0.0620000000000012
 20
9.5979999999999972
 30
0.0
 11
16.53799999999999
 21
9.5980000000000061
 31
0.0
  0
LINE
  5
14C
  8
TITLE
 10
13.999991133050001
 20
9.5979999999999972
 30
0.0
 11
13.999991133050001
 21
9.1799999999999997
 31
0.0
  0
LINE
  5
14D
  8
TITLE
 10
14.81199113305
 20
9.5979999999999972
 30
0.0
 11
14.81199113305
 21
9.1799999999999997
 31
0.0
  0
LINE
  5
14E
  8
TITLE
 10
14.06199113305
 20
9.5979999999999972
 30
0.0
 11
14.06199113305
 21
9.1799999999999997
 31
0.0
  0
TEXT
  5
14F
  8
TEXT
 10
14.207824466383331
 20
9.2200791956400785
 30
0.0
 40
0.125
  1
DATE
 72
     1
 11
14.43699113305
 21
9.2200791956400785
 31
0.0
  0
TEXT
  5
150
  8
TEXT
 10
14.22865779971667
 20
9.4284125289734106
 30
0.0
 40
0.125
  1
REV.
 72
     1
 11
14.43699113305
 21
9.4284125289734106
 31
0.0
  0
ENDBLK
  5
152
  8
0
  0
BLOCK
  8
0
  2
*D1
 70
     1
 10
0.0
 20
0.0
 30
0.0
  3
*D1
  1

  0
LINE
  5
736
  8
DIM
 62
     0
 10
16.993016508812701
 20
19.327172155522
 30
0.0
 11
16.993016508812701
 21
14.228073476059709
 31
0.0
  0
LINE
  5
737
  8
DIM
 62
     0
 10
72.993016508812701
 20
19.327172155522
 30
0.0
 11
72.993016508812701
 21
14.228073476059709
 31
0.0
  0
LINE
  5
738
  8
DIM
 62
     0
 10
17.9830165088127
 20
14.739573476059711
 30
0.0
 11
38.224579008812697
 21
14.739573476059711
 31
0.0
  0
LINE
  5
739
  8
DIM
 62
     0
 10
72.003016508812706
 20
14.739573476059711
 30
0.0
 11
51.761454008812699
 21
14.739573476059711
 31
0.0
  0
SOLID
  5
73A
  8
DIM
 62
     0
 10
17.9830165088127
 20
14.90457347605971
 30
0.0
 11
17.9830165088127
 21
14.574573476059721
 31
0.0
 12
16.993016508812701
 22
14.739573476059711
 32
0.0
 13
16.993016508812701
 23
14.739573476059711
 33
0.0
  0
SOLID
  5
73B
  8
DIM
 62
     0
 10
72.003016508812706
 20
14.90457347605971
 30
0.0
 11
72.003016508812706
 21
14.574573476059721
 31
0.0
 12
72.993016508812701
 22
14.739573476059711
 32
0.0
 13
72.993016508812701
 23
14.739573476059711
 33
0.0
  0
TEXT
  5
73C
  8
OBJECT
 62
     0
 10
38.719579008812701
 20
14.395823476059711
 30
0.0
 40
0.6875
  1
(4) SPACES @ 14.000 = 56.000
 41
0.75
  0
POINT
  5
73D
  8
DEFPOINTS
 62
     0
 10
16.993016508812701
 20
19.673672155521992
 30
0.0
  0
POINT
  5
73E
  8
DEFPOINTS
 62
     0
 10
72.993016508812701
 20
19.673672155521992
 30
0.0
  0
POINT
  5
73F
  8
DEFPOINTS
 62
     0
 10
72.993016508812701
 20
14.739573476059711
 30
0.0
  0
ENDBLK
  5
161
  8
0
  0
BLOCK
  8
0
  2
*D2
 70
     1
 10
0.0
 20
0.0
 30
0.0
  3
*D2
  1

  0
LINE
  5
789
  8
DIM
 62
     0
 10
88.029873215743862
 20
20.798672155521992
 30
0.0
 11
86.062682525273374
 21
20.798672155521992
 31
0.0
  0
LINE
  5
78A
  8
DIM
 62
     0
 10
88.029873215743862
 20
19.798672155521992
 30
0.0
 11
86.062682525273374
 21
19.798672155521992
 31
0.0
  0
LINE
  5
78B
  8
DIM
 62
     0
 10
86.574182525273372
 20
21.78867215552199
 30
0.0
 11
86.574182525273372
 21
22.778672155521988
 31
0.0
  0
LINE
  5
78C
  8
DIM
 62
     0
 10
86.574182525273372
 20
18.80867215552199
 30
0.0
 11
86.574182525273372
 21
16.02841573492044
 31
0.0
  0
LINE
  5
78D
  8
DIM
 62
     0
 10
86.574182525273372
 20
16.02841573492044
 30
0.0
 11
85.584182525273377
 21
16.02841573492044
 31
0.0
  0
SOLID
  5
78E
  8
DIM
 62
     0
 10
86.409182525273366
 20
21.78867215552199
 30
0.0
 11
86.739182525273378
 21
21.78867215552199
 31
0.0
 12
86.574182525273372
 22
20.798672155521992
 32
0.0
 13
86.574182525273372
 23
20.798672155521992
 33
0.0
  0
SOLID
  5
78F
  8
DIM
 62
     0
 10
86.409182525273366
 20
18.80867215552199
 30
0.0
 11
86.739182525273378
 21
18.80867215552199
 31
0.0
 12
86.574182525273372
 22
19.798672155521992
 32
0.0
 13
86.574182525273372
 23
19.798672155521992
 33
0.0
  0
TEXT
  5
790
  8
OBJECT
 62
     0
 10
83.456370025273387
 20
15.684665734920451
 30
0.0
 40
0.6875
  1
1.000
 41
0.75
  0
POINT
  5
791
  8
DEFPOINTS
 62
     0
 10
88.376373215743868
 20
20.798672155521992
 30
0.0
  0
POINT
  5
792
  8
DEFPOINTS
 62
     0
 10
88.376373215743868
 20
19.798672155521992
 30
0.0
  0
POINT
  5
793
  8
DEFPOINTS
 62
     0
 10
86.574182525273372
 20
19.798672155521992
 30
0.0
  0
ENDBLK
  5
172
  8
0
  0
BLOCK
  8
0
  2
*D3
 70
     1
 10
0.0
 20
0.0
 30
0.0
  3
*D3
  1

  0
LINE
  5
77E
  8
DIM
 62
     0
 10
88.029873215743862
 20
19.798672155521992
 30
0.0
 11
84.441071009423027
 21
19.798672155521992
 31
0.0
  0
LINE
  5
77F
  8
DIM
 62
     0
 10
87.420873215743853
 20
19.298672155521992
 30
0.0
 11
84.441071009423027
 21
19.298672155521992
 31
0.0
  0
LINE
  5
780
  8
DIM
 62
     0
 10
84.952571009423025
 20
20.78867215552199
 30
0.0
 11
84.952571009423025
 21
21.778672155521988
 31
0.0
  0
LINE
  5
781
  8
DIM
 62
     0
 10
84.952571009423025
 20
18.30867215552199
 30
0.0
 11
84.952571009423025
 21
17.318672155521991
 31
0.0
  0
LINE
  5
782
  8
DIM
 62
     0
 10
84.952571009423025
 20
17.318672155521991
 30
0.0
 11
83.96257100942303
 21
17.318672155521991
 31
0.0
  0
SOLID
  5
783
  8
DIM
 62
     0
 10
84.787571009423004
 20
20.78867215552199
 30
0.0
 11
85.117571009423017
 21
20.78867215552199
 31
0.0
 12
84.952571009423025
 22
19.798672155521992
 32
0.0
 13
84.952571009423025
 23
19.798672155521992
 33
0.0
  0
SOLID
  5
784
  8
DIM
 62
     0
 10
84.787571009423004
 20
18.30867215552199
 30
0.0
 11
85.117571009423017
 21
18.30867215552199
 31
0.0
 12
84.952571009423025
 22
19.298672155521992
 32
0.0
 13
84.952571009423025
 23
19.298672155521992
 33
0.0
  0
TEXT
  5
785
  8
OBJECT
 62
     0
 10
81.662883509423025
 20
16.974922155521998
 30
0.0
 40
0.6875
  1
0.500
 41
0.75
  0
POINT
  5
786
  8
DEFPOINTS
 62
     0
 10
88.376373215743868
 20
19.798672155521992
 30
0.0
  0
POINT
  5
787
  8
DEFPOINTS
 62
     0
 10
87.767373215743874
 20
19.298672155521992
 30
0.0
  0
POINT
  5
788
  8
DEFPOINTS
 62
     0
 10
84.952571009423025
 20
19.298672155521992
 30
0.0
  0
ENDBLK
  5
19E
  8
0
  0
BLOCK
  8
0
  2
*D4
 70
     1
 10
0.0
 20
0.0
 30
0.0
  3
*D4
  1

  0
LINE
  5
774
  8
DIM
 62
     0
 10
88.376373215743868
 20
21.14517215552198
 30
0.0
 11
88.376373215743868
 21
23.976503862327839
 31
0.0
  0
LINE
  5
775
  8
DIM
 62
     0
 10
87.767373215743874
 20
21.64517215552199
 30
0.0
 11
87.767373215743874
 21
23.976503862327839
 31
0.0
  0
LINE
  5
776
  8
DIM
 62
     0
 10
89.366373215743849
 20
23.465003862327841
 30
0.0
 11
90.356373215743872
 21
23.465003862327841
 31
0.0
  0
LINE
  5
777
  8
DIM
 62
     0
 10
86.777373215743879
 20
23.465003862327841
 30
0.0
 11
85.787373215743884
 21
23.465003862327841
 31
0.0
  0
SOLID
  5
778
  8
DIM
 62
     0
 10
89.366373215743849
 20
23.63000386232784
 30
0.0
 11
89.366373215743849
 21
23.300003862327841
 31
0.0
 12
88.376373215743868
 22
23.465003862327841
 32
0.0
 13
88.376373215743868
 23
23.465003862327841
 33
0.0
  0
SOLID
  5
779
  8
DIM
 62
     0
 10
86.777373215743879
 20
23.63000386232784
 30
0.0
 11
86.777373215743879
 21
23.300003862327841
 31
0.0
 12
87.767373215743874
 22
23.465003862327841
 32
0.0
 13
87.767373215743874
 23
23.465003862327841
 33
0.0
  0
TEXT
  5
77A
  8
OBJECT
 62
     0
 10
83.401748215743879
 20
23.121253862327841
 30
0.0
 40
0.6875
  1
0.609
 41
0.75
  0
POINT
  5
77B
  8
DEFPOINTS
 62
     0
 10
88.376373215743868
 20
20.798672155521992
 30
0.0
  0
POINT
  5
77C
  8
DEFPOINTS
 62
     0
 10
87.767373215743874
 20
21.298672155521992
 30
0.0
  0
POINT
  5
77D
  8
DEFPOINTS
 62
     0
 10
87.767373215743874
 20
23.465003862327841
 30
0.0
  0
ENDBLK
  5
1B7
  8
0
  0
BLOCK
  8
0
  2
*D5
 70
     1
 10
0.0
 20
0.0
 30
0.0
  3
*D5
  1

  0
LINE
  5
5F4
  8
DIM
 62
     0
 10
8.6318838502882898
 20
35.435291880374599
 30
0.0
 11
8.6318838502882898
 21
32.756890384905297
 31
0.0
  0
LINE
  5
5F5
  8
DIM
 62
     0
 10
9.1318838502882898
 20
35.435291880374599
 30
0.0
 11
9.1318838502882898
 21
32.756890384905297
 31
0.0
  0
LINE
  5
5F6
  8
DIM
 62
     0
 10
7.6418838502882886
 20
33.268390384905302
 30
0.0
 11
6.6518838502882893
 21
33.268390384905302
 31
0.0
  0
LINE
  5
5F7
  8
DIM
 62
     0
 10
10.12188385028829
 20
33.268390384905302
 30
0.0
 11
11.11188385028829
 21
33.268390384905302
 31
0.0
  0
SOLID
  5
5F8
  8
DIM
 62
     0
 10
7.6418838502882886
 20
33.433390384905302
 30
0.0
 11
7.6418838502882886
 21
33.103390384905303
 31
0.0
 12
8.6318838502882898
 22
33.268390384905302
 32
0.0
 13
8.6318838502882898
 23
33.268390384905302
 33
0.0
  0
SOLID
  5
5F9
  8
DIM
 62
     0
 10
10.12188385028829
 20
33.433390384905302
 30
0.0
 11
10.12188385028829
 21
33.103390384905303
 31
0.0
 12
9.1318838502882898
 22
33.268390384905302
 32
0.0
 13
9.1318838502882898
 23
33.268390384905302
 33
0.0
  0
TEXT
  5
5FA
  8
OBJECT
 62
     0
 10
11.606883850288289
 20
32.924640384905302
 30
0.0
 40
0.6875
  1
0.500
 41
0.75
  0
POINT
  5
5FB
  8
DEFPOINTS
 62
     0
 10
8.6318838502882898
 20
35.781791880374591
 30
0.0
  0
POINT
  5
5FC
  8
DEFPOINTS
 62
     0
 10
9.1318838502882898
 20
35.781791880374591
 30
0.0
  0
POINT
  5
5FD
  8
DEFPOINTS
 62
     0
 10
9.1318838502882898
 20
33.268390384905302
 30
0.0
  0
ENDBLK
  5
1C6
  8
0
  0
BLOCK
  8
0
  2
*D6
 70
     1
 10
0.0
 20
0.0
 30
0.0
  3
*D6
  1

  0
LINE
  5
5E0
  8
DIM
 62
     0
 10
8.0068838502882898
 20
35.435291880374599
 30
0.0
 11
8.0068838502882898
 21
31.265946213970079
 31
0.0
  0
LINE
  5
5E1
  8
DIM
 62
     0
 10
8.6318838502882898
 20
35.435291880374599
 30
0.0
 11
8.6318838502882898
 21
31.265946213970079
 31
0.0
  0
LINE
  5
5E2
  8
DIM
 62
     0
 10
7.0168838502882886
 20
31.77744621397008
 30
0.0
 11
6.0268838502882893
 21
31.77744621397008
 31
0.0
  0
LINE
  5
5E3
  8
DIM
 62
     0
 10
9.6218838502882882
 20
31.77744621397008
 30
0.0
 11
10.61188385028829
 21
31.77744621397008
 31
0.0
  0
SOLID
  5
5E4
  8
DIM
 62
     0
 10
7.0168838502882886
 20
31.942446213970069
 30
0.0
 11
7.0168838502882886
 21
31.612446213970081
 31
0.0
 12
8.0068838502882898
 22
31.77744621397008
 32
0.0
 13
8.0068838502882898
 23
31.77744621397008
 33
0.0
  0
SOLID
  5
5E5
  8
DIM
 62
     0
 10
9.6218838502882882
 20
31.942446213970069
 30
0.0
 11
9.6218838502882882
 21
31.612446213970081
 31
0.0
 12
8.6318838502882898
 22
31.77744621397008
 32
0.0
 13
8.6318838502882898
 23
31.77744621397008
 33
0.0
  0
TEXT
  5
5E6
  8
OBJECT
 62
     0
 10
11.106883850288289
 20
31.43369621397008
 30
0.0
 40
0.6875
  1
0.625
 41
0.75
  0
POINT
  5
5E7
  8
DEFPOINTS
 62
     0
 10
8.0068838502882898
 20
35.781791880374591
 30
0.0
  0
POINT
  5
5E8
  8
DEFPOINTS
 62
     0
 10
8.6318838502882898
 20
35.781791880374591
 30
0.0
  0
POINT
  5
5E9
  8
DEFPOINTS
 62
     0
 10
8.6318838502882898
 20
31.77744621397008
 30
0.0
  0
ENDBLK
  5
1D4
  8
0
  0
BLOCK
  8
0
  2
*D7
 70
     1
 10
0.0
 20
0.0
 30
0.0
  3
*D7
  1

  0
LINE
  5
5EA
  8
DIM
 62
     0
 10
7.3818838502882889
 20
35.435291880374599
 30
0.0
 11
7.3818838502882889
 21
29.609341822097239
 31
0.0
  0
LINE
  5
5EB
  8
DIM
 62
     0
 10
8.0068838502882898
 20
35.435291880374599
 30
0.0
 11
8.0068838502882898
 21
29.609341822097239
 31
0.0
  0
LINE
  5
5EC
  8
DIM
 62
     0
 10
6.3918838502882886
 20
30.12084182209724
 30
0.0
 11
5.4018838502882893
 21
30.12084182209724
 31
0.0
  0
LINE
  5
5ED
  8
DIM
 62
     0
 10
8.9968838502882882
 20
30.12084182209724
 30
0.0
 11
9.9868838502882902
 21
30.12084182209724
 31
0.0
  0
SOLID
  5
5EE
  8
DIM
 62
     0
 10
6.3918838502882886
 20
30.28584182209725
 30
0.0
 11
6.3918838502882886
 21
29.955841822097248
 31
0.0
 12
7.3818838502882889
 22
30.12084182209724
 32
0.0
 13
7.3818838502882889
 23
30.12084182209724
 33
0.0
  0
SOLID
  5
5EF
  8
DIM
 62
     0
 10
8.9968838502882882
 20
30.28584182209725
 30
0.0
 11
8.9968838502882882
 21
29.955841822097248
 31
0.0
 12
8.0068838502882898
 22
30.12084182209724
 32
0.0
 13
8.0068838502882898
 23
30.12084182209724
 33
0.0
  0
TEXT
  5
5F0
  8
OBJECT
 62
     0
 10
10.481883850288289
 20
29.777091822097251
 30
0.0
 40
0.6875
  1
0.625
 41
0.75
  0
POINT
  5
5F1
  8
DEFPOINTS
 62
     0
 10
7.3818838502882889
 20
35.781791880374591
 30
0.0
  0
POINT
  5
5F2
  8
DEFPOINTS
 62
     0
 10
8.0068838502882898
 20
35.781791880374591
 30
0.0
  0
POINT
  5
5F3
  8
DEFPOINTS
 62
     0
 10
8.0068838502882898
 20
30.12084182209724
 30
0.0
  0
ENDBLK
  5
1E2
  8
0
  0
BLOCK
  8
0
  2
*D8
 70
     1
 10
0.0
 20
0.0
 30
0.0
  3
*D8
  1

  0
LINE
  5
5B6
  8
DIM
 62
     0
 10
7.3818838502882889
 20
35.435291880374599
 30
0.0
 11
7.381883850288288
 21
28.020438656227
 31
0.0
  0
LINE
  5
5B7
  8
DIM
 62
     0
 10
5.9443838502882889
 20
35.154291880374601
 30
0.0
 11
5.944383850288288
 21
28.020438656227
 31
0.0
  0
LINE
  5
5B8
  8
DIM
 62
     0
 10
8.3718838502882882
 20
28.531938656226991
 30
0.0
 11
9.3618838502882902
 21
28.531938656226991
 31
0.0
  0
LINE
  5
5B9
  8
DIM
 62
     0
 10
4.9543838502882886
 20
28.531938656226991
 30
0.0
 11
3.9643838502882889
 21
28.531938656226991
 31
0.0
  0
SOLID
  5
5BA
  8
DIM
 62
     0
 10
8.3718838502882882
 20
28.696938656227001
 30
0.0
 11
8.3718838502882882
 21
28.366938656226999
 31
0.0
 12
7.3818838502882889
 22
28.531938656226991
 32
0.0
 13
7.3818838502882889
 23
28.531938656226991
 33
0.0
  0
SOLID
  5
5BB
  8
DIM
 62
     0
 10
4.9543838502882886
 20
28.696938656227001
 30
0.0
 11
4.9543838502882886
 21
28.366938656226999
 31
0.0
 12
5.9443838502882889
 22
28.531938656226991
 32
0.0
 13
5.9443838502882889
 23
28.531938656226991
 33
0.0
  0
TEXT
  5
5BC
  8
OBJECT
 62
     0
 10
1.578758850288289
 20
28.188188656226998
 30
0.0
 40
0.6875
  1
1.438
 41
0.75
  0
POINT
  5
5BD
  8
DEFPOINTS
 62
     0
 10
7.3818838502882889
 20
35.781791880374591
 30
0.0
  0
POINT
  5
5BE
  8
DEFPOINTS
 62
     0
 10
5.9443838502882889
 20
35.500791880374599
 30
0.0
  0
POINT
  5
5BF
  8
DEFPOINTS
 62
     0
 10
5.9443838502882889
 20
28.531938656226991
 30
0.0
  0
ENDBLK
  5
1F0
  8
0
  0
BLOCK
  8
0
  2
*D9
 70
     1
 10
0.0
 20
0.0
 30
0.0
  3
*D9
  1

  0
LINE
  5
75F
  8
DIM
 62
     0
 10
16.993016508812701
 20
19.327172155522
 30
0.0
 11
16.993016508812701
 21
14.228073476059709
 31
0.0
  0
LINE
  5
760
  8
DIM
 62
     0
 10
6.1805165088127012
 20
18.952172155522
 30
0.0
 11
6.1805165088127012
 21
14.228073476059709
 31
0.0
  0
LINE
  5
761
  8
DIM
 62
     0
 10
16.003016508812699
 20
14.739573476059711
 30
0.0
 11
13.1559852588127
 21
14.739573476059711
 31
0.0
  0
LINE
  5
762
  8
DIM
 62
     0
 10
7.1705165088127014
 20
14.739573476059711
 30
0.0
 11
10.0175477588127
 21
14.739573476059711
 31
0.0
  0
SOLID
  5
763
  8
DIM
 62
     0
 10
16.003016508812699
 20
14.90457347605971
 30
0.0
 11
16.003016508812699
 21
14.574573476059721
 31
0.0
 12
16.993016508812701
 22
14.739573476059711
 32
0.0
 13
16.993016508812701
 23
14.739573476059711
 33
0.0
  0
SOLID
  5
764
  8
DIM
 62
     0
 10
7.1705165088127014
 20
14.90457347605971
 30
0.0
 11
7.1705165088127014
 21
14.574573476059721
 31
0.0
 12
6.1805165088127012
 22
14.739573476059711
 32
0.0
 13
6.1805165088127012
 23
14.739573476059711
 33
0.0
  0
TEXT
  5
765
  8
OBJECT
 62
     0
 10
10.512547758812699
 20
14.395823476059711
 30
0.0
 40
0.6875
  1
10.813
 41
0.75
  0
POINT
  5
766
  8
DEFPOINTS
 62
     0
 10
16.993016508812701
 20
19.673672155521992
 30
0.0
  0
POINT
  5
767
  8
DEFPOINTS
 62
     0
 10
6.1805165088127012
 20
19.298672155521999
 30
0.0
  0
POINT
  5
768
  8
DEFPOINTS
 62
     0
 10
6.1805165088127012
 20
14.739573476059711
 30
0.0
  0
ENDBLK
  5
21D
  8
0
  0
BLOCK
  8
0
  2
*D10
 70
     1
 10
0.0
 20
0.0
 30
0.0
  3
*D10
  1

  0
LINE
  5
5AB
  8
DIM
 62
     0
 10
7.0353838502882891
 20
35.781791880374591
 30
0.0
 11
3.9677245822387142
 21
35.781791880374591
 31
0.0
  0
LINE
  5
5AC
  8
DIM
 62
     0
 10
5.5978838502882891
 20
35.500791880374599
 30
0.0
 11
3.9677245822387142
 21
35.500791880374599
 31
0.0
  0
LINE
  5
5AD
  8
DIM
 62
     0
 10
4.4792245822387136
 20
36.7717918803746
 30
0.0
 11
4.4792245822387136
 21
37.761791880374588
 31
0.0
  0
LINE
  5
5AE
  8
DIM
 62
     0
 10
4.4792245822387136
 20
34.51079188037459
 30
0.0
 11
4.4792245822387127
 21
33.520791880374603
 31
0.0
  0
LINE
  5
5AF
  8
DIM
 62
     0
 10
4.4792245822387127
 20
33.520791880374603
 30
0.0
 11
3.4892245822387129
 21
33.520791880374603
 31
0.0
  0
SOLID
  5
5B0
  8
DIM
 62
     0
 10
4.3142245822387144
 20
36.7717918803746
 30
0.0
 11
4.6442245822387136
 21
36.7717918803746
 31
0.0
 12
4.4792245822387136
 22
35.781791880374591
 32
0.0
 13
4.4792245822387136
 23
35.781791880374591
 33
0.0
  0
SOLID
  5
5B1
  8
DIM
 62
     0
 10
4.3142245822387144
 20
34.51079188037459
 30
0.0
 11
4.6442245822387136
 21
34.51079188037459
 31
0.0
 12
4.4792245822387136
 22
35.500791880374599
 32
0.0
 13
4.4792245822387136
 23
35.500791880374599
 33
0.0
  0
TEXT
  5
5B2
  8
OBJECT
 62
     0
 10
1.1895370822387079
 20
33.177041880374603
 30
0.0
 40
0.6875
  1
0.281
 41
0.75
  0
POINT
  5
5B3
  8
DEFPOINTS
 62
     0
 10
7.3818838502882889
 20
35.781791880374591
 30
0.0
  0
POINT
  5
5B4
  8
DEFPOINTS
 62
     0
 10
5.9443838502882889
 20
35.500791880374599
 30
0.0
  0
POINT
  5
5B5
  8
DEFPOINTS
 62
     0
 10
4.4792245822387136
 20
35.500791880374599
 30
0.0
  0
ENDBLK
  5
27D
  8
0
  0
BLOCK
  8
0
  2
*D11
 70
     1
 10
0.0
 20
0.0
 30
0.0
  3
*D11
  1

  0
LINE
  5
74A
  8
DIM
 62
     0
 10
16.021516508812699
 20
19.798672155521992
 30
0.0
 11
4.2120274035228844
 21
19.798672155521999
 31
0.0
  0
LINE
  5
74B
  8
DIM
 62
     0
 10
5.8340165088127014
 20
19.298672155521999
 30
0.0
 11
4.2120274035228844
 21
19.298672155521999
 31
0.0
  0
LINE
  5
74C
  8
DIM
 62
     0
 10
4.7235274035228842
 20
20.788672155522001
 30
0.0
 11
4.7235274035228842
 21
21.778672155521999
 31
0.0
  0
LINE
  5
74D
  8
DIM
 62
     0
 10
4.7235274035228842
 20
18.308672155522
 30
0.0
 11
4.7235274035228834
 21
16.13166539236834
 31
0.0
  0
LINE
  5
74E
  8
DIM
 62
     0
 10
4.7235274035228834
 20
16.13166539236834
 30
0.0
 11
3.7335274035228831
 21
16.13166539236834
 31
0.0
  0
SOLID
  5
74F
  8
DIM
 62
     0
 10
4.5585274035228842
 20
20.788672155522001
 30
0.0
 11
4.8885274035228843
 21
20.788672155522001
 31
0.0
 12
4.7235274035228842
 22
19.798672155521999
 32
0.0
 13
4.7235274035228842
 23
19.798672155521999
 33
0.0
  0
SOLID
  5
750
  8
DIM
 62
     0
 10
4.5585274035228842
 20
18.308672155522
 30
0.0
 11
4.8885274035228843
 21
18.308672155522
 31
0.0
 12
4.7235274035228842
 22
19.298672155521999
 32
0.0
 13
4.7235274035228842
 23
19.298672155521999
 33
0.0
  0
TEXT
  5
751
  8
OBJECT
 62
     0
 10
1.4338399035228799
 20
15.78791539236834
 30
0.0
 40
0.6875
  1
0.500
 41
0.75
  0
POINT
  5
752
  8
DEFPOINTS
 62
     0
 10
16.368016508812701
 20
19.798672155521992
 30
0.0
  0
POINT
  5
753
  8
DEFPOINTS
 62
     0
 10
6.1805165088127012
 20
19.298672155521999
 30
0.0
  0
POINT
  5
754
  8
DEFPOINTS
 62
     0
 10
4.7235274035228842
 20
19.298672155521999
 30
0.0
  0
ENDBLK
  5
2B6
  8
0
  0
BLOCK
  8
0
  2
*D12
 70
     1
 10
0.0
 20
0.0
 30
0.0
  3
*D12
  1

  0
LINE
  5
769
  8
DIM
 62
     0
 10
17.9645165088127
 20
19.798672155521992
 30
0.0
 11
20.625831176015058
 21
19.798672155521992
 31
0.0
  0
LINE
  5
76A
  8
DIM
 62
     0
 10
17.9645165088127
 20
20.798672155521992
 30
0.0
 11
20.625831176015058
 21
20.798672155521992
 31
0.0
  0
LINE
  5
76B
  8
DIM
 62
     0
 10
20.114331176015071
 20
18.808672155522
 30
0.0
 11
20.114331176015071
 21
17.818672155521998
 31
0.0
  0
LINE
  5
76C
  8
DIM
 62
     0
 10
20.114331176015071
 20
21.78867215552199
 30
0.0
 11
20.114331176015071
 21
22.778672155521999
 31
0.0
  0
LINE
  5
76D
  8
DIM
 62
     0
 10
20.114331176015071
 20
22.778672155521999
 30
0.0
 11
21.104331176015059
 21
22.778672155521999
 31
0.0
  0
SOLID
  5
76E
  8
DIM
 62
     0
 10
19.949331176015061
 20
18.808672155522
 30
0.0
 11
20.279331176015059
 21
18.808672155522
 31
0.0
 12
20.114331176015071
 22
19.798672155521992
 32
0.0
 13
20.114331176015071
 23
19.798672155521992
 33
0.0
  0
SOLID
  5
76F
  8
DIM
 62
     0
 10
19.949331176015061
 20
21.78867215552199
 30
0.0
 11
20.279331176015059
 21
21.78867215552199
 31
0.0
 12
20.114331176015071
 22
20.798672155521992
 32
0.0
 13
20.114331176015071
 23
20.798672155521992
 33
0.0
  0
TEXT
  5
770
  8
OBJECT
 62
     0
 10
21.59933117601506
 20
22.434922155521999
 30
0.0
 40
0.6875
  1
1.000
 41
0.75
  0
POINT
  5
771
  8
DEFPOINTS
 62
     0
 10
17.618016508812701
 20
19.798672155521992
 30
0.0
  0
POINT
  5
772
  8
DEFPOINTS
 62
     0
 10
17.618016508812701
 20
20.798672155521992
 30
0.0
  0
POINT
  5
773
  8
DEFPOINTS
 62
     0
 10
20.114331176015071
 20
20.798672155521992
 30
0.0
  0
ENDBLK
  5
2C5
  8
0
  0
BLOCK
  8
0
  2
*D13
 70
     1
 10
0.0
 20
0.0
 30
0.0
  3
*D13
  1

  0
LINE
  5
61E
  8
DIM
 62
     0
 10
80.881883850288276
 20
35.435291880374599
 30
0.0
 11
80.881883850288276
 21
32.756890384905297
 31
0.0
  0
LINE
  5
61F
  8
DIM
 62
     0
 10
80.381883850288304
 20
35.435291880374599
 30
0.0
 11
80.381883850288304
 21
32.756890384905297
 31
0.0
  0
LINE
  5
620
  8
DIM
 62
     0
 10
81.871883850288285
 20
33.268390384905302
 30
0.0
 11
82.861883850288294
 21
33.268390384905302
 31
0.0
  0
LINE
  5
621
  8
DIM
 62
     0
 10
79.391883850288295
 20
33.268390384905302
 30
0.0
 11
78.4018838502883
 21
33.268390384905302
 31
0.0
  0
SOLID
  5
622
  8
DIM
 62
     0
 10
81.871883850288285
 20
33.433390384905302
 30
0.0
 11
81.871883850288285
 21
33.103390384905303
 31
0.0
 12
80.881883850288276
 22
33.268390384905302
 32
0.0
 13
80.881883850288276
 23
33.268390384905302
 33
0.0
  0
SOLID
  5
623
  8
DIM
 62
     0
 10
79.391883850288295
 20
33.433390384905302
 30
0.0
 11
79.391883850288295
 21
33.103390384905303
 31
0.0
 12
80.381883850288304
 22
33.268390384905302
 32
0.0
 13
80.381883850288304
 23
33.268390384905302
 33
0.0
  0
TEXT
  5
624
  8
OBJECT
 62
     0
 10
76.102196350288295
 20
32.924640384905302
 30
0.0
 40
0.6875
  1
0.500
 41
0.75
  0
POINT
  5
625
  8
DEFPOINTS
 62
     0
 10
80.881883850288276
 20
35.781791880374591
 30
0.0
  0
POINT
  5
626
  8
DEFPOINTS
 62
     0
 10
80.381883850288304
 20
35.781791880374591
 30
0.0
  0
POINT
  5
627
  8
DEFPOINTS
 62
     0
 10
80.381883850288304
 20
33.268390384905302
 30
0.0
  0
ENDBLK
  5
332
  8
0
  0
BLOCK
  8
0
  2
*D14
 70
     1
 10
0.0
 20
0.0
 30
0.0
  3
*D14
  1

  0
LINE
  5
628
  8
DIM
 62
     0
 10
81.506883850288276
 20
35.435291880374599
 30
0.0
 11
81.506883850288276
 21
31.265946213970079
 31
0.0
  0
LINE
  5
629
  8
DIM
 62
     0
 10
80.881883850288276
 20
35.435291880374599
 30
0.0
 11
80.881883850288276
 21
31.265946213970079
 31
0.0
  0
LINE
  5
62A
  8
DIM
 62
     0
 10
82.496883850288285
 20
31.77744621397008
 30
0.0
 11
83.486883850288294
 21
31.77744621397008
 31
0.0
  0
LINE
  5
62B
  8
DIM
 62
     0
 10
79.891883850288295
 20
31.77744621397008
 30
0.0
 11
78.9018838502883
 21
31.77744621397008
 31
0.0
  0
SOLID
  5
62C
  8
DIM
 62
     0
 10
82.496883850288285
 20
31.942446213970069
 30
0.0
 11
82.496883850288285
 21
31.612446213970081
 31
0.0
 12
81.506883850288276
 22
31.77744621397008
 32
0.0
 13
81.506883850288276
 23
31.77744621397008
 33
0.0
  0
SOLID
  5
62D
  8
DIM
 62
     0
 10
79.891883850288295
 20
31.942446213970069
 30
0.0
 11
79.891883850288295
 21
31.612446213970081
 31
0.0
 12
80.881883850288276
 22
31.77744621397008
 32
0.0
 13
80.881883850288276
 23
31.77744621397008
 33
0.0
  0
TEXT
  5
62E
  8
OBJECT
 62
     0
 10
76.430321350288295
 20
31.43369621397008
 30
0.0
 40
0.6875
  1
0.625
 41
0.75
  0
POINT
  5
62F
  8
DEFPOINTS
 62
     0
 10
81.506883850288276
 20
35.781791880374591
 30
0.0
  0
POINT
  5
630
  8
DEFPOINTS
 62
     0
 10
80.881883850288276
 20
35.781791880374591
 30
0.0
  0
POINT
  5
631
  8
DEFPOINTS
 62
     0
 10
80.881883850288276
 20
31.77744621397008
 30
0.0
  0
ENDBLK
  5
33F
  8
0
  0
BLOCK
  8
0
  2
*D15
 70
     1
 10
0.0
 20
0.0
 30
0.0
  3
*D15
  1

  0
LINE
  5
632
  8
DIM
 62
     0
 10
82.131883850288276
 20
35.435291880374599
 30
0.0
 11
82.131883850288276
 21
29.609341822097239
 31
0.0
  0
LINE
  5
633
  8
DIM
 62
     0
 10
81.506883850288276
 20
35.435291880374599
 30
0.0
 11
81.506883850288276
 21
29.609341822097239
 31
0.0
  0
LINE
  5
634
  8
DIM
 62
     0
 10
83.121883850288285
 20
30.12084182209724
 30
0.0
 11
84.111883850288294
 21
30.12084182209724
 31
0.0
  0
LINE
  5
635
  8
DIM
 62
     0
 10
80.516883850288295
 20
30.12084182209724
 30
0.0
 11
79.5268838502883
 21
30.12084182209724
 31
0.0
  0
SOLID
  5
636
  8
DIM
 62
     0
 10
83.121883850288285
 20
30.28584182209725
 30
0.0
 11
83.121883850288285
 21
29.955841822097248
 31
0.0
 12
82.131883850288276
 22
30.12084182209724
 32
0.0
 13
82.131883850288276
 23
30.12084182209724
 33
0.0
  0
SOLID
  5
637
  8
DIM
 62
     0
 10
80.516883850288295
 20
30.28584182209725
 30
0.0
 11
80.516883850288295
 21
29.955841822097248
 31
0.0
 12
81.506883850288276
 22
30.12084182209724
 32
0.0
 13
81.506883850288276
 23
30.12084182209724
 33
0.0
  0
TEXT
  5
638
  8
OBJECT
 62
     0
 10
77.055321350288295
 20
29.777091822097251
 30
0.0
 40
0.6875
  1
0.625
 41
0.75
  0
POINT
  5
639
  8
DEFPOINTS
 62
     0
 10
82.131883850288276
 20
35.781791880374591
 30
0.0
  0
POINT
  5
63A
  8
DEFPOINTS
 62
     0
 10
81.506883850288276
 20
35.781791880374591
 30
0.0
  0
POINT
  5
63B
  8
DEFPOINTS
 62
     0
 10
81.506883850288276
 20
30.12084182209724
 30
0.0
  0
ENDBLK
  5
34C
  8
0
  0
BLOCK
  8
0
  2
*D16
 70
     1
 10
0.0
 20
0.0
 30
0.0
  3
*D16
  1

  0
LINE
  5
597
  8
DIM
 62
     0
 10
7.3818838502882889
 20
35.435291880374599
 30
0.0
 11
7.381883850288288
 21
28.020438656227
 31
0.0
  0
LINE
  5
598
  8
DIM
 62
     0
 10
82.131883850288276
 20
35.435291880374599
 30
0.0
 11
82.131883850288276
 21
28.020438656227
 31
0.0
  0
LINE
  5
599
  8
DIM
 62
     0
 10
8.3718838502882882
 20
28.531938656226991
 30
0.0
 11
33.132977600288292
 21
28.531938656226991
 31
0.0
  0
LINE
  5
59A
  8
DIM
 62
     0
 10
81.141883850288295
 20
28.531938656226991
 30
0.0
 11
56.38079010028828
 21
28.531938656226991
 31
0.0
  0
SOLID
  5
59B
  8
DIM
 62
     0
 10
8.3718838502882882
 20
28.696938656227001
 30
0.0
 11
8.3718838502882882
 21
28.366938656226999
 31
0.0
 12
7.3818838502882889
 22
28.531938656226991
 32
0.0
 13
7.3818838502882889
 23
28.531938656226991
 33
0.0
  0
SOLID
  5
59C
  8
DIM
 62
     0
 10
81.141883850288295
 20
28.696938656227001
 30
0.0
 11
81.141883850288295
 21
28.366938656226999
 31
0.0
 12
82.131883850288276
 22
28.531938656226991
 32
0.0
 13
82.131883850288276
 23
28.531938656226991
 33
0.0
  0
TEXT
  5
59D
  8
OBJECT
 62
     0
 10
33.62797760028829
 20
28.188188656226998
 30
0.0
 40
0.6875
  1
(129) HOLES ON E.I.A. UNIVERSAL SPACING = 74.750
 41
0.75
  0
POINT
  5
59E
  8
DEFPOINTS
 62
     0
 10
7.3818838502882889
 20
35.781791880374591
 30
0.0
  0
POINT
  5
59F
  8
DEFPOINTS
 62
     0
 10
82.131883850288276
 20
35.781791880374591
 30
0.0
  0
POINT
  5
5A0
  8
DEFPOINTS
 62
     0
 10
82.131883850288276
 20
28.531938656226991
 30
0.0
  0
ENDBLK
  5
378
  8
0
  0
BLOCK
  8
0
  2
*D17
 70
     1
 10
0.0
 20
0.0
 30
0.0
  3
*D17
  1

  0
LINE
  5
740
  8
DIM
 62
     0
 10
16.993016508812701
 20
19.327172155522
 30
0.0
 11
16.993016508812701
 21
16.23824977188557
 31
0.0
  0
LINE
  5
741
  8
DIM
 62
     0
 10
30.993016508812701
 20
19.327172155522
 30
0.0
 11
30.993016508812701
 21
16.23824977188557
 31
0.0
  0
LINE
  5
742
  8
DIM
 62
     0
 10
17.9830165088127
 20
16.749749771885568
 30
0.0
 11
21.30661025881269
 21
16.749749771885568
 31
0.0
  0
LINE
  5
743
  8
DIM
 62
     0
 10
30.003016508812699
 20
16.749749771885568
 30
0.0
 11
26.679422758812699
 21
16.749749771885568
 31
0.0
  0
SOLID
  5
744
  8
DIM
 62
     0
 10
17.9830165088127
 20
16.914749771885571
 30
0.0
 11
17.9830165088127
 21
16.584749771885569
 31
0.0
 12
16.993016508812701
 22
16.749749771885568
 32
0.0
 13
16.993016508812701
 23
16.749749771885568
 33
0.0
  0
SOLID
  5
745
  8
DIM
 62
     0
 10
30.003016508812699
 20
16.914749771885571
 30
0.0
 11
30.003016508812699
 21
16.584749771885569
 31
0.0
 12
30.993016508812701
 22
16.749749771885568
 32
0.0
 13
30.993016508812701
 23
16.749749771885568
 33
0.0
  0
TEXT
  5
746
  8
OBJECT
 62
     0
 10
21.801610258812701
 20
16.405999771885568
 30
0.0
 40
0.6875
  1
14.000 REF.
 41
0.75
  0
POINT
  5
747
  8
DEFPOINTS
 62
     0
 10
16.993016508812701
 20
19.673672155521992
 30
0.0
  0
POINT
  5
748
  8
DEFPOINTS
 62
     0
 10
30.993016508812701
 20
19.673672155521992
 30
0.0
  0
POINT
  5
749
  8
DEFPOINTS
 62
     0
 10
30.993016508812701
 20
16.749749771885568
 30
0.0
  0
ENDBLK
  5
3B9
  8
0
  0
BLOCK
  8
0
  2
*D18
 70
     1
 10
0.0
 20
0.0
 30
0.0
  3
*D18
  1

  0
LINE
  5
755
  8
DIM
 62
     0
 10
5.9430165088127103
 20
21.298672155521992
 30
0.0
 11
2.010133824766382
 21
21.298672155521992
 31
0.0
  0
LINE
  5
756
  8
DIM
 62
     0
 10
5.9430165088127103
 20
19.298672155521999
 30
0.0
 11
2.010133824766382
 21
19.298672155521999
 31
0.0
  0
LINE
  5
757
  8
DIM
 62
     0
 10
2.5216338247663819
 20
22.288672155521979
 30
0.0
 11
2.5216338247663832
 21
23.278672155521988
 31
0.0
  0
LINE
  5
758
  8
DIM
 62
     0
 10
2.521633824766381
 20
18.308672155522
 30
0.0
 11
2.521633824766381
 21
17.318672155521998
 31
0.0
  0
SOLID
  5
759
  8
DIM
 62
     0
 10
2.3566338247663818
 20
22.288672155521979
 30
0.0
 11
2.6866338247663819
 21
22.288672155521979
 31
0.0
 12
2.5216338247663819
 22
21.298672155521992
 32
0.0
 13
2.5216338247663819
 23
21.298672155521992
 33
0.0
  0
SOLID
  5
75A
  8
DIM
 62
     0
 10
2.3566338247663809
 20
18.308672155522
 30
0.0
 11
2.686633824766381
 21
18.308672155522
 31
0.0
 12
2.5216338247663819
 22
19.298672155521999
 32
0.0
 13
2.5216338247663819
 23
19.298672155521999
 33
0.0
  0
TEXT
  5
75B
  8
OBJECT
 62
     0
 10
1.619290074766379
 20
19.954922155521992
 30
0.0
 40
0.6875
  1
2.000
 41
0.75
  0
POINT
  5
75C
  8
DEFPOINTS
 62
     0
 10
6.2895165088127101
 20
21.298672155521992
 30
0.0
  0
POINT
  5
75D
  8
DEFPOINTS
 62
     0
 10
6.2895165088127101
 20
19.298672155521999
 30
0.0
  0
POINT
  5
75E
  8
DEFPOINTS
 62
     0
 10
2.5216338247663819
 20
19.298672155521999
 30
0.0
  0
ENDBLK
  5
660
  8
0
  0
BLOCK
  8
0
  2
*D19
 70
     1
 10
0.0
 20
0.0
 30
0.0
  3
*D19
  1

  0
LINE
  5
69A
  8
DIM
 62
     0
 10
83.915883850288296
 20
36.650791880374591
 30
0.0
 11
86.506465094724902
 21
36.650791880374591
 31
0.0
  0
LINE
  5
69B
  8
DIM
 62
     0
 10
83.915883850288296
 20
35.500791880374599
 30
0.0
 11
86.506465094724902
 21
35.500791880374599
 31
0.0
  0
LINE
  5
69C
  8
DIM
 62
     0
 10
85.994965094724904
 20
37.640791880374593
 30
0.0
 11
85.994965094724904
 21
38.630791880374588
 31
0.0
  0
LINE
  5
69D
  8
DIM
 62
     0
 10
85.994965094724904
 20
34.51079188037459
 30
0.0
 11
85.994965094724904
 21
33.520791880374603
 31
0.0
  0
SOLID
  5
69E
  8
DIM
 62
     0
 10
85.829965094724898
 20
37.640791880374593
 30
0.0
 11
86.15996509472491
 21
37.640791880374593
 31
0.0
 12
85.994965094724904
 22
36.650791880374591
 32
0.0
 13
85.994965094724904
 23
36.650791880374591
 33
0.0
  0
SOLID
  5
69F
  8
DIM
 62
     0
 10
85.829965094724898
 20
34.51079188037459
 30
0.0
 11
86.15996509472491
 21
34.51079188037459
 31
0.0
 12
85.994965094724904
 22
35.500791880374599
 32
0.0
 13
85.994965094724904
 23
35.500791880374599
 33
0.0
  0
TEXT
  5
6A0
  8
OBJECT
 62
     0
 10
85.178558844724876
 20
35.732041880374609
 30
0.0
 40
0.6875
  1
1.150
 41
0.75
  0
POINT
  5
6A1
  8
DEFPOINTS
 62
     0
 10
83.56938385028829
 20
36.650791880374591
 30
0.0
  0
POINT
  5
6A2
  8
DEFPOINTS
 62
     0
 10
83.56938385028829
 20
35.500791880374599
 30
0.0
  0
POINT
  5
6A3
  8
DEFPOINTS
 62
     0
 10
85.994965094724904
 20
35.500791880374599
 30
0.0
  0
ENDBLK
  5
679
  8
0
  0
BLOCK
  8
0
  2
*D20
 70
     1
 10
0.0
 20
0.0
 30
0.0
  3
*D20
  1

  0
LINE
  5
72C
  8
DIM
 62
     0
 10
83.56938385028829
 20
36.99729188037459
 30
0.0
 11
83.56938385028829
 21
39.072865614677191
 31
0.0
  0
LINE
  5
72D
  8
DIM
 62
     0
 10
5.9443838502882889
 20
36.99729188037459
 30
0.0
 11
5.9443838502882889
 21
39.072865614677191
 31
0.0
  0
LINE
  5
72E
  8
DIM
 62
     0
 10
82.579383850288295
 20
38.5613656146772
 30
0.0
 11
46.540946350288287
 21
38.5613656146772
 31
0.0
  0
LINE
  5
72F
  8
DIM
 62
     0
 10
6.9343838502882891
 20
38.5613656146772
 30
0.0
 11
42.972821350288292
 21
38.5613656146772
 31
0.0
  0
SOLID
  5
730
  8
DIM
 62
     0
 10
82.579383850288295
 20
38.726365614677199
 30
0.0
 11
82.579383850288295
 21
38.396365614677201
 31
0.0
 12
83.56938385028829
 22
38.5613656146772
 32
0.0
 13
83.56938385028829
 23
38.5613656146772
 33
0.0
  0
SOLID
  5
731
  8
DIM
 62
     0
 10
6.9343838502882891
 20
38.726365614677199
 30
0.0
 11
6.9343838502882891
 21
38.396365614677201
 31
0.0
 12
5.9443838502882889
 22
38.5613656146772
 32
0.0
 13
5.9443838502882889
 23
38.5613656146772
 33
0.0
  0
TEXT
  5
732
  8
OBJECT
 62
     0
 10
43.46782135028829
 20
38.2176156146772
 30
0.0
 40
0.6875
  1
77.625
 41
0.75
  0
POINT
  5
733
  8
DEFPOINTS
 62
     0
 10
83.56938385028829
 20
36.650791880374591
 30
0.0
  0
POINT
  5
734
  8
DEFPOINTS
 62
     0
 10
5.9443838502882889
 20
36.650791880374591
 30
0.0
  0
POINT
  5
735
  8
DEFPOINTS
 62
     0
 10
5.9443838502882889
 20
38.5613656146772
 30
0.0
  0
ENDBLK
  5
72B
  8
0
  0
BLOCK
  8
0
  2
*U21
 70
     1
 10
0.0
 20
0.0
 30
0.0
  3
*U21
  1

  0
TEXT
  5
7D6
  8
OBJECT
 10
4.8564260305391871
 20
24.39078775575836
 30
0.0
 40
0.6875
  1
0.250 x 1.250 OBLONG
 41
0.75
  0
TEXT
  5
7D7
  8
OBJECT
 10
9.4970510305391862
 20
23.244954422425032
 30
0.0
 40
0.6875
  1
(10) HOLES
 41
0.75
  0
ENDBLK
  5
7D9
  8
0
  0
BLOCK
  8
0
  2
*U22
 70
     1
 10
0.0
 20
0.0
 30
0.0
  3
*U22
  1

  0
TEXT
  5
7DB
  8
OBJECT
 10
81.283152176312058
 20
13.76070860301356
 30
0.0
 40
0.6875
  1
0.281 DIA.
 41
0.75
  0
TEXT
  5
7DC
  8
OBJECT
 10
81.025339676312058
 20
12.61487526968023
 30
0.0
 40
0.6875
  1
(4) HOLES
 41
0.75
  0
ENDBLK
  5
7DE
  8
0
  0
ENDSEC
  0
SECTION
  2
ENTITIES
  0
LINE
  5
65
  8
OBJECT
 10
6.1805165088127012
 20
21.298672155521992
 30
0.0
 11
83.805516508812715
 21
21.298672155521992
 31
0.0
  0
LINE
  5
66
  8
OBJECT
 10
83.805516508812715
 20
21.298672155521992
 30
0.0
 11
83.805516508812715
 21
19.298672155521992
 31
0.0
  0
LINE
  5
67
  8
OBJECT
 10
83.805516508812715
 20
19.298672155521992
 30
0.0
 11
6.1805165088127012
 21
19.298672155521999
 31
0.0
  0
LINE
  5
68
  8
OBJECT
 10
6.1805165088127012
 20
19.298672155521999
 30
0.0
 11
6.1805165088127012
 21
21.298672155521992
 31
0.0
  0
LINE
  5
69
  8
OBJECT
 10
6.2895165088127101
 20
21.18967215552199
 30
0.0
 11
83.696516508812707
 21
21.18967215552199
 31
0.0
  0
LINE
  5
6A
  8
OBJECT
 10
6.2895165088127101
 20
19.298672155521999
 30
0.0
 11
6.2895165088127101
 21
21.298672155521992
 31
0.0
  0
LINE
  5
6B
  8
OBJECT
 10
83.696516508812707
 20
21.298672155521992
 30
0.0
 11
83.696516508812707
 21
19.298672155521992
 31
0.0
  0
LINE
  5
6C
  8
OBJECT
 10
87.767373215743874
 20
21.298672155521992
 30
0.0
 11
87.767373215743874
 21
19.298672155521992
 31
0.0
  0
LINE
  5
6D
  8
OBJECT
 10
87.767373215743874
 20
21.298672155521992
 30
0.0
 11
88.917373215743865
 21
21.298672155521992
 31
0.0
  0
LINE
  5
6E
  8
OBJECT
 10
88.917373215743865
 20
21.298672155521992
 30
0.0
 11
88.917373215743865
 21
19.298672155521992
 31
0.0
  0
LINE
  5
6F
  8
OBJECT
 10
88.917373215743865
 20
19.298672155521992
 30
0.0
 11
87.767373215743874
 21
19.298672155521992
 31
0.0
  0
LINE
  5
70
  8
HIDDEN
 10
88.808373215743885
 20
21.18967215552199
 30
0.0
 11
88.808373215743885
 21
19.298672155521992
 31
0.0
  0
LINE
  5
71
  8
HIDDEN
 10
87.767373215743874
 20
21.18967215552199
 30
0.0
 11
88.808373215743885
 21
21.18967215552199
 31
0.0
  0
LINE
  5
74
  8
OBJECT
 10
5.9443838502882889
 20
35.500791880374599
 30
0.0
 11
83.56938385028829
 21
35.500791880374599
 31
0.0
  0
LINE
  5
75
  8
OBJECT
 10
5.9443838502882889
 20
36.650791880374591
 30
0.0
 11
83.56938385028829
 21
36.650791880374591
 31
0.0
  0
LINE
  5
76
  8
OBJECT
 10
83.56938385028829
 20
36.650791880374591
 30
0.0
 11
83.56938385028829
 21
35.500791880374599
 31
0.0
  0
LINE
  5
77
  8
OBJECT
 10
83.460383850288295
 20
36.650791880374591
 30
0.0
 11
83.460383850288295
 21
35.500791880374599
 31
0.0
  0
LINE
  5
78
  8
HIDDEN
 10
5.9443838502882889
 20
36.541791880374603
 30
0.0
 11
83.460383850288295
 21
36.541791880374603
 31
0.0
  0
CIRCLE
  5
7B
  8
OBJECT
 10
88.376373215743868
 20
19.798672155521992
 30
0.0
 40
0.1405
  0
CIRCLE
  5
7C
  8
OBJECT
 10
88.376373215743868
 20
20.798672155521992
 30
0.0
 40
0.1405
  0
CIRCLE
  5
80
  8
OBJECT
 10
82.131883850288276
 20
35.781791880374591
 30
0.0
 40
0.0995
  0
CIRCLE
  5
81
  8
OBJECT
 10
81.506883850288276
 20
35.781791880374591
 30
0.0
 40
0.0995
  0
CIRCLE
  5
82
  8
OBJECT
 10
80.881883850288276
 20
35.781791880374591
 30
0.0
 40
0.0995
  0
CIRCLE
  5
83
  8
OBJECT
 10
79.13188385028829
 20
35.781791880374591
 30
0.0
 40
0.0995
  0
CIRCLE
  5
84
  8
OBJECT
 10
79.75688385028829
 20
35.781791880374591
 30
0.0
 40
0.0995
  0
CIRCLE
  5
85
  8
OBJECT
 10
80.381883850288304
 20
35.781791880374591
 30
0.0
 40
0.0995
  0
CIRCLE
  5
86
  8
OBJECT
 10
77.38188385028829
 20
35.781791880374591
 30
0.0
 40
0.0995
  0
CIRCLE
  5
87
  8
OBJECT
 10
78.00688385028829
 20
35.781791880374591
 30
0.0
 40
0.0995
  0
CIRCLE
  5
88
  8
OBJECT
 10
78.63188385028829
 20
35.781791880374591
 30
0.0
 40
0.0995
  0
CIRCLE
  5
89
  8
OBJECT
 10
75.63188385028829
 20
35.781791880374591
 30
0.0
 40
0.0995
  0
CIRCLE
  5
8A
  8
OBJECT
 10
76.25688385028829
 20
35.781791880374591
 30
0.0
 40
0.0995
  0
CIRCLE
  5
8B
  8
OBJECT
 10
76.88188385028829
 20
35.781791880374591
 30
0.0
 40
0.0995
  0
CIRCLE
  5
8C
  8
OBJECT
 10
73.88188385028829
 20
35.781791880374591
 30
0.0
 40
0.0995
  0
CIRCLE
  5
8D
  8
OBJECT
 10
74.50688385028829
 20
35.781791880374591
 30
0.0
 40
0.0995
  0
CIRCLE
  5
8E
  8
OBJECT
 10
75.13188385028829
 20
35.781791880374591
 30
0.0
 40
0.0995
  0
CIRCLE
  5
8F
  8
OBJECT
 10
72.131883850288276
 20
35.781791880374591
 30
0.0
 40
0.0995
  0
CIRCLE
  5
90
  8
OBJECT
 10
72.756883850288276
 20
35.781791880374591
 30
0.0
 40
0.0995
  0
CIRCLE
  5
91
  8
OBJECT
 10
73.381883850288276
 20
35.781791880374591
 30
0.0
 40
0.0995
  0
CIRCLE
  5
92
  8
OBJECT
 10
70.38188385028829
 20
35.781791880374591
 30
0.0
 40
0.0995
  0
CIRCLE
  5
93
  8
OBJECT
 10
71.00688385028829
 20
35.781791880374591
 30
0.0
 40
0.0995
  0
CIRCLE
  5
94
  8
OBJECT
 10
71.63188385028829
 20
35.781791880374591
 30
0.0
 40
0.0995
  0
CIRCLE
  5
95
  8
OBJECT
 10
68.63188385028829
 20
35.781791880374591
 30
0.0
 40
0.0995
  0
CIRCLE
  5
96
  8
OBJECT
 10
69.25688385028829
 20
35.781791880374591
 30
0.0
 40
0.0995
  0
CIRCLE
  5
97
  8
OBJECT
 10
69.88188385028829
 20
35.781791880374591
 30
0.0
 40
0.0995
  0
CIRCLE
  5
98
  8
OBJECT
 10
66.88188385028829
 20
35.781791880374591
 30
0.0
 40
0.0995
  0
CIRCLE
  5
99
  8
OBJECT
 10
67.50688385028829
 20
35.781791880374591
 30
0.0
 40
0.0995
  0
CIRCLE
  5
9A
  8
OBJECT
 10
68.13188385028829
 20
35.781791880374591
 30
0.0
 40
0.0995
  0
CIRCLE
  5
9B
  8
OBJECT
 10
65.13188385028829
 20
35.781791880374591
 30
0.0
 40
0.0995
  0
CIRCLE
  5
9C
  8
OBJECT
 10
65.75688385028829
 20
35.781791880374591
 30
0.0
 40
0.0995
  0
CIRCLE
  5
9D
  8
OBJECT
 10
66.38188385028829
 20
35.781791880374591
 30
0.0
 40
0.0995
  0
CIRCLE
  5
9E
  8
OBJECT
 10
63.381883850288283
 20
35.781791880374591
 30
0.0
 40
0.0995
  0
CIRCLE
  5
9F
  8
OBJECT
 10
64.006883850288276
 20
35.781791880374591
 30
0.0
 40
0.0995
  0
CIRCLE
  5
A0
  8
OBJECT
 10
64.631883850288276
 20
35.781791880374591
 30
0.0
 40
0.0995
  0
CIRCLE
  5
A1
  8
OBJECT
 10
61.63188385028829
 20
35.781791880374591
 30
0.0
 40
0.0995
  0
CIRCLE
  5
A2
  8
OBJECT
 10
62.25688385028829
 20
35.781791880374591
 30
0.0
 40
0.0995
  0
CIRCLE
  5
A3
  8
OBJECT
 10
62.88188385028829
 20
35.781791880374591
 30
0.0
 40
0.0995
  0
CIRCLE
  5
A4
  8
OBJECT
 10
59.88188385028829
 20
35.781791880374591
 30
0.0
 40
0.0995
  0
CIRCLE
  5
A5
  8
OBJECT
 10
60.50688385028829
 20
35.781791880374591
 30
0.0
 40
0.0995
  0
CIRCLE
  5
A6
  8
OBJECT
 10
61.13188385028829
 20
35.781791880374591
 30
0.0
 40
0.0995
  0
CIRCLE
  5
A7
  8
OBJECT
 10
58.13188385028829
 20
35.781791880374591
 30
0.0
 40
0.0995
  0
CIRCLE
  5
A8
  8
OBJECT
 10
58.75688385028829
 20
35.781791880374591
 30
0.0
 40
0.0995
  0
CIRCLE
  5
A9
  8
OBJECT
 10
59.38188385028829
 20
35.781791880374591
 30
0.0
 40
0.0995
  0
CIRCLE
  5
AA
  8
OBJECT
 10
56.38188385028829
 20
35.781791880374591
 30
0.0
 40
0.0995
  0
CIRCLE
  5
AB
  8
OBJECT
 10
57.00688385028829
 20
35.781791880374591
 30
0.0
 40
0.0995
  0
CIRCLE
  5
AC
  8
OBJECT
 10
57.63188385028829
 20
35.781791880374591
 30
0.0
 40
0.0995
  0
CIRCLE
  5
AD
  8
OBJECT
 10
54.631883850288283
 20
35.781791880374591
 30
0.0
 40
0.0995
  0
CIRCLE
  5
AE
  8
OBJECT
 10
55.256883850288283
 20
35.781791880374591
 30
0.0
 40
0.0995
  0
CIRCLE
  5
AF
  8
OBJECT
 10
55.881883850288283
 20
35.781791880374591
 30
0.0
 40
0.0995
  0
CIRCLE
  5
B0
  8
OBJECT
 10
52.88188385028829
 20
35.781791880374591
 30
0.0
 40
0.0995
  0
CIRCLE
  5
B1
  8
OBJECT
 10
53.50688385028829
 20
35.781791880374591
 30
0.0
 40
0.0995
  0
CIRCLE
  5
B2
  8
OBJECT
 10
54.13188385028829
 20
35.781791880374591
 30
0.0
 40
0.0995
  0
CIRCLE
  5
B3
  8
OBJECT
 10
51.13188385028829
 20
35.781791880374591
 30
0.0
 40
0.0995
  0
CIRCLE
  5
B4
  8
OBJECT
 10
51.75688385028829
 20
35.781791880374591
 30
0.0
 40
0.0995
  0
CIRCLE
  5
B5
  8
OBJECT
 10
52.38188385028829
 20
35.781791880374591
 30
0.0
 40
0.0995
  0
CIRCLE
  5
B6
  8
OBJECT
 10
49.38188385028829
 20
35.781791880374591
 30
0.0
 40
0.0995
  0
CIRCLE
  5
B7
  8
OBJECT
 10
50.00688385028829
 20
35.781791880374591
 30
0.0
 40
0.0995
  0
CIRCLE
  5
B8
  8
OBJECT
 10
50.63188385028829
 20
35.781791880374591
 30
0.0
 40
0.0995
  0
CIRCLE
  5
B9
  8
OBJECT
 10
47.631883850288283
 20
35.781791880374591
 30
0.0
 40
0.0995
  0
CIRCLE
  5
BA
  8
OBJECT
 10
48.25688385028829
 20
35.781791880374591
 30
0.0
 40
0.0995
  0
CIRCLE
  5
BB
  8
OBJECT
 10
48.88188385028829
 20
35.781791880374591
 30
0.0
 40
0.0995
  0
CIRCLE
  5
BC
  8
OBJECT
 10
45.881883850288283
 20
35.781791880374591
 30
0.0
 40
0.0995
  0
CIRCLE
  5
BD
  8
OBJECT
 10
46.506883850288283
 20
35.781791880374591
 30
0.0
 40
0.0995
  0
CIRCLE
  5
BE
  8
OBJECT
 10
47.131883850288283
 20
35.781791880374591
 30
0.0
 40
0.0995
  0
CIRCLE
  5
BF
  8
OBJECT
 10
44.13188385028829
 20
35.781791880374591
 30
0.0
 40
0.0995
  0
CIRCLE
  5
C0
  8
OBJECT
 10
44.75688385028829
 20
35.781791880374591
 30
0.0
 40
0.0995
  0
CIRCLE
  5
C1
  8
OBJECT
 10
45.38188385028829
 20
35.781791880374591
 30
0.0
 40
0.0995
  0
CIRCLE
  5
C2
  8
OBJECT
 10
42.38188385028829
 20
35.781791880374591
 30
0.0
 40
0.0995
  0
CIRCLE
  5
C3
  8
OBJECT
 10
43.00688385028829
 20
35.781791880374591
 30
0.0
 40
0.0995
  0
CIRCLE
  5
C4
  8
OBJECT
 10
43.63188385028829
 20
35.781791880374591
 30
0.0
 40
0.0995
  0
CIRCLE
  5
C5
  8
OBJECT
 10
40.63188385028829
 20
35.781791880374591
 30
0.0
 40
0.0995
  0
CIRCLE
  5
C6
  8
OBJECT
 10
41.25688385028829
 20
35.781791880374591
 30
0.0
 40
0.0995
  0
CIRCLE
  5
C7
  8
OBJECT
 10
41.88188385028829
 20
35.781791880374591
 30
0.0
 40
0.0995
  0
CIRCLE
  5
C8
  8
OBJECT
 10
38.88188385028829
 20
35.781791880374591
 30
0.0
 40
0.0995
  0
CIRCLE
  5
C9
  8
OBJECT
 10
39.50688385028829
 20
35.781791880374591
 30
0.0
 40
0.0995
  0
CIRCLE
  5
CA
  8
OBJECT
 10
40.131883850288283
 20
35.781791880374591
 30
0.0
 40
0.0995
  0
CIRCLE
  5
CB
  8
OBJECT
 10
37.131883850288283
 20
35.781791880374591
 30
0.0
 40
0.0995
  0
CIRCLE
  5
CC
  8
OBJECT
 10
37.756883850288283
 20
35.781791880374591
 30
0.0
 40
0.0995
  0
CIRCLE
  5
CD
  8
OBJECT
 10
38.381883850288283
 20
35.781791880374591
 30
0.0
 40
0.0995
  0
CIRCLE
  5
CE
  8
OBJECT
 10
35.38188385028829
 20
35.781791880374591
 30
0.0
 40
0.0995
  0
CIRCLE
  5
CF
  8
OBJECT
 10
36.00688385028829
 20
35.781791880374591
 30
0.0
 40
0.0995
  0
CIRCLE
  5
D0
  8
OBJECT
 10
36.63188385028829
 20
35.781791880374591
 30
0.0
 40
0.0995
  0
CIRCLE
  5
D1
  8
OBJECT
 10
33.63188385028829
 20
35.781791880374591
 30
0.0
 40
0.0995
  0
CIRCLE
  5
D2
  8
OBJECT
 10
34.25688385028829
 20
35.781791880374591
 30
0.0
 40
0.0995
  0
CIRCLE
  5
D3
  8
OBJECT
 10
34.88188385028829
 20
35.781791880374591
 30
0.0
 40
0.0995
  0
CIRCLE
  5
D4
  8
OBJECT
 10
31.88188385028829
 20
35.781791880374591
 30
0.0
 40
0.0995
  0
CIRCLE
  5
D5
  8
OBJECT
 10
32.50688385028829
 20
35.781791880374591
 30
0.0
 40
0.0995
  0
CIRCLE
  5
D6
  8
OBJECT
 10
33.13188385028829
 20
35.781791880374591
 30
0.0
 40
0.0995
  0
CIRCLE
  5
D7
  8
OBJECT
 10
30.13188385028829
 20
35.781791880374591
 30
0.0
 40
0.0995
  0
CIRCLE
  5
D8
  8
OBJECT
 10
30.75688385028829
 20
35.781791880374591
 30
0.0
 40
0.0995
  0
CIRCLE
  5
D9
  8
OBJECT
 10
31.38188385028829
 20
35.781791880374591
 30
0.0
 40
0.0995
  0
CIRCLE
  5
DA
  8
OBJECT
 10
28.381883850288279
 20
35.781791880374591
 30
0.0
 40
0.0995
  0
CIRCLE
  5
DB
  8
OBJECT
 10
29.006883850288279
 20
35.781791880374591
 30
0.0
 40
0.0995
  0
CIRCLE
  5
DC
  8
OBJECT
 10
29.631883850288279
 20
35.781791880374591
 30
0.0
 40
0.0995
  0
CIRCLE
  5
DD
  8
OBJECT
 10
26.63188385028829
 20
35.781791880374591
 30
0.0
 40
0.0995
  0
CIRCLE
  5
DE
  8
OBJECT
 10
27.25688385028829
 20
35.781791880374591
 30
0.0
 40
0.0995
  0
CIRCLE
  5
DF
  8
OBJECT
 10
27.88188385028829
 20
35.781791880374591
 30
0.0
 40
0.0995
  0
CIRCLE
  5
E0
  8
OBJECT
 10
24.88188385028829
 20
35.781791880374591
 30
0.0
 40
0.0995
  0
CIRCLE
  5
E1
  8
OBJECT
 10
25.50688385028829
 20
35.781791880374591
 30
0.0
 40
0.0995
  0
CIRCLE
  5
E2
  8
OBJECT
 10
26.13188385028829
 20
35.781791880374591
 30
0.0
 40
0.0995
  0
CIRCLE
  5
E3
  8
OBJECT
 10
23.13188385028829
 20
35.781791880374591
 30
0.0
 40
0.0995
  0
CIRCLE
  5
E4
  8
OBJECT
 10
23.75688385028829
 20
35.781791880374591
 30
0.0
 40
0.0995
  0
CIRCLE
  5
E5
  8
OBJECT
 10
24.38188385028829
 20
35.781791880374591
 30
0.0
 40
0.0995
  0
CIRCLE
  5
E6
  8
OBJECT
 10
21.38188385028829
 20
35.781791880374591
 30
0.0
 40
0.0995
  0
CIRCLE
  5
E7
  8
OBJECT
 10
22.00688385028829
 20
35.781791880374591
 30
0.0
 40
0.0995
  0
CIRCLE
  5
E8
  8
OBJECT
 10
22.63188385028829
 20
35.781791880374591
 30
0.0
 40
0.0995
  0
CIRCLE
  5
E9
  8
OBJECT
 10
19.631883850288279
 20
35.781791880374591
 30
0.0
 40
0.0995
  0
CIRCLE
  5
EA
  8
OBJECT
 10
20.256883850288279
 20
35.781791880374591
 30
0.0
 40
0.0995
  0
CIRCLE
  5
EB
  8
OBJECT
 10
20.881883850288279
 20
35.781791880374591
 30
0.0
 40
0.0995
  0
CIRCLE
  5
EC
  8
OBJECT
 10
17.88188385028829
 20
35.781791880374591
 30
0.0
 40
0.0995
  0
CIRCLE
  5
ED
  8
OBJECT
 10
18.50688385028829
 20
35.781791880374591
 30
0.0
 40
0.0995
  0
CIRCLE
  5
EE
  8
OBJECT
 10
19.13188385028829
 20
35.781791880374591
 30
0.0
 40
0.0995
  0
CIRCLE
  5
EF
  8
OBJECT
 10
16.13188385028829
 20
35.781791880374591
 30
0.0
 40
0.0995
  0
CIRCLE
  5
F0
  8
OBJECT
 10
16.75688385028829
 20
35.781791880374591
 30
0.0
 40
0.0995
  0
CIRCLE
  5
F1
  8
OBJECT
 10
17.38188385028829
 20
35.781791880374591
 30
0.0
 40
0.0995
  0
CIRCLE
  5
F2
  8
OBJECT
 10
14.38188385028829
 20
35.781791880374591
 30
0.0
 40
0.0995
  0
CIRCLE
  5
F3
  8
OBJECT
 10
15.00688385028829
 20
35.781791880374591
 30
0.0
 40
0.0995
  0
CIRCLE
  5
F4
  8
OBJECT
 10
15.63188385028829
 20
35.781791880374591
 30
0.0
 40
0.0995
  0
CIRCLE
  5
F5
  8
OBJECT
 10
12.63188385028829
 20
35.781791880374591
 30
0.0
 40
0.0995
  0
CIRCLE
  5
F6
  8
OBJECT
 10
13.25688385028829
 20
35.781791880374591
 30
0.0
 40
0.0995
  0
CIRCLE
  5
F7
  8
OBJECT
 10
13.88188385028829
 20
35.781791880374591
 30
0.0
 40
0.0995
  0
CIRCLE
  5
F8
  8
OBJECT
 10
10.881883850288281
 20
35.781791880374591
 30
0.0
 40
0.0995
  0
CIRCLE
  5
F9
  8
OBJECT
 10
11.506883850288281
 20
35.781791880374591
 30
0.0
 40
0.0995
  0
CIRCLE
  5
FA
  8
OBJECT
 10
12.131883850288281
 20
35.781791880374591
 30
0.0
 40
0.0995
  0
CIRCLE
  5
FB
  8
OBJECT
 10
9.1318838502882898
 20
35.781791880374591
 30
0.0
 40
0.0995
  0
CIRCLE
  5
FC
  8
OBJECT
 10
9.7568838502882898
 20
35.781791880374591
 30
0.0
 40
0.0995
  0
CIRCLE
  5
FD
  8
OBJECT
 10
10.381883850288281
 20
35.781791880374591
 30
0.0
 40
0.0995
  0
LINE
  5
FE
  8
OBJECT
 10
6.0533838502882844
 20
36.650791880374591
 30
0.0
 11
6.0533838502882844
 21
35.500791880374599
 31
0.0
  0
LINE
  5
FF
  8
OBJECT
 10
5.9443838502882889
 20
36.650791880374591
 30
0.0
 11
5.9443838502882889
 21
35.500791880374599
 31
0.0
  0
CIRCLE
  5
120
  8
OBJECT
 10
7.3818838502882889
 20
35.781791880374591
 30
0.0
 40
0.0995
  0
CIRCLE
  5
121
  8
OBJECT
 10
8.6318838502882898
 20
35.781791880374591
 30
0.0
 40
0.0995
  0
CIRCLE
  5
122
  8
OBJECT
 10
8.0068838502882898
 20
35.781791880374591
 30
0.0
 40
0.0995
  0
POLYLINE
  5
12E
  8
OBJECT
 66
     1
 10
0.0
 20
0.0
 30
0.0
 70
     1
  0
VERTEX
  5
7A3
  8
OBJECT
 10
17.493016508812701
 20
19.673672155521992
 30
0.0
 42
0.9999999999999998
  0
VERTEX
  5
7A4
  8
OBJECT
 10
17.493016508812701
 20
19.923672155521992
 30
0.0
  0
VERTEX
  5
7A5
  8
OBJECT
 10
16.493016508812701
 20
19.923672155521992
 30
0.0
 42
1.000000000000014
  0
VERTEX
  5
7A6
  8
OBJECT
 10
16.493016508812701
 20
19.673672155521992
 30
0.0
  0
SEQEND
  5
7A7
  8
OBJECT
  0
POLYLINE
  5
12F
  8
OBJECT
 66
     1
 10
0.0
 20
0.0
 30
0.0
 70
     1
  0
VERTEX
  5
7A8
  8
OBJECT
 10
17.493016508812701
 20
20.673672155521999
 30
0.0
 42
0.9999999999999998
  0
VERTEX
  5
7A9
  8
OBJECT
 10
17.493016508812701
 20
20.923672155521992
 30
0.0
  0
VERTEX
  5
7AA
  8
OBJECT
 10
16.493016508812701
 20
20.923672155521992
 30
0.0
 42
1.000000000000014
  0
VERTEX
  5
7AB
  8
OBJECT
 10
16.493016508812701
 20
20.673672155521999
 30
0.0
  0
SEQEND
  5
7AC
  8
OBJECT
  0
POLYLINE
  5
130
  8
OBJECT
 66
     1
 10
0.0
 20
0.0
 30
0.0
 70
     1
  0
VERTEX
  5
7AD
  8
OBJECT
 10
31.493016508812701
 20
19.673672155521992
 30
0.0
 42
0.9999999999999998
  0
VERTEX
  5
7AE
  8
OBJECT
 10
31.493016508812701
 20
19.923672155521992
 30
0.0
  0
VERTEX
  5
7AF
  8
OBJECT
 10
30.493016508812701
 20
19.923672155521992
 30
0.0
 42
1.000000000000014
  0
VERTEX
  5
7B0
  8
OBJECT
 10
30.493016508812701
 20
19.673672155521992
 30
0.0
  0
SEQEND
  5
7B1
  8
OBJECT
  0
POLYLINE
  5
131
  8
OBJECT
 66
     1
 10
0.0
 20
0.0
 30
0.0
 70
     1
  0
VERTEX
  5
7B2
  8
OBJECT
 10
31.493016508812701
 20
20.673672155521999
 30
0.0
 42
0.9999999999999998
  0
VERTEX
  5
7B3
  8
OBJECT
 10
31.493016508812701
 20
20.923672155521992
 30
0.0
  0
VERTEX
  5
7B4
  8
OBJECT
 10
30.493016508812701
 20
20.923672155521992
 30
0.0
 42
1.000000000000014
  0
VERTEX
  5
7B5
  8
OBJECT
 10
30.493016508812701
 20
20.673672155521999
 30
0.0
  0
SEQEND
  5
7B6
  8
OBJECT
  0
POLYLINE
  5
132
  8
OBJECT
 66
     1
 10
0.0
 20
0.0
 30
0.0
 70
     1
  0
VERTEX
  5
7B7
  8
OBJECT
 10
45.493016508812701
 20
19.673672155521992
 30
0.0
 42
0.9999999999999998
  0
VERTEX
  5
7B8
  8
OBJECT
 10
45.493016508812701
 20
19.923672155521992
 30
0.0
  0
VERTEX
  5
7B9
  8
OBJECT
 10
44.493016508812687
 20
19.923672155521992
 30
0.0
 42
1.000000000000014
  0
VERTEX
  5
7BA
  8
OBJECT
 10
44.493016508812687
 20
19.673672155521992
 30
0.0
  0
SEQEND
  5
7BB
  8
OBJECT
  0
POLYLINE
  5
133
  8
OBJECT
 66
     1
 10
0.0
 20
0.0
 30
0.0
 70
     1
  0
VERTEX
  5
7BC
  8
OBJECT
 10
45.493016508812701
 20
20.673672155521999
 30
0.0
 42
0.9999999999999998
  0
VERTEX
  5
7BD
  8
OBJECT
 10
45.493016508812701
 20
20.923672155521992
 30
0.0
  0
VERTEX
  5
7BE
  8
OBJECT
 10
44.493016508812687
 20
20.923672155521992
 30
0.0
 42
1.000000000000014
  0
VERTEX
  5
7BF
  8
OBJECT
 10
44.493016508812687
 20
20.673672155521999
 30
0.0
  0
SEQEND
  5
7C0
  8
OBJECT
  0
POLYLINE
  5
134
  8
OBJECT
 66
     1
 10
0.0
 20
0.0
 30
0.0
 70
     1
  0
VERTEX
  5
7C1
  8
OBJECT
 10
59.493016508812701
 20
19.673672155521992
 30
0.0
 42
0.9999999999999998
  0
VERTEX
  5
7C2
  8
OBJECT
 10
59.493016508812701
 20
19.923672155521992
 30
0.0
  0
VERTEX
  5
7C3
  8
OBJECT
 10
58.493016508812701
 20
19.923672155521992
 30
0.0
 42
1.000000000000014
  0
VERTEX
  5
7C4
  8
OBJECT
 10
58.493016508812701
 20
19.673672155521992
 30
0.0
  0
SEQEND
  5
7C5
  8
OBJECT
  0
POLYLINE
  5
135
  8
OBJECT
 66
     1
 10
0.0
 20
0.0
 30
0.0
 70
     1
  0
VERTEX
  5
7C6
  8
OBJECT
 10
59.493016508812701
 20
20.673672155521999
 30
0.0
 42
0.9999999999999998
  0
VERTEX
  5
7C7
  8
OBJECT
 10
59.493016508812701
 20
20.923672155521992
 30
0.0
  0
VERTEX
  5
7C8
  8
OBJECT
 10
58.493016508812701
 20
20.923672155521992
 30
0.0
 42
1.000000000000014
  0
VERTEX
  5
7C9
  8
OBJECT
 10
58.493016508812701
 20
20.673672155521999
 30
0.0
  0
SEQEND
  5
7CA
  8
OBJECT
  0
POLYLINE
  5
136
  8
OBJECT
 66
     1
 10
0.0
 20
0.0
 30
0.0
 70
     1
  0
VERTEX
  5
7CB
  8
OBJECT
 10
73.493016508812701
 20
19.673672155521992
 30
0.0
 42
0.9999999999999998
  0
VERTEX
  5
7CC
  8
OBJECT
 10
73.493016508812701
 20
19.923672155521992
 30
0.0
  0
VERTEX
  5
7CD
  8
OBJECT
 10
72.493016508812701
 20
19.923672155521992
 30
0.0
 42
1.000000000000014
  0
VERTEX
  5
7CE
  8
OBJECT
 10
72.493016508812701
 20
19.673672155521992
 30
0.0
  0
SEQEND
  5
7CF
  8
OBJECT
  0
POLYLINE
  5
137
  8
OBJECT
 66
     1
 10
0.0
 20
0.0
 30
0.0
 70
     1
  0
VERTEX
  5
7D0
  8
OBJECT
 10
73.493016508812701
 20
20.673672155521999
 30
0.0
 42
0.9999999999999998
  0
VERTEX
  5
7D1
  8
OBJECT
 10
73.493016508812701
 20
20.923672155521992
 30
0.0
  0
VERTEX
  5
7D2
  8
OBJECT
 10
72.493016508812701
 20
20.923672155521992
 30
0.0
 42
1.000000000000014
  0
VERTEX
  5
7D3
  8
OBJECT
 10
72.493016508812701
 20
20.673672155521999
 30
0.0
  0
SEQEND
  5
7D4
  8
OBJECT
  0
INSERT
  5
153
  8
OBJECT
  2
HBS
 10
0.0
 20
0.0
 30
0.0
 41
5.5
 42
5.5
 43
5.5
  0
DIMENSION
  5
154
  8
DIM
  2
*D1
 10
72.993016508812701
 20
14.739573476059711
 30
0.0
 11
44.993016508812701
 21
14.739573476059711
 31
0.0
 70
     0
  1
(4) SPACES @ 14.000 = <>
 13
16.993016508812701
 23
19.673672155521992
 33
0.0
 14
72.993016508812701
 24
19.673672155521992
 34
0.0
  0
DIMENSION
  5
164
  8
DIM
  2
*D2
 10
86.574182525273372
 20
19.798672155521992
 30
0.0
 11
84.272776275273358
 21
16.028415734920451
 31
0.0
 70
   128
 13
88.376373215743868
 23
20.798672155521992
 33
0.0
 14
88.376373215743868
 24
19.798672155521992
 34
0.0
 50
90.0
  0
DIMENSION
  5
191
  8
DIM
  2
*D3
 10
84.952571009423025
 20
19.298672155521992
 30
0.0
 11
82.565227259423025
 21
17.318672155521998
 31
0.0
 70
     0
 13
88.376373215743868
 23
19.798672155521992
 33
0.0
 14
87.767373215743874
 24
19.298672155521992
 34
0.0
 50
90.0
  0
DIMENSION
  5
1AA
  8
DIM
  2
*D4
 10
87.767373215743874
 20
23.465003862327841
 30
0.0
 11
84.347060715743865
 21
23.465003862327841
 31
0.0
 70
   128
 13
88.376373215743868
 23
20.798672155521992
 33
0.0
 14
87.767373215743874
 24
21.298672155521992
 34
0.0
  0
DIMENSION
  5
1B9
  8
DIM
  2
*D5
 10
9.1318838502882898
 20
33.268390384905302
 30
0.0
 11
12.509227600288289
 21
33.268390384905302
 31
0.0
 70
     0
 13
8.6318838502882898
 23
35.781791880374591
 33
0.0
 14
9.1318838502882898
 24
35.781791880374591
 34
0.0
  0
DIMENSION
  5
1C7
  8
DIM
  2
*D6
 10
8.6318838502882898
 20
31.77744621397008
 30
0.0
 11
12.095165100288289
 21
31.77744621397008
 31
0.0
 70
     0
 13
8.0068838502882898
 23
35.781791880374591
 33
0.0
 14
8.6318838502882898
 24
35.781791880374591
 34
0.0
  0
DIMENSION
  5
1D5
  8
DIM
  2
*D7
 10
8.0068838502882898
 20
30.12084182209724
 30
0.0
 11
11.470165100288289
 21
30.12084182209724
 31
0.0
 70
     0
 13
7.3818838502882889
 23
35.781791880374591
 33
0.0
 14
8.0068838502882898
 24
35.781791880374591
 34
0.0
  0
DIMENSION
  5
1E3
  8
DIM
  2
*D8
 10
5.9443838502882889
 20
28.531938656226991
 30
0.0
 11
2.5240713502882892
 21
28.531938656226991
 31
0.0
 70
     0
 13
7.3818838502882889
 23
35.781791880374591
 33
0.0
 14
5.9443838502882889
 24
35.500791880374599
 34
0.0
  0
DIMENSION
  5
210
  8
DIM
  2
*D9
 10
6.1805165088127012
 20
14.739573476059711
 30
0.0
 11
11.586766508812699
 21
14.739573476059711
 31
0.0
 70
     0
 13
16.993016508812701
 23
19.673672155521992
 33
0.0
 14
6.1805165088127012
 24
19.298672155521999
 34
0.0
  0
DIMENSION
  5
26F
  8
DIM
  2
*D10
 10
4.4792245822387136
 20
35.500791880374599
 30
0.0
 11
2.0918808322387079
 21
33.520791880374603
 31
0.0
 70
     0
 13
7.3818838502882889
 23
35.781791880374591
 33
0.0
 14
5.9443838502882889
 24
35.500791880374599
 34
0.0
 50
90.0
  0
DIMENSION
  5
2A8
  8
DIM
  2
*D11
 10
4.7235274035228842
 20
19.298672155521999
 30
0.0
 11
2.3361836535228799
 21
16.13166539236834
 31
0.0
 70
   128
 13
16.368016508812701
 23
19.798672155521992
 33
0.0
 14
6.1805165088127012
 24
19.298672155521999
 34
0.0
 50
90.0
  0
DIMENSION
  5
2B7
  8
DIM
  2
*D12
 10
20.114331176015071
 20
20.798672155521992
 30
0.0
 11
22.41573742601506
 21
22.778672155521999
 31
0.0
 70
     0
 13
17.618016508812701
 23
19.798672155521992
 33
0.0
 14
17.618016508812701
 24
20.798672155521992
 34
0.0
 50
90.0
  0
DIMENSION
  5
323
  8
DIM
  2
*D14
 10
80.881883850288276
 20
31.77744621397008
 30
0.0
 11
77.418602600288295
 21
31.77744621397008
 31
0.0
 70
     0
 13
81.506883850288276
 23
35.781791880374591
 33
0.0
 14
80.881883850288276
 24
35.781791880374591
 34
0.0
 50
180.0
  0
DIMENSION
  5
324
  8
DIM
  2
*D15
 10
81.506883850288276
 20
30.12084182209724
 30
0.0
 11
78.043602600288295
 21
30.12084182209724
 31
0.0
 70
     0
 13
82.131883850288276
 23
35.781791880374591
 33
0.0
 14
81.506883850288276
 24
35.781791880374591
 34
0.0
 50
180.0
  0
DIMENSION
  5
325
  8
DIM
  2
*D13
 10
80.381883850288304
 20
33.268390384905302
 30
0.0
 11
77.004540100288295
 21
33.268390384905302
 31
0.0
 70
     0
 13
80.881883850288276
 23
35.781791880374591
 33
0.0
 14
80.381883850288304
 24
35.781791880374591
 34
0.0
 50
180.0
  0
DIMENSION
  5
36B
  8
DIM
  2
*D16
 10
82.131883850288276
 20
28.531938656226991
 30
0.0
 11
44.75688385028829
 21
28.531938656226991
 31
0.0
 70
     0
  1
(129) HOLES ON E.I.A. UNIVERSAL SPACING = <>
 13
7.3818838502882889
 23
35.781791880374591
 33
0.0
 14
82.131883850288276
 24
35.781791880374591
 34
0.0
  0
DIMENSION
  5
3AC
  8
DIM
  2
*D17
 10
30.993016508812701
 20
16.749749771885568
 30
0.0
 11
23.993016508812701
 21
16.749749771885568
 31
0.0
 70
     0
  1
<> REF.
 13
16.993016508812701
 23
19.673672155521992
 33
0.0
 14
30.993016508812701
 24
19.673672155521992
 34
0.0
  0
POLYLINE
  8
0
  5
7DF
  66
     1
 10
0.000000
 20
0.000000
 30
0.000000
  70
     8
  0
VERTEX
  8
0
  5
7E0
 10
7.45220
 20
35.8522
 30
0.000000
  70
    32
  0
VERTEX
  8
0
  5
7E1
 10
9.38943
 20
40.1748
 30
0.000000
  70
    32
  0
VERTEX
  8
0
  5
7E2
 10
10.3794
 20
40.1748
 30
0.000000
  70
    32
  0
SEQEND
  8
0
  5
7E3
  0
TEXT
  5
4BE
  8
OBJECT
 10
10.874430519443919
 20
39.831019884587299
 30
0.0
 40
0.6875
  1
#12-24 TAPPED HOLE (129) PLACES
 41
0.75
  0
POLYLINE
  8
0
  5
7E4
  66
     1
 10
0.000000
 20
0.000000
 30
0.000000
  70
     8
  0
VERTEX
  8
0
  5
7E5
 10
16.8876
 20
20.9237
 30
0.000000
  70
    32
  0
VERTEX
  8
0
  5
7E6
 10
15.3649
 20
24.7345
 30
0.000000
  70
    32
  0
VERTEX
  8
0
  5
7E7
 10
14.3749
 20
24.7345
 30
0.000000
  70
    32
  0
SEQEND
  8
0
  5
7E8
  0
INSERT
  5
572
  8
OBJECT
  2
*U21
 10
0.0
 20
0.0
 30
0.0
  0
POLYLINE
  8
0
  5
7E9
  66
     1
 10
0.000000
 20
0.000000
 30
0.000000
  70
     8
  0
VERTEX
  8
0
  5
7EA
 10
88.3475
 20
19.6612
 30
0.000000
  70
    32
  0
VERTEX
  8
0
  5
7EB
 10
86.6353
 20
14.1045
 30
0.000000
  70
    32
  0
VERTEX
  8
0
  5
7EC
 10
85.6453
 20
14.1045
 30
0.000000
  70
    32
  0
SEQEND
  8
0
  5
7ED
  0
INSERT
  5
574
  8
OBJECT
  2
*U22
 10
0.0
 20
0.0
 30
0.0
  0
TEXT
  5
63C
  8
TEXT
 10
63.737884639282072
 20
44.362477587651171
 30
0.0
 40
0.6875
  1
%%UMATERIAL:%%U 12 GA. STEEL
 41
0.75
  0
TEXT
  5
63D
  8
TEXT
 10
63.737884639282072
 20
42.085487082824073
 30
0.0
 40
0.6875
  1
%%UFINISH:%%U BLACK TEXTURED
 41
0.75
  0
TEXT
  5
63E
  8
TEXT
 10
10.01092039980216
 20
51.105735837425073
 30
0.0
 40
1.032
  1
ADJUSTING PANEL MOUNTING RAIL
 41
0.75
 72
     1
 11
20.71792039980215
 21
51.105735837425073
 31
0.0
  0
TEXT
  5
640
  8
TEXT
 10
58.097278188141637
 20
51.105735837425073
 30
0.0
 40
1.032
  1
PMR-8088
 41
0.75
 72
     1
 11
60.99977818814164
 21
51.105735837425073
 31
0.0
  0
TEXT
  5
647
  8
TITLE
 10
84.82089081141001
 20
-0.726400784222804
 30
0.0
 40
0.5160000000000001
  1
RELEASED: 18JUL02
 41
0.75
  0
DIMENSION
  5
653
  8
DIM
  2
*D18
 10
2.5216338247663819
 20
19.298672155521999
 30
0.0
 11
2.5216338247663792
 21
20.298672155521992
 31
0.0
 70
     0
 13
6.2895165088127101
 23
21.298672155521992
 33
0.0
 14
6.2895165088127101
 24
19.298672155521999
 34
0.0
 50
90.0
  0
DIMENSION
  5
66B
  8
DIM
  2
*D19
 10
85.994965094724904
 20
35.500791880374599
 30
0.0
 11
85.99496509472489
 21
36.075791880374609
 31
0.0
 70
     0
 13
83.56938385028829
 23
36.650791880374591
 33
0.0
 14
83.56938385028829
 24
35.500791880374599
 34
0.0
 50
90.0
  0
DIMENSION
  5
71E
  8
DIM
  2
*D20
 10
5.9443838502882889
 20
38.5613656146772
 30
0.0
 11
44.75688385028829
 21
38.5613656146772
 31
0.0
 70
     0
 13
83.56938385028829
 23
36.650791880374591
 33
0.0
 14
5.9443838502882889
 24
36.650791880374591
 34
0.0
  0
ENDSEC
  0
EOF
