  0
SECTION
  2
HEADER
  9
$ACADVER
  1
AC1009
  9
$INSBASE
 10
0.0
 20
0.0
 30
0.0
  9
$EXTMIN
 10
0.0
 20
0.0
 30
0.0
  9
$EXTMAX
 10
93.0
 20
60.72
 30
0.0
  9
$LIMMIN
 10
0.0
 20
0.0
  9
$LIMMAX
 10
93.0
 20
60.72
  9
$ORTHOMODE
 70
     1
  9
$REGENMODE
 70
     1
  9
$FILLMODE
 70
     1
  9
$QTEXTMODE
 70
     0
  9
$MIRRTEXT
 70
     0
  9
$DRAGMODE
 70
     2
  9
$LTSCALE
 40
2.0
  9
$OSMODE
 70
     0
  9
$ATTMODE
 70
     1
  9
$TEXTSIZE
 40
0.125
  9
$TRACEWID
 40
0.05
  9
$TEXTSTYLE
  7
TXT
  9
$CLAYER
  8
OBJECT
  9
$CELTYPE
  6
BYLAYER
  9
$CECOLOR
 62
   256
  9
$DIMSCALE
 40
6.0
  9
$DIMASZ
 40
0.18
  9
$DIMEXO
 40
0.063
  9
$DIMDLI
 40
0.281
  9
$DIMRND
 40
0.0
  9
$DIMDLE
 40
0.0
  9
$DIMEXE
 40
0.093
  9
$DIMTP
 40
0.0
  9
$DIMTM
 40
0.0
  9
$DIMTXT
 40
0.125
  9
$DIMCEN
 40
0.09
  9
$DIMTSZ
 40
0.0
  9
$DIMTOL
 70
     0
  9
$DIMLIM
 70
     0
  9
$DIMTIH
 70
     1
  9
$DIMTOH
 70
     1
  9
$DIMSE1
 70
     0
  9
$DIMSE2
 70
     0
  9
$DIMTAD
 70
     0
  9
$DIMZIN
 70
     0
  9
$DIMBLK
  1

  9
$DIMASO
 70
     1
  9
$DIMSHO
 70
     1
  9
$DIMPOST
  1

  9
$DIMAPOST
  1

  9
$DIMALT
 70
     0
  9
$DIMALTD
 70
     2
  9
$DIMALTF
 40
25.4
  9
$DIMLFAC
 40
1.0
  9
$DIMTOFL
 70
     0
  9
$DIMTVP
 40
0.0
  9
$DIMTIX
 70
     0
  9
$DIMSOXD
 70
     0
  9
$DIMSAH
 70
     0
  9
$DIMBLK1
  1

  9
$DIMBLK2
  1

  9
$DIMSTYLE
  2
23NSTD
  9
$DIMCLRD
 70
     0
  9
$DIMCLRE
 70
     0
  9
$DIMCLRT
 70
     0
  9
$DIMTFAC
 40
1.0
  9
$DIMGAP
 40
0.09
  9
$LUNITS
 70
     2
  9
$LUPREC
 70
     3
  9
$SKETCHINC
 40
0.1
  9
$FILLETRAD
 40
0.0
  9
$AUNITS
 70
     0
  9
$AUPREC
 70
     0
  9
$MENU
  1
acad
  9
$ELEVATION
 40
0.0
  9
$PELEVATION
 40
0.0
  9
$THICKNESS
 40
0.0
  9
$LIMCHECK
 70
     0
  9
$BLIPMODE
 70
     1
  9
$CHAMFERA
 40
0.0
  9
$CHAMFERB
 40
0.0
  9
$SKPOLY
 70
     0
  9
$TDCREATE
 40
2450302.375835879
  9
$TDUPDATE
 40
2451354.605685764
  9
$TDINDWG
 40
0.1463453704
  9
$TDUSRTIMER
 40
0.1463453704
  9
$USRTIMER
 70
     1
  9
$ANGBASE
 50
0.0
  9
$ANGDIR
 70
     0
  9
$PDMODE
 70
     0
  9
$PDSIZE
 40
0.0
  9
$PLINEWID
 40
0.0
  9
$COORDS
 70
     0
  9
$SPLFRAME
 70
     0
  9
$SPLINETYPE
 70
     6
  9
$SPLINESEGS
 70
     8
  9
$ATTDIA
 70
     0
  9
$ATTREQ
 70
     1
  9
$HANDLING
 70
     0
  9
$HANDSEED
  5
0
  9
$SURFTAB1
 70
     6
  9
$SURFTAB2
 70
     6
  9
$SURFTYPE
 70
     6
  9
$SURFU
 70
     6
  9
$SURFV
 70
     6
  9
$UCSNAME
  2

  9
$UCSORG
 10
0.0
 20
0.0
 30
0.0
  9
$UCSXDIR
 10
1.0
 20
0.0
 30
0.0
  9
$UCSYDIR
 10
0.0
 20
1.0
 30
0.0
  9
$PUCSNAME
  2

  9
$PUCSORG
 10
0.0
 20
0.0
 30
0.0
  9
$PUCSXDIR
 10
1.0
 20
0.0
 30
0.0
  9
$PUCSYDIR
 10
0.0
 20
1.0
 30
0.0
  9
$USERI1
 70
     0
  9
$USERI2
 70
     0
  9
$USERI3
 70
     0
  9
$USERI4
 70
     0
  9
$USERI5
 70
     0
  9
$USERR1
 40
0.0
  9
$USERR2
 40
0.0
  9
$USERR3
 40
0.0
  9
$USERR4
 40
0.0
  9
$USERR5
 40
0.0
  9
$WORLDVIEW
 70
     1
  9
$SHADEDGE
 70
     3
  9
$SHADEDIF
 70
    70
  9
$TILEMODE
 70
     1
  9
$MAXACTVP
 70
    16
  9
$PINSBASE
 10
0.0
 20
0.0
 30
0.0
  9
$PLIMCHECK
 70
     0
  9
$PEXTMIN
 10
1.000000E+20
 20
1.000000E+20
 30
1.000000E+20
  9
$PEXTMAX
 10
-1.000000E+20
 20
-1.000000E+20
 30
-1.000000E+20
  9
$PLIMMIN
 10
0.0
 20
0.0
  9
$PLIMMAX
 10
12.0
 20
9.0
  9
$UNITMODE
 70
     0
  9
$VISRETAIN
 70
     0
  9
$PLINEGEN
 70
     0
  9
$PSLTSCALE
 70
     1
  9
$TREEDEPTH
 70
  3020
  9
$DWGCODEPAGE
  3
ascii
  0
ENDSEC
  0
SECTION
  2
TABLES
  0
TABLE
  2
VPORT
 70
     2
  0
VPORT
  2
*ACTIVE
 70
     0
 10
0.0
 20
0.0
 11
1.0
 21
1.0
 12
46.5
 22
34.132461
 13
0.0
 23
0.0
 14
1.0
 24
1.0
 15
0.0
 25
0.0
 16
0.0
 26
0.0
 36
1.0
 17
0.0
 27
0.0
 37
0.0
 40
68.264921
 41
1.36234
 42
50.0
 43
0.0
 44
0.0
 50
0.0
 51
0.0
 71
     0
 72
   500
 73
     1
 74
     0
 75
     0
 76
     0
 77
     0
 78
     0
  0
ENDTAB
  0
TABLE
  2
LTYPE
 70
     5
  0
LTYPE
  2
CONTINUOUS
 70
    64
  3
Solid line
 72
    65
 73
     0
 40
0.0
  0
LTYPE
  2
HIDDEN
 70
    64
  3
_ _ _ _ _ _ _ _ _ _ _ _ _ _ _ _ _ _ _ _ _ _ _
 72
    65
 73
     2
 40
0.375
 49
0.25
 49
-0.125
  0
LTYPE
  2
PHANTOM
 70
    64
  3
_____ _ _ _____ _ _ _____ _ _ _____ _ _ ____
 72
    65
 73
     6
 40
2.5
 49
1.25
 49
-0.25
 49
0.25
 49
-0.25
 49
0.25
 49
-0.25
  0
LTYPE
  2
CENTER
 70
    64
  3
____ _ ____ _ ____ _ ____ _ ____ _ ____ _ ____
 72
    65
 73
     4
 40
2.0
 49
1.25
 49
-0.25
 49
0.25
 49
-0.25
  0
LTYPE
  2
HIDDEN2
 70
    64
  3
_ _ _ _ _ _ _ _ _ _ _ _ _ _ _ _ _ _ _ _ _ _ _ _
 72
    65
 73
     2
 40
0.1875
 49
0.125
 49
-0.0625
  0
ENDTAB
  0
TABLE
  2
LAYER
 70
     9
  0
LAYER
  2
0
 70
    64
 62
     7
  6
CONTINUOUS
  0
LAYER
  2
OBJECT
 70
    64
 62
     7
  6
CONTINUOUS
  0
LAYER
  2
DIM
 70
    64
 62
     7
  6
CONTINUOUS
  0
LAYER
  2
HIDDEN
 70
    64
 62
     7
  6
HIDDEN
  0
LAYER
  2
BEND
 70
    64
 62
     7
  6
PHANTOM
  0
LAYER
  2
TEXT
 70
    64
 62
     7
  6
CONTINUOUS
  0
LAYER
  2
TITLE
 70
    64
 62
     7
  6
CONTINUOUS
  0
LAYER
  2
CENTER
 70
    64
 62
     7
  6
CENTER
  0
LAYER
  2
DEFPOINTS
 70
    64
 62
     7
  6
CONTINUOUS
  0
ENDTAB
  0
TABLE
  2
STYLE
 70
     3
  0
STYLE
  2
STANDARD
 70
    64
 40
0.0
 41
1.0
 50
0.0
 71
     0
 42
0.2
  3
txt
  4

  0
STYLE
  2
TXT
 70
    64
 40
0.0
 41
0.75
 50
0.0
 71
     0
 42
0.125
  3
TXT.shx
  4

  0
STYLE
  2
ITALICC
 70
    64
 40
0.0
 41
0.75
 50
0.0
 71
     0
 42
1.0
  3
italicc
  4

  0
ENDTAB
  0
TABLE
  2
VIEW
 70
     0
  0
ENDTAB
  0
TABLE
  2
UCS
 70
     0
  0
ENDTAB
  0
TABLE
  2
APPID
 70
     1
  0
APPID
  2
ACAD
 70
    64
  0
ENDTAB
  0
TABLE
  2
DIMSTYLE
 70
     3
  0
DIMSTYLE
  2
23NSTD
 70
    64
  3

  4

  5

  6

  7

 40
6.0
 41
0.18
 42
0.063
 43
0.281
 44
0.093
 45
0.0
 46
0.0
 47
0.0
 48
0.0
140
0.125
141
0.09
142
0.0
143
25.4
144
1.0
145
0.0
146
1.0
147
0.09
 71
     0
 72
     0
 73
     1
 74
     1
 75
     0
 76
     0
 77
     0
 78
     0
170
     0
171
     2
172
     0
173
     0
174
     0
175
     0
176
     0
177
     0
178
     0
  0
DIMSTYLE
  2
23NSTDI
 70
    64
  3

  4

  5

  6

  7

 40
6.0
 41
0.18
 42
0.063
 43
0.281
 44
0.093
 45
0.0
 46
0.0
 47
0.0
 48
0.0
140
0.125
141
0.09
142
0.0
143
25.4
144
1.0
145
0.0
146
1.0
147
0.09
 71
     0
 72
     0
 73
     1
 74
     1
 75
     0
 76
     0
 77
     0
 78
     0
170
     0
171
     2
172
     0
173
     0
174
     1
175
     0
176
     0
177
     0
178
     0
  0
DIMSTYLE
  2
23NSTD2
 70
    64
  3

  4

  5

  6

  7

 40
6.0
 41
0.18
 42
0.063
 43
0.281
 44
0.093
 45
0.0
 46
0.0
 47
0.0
 48
0.0
140
0.125
141
0.09
142
0.0
143
25.4
144
0.5
145
0.0
146
1.0
147
0.09
 71
     0
 72
     0
 73
     1
 74
     1
 75
     0
 76
     0
 77
     0
 78
     0
170
     0
171
     2
172
     0
173
     0
174
     0
175
     0
176
     0
177
     0
178
     0
  0
ENDTAB
  0
ENDSEC
  0
SECTION
  2
BLOCKS
  0
BLOCK
  8
0
  2
HBS
 70
     0
 10
0.0
 20
0.0
 30
0.0
  3
HBS
  0
LINE
  8
TITLE
 10
0.062
 20
9.64
 30
0.0
 11
15.438
 21
9.64
 31
0.0
  0
POLYLINE
  8
TITLE
 66
     1
 10
0.0
 20
0.0
 30
0.0
 70
     1
  0
VERTEX
  8
TITLE
 10
15.5
 20
10.12
 30
0.0
  0
VERTEX
  8
TITLE
 10
15.5
 20
0.0
 30
0.0
  0
VERTEX
  8
TITLE
 10
0.0
 20
0.0
 30
0.0
  0
VERTEX
  8
TITLE
 10
0.0
 20
10.12
 30
0.0
  0
SEQEND
  8
TITLE
  0
POLYLINE
  8
TITLE
 66
     1
 10
0.0
 20
0.0
 30
0.0
 70
     1
  0
VERTEX
  8
TITLE
 10
15.438
 20
10.058
 30
0.0
  0
VERTEX
  8
TITLE
 10
15.438
 20
0.062
 30
0.0
  0
VERTEX
  8
TITLE
 10
0.062
 20
0.062
 30
0.0
  0
VERTEX
  8
TITLE
 10
0.062
 20
10.058
 30
0.0
  0
SEQEND
  8
TITLE
  0
TEXT
  8
TEXT
 10
0.207833
 20
9.680079
 30
0.0
 40
0.125
  1
NAME
 72
     1
 11
0.437
 21
9.680079
 31
0.0
  0
TEXT
  8
TEXT
 10
0.207833
 20
9.888413
 30
0.0
 40
0.125
  1
PART
 72
     1
 11
0.437
 21
9.888413
 31
0.0
  0
LINE
  8
TITLE
 10
0.812
 20
9.64
 30
0.0
 11
0.812
 21
10.058
 31
0.0
  0
TEXT
  8
TEXT
 10
7.926833
 20
9.888413
 30
0.0
 40
0.125
  1
PART
 72
     1
 11
8.156
 21
9.888413
 31
0.0
  0
TEXT
  8
TEXT
 10
8.031
 20
9.680079
 30
0.0
 40
0.125
  1
No.
 72
     1
 11
8.156
 21
9.680079
 31
0.0
  0
LINE
  8
TITLE
 10
7.781
 20
10.058
 30
0.0
 11
7.781
 21
9.64
 31
0.0
  0
LINE
  8
TITLE
 10
7.719
 20
10.058
 30
0.0
 11
7.719
 21
9.64
 31
0.0
  0
LINE
  8
TITLE
 10
8.531
 20
10.058
 30
0.0
 11
8.531
 21
9.64
 31
0.0
  0
ENDBLK
  8
0
  0
BLOCK
  8
0
  2
*D1
 70
    65
 10
0.0
 20
0.0
 30
0.0
  3
*D
  0
LINE
  8
0
  6
BYBLOCK
 62
     0
 10
69.826014
 20
76.14569
 30
0.0
 11
69.826014
 21
85.029705
 31
0.0
  0
LINE
  8
0
  6
BYBLOCK
 62
     0
 10
72.576014
 20
76.14569
 30
0.0
 11
72.576014
 21
85.029705
 31
0.0
  0
LINE
  8
0
  6
BYBLOCK
 62
     0
 10
68.746014
 20
84.471705
 30
0.0
 11
67.666014
 21
84.471705
 31
0.0
  0
LINE
  8
0
  6
BYBLOCK
 62
     0
 10
73.656014
 20
84.471705
 30
0.0
 11
74.736014
 21
84.471705
 31
0.0
  0
SOLID
  8
0
  6
BYBLOCK
 62
     0
 10
68.746014
 20
84.651705
 30
0.0
 11
68.746014
 21
84.291705
 31
0.0
 12
69.826014
 22
84.471705
 32
0.0
 13
69.826014
 23
84.471705
 33
0.0
  0
SOLID
  8
0
  6
BYBLOCK
 62
     0
 10
73.656014
 20
84.651705
 30
0.0
 11
73.656014
 21
84.291705
 31
0.0
 12
72.576014
 22
84.471705
 32
0.0
 13
72.576014
 23
84.471705
 33
0.0
  0
TEXT
  8
0
  6
BYBLOCK
 62
     0
 10
70.122889
 20
84.096705
 30
0.0
 40
0.75
  1
2.750
 41
0.75
  7
TXT
 72
     1
 11
71.201014
 21
84.471705
 31
0.0
 73
     2
  0
POINT
  8
DEFPOINTS
  6
BYBLOCK
 62
     0
 10
69.826014
 20
75.76769
 30
0.0
  0
POINT
  8
DEFPOINTS
  6
BYBLOCK
 62
     0
 10
72.576014
 20
75.76769
 30
0.0
  0
POINT
  8
DEFPOINTS
  6
BYBLOCK
 62
     0
 10
72.576014
 20
84.471705
 30
0.0
  0
ENDBLK
  8
0
  0
BLOCK
  8
0
  2
*D2
 70
    65
 10
0.0
 20
0.0
 30
0.0
  3
*D
  0
LINE
  8
0
  6
BYBLOCK
 62
     0
 10
6.012014
 20
76.14569
 30
0.0
 11
6.012014
 21
85.029705
 31
0.0
  0
LINE
  8
0
  6
BYBLOCK
 62
     0
 10
3.262014
 20
76.14569
 30
0.0
 11
3.262014
 21
85.029705
 31
0.0
  0
LINE
  8
0
  6
BYBLOCK
 62
     0
 10
7.092014
 20
84.471705
 30
0.0
 11
8.172014
 21
84.471705
 31
0.0
  0
LINE
  8
0
  6
BYBLOCK
 62
     0
 10
2.182014
 20
84.471705
 30
0.0
 11
1.102014
 21
84.471705
 31
0.0
  0
SOLID
  8
0
  6
BYBLOCK
 62
     0
 10
7.092014
 20
84.651705
 30
0.0
 11
7.092014
 21
84.291705
 31
0.0
 12
6.012014
 22
84.471705
 32
0.0
 13
6.012014
 23
84.471705
 33
0.0
  0
SOLID
  8
0
  6
BYBLOCK
 62
     0
 10
2.182014
 20
84.651705
 30
0.0
 11
2.182014
 21
84.291705
 31
0.0
 12
3.262014
 22
84.471705
 32
0.0
 13
3.262014
 23
84.471705
 33
0.0
  0
TEXT
  8
0
  6
BYBLOCK
 62
     0
 10
3.558889
 20
84.096705
 30
0.0
 40
0.75
  1
2.750
 41
0.75
  7
TXT
 72
     1
 11
4.637014
 21
84.471705
 31
0.0
 73
     2
  0
POINT
  8
DEFPOINTS
  6
BYBLOCK
 62
     0
 10
6.012014
 20
75.76769
 30
0.0
  0
POINT
  8
DEFPOINTS
  6
BYBLOCK
 62
     0
 10
3.262014
 20
75.76769
 30
0.0
  0
POINT
  8
DEFPOINTS
  6
BYBLOCK
 62
     0
 10
3.262014
 20
84.471705
 30
0.0
  0
ENDBLK
  8
0
  0
BLOCK
  8
0
  2
*D3
 70
    65
 10
0.0
 20
0.0
 30
0.0
  3
*D
  0
LINE
  8
0
  6
BYBLOCK
 62
     0
 10
19.105014
 20
76.14569
 30
0.0
 11
19.105014
 21
86.715705
 31
0.0
  0
LINE
  8
0
  6
BYBLOCK
 62
     0
 10
16.355014
 20
76.14569
 30
0.0
 11
16.355014
 21
86.715705
 31
0.0
  0
LINE
  8
0
  6
BYBLOCK
 62
     0
 10
20.185014
 20
86.157705
 30
0.0
 11
21.265014
 21
86.157705
 31
0.0
  0
LINE
  8
0
  6
BYBLOCK
 62
     0
 10
15.275014
 20
86.157705
 30
0.0
 11
14.195014
 21
86.157705
 31
0.0
  0
SOLID
  8
0
  6
BYBLOCK
 62
     0
 10
20.185014
 20
86.337705
 30
0.0
 11
20.185014
 21
85.977705
 31
0.0
 12
19.105014
 22
86.157705
 32
0.0
 13
19.105014
 23
86.157705
 33
0.0
  0
SOLID
  8
0
  6
BYBLOCK
 62
     0
 10
15.275014
 20
86.337705
 30
0.0
 11
15.275014
 21
85.977705
 31
0.0
 12
16.355014
 22
86.157705
 32
0.0
 13
16.355014
 23
86.157705
 33
0.0
  0
TEXT
  8
0
  6
BYBLOCK
 62
     0
 10
16.651889
 20
85.782705
 30
0.0
 40
0.75
  1
2.750
 41
0.75
  7
TXT
 72
     1
 11
17.730014
 21
86.157705
 31
0.0
 73
     2
  0
POINT
  8
DEFPOINTS
  6
BYBLOCK
 62
     0
 10
19.105014
 20
75.76769
 30
0.0
  0
POINT
  8
DEFPOINTS
  6
BYBLOCK
 62
     0
 10
16.355014
 20
75.76769
 30
0.0
  0
POINT
  8
DEFPOINTS
  6
BYBLOCK
 62
     0
 10
16.355014
 20
86.157705
 30
0.0
  0
ENDBLK
  8
0
  0
BLOCK
  8
0
  2
*D4
 70
    65
 10
0.0
 20
0.0
 30
0.0
  3
*D
  0
LINE
  8
0
  6
BYBLOCK
 62
     0
 10
26.764264
 20
76.14569
 30
0.0
 11
26.764264
 21
88.401705
 31
0.0
  0
LINE
  8
0
  6
BYBLOCK
 62
     0
 10
24.014264
 20
76.14569
 30
0.0
 11
24.014264
 21
88.401705
 31
0.0
  0
LINE
  8
0
  6
BYBLOCK
 62
     0
 10
27.844264
 20
87.843705
 30
0.0
 11
28.924264
 21
87.843705
 31
0.0
  0
LINE
  8
0
  6
BYBLOCK
 62
     0
 10
22.934264
 20
87.843705
 30
0.0
 11
21.854264
 21
87.843705
 31
0.0
  0
SOLID
  8
0
  6
BYBLOCK
 62
     0
 10
27.844264
 20
88.023705
 30
0.0
 11
27.844264
 21
87.663705
 31
0.0
 12
26.764264
 22
87.843705
 32
0.0
 13
26.764264
 23
87.843705
 33
0.0
  0
SOLID
  8
0
  6
BYBLOCK
 62
     0
 10
22.934264
 20
88.023705
 30
0.0
 11
22.934264
 21
87.663705
 31
0.0
 12
24.014264
 22
87.843705
 32
0.0
 13
24.014264
 23
87.843705
 33
0.0
  0
TEXT
  8
0
  6
BYBLOCK
 62
     0
 10
24.311139
 20
87.468705
 30
0.0
 40
0.75
  1
2.750
 41
0.75
  7
TXT
 72
     1
 11
25.389264
 21
87.843705
 31
0.0
 73
     2
  0
POINT
  8
DEFPOINTS
  6
BYBLOCK
 62
     0
 10
26.764264
 20
75.76769
 30
0.0
  0
POINT
  8
DEFPOINTS
  6
BYBLOCK
 62
     0
 10
24.014264
 20
75.76769
 30
0.0
  0
POINT
  8
DEFPOINTS
  6
BYBLOCK
 62
     0
 10
24.014264
 20
87.843705
 30
0.0
  0
ENDBLK
  8
0
  0
BLOCK
  8
0
  2
*D5
 70
    65
 10
0.0
 20
0.0
 30
0.0
  3
*D
  0
LINE
  8
0
  6
BYBLOCK
 62
     0
 10
31.202264
 20
76.14569
 30
0.0
 11
31.202264
 21
90.087705
 31
0.0
  0
LINE
  8
0
  6
BYBLOCK
 62
     0
 10
28.452264
 20
76.14569
 30
0.0
 11
28.452264
 21
90.087705
 31
0.0
  0
LINE
  8
0
  6
BYBLOCK
 62
     0
 10
32.282264
 20
89.529705
 30
0.0
 11
33.362264
 21
89.529705
 31
0.0
  0
LINE
  8
0
  6
BYBLOCK
 62
     0
 10
27.372264
 20
89.529705
 30
0.0
 11
26.292264
 21
89.529705
 31
0.0
  0
SOLID
  8
0
  6
BYBLOCK
 62
     0
 10
32.282264
 20
89.709705
 30
0.0
 11
32.282264
 21
89.349705
 31
0.0
 12
31.202264
 22
89.529705
 32
0.0
 13
31.202264
 23
89.529705
 33
0.0
  0
SOLID
  8
0
  6
BYBLOCK
 62
     0
 10
27.372264
 20
89.709705
 30
0.0
 11
27.372264
 21
89.349705
 31
0.0
 12
28.452264
 22
89.529705
 32
0.0
 13
28.452264
 23
89.529705
 33
0.0
  0
TEXT
  8
0
  6
BYBLOCK
 62
     0
 10
28.749139
 20
89.154705
 30
0.0
 40
0.75
  1
2.750
 41
0.75
  7
TXT
 72
     1
 11
29.827264
 21
89.529705
 31
0.0
 73
     2
  0
POINT
  8
DEFPOINTS
  6
BYBLOCK
 62
     0
 10
31.202264
 20
75.76769
 30
0.0
  0
POINT
  8
DEFPOINTS
  6
BYBLOCK
 62
     0
 10
28.452264
 20
75.76769
 30
0.0
  0
POINT
  8
DEFPOINTS
  6
BYBLOCK
 62
     0
 10
28.452264
 20
89.529705
 30
0.0
  0
ENDBLK
  8
0
  0
BLOCK
  8
0
  2
*D6
 70
    65
 10
0.0
 20
0.0
 30
0.0
  3
*D
  0
LINE
  8
0
  6
BYBLOCK
 62
     0
 10
39.295014
 20
76.14569
 30
0.0
 11
39.295014
 21
91.773705
 31
0.0
  0
LINE
  8
0
  6
BYBLOCK
 62
     0
 10
36.545014
 20
76.14569
 30
0.0
 11
36.545014
 21
91.773705
 31
0.0
  0
LINE
  8
0
  6
BYBLOCK
 62
     0
 10
40.375014
 20
91.215705
 30
0.0
 11
41.455014
 21
91.215705
 31
0.0
  0
LINE
  8
0
  6
BYBLOCK
 62
     0
 10
35.465014
 20
91.215705
 30
0.0
 11
34.385014
 21
91.215705
 31
0.0
  0
SOLID
  8
0
  6
BYBLOCK
 62
     0
 10
40.375014
 20
91.395705
 30
0.0
 11
40.375014
 21
91.035705
 31
0.0
 12
39.295014
 22
91.215705
 32
0.0
 13
39.295014
 23
91.215705
 33
0.0
  0
SOLID
  8
0
  6
BYBLOCK
 62
     0
 10
35.465014
 20
91.395705
 30
0.0
 11
35.465014
 21
91.035705
 31
0.0
 12
36.545014
 22
91.215705
 32
0.0
 13
36.545014
 23
91.215705
 33
0.0
  0
TEXT
  8
0
  6
BYBLOCK
 62
     0
 10
36.841889
 20
90.840705
 30
0.0
 40
0.75
  1
2.750
 41
0.75
  7
TXT
 72
     1
 11
37.920014
 21
91.215705
 31
0.0
 73
     2
  0
POINT
  8
DEFPOINTS
  6
BYBLOCK
 62
     0
 10
39.295014
 20
75.76769
 30
0.0
  0
POINT
  8
DEFPOINTS
  6
BYBLOCK
 62
     0
 10
36.545014
 20
75.76769
 30
0.0
  0
POINT
  8
DEFPOINTS
  6
BYBLOCK
 62
     0
 10
36.545014
 20
91.215705
 30
0.0
  0
ENDBLK
  8
0
  0
BLOCK
  8
0
  2
*D7
 70
    65
 10
0.0
 20
0.0
 30
0.0
  3
*D
  0
LINE
  8
0
  6
BYBLOCK
 62
     0
 10
44.635764
 20
76.14569
 30
0.0
 11
44.635764
 21
90.087705
 31
0.0
  0
LINE
  8
0
  6
BYBLOCK
 62
     0
 10
47.385764
 20
76.14569
 30
0.0
 11
47.385764
 21
90.087705
 31
0.0
  0
LINE
  8
0
  6
BYBLOCK
 62
     0
 10
43.555764
 20
89.529705
 30
0.0
 11
42.475764
 21
89.529705
 31
0.0
  0
LINE
  8
0
  6
BYBLOCK
 62
     0
 10
48.465764
 20
89.529705
 30
0.0
 11
49.545764
 21
89.529705
 31
0.0
  0
SOLID
  8
0
  6
BYBLOCK
 62
     0
 10
43.555764
 20
89.709705
 30
0.0
 11
43.555764
 21
89.349705
 31
0.0
 12
44.635764
 22
89.529705
 32
0.0
 13
44.635764
 23
89.529705
 33
0.0
  0
SOLID
  8
0
  6
BYBLOCK
 62
     0
 10
48.465764
 20
89.709705
 30
0.0
 11
48.465764
 21
89.349705
 31
0.0
 12
47.385764
 22
89.529705
 32
0.0
 13
47.385764
 23
89.529705
 33
0.0
  0
TEXT
  8
0
  6
BYBLOCK
 62
     0
 10
44.932639
 20
89.154705
 30
0.0
 40
0.75
  1
2.750
 41
0.75
  7
TXT
 72
     1
 11
46.010764
 21
89.529705
 31
0.0
 73
     2
  0
POINT
  8
DEFPOINTS
  6
BYBLOCK
 62
     0
 10
44.635764
 20
75.76769
 30
0.0
  0
POINT
  8
DEFPOINTS
  6
BYBLOCK
 62
     0
 10
47.385764
 20
75.76769
 30
0.0
  0
POINT
  8
DEFPOINTS
  6
BYBLOCK
 62
     0
 10
47.385764
 20
89.529705
 30
0.0
  0
ENDBLK
  8
0
  0
BLOCK
  8
0
  2
*D8
 70
    65
 10
0.0
 20
0.0
 30
0.0
  3
*D
  0
LINE
  8
0
  6
BYBLOCK
 62
     0
 10
49.073764
 20
76.14569
 30
0.0
 11
49.073764
 21
88.401705
 31
0.0
  0
LINE
  8
0
  6
BYBLOCK
 62
     0
 10
51.823764
 20
76.14569
 30
0.0
 11
51.823764
 21
88.401705
 31
0.0
  0
LINE
  8
0
  6
BYBLOCK
 62
     0
 10
47.993764
 20
87.843705
 30
0.0
 11
46.913764
 21
87.843705
 31
0.0
  0
LINE
  8
0
  6
BYBLOCK
 62
     0
 10
52.903764
 20
87.843705
 30
0.0
 11
53.983764
 21
87.843705
 31
0.0
  0
SOLID
  8
0
  6
BYBLOCK
 62
     0
 10
47.993764
 20
88.023705
 30
0.0
 11
47.993764
 21
87.663705
 31
0.0
 12
49.073764
 22
87.843705
 32
0.0
 13
49.073764
 23
87.843705
 33
0.0
  0
SOLID
  8
0
  6
BYBLOCK
 62
     0
 10
52.903764
 20
88.023705
 30
0.0
 11
52.903764
 21
87.663705
 31
0.0
 12
51.823764
 22
87.843705
 32
0.0
 13
51.823764
 23
87.843705
 33
0.0
  0
TEXT
  8
0
  6
BYBLOCK
 62
     0
 10
49.370639
 20
87.468705
 30
0.0
 40
0.75
  1
2.750
 41
0.75
  7
TXT
 72
     1
 11
50.448764
 21
87.843705
 31
0.0
 73
     2
  0
POINT
  8
DEFPOINTS
  6
BYBLOCK
 62
     0
 10
49.073764
 20
75.76769
 30
0.0
  0
POINT
  8
DEFPOINTS
  6
BYBLOCK
 62
     0
 10
51.823764
 20
75.76769
 30
0.0
  0
POINT
  8
DEFPOINTS
  6
BYBLOCK
 62
     0
 10
51.823764
 20
87.843705
 30
0.0
  0
ENDBLK
  8
0
  0
BLOCK
  8
0
  2
*D9
 70
    65
 10
0.0
 20
0.0
 30
0.0
  3
*D
  0
LINE
  8
0
  6
BYBLOCK
 62
     0
 10
56.733014
 20
76.14569
 30
0.0
 11
56.733014
 21
86.715705
 31
0.0
  0
LINE
  8
0
  6
BYBLOCK
 62
     0
 10
59.483014
 20
76.14569
 30
0.0
 11
59.483014
 21
86.715705
 31
0.0
  0
LINE
  8
0
  6
BYBLOCK
 62
     0
 10
55.653014
 20
86.157705
 30
0.0
 11
54.573014
 21
86.157705
 31
0.0
  0
LINE
  8
0
  6
BYBLOCK
 62
     0
 10
60.563014
 20
86.157705
 30
0.0
 11
61.643014
 21
86.157705
 31
0.0
  0
SOLID
  8
0
  6
BYBLOCK
 62
     0
 10
55.653014
 20
86.337705
 30
0.0
 11
55.653014
 21
85.977705
 31
0.0
 12
56.733014
 22
86.157705
 32
0.0
 13
56.733014
 23
86.157705
 33
0.0
  0
SOLID
  8
0
  6
BYBLOCK
 62
     0
 10
60.563014
 20
86.337705
 30
0.0
 11
60.563014
 21
85.977705
 31
0.0
 12
59.483014
 22
86.157705
 32
0.0
 13
59.483014
 23
86.157705
 33
0.0
  0
TEXT
  8
0
  6
BYBLOCK
 62
     0
 10
57.029889
 20
85.782705
 30
0.0
 40
0.75
  1
2.750
 41
0.75
  7
TXT
 72
     1
 11
58.108014
 21
86.157705
 31
0.0
 73
     2
  0
POINT
  8
DEFPOINTS
  6
BYBLOCK
 62
     0
 10
56.733014
 20
75.76769
 30
0.0
  0
POINT
  8
DEFPOINTS
  6
BYBLOCK
 62
     0
 10
59.483014
 20
75.76769
 30
0.0
  0
POINT
  8
DEFPOINTS
  6
BYBLOCK
 62
     0
 10
59.483014
 20
86.157705
 30
0.0
  0
ENDBLK
  8
0
  0
BLOCK
  8
0
  2
*D10
 70
    65
 10
0.0
 20
0.0
 30
0.0
  3
*D
  0
LINE
  8
0
  6
BYBLOCK
 62
     0
 10
85.210879
 20
75.702925
 30
0.0
 11
82.357279
 21
75.702925
 31
0.0
  0
LINE
  8
0
  6
BYBLOCK
 62
     0
 10
85.210879
 20
74.202925
 30
0.0
 11
82.357279
 21
74.202925
 31
0.0
  0
LINE
  8
0
  6
BYBLOCK
 62
     0
 10
82.915279
 20
76.782925
 30
0.0
 11
82.915279
 21
77.862925
 31
0.0
  0
LINE
  8
0
  6
BYBLOCK
 62
     0
 10
82.915279
 20
73.122925
 30
0.0
 11
82.915279
 21
72.042925
 31
0.0
  0
SOLID
  8
0
  6
BYBLOCK
 62
     0
 10
82.735279
 20
76.782925
 30
0.0
 11
83.095279
 21
76.782925
 31
0.0
 12
82.915279
 22
75.702925
 32
0.0
 13
82.915279
 23
75.702925
 33
0.0
  0
SOLID
  8
0
  6
BYBLOCK
 62
     0
 10
82.735279
 20
73.122925
 30
0.0
 11
83.095279
 21
73.122925
 31
0.0
 12
82.915279
 22
74.202925
 32
0.0
 13
82.915279
 23
74.202925
 33
0.0
  0
TEXT
  8
0
  6
BYBLOCK
 62
     0
 10
81.977779
 20
74.577925
 30
0.0
 40
0.75
  1
1.500
 41
0.75
  7
TXT
 72
     1
 11
82.915279
 21
74.952925
 31
0.0
 73
     2
  0
POINT
  8
DEFPOINTS
  6
BYBLOCK
 62
     0
 10
85.588879
 20
75.702925
 30
0.0
  0
POINT
  8
DEFPOINTS
  6
BYBLOCK
 62
     0
 10
85.588879
 20
74.202925
 30
0.0
  0
POINT
  8
DEFPOINTS
  6
BYBLOCK
 62
     0
 10
82.915279
 20
74.202925
 30
0.0
  0
ENDBLK
  8
0
  0
BLOCK
  8
0
  2
*D11
 70
    65
 10
0.0
 20
0.0
 30
0.0
  3
*D
  0
LINE
  8
0
  6
BYBLOCK
 62
     0
 10
6.558168
 20
10.52256
 30
0.0
 11
4.792552
 21
10.52256
 31
0.0
  0
LINE
  8
0
  6
BYBLOCK
 62
     0
 10
7.058168
 20
10.14756
 30
0.0
 11
4.792552
 21
10.14756
 31
0.0
  0
LINE
  8
0
  6
BYBLOCK
 62
     0
 10
5.350552
 20
11.60256
 30
0.0
 11
5.350552
 21
12.68256
 31
0.0
  0
LINE
  8
0
  6
BYBLOCK
 62
     0
 10
5.350552
 20
9.06756
 30
0.0
 11
5.350552
 21
7.98756
 31
0.0
  0
LINE
  8
0
  6
BYBLOCK
 62
     0
 10
5.350552
 20
7.98756
 30
0.0
 11
4.270552
 21
7.98756
 31
0.0
  0
SOLID
  8
0
  6
BYBLOCK
 62
     0
 10
5.170552
 20
11.60256
 30
0.0
 11
5.530552
 21
11.60256
 31
0.0
 12
5.350552
 22
10.52256
 32
0.0
 13
5.350552
 23
10.52256
 33
0.0
  0
SOLID
  8
0
  6
BYBLOCK
 62
     0
 10
5.170552
 20
9.06756
 30
0.0
 11
5.530552
 21
9.06756
 31
0.0
 12
5.350552
 22
10.14756
 32
0.0
 13
5.350552
 23
10.14756
 33
0.0
  0
TEXT
  8
0
  6
BYBLOCK
 62
     0
 10
1.761802
 20
7.61256
 30
0.0
 40
0.75
  1
0.188
 41
0.75
  7
TXT
 72
     1
 11
2.746177
 21
7.98756
 31
0.0
 73
     2
  0
POINT
  8
DEFPOINTS
  6
BYBLOCK
 62
     0
 10
6.936168
 20
10.52256
 30
0.0
  0
POINT
  8
DEFPOINTS
  6
BYBLOCK
 62
     0
 10
7.436168
 20
10.14756
 30
0.0
  0
POINT
  8
DEFPOINTS
  6
BYBLOCK
 62
     0
 10
5.350552
 20
10.14756
 30
0.0
  0
ENDBLK
  8
0
  0
BLOCK
  8
0
  2
*D12
 70
    65
 10
0.0
 20
0.0
 30
0.0
  3
*D
  0
LINE
  8
0
  6
BYBLOCK
 62
     0
 10
22.990139
 20
9.478103
 30
0.0
 11
20.684542
 21
9.478103
 31
0.0
  0
LINE
  8
0
  6
BYBLOCK
 62
     0
 10
22.490139
 20
8.978103
 30
0.0
 11
20.684542
 21
8.978103
 31
0.0
  0
LINE
  8
0
  6
BYBLOCK
 62
     0
 10
21.242542
 20
10.558103
 30
0.0
 11
21.242542
 21
11.638103
 31
0.0
  0
LINE
  8
0
  6
BYBLOCK
 62
     0
 10
21.242542
 20
7.898103
 30
0.0
 11
21.242542
 21
6.818103
 31
0.0
  0
LINE
  8
0
  6
BYBLOCK
 62
     0
 10
21.242542
 20
6.818103
 30
0.0
 11
20.162542
 21
6.818103
 31
0.0
  0
SOLID
  8
0
  6
BYBLOCK
 62
     0
 10
21.062542
 20
10.558103
 30
0.0
 11
21.422542
 21
10.558103
 31
0.0
 12
21.242542
 22
9.478103
 32
0.0
 13
21.242542
 23
9.478103
 33
0.0
  0
SOLID
  8
0
  6
BYBLOCK
 62
     0
 10
21.062542
 20
7.898103
 30
0.0
 11
21.422542
 21
7.898103
 31
0.0
 12
21.242542
 22
8.978103
 32
0.0
 13
21.242542
 23
8.978103
 33
0.0
  0
TEXT
  8
0
  6
BYBLOCK
 62
     0
 10
17.560042
 20
6.443103
 30
0.0
 40
0.75
  1
0.250
 41
0.75
  7
TXT
 72
     1
 11
18.591292
 21
6.818103
 31
0.0
 73
     2
  0
POINT
  8
DEFPOINTS
  6
BYBLOCK
 62
     0
 10
23.368139
 20
9.478103
 30
0.0
  0
POINT
  8
DEFPOINTS
  6
BYBLOCK
 62
     0
 10
22.868139
 20
8.978103
 30
0.0
  0
POINT
  8
DEFPOINTS
  6
BYBLOCK
 62
     0
 10
21.242542
 20
8.978103
 30
0.0
  0
ENDBLK
  8
0
  0
BLOCK
  8
0
  2
*D13
 70
    65
 10
0.0
 20
0.0
 30
0.0
  3
*D
  0
LINE
  8
0
  6
BYBLOCK
 62
     0
 10
23.368139
 20
9.100103
 30
0.0
 11
23.368139
 21
2.051909
 31
0.0
  0
LINE
  8
0
  6
BYBLOCK
 62
     0
 10
22.868139
 20
8.725103
 30
0.0
 11
22.868139
 21
2.051909
 31
0.0
  0
LINE
  8
0
  6
BYBLOCK
 62
     0
 10
24.448139
 20
2.609909
 30
0.0
 11
25.528139
 21
2.609909
 31
0.0
  0
LINE
  8
0
  6
BYBLOCK
 62
     0
 10
21.788139
 20
2.609909
 30
0.0
 11
20.708139
 21
2.609909
 31
0.0
  0
SOLID
  8
0
  6
BYBLOCK
 62
     0
 10
24.448139
 20
2.789909
 30
0.0
 11
24.448139
 21
2.429909
 31
0.0
 12
23.368139
 22
2.609909
 32
0.0
 13
23.368139
 23
2.609909
 33
0.0
  0
SOLID
  8
0
  6
BYBLOCK
 62
     0
 10
21.788139
 20
2.789909
 30
0.0
 11
21.788139
 21
2.429909
 31
0.0
 12
22.868139
 22
2.609909
 32
0.0
 13
22.868139
 23
2.609909
 33
0.0
  0
TEXT
  8
0
  6
BYBLOCK
 62
     0
 10
18.105639
 20
2.234909
 30
0.0
 40
0.75
  1
0.250
 41
0.75
  7
TXT
 72
     1
 11
19.136889
 21
2.609909
 31
0.0
 73
     2
  0
POINT
  8
DEFPOINTS
  6
BYBLOCK
 62
     0
 10
23.368139
 20
9.478103
 30
0.0
  0
POINT
  8
DEFPOINTS
  6
BYBLOCK
 62
     0
 10
22.868139
 20
9.103103
 30
0.0
  0
POINT
  8
DEFPOINTS
  6
BYBLOCK
 62
     0
 10
22.868139
 20
2.609909
 30
0.0
  0
ENDBLK
  8
0
  0
BLOCK
  8
0
  2
*D14
 70
    65
 10
0.0
 20
0.0
 30
0.0
  3
*D
  0
LINE
  8
0
  6
BYBLOCK
 62
     0
 10
23.368139
 20
9.100103
 30
0.0
 11
23.368139
 21
3.737909
 31
0.0
  0
LINE
  8
0
  6
BYBLOCK
 62
     0
 10
24.618139
 20
9.100103
 30
0.0
 11
24.618139
 21
3.737909
 31
0.0
  0
LINE
  8
0
  6
BYBLOCK
 62
     0
 10
22.288139
 20
4.295909
 30
0.0
 11
21.208139
 21
4.295909
 31
0.0
  0
LINE
  8
0
  6
BYBLOCK
 62
     0
 10
25.698139
 20
4.295909
 30
0.0
 11
26.778139
 21
4.295909
 31
0.0
  0
SOLID
  8
0
  6
BYBLOCK
 62
     0
 10
22.288139
 20
4.475909
 30
0.0
 11
22.288139
 21
4.115909
 31
0.0
 12
23.368139
 22
4.295909
 32
0.0
 13
23.368139
 23
4.295909
 33
0.0
  0
SOLID
  8
0
  6
BYBLOCK
 62
     0
 10
25.698139
 20
4.475909
 30
0.0
 11
25.698139
 21
4.115909
 31
0.0
 12
24.618139
 22
4.295909
 32
0.0
 13
24.618139
 23
4.295909
 33
0.0
  0
TEXT
  8
0
  6
BYBLOCK
 62
     0
 10
27.318139
 20
3.920909
 30
0.0
 40
0.75
  1
0.625
 41
0.75
  7
TXT
 72
     1
 11
28.396264
 21
4.295909
 31
0.0
 73
     2
  0
POINT
  8
DEFPOINTS
  6
BYBLOCK
 62
     0
 10
23.368139
 20
9.478103
 30
0.0
  0
POINT
  8
DEFPOINTS
  6
BYBLOCK
 62
     0
 10
24.618139
 20
9.478103
 30
0.0
  0
POINT
  8
DEFPOINTS
  6
BYBLOCK
 62
     0
 10
24.618139
 20
4.295909
 30
0.0
  0
ENDBLK
  8
0
  0
BLOCK
  8
0
  2
*D15
 70
    65
 10
0.0
 20
0.0
 30
0.0
  3
*D
  0
LINE
  8
0
  6
BYBLOCK
 62
     0
 10
24.618139
 20
9.100103
 30
0.0
 11
24.618139
 21
5.423909
 31
0.0
  0
LINE
  8
0
  6
BYBLOCK
 62
     0
 10
25.868139
 20
9.100103
 30
0.0
 11
25.868139
 21
5.423909
 31
0.0
  0
LINE
  8
0
  6
BYBLOCK
 62
     0
 10
23.538139
 20
5.981909
 30
0.0
 11
22.458139
 21
5.981909
 31
0.0
  0
LINE
  8
0
  6
BYBLOCK
 62
     0
 10
26.948139
 20
5.981909
 30
0.0
 11
28.028139
 21
5.981909
 31
0.0
  0
SOLID
  8
0
  6
BYBLOCK
 62
     0
 10
23.538139
 20
6.161909
 30
0.0
 11
23.538139
 21
5.801909
 31
0.0
 12
24.618139
 22
5.981909
 32
0.0
 13
24.618139
 23
5.981909
 33
0.0
  0
SOLID
  8
0
  6
BYBLOCK
 62
     0
 10
26.948139
 20
6.161909
 30
0.0
 11
26.948139
 21
5.801909
 31
0.0
 12
25.868139
 22
5.981909
 32
0.0
 13
25.868139
 23
5.981909
 33
0.0
  0
TEXT
  8
0
  6
BYBLOCK
 62
     0
 10
28.568139
 20
5.606909
 30
0.0
 40
0.75
  1
0.625
 41
0.75
  7
TXT
 72
     1
 11
29.646264
 21
5.981909
 31
0.0
 73
     2
  0
POINT
  8
DEFPOINTS
  6
BYBLOCK
 62
     0
 10
24.618139
 20
9.478103
 30
0.0
  0
POINT
  8
DEFPOINTS
  6
BYBLOCK
 62
     0
 10
25.868139
 20
9.478103
 30
0.0
  0
POINT
  8
DEFPOINTS
  6
BYBLOCK
 62
     0
 10
25.868139
 20
5.981909
 30
0.0
  0
ENDBLK
  8
0
  0
BLOCK
  8
0
  2
*D16
 70
    65
 10
0.0
 20
0.0
 30
0.0
  3
*D
  0
LINE
  8
0
  6
BYBLOCK
 62
     0
 10
25.868139
 20
9.100103
 30
0.0
 11
25.868139
 21
7.109909
 31
0.0
  0
LINE
  8
0
  6
BYBLOCK
 62
     0
 10
26.868139
 20
9.100103
 30
0.0
 11
26.868139
 21
7.109909
 31
0.0
  0
LINE
  8
0
  6
BYBLOCK
 62
     0
 10
24.788139
 20
7.667909
 30
0.0
 11
23.708139
 21
7.667909
 31
0.0
  0
LINE
  8
0
  6
BYBLOCK
 62
     0
 10
27.948139
 20
7.667909
 30
0.0
 11
29.028139
 21
7.667909
 31
0.0
  0
SOLID
  8
0
  6
BYBLOCK
 62
     0
 10
24.788139
 20
7.847909
 30
0.0
 11
24.788139
 21
7.487909
 31
0.0
 12
25.868139
 22
7.667909
 32
0.0
 13
25.868139
 23
7.667909
 33
0.0
  0
SOLID
  8
0
  6
BYBLOCK
 62
     0
 10
27.948139
 20
7.847909
 30
0.0
 11
27.948139
 21
7.487909
 31
0.0
 12
26.868139
 22
7.667909
 32
0.0
 13
26.868139
 23
7.667909
 33
0.0
  0
TEXT
  8
0
  6
BYBLOCK
 62
     0
 10
29.568139
 20
7.292909
 30
0.0
 40
0.75
  1
0.500
 41
0.75
  7
TXT
 72
     1
 11
30.552514
 21
7.667909
 31
0.0
 73
     2
  0
POINT
  8
DEFPOINTS
  6
BYBLOCK
 62
     0
 10
25.868139
 20
9.478103
 30
0.0
  0
POINT
  8
DEFPOINTS
  6
BYBLOCK
 62
     0
 10
26.868139
 20
9.478103
 30
0.0
  0
POINT
  8
DEFPOINTS
  6
BYBLOCK
 62
     0
 10
26.868139
 20
7.667909
 30
0.0
  0
ENDBLK
  8
0
  0
BLOCK
  8
0
  2
*D17
 70
    65
 10
0.0
 20
0.0
 30
0.0
  3
*D
  0
LINE
  8
0
  6
BYBLOCK
 62
     0
 10
9.936168
 20
10.52556
 30
0.0
 11
9.936168
 21
12.169929
 31
0.0
  0
LINE
  8
0
  6
BYBLOCK
 62
     0
 10
10.936168
 20
10.52556
 30
0.0
 11
10.936168
 21
12.169929
 31
0.0
  0
LINE
  8
0
  6
BYBLOCK
 62
     0
 10
8.856168
 20
11.611929
 30
0.0
 11
7.776168
 21
11.611929
 31
0.0
  0
LINE
  8
0
  6
BYBLOCK
 62
     0
 10
12.016168
 20
11.611929
 30
0.0
 11
13.096168
 21
11.611929
 31
0.0
  0
SOLID
  8
0
  6
BYBLOCK
 62
     0
 10
8.856168
 20
11.791929
 30
0.0
 11
8.856168
 21
11.431929
 31
0.0
 12
9.936168
 22
11.611929
 32
0.0
 13
9.936168
 23
11.611929
 33
0.0
  0
SOLID
  8
0
  6
BYBLOCK
 62
     0
 10
12.016168
 20
11.791929
 30
0.0
 11
12.016168
 21
11.431929
 31
0.0
 12
10.936168
 22
11.611929
 32
0.0
 13
10.936168
 23
11.611929
 33
0.0
  0
TEXT
  8
0
  6
BYBLOCK
 62
     0
 10
13.636168
 20
11.236929
 30
0.0
 40
0.75
  1
0.500
 41
0.75
  7
TXT
 72
     1
 11
14.620543
 21
11.611929
 31
0.0
 73
     2
  0
POINT
  8
DEFPOINTS
  6
BYBLOCK
 62
     0
 10
9.936168
 20
10.14756
 30
0.0
  0
POINT
  8
DEFPOINTS
  6
BYBLOCK
 62
     0
 10
10.936168
 20
10.14756
 30
0.0
  0
POINT
  8
DEFPOINTS
  6
BYBLOCK
 62
     0
 10
10.936168
 20
11.611929
 30
0.0
  0
ENDBLK
  8
0
  0
BLOCK
  8
0
  2
*D18
 70
    65
 10
0.0
 20
0.0
 30
0.0
  3
*D
  0
LINE
  8
0
  6
BYBLOCK
 62
     0
 10
8.686168
 20
10.52556
 30
0.0
 11
8.686168
 21
13.855929
 31
0.0
  0
LINE
  8
0
  6
BYBLOCK
 62
     0
 10
9.936168
 20
10.52556
 30
0.0
 11
9.936168
 21
13.855929
 31
0.0
  0
LINE
  8
0
  6
BYBLOCK
 62
     0
 10
7.606168
 20
13.297929
 30
0.0
 11
6.526168
 21
13.297929
 31
0.0
  0
LINE
  8
0
  6
BYBLOCK
 62
     0
 10
11.016168
 20
13.297929
 30
0.0
 11
12.096168
 21
13.297929
 31
0.0
  0
SOLID
  8
0
  6
BYBLOCK
 62
     0
 10
7.606168
 20
13.477929
 30
0.0
 11
7.606168
 21
13.117929
 31
0.0
 12
8.686168
 22
13.297929
 32
0.0
 13
8.686168
 23
13.297929
 33
0.0
  0
SOLID
  8
0
  6
BYBLOCK
 62
     0
 10
11.016168
 20
13.477929
 30
0.0
 11
11.016168
 21
13.117929
 31
0.0
 12
9.936168
 22
13.297929
 32
0.0
 13
9.936168
 23
13.297929
 33
0.0
  0
TEXT
  8
0
  6
BYBLOCK
 62
     0
 10
12.636168
 20
12.922929
 30
0.0
 40
0.75
  1
0.625
 41
0.75
  7
TXT
 72
     1
 11
13.714293
 21
13.297929
 31
0.0
 73
     2
  0
POINT
  8
DEFPOINTS
  6
BYBLOCK
 62
     0
 10
8.686168
 20
10.14756
 30
0.0
  0
POINT
  8
DEFPOINTS
  6
BYBLOCK
 62
     0
 10
9.936168
 20
10.14756
 30
0.0
  0
POINT
  8
DEFPOINTS
  6
BYBLOCK
 62
     0
 10
9.936168
 20
13.297929
 30
0.0
  0
ENDBLK
  8
0
  0
BLOCK
  8
0
  2
*D19
 70
    65
 10
0.0
 20
0.0
 30
0.0
  3
*D
  0
LINE
  8
0
  6
BYBLOCK
 62
     0
 10
7.436168
 20
10.52556
 30
0.0
 11
7.436168
 21
15.541929
 31
0.0
  0
LINE
  8
0
  6
BYBLOCK
 62
     0
 10
8.686168
 20
10.52556
 30
0.0
 11
8.686168
 21
15.541929
 31
0.0
  0
LINE
  8
0
  6
BYBLOCK
 62
     0
 10
6.356168
 20
14.983929
 30
0.0
 11
5.276168
 21
14.983929
 31
0.0
  0
LINE
  8
0
  6
BYBLOCK
 62
     0
 10
9.766168
 20
14.983929
 30
0.0
 11
10.846168
 21
14.983929
 31
0.0
  0
SOLID
  8
0
  6
BYBLOCK
 62
     0
 10
6.356168
 20
15.163929
 30
0.0
 11
6.356168
 21
14.803929
 31
0.0
 12
7.436168
 22
14.983929
 32
0.0
 13
7.436168
 23
14.983929
 33
0.0
  0
SOLID
  8
0
  6
BYBLOCK
 62
     0
 10
9.766168
 20
15.163929
 30
0.0
 11
9.766168
 21
14.803929
 31
0.0
 12
8.686168
 22
14.983929
 32
0.0
 13
8.686168
 23
14.983929
 33
0.0
  0
TEXT
  8
0
  6
BYBLOCK
 62
     0
 10
11.386168
 20
14.608929
 30
0.0
 40
0.75
  1
0.625
 41
0.75
  7
TXT
 72
     1
 11
12.464293
 21
14.983929
 31
0.0
 73
     2
  0
POINT
  8
DEFPOINTS
  6
BYBLOCK
 62
     0
 10
7.436168
 20
10.14756
 30
0.0
  0
POINT
  8
DEFPOINTS
  6
BYBLOCK
 62
     0
 10
8.686168
 20
10.14756
 30
0.0
  0
POINT
  8
DEFPOINTS
  6
BYBLOCK
 62
     0
 10
8.686168
 20
14.983929
 30
0.0
  0
ENDBLK
  8
0
  0
BLOCK
  8
0
  2
*D20
 70
    65
 10
0.0
 20
0.0
 30
0.0
  3
*D
  0
LINE
  8
0
  6
BYBLOCK
 62
     0
 10
7.436168
 20
10.52556
 30
0.0
 11
7.436168
 21
17.227929
 31
0.0
  0
LINE
  8
0
  6
BYBLOCK
 62
     0
 10
6.936168
 20
10.90056
 30
0.0
 11
6.936168
 21
17.227929
 31
0.0
  0
LINE
  8
0
  6
BYBLOCK
 62
     0
 10
8.516168
 20
16.669929
 30
0.0
 11
9.596168
 21
16.669929
 31
0.0
  0
LINE
  8
0
  6
BYBLOCK
 62
     0
 10
5.856168
 20
16.669929
 30
0.0
 11
4.776168
 21
16.669929
 31
0.0
  0
SOLID
  8
0
  6
BYBLOCK
 62
     0
 10
8.516168
 20
16.849929
 30
0.0
 11
8.516168
 21
16.489929
 31
0.0
 12
7.436168
 22
16.669929
 32
0.0
 13
7.436168
 23
16.669929
 33
0.0
  0
SOLID
  8
0
  6
BYBLOCK
 62
     0
 10
5.856168
 20
16.849929
 30
0.0
 11
5.856168
 21
16.489929
 31
0.0
 12
6.936168
 22
16.669929
 32
0.0
 13
6.936168
 23
16.669929
 33
0.0
  0
TEXT
  8
0
  6
BYBLOCK
 62
     0
 10
2.173668
 20
16.294929
 30
0.0
 40
0.75
  1
0.250
 41
0.75
  7
TXT
 72
     1
 11
3.204918
 21
16.669929
 31
0.0
 73
     2
  0
POINT
  8
DEFPOINTS
  6
BYBLOCK
 62
     0
 10
7.436168
 20
10.14756
 30
0.0
  0
POINT
  8
DEFPOINTS
  6
BYBLOCK
 62
     0
 10
6.936168
 20
10.52256
 30
0.0
  0
POINT
  8
DEFPOINTS
  6
BYBLOCK
 62
     0
 10
6.936168
 20
16.669929
 30
0.0
  0
ENDBLK
  8
0
  0
BLOCK
  8
0
  2
*D21
 70
    65
 10
0.0
 20
0.0
 30
0.0
  3
*D
  0
LINE
  8
0
  6
BYBLOCK
 62
     0
 10
76.77165
 20
27.664469
 30
0.0
 11
76.77165
 21
43.292484
 31
0.0
  0
LINE
  8
0
  6
BYBLOCK
 62
     0
 10
43.48865
 20
27.664469
 30
0.0
 11
43.48865
 21
43.292484
 31
0.0
  0
LINE
  8
0
  6
BYBLOCK
 62
     0
 10
75.69165
 20
42.734484
 30
0.0
 11
61.23265
 21
42.734484
 31
0.0
  0
LINE
  8
0
  6
BYBLOCK
 62
     0
 10
44.56865
 20
42.734484
 30
0.0
 11
59.02765
 21
42.734484
 31
0.0
  0
SOLID
  8
0
  6
BYBLOCK
 62
     0
 10
75.69165
 20
42.914484
 30
0.0
 11
75.69165
 21
42.554484
 31
0.0
 12
76.77165
 22
42.734484
 32
0.0
 13
76.77165
 23
42.734484
 33
0.0
  0
SOLID
  8
0
  6
BYBLOCK
 62
     0
 10
44.56865
 20
42.914484
 30
0.0
 11
44.56865
 21
42.554484
 31
0.0
 12
43.48865
 22
42.734484
 32
0.0
 13
43.48865
 23
42.734484
 33
0.0
  0
TEXT
  8
0
  6
BYBLOCK
 62
     0
 10
59.56765
 20
42.359484
 30
0.0
 40
0.75
  1
  
 41
0.75
  7
TXT
 72
     1
 11
60.13015
 21
42.734484
 31
0.0
 73
     2
  0
POINT
  8
DEFPOINTS
  6
BYBLOCK
 62
     0
 10
76.77165
 20
27.286469
 30
0.0
  0
POINT
  8
DEFPOINTS
  6
BYBLOCK
 62
     0
 10
43.48865
 20
27.286469
 30
0.0
  0
POINT
  8
DEFPOINTS
  6
BYBLOCK
 62
     0
 10
43.48865
 20
42.734484
 30
0.0
  0
ENDBLK
  8
0
  0
BLOCK
  8
0
  2
*D22
 70
    65
 10
0.0
 20
0.0
 30
0.0
  3
*D
  0
LINE
  8
0
  6
BYBLOCK
 62
     0
 10
7.11465
 20
28.102969
 30
0.0
 11
7.11465
 21
44.978484
 31
0.0
  0
LINE
  8
0
  6
BYBLOCK
 62
     0
 10
77.11465
 20
28.102969
 30
0.0
 11
77.11465
 21
44.978484
 31
0.0
  0
LINE
  8
0
  6
BYBLOCK
 62
     0
 10
8.19465
 20
44.420484
 30
0.0
 11
41.01215
 21
44.420484
 31
0.0
  0
LINE
  8
0
  6
BYBLOCK
 62
     0
 10
76.03465
 20
44.420484
 30
0.0
 11
43.21715
 21
44.420484
 31
0.0
  0
SOLID
  8
0
  6
BYBLOCK
 62
     0
 10
8.19465
 20
44.600484
 30
0.0
 11
8.19465
 21
44.240484
 31
0.0
 12
7.11465
 22
44.420484
 32
0.0
 13
7.11465
 23
44.420484
 33
0.0
  0
SOLID
  8
0
  6
BYBLOCK
 62
     0
 10
76.03465
 20
44.600484
 30
0.0
 11
76.03465
 21
44.240484
 31
0.0
 12
77.11465
 22
44.420484
 32
0.0
 13
77.11465
 23
44.420484
 33
0.0
  0
TEXT
  8
0
  6
BYBLOCK
 62
     0
 10
41.55215
 20
44.045484
 30
0.0
 40
0.75
  1
  
 41
0.75
  7
TXT
 72
     1
 11
42.11465
 21
44.420484
 31
0.0
 73
     2
  0
POINT
  8
DEFPOINTS
  6
BYBLOCK
 62
     0
 10
7.11465
 20
27.724969
 30
0.0
  0
POINT
  8
DEFPOINTS
  6
BYBLOCK
 62
     0
 10
77.11465
 20
27.724969
 30
0.0
  0
POINT
  8
DEFPOINTS
  6
BYBLOCK
 62
     0
 10
77.11465
 20
44.420484
 30
0.0
  0
ENDBLK
  8
0
  0
BLOCK
  8
0
  2
*D23
 70
    65
 10
0.0
 20
0.0
 30
0.0
  3
*D
  0
LINE
  8
0
  6
BYBLOCK
 62
     0
 10
76.86465
 20
49.21067
 30
0.0
 11
76.86465
 21
46.30229
 31
0.0
  0
LINE
  8
0
  6
BYBLOCK
 62
     0
 10
7.36465
 20
49.21067
 30
0.0
 11
7.36465
 21
46.30229
 31
0.0
  0
LINE
  8
0
  6
BYBLOCK
 62
     0
 10
75.78465
 20
46.86029
 30
0.0
 11
54.09215
 21
46.86029
 31
0.0
  0
LINE
  8
0
  6
BYBLOCK
 62
     0
 10
8.44465
 20
46.86029
 30
0.0
 11
30.13715
 21
46.86029
 31
0.0
  0
SOLID
  8
0
  6
BYBLOCK
 62
     0
 10
75.78465
 20
47.04029
 30
0.0
 11
75.78465
 21
46.68029
 31
0.0
 12
76.86465
 22
46.86029
 32
0.0
 13
76.86465
 23
46.86029
 33
0.0
  0
SOLID
  8
0
  6
BYBLOCK
 62
     0
 10
8.44465
 20
47.04029
 30
0.0
 11
8.44465
 21
46.68029
 31
0.0
 12
7.36465
 22
46.86029
 32
0.0
 13
7.36465
 23
46.86029
 33
0.0
  0
TEXT
  8
0
  6
BYBLOCK
 62
     0
 10
30.67715
 20
46.48529
 30
0.0
 40
0.75
  1
(  ) HOLES ON E.I.A. UNIVERSAL SPACING  =   
 41
0.75
  7
TXT
 72
     1
 11
42.11465
 21
46.86029
 31
0.0
 73
     2
  0
POINT
  8
DEFPOINTS
  6
BYBLOCK
 62
     0
 10
76.86465
 20
49.58867
 30
0.0
  0
POINT
  8
DEFPOINTS
  6
BYBLOCK
 62
     0
 10
7.36465
 20
49.58867
 30
0.0
  0
POINT
  8
DEFPOINTS
  6
BYBLOCK
 62
     0
 10
7.36465
 20
46.86029
 30
0.0
  0
ENDBLK
  8
0
  0
BLOCK
  8
0
  2
*D24
 70
    65
 10
0.0
 20
0.0
 30
0.0
  3
*D
  0
LINE
  8
0
  6
BYBLOCK
 62
     0
 10
76.77165
 20
27.664469
 30
0.0
 11
76.77165
 21
38.234484
 31
0.0
  0
LINE
  8
0
  6
BYBLOCK
 62
     0
 10
63.67865
 20
27.664469
 30
0.0
 11
63.67865
 21
38.234484
 31
0.0
  0
LINE
  8
0
  6
BYBLOCK
 62
     0
 10
75.69165
 20
37.676484
 30
0.0
 11
71.32765
 21
37.676484
 31
0.0
  0
LINE
  8
0
  6
BYBLOCK
 62
     0
 10
64.75865
 20
37.676484
 30
0.0
 11
69.12265
 21
37.676484
 31
0.0
  0
SOLID
  8
0
  6
BYBLOCK
 62
     0
 10
75.69165
 20
37.856484
 30
0.0
 11
75.69165
 21
37.496484
 31
0.0
 12
76.77165
 22
37.676484
 32
0.0
 13
76.77165
 23
37.676484
 33
0.0
  0
SOLID
  8
0
  6
BYBLOCK
 62
     0
 10
64.75865
 20
37.856484
 30
0.0
 11
64.75865
 21
37.496484
 31
0.0
 12
63.67865
 22
37.676484
 32
0.0
 13
63.67865
 23
37.676484
 33
0.0
  0
TEXT
  8
0
  6
BYBLOCK
 62
     0
 10
69.66265
 20
37.301484
 30
0.0
 40
0.75
  1
  
 41
0.75
  7
TXT
 72
     1
 11
70.22515
 21
37.676484
 31
0.0
 73
     2
  0
POINT
  8
DEFPOINTS
  6
BYBLOCK
 62
     0
 10
76.77165
 20
27.286469
 30
0.0
  0
POINT
  8
DEFPOINTS
  6
BYBLOCK
 62
     0
 10
63.67865
 20
27.286469
 30
0.0
  0
POINT
  8
DEFPOINTS
  6
BYBLOCK
 62
     0
 10
63.67865
 20
37.676484
 30
0.0
  0
ENDBLK
  8
0
  0
BLOCK
  8
0
  2
*D25
 70
    65
 10
0.0
 20
0.0
 30
0.0
  3
*D
  0
LINE
  8
0
  6
BYBLOCK
 62
     0
 10
76.77165
 20
27.664469
 30
0.0
 11
76.77165
 21
39.920484
 31
0.0
  0
LINE
  8
0
  6
BYBLOCK
 62
     0
 10
56.0194
 20
27.664469
 30
0.0
 11
56.0194
 21
39.920484
 31
0.0
  0
LINE
  8
0
  6
BYBLOCK
 62
     0
 10
75.69165
 20
39.362484
 30
0.0
 11
67.498025
 21
39.362484
 31
0.0
  0
LINE
  8
0
  6
BYBLOCK
 62
     0
 10
57.0994
 20
39.362484
 30
0.0
 11
65.293025
 21
39.362484
 31
0.0
  0
SOLID
  8
0
  6
BYBLOCK
 62
     0
 10
75.69165
 20
39.542484
 30
0.0
 11
75.69165
 21
39.182484
 31
0.0
 12
76.77165
 22
39.362484
 32
0.0
 13
76.77165
 23
39.362484
 33
0.0
  0
SOLID
  8
0
  6
BYBLOCK
 62
     0
 10
57.0994
 20
39.542484
 30
0.0
 11
57.0994
 21
39.182484
 31
0.0
 12
56.0194
 22
39.362484
 32
0.0
 13
56.0194
 23
39.362484
 33
0.0
  0
TEXT
  8
0
  6
BYBLOCK
 62
     0
 10
65.833025
 20
38.987484
 30
0.0
 40
0.75
  1
  
 41
0.75
  7
TXT
 72
     1
 11
66.395525
 21
39.362484
 31
0.0
 73
     2
  0
POINT
  8
DEFPOINTS
  6
BYBLOCK
 62
     0
 10
76.77165
 20
27.286469
 30
0.0
  0
POINT
  8
DEFPOINTS
  6
BYBLOCK
 62
     0
 10
56.0194
 20
27.286469
 30
0.0
  0
POINT
  8
DEFPOINTS
  6
BYBLOCK
 62
     0
 10
56.0194
 20
39.362484
 30
0.0
  0
ENDBLK
  8
0
  0
BLOCK
  8
0
  2
*D26
 70
    65
 10
0.0
 20
0.0
 30
0.0
  3
*D
  0
LINE
  8
0
  6
BYBLOCK
 62
     0
 10
76.77165
 20
27.664469
 30
0.0
 11
76.77165
 21
41.606484
 31
0.0
  0
LINE
  8
0
  6
BYBLOCK
 62
     0
 10
51.5814
 20
27.664469
 30
0.0
 11
51.5814
 21
41.606484
 31
0.0
  0
LINE
  8
0
  6
BYBLOCK
 62
     0
 10
75.69165
 20
41.048484
 30
0.0
 11
65.279025
 21
41.048484
 31
0.0
  0
LINE
  8
0
  6
BYBLOCK
 62
     0
 10
52.6614
 20
41.048484
 30
0.0
 11
63.074025
 21
41.048484
 31
0.0
  0
SOLID
  8
0
  6
BYBLOCK
 62
     0
 10
75.69165
 20
41.228484
 30
0.0
 11
75.69165
 21
40.868484
 31
0.0
 12
76.77165
 22
41.048484
 32
0.0
 13
76.77165
 23
41.048484
 33
0.0
  0
SOLID
  8
0
  6
BYBLOCK
 62
     0
 10
52.6614
 20
41.228484
 30
0.0
 11
52.6614
 21
40.868484
 31
0.0
 12
51.5814
 22
41.048484
 32
0.0
 13
51.5814
 23
41.048484
 33
0.0
  0
TEXT
  8
0
  6
BYBLOCK
 62
     0
 10
63.614025
 20
40.673484
 30
0.0
 40
0.75
  1
  
 41
0.75
  7
TXT
 72
     1
 11
64.176525
 21
41.048484
 31
0.0
 73
     2
  0
POINT
  8
DEFPOINTS
  6
BYBLOCK
 62
     0
 10
76.77165
 20
27.286469
 30
0.0
  0
POINT
  8
DEFPOINTS
  6
BYBLOCK
 62
     0
 10
51.5814
 20
27.286469
 30
0.0
  0
POINT
  8
DEFPOINTS
  6
BYBLOCK
 62
     0
 10
51.5814
 20
41.048484
 30
0.0
  0
ENDBLK
  8
0
  0
BLOCK
  8
0
  2
*D27
 70
    65
 10
0.0
 20
0.0
 30
0.0
  3
*D
  0
LINE
  8
0
  6
BYBLOCK
 62
     0
 10
76.86465
 20
49.21067
 30
0.0
 11
76.86465
 21
46.30229
 31
0.0
  0
LINE
  8
0
  6
BYBLOCK
 62
     0
 10
77.1144
 20
48.77317
 30
0.0
 11
77.1144
 21
46.30229
 31
0.0
  0
LINE
  8
0
  6
BYBLOCK
 62
     0
 10
75.78465
 20
46.86029
 30
0.0
 11
74.70465
 21
46.86029
 31
0.0
  0
LINE
  8
0
  6
BYBLOCK
 62
     0
 10
78.1944
 20
46.86029
 30
0.0
 11
79.2744
 21
46.86029
 31
0.0
  0
SOLID
  8
0
  6
BYBLOCK
 62
     0
 10
75.78465
 20
47.04029
 30
0.0
 11
75.78465
 21
46.68029
 31
0.0
 12
76.86465
 22
46.86029
 32
0.0
 13
76.86465
 23
46.86029
 33
0.0
  0
SOLID
  8
0
  6
BYBLOCK
 62
     0
 10
78.1944
 20
47.04029
 30
0.0
 11
78.1944
 21
46.68029
 31
0.0
 12
77.1144
 22
46.86029
 32
0.0
 13
77.1144
 23
46.86029
 33
0.0
  0
TEXT
  8
0
  6
BYBLOCK
 62
     0
 10
79.8144
 20
46.48529
 30
0.0
 40
0.75
  1
0.250
 41
0.75
  7
TXT
 72
     1
 11
80.84565
 21
46.86029
 31
0.0
 73
     2
  0
POINT
  8
DEFPOINTS
  6
BYBLOCK
 62
     0
 10
76.86465
 20
49.58867
 30
0.0
  0
POINT
  8
DEFPOINTS
  6
BYBLOCK
 62
     0
 10
77.1144
 20
49.15117
 30
0.0
  0
POINT
  8
DEFPOINTS
  6
BYBLOCK
 62
     0
 10
77.1144
 20
46.86029
 30
0.0
  0
ENDBLK
  8
0
  0
BLOCK
  8
0
  2
*D28
 70
    65
 10
0.0
 20
0.0
 30
0.0
  3
*D
  0
LINE
  8
0
  6
BYBLOCK
 62
     0
 10
75.39665
 20
27.664469
 30
0.0
 11
75.39665
 21
34.862484
 31
0.0
  0
LINE
  8
0
  6
BYBLOCK
 62
     0
 10
72.64665
 20
27.664469
 30
0.0
 11
72.64665
 21
34.862484
 31
0.0
  0
LINE
  8
0
  6
BYBLOCK
 62
     0
 10
76.47665
 20
34.304484
 30
0.0
 11
77.55665
 21
34.304484
 31
0.0
  0
LINE
  8
0
  6
BYBLOCK
 62
     0
 10
71.56665
 20
34.304484
 30
0.0
 11
70.48665
 21
34.304484
 31
0.0
  0
SOLID
  8
0
  6
BYBLOCK
 62
     0
 10
76.47665
 20
34.484484
 30
0.0
 11
76.47665
 21
34.124484
 31
0.0
 12
75.39665
 22
34.304484
 32
0.0
 13
75.39665
 23
34.304484
 33
0.0
  0
SOLID
  8
0
  6
BYBLOCK
 62
     0
 10
71.56665
 20
34.484484
 30
0.0
 11
71.56665
 21
34.124484
 31
0.0
 12
72.64665
 22
34.304484
 32
0.0
 13
72.64665
 23
34.304484
 33
0.0
  0
TEXT
  8
0
  6
BYBLOCK
 62
     0
 10
67.7904
 20
33.929484
 30
0.0
 40
0.75
  1
2.750
 41
0.75
  7
TXT
 72
     1
 11
68.868525
 21
34.304484
 31
0.0
 73
     2
  0
POINT
  8
DEFPOINTS
  6
BYBLOCK
 62
     0
 10
75.39665
 20
27.286469
 30
0.0
  0
POINT
  8
DEFPOINTS
  6
BYBLOCK
 62
     0
 10
72.64665
 20
27.286469
 30
0.0
  0
POINT
  8
DEFPOINTS
  6
BYBLOCK
 62
     0
 10
72.64665
 20
34.304484
 30
0.0
  0
ENDBLK
  8
0
  0
BLOCK
  8
0
  2
*D29
 70
    65
 10
0.0
 20
0.0
 30
0.0
  3
*D
  0
LINE
  8
0
  6
BYBLOCK
 62
     0
 10
75.39665
 20
27.664469
 30
0.0
 11
75.39665
 21
33.176484
 31
0.0
  0
LINE
  8
0
  6
BYBLOCK
 62
     0
 10
77.11465
 20
28.102969
 30
0.0
 11
77.11465
 21
33.176484
 31
0.0
  0
LINE
  8
0
  6
BYBLOCK
 62
     0
 10
74.31665
 20
32.618484
 30
0.0
 11
73.23665
 21
32.618484
 31
0.0
  0
LINE
  8
0
  6
BYBLOCK
 62
     0
 10
78.19465
 20
32.618484
 30
0.0
 11
79.27465
 21
32.618484
 31
0.0
  0
SOLID
  8
0
  6
BYBLOCK
 62
     0
 10
74.31665
 20
32.798484
 30
0.0
 11
74.31665
 21
32.438484
 31
0.0
 12
75.39665
 22
32.618484
 32
0.0
 13
75.39665
 23
32.618484
 33
0.0
  0
SOLID
  8
0
  6
BYBLOCK
 62
     0
 10
78.19465
 20
32.798484
 30
0.0
 11
78.19465
 21
32.438484
 31
0.0
 12
77.11465
 22
32.618484
 32
0.0
 13
77.11465
 23
32.618484
 33
0.0
  0
TEXT
  8
0
  6
BYBLOCK
 62
     0
 10
79.81465
 20
32.243484
 30
0.0
 40
0.75
  1
1.718
 41
0.75
  7
TXT
 72
     1
 11
80.75215
 21
32.618484
 31
0.0
 73
     2
  0
POINT
  8
DEFPOINTS
  6
BYBLOCK
 62
     0
 10
75.39665
 20
27.286469
 30
0.0
  0
POINT
  8
DEFPOINTS
  6
BYBLOCK
 62
     0
 10
77.11465
 20
27.724969
 30
0.0
  0
POINT
  8
DEFPOINTS
  6
BYBLOCK
 62
     0
 10
77.11465
 20
32.618484
 30
0.0
  0
ENDBLK
  8
0
  0
BLOCK
  8
0
  2
*D30
 70
    65
 10
0.0
 20
0.0
 30
0.0
  3
*D
  0
LINE
  8
0
  6
BYBLOCK
 62
     0
 10
76.77065
 20
27.665469
 30
0.0
 11
76.77065
 21
31.490484
 31
0.0
  0
LINE
  8
0
  6
BYBLOCK
 62
     0
 10
77.11465
 20
28.102969
 30
0.0
 11
77.11465
 21
31.490484
 31
0.0
  0
LINE
  8
0
  6
BYBLOCK
 62
     0
 10
75.69065
 20
30.932484
 30
0.0
 11
74.61065
 21
30.932484
 31
0.0
  0
LINE
  8
0
  6
BYBLOCK
 62
     0
 10
78.19465
 20
30.932484
 30
0.0
 11
79.27465
 21
30.932484
 31
0.0
  0
SOLID
  8
0
  6
BYBLOCK
 62
     0
 10
75.69065
 20
31.112484
 30
0.0
 11
75.69065
 21
30.752484
 31
0.0
 12
76.77065
 22
30.932484
 32
0.0
 13
76.77065
 23
30.932484
 33
0.0
  0
SOLID
  8
0
  6
BYBLOCK
 62
     0
 10
78.19465
 20
31.112484
 30
0.0
 11
78.19465
 21
30.752484
 31
0.0
 12
77.11465
 22
30.932484
 32
0.0
 13
77.11465
 23
30.932484
 33
0.0
  0
TEXT
  8
0
  6
BYBLOCK
 62
     0
 10
79.81465
 20
30.557484
 30
0.0
 40
0.75
  1
0.344
 41
0.75
  7
TXT
 72
     1
 11
80.892775
 21
30.932484
 31
0.0
 73
     2
  0
POINT
  8
DEFPOINTS
  6
BYBLOCK
 62
     0
 10
76.77065
 20
27.287469
 30
0.0
  0
POINT
  8
DEFPOINTS
  6
BYBLOCK
 62
     0
 10
77.11465
 20
27.724969
 30
0.0
  0
POINT
  8
DEFPOINTS
  6
BYBLOCK
 62
     0
 10
77.11465
 20
30.932484
 30
0.0
  0
ENDBLK
  8
0
  0
BLOCK
  8
0
  2
*D31
 70
    65
 10
0.0
 20
0.0
 30
0.0
  3
*D
  0
LINE
  8
0
  6
BYBLOCK
 62
     0
 10
83.476414
 20
28.102969
 30
0.0
 11
83.476414
 21
30.016875
 31
0.0
  0
LINE
  8
0
  6
BYBLOCK
 62
     0
 10
84.101414
 20
28.102969
 30
0.0
 11
84.101414
 21
30.016875
 31
0.0
  0
LINE
  8
0
  6
BYBLOCK
 62
     0
 10
82.396414
 20
29.458875
 30
0.0
 11
81.316414
 21
29.458875
 31
0.0
  0
LINE
  8
0
  6
BYBLOCK
 62
     0
 10
85.181414
 20
29.458875
 30
0.0
 11
86.261414
 21
29.458875
 31
0.0
  0
SOLID
  8
0
  6
BYBLOCK
 62
     0
 10
82.396414
 20
29.638875
 30
0.0
 11
82.396414
 21
29.278875
 31
0.0
 12
83.476414
 22
29.458875
 32
0.0
 13
83.476414
 23
29.458875
 33
0.0
  0
SOLID
  8
0
  6
BYBLOCK
 62
     0
 10
85.181414
 20
29.638875
 30
0.0
 11
85.181414
 21
29.278875
 31
0.0
 12
84.101414
 22
29.458875
 32
0.0
 13
84.101414
 23
29.458875
 33
0.0
  0
TEXT
  8
0
  6
BYBLOCK
 62
     0
 10
89.145164
 20
29.083875
 30
0.0
 40
0.75
  1
 HOLD
 41
0.75
  7
TXT
 72
     1
 11
90.457664
 21
29.458875
 31
0.0
 73
     2
  0
TEXT
  8
0
  6
BYBLOCK
 62
     0
 10
86.801414
 20
29.083875
 30
0.0
 40
0.75
  1
0.625
 41
0.75
  7
TXT
 72
     1
 11
87.879539
 21
29.458875
 31
0.0
 73
     2
  0
POINT
  8
DEFPOINTS
  6
BYBLOCK
 62
     0
 10
83.476414
 20
27.724969
 30
0.0
  0
POINT
  8
DEFPOINTS
  6
BYBLOCK
 62
     0
 10
84.101414
 20
27.724969
 30
0.0
  0
POINT
  8
DEFPOINTS
  6
BYBLOCK
 62
     0
 10
84.101414
 20
29.458875
 30
0.0
  0
ENDBLK
  8
0
  0
BLOCK
  8
0
  2
*D32
 70
    65
 10
0.0
 20
0.0
 30
0.0
  3
*D
  0
LINE
  8
0
  6
BYBLOCK
 62
     0
 10
84.479414
 20
26.333969
 30
0.0
 11
85.866652
 21
26.333969
 31
0.0
  0
LINE
  8
0
  6
BYBLOCK
 62
     0
 10
84.479414
 20
25.646469
 30
0.0
 11
85.866652
 21
25.646469
 31
0.0
  0
LINE
  8
0
  6
BYBLOCK
 62
     0
 10
85.308652
 20
27.413969
 30
0.0
 11
85.308652
 21
28.493969
 31
0.0
  0
LINE
  8
0
  6
BYBLOCK
 62
     0
 10
85.308652
 20
24.566469
 30
0.0
 11
85.308652
 21
23.486469
 31
0.0
  0
LINE
  8
0
  6
BYBLOCK
 62
     0
 10
85.308652
 20
23.486469
 30
0.0
 11
84.228652
 21
23.486469
 31
0.0
  0
SOLID
  8
0
  6
BYBLOCK
 62
     0
 10
85.128652
 20
27.413969
 30
0.0
 11
85.488652
 21
27.413969
 31
0.0
 12
85.308652
 22
26.333969
 32
0.0
 13
85.308652
 23
26.333969
 33
0.0
  0
SOLID
  8
0
  6
BYBLOCK
 62
     0
 10
85.128652
 20
24.566469
 30
0.0
 11
85.488652
 21
24.566469
 31
0.0
 12
85.308652
 22
25.646469
 32
0.0
 13
85.308652
 23
25.646469
 33
0.0
  0
TEXT
  8
0
  6
BYBLOCK
 62
     0
 10
81.532402
 20
23.111469
 30
0.0
 40
0.75
  1
0.688
 41
0.75
  7
TXT
 72
     1
 11
82.610527
 21
23.486469
 31
0.0
 73
     2
  0
POINT
  8
DEFPOINTS
  6
BYBLOCK
 62
     0
 10
84.101414
 20
26.333969
 30
0.0
  0
POINT
  8
DEFPOINTS
  6
BYBLOCK
 62
     0
 10
84.101414
 20
25.646469
 30
0.0
  0
POINT
  8
DEFPOINTS
  6
BYBLOCK
 62
     0
 10
85.308652
 20
25.646469
 30
0.0
  0
ENDBLK
  8
0
  0
BLOCK
  8
0
  2
*D33
 70
    65
 10
0.0
 20
0.0
 30
0.0
  3
*D
  0
LINE
  8
0
  6
BYBLOCK
 62
     0
 10
76.86465
 20
20.706927
 30
0.0
 11
76.86465
 21
20.501186
 31
0.0
  0
LINE
  8
0
  6
BYBLOCK
 62
     0
 10
7.36465
 20
20.706927
 30
0.0
 11
7.36465
 21
20.501186
 31
0.0
  0
LINE
  8
0
  6
BYBLOCK
 62
     0
 10
75.78465
 20
21.059186
 30
0.0
 11
54.09215
 21
21.059186
 31
0.0
  0
LINE
  8
0
  6
BYBLOCK
 62
     0
 10
8.44465
 20
21.059186
 30
0.0
 11
30.13715
 21
21.059186
 31
0.0
  0
SOLID
  8
0
  6
BYBLOCK
 62
     0
 10
75.78465
 20
21.239186
 30
0.0
 11
75.78465
 21
20.879186
 31
0.0
 12
76.86465
 22
21.059186
 32
0.0
 13
76.86465
 23
21.059186
 33
0.0
  0
SOLID
  8
0
  6
BYBLOCK
 62
     0
 10
8.44465
 20
21.239186
 30
0.0
 11
8.44465
 21
20.879186
 31
0.0
 12
7.36465
 22
21.059186
 32
0.0
 13
7.36465
 23
21.059186
 33
0.0
  0
TEXT
  8
0
  6
BYBLOCK
 62
     0
 10
30.67715
 20
20.684186
 30
0.0
 40
0.75
  1
(  ) HOLES ON E.I.A. UNIVERSAL SPACING  =   
 41
0.75
  7
TXT
 72
     1
 11
42.11465
 21
21.059186
 31
0.0
 73
     2
  0
POINT
  8
DEFPOINTS
  6
BYBLOCK
 62
     0
 10
76.86465
 20
21.084927
 30
0.0
  0
POINT
  8
DEFPOINTS
  6
BYBLOCK
 62
     0
 10
7.36465
 20
21.084927
 30
0.0
  0
POINT
  8
DEFPOINTS
  6
BYBLOCK
 62
     0
 10
7.36465
 20
21.059186
 30
0.0
  0
ENDBLK
  8
0
  0
BLOCK
  8
0
  2
*D34
 70
    65
 10
0.0
 20
0.0
 30
0.0
  3
*D
  0
LINE
  8
0
  6
BYBLOCK
 62
     0
 10
8.83265
 20
27.664469
 30
0.0
 11
8.83265
 21
33.176484
 31
0.0
  0
LINE
  8
0
  6
BYBLOCK
 62
     0
 10
7.11465
 20
28.102969
 30
0.0
 11
7.11465
 21
33.176484
 31
0.0
  0
LINE
  8
0
  6
BYBLOCK
 62
     0
 10
9.91265
 20
32.618484
 30
0.0
 11
10.99265
 21
32.618484
 31
0.0
  0
LINE
  8
0
  6
BYBLOCK
 62
     0
 10
6.03465
 20
32.618484
 30
0.0
 11
4.95465
 21
32.618484
 31
0.0
  0
SOLID
  8
0
  6
BYBLOCK
 62
     0
 10
9.91265
 20
32.798484
 30
0.0
 11
9.91265
 21
32.438484
 31
0.0
 12
8.83265
 22
32.618484
 32
0.0
 13
8.83265
 23
32.618484
 33
0.0
  0
SOLID
  8
0
  6
BYBLOCK
 62
     0
 10
6.03465
 20
32.798484
 30
0.0
 11
6.03465
 21
32.438484
 31
0.0
 12
7.11465
 22
32.618484
 32
0.0
 13
7.11465
 23
32.618484
 33
0.0
  0
TEXT
  8
0
  6
BYBLOCK
 62
     0
 10
2.53965
 20
32.243484
 30
0.0
 40
0.75
  1
1.718
 41
0.75
  7
TXT
 72
     1
 11
3.47715
 21
32.618484
 31
0.0
 73
     2
  0
POINT
  8
DEFPOINTS
  6
BYBLOCK
 62
     0
 10
8.83265
 20
27.286469
 30
0.0
  0
POINT
  8
DEFPOINTS
  6
BYBLOCK
 62
     0
 10
7.11465
 20
27.724969
 30
0.0
  0
POINT
  8
DEFPOINTS
  6
BYBLOCK
 62
     0
 10
7.11465
 20
32.618484
 30
0.0
  0
ENDBLK
  8
0
  0
BLOCK
  8
0
  2
*D35
 70
    65
 10
0.0
 20
0.0
 30
0.0
  3
*D
  0
LINE
  8
0
  6
BYBLOCK
 62
     0
 10
6.98665
 20
25.896969
 30
0.0
 11
5.083828
 21
25.896969
 31
0.0
  0
LINE
  8
0
  6
BYBLOCK
 62
     0
 10
6.73665
 20
25.646969
 30
0.0
 11
5.083828
 21
25.646969
 31
0.0
  0
LINE
  8
0
  6
BYBLOCK
 62
     0
 10
5.641828
 20
26.976969
 30
0.0
 11
5.641828
 21
28.056969
 31
0.0
  0
LINE
  8
0
  6
BYBLOCK
 62
     0
 10
5.641828
 20
24.566969
 30
0.0
 11
5.641828
 21
23.486969
 31
0.0
  0
LINE
  8
0
  6
BYBLOCK
 62
     0
 10
5.641828
 20
23.486969
 30
0.0
 11
4.561828
 21
23.486969
 31
0.0
  0
SOLID
  8
0
  6
BYBLOCK
 62
     0
 10
5.461828
 20
26.976969
 30
0.0
 11
5.821828
 21
26.976969
 31
0.0
 12
5.641828
 22
25.896969
 32
0.0
 13
5.641828
 23
25.896969
 33
0.0
  0
SOLID
  8
0
  6
BYBLOCK
 62
     0
 10
5.461828
 20
24.566969
 30
0.0
 11
5.821828
 21
24.566969
 31
0.0
 12
5.641828
 22
25.646969
 32
0.0
 13
5.641828
 23
25.646969
 33
0.0
  0
TEXT
  8
0
  6
BYBLOCK
 62
     0
 10
1.959328
 20
23.111969
 30
0.0
 40
0.75
  1
0.250
 41
0.75
  7
TXT
 72
     1
 11
2.990578
 21
23.486969
 31
0.0
 73
     2
  0
POINT
  8
DEFPOINTS
  6
BYBLOCK
 62
     0
 10
7.36465
 20
25.896969
 30
0.0
  0
POINT
  8
DEFPOINTS
  6
BYBLOCK
 62
     0
 10
7.11465
 20
25.646969
 30
0.0
  0
POINT
  8
DEFPOINTS
  6
BYBLOCK
 62
     0
 10
5.641828
 20
25.646969
 30
0.0
  0
ENDBLK
  8
0
  0
BLOCK
  8
0
  2
*D36
 70
    65
 10
0.0
 20
0.0
 30
0.0
  3
*D
  0
LINE
  8
0
  6
BYBLOCK
 62
     0
 10
6.73665
 20
27.724969
 30
0.0
 11
3.886126
 21
27.724969
 31
0.0
  0
LINE
  8
0
  6
BYBLOCK
 62
     0
 10
6.95565
 20
26.974969
 30
0.0
 11
3.886126
 21
26.974969
 31
0.0
  0
LINE
  8
0
  6
BYBLOCK
 62
     0
 10
4.444126
 20
28.804969
 30
0.0
 11
4.444126
 21
29.884969
 31
0.0
  0
LINE
  8
0
  6
BYBLOCK
 62
     0
 10
4.444126
 20
25.894969
 30
0.0
 11
4.444126
 21
24.814969
 31
0.0
  0
LINE
  8
0
  6
BYBLOCK
 62
     0
 10
4.444126
 20
24.814969
 30
0.0
 11
3.364126
 21
24.814969
 31
0.0
  0
SOLID
  8
0
  6
BYBLOCK
 62
     0
 10
4.264126
 20
28.804969
 30
0.0
 11
4.624126
 21
28.804969
 31
0.0
 12
4.444126
 22
27.724969
 32
0.0
 13
4.444126
 23
27.724969
 33
0.0
  0
SOLID
  8
0
  6
BYBLOCK
 62
     0
 10
4.264126
 20
25.894969
 30
0.0
 11
4.624126
 21
25.894969
 31
0.0
 12
4.444126
 22
26.974969
 32
0.0
 13
4.444126
 23
26.974969
 33
0.0
  0
TEXT
  8
0
  6
BYBLOCK
 62
     0
 10
0.761626
 20
24.439969
 30
0.0
 40
0.75
  1
0.750
 41
0.75
  7
TXT
 72
     1
 11
1.792876
 21
24.814969
 31
0.0
 73
     2
  0
POINT
  8
DEFPOINTS
  6
BYBLOCK
 62
     0
 10
7.11465
 20
27.724969
 30
0.0
  0
POINT
  8
DEFPOINTS
  6
BYBLOCK
 62
     0
 10
7.33365
 20
26.974969
 30
0.0
  0
POINT
  8
DEFPOINTS
  6
BYBLOCK
 62
     0
 10
4.444126
 20
26.974969
 30
0.0
  0
ENDBLK
  8
0
  0
BLOCK
  8
0
  2
*D37
 70
    65
 10
0.0
 20
0.0
 30
0.0
  3
*D
  0
LINE
  8
0
  6
BYBLOCK
 62
     0
 10
7.45865
 20
27.665469
 30
0.0
 11
7.45865
 21
31.490484
 31
0.0
  0
LINE
  8
0
  6
BYBLOCK
 62
     0
 10
7.11465
 20
28.102969
 30
0.0
 11
7.11465
 21
31.490484
 31
0.0
  0
LINE
  8
0
  6
BYBLOCK
 62
     0
 10
8.53865
 20
30.932484
 30
0.0
 11
9.61865
 21
30.932484
 31
0.0
  0
LINE
  8
0
  6
BYBLOCK
 62
     0
 10
6.03465
 20
30.932484
 30
0.0
 11
4.95465
 21
30.932484
 31
0.0
  0
SOLID
  8
0
  6
BYBLOCK
 62
     0
 10
8.53865
 20
31.112484
 30
0.0
 11
8.53865
 21
30.752484
 31
0.0
 12
7.45865
 22
30.932484
 32
0.0
 13
7.45865
 23
30.932484
 33
0.0
  0
SOLID
  8
0
  6
BYBLOCK
 62
     0
 10
6.03465
 20
31.112484
 30
0.0
 11
6.03465
 21
30.752484
 31
0.0
 12
7.11465
 22
30.932484
 32
0.0
 13
7.11465
 23
30.932484
 33
0.0
  0
TEXT
  8
0
  6
BYBLOCK
 62
     0
 10
2.2584
 20
30.557484
 30
0.0
 40
0.75
  1
0.344
 41
0.75
  7
TXT
 72
     1
 11
3.336525
 21
30.932484
 31
0.0
 73
     2
  0
POINT
  8
DEFPOINTS
  6
BYBLOCK
 62
     0
 10
7.45865
 20
27.287469
 30
0.0
  0
POINT
  8
DEFPOINTS
  6
BYBLOCK
 62
     0
 10
7.11465
 20
27.724969
 30
0.0
  0
POINT
  8
DEFPOINTS
  6
BYBLOCK
 62
     0
 10
7.11465
 20
30.932484
 30
0.0
  0
ENDBLK
  8
0
  0
BLOCK
  8
0
  2
*D38
 70
    65
 10
0.0
 20
0.0
 30
0.0
  3
*D
  0
LINE
  8
0
  6
BYBLOCK
 62
     0
 10
8.83265
 20
27.664469
 30
0.0
 11
8.83265
 21
34.862484
 31
0.0
  0
LINE
  8
0
  6
BYBLOCK
 62
     0
 10
11.58265
 20
27.664469
 30
0.0
 11
11.58265
 21
34.862484
 31
0.0
  0
LINE
  8
0
  6
BYBLOCK
 62
     0
 10
7.75265
 20
34.304484
 30
0.0
 11
6.67265
 21
34.304484
 31
0.0
  0
LINE
  8
0
  6
BYBLOCK
 62
     0
 10
12.66265
 20
34.304484
 30
0.0
 11
13.74265
 21
34.304484
 31
0.0
  0
SOLID
  8
0
  6
BYBLOCK
 62
     0
 10
7.75265
 20
34.484484
 30
0.0
 11
7.75265
 21
34.124484
 31
0.0
 12
8.83265
 22
34.304484
 32
0.0
 13
8.83265
 23
34.304484
 33
0.0
  0
SOLID
  8
0
  6
BYBLOCK
 62
     0
 10
12.66265
 20
34.484484
 30
0.0
 11
12.66265
 21
34.124484
 31
0.0
 12
11.58265
 22
34.304484
 32
0.0
 13
11.58265
 23
34.304484
 33
0.0
  0
TEXT
  8
0
  6
BYBLOCK
 62
     0
 10
14.28265
 20
33.929484
 30
0.0
 40
0.75
  1
2.750
 41
0.75
  7
TXT
 72
     1
 11
15.360775
 21
34.304484
 31
0.0
 73
     2
  0
POINT
  8
DEFPOINTS
  6
BYBLOCK
 62
     0
 10
8.83265
 20
27.286469
 30
0.0
  0
POINT
  8
DEFPOINTS
  6
BYBLOCK
 62
     0
 10
11.58265
 20
27.286469
 30
0.0
  0
POINT
  8
DEFPOINTS
  6
BYBLOCK
 62
     0
 10
11.58265
 20
34.304484
 30
0.0
  0
ENDBLK
  8
0
  0
BLOCK
  8
0
  2
*D39
 70
    65
 10
0.0
 20
0.0
 30
0.0
  3
*D
  0
LINE
  8
0
  6
BYBLOCK
 62
     0
 10
7.45765
 20
27.664469
 30
0.0
 11
7.45765
 21
43.292484
 31
0.0
  0
LINE
  8
0
  6
BYBLOCK
 62
     0
 10
40.74065
 20
27.664469
 30
0.0
 11
40.74065
 21
43.292484
 31
0.0
  0
LINE
  8
0
  6
BYBLOCK
 62
     0
 10
8.53765
 20
42.734484
 30
0.0
 11
22.99665
 21
42.734484
 31
0.0
  0
LINE
  8
0
  6
BYBLOCK
 62
     0
 10
39.66065
 20
42.734484
 30
0.0
 11
25.20165
 21
42.734484
 31
0.0
  0
SOLID
  8
0
  6
BYBLOCK
 62
     0
 10
8.53765
 20
42.914484
 30
0.0
 11
8.53765
 21
42.554484
 31
0.0
 12
7.45765
 22
42.734484
 32
0.0
 13
7.45765
 23
42.734484
 33
0.0
  0
SOLID
  8
0
  6
BYBLOCK
 62
     0
 10
39.66065
 20
42.914484
 30
0.0
 11
39.66065
 21
42.554484
 31
0.0
 12
40.74065
 22
42.734484
 32
0.0
 13
40.74065
 23
42.734484
 33
0.0
  0
TEXT
  8
0
  6
BYBLOCK
 62
     0
 10
23.53665
 20
42.359484
 30
0.0
 40
0.75
  1
  
 41
0.75
  7
TXT
 72
     1
 11
24.09915
 21
42.734484
 31
0.0
 73
     2
  0
POINT
  8
DEFPOINTS
  6
BYBLOCK
 62
     0
 10
7.45765
 20
27.286469
 30
0.0
  0
POINT
  8
DEFPOINTS
  6
BYBLOCK
 62
     0
 10
40.74065
 20
27.286469
 30
0.0
  0
POINT
  8
DEFPOINTS
  6
BYBLOCK
 62
     0
 10
40.74065
 20
42.734484
 30
0.0
  0
ENDBLK
  8
0
  0
BLOCK
  8
0
  2
*D40
 70
    65
 10
0.0
 20
0.0
 30
0.0
  3
*D
  0
LINE
  8
0
  6
BYBLOCK
 62
     0
 10
7.45765
 20
27.664469
 30
0.0
 11
7.45765
 21
38.234484
 31
0.0
  0
LINE
  8
0
  6
BYBLOCK
 62
     0
 10
20.55065
 20
27.664469
 30
0.0
 11
20.55065
 21
38.234484
 31
0.0
  0
LINE
  8
0
  6
BYBLOCK
 62
     0
 10
8.53765
 20
37.676484
 30
0.0
 11
12.90165
 21
37.676484
 31
0.0
  0
LINE
  8
0
  6
BYBLOCK
 62
     0
 10
19.47065
 20
37.676484
 30
0.0
 11
15.10665
 21
37.676484
 31
0.0
  0
SOLID
  8
0
  6
BYBLOCK
 62
     0
 10
8.53765
 20
37.856484
 30
0.0
 11
8.53765
 21
37.496484
 31
0.0
 12
7.45765
 22
37.676484
 32
0.0
 13
7.45765
 23
37.676484
 33
0.0
  0
SOLID
  8
0
  6
BYBLOCK
 62
     0
 10
19.47065
 20
37.856484
 30
0.0
 11
19.47065
 21
37.496484
 31
0.0
 12
20.55065
 22
37.676484
 32
0.0
 13
20.55065
 23
37.676484
 33
0.0
  0
TEXT
  8
0
  6
BYBLOCK
 62
     0
 10
13.44165
 20
37.301484
 30
0.0
 40
0.75
  1
  
 41
0.75
  7
TXT
 72
     1
 11
14.00415
 21
37.676484
 31
0.0
 73
     2
  0
POINT
  8
DEFPOINTS
  6
BYBLOCK
 62
     0
 10
7.45765
 20
27.286469
 30
0.0
  0
POINT
  8
DEFPOINTS
  6
BYBLOCK
 62
     0
 10
20.55065
 20
27.286469
 30
0.0
  0
POINT
  8
DEFPOINTS
  6
BYBLOCK
 62
     0
 10
20.55065
 20
37.676484
 30
0.0
  0
ENDBLK
  8
0
  0
BLOCK
  8
0
  2
*D41
 70
    65
 10
0.0
 20
0.0
 30
0.0
  3
*D
  0
LINE
  8
0
  6
BYBLOCK
 62
     0
 10
7.45765
 20
27.664469
 30
0.0
 11
7.45765
 21
39.920484
 31
0.0
  0
LINE
  8
0
  6
BYBLOCK
 62
     0
 10
28.2099
 20
27.664469
 30
0.0
 11
28.2099
 21
39.920484
 31
0.0
  0
LINE
  8
0
  6
BYBLOCK
 62
     0
 10
8.53765
 20
39.362484
 30
0.0
 11
16.731275
 21
39.362484
 31
0.0
  0
LINE
  8
0
  6
BYBLOCK
 62
     0
 10
27.1299
 20
39.362484
 30
0.0
 11
18.936275
 21
39.362484
 31
0.0
  0
SOLID
  8
0
  6
BYBLOCK
 62
     0
 10
8.53765
 20
39.542484
 30
0.0
 11
8.53765
 21
39.182484
 31
0.0
 12
7.45765
 22
39.362484
 32
0.0
 13
7.45765
 23
39.362484
 33
0.0
  0
SOLID
  8
0
  6
BYBLOCK
 62
     0
 10
27.1299
 20
39.542484
 30
0.0
 11
27.1299
 21
39.182484
 31
0.0
 12
28.2099
 22
39.362484
 32
0.0
 13
28.2099
 23
39.362484
 33
0.0
  0
TEXT
  8
0
  6
BYBLOCK
 62
     0
 10
17.271275
 20
38.987484
 30
0.0
 40
0.75
  1
  
 41
0.75
  7
TXT
 72
     1
 11
17.833775
 21
39.362484
 31
0.0
 73
     2
  0
POINT
  8
DEFPOINTS
  6
BYBLOCK
 62
     0
 10
7.45765
 20
27.286469
 30
0.0
  0
POINT
  8
DEFPOINTS
  6
BYBLOCK
 62
     0
 10
28.2099
 20
27.286469
 30
0.0
  0
POINT
  8
DEFPOINTS
  6
BYBLOCK
 62
     0
 10
28.2099
 20
39.362484
 30
0.0
  0
ENDBLK
  8
0
  0
BLOCK
  8
0
  2
*D42
 70
    65
 10
0.0
 20
0.0
 30
0.0
  3
*D
  0
LINE
  8
0
  6
BYBLOCK
 62
     0
 10
7.45765
 20
27.664469
 30
0.0
 11
7.45765
 21
41.606484
 31
0.0
  0
LINE
  8
0
  6
BYBLOCK
 62
     0
 10
32.6479
 20
27.664469
 30
0.0
 11
32.6479
 21
41.606484
 31
0.0
  0
LINE
  8
0
  6
BYBLOCK
 62
     0
 10
8.53765
 20
41.048484
 30
0.0
 11
18.950275
 21
41.048484
 31
0.0
  0
LINE
  8
0
  6
BYBLOCK
 62
     0
 10
31.5679
 20
41.048484
 30
0.0
 11
21.155275
 21
41.048484
 31
0.0
  0
SOLID
  8
0
  6
BYBLOCK
 62
     0
 10
8.53765
 20
41.228484
 30
0.0
 11
8.53765
 21
40.868484
 31
0.0
 12
7.45765
 22
41.048484
 32
0.0
 13
7.45765
 23
41.048484
 33
0.0
  0
SOLID
  8
0
  6
BYBLOCK
 62
     0
 10
31.5679
 20
41.228484
 30
0.0
 11
31.5679
 21
40.868484
 31
0.0
 12
32.6479
 22
41.048484
 32
0.0
 13
32.6479
 23
41.048484
 33
0.0
  0
TEXT
  8
0
  6
BYBLOCK
 62
     0
 10
19.490275
 20
40.673484
 30
0.0
 40
0.75
  1
  
 41
0.75
  7
TXT
 72
     1
 11
20.052775
 21
41.048484
 31
0.0
 73
     2
  0
POINT
  8
DEFPOINTS
  6
BYBLOCK
 62
     0
 10
7.45765
 20
27.286469
 30
0.0
  0
POINT
  8
DEFPOINTS
  6
BYBLOCK
 62
     0
 10
32.6479
 20
27.286469
 30
0.0
  0
POINT
  8
DEFPOINTS
  6
BYBLOCK
 62
     0
 10
32.6479
 20
41.048484
 30
0.0
  0
ENDBLK
  8
0
  0
BLOCK
  8
0
  2
*D43
 70
    65
 10
0.0
 20
0.0
 30
0.0
  3
*D
  0
LINE
  8
0
  6
BYBLOCK
 62
     0
 10
7.36465
 20
49.21067
 30
0.0
 11
7.36465
 21
46.30229
 31
0.0
  0
LINE
  8
0
  6
BYBLOCK
 62
     0
 10
7.11465
 20
48.77317
 30
0.0
 11
7.11465
 21
46.30229
 31
0.0
  0
LINE
  8
0
  6
BYBLOCK
 62
     0
 10
8.44465
 20
46.86029
 30
0.0
 11
9.52465
 21
46.86029
 31
0.0
  0
LINE
  8
0
  6
BYBLOCK
 62
     0
 10
6.03465
 20
46.86029
 30
0.0
 11
4.95465
 21
46.86029
 31
0.0
  0
SOLID
  8
0
  6
BYBLOCK
 62
     0
 10
8.44465
 20
47.04029
 30
0.0
 11
8.44465
 21
46.68029
 31
0.0
 12
7.36465
 22
46.86029
 32
0.0
 13
7.36465
 23
46.86029
 33
0.0
  0
SOLID
  8
0
  6
BYBLOCK
 62
     0
 10
6.03465
 20
47.04029
 30
0.0
 11
6.03465
 21
46.68029
 31
0.0
 12
7.11465
 22
46.86029
 32
0.0
 13
7.11465
 23
46.86029
 33
0.0
  0
TEXT
  8
0
  6
BYBLOCK
 62
     0
 10
2.35215
 20
46.48529
 30
0.0
 40
0.75
  1
0.250
 41
0.75
  7
TXT
 72
     1
 11
3.3834
 21
46.86029
 31
0.0
 73
     2
  0
POINT
  8
DEFPOINTS
  6
BYBLOCK
 62
     0
 10
7.36465
 20
49.58867
 30
0.0
  0
POINT
  8
DEFPOINTS
  6
BYBLOCK
 62
     0
 10
7.11465
 20
49.15117
 30
0.0
  0
POINT
  8
DEFPOINTS
  6
BYBLOCK
 62
     0
 10
7.11465
 20
46.86029
 30
0.0
  0
ENDBLK
  8
0
  0
BLOCK
  8
0
  2
*D44
 70
    65
 10
0.0
 20
0.0
 30
0.0
  3
*D
  0
LINE
  8
0
  6
BYBLOCK
 62
     0
 10
6.98665
 20
49.58867
 30
0.0
 11
4.471545
 21
49.58867
 31
0.0
  0
LINE
  8
0
  6
BYBLOCK
 62
     0
 10
6.73665
 20
49.77617
 30
0.0
 11
4.471545
 21
49.77617
 31
0.0
  0
LINE
  8
0
  6
BYBLOCK
 62
     0
 10
5.029545
 20
48.50867
 30
0.0
 11
5.029545
 21
47.42867
 31
0.0
  0
LINE
  8
0
  6
BYBLOCK
 62
     0
 10
5.029545
 20
50.85617
 30
0.0
 11
5.029545
 21
51.93617
 31
0.0
  0
LINE
  8
0
  6
BYBLOCK
 62
     0
 10
5.029545
 20
51.93617
 30
0.0
 11
6.109545
 21
51.93617
 31
0.0
  0
SOLID
  8
0
  6
BYBLOCK
 62
     0
 10
4.849545
 20
48.50867
 30
0.0
 11
5.209545
 21
48.50867
 31
0.0
 12
5.029545
 22
49.58867
 32
0.0
 13
5.029545
 23
49.58867
 33
0.0
  0
SOLID
  8
0
  6
BYBLOCK
 62
     0
 10
4.849545
 20
50.85617
 30
0.0
 11
5.209545
 21
50.85617
 31
0.0
 12
5.029545
 22
49.77617
 32
0.0
 13
5.029545
 23
49.77617
 33
0.0
  0
TEXT
  8
0
  6
BYBLOCK
 62
     0
 10
6.649545
 20
51.56117
 30
0.0
 40
0.75
  1
0.188
 41
0.75
  7
TXT
 72
     1
 11
7.63392
 21
51.93617
 31
0.0
 73
     2
  0
POINT
  8
DEFPOINTS
  6
BYBLOCK
 62
     0
 10
7.36465
 20
49.58867
 30
0.0
  0
POINT
  8
DEFPOINTS
  6
BYBLOCK
 62
     0
 10
7.11465
 20
49.77617
 30
0.0
  0
POINT
  8
DEFPOINTS
  6
BYBLOCK
 62
     0
 10
5.029545
 20
49.77617
 30
0.0
  0
ENDBLK
  8
0
  0
BLOCK
  8
0
  2
*D45
 70
    65
 10
0.0
 20
0.0
 30
0.0
  3
*D
  0
LINE
  8
0
  6
BYBLOCK
 62
     0
 10
7.36465
 20
25.518969
 30
0.0
 11
7.36465
 21
20.148927
 31
0.0
  0
LINE
  8
0
  6
BYBLOCK
 62
     0
 10
7.11465
 20
25.268969
 30
0.0
 11
7.11465
 21
20.148927
 31
0.0
  0
LINE
  8
0
  6
BYBLOCK
 62
     0
 10
8.44465
 20
20.706927
 30
0.0
 11
9.52465
 21
20.706927
 31
0.0
  0
LINE
  8
0
  6
BYBLOCK
 62
     0
 10
6.03465
 20
20.706927
 30
0.0
 11
4.95465
 21
20.706927
 31
0.0
  0
SOLID
  8
0
  6
BYBLOCK
 62
     0
 10
8.44465
 20
20.886927
 30
0.0
 11
8.44465
 21
20.526927
 31
0.0
 12
7.36465
 22
20.706927
 32
0.0
 13
7.36465
 23
20.706927
 33
0.0
  0
SOLID
  8
0
  6
BYBLOCK
 62
     0
 10
6.03465
 20
20.886927
 30
0.0
 11
6.03465
 21
20.526927
 31
0.0
 12
7.11465
 22
20.706927
 32
0.0
 13
7.11465
 23
20.706927
 33
0.0
  0
TEXT
  8
0
  6
BYBLOCK
 62
     0
 10
2.35215
 20
20.331927
 30
0.0
 40
0.75
  1
0.250
 41
0.75
  7
TXT
 72
     1
 11
3.3834
 21
20.706927
 31
0.0
 73
     2
  0
POINT
  8
DEFPOINTS
  6
BYBLOCK
 62
     0
 10
7.36465
 20
25.896969
 30
0.0
  0
POINT
  8
DEFPOINTS
  6
BYBLOCK
 62
     0
 10
7.11465
 20
25.646969
 30
0.0
  0
POINT
  8
DEFPOINTS
  6
BYBLOCK
 62
     0
 10
7.11465
 20
20.706927
 30
0.0
  0
ENDBLK
  8
0
  0
BLOCK
  8
0
  2
*D46
 70
    65
 10
0.0
 20
0.0
 30
0.0
  3
*D
  0
LINE
  8
0
  6
BYBLOCK
 62
     0
 10
76.8644
 20
25.518969
 30
0.0
 11
76.8644
 21
20.148927
 31
0.0
  0
LINE
  8
0
  6
BYBLOCK
 62
     0
 10
77.1144
 20
25.268969
 30
0.0
 11
77.1144
 21
20.148927
 31
0.0
  0
LINE
  8
0
  6
BYBLOCK
 62
     0
 10
75.7844
 20
20.706927
 30
0.0
 11
74.7044
 21
20.706927
 31
0.0
  0
LINE
  8
0
  6
BYBLOCK
 62
     0
 10
78.1944
 20
20.706927
 30
0.0
 11
79.2744
 21
20.706927
 31
0.0
  0
SOLID
  8
0
  6
BYBLOCK
 62
     0
 10
75.7844
 20
20.886927
 30
0.0
 11
75.7844
 21
20.526927
 31
0.0
 12
76.8644
 22
20.706927
 32
0.0
 13
76.8644
 23
20.706927
 33
0.0
  0
SOLID
  8
0
  6
BYBLOCK
 62
     0
 10
78.1944
 20
20.886927
 30
0.0
 11
78.1944
 21
20.526927
 31
0.0
 12
77.1144
 22
20.706927
 32
0.0
 13
77.1144
 23
20.706927
 33
0.0
  0
TEXT
  8
0
  6
BYBLOCK
 62
     0
 10
79.8144
 20
20.331927
 30
0.0
 40
0.75
  1
0.250
 41
0.75
  7
TXT
 72
     1
 11
80.84565
 21
20.706927
 31
0.0
 73
     2
  0
POINT
  8
DEFPOINTS
  6
BYBLOCK
 62
     0
 10
76.8644
 20
25.896969
 30
0.0
  0
POINT
  8
DEFPOINTS
  6
BYBLOCK
 62
     0
 10
77.1144
 20
25.646969
 30
0.0
  0
POINT
  8
DEFPOINTS
  6
BYBLOCK
 62
     0
 10
77.1144
 20
20.706927
 30
0.0
  0
ENDBLK
  8
0
  0
ENDSEC
  0
SECTION
  2
ENTITIES
  0
DIMENSION
  8
DIM
  2
*D44
 10
5.029545
 20
49.77617
 30
0.0
 11
7.63392
 21
51.93617
 31
0.0
 13
7.36465
 23
49.58867
 33
0.0
 14
7.11465
 24
49.77617
 34
0.0
 50
90.0
  3
23NSTD
  0
TEXT
  8
DIM
 10
25.272357
 20
52.003865
 30
0.0
 40
0.74955
  1
(  ) PLACES
 41
0.75
  7
TXT
 11
25.272357
 21
52.37864
 31
0.0
 73
     2
  0
TEXT
  8
DIM
 10
25.272357
 20
53.253115
 30
0.0
 40
0.74955
  1
#10-32 TAPPED HOLE
 41
0.75
  7
TXT
 11
25.272357
 21
53.627891
 31
0.0
 73
     2
  0
POLYLINE
  8
DIM
 66
     1
 10
0.0
 20
0.0
 30
0.0
 41
0.404757
  0
VERTEX
  8
DIM
 10
22.044175
 20
49.659644
 30
0.0
 41
0.404858
  0
VERTEX
  8
DIM
 10
22.449882
 20
50.660137
 30
0.0
 41
0.0
  0
VERTEX
  8
DIM
 10
23.653329
 20
53.627891
 30
0.0
 41
0.0
  0
VERTEX
  8
DIM
 10
24.732681
 20
53.627891
 30
0.0
 41
0.0
  0
SEQEND
  8
DIM
  0
ARC
  8
OBJECT
 10
56.02165
 20
27.286469
 30
0.0
 40
0.125
 50
0.0
 51
180.0
  0
ARC
  8
OBJECT
 10
56.02165
 20
26.661469
 30
0.0
 40
0.125
 50
180.0
 51
0.0
  0
LINE
  8
OBJECT
 10
55.89665
 20
27.286469
 30
0.0
 11
55.89665
 21
26.661469
 31
0.0
  0
LINE
  8
OBJECT
 10
56.14665
 20
26.661469
 30
0.0
 11
56.14665
 21
27.286469
 31
0.0
  0
ARC
  8
OBJECT
 10
53.27165
 20
26.661469
 30
0.0
 40
0.125
 50
180.0
 51
0.0
  0
ARC
  8
OBJECT
 10
53.27165
 20
27.286469
 30
0.0
 40
0.125
 50
0.0
 51
180.0
  0
LINE
  8
OBJECT
 10
53.14665
 20
27.286469
 30
0.0
 11
53.14665
 21
26.661469
 31
0.0
  0
LINE
  8
OBJECT
 10
53.39665
 20
26.661469
 30
0.0
 11
53.39665
 21
27.286469
 31
0.0
  0
LINE
  8
OBJECT
 10
51.70965
 20
26.661469
 30
0.0
 11
51.70965
 21
27.286469
 31
0.0
  0
LINE
  8
OBJECT
 10
51.45965
 20
27.286469
 30
0.0
 11
51.45965
 21
26.661469
 31
0.0
  0
ARC
  8
OBJECT
 10
51.58465
 20
26.661469
 30
0.0
 40
0.125
 50
180.0
 51
0.0
  0
ARC
  8
OBJECT
 10
51.58465
 20
27.286469
 30
0.0
 40
0.125
 50
0.0
 51
180.0
  0
ARC
  8
OBJECT
 10
48.83465
 20
26.661469
 30
0.0
 40
0.125
 50
180.0
 51
0.0
  0
ARC
  8
OBJECT
 10
48.83465
 20
27.286469
 30
0.0
 40
0.125
 50
0.0
 51
180.0
  0
LINE
  8
OBJECT
 10
48.70965
 20
27.286469
 30
0.0
 11
48.70965
 21
26.661469
 31
0.0
  0
LINE
  8
OBJECT
 10
48.95965
 20
26.661469
 30
0.0
 11
48.95965
 21
27.286469
 31
0.0
  0
LINE
  8
OBJECT
 10
35.52165
 20
26.661469
 30
0.0
 11
35.52165
 21
27.286469
 31
0.0
  0
LINE
  8
OBJECT
 10
35.27165
 20
27.286469
 30
0.0
 11
35.27165
 21
26.661469
 31
0.0
  0
ARC
  8
OBJECT
 10
35.39665
 20
26.661469
 30
0.0
 40
0.125
 50
180.0
 51
0.0
  0
ARC
  8
OBJECT
 10
35.39665
 20
27.286469
 30
0.0
 40
0.125
 50
0.0
 51
180.0
  0
ARC
  8
OBJECT
 10
32.64665
 20
26.661469
 30
0.0
 40
0.125
 50
180.0
 51
0.0
  0
ARC
  8
OBJECT
 10
32.64665
 20
27.286469
 30
0.0
 40
0.125
 50
0.0
 51
180.0
  0
LINE
  8
OBJECT
 10
32.52165
 20
27.286469
 30
0.0
 11
32.52165
 21
26.661469
 31
0.0
  0
LINE
  8
OBJECT
 10
32.77165
 20
26.661469
 30
0.0
 11
32.77165
 21
27.286469
 31
0.0
  0
ARC
  8
OBJECT
 10
28.20765
 20
27.286469
 30
0.0
 40
0.125
 50
0.0
 51
180.0
  0
ARC
  8
OBJECT
 10
30.95765
 20
27.286469
 30
0.0
 40
0.125
 50
0.0
 51
180.0
  0
LINE
  8
OBJECT
 10
28.08265
 20
26.661469
 30
0.0
 11
28.08265
 21
27.286469
 31
0.0
  0
LINE
  8
OBJECT
 10
28.33265
 20
27.286469
 30
0.0
 11
28.33265
 21
26.661469
 31
0.0
  0
ARC
  8
OBJECT
 10
28.20765
 20
26.661469
 30
0.0
 40
0.125
 50
180.0
 51
0.0
  0
LINE
  8
OBJECT
 10
31.08265
 20
27.286469
 30
0.0
 11
31.08265
 21
26.661469
 31
0.0
  0
LINE
  8
OBJECT
 10
30.83265
 20
26.661469
 30
0.0
 11
30.83265
 21
27.286469
 31
0.0
  0
ARC
  8
OBJECT
 10
30.95765
 20
26.661469
 30
0.0
 40
0.125
 50
180.0
 51
0.0
  0
POLYLINE
  8
OBJECT
 66
     1
 10
0.0
 20
0.0
 30
0.0
 70
     1
  0
VERTEX
  8
OBJECT
 10
83.585414
 20
26.333969
 30
0.0
  0
VERTEX
  8
OBJECT
 10
83.585414
 20
27.615969
 30
0.0
  0
VERTEX
  8
OBJECT
 10
84.101414
 20
27.615969
 30
0.0
  0
VERTEX
  8
OBJECT
 10
84.101414
 20
27.724969
 30
0.0
  0
VERTEX
  8
OBJECT
 10
83.476414
 20
27.724969
 30
0.0
  0
VERTEX
  8
OBJECT
 10
83.476414
 20
26.224969
 30
0.0
  0
VERTEX
  8
OBJECT
 10
83.992414
 20
26.224969
 30
0.0
  0
VERTEX
  8
OBJECT
 10
83.992414
 20
25.646469
 30
0.0
  0
VERTEX
  8
OBJECT
 10
84.101414
 20
25.646469
 30
0.0
  0
VERTEX
  8
OBJECT
 10
84.101414
 20
26.333969
 30
0.0
  0
SEQEND
  8
OBJECT
  0
LINE
  8
OBJECT
 10
77.1144
 20
49.15117
 30
0.0
 11
7.11465
 21
49.15117
 31
0.0
  0
LINE
  8
OBJECT
 10
7.11465
 20
49.77617
 30
0.0
 11
77.1144
 21
49.77617
 31
0.0
  0
CIRCLE
  8
OBJECT
 10
12.61465
 20
49.58867
 30
0.0
 40
0.0895
  0
LINE
  8
OBJECT
 10
7.11465
 20
49.15117
 30
0.0
 11
7.11465
 21
49.77617
 31
0.0
  0
CIRCLE
  8
OBJECT
 10
8.61465
 20
49.58867
 30
0.0
 40
0.0895
  0
CIRCLE
  8
OBJECT
 10
7.36465
 20
49.58867
 30
0.0
 40
0.0895
  0
CIRCLE
  8
OBJECT
 10
7.98965
 20
49.58867
 30
0.0
 40
0.0895
  0
CIRCLE
  8
OBJECT
 10
9.11465
 20
49.58867
 30
0.0
 40
0.0895
  0
CIRCLE
  8
OBJECT
 10
9.73965
 20
49.58867
 30
0.0
 40
0.0895
  0
CIRCLE
  8
OBJECT
 10
10.36465
 20
49.58867
 30
0.0
 40
0.0895
  0
CIRCLE
  8
OBJECT
 10
11.48965
 20
49.58867
 30
0.0
 40
0.0895
  0
CIRCLE
  8
OBJECT
 10
10.86465
 20
49.58867
 30
0.0
 40
0.0895
  0
CIRCLE
  8
OBJECT
 10
12.11465
 20
49.58867
 30
0.0
 40
0.0895
  0
CIRCLE
  8
OBJECT
 10
13.23965
 20
49.58867
 30
0.0
 40
0.0895
  0
CIRCLE
  8
OBJECT
 10
14.36465
 20
49.58867
 30
0.0
 40
0.0895
  0
CIRCLE
  8
OBJECT
 10
13.86465
 20
49.58867
 30
0.0
 40
0.0895
  0
CIRCLE
  8
OBJECT
 10
15.61465
 20
49.58867
 30
0.0
 40
0.0895
  0
CIRCLE
  8
OBJECT
 10
14.98965
 20
49.58867
 30
0.0
 40
0.0895
  0
CIRCLE
  8
OBJECT
 10
16.11465
 20
49.58867
 30
0.0
 40
0.0895
  0
CIRCLE
  8
OBJECT
 10
17.36465
 20
49.58867
 30
0.0
 40
0.0895
  0
CIRCLE
  8
OBJECT
 10
16.73965
 20
49.58867
 30
0.0
 40
0.0895
  0
CIRCLE
  8
OBJECT
 10
17.86465
 20
49.58867
 30
0.0
 40
0.0895
  0
CIRCLE
  8
OBJECT
 10
18.48965
 20
49.58867
 30
0.0
 40
0.0895
  0
CIRCLE
  8
OBJECT
 10
19.61465
 20
49.58867
 30
0.0
 40
0.0895
  0
CIRCLE
  8
OBJECT
 10
19.11465
 20
49.58867
 30
0.0
 40
0.0895
  0
CIRCLE
  8
OBJECT
 10
20.23965
 20
49.58867
 30
0.0
 40
0.0895
  0
CIRCLE
  8
OBJECT
 10
36.61465
 20
49.58867
 30
0.0
 40
0.0895
  0
CIRCLE
  8
OBJECT
 10
22.61465
 20
49.58867
 30
0.0
 40
0.0895
  0
CIRCLE
  8
OBJECT
 10
20.86465
 20
49.58867
 30
0.0
 40
0.0895
  0
CIRCLE
  8
OBJECT
 10
21.36465
 20
49.58867
 30
0.0
 40
0.0895
  0
CIRCLE
  8
OBJECT
 10
21.98965
 20
49.58867
 30
0.0
 40
0.0895
  0
CIRCLE
  8
OBJECT
 10
23.11465
 20
49.58867
 30
0.0
 40
0.0895
  0
CIRCLE
  8
OBJECT
 10
23.73965
 20
49.58867
 30
0.0
 40
0.0895
  0
CIRCLE
  8
OBJECT
 10
24.36465
 20
49.58867
 30
0.0
 40
0.0895
  0
CIRCLE
  8
OBJECT
 10
26.61465
 20
49.58867
 30
0.0
 40
0.0895
  0
CIRCLE
  8
OBJECT
 10
25.48965
 20
49.58867
 30
0.0
 40
0.0895
  0
CIRCLE
  8
OBJECT
 10
24.86465
 20
49.58867
 30
0.0
 40
0.0895
  0
CIRCLE
  8
OBJECT
 10
26.11465
 20
49.58867
 30
0.0
 40
0.0895
  0
CIRCLE
  8
OBJECT
 10
27.23965
 20
49.58867
 30
0.0
 40
0.0895
  0
CIRCLE
  8
OBJECT
 10
28.36465
 20
49.58867
 30
0.0
 40
0.0895
  0
CIRCLE
  8
OBJECT
 10
27.86465
 20
49.58867
 30
0.0
 40
0.0895
  0
CIRCLE
  8
OBJECT
 10
30.73965
 20
49.58867
 30
0.0
 40
0.0895
  0
CIRCLE
  8
OBJECT
 10
29.61465
 20
49.58867
 30
0.0
 40
0.0895
  0
CIRCLE
  8
OBJECT
 10
28.98965
 20
49.58867
 30
0.0
 40
0.0895
  0
CIRCLE
  8
OBJECT
 10
30.11465
 20
49.58867
 30
0.0
 40
0.0895
  0
CIRCLE
  8
OBJECT
 10
31.36465
 20
49.58867
 30
0.0
 40
0.0895
  0
CIRCLE
  8
OBJECT
 10
32.48965
 20
49.58867
 30
0.0
 40
0.0895
  0
CIRCLE
  8
OBJECT
 10
31.86465
 20
49.58867
 30
0.0
 40
0.0895
  0
CIRCLE
  8
OBJECT
 10
33.61465
 20
49.58867
 30
0.0
 40
0.0895
  0
CIRCLE
  8
OBJECT
 10
33.11465
 20
49.58867
 30
0.0
 40
0.0895
  0
CIRCLE
  8
OBJECT
 10
34.23965
 20
49.58867
 30
0.0
 40
0.0895
  0
CIRCLE
  8
OBJECT
 10
35.36465
 20
49.58867
 30
0.0
 40
0.0895
  0
CIRCLE
  8
OBJECT
 10
34.86465
 20
49.58867
 30
0.0
 40
0.0895
  0
CIRCLE
  8
OBJECT
 10
35.98965
 20
49.58867
 30
0.0
 40
0.0895
  0
CIRCLE
  8
OBJECT
 10
44.73965
 20
49.58867
 30
0.0
 40
0.0895
  0
CIRCLE
  8
OBJECT
 10
40.61465
 20
49.58867
 30
0.0
 40
0.0895
  0
CIRCLE
  8
OBJECT
 10
37.73965
 20
49.58867
 30
0.0
 40
0.0895
  0
CIRCLE
  8
OBJECT
 10
37.11465
 20
49.58867
 30
0.0
 40
0.0895
  0
CIRCLE
  8
OBJECT
 10
38.36465
 20
49.58867
 30
0.0
 40
0.0895
  0
CIRCLE
  8
OBJECT
 10
39.48965
 20
49.58867
 30
0.0
 40
0.0895
  0
CIRCLE
  8
OBJECT
 10
38.86465
 20
49.58867
 30
0.0
 40
0.0895
  0
CIRCLE
  8
OBJECT
 10
40.11465
 20
49.58867
 30
0.0
 40
0.0895
  0
CIRCLE
  8
OBJECT
 10
41.23965
 20
49.58867
 30
0.0
 40
0.0895
  0
CIRCLE
  8
OBJECT
 10
42.36465
 20
49.58867
 30
0.0
 40
0.0895
  0
CIRCLE
  8
OBJECT
 10
41.86465
 20
49.58867
 30
0.0
 40
0.0895
  0
CIRCLE
  8
OBJECT
 10
43.61465
 20
49.58867
 30
0.0
 40
0.0895
  0
CIRCLE
  8
OBJECT
 10
42.98965
 20
49.58867
 30
0.0
 40
0.0895
  0
CIRCLE
  8
OBJECT
 10
44.11465
 20
49.58867
 30
0.0
 40
0.0895
  0
CIRCLE
  8
OBJECT
 10
45.36465
 20
49.58867
 30
0.0
 40
0.0895
  0
CIRCLE
  8
OBJECT
 10
46.48965
 20
49.58867
 30
0.0
 40
0.0895
  0
CIRCLE
  8
OBJECT
 10
45.86465
 20
49.58867
 30
0.0
 40
0.0895
  0
CIRCLE
  8
OBJECT
 10
47.61465
 20
49.58867
 30
0.0
 40
0.0895
  0
CIRCLE
  8
OBJECT
 10
47.11465
 20
49.58867
 30
0.0
 40
0.0895
  0
CIRCLE
  8
OBJECT
 10
48.23965
 20
49.58867
 30
0.0
 40
0.0895
  0
CIRCLE
  8
OBJECT
 10
50.61465
 20
49.58867
 30
0.0
 40
0.0895
  0
CIRCLE
  8
OBJECT
 10
49.36465
 20
49.58867
 30
0.0
 40
0.0895
  0
CIRCLE
  8
OBJECT
 10
48.86465
 20
49.58867
 30
0.0
 40
0.0895
  0
CIRCLE
  8
OBJECT
 10
49.98965
 20
49.58867
 30
0.0
 40
0.0895
  0
CIRCLE
  8
OBJECT
 10
51.73965
 20
49.58867
 30
0.0
 40
0.0895
  0
CIRCLE
  8
OBJECT
 10
51.11465
 20
49.58867
 30
0.0
 40
0.0895
  0
CIRCLE
  8
OBJECT
 10
52.36465
 20
49.58867
 30
0.0
 40
0.0895
  0
CIRCLE
  8
OBJECT
 10
68.61465
 20
49.58867
 30
0.0
 40
0.0895
  0
CIRCLE
  8
OBJECT
 10
54.61465
 20
49.58867
 30
0.0
 40
0.0895
  0
CIRCLE
  8
OBJECT
 10
52.86465
 20
49.58867
 30
0.0
 40
0.0895
  0
CIRCLE
  8
OBJECT
 10
53.48965
 20
49.58867
 30
0.0
 40
0.0895
  0
CIRCLE
  8
OBJECT
 10
54.11465
 20
49.58867
 30
0.0
 40
0.0895
  0
CIRCLE
  8
OBJECT
 10
55.23965
 20
49.58867
 30
0.0
 40
0.0895
  0
CIRCLE
  8
OBJECT
 10
56.36465
 20
49.58867
 30
0.0
 40
0.0895
  0
CIRCLE
  8
OBJECT
 10
55.86465
 20
49.58867
 30
0.0
 40
0.0895
  0
CIRCLE
  8
OBJECT
 10
58.73965
 20
49.58867
 30
0.0
 40
0.0895
  0
CIRCLE
  8
OBJECT
 10
57.61465
 20
49.58867
 30
0.0
 40
0.0895
  0
CIRCLE
  8
OBJECT
 10
56.98965
 20
49.58867
 30
0.0
 40
0.0895
  0
CIRCLE
  8
OBJECT
 10
58.11465
 20
49.58867
 30
0.0
 40
0.0895
  0
CIRCLE
  8
OBJECT
 10
59.36465
 20
49.58867
 30
0.0
 40
0.0895
  0
CIRCLE
  8
OBJECT
 10
60.48965
 20
49.58867
 30
0.0
 40
0.0895
  0
CIRCLE
  8
OBJECT
 10
59.86465
 20
49.58867
 30
0.0
 40
0.0895
  0
CIRCLE
  8
OBJECT
 10
64.61465
 20
49.58867
 30
0.0
 40
0.0895
  0
CIRCLE
  8
OBJECT
 10
61.61465
 20
49.58867
 30
0.0
 40
0.0895
  0
CIRCLE
  8
OBJECT
 10
61.11465
 20
49.58867
 30
0.0
 40
0.0895
  0
CIRCLE
  8
OBJECT
 10
62.23965
 20
49.58867
 30
0.0
 40
0.0895
  0
CIRCLE
  8
OBJECT
 10
63.36465
 20
49.58867
 30
0.0
 40
0.0895
  0
CIRCLE
  8
OBJECT
 10
62.86465
 20
49.58867
 30
0.0
 40
0.0895
  0
CIRCLE
  8
OBJECT
 10
63.98965
 20
49.58867
 30
0.0
 40
0.0895
  0
CIRCLE
  8
OBJECT
 10
65.73965
 20
49.58867
 30
0.0
 40
0.0895
  0
CIRCLE
  8
OBJECT
 10
65.11465
 20
49.58867
 30
0.0
 40
0.0895
  0
CIRCLE
  8
OBJECT
 10
66.36465
 20
49.58867
 30
0.0
 40
0.0895
  0
CIRCLE
  8
OBJECT
 10
66.86465
 20
49.58867
 30
0.0
 40
0.0895
  0
CIRCLE
  8
OBJECT
 10
67.48965
 20
49.58867
 30
0.0
 40
0.0895
  0
CIRCLE
  8
OBJECT
 10
68.11465
 20
49.58867
 30
0.0
 40
0.0895
  0
CIRCLE
  8
OBJECT
 10
72.73965
 20
49.58867
 30
0.0
 40
0.0895
  0
CIRCLE
  8
OBJECT
 10
69.23965
 20
49.58867
 30
0.0
 40
0.0895
  0
CIRCLE
  8
OBJECT
 10
69.86465
 20
49.58867
 30
0.0
 40
0.0895
  0
CIRCLE
  8
OBJECT
 10
70.36465
 20
49.58867
 30
0.0
 40
0.0895
  0
CIRCLE
  8
OBJECT
 10
71.61465
 20
49.58867
 30
0.0
 40
0.0895
  0
CIRCLE
  8
OBJECT
 10
70.98965
 20
49.58867
 30
0.0
 40
0.0895
  0
CIRCLE
  8
OBJECT
 10
72.11465
 20
49.58867
 30
0.0
 40
0.0895
  0
CIRCLE
  8
OBJECT
 10
73.36465
 20
49.58867
 30
0.0
 40
0.0895
  0
CIRCLE
  8
OBJECT
 10
74.48965
 20
49.58867
 30
0.0
 40
0.0895
  0
CIRCLE
  8
OBJECT
 10
73.86465
 20
49.58867
 30
0.0
 40
0.0895
  0
CIRCLE
  8
OBJECT
 10
75.61465
 20
49.58867
 30
0.0
 40
0.0895
  0
CIRCLE
  8
OBJECT
 10
75.11465
 20
49.58867
 30
0.0
 40
0.0895
  0
CIRCLE
  8
OBJECT
 10
76.23965
 20
49.58867
 30
0.0
 40
0.0895
  0
CIRCLE
  8
OBJECT
 10
76.86465
 20
49.58867
 30
0.0
 40
0.0895
  0
LINE
  8
OBJECT
 10
77.1144
 20
49.77617
 30
0.0
 11
77.1144
 21
49.15117
 31
0.0
  0
LINE
  8
HIDDEN
 10
77.1144
 20
49.26017
 30
0.0
 11
7.11465
 21
49.26017
 31
0.0
  0
DIMENSION
  8
DIM
  2
*D31
 10
84.101414
 20
29.458875
 30
0.0
 11
89.285789
 21
29.458875
 31
0.0
  1
<> HOLD
 13
83.476414
 23
27.724969
 33
0.0
 14
84.101414
 24
27.724969
 34
0.0
  3
23NSTD
  0
DIMENSION
  8
DIM
  2
*D32
 10
85.308652
 20
25.646469
 30
0.0
 11
82.610527
 21
23.486469
 31
0.0
 13
84.101414
 23
26.333969
 33
0.0
 14
84.101414
 24
25.646469
 34
0.0
 50
90.0
  3
23NSTD
  0
DIMENSION
  8
DIM
  2
*D10
 10
80.802813
 20
26.224969
 30
0.0
 11
80.802813
 21
26.974969
 31
0.0
 12
-2.112466
 22
-47.977956
 32
0.0
 13
83.476414
 23
27.724969
 33
0.0
 14
83.476414
 24
26.224969
 34
0.0
 50
90.0
  3
23NSTDI
  0
DIMENSION
  8
DIM
  2
*D5
 10
32.6479
 20
41.048484
 30
0.0
 11
34.0229
 21
41.048484
 31
0.0
 12
4.195636
 22
-48.481221
 32
0.0
 13
35.3979
 23
27.286469
 33
0.0
 14
32.6479
 24
27.286469
 34
0.0
  3
23NSTDI
  0
DIMENSION
  8
DIM
  2
*D42
 10
32.6479
 20
41.048484
 30
0.0
 11
20.052775
 21
41.048484
 31
0.0
  1
  
 13
7.45765
 23
27.286469
 33
0.0
 14
32.6479
 24
27.286469
 34
0.0
  3
23NSTD
  0
DIMENSION
  8
DIM
  2
*D4
 10
28.2099
 20
39.362484
 30
0.0
 11
29.5849
 21
39.362484
 31
0.0
 12
4.195636
 22
-48.481221
 32
0.0
 13
30.9599
 23
27.286469
 33
0.0
 14
28.2099
 24
27.286469
 34
0.0
  3
23NSTDI
  0
DIMENSION
  8
DIM
  2
*D41
 10
28.2099
 20
39.362484
 30
0.0
 11
17.833775
 21
39.362484
 31
0.0
  1
  
 13
7.45765
 23
27.286469
 33
0.0
 14
28.2099
 24
27.286469
 34
0.0
  3
23NSTD
  0
TEXT
  8
DIM
 10
62.489217
 20
21.847957
 30
0.0
 40
0.74955
  1
(  ) HOLES
 41
0.75
  7
TXT
 72
     2
 11
67.54868
 21
22.222732
 31
0.0
 73
     2
  0
TEXT
  8
DIM
 10
57.523448
 20
23.097207
 30
0.0
 40
0.74955
  1
0.250 x 0.875 OBLONG
 41
0.75
  7
TXT
 72
     2
 11
67.54868
 21
23.471982
 31
0.0
 73
     2
  0
POLYLINE
  8
DIM
 66
     1
 10
0.0
 20
0.0
 30
0.0
 41
0.404757
  0
VERTEX
  8
DIM
 10
72.52065
 20
27.131469
 30
0.0
  0
VERTEX
  8
DIM
 10
71.791493
 20
26.335648
 30
0.0
 41
0.0
  0
VERTEX
  8
DIM
 10
69.167708
 20
23.471982
 30
0.0
 41
0.0
  0
VERTEX
  8
DIM
 10
68.088356
 20
23.471982
 30
0.0
 41
0.0
  0
SEQEND
  8
DIM
  0
TEXT
  8
DIM
 10
25.507812
 20
23.3694
 30
0.0
 40
0.74955
  1
0.281 DIA. HOLE
 41
0.75
  7
TXT
 11
25.507812
 21
23.744175
 31
0.0
 73
     2
  0
POLYLINE
  8
DIM
 66
     1
 10
0.0
 20
0.0
 30
0.0
 41
0.404757
  0
VERTEX
  8
DIM
 10
22.676109
 20
25.770503
 30
0.0
  0
VERTEX
  8
DIM
 10
23.230382
 20
24.844337
 30
0.0
 41
0.0
  0
VERTEX
  8
DIM
 10
23.888784
 20
23.744175
 30
0.0
 41
0.0
  0
VERTEX
  8
DIM
 10
24.968136
 20
23.744175
 30
0.0
 41
0.0
  0
SEQEND
  8
DIM
  0
DIMENSION
  8
DIM
  2
*D37
 10
7.11465
 20
30.932484
 30
0.0
 11
3.336525
 21
30.932484
 31
0.0
 13
7.45865
 23
27.287469
 33
0.0
 14
7.11465
 24
27.724969
 34
0.0
  3
23NSTD
  0
CIRCLE
  8
BEND
 10
8.530651
 20
26.431452
 30
0.0
 40
2.127955
  0
CIRCLE
  8
BEND
 10
7.961243
 20
49.427931
 30
0.0
 40
1.625609
  0
POLYLINE
  8
OBJECT
 66
     1
 10
0.0
 20
0.0
 30
0.0
 70
     4
 75
     6
  0
VERTEX
  8
OBJECT
 10
12.554291
 20
7.125528
 30
0.0
 70
    16
  0
VERTEX
  8
OBJECT
 10
12.554291
 20
7.125528
 30
0.0
 70
     8
  0
VERTEX
  8
OBJECT
 10
12.670132
 20
7.050412
 30
0.0
 70
     8
  0
VERTEX
  8
OBJECT
 10
12.741989
 20
6.983872
 30
0.0
 70
     8
  0
VERTEX
  8
OBJECT
 10
12.778105
 20
6.924942
 30
0.0
 70
     8
  0
VERTEX
  8
OBJECT
 10
12.786727
 20
6.872653
 30
0.0
 70
     8
  0
VERTEX
  8
OBJECT
 10
12.776099
 20
6.826039
 30
0.0
 70
     8
  0
VERTEX
  8
OBJECT
 10
12.754467
 20
6.784132
 30
0.0
 70
     8
  0
VERTEX
  8
OBJECT
 10
12.730077
 20
6.745965
 30
0.0
 70
     8
  0
VERTEX
  8
OBJECT
 10
12.711174
 20
6.71057
 30
0.0
 70
     8
  0
VERTEX
  8
OBJECT
 10
12.704111
 20
6.677109
 30
0.0
 70
     8
  0
VERTEX
  8
OBJECT
 10
12.707675
 20
6.645254
 30
0.0
 70
     8
  0
VERTEX
  8
OBJECT
 10
12.718762
 20
6.614805
 30
0.0
 70
     8
  0
VERTEX
  8
OBJECT
 10
12.734266
 20
6.585562
 30
0.0
 70
     8
  0
VERTEX
  8
OBJECT
 10
12.751083
 20
6.557328
 30
0.0
 70
     8
  0
VERTEX
  8
OBJECT
 10
12.766108
 20
6.529901
 30
0.0
 70
     8
  0
VERTEX
  8
OBJECT
 10
12.776237
 20
6.503082
 30
0.0
 70
     8
  0
VERTEX
  8
OBJECT
 10
12.778363
 20
6.476672
 30
0.0
 70
     8
  0
VERTEX
  8
OBJECT
 10
12.770374
 20
6.450497
 30
0.0
 70
     8
  0
VERTEX
  8
OBJECT
 10
12.75412
 20
6.424478
 30
0.0
 70
     8
  0
VERTEX
  8
OBJECT
 10
12.732443
 20
6.398564
 30
0.0
 70
     8
  0
VERTEX
  8
OBJECT
 10
12.708182
 20
6.372703
 30
0.0
 70
     8
  0
VERTEX
  8
OBJECT
 10
12.684181
 20
6.346841
 30
0.0
 70
     8
  0
VERTEX
  8
OBJECT
 10
12.66328
 20
6.320928
 30
0.0
 70
     8
  0
VERTEX
  8
OBJECT
 10
12.64832
 20
6.294909
 30
0.0
 70
     8
  0
VERTEX
  8
OBJECT
 10
12.642143
 20
6.268734
 30
0.0
 70
     8
  0
VERTEX
  8
OBJECT
 10
12.646588
 20
6.242345
 30
0.0
 70
     8
  0
VERTEX
  8
OBJECT
 10
12.659484
 20
6.215673
 30
0.0
 70
     8
  0
VERTEX
  8
OBJECT
 10
12.677656
 20
6.188646
 30
0.0
 70
     8
  0
VERTEX
  8
OBJECT
 10
12.697931
 20
6.161189
 30
0.0
 70
     8
  0
VERTEX
  8
OBJECT
 10
12.717136
 20
6.133228
 30
0.0
 70
     8
  0
VERTEX
  8
OBJECT
 10
12.732097
 20
6.104692
 30
0.0
 70
     8
  0
VERTEX
  8
OBJECT
 10
12.739639
 20
6.075506
 30
0.0
 70
     8
  0
VERTEX
  8
OBJECT
 10
12.73659
 20
6.045597
 30
0.0
 70
     8
  0
VERTEX
  8
OBJECT
 10
12.720902
 20
6.015081
 30
0.0
 70
     8
  0
VERTEX
  8
OBJECT
 10
12.695036
 20
5.984839
 30
0.0
 70
     8
  0
VERTEX
  8
OBJECT
 10
12.662577
 20
5.955937
 30
0.0
 70
     8
  0
VERTEX
  8
OBJECT
 10
12.627113
 20
5.929444
 30
0.0
 70
     8
  0
VERTEX
  8
OBJECT
 10
12.59223
 20
5.90643
 30
0.0
 70
     8
  0
VERTEX
  8
OBJECT
 10
12.561515
 20
5.887963
 30
0.0
 70
     8
  0
VERTEX
  8
OBJECT
 10
12.538555
 20
5.875112
 30
0.0
 70
     8
  0
VERTEX
  8
OBJECT
 10
12.526935
 20
5.868945
 30
0.0
 70
     8
  0
VERTEX
  8
OBJECT
 10
12.929178
 20
6.912923
 30
0.0
 70
    16
  0
VERTEX
  8
OBJECT
 10
12.564697
 20
6.691314
 30
0.0
 70
    16
  0
VERTEX
  8
OBJECT
 10
12.896833
 20
6.474438
 30
0.0
 70
    16
  0
VERTEX
  8
OBJECT
 10
12.518151
 20
6.270968
 30
0.0
 70
    16
  0
VERTEX
  8
OBJECT
 10
12.883421
 20
6.054091
 30
0.0
 70
    16
  0
VERTEX
  8
OBJECT
 10
12.539611
 20
5.875528
 30
0.0
 70
    16
  0
VERTEX
  8
OBJECT
 10
12.526935
 20
5.868945
 30
0.0
 70
    16
  0
SEQEND
  8
OBJECT
  0
DIMENSION
  8
DIM
  2
*D27
 10
77.1144
 20
46.86029
 30
0.0
 11
80.84565
 21
46.86029
 31
0.0
 13
76.86465
 23
49.58867
 33
0.0
 14
77.1144
 24
49.15117
 34
0.0
  3
23NSTD
  0
DIMENSION
  8
DIM
  2
*D43
 10
7.11465
 20
46.86029
 30
0.0
 11
3.3834
 21
46.86029
 31
0.0
 13
7.36465
 23
49.58867
 33
0.0
 14
7.11465
 24
49.15117
 34
0.0
  3
23NSTD
  0
DIMENSION
  8
DIM
  2
*D23
 10
7.36465
 20
46.86029
 30
0.0
 11
42.11465
 21
46.86029
 31
0.0
  1
(  ) HOLES ON E.I.A. UNIVERSAL SPACING  =   
 13
76.86465
 23
49.58867
 33
0.0
 14
7.36465
 24
49.58867
 34
0.0
  3
23NSTD
  0
TEXT
  8
TEXT
 10
7.008184
 20
2.686075
 30
0.0
 40
0.75
  1
%%UDETAIL "A"
 41
0.75
  7
TXT
  0
LINE
  8
TITLE
 10
37.989625
 20
0.372
 30
0.0
 11
37.989625
 21
18.642271
 31
0.0
  0
LINE
  8
TITLE
 10
37.989625
 20
18.642271
 30
0.0
 11
92.628
 21
18.642271
 31
0.0
  0
LINE
  8
TITLE
 10
44.625583
 20
0.372
 30
0.0
 11
44.625583
 21
18.642271
 31
0.0
  0
LINE
  8
TITLE
 10
50.625833
 20
0.372
 30
0.0
 11
50.625833
 21
18.642271
 31
0.0
  0
LINE
  8
TITLE
 10
56.626083
 20
0.372
 30
0.0
 11
56.626083
 21
18.642271
 31
0.0
  0
LINE
  8
TITLE
 10
62.626333
 20
0.372
 30
0.0
 11
62.626333
 21
18.642271
 31
0.0
  0
LINE
  8
TITLE
 10
68.626583
 20
0.372
 30
0.0
 11
68.626583
 21
18.642271
 31
0.0
  0
LINE
  8
TITLE
 10
74.626833
 20
0.372
 30
0.0
 11
74.626833
 21
18.642271
 31
0.0
  0
LINE
  8
TITLE
 10
80.627083
 20
0.372
 30
0.0
 11
80.627083
 21
18.642271
 31
0.0
  0
LINE
  8
TITLE
 10
86.627333
 20
0.372
 30
0.0
 11
86.627333
 21
18.642271
 31
0.0
  0
LINE
  8
TITLE
 10
37.989625
 20
16.320924
 30
0.0
 11
92.628
 21
16.320924
 31
0.0
  0
TEXT
  8
TEXT
 10
39.151354
 20
15.180097
 30
0.0
 40
0.75
  1
PMR-9448
 41
0.75
  7
TXT
 72
     1
 11
41.307604
 21
15.180097
 31
0.0
  0
LINE
  8
TITLE
 10
37.989625
 20
13.421106
 30
0.0
 11
92.628
 21
13.421106
 31
0.0
  0
LINE
  8
TITLE
 10
37.989625
 20
11.971197
 30
0.0
 11
92.628
 21
11.971197
 31
0.0
  0
LINE
  8
TITLE
 10
37.989625
 20
10.521287
 30
0.0
 11
92.628
 21
10.521287
 31
0.0
  0
LINE
  8
TITLE
 10
37.989625
 20
9.071378
 30
0.0
 11
92.628
 21
9.071378
 31
0.0
  0
LINE
  8
TITLE
 10
37.989625
 20
7.621469
 30
0.0
 11
92.628
 21
7.621469
 31
0.0
  0
LINE
  8
TITLE
 10
37.989625
 20
6.17156
 30
0.0
 11
92.628
 21
6.17156
 31
0.0
  0
LINE
  8
TITLE
 10
37.989625
 20
4.721651
 30
0.0
 11
92.628
 21
4.721651
 31
0.0
  0
LINE
  8
TITLE
 10
37.989625
 20
3.271742
 30
0.0
 11
92.628
 21
3.271742
 31
0.0
  0
LINE
  8
TITLE
 10
37.989625
 20
1.821833
 30
0.0
 11
92.628
 21
1.821833
 31
0.0
  0
TEXT
  8
TEXT
 10
39.057604
 20
12.280279
 30
0.0
 40
0.75
  1
PMR-14315
 41
0.75
  7
TXT
 72
     1
 11
41.307604
 21
12.280279
 31
0.0
  0
TEXT
  8
TEXT
 10
39.151354
 20
10.83037
 30
0.0
 40
0.75
  1
PMR-9449
 41
0.75
  7
TXT
 72
     1
 11
41.307604
 21
10.83037
 31
0.0
  0
TEXT
  8
TEXT
 10
39.245104
 20
9.380461
 30
0.0
 40
0.75
  1
PMR-2002
 41
0.75
  7
TXT
 72
     1
 11
41.307604
 21
9.380461
 31
0.0
  0
TEXT
  8
TEXT
 10
39.198229
 20
7.930552
 30
0.0
 40
0.75
  1
PMR-9450
 41
0.75
  7
TXT
 72
     1
 11
41.307604
 21
7.930552
 31
0.0
  0
TEXT
  8
TEXT
 10
39.245104
 20
6.480643
 30
0.0
 40
0.75
  1
PMR-9451
 41
0.75
  7
TXT
 72
     1
 11
41.307604
 21
6.480643
 31
0.0
  0
TEXT
  8
TEXT
 10
39.151354
 20
5.030734
 30
0.0
 40
0.75
  1
PMR-9452
 41
0.75
  7
TXT
 72
     1
 11
41.307604
 21
5.030734
 31
0.0
  0
TEXT
  8
TEXT
 10
39.151354
 20
3.580824
 30
0.0
 40
0.75
  1
PMR-9453
 41
0.75
  7
TXT
 72
     1
 11
41.307604
 21
3.580824
 31
0.0
  0
TEXT
  8
TEXT
 10
39.198229
 20
2.130915
 30
0.0
 40
0.75
  1
PMR-9306
 41
0.75
  7
TXT
 72
     1
 11
41.307604
 21
2.130915
 31
0.0
  0
TEXT
  8
TEXT
 10
39.151354
 20
0.681006
 30
0.0
 40
0.75
  1
PMR-9454
 41
0.75
  7
TXT
 72
     1
 11
41.307604
 21
0.681006
 31
0.0
  0
TEXT
  8
TEXT
 10
38.620159
 20
17.086369
 30
0.0
 40
0.75
  1
CATALOG No.
 41
0.75
  7
TXT
  0
TEXT
  8
DIM
 10
31.143388
 20
46.426331
 30
0.0
 40
1.0
  1
F
 41
0.75
  7
ITALICC
  0
TEXT
  8
DIM
 10
52.465173
 20
46.359387
 30
0.0
 40
1.0
  1
E
 41
0.75
  7
ITALICC
  0
TEXT
  8
TEXT
 10
47.02766
 20
17.023648
 30
0.0
 40
1.0
  1
L
 41
0.75
  7
ITALICC
  0
TEXT
  8
TEXT
 10
59.02816
 20
17.023648
 30
0.0
 40
1.0
  1
B
 41
0.75
  7
ITALICC
  0
TEXT
  8
TEXT
 10
65.02841
 20
17.023648
 30
0.0
 40
1.0
  1
C
 41
0.75
  7
ITALICC
  0
TEXT
  8
TEXT
 10
71.02866
 20
17.023648
 30
0.0
 40
1.0
  1
D
 41
0.75
  7
ITALICC
  0
TEXT
  8
TEXT
 10
77.02891
 20
17.023648
 30
0.0
 40
1.0
  1
E
 41
0.75
  7
ITALICC
  0
TEXT
  8
TEXT
 10
83.02916
 20
17.023648
 30
0.0
 40
1.0
  1
F
 41
0.75
  7
ITALICC
  0
TEXT
  8
TEXT
 10
89.02941
 20
17.023648
 30
0.0
 40
1.0
  1
G
 41
0.75
  7
ITALICC
  0
TEXT
  8
TEXT
 10
46.327009
 20
15.180097
 30
0.0
 40
0.75
  1
21.000
 41
0.75
  7
TXT
 72
     1
 11
47.498884
 21
15.180097
 31
0.0
  0
TEXT
  8
TEXT
 10
52.186634
 20
15.180097
 30
0.0
 40
0.75
  1
-----
 41
0.75
  7
TXT
 72
     1
 11
53.499134
 21
15.180097
 31
0.0
  0
TEXT
  8
TEXT
 10
58.186884
 20
15.180097
 30
0.0
 40
0.75
  1
-----
 41
0.75
  7
TXT
 72
     1
 11
59.499384
 21
15.180097
 31
0.0
  0
TEXT
  8
TEXT
 10
64.187134
 20
15.180097
 30
0.0
 40
0.75
  1
-----
 41
0.75
  7
TXT
 72
     1
 11
65.499634
 21
15.180097
 31
0.0
  0
TEXT
  8
TEXT
 10
70.187384
 20
15.180097
 30
0.0
 40
0.75
  1
-----
 41
0.75
  7
TXT
 72
     1
 11
71.499884
 21
15.180097
 31
0.0
  0
TEXT
  8
TEXT
 10
83.285282
 20
15.180097
 30
0.0
 40
0.75
  1
36
 41
0.75
  7
TXT
 72
     1
 11
83.754032
 21
15.180097
 31
0.0
  0
TEXT
  8
TEXT
 10
76.488157
 20
15.180097
 30
0.0
 40
0.75
  1
20.500
 41
0.75
  7
TXT
 72
     1
 11
77.753782
 21
15.180097
 31
0.0
  0
TEXT
  8
TEXT
 10
89.313134
 20
15.180097
 30
0.0
 40
0.75
  1
8
 41
0.75
  7
TXT
 72
     1
 11
89.500634
 21
15.180097
 31
0.0
  0
TEXT
  8
TEXT
 10
46.233259
 20
12.280279
 30
0.0
 40
0.75
  1
28.000
 41
0.75
  7
TXT
 72
     1
 11
47.498884
 21
12.280279
 31
0.0
  0
TEXT
  8
TEXT
 10
52.186634
 20
12.280279
 30
0.0
 40
0.75
  1
-----
 41
0.75
  7
TXT
 72
     1
 11
53.499134
 21
12.280279
 31
0.0
  0
TEXT
  8
TEXT
 10
58.186884
 20
12.280279
 30
0.0
 40
0.75
  1
-----
 41
0.75
  7
TXT
 72
     1
 11
59.499384
 21
12.280279
 31
0.0
  0
TEXT
  8
TEXT
 10
64.187134
 20
12.280279
 30
0.0
 40
0.75
  1
-----
 41
0.75
  7
TXT
 72
     1
 11
65.499634
 21
12.280279
 31
0.0
  0
TEXT
  8
TEXT
 10
70.187384
 20
12.280279
 30
0.0
 40
0.75
  1
-----
 41
0.75
  7
TXT
 72
     1
 11
71.499884
 21
12.280279
 31
0.0
  0
TEXT
  8
TEXT
 10
83.285282
 20
12.280279
 30
0.0
 40
0.75
  1
48
 41
0.75
  7
TXT
 72
     1
 11
83.754032
 21
12.280279
 31
0.0
  0
TEXT
  8
TEXT
 10
76.441282
 20
12.280279
 30
0.0
 40
0.75
  1
27.500
 41
0.75
  7
TXT
 72
     1
 11
77.753782
 21
12.280279
 31
0.0
  0
TEXT
  8
TEXT
 10
89.313134
 20
12.280279
 30
0.0
 40
0.75
  1
8
 41
0.75
  7
TXT
 72
     1
 11
89.500634
 21
12.280279
 31
0.0
  0
TEXT
  8
TEXT
 10
46.280134
 20
10.83037
 30
0.0
 40
0.75
  1
31.500
 41
0.75
  7
TXT
 72
     1
 11
47.498884
 21
10.83037
 31
0.0
  0
TEXT
  8
TEXT
 10
52.186634
 20
10.83037
 30
0.0
 40
0.75
  1
-----
 41
0.75
  7
TXT
 72
     1
 11
53.499134
 21
10.83037
 31
0.0
  0
TEXT
  8
TEXT
 10
58.186884
 20
10.83037
 30
0.0
 40
0.75
  1
-----
 41
0.75
  7
TXT
 72
     1
 11
59.499384
 21
10.83037
 31
0.0
  0
TEXT
  8
TEXT
 10
64.187134
 20
10.83037
 30
0.0
 40
0.75
  1
-----
 41
0.75
  7
TXT
 72
     1
 11
65.499634
 21
10.83037
 31
0.0
  0
TEXT
  8
TEXT
 10
70.187384
 20
10.83037
 30
0.0
 40
0.75
  1
-----
 41
0.75
  7
TXT
 72
     1
 11
71.499884
 21
10.83037
 31
0.0
  0
TEXT
  8
TEXT
 10
83.285282
 20
10.83037
 30
0.0
 40
0.75
  1
54
 41
0.75
  7
TXT
 72
     1
 11
83.754032
 21
10.83037
 31
0.0
  0
TEXT
  8
TEXT
 10
76.581907
 20
10.83037
 30
0.0
 40
0.75
  1
31.000
 41
0.75
  7
TXT
 72
     1
 11
77.753782
 21
10.83037
 31
0.0
  0
TEXT
  8
TEXT
 10
89.313134
 20
10.83037
 30
0.0
 40
0.75
  1
8
 41
0.75
  7
TXT
 72
     1
 11
89.500634
 21
10.83037
 31
0.0
  0
TEXT
  8
TEXT
 10
46.233259
 20
9.380461
 30
0.0
 40
0.75
  1
35.000
 41
0.75
  7
TXT
 72
     1
 11
47.498884
 21
9.380461
 31
0.0
  0
TEXT
  8
TEXT
 10
52.186634
 20
9.380461
 30
0.0
 40
0.75
  1
-----
 41
0.75
  7
TXT
 72
     1
 11
53.499134
 21
9.380461
 31
0.0
  0
TEXT
  8
TEXT
 10
58.186884
 20
9.380461
 30
0.0
 40
0.75
  1
-----
 41
0.75
  7
TXT
 72
     1
 11
59.499384
 21
9.380461
 31
0.0
  0
TEXT
  8
TEXT
 10
64.187134
 20
9.380461
 30
0.0
 40
0.75
  1
-----
 41
0.75
  7
TXT
 72
     1
 11
65.499634
 21
9.380461
 31
0.0
  0
TEXT
  8
TEXT
 10
70.187384
 20
9.380461
 30
0.0
 40
0.75
  1
-----
 41
0.75
  7
TXT
 72
     1
 11
71.499884
 21
9.380461
 31
0.0
  0
TEXT
  8
TEXT
 10
83.332157
 20
9.380461
 30
0.0
 40
0.75
  1
60
 41
0.75
  7
TXT
 72
     1
 11
83.754032
 21
9.380461
 31
0.0
  0
TEXT
  8
TEXT
 10
76.441282
 20
9.380461
 30
0.0
 40
0.75
  1
34.500
 41
0.75
  7
TXT
 72
     1
 11
77.753782
 21
9.380461
 31
0.0
  0
TEXT
  8
TEXT
 10
89.313134
 20
9.380461
 30
0.0
 40
0.75
  1
8
 41
0.75
  7
TXT
 72
     1
 11
89.500634
 21
9.380461
 31
0.0
  0
TEXT
  8
TEXT
 10
46.233259
 20
7.930552
 30
0.0
 40
0.75
  1
42.000
 41
0.75
  7
TXT
 72
     1
 11
47.498884
 21
7.930552
 31
0.0
  0
TEXT
  8
TEXT
 10
52.327259
 20
7.930552
 30
0.0
 40
0.75
  1
10.188
 41
0.75
  7
TXT
 72
     1
 11
53.499134
 21
7.930552
 31
0.0
  0
TEXT
  8
TEXT
 10
58.186884
 20
7.930552
 30
0.0
 40
0.75
  1
-----
 41
0.75
  7
TXT
 72
     1
 11
59.499384
 21
7.930552
 31
0.0
  0
TEXT
  8
TEXT
 10
64.187134
 20
7.930552
 30
0.0
 40
0.75
  1
-----
 41
0.75
  7
TXT
 72
     1
 11
65.499634
 21
7.930552
 31
0.0
  0
TEXT
  8
TEXT
 10
70.281134
 20
7.930552
 30
0.0
 40
0.75
  1
19.281
 41
0.75
  7
TXT
 72
     1
 11
71.499884
 21
7.930552
 31
0.0
  0
TEXT
  8
TEXT
 10
83.285282
 20
7.930552
 30
0.0
 40
0.75
  1
72
 41
0.75
  7
TXT
 72
     1
 11
83.754032
 21
7.930552
 31
0.0
  0
TEXT
  8
TEXT
 10
76.535032
 20
7.930552
 30
0.0
 40
0.75
  1
41.500
 41
0.75
  7
TXT
 72
     1
 11
77.753782
 21
7.930552
 31
0.0
  0
TEXT
  8
TEXT
 10
89.125634
 20
7.930552
 30
0.0
 40
0.75
  1
14
 41
0.75
  7
TXT
 72
     1
 11
89.500634
 21
7.930552
 31
0.0
  0
TEXT
  8
TEXT
 10
46.186384
 20
6.480643
 30
0.0
 40
0.75
  1
52.500
 41
0.75
  7
TXT
 72
     1
 11
47.498884
 21
6.480643
 31
0.0
  0
TEXT
  8
TEXT
 10
52.186634
 20
6.480643
 30
0.0
 40
0.75
  1
15.438
 41
0.75
  7
TXT
 72
     1
 11
53.499134
 21
6.480643
 31
0.0
  0
TEXT
  8
TEXT
 10
58.186884
 20
6.480643
 30
0.0
 40
0.75
  1
-----
 41
0.75
  7
TXT
 72
     1
 11
59.499384
 21
6.480643
 31
0.0
  0
TEXT
  8
TEXT
 10
64.187134
 20
6.480643
 30
0.0
 40
0.75
  1
-----
 41
0.75
  7
TXT
 72
     1
 11
65.499634
 21
6.480643
 31
0.0
  0
TEXT
  8
TEXT
 10
70.187384
 20
6.480643
 30
0.0
 40
0.75
  1
24.531
 41
0.75
  7
TXT
 72
     1
 11
71.499884
 21
6.480643
 31
0.0
  0
TEXT
  8
TEXT
 10
83.332157
 20
6.480643
 30
0.0
 40
0.75
  1
90
 41
0.75
  7
TXT
 72
     1
 11
83.754032
 21
6.480643
 31
0.0
  0
TEXT
  8
TEXT
 10
76.488157
 20
6.480643
 30
0.0
 40
0.75
  1
52.000
 41
0.75
  7
TXT
 72
     1
 11
77.753782
 21
6.480643
 31
0.0
  0
TEXT
  8
TEXT
 10
89.125634
 20
6.480643
 30
0.0
 40
0.75
  1
14
 41
0.75
  7
TXT
 72
     1
 11
89.500634
 21
6.480643
 31
0.0
  0
TEXT
  8
TEXT
 10
46.233259
 20
5.030734
 30
0.0
 40
0.75
  1
61.250
 41
0.75
  7
TXT
 72
     1
 11
47.498884
 21
5.030734
 31
0.0
  0
TEXT
  8
TEXT
 10
52.233509
 20
5.030734
 30
0.0
 40
0.75
  1
13.094
 41
0.75
  7
TXT
 72
     1
 11
53.499134
 21
5.030734
 31
0.0
  0
TEXT
  8
TEXT
 10
58.186884
 20
5.030734
 30
0.0
 40
0.75
  1
-----
 41
0.75
  7
TXT
 72
     1
 11
59.499384
 21
5.030734
 31
0.0
  0
TEXT
  8
TEXT
 10
64.187134
 20
5.030734
 30
0.0
 40
0.75
  1
-----
 41
0.75
  7
TXT
 72
     1
 11
65.499634
 21
5.030734
 31
0.0
  0
TEXT
  8
TEXT
 10
70.140509
 20
5.030734
 30
0.0
 40
0.75
  1
28.906
 41
0.75
  7
TXT
 72
     1
 11
71.499884
 21
5.030734
 31
0.0
  0
TEXT
  8
TEXT
 10
83.144657
 20
5.030734
 30
0.0
 40
0.75
  1
105
 41
0.75
  7
TXT
 72
     1
 11
83.754032
 21
5.030734
 31
0.0
  0
TEXT
  8
TEXT
 10
76.441282
 20
5.030734
 30
0.0
 40
0.75
  1
60.750
 41
0.75
  7
TXT
 72
     1
 11
77.753782
 21
5.030734
 31
0.0
  0
TEXT
  8
TEXT
 10
89.125634
 20
5.030734
 30
0.0
 40
0.75
  1
14
 41
0.75
  7
TXT
 72
     1
 11
89.500634
 21
5.030734
 31
0.0
  0
TEXT
  8
TEXT
 10
46.280134
 20
3.580824
 30
0.0
 40
0.75
  1
70.000
 41
0.75
  7
TXT
 72
     1
 11
47.498884
 21
3.580824
 31
0.0
  0
TEXT
  8
TEXT
 10
52.280384
 20
3.580824
 30
0.0
 40
0.75
  1
15.281
 41
0.75
  7
TXT
 72
     1
 11
53.499134
 21
3.580824
 31
0.0
  0
TEXT
  8
TEXT
 10
58.186884
 20
3.580824
 30
0.0
 40
0.75
  1
-----
 41
0.75
  7
TXT
 72
     1
 11
59.499384
 21
3.580824
 31
0.0
  0
TEXT
  8
TEXT
 10
64.187134
 20
3.580824
 30
0.0
 40
0.75
  1
-----
 41
0.75
  7
TXT
 72
     1
 11
65.499634
 21
3.580824
 31
0.0
  0
TEXT
  8
TEXT
 10
70.187384
 20
3.580824
 30
0.0
 40
0.75
  1
33.281
 41
0.75
  7
TXT
 72
     1
 11
71.499884
 21
3.580824
 31
0.0
  0
TEXT
  8
TEXT
 10
83.144657
 20
3.580824
 30
0.0
 40
0.75
  1
120
 41
0.75
  7
TXT
 72
     1
 11
83.754032
 21
3.580824
 31
0.0
  0
TEXT
  8
TEXT
 10
76.441282
 20
3.580824
 30
0.0
 40
0.75
  1
69.500
 41
0.75
  7
TXT
 72
     1
 11
77.753782
 21
3.580824
 31
0.0
  0
TEXT
  8
TEXT
 10
89.125634
 20
3.580824
 30
0.0
 40
0.75
  1
14
 41
0.75
  7
TXT
 72
     1
 11
89.500634
 21
3.580824
 31
0.0
  0
TEXT
  8
TEXT
 10
46.233259
 20
2.130915
 30
0.0
 40
0.75
  1
77.000
 41
0.75
  7
TXT
 72
     1
 11
47.498884
 21
2.130915
 31
0.0
  0
TEXT
  8
TEXT
 10
52.327259
 20
2.130915
 30
0.0
 40
0.75
  1
17.016
 41
0.75
  7
TXT
 72
     1
 11
53.499134
 21
2.130915
 31
0.0
  0
TEXT
  8
TEXT
 10
58.186884
 20
2.130915
 30
0.0
 40
0.75
  1
-----
 41
0.75
  7
TXT
 72
     1
 11
59.499384
 21
2.130915
 31
0.0
  0
TEXT
  8
TEXT
 10
64.187134
 20
2.130915
 30
0.0
 40
0.75
  1
-----
 41
0.75
  7
TXT
 72
     1
 11
65.499634
 21
2.130915
 31
0.0
  0
TEXT
  8
TEXT
 10
70.187384
 20
2.130915
 30
0.0
 40
0.75
  1
36.781
 41
0.75
  7
TXT
 72
     1
 11
71.499884
 21
2.130915
 31
0.0
  0
TEXT
  8
TEXT
 10
83.097782
 20
2.130915
 30
0.0
 40
0.75
  1
132
 41
0.75
  7
TXT
 72
     1
 11
83.754032
 21
2.130915
 31
0.0
  0
TEXT
  8
TEXT
 10
76.441282
 20
2.130915
 30
0.0
 40
0.75
  1
76.500
 41
0.75
  7
TXT
 72
     1
 11
77.753782
 21
2.130915
 31
0.0
  0
TEXT
  8
TEXT
 10
89.125634
 20
2.130915
 30
0.0
 40
0.75
  1
14
 41
0.75
  7
TXT
 72
     1
 11
89.500634
 21
2.130915
 31
0.0
  0
TEXT
  8
TEXT
 10
46.139509
 20
0.681006
 30
0.0
 40
0.75
  1
78.750
 41
0.75
  7
TXT
 72
     1
 11
47.498884
 21
0.681006
 31
0.0
  0
TEXT
  8
TEXT
 10
52.186634
 20
0.681006
 30
0.0
 40
0.75
  1
13.375
 41
0.75
  7
TXT
 72
     1
 11
53.499134
 21
0.681006
 31
0.0
  0
TEXT
  8
TEXT
 10
58.186884
 20
0.681006
 30
0.0
 40
0.75
  1
25.125
 41
0.75
  7
TXT
 72
     1
 11
59.499384
 21
0.681006
 31
0.0
  0
TEXT
  8
TEXT
 10
64.093384
 20
0.681006
 30
0.0
 40
0.75
  1
29.563
 41
0.75
  7
TXT
 72
     1
 11
65.499634
 21
0.681006
 31
0.0
  0
TEXT
  8
TEXT
 10
70.093634
 20
0.681006
 30
0.0
 40
0.75
  1
37.656
 41
0.75
  7
TXT
 72
     1
 11
71.499884
 21
0.681006
 31
0.0
  0
TEXT
  8
TEXT
 10
83.097782
 20
0.681006
 30
0.0
 40
0.75
  1
135
 41
0.75
  7
TXT
 72
     1
 11
83.754032
 21
0.681006
 31
0.0
  0
TEXT
  8
TEXT
 10
76.394407
 20
0.681006
 30
0.0
 40
0.75
  1
78.250
 41
0.75
  7
TXT
 72
     1
 11
77.753782
 21
0.681006
 31
0.0
  0
TEXT
  8
TEXT
 10
89.031884
 20
0.681006
 30
0.0
 40
0.75
  1
22
 41
0.75
  7
TXT
 72
     1
 11
89.500634
 21
0.681006
 31
0.0
  0
TEXT
  8
TEXT
 10
13.126421
 20
58.625
 30
0.0
 40
0.938
  1
PANEL MOUNTING RAIL
 41
0.75
  7
TXT
 72
     4
 11
19.457921
 21
59.094
 31
0.0
  0
TEXT
  8
TEXT
 10
45.598073
 20
58.625
 30
0.0
 40
0.938
  1
PMR-9448 TO PMR-9454 / PMR-2002 / PMR-2331 / PMR-9306 / PMR-14315
 41
0.75
  7
TXT
 72
     4
 11
67.816948
 21
59.094
 31
0.0
  0
TEXT
  8
TEXT
 10
4.117091
 20
56.116621
 30
0.0
 40
0.75
  1
%%UMATERIAL:%%U 12 GA. STEEL
 41
0.75
  7
TXT
  0
TEXT
  8
TEXT
 10
4.117091
 20
54.866621
 30
0.0
 40
0.75
  1
%%UFINISH:%%U SMOOTH BLACK
 41
0.75
  7
TXT
  0
TEXT
  8
TEXT
 10
36.664963
 20
55.537792
 30
0.0
 40
0.75
  1
%%uNOTE:%%u PANEL MOUNTING RAIL LISTED MAY BE USED ON EITHER
 41
0.75
  7
TXT
  0
TEXT
  8
TEXT
 10
39.667984
 20
53.037792
 30
0.0
 40
0.75
  1
JAGUAR (STYLE B) OR ALL AMERICAN RACK WITH CORRESPONDING
 41
0.75
  7
TXT
  0
TEXT
  8
TEXT
 10
39.667984
 20
51.787792
 30
0.0
 40
0.75
  1
PANEL SPACE MATCHING THE LENGTH OF THE RAILS.
 41
0.75
  7
TXT
  0
DIMENSION
  8
DIM
  2
*D36
 10
4.444126
 20
26.974969
 30
0.0
 11
1.792876
 21
24.814969
 31
0.0
 13
7.11465
 23
27.724969
 33
0.0
 14
7.33365
 24
26.974969
 34
0.0
 50
90.0
  3
23NSTD
  0
DIMENSION
  8
DIM
  2
*D45
 10
7.11465
 20
20.706927
 30
0.0
 11
3.3834
 21
20.706927
 31
0.0
 13
7.36465
 23
25.896969
 33
0.0
 14
7.11465
 24
25.646969
 34
0.0
  3
23NSTD
  0
DIMENSION
  8
DIM
  2
*D35
 10
5.641828
 20
25.646969
 30
0.0
 11
2.990578
 21
23.486969
 31
0.0
 13
7.36465
 23
25.896969
 33
0.0
 14
7.11465
 24
25.646969
 34
0.0
 50
90.0
  3
23NSTD
  0
DIMENSION
  8
DIM
  2
*D46
 10
77.1144
 20
20.706927
 30
0.0
 11
80.84565
 21
20.706927
 31
0.0
 13
76.8644
 23
25.896969
 33
0.0
 14
77.1144
 24
25.646969
 34
0.0
  3
23NSTD
  0
TEXT
  8
TEXT
 10
53.02791
 20
17.023648
 30
0.0
 40
1.0
  1
A
 41
0.75
  7
ITALICC
  0
LINE
  8
HIDDEN
 10
7.11465
 20
26.333969
 30
0.0
 11
77.11465
 21
26.333969
 31
0.0
  0
LINE
  8
HIDDEN
 10
77.11465
 20
27.615969
 30
0.0
 11
7.11465
 21
27.615969
 31
0.0
  0
LINE
  8
OBJECT
 10
7.11465
 20
25.646969
 30
0.0
 11
77.11465
 21
25.646969
 31
0.0
  0
LINE
  8
OBJECT
 10
77.11465
 20
27.724969
 30
0.0
 11
7.11465
 21
27.724969
 31
0.0
  0
LINE
  8
OBJECT
 10
72.77165
 20
26.661469
 30
0.0
 11
72.77165
 21
27.286469
 31
0.0
  0
LINE
  8
OBJECT
 10
72.52165
 20
27.286469
 30
0.0
 11
72.52165
 21
26.661469
 31
0.0
  0
LINE
  8
OBJECT
 10
75.52165
 20
26.661469
 30
0.0
 11
75.52165
 21
27.286469
 31
0.0
  0
LINE
  8
OBJECT
 10
76.64665
 20
27.286469
 30
0.0
 11
76.64665
 21
26.661469
 31
0.0
  0
LINE
  8
OBJECT
 10
74.14665
 20
26.661469
 30
0.0
 11
74.14665
 21
27.286469
 31
0.0
  0
LINE
  8
OBJECT
 10
73.89665
 20
27.286469
 30
0.0
 11
73.89665
 21
26.661469
 31
0.0
  0
LINE
  8
OBJECT
 10
75.27165
 20
27.286469
 30
0.0
 11
75.27165
 21
26.661469
 31
0.0
  0
LINE
  8
OBJECT
 10
77.11465
 20
25.646969
 30
0.0
 11
77.11465
 21
27.724969
 31
0.0
  0
LINE
  8
OBJECT
 10
76.89665
 20
26.661469
 30
0.0
 11
76.89665
 21
27.286469
 31
0.0
  0
CIRCLE
  8
OBJECT
 10
75.11465
 20
25.896969
 30
0.0
 40
0.1405
  0
CIRCLE
  8
OBJECT
 10
75.61465
 20
25.896969
 30
0.0
 40
0.1405
  0
CIRCLE
  8
OBJECT
 10
76.23965
 20
25.896969
 30
0.0
 40
0.1405
  0
ARC
  8
OBJECT
 10
75.39665
 20
26.661469
 30
0.0
 40
0.125
 50
180.0
 51
0.0
  0
CIRCLE
  8
OBJECT
 10
76.86465
 20
25.896969
 30
0.0
 40
0.1405
  0
ARC
  8
OBJECT
 10
76.77165
 20
26.661469
 30
0.0
 40
0.125
 50
180.0
 51
0.0
  0
CIRCLE
  8
OBJECT
 10
72.73965
 20
25.896969
 30
0.0
 40
0.1405
  0
CIRCLE
  8
OBJECT
 10
72.11465
 20
25.896969
 30
0.0
 40
0.1405
  0
CIRCLE
  8
OBJECT
 10
71.61465
 20
25.896969
 30
0.0
 40
0.1405
  0
ARC
  8
OBJECT
 10
72.64665
 20
26.661469
 30
0.0
 40
0.125
 50
180.0
 51
0.0
  0
CIRCLE
  8
OBJECT
 10
73.36465
 20
25.896969
 30
0.0
 40
0.1405
  0
CIRCLE
  8
OBJECT
 10
74.48965
 20
25.896969
 30
0.0
 40
0.1405
  0
CIRCLE
  8
OBJECT
 10
73.86465
 20
25.896969
 30
0.0
 40
0.1405
  0
ARC
  8
OBJECT
 10
74.02165
 20
26.661469
 30
0.0
 40
0.125
 50
180.0
 51
0.0
  0
ARC
  8
OBJECT
 10
75.39665
 20
27.286469
 30
0.0
 40
0.125
 50
0.0
 51
180.0
  0
ARC
  8
OBJECT
 10
76.77165
 20
27.286469
 30
0.0
 40
0.125
 50
0.0
 51
180.0
  0
ARC
  8
OBJECT
 10
72.64665
 20
27.286469
 30
0.0
 40
0.125
 50
0.0
 51
180.0
  0
ARC
  8
OBJECT
 10
74.02165
 20
27.286469
 30
0.0
 40
0.125
 50
0.0
 51
180.0
  0
CIRCLE
  8
OBJECT
 10
67.48965
 20
25.896969
 30
0.0
 40
0.1405
  0
CIRCLE
  8
OBJECT
 10
68.61465
 20
25.896969
 30
0.0
 40
0.1405
  0
CIRCLE
  8
OBJECT
 10
68.11465
 20
25.896969
 30
0.0
 40
0.1405
  0
CIRCLE
  8
OBJECT
 10
69.86465
 20
25.896969
 30
0.0
 40
0.1405
  0
CIRCLE
  8
OBJECT
 10
70.98965
 20
25.896969
 30
0.0
 40
0.1405
  0
CIRCLE
  8
OBJECT
 10
70.36465
 20
25.896969
 30
0.0
 40
0.1405
  0
CIRCLE
  8
OBJECT
 10
69.23965
 20
25.896969
 30
0.0
 40
0.1405
  0
CIRCLE
  8
OBJECT
 10
65.11465
 20
25.896969
 30
0.0
 40
0.1405
  0
CIRCLE
  8
OBJECT
 10
64.61465
 20
25.896969
 30
0.0
 40
0.1405
  0
CIRCLE
  8
OBJECT
 10
63.98965
 20
25.896969
 30
0.0
 40
0.1405
  0
CIRCLE
  8
OBJECT
 10
66.36465
 20
25.896969
 30
0.0
 40
0.1405
  0
CIRCLE
  8
OBJECT
 10
65.73965
 20
25.896969
 30
0.0
 40
0.1405
  0
CIRCLE
  8
OBJECT
 10
66.86465
 20
25.896969
 30
0.0
 40
0.1405
  0
LINE
  8
OBJECT
 10
63.55565
 20
27.286469
 30
0.0
 11
63.55565
 21
26.661469
 31
0.0
  0
LINE
  8
OBJECT
 10
60.80565
 20
27.286469
 30
0.0
 11
60.80565
 21
26.661469
 31
0.0
  0
LINE
  8
OBJECT
 10
61.05565
 20
26.661469
 30
0.0
 11
61.05565
 21
27.286469
 31
0.0
  0
LINE
  8
OBJECT
 10
63.80565
 20
26.661469
 30
0.0
 11
63.80565
 21
27.286469
 31
0.0
  0
CIRCLE
  8
OBJECT
 10
61.11465
 20
25.896969
 30
0.0
 40
0.1405
  0
CIRCLE
  8
OBJECT
 10
60.48965
 20
25.896969
 30
0.0
 40
0.1405
  0
CIRCLE
  8
OBJECT
 10
62.86465
 20
25.896969
 30
0.0
 40
0.1405
  0
CIRCLE
  8
OBJECT
 10
62.23965
 20
25.896969
 30
0.0
 40
0.1405
  0
CIRCLE
  8
OBJECT
 10
63.36465
 20
25.896969
 30
0.0
 40
0.1405
  0
CIRCLE
  8
OBJECT
 10
61.61465
 20
25.896969
 30
0.0
 40
0.1405
  0
ARC
  8
OBJECT
 10
63.68065
 20
26.661469
 30
0.0
 40
0.125
 50
180.0
 51
360.0
  0
CIRCLE
  8
OBJECT
 10
57.61465
 20
25.896969
 30
0.0
 40
0.1405
  0
CIRCLE
  8
OBJECT
 10
56.98965
 20
25.896969
 30
0.0
 40
0.1405
  0
CIRCLE
  8
OBJECT
 10
56.36465
 20
25.896969
 30
0.0
 40
0.1405
  0
CIRCLE
  8
OBJECT
 10
59.36465
 20
25.896969
 30
0.0
 40
0.1405
  0
CIRCLE
  8
OBJECT
 10
58.73965
 20
25.896969
 30
0.0
 40
0.1405
  0
CIRCLE
  8
OBJECT
 10
58.11465
 20
25.896969
 30
0.0
 40
0.1405
  0
CIRCLE
  8
OBJECT
 10
59.86465
 20
25.896969
 30
0.0
 40
0.1405
  0
ARC
  8
OBJECT
 10
60.93065
 20
26.661469
 30
0.0
 40
0.125
 50
180.0
 51
360.0
  0
ARC
  8
OBJECT
 10
63.68065
 20
27.286469
 30
0.0
 40
0.125
 50
360.0
 51
180.0
  0
ARC
  8
OBJECT
 10
60.93065
 20
27.286469
 30
0.0
 40
0.125
 50
360.0
 51
180.0
  0
CIRCLE
  8
OBJECT
 10
52.36465
 20
25.896969
 30
0.0
 40
0.1405
  0
CIRCLE
  8
OBJECT
 10
53.48965
 20
25.896969
 30
0.0
 40
0.1405
  0
CIRCLE
  8
OBJECT
 10
52.86465
 20
25.896969
 30
0.0
 40
0.1405
  0
CIRCLE
  8
OBJECT
 10
55.86465
 20
25.896969
 30
0.0
 40
0.1405
  0
CIRCLE
  8
OBJECT
 10
55.23965
 20
25.896969
 30
0.0
 40
0.1405
  0
CIRCLE
  8
OBJECT
 10
54.61465
 20
25.896969
 30
0.0
 40
0.1405
  0
CIRCLE
  8
OBJECT
 10
54.11465
 20
25.896969
 30
0.0
 40
0.1405
  0
CIRCLE
  8
OBJECT
 10
48.86465
 20
25.896969
 30
0.0
 40
0.1405
  0
CIRCLE
  8
OBJECT
 10
49.98965
 20
25.896969
 30
0.0
 40
0.1405
  0
CIRCLE
  8
OBJECT
 10
49.36465
 20
25.896969
 30
0.0
 40
0.1405
  0
CIRCLE
  8
OBJECT
 10
51.73965
 20
25.896969
 30
0.0
 40
0.1405
  0
CIRCLE
  8
OBJECT
 10
51.11465
 20
25.896969
 30
0.0
 40
0.1405
  0
CIRCLE
  8
OBJECT
 10
50.61465
 20
25.896969
 30
0.0
 40
0.1405
  0
LINE
  8
OBJECT
 10
43.61565
 20
26.661469
 30
0.0
 11
43.61565
 21
27.286469
 31
0.0
  0
LINE
  8
OBJECT
 10
43.36565
 20
27.286469
 30
0.0
 11
43.36565
 21
26.661469
 31
0.0
  0
CIRCLE
  8
OBJECT
 10
44.73965
 20
25.896969
 30
0.0
 40
0.1405
  0
CIRCLE
  8
OBJECT
 10
45.86465
 20
25.896969
 30
0.0
 40
0.1405
  0
CIRCLE
  8
OBJECT
 10
45.36465
 20
25.896969
 30
0.0
 40
0.1405
  0
CIRCLE
  8
OBJECT
 10
48.23965
 20
25.896969
 30
0.0
 40
0.1405
  0
CIRCLE
  8
OBJECT
 10
47.61465
 20
25.896969
 30
0.0
 40
0.1405
  0
CIRCLE
  8
OBJECT
 10
47.11465
 20
25.896969
 30
0.0
 40
0.1405
  0
CIRCLE
  8
OBJECT
 10
46.48965
 20
25.896969
 30
0.0
 40
0.1405
  0
CIRCLE
  8
OBJECT
 10
42.36465
 20
25.896969
 30
0.0
 40
0.1405
  0
CIRCLE
  8
OBJECT
 10
41.23965
 20
25.896969
 30
0.0
 40
0.1405
  0
CIRCLE
  8
OBJECT
 10
41.86465
 20
25.896969
 30
0.0
 40
0.1405
  0
ARC
  8
OBJECT
 10
43.49065
 20
26.661469
 30
0.0
 40
0.125
 50
180.0
 51
0.0
  0
CIRCLE
  8
OBJECT
 10
42.98965
 20
25.896969
 30
0.0
 40
0.1405
  0
CIRCLE
  8
OBJECT
 10
43.61465
 20
25.896969
 30
0.0
 40
0.1405
  0
CIRCLE
  8
OBJECT
 10
44.11465
 20
25.896969
 30
0.0
 40
0.1405
  0
ARC
  8
OBJECT
 10
43.49065
 20
27.286469
 30
0.0
 40
0.125
 50
0.0
 51
180.0
  0
CIRCLE
  8
OBJECT
 10
10.36465
 20
25.896969
 30
0.0
 40
0.1405
  0
LINE
  8
OBJECT
 10
40.61565
 20
27.286469
 30
0.0
 11
40.61565
 21
26.661469
 31
0.0
  0
LINE
  8
OBJECT
 10
40.86565
 20
26.661469
 30
0.0
 11
40.86565
 21
27.286469
 31
0.0
  0
CIRCLE
  8
OBJECT
 10
37.11465
 20
25.896969
 30
0.0
 40
0.1405
  0
CIRCLE
  8
OBJECT
 10
38.36465
 20
25.896969
 30
0.0
 40
0.1405
  0
CIRCLE
  8
OBJECT
 10
37.73965
 20
25.896969
 30
0.0
 40
0.1405
  0
ARC
  8
OBJECT
 10
40.74065
 20
26.661469
 30
0.0
 40
0.125
 50
180.0
 51
0.0
  0
CIRCLE
  8
OBJECT
 10
38.86465
 20
25.896969
 30
0.0
 40
0.1405
  0
CIRCLE
  8
OBJECT
 10
39.48965
 20
25.896969
 30
0.0
 40
0.1405
  0
CIRCLE
  8
OBJECT
 10
40.11465
 20
25.896969
 30
0.0
 40
0.1405
  0
CIRCLE
  8
OBJECT
 10
40.61465
 20
25.896969
 30
0.0
 40
0.1405
  0
CIRCLE
  8
OBJECT
 10
33.61465
 20
25.896969
 30
0.0
 40
0.1405
  0
CIRCLE
  8
OBJECT
 10
34.23965
 20
25.896969
 30
0.0
 40
0.1405
  0
CIRCLE
  8
OBJECT
 10
36.61465
 20
25.896969
 30
0.0
 40
0.1405
  0
CIRCLE
  8
OBJECT
 10
35.98965
 20
25.896969
 30
0.0
 40
0.1405
  0
CIRCLE
  8
OBJECT
 10
35.36465
 20
25.896969
 30
0.0
 40
0.1405
  0
CIRCLE
  8
OBJECT
 10
34.86465
 20
25.896969
 30
0.0
 40
0.1405
  0
ARC
  8
OBJECT
 10
40.74065
 20
27.286469
 30
0.0
 40
0.125
 50
0.0
 51
180.0
  0
CIRCLE
  8
OBJECT
 10
29.61465
 20
25.896969
 30
0.0
 40
0.1405
  0
CIRCLE
  8
OBJECT
 10
30.73965
 20
25.896969
 30
0.0
 40
0.1405
  0
CIRCLE
  8
OBJECT
 10
30.11465
 20
25.896969
 30
0.0
 40
0.1405
  0
CIRCLE
  8
OBJECT
 10
33.11465
 20
25.896969
 30
0.0
 40
0.1405
  0
CIRCLE
  8
OBJECT
 10
31.36465
 20
25.896969
 30
0.0
 40
0.1405
  0
CIRCLE
  8
OBJECT
 10
32.48965
 20
25.896969
 30
0.0
 40
0.1405
  0
CIRCLE
  8
OBJECT
 10
31.86465
 20
25.896969
 30
0.0
 40
0.1405
  0
CIRCLE
  8
OBJECT
 10
26.11465
 20
25.896969
 30
0.0
 40
0.1405
  0
CIRCLE
  8
OBJECT
 10
26.61465
 20
25.896969
 30
0.0
 40
0.1405
  0
CIRCLE
  8
OBJECT
 10
27.86465
 20
25.896969
 30
0.0
 40
0.1405
  0
CIRCLE
  8
OBJECT
 10
28.98965
 20
25.896969
 30
0.0
 40
0.1405
  0
CIRCLE
  8
OBJECT
 10
28.36465
 20
25.896969
 30
0.0
 40
0.1405
  0
CIRCLE
  8
OBJECT
 10
27.23965
 20
25.896969
 30
0.0
 40
0.1405
  0
LINE
  8
OBJECT
 10
20.67565
 20
27.286469
 30
0.0
 11
20.67565
 21
26.661469
 31
0.0
  0
LINE
  8
OBJECT
 10
20.42565
 20
26.661469
 30
0.0
 11
20.42565
 21
27.286469
 31
0.0
  0
LINE
  8
OBJECT
 10
23.42565
 20
27.286469
 30
0.0
 11
23.42565
 21
26.661469
 31
0.0
  0
LINE
  8
OBJECT
 10
23.17565
 20
26.661469
 30
0.0
 11
23.17565
 21
27.286469
 31
0.0
  0
CIRCLE
  8
OBJECT
 10
21.98965
 20
25.896969
 30
0.0
 40
0.1405
  0
CIRCLE
  8
OBJECT
 10
23.11465
 20
25.896969
 30
0.0
 40
0.1405
  0
CIRCLE
  8
OBJECT
 10
22.61465
 20
25.896969
 30
0.0
 40
0.1405
  0
ARC
  8
OBJECT
 10
20.55065
 20
26.661469
 30
0.0
 40
0.125
 50
180.0
 51
0.0
  0
CIRCLE
  8
OBJECT
 10
24.36465
 20
25.896969
 30
0.0
 40
0.1405
  0
CIRCLE
  8
OBJECT
 10
23.73965
 20
25.896969
 30
0.0
 40
0.1405
  0
CIRCLE
  8
OBJECT
 10
25.48965
 20
25.896969
 30
0.0
 40
0.1405
  0
CIRCLE
  8
OBJECT
 10
24.86465
 20
25.896969
 30
0.0
 40
0.1405
  0
ARC
  8
OBJECT
 10
23.30065
 20
26.661469
 30
0.0
 40
0.125
 50
180.0
 51
0.0
  0
CIRCLE
  8
OBJECT
 10
18.48965
 20
25.896969
 30
0.0
 40
0.1405
  0
CIRCLE
  8
OBJECT
 10
19.11465
 20
25.896969
 30
0.0
 40
0.1405
  0
CIRCLE
  8
OBJECT
 10
20.86465
 20
25.896969
 30
0.0
 40
0.1405
  0
CIRCLE
  8
OBJECT
 10
20.23965
 20
25.896969
 30
0.0
 40
0.1405
  0
CIRCLE
  8
OBJECT
 10
21.36465
 20
25.896969
 30
0.0
 40
0.1405
  0
CIRCLE
  8
OBJECT
 10
19.61465
 20
25.896969
 30
0.0
 40
0.1405
  0
ARC
  8
OBJECT
 10
20.55065
 20
27.286469
 30
0.0
 40
0.125
 50
0.0
 51
180.0
  0
ARC
  8
OBJECT
 10
23.30065
 20
27.286469
 30
0.0
 40
0.125
 50
0.0
 51
180.0
  0
LINE
  8
OBJECT
 10
11.70765
 20
27.286469
 30
0.0
 11
11.70765
 21
26.661469
 31
0.0
  0
LINE
  8
OBJECT
 10
11.45765
 20
26.661469
 30
0.0
 11
11.45765
 21
27.286469
 31
0.0
  0
CIRCLE
  8
OBJECT
 10
14.36465
 20
25.896969
 30
0.0
 40
0.1405
  0
CIRCLE
  8
OBJECT
 10
15.61465
 20
25.896969
 30
0.0
 40
0.1405
  0
CIRCLE
  8
OBJECT
 10
14.98965
 20
25.896969
 30
0.0
 40
0.1405
  0
CIRCLE
  8
OBJECT
 10
17.36465
 20
25.896969
 30
0.0
 40
0.1405
  0
CIRCLE
  8
OBJECT
 10
16.73965
 20
25.896969
 30
0.0
 40
0.1405
  0
CIRCLE
  8
OBJECT
 10
16.11465
 20
25.896969
 30
0.0
 40
0.1405
  0
CIRCLE
  8
OBJECT
 10
17.86465
 20
25.896969
 30
0.0
 40
0.1405
  0
CIRCLE
  8
OBJECT
 10
10.86465
 20
25.896969
 30
0.0
 40
0.1405
  0
ARC
  8
OBJECT
 10
11.58265
 20
26.661469
 30
0.0
 40
0.125
 50
180.0
 51
0.0
  0
CIRCLE
  8
OBJECT
 10
11.48965
 20
25.896969
 30
0.0
 40
0.1405
  0
CIRCLE
  8
OBJECT
 10
13.86465
 20
25.896969
 30
0.0
 40
0.1405
  0
CIRCLE
  8
OBJECT
 10
13.23965
 20
25.896969
 30
0.0
 40
0.1405
  0
CIRCLE
  8
OBJECT
 10
12.61465
 20
25.896969
 30
0.0
 40
0.1405
  0
CIRCLE
  8
OBJECT
 10
12.11465
 20
25.896969
 30
0.0
 40
0.1405
  0
ARC
  8
OBJECT
 10
11.58265
 20
27.286469
 30
0.0
 40
0.125
 50
0.0
 51
180.0
  0
LINE
  8
OBJECT
 10
7.11465
 20
27.724969
 30
0.0
 11
7.11465
 21
25.646969
 31
0.0
  0
LINE
  8
OBJECT
 10
7.58265
 20
27.286469
 30
0.0
 11
7.58265
 21
26.661469
 31
0.0
  0
LINE
  8
OBJECT
 10
7.33265
 20
26.661469
 30
0.0
 11
7.33265
 21
27.286469
 31
0.0
  0
LINE
  8
OBJECT
 10
10.33265
 20
27.286469
 30
0.0
 11
10.33265
 21
26.661469
 31
0.0
  0
LINE
  8
OBJECT
 10
10.08265
 20
26.661469
 30
0.0
 11
10.08265
 21
27.286469
 31
0.0
  0
LINE
  8
OBJECT
 10
8.70765
 20
26.661469
 30
0.0
 11
8.70765
 21
27.286469
 31
0.0
  0
LINE
  8
OBJECT
 10
8.95765
 20
27.286469
 30
0.0
 11
8.95765
 21
26.661469
 31
0.0
  0
CIRCLE
  8
OBJECT
 10
7.98965
 20
25.896969
 30
0.0
 40
0.1405
  0
CIRCLE
  8
OBJECT
 10
7.36465
 20
25.896969
 30
0.0
 40
0.1405
  0
ARC
  8
OBJECT
 10
7.45765
 20
26.661469
 30
0.0
 40
0.125
 50
180.0
 51
0.0
  0
CIRCLE
  8
OBJECT
 10
8.61465
 20
25.896969
 30
0.0
 40
0.1405
  0
CIRCLE
  8
OBJECT
 10
9.73965
 20
25.896969
 30
0.0
 40
0.1405
  0
CIRCLE
  8
OBJECT
 10
9.11465
 20
25.896969
 30
0.0
 40
0.1405
  0
ARC
  8
OBJECT
 10
10.20765
 20
26.661469
 30
0.0
 40
0.125
 50
180.0
 51
0.0
  0
ARC
  8
OBJECT
 10
8.83265
 20
26.661469
 30
0.0
 40
0.125
 50
180.0
 51
0.0
  0
ARC
  8
OBJECT
 10
7.45765
 20
27.286469
 30
0.0
 40
0.125
 50
0.0
 51
180.0
  0
ARC
  8
OBJECT
 10
10.20765
 20
27.286469
 30
0.0
 40
0.125
 50
0.0
 51
180.0
  0
ARC
  8
OBJECT
 10
8.83265
 20
27.286469
 30
0.0
 40
0.125
 50
0.0
 51
180.0
  0
LINE
  8
OBJECT
 10
7.11465
 20
26.224969
 30
0.0
 11
77.11465
 21
26.224969
 31
0.0
  0
DIMENSION
  8
DIM
  2
*D3
 10
20.55065
 20
37.676484
 30
0.0
 11
21.92565
 21
37.676484
 31
0.0
 12
4.195636
 22
-48.481221
 32
0.0
 13
23.30065
 23
27.286469
 33
0.0
 14
20.55065
 24
27.286469
 34
0.0
  3
23NSTDI
  0
DIMENSION
  8
DIM
  2
*D40
 10
20.55065
 20
37.676484
 30
0.0
 11
14.00415
 21
37.676484
 31
0.0
  1
  
 13
7.45765
 23
27.286469
 33
0.0
 14
20.55065
 24
27.286469
 34
0.0
  3
23NSTD
  0
DIMENSION
  8
DIM
  2
*D2
 10
7.45765
 20
35.990484
 30
0.0
 11
8.83265
 21
35.990484
 31
0.0
 12
4.195636
 22
-48.481221
 32
0.0
 13
10.20765
 23
27.286469
 33
0.0
 14
7.45765
 24
27.286469
 34
0.0
  3
23NSTDI
  0
DIMENSION
  8
DIM
  2
*D34
 10
7.11465
 20
32.618484
 30
0.0
 11
3.47715
 21
32.618484
 31
0.0
 13
8.83265
 23
27.286469
 33
0.0
 14
7.11465
 24
27.724969
 34
0.0
  3
23NSTD
  0
DIMENSION
  8
DIM
  2
*D38
 10
11.58265
 20
34.304484
 30
0.0
 11
15.360775
 21
34.304484
 31
0.0
 13
8.83265
 23
27.286469
 33
0.0
 14
11.58265
 24
27.286469
 34
0.0
  3
23NSTD
  0
DIMENSION
  8
DIM
  2
*D6
 10
40.74065
 20
42.734484
 30
0.0
 11
42.11565
 21
42.734484
 31
0.0
 12
4.195636
 22
-48.481221
 32
0.0
 13
43.49065
 23
27.286469
 33
0.0
 14
40.74065
 24
27.286469
 34
0.0
  3
23NSTDI
  0
DIMENSION
  8
DIM
  2
*D22
 10
77.11465
 20
44.420484
 30
0.0
 11
42.11465
 21
44.420484
 31
0.0
  1
  
 13
7.11465
 23
27.724969
 33
0.0
 14
77.11465
 24
27.724969
 34
0.0
  3
23NSTD
  0
DIMENSION
  8
DIM
  2
*D39
 10
40.74065
 20
42.734484
 30
0.0
 11
24.09915
 21
42.734484
 31
0.0
  1
  
 13
7.45765
 23
27.286469
 33
0.0
 14
40.74065
 24
27.286469
 34
0.0
  3
23NSTD
  0
DIMENSION
  8
DIM
  2
*D33
 10
7.36465
 20
20.706927
 30
0.0
 11
42.11465
 21
21.059186
 31
0.0
 12
0.0
 22
-0.352259
 32
0.0
  1
(  ) HOLES ON E.I.A. UNIVERSAL SPACING  =   
 13
76.86465
 23
20.732668
 33
0.0
 14
7.36465
 24
20.732668
 34
0.0
  3
23NSTD
  0
TEXT
  8
DIM
 10
31.143388
 20
20.272967
 30
0.0
 40
1.0
  1
F
 41
0.75
  7
ITALICC
  0
TEXT
  8
DIM
 10
52.465173
 20
20.206024
 30
0.0
 40
1.0
  1
E
 41
0.75
  7
ITALICC
  0
DIMENSION
  8
DIM
  2
*D30
 10
77.11465
 20
30.932484
 30
0.0
 11
80.892775
 21
30.932484
 31
0.0
 13
76.77065
 23
27.287469
 33
0.0
 14
77.11465
 24
27.724969
 34
0.0
  3
23NSTD
  0
DIMENSION
  8
DIM
  2
*D29
 10
77.11465
 20
32.618484
 30
0.0
 11
80.75215
 21
32.618484
 31
0.0
 13
75.39665
 23
27.286469
 33
0.0
 14
77.11465
 24
27.724969
 34
0.0
  3
23NSTD
  0
DIMENSION
  8
DIM
  2
*D28
 10
72.64665
 20
34.304484
 30
0.0
 11
68.868525
 21
34.304484
 31
0.0
 13
75.39665
 23
27.286469
 33
0.0
 14
72.64665
 24
27.286469
 34
0.0
  3
23NSTD
  0
DIMENSION
  8
DIM
  2
*D1
 10
76.77165
 20
35.990484
 30
0.0
 11
75.39665
 21
35.990484
 31
0.0
 12
4.195636
 22
-48.481221
 32
0.0
 13
74.02165
 23
27.286469
 33
0.0
 14
76.77165
 24
27.286469
 34
0.0
  3
23NSTDI
  0
TEXT
  8
DIM
 10
13.75415
 20
37.176484
 30
0.0
 40
1.0
  1
A
 41
0.75
  7
ITALICC
 72
     4
 11
14.00415
 21
37.676484
 31
0.0
  0
TEXT
  8
DIM
 10
17.458775
 20
38.862484
 30
0.0
 40
1.0
  1
B
 41
0.75
  7
ITALICC
 72
     4
 11
17.833775
 21
39.362484
 31
0.0
  0
TEXT
  8
DIM
 10
19.642061
 20
40.548484
 30
0.0
 40
1.0
  1
C
 41
0.75
  7
ITALICC
 72
     4
 11
20.052775
 21
41.048484
 31
0.0
  0
TEXT
  8
DIM
 10
23.742007
 20
42.234484
 30
0.0
 40
1.0
  1
D
 41
0.75
  7
ITALICC
 72
     4
 11
24.09915
 21
42.734484
 31
0.0
  0
TEXT
  8
DIM
 10
41.811079
 20
43.920484
 30
0.0
 40
1.0
  1
L
 41
0.75
  7
ITALICC
 72
     4
 11
42.11465
 21
44.420484
 31
0.0
  0
DIMENSION
  8
DIM
  2
*D21
 10
43.48865
 20
42.734484
 30
0.0
 11
60.13015
 21
42.734484
 31
0.0
  1
  
 13
76.77165
 23
27.286469
 33
0.0
 14
43.48865
 24
27.286469
 34
0.0
  3
23NSTD
  0
DIMENSION
  8
DIM
  2
*D26
 10
51.5814
 20
41.048484
 30
0.0
 11
64.176525
 21
41.048484
 31
0.0
  1
  
 13
76.77165
 23
27.286469
 33
0.0
 14
51.5814
 24
27.286469
 34
0.0
  3
23NSTD
  0
DIMENSION
  8
DIM
  2
*D25
 10
56.0194
 20
39.362484
 30
0.0
 11
66.395525
 21
39.362484
 31
0.0
  1
  
 13
76.77165
 23
27.286469
 33
0.0
 14
56.0194
 24
27.286469
 34
0.0
  3
23NSTD
  0
DIMENSION
  8
DIM
  2
*D24
 10
63.67865
 20
37.676484
 30
0.0
 11
70.22515
 21
37.676484
 31
0.0
  1
  
 13
76.77165
 23
27.286469
 33
0.0
 14
63.67865
 24
27.286469
 34
0.0
  3
23NSTD
  0
DIMENSION
  8
DIM
  2
*D7
 10
51.5814
 20
41.048484
 30
0.0
 11
50.2064
 21
41.048484
 31
0.0
 12
4.195636
 22
-48.481221
 32
0.0
 13
48.8314
 23
27.286469
 33
0.0
 14
51.5814
 24
27.286469
 34
0.0
  3
23NSTDI
  0
DIMENSION
  8
DIM
  2
*D8
 10
56.0194
 20
39.362484
 30
0.0
 11
54.6444
 21
39.362484
 31
0.0
 12
4.195636
 22
-48.481221
 32
0.0
 13
53.2694
 23
27.286469
 33
0.0
 14
56.0194
 24
27.286469
 34
0.0
  3
23NSTDI
  0
DIMENSION
  8
DIM
  2
*D9
 10
63.67865
 20
37.676484
 30
0.0
 11
62.30365
 21
37.676484
 31
0.0
 12
4.195636
 22
-48.481221
 32
0.0
 13
60.92865
 23
27.286469
 33
0.0
 14
63.67865
 24
27.286469
 34
0.0
  3
23NSTDI
  0
TEXT
  8
DIM
 10
69.832293
 20
37.176484
 30
0.0
 40
1.0
  1
A
 41
0.75
  7
ITALICC
 72
     4
 11
70.22515
 21
37.676484
 31
0.0
  0
TEXT
  8
DIM
 10
66.020525
 20
38.862484
 30
0.0
 40
1.0
  1
B
 41
0.75
  7
ITALICC
 72
     4
 11
66.395525
 21
39.362484
 31
0.0
  0
TEXT
  8
DIM
 10
63.980097
 20
40.548484
 30
0.0
 40
1.0
  1
C
 41
0.75
  7
ITALICC
 72
     4
 11
64.176525
 21
41.048484
 31
0.0
  0
TEXT
  8
DIM
 10
59.773007
 20
42.234484
 30
0.0
 40
1.0
  1
D
 41
0.75
  7
ITALICC
 72
     4
 11
60.13015
 21
42.734484
 31
0.0
  0
TEXT
  8
DIM
 10
25.783367
 20
51.944616
 30
0.0
 40
0.9
  1
F
 41
0.75
  7
ITALICC
  0
TEXT
  8
DIM
 10
25.507812
 20
22.12015
 30
0.0
 40
0.74955
  1
(  ) PLACES
 41
0.75
  7
TXT
 11
25.507812
 21
22.494925
 31
0.0
 73
     2
  0
TEXT
  8
DIM
 10
26.018821
 20
22.060901
 30
0.0
 40
0.9
  1
F
 41
0.75
  7
ITALICC
  0
TEXT
  8
DIM
 10
62.959959
 20
21.803507
 30
0.0
 40
0.9
  1
G
 41
0.75
  7
ITALICC
  0
TEXT
  8
TEXT
 10
39.667984
 20
54.287792
 30
0.0
 40
0.75
  1
SERIES 60, SERIES 2000, CLASSIC II, VALURACK, ECONOMIZER,
 41
0.75
  7
TXT
  0
LINE
  8
HIDDEN
 10
12.744461
 20
6.086945
 30
0.0
 11
6.936168
 21
6.086945
 31
0.0
  0
LINE
  8
OBJECT
 10
6.936168
 20
7.118945
 30
0.0
 11
12.564443
 21
7.118945
 31
0.0
  0
LINE
  8
OBJECT
 10
12.526935
 20
5.868945
 30
0.0
 11
6.936168
 21
5.868945
 31
0.0
  0
LINE
  8
OBJECT
 10
6.936168
 20
5.868945
 30
0.0
 11
6.936168
 21
7.118945
 31
0.0
  0
CIRCLE
  8
OBJECT
 10
7.436168
 20
6.743945
 30
0.0
 40
0.179
  0
CIRCLE
  8
OBJECT
 10
8.686168
 20
6.743945
 30
0.0
 40
0.179
  0
CIRCLE
  8
OBJECT
 10
10.936168
 20
6.743945
 30
0.0
 40
0.179
  0
CIRCLE
  8
OBJECT
 10
9.936168
 20
6.743945
 30
0.0
 40
0.179
  0
CIRCLE
  8
OBJECT
 10
12.186168
 20
6.743945
 30
0.0
 40
0.179
  0
ARC
  8
OBJECT
 10
30.856809
 20
14.25923
 30
0.0
 40
0.25
 50
0.0
 51
180.0
  0
ARC
  8
OBJECT
 10
30.856809
 20
13.00923
 30
0.0
 40
0.25
 50
180.0
 51
0.0
  0
LINE
  8
OBJECT
 10
25.106809
 20
13.00923
 30
0.0
 11
25.106809
 21
14.25923
 31
0.0
  0
LINE
  8
OBJECT
 10
25.606809
 20
14.25923
 30
0.0
 11
25.606809
 21
13.00923
 31
0.0
  0
LINE
  8
OBJECT
 10
24.670809
 20
15.13623
 30
0.0
 11
24.670809
 21
10.98023
 31
0.0
  0
ARC
  8
OBJECT
 10
25.356809
 20
13.00923
 30
0.0
 40
0.25
 50
180.0
 51
0.0
  0
CIRCLE
  8
OBJECT
 10
25.170809
 20
11.48023
 30
0.0
 40
0.281
  0
CIRCLE
  8
OBJECT
 10
26.420809
 20
11.48023
 30
0.0
 40
0.281
  0
ARC
  8
OBJECT
 10
25.356809
 20
14.25923
 30
0.0
 40
0.25
 50
0.0
 51
180.0
  0
LINE
  8
OBJECT
 10
28.356809
 20
14.25923
 30
0.0
 11
28.356809
 21
13.00923
 31
0.0
  0
LINE
  8
OBJECT
 10
27.856809
 20
13.00923
 30
0.0
 11
27.856809
 21
14.25923
 31
0.0
  0
LINE
  8
OBJECT
 10
30.606809
 20
13.00923
 30
0.0
 11
30.606809
 21
14.25923
 31
0.0
  0
ARC
  8
OBJECT
 10
28.106809
 20
13.00923
 30
0.0
 40
0.25
 50
180.0
 51
0.0
  0
CIRCLE
  8
OBJECT
 10
28.670809
 20
11.48023
 30
0.0
 40
0.281
  0
CIRCLE
  8
OBJECT
 10
27.670809
 20
11.48023
 30
0.0
 40
0.281
  0
CIRCLE
  8
OBJECT
 10
29.920809
 20
11.48023
 30
0.0
 40
0.281
  0
ARC
  8
OBJECT
 10
28.106809
 20
14.25923
 30
0.0
 40
0.25
 50
0.0
 51
180.0
  0
LINE
  8
OBJECT
 10
31.106809
 20
14.25923
 30
0.0
 11
31.106809
 21
13.00923
 31
0.0
  0
CIRCLE
  8
OBJECT
 10
31.170809
 20
11.48023
 30
0.0
 40
0.281
  0
LINE
  8
OBJECT
 10
24.670809
 20
12.13623
 30
0.0
 11
32.35961
 21
12.13623
 31
0.0
  0
LINE
  8
OBJECT
 10
30.160351
 20
15.13623
 30
0.0
 11
24.670809
 21
15.13623
 31
0.0
  0
LINE
  8
OBJECT
 10
24.670809
 20
10.98023
 30
0.0
 11
31.875641
 21
10.98023
 31
0.0
  0
LINE
  8
HIDDEN
 10
31.340466
 20
14.91823
 30
0.0
 11
24.670809
 21
14.91823
 31
0.0
  0
LINE
  8
HIDDEN
 10
24.670809
 20
12.35423
 30
0.0
 11
32.027455
 21
12.35423
 31
0.0
  0
POLYLINE
  8
DIM
 66
     1
 10
0.0
 20
0.0
 30
0.0
 41
0.405
  0
VERTEX
  8
DIM
 10
9.06184
 20
50.624297
 30
0.0
  0
VERTEX
  8
DIM
 10
9.971265
 20
51.206831
 30
0.0
 41
0.0
  0
VERTEX
  8
DIM
 10
11.578918
 20
52.236617
 30
0.0
 41
0.0
  0
VERTEX
  8
DIM
 10
12.658918
 20
52.236617
 30
0.0
 41
0.0
  0
SEQEND
  8
DIM
  0
TEXT
  8
DIM
 10
13.198918
 20
51.861617
 30
0.0
 40
0.75
  1
SEE DETAIL "A"
 41
0.75
  7
TXT
 11
13.198918
 21
52.236617
 31
0.0
 73
     2
  0
POLYLINE
  8
DIM
 66
     1
 10
0.0
 20
0.0
 30
0.0
 41
0.405
  0
VERTEX
  8
DIM
 10
9.370139
 20
24.476087
 30
0.0
  0
VERTEX
  8
DIM
 10
10.303608
 20
23.932915
 30
0.0
 41
0.0
  0
VERTEX
  8
DIM
 10
11.430254
 20
23.277337
 30
0.0
 41
0.0
  0
VERTEX
  8
DIM
 10
12.510254
 20
23.277337
 30
0.0
 41
0.0
  0
SEQEND
  8
DIM
  0
TEXT
  8
DIM
 10
13.050254
 20
22.902337
 30
0.0
 40
0.75
  1
SEE DETAIL "B"
 41
0.75
  7
TXT
 11
13.050254
 21
23.277337
 31
0.0
 73
     2
  0
POLYLINE
  8
OBJECT
 66
     1
 10
0.0
 20
0.0
 30
0.0
 75
     6
  0
VERTEX
  8
OBJECT
 10
30.160351
 20
15.13623
 30
0.0
  0
VERTEX
  8
OBJECT
 10
30.817563
 20
15.043432
 30
0.0
  0
VERTEX
  8
OBJECT
 10
31.261681
 20
14.947239
 30
0.0
  0
VERTEX
  8
OBJECT
 10
31.529035
 20
14.848797
 30
0.0
  0
VERTEX
  8
OBJECT
 10
31.655956
 20
14.74925
 30
0.0
  0
VERTEX
  8
OBJECT
 10
31.678773
 20
14.649743
 30
0.0
  0
VERTEX
  8
OBJECT
 10
31.633818
 20
14.55142
 30
0.0
  0
VERTEX
  8
OBJECT
 10
31.55742
 20
14.455428
 30
0.0
  0
VERTEX
  8
OBJECT
 10
31.48591
 20
14.362911
 30
0.0
  0
VERTEX
  8
OBJECT
 10
31.448344
 20
14.274766
 30
0.0
  0
VERTEX
  8
OBJECT
 10
31.444678
 20
14.190903
 30
0.0
  0
VERTEX
  8
OBJECT
 10
31.467596
 20
14.110983
 30
0.0
  0
VERTEX
  8
OBJECT
 10
31.509781
 20
14.034669
 30
0.0
  0
VERTEX
  8
OBJECT
 10
31.563914
 20
13.961622
 30
0.0
  0
VERTEX
  8
OBJECT
 10
31.62268
 20
13.891504
 30
0.0
  0
VERTEX
  8
OBJECT
 10
31.678759
 20
13.823976
 30
0.0
  0
VERTEX
  8
OBJECT
 10
31.724837
 20
13.758702
 30
0.0
  0
VERTEX
  8
OBJECT
 10
31.755476
 20
13.695381
 30
0.0
  0
VERTEX
  8
OBJECT
 10
31.772772
 20
13.63387
 30
0.0
  0
VERTEX
  8
OBJECT
 10
31.7807
 20
13.574066
 30
0.0
  0
VERTEX
  8
OBJECT
 10
31.783236
 20
13.515864
 30
0.0
  0
VERTEX
  8
OBJECT
 10
31.784357
 20
13.45916
 30
0.0
  0
VERTEX
  8
OBJECT
 10
31.788038
 20
13.403851
 30
0.0
  0
VERTEX
  8
OBJECT
 10
31.798256
 20
13.349832
 30
0.0
  0
VERTEX
  8
OBJECT
 10
31.818986
 20
13.296999
 30
0.0
  0
VERTEX
  8
OBJECT
 10
31.852746
 20
13.245234
 30
0.0
  0
VERTEX
  8
OBJECT
 10
31.896218
 20
13.194364
 30
0.0
  0
VERTEX
  8
OBJECT
 10
31.944623
 20
13.144202
 30
0.0
  0
VERTEX
  8
OBJECT
 10
31.993185
 20
13.09456
 30
0.0
  0
VERTEX
  8
OBJECT
 10
32.037125
 20
13.045251
 30
0.0
  0
VERTEX
  8
OBJECT
 10
32.071666
 20
12.996087
 30
0.0
  0
VERTEX
  8
OBJECT
 10
32.09203
 20
12.946882
 30
0.0
  0
VERTEX
  8
OBJECT
 10
32.093441
 20
12.897448
 30
0.0
  0
VERTEX
  8
OBJECT
 10
32.073109
 20
12.847631
 30
0.0
  0
VERTEX
  8
OBJECT
 10
32.036207
 20
12.797408
 30
0.0
  0
VERTEX
  8
OBJECT
 10
31.989896
 20
12.74679
 30
0.0
  0
VERTEX
  8
OBJECT
 10
31.941336
 20
12.695786
 30
0.0
  0
VERTEX
  8
OBJECT
 10
31.897689
 20
12.644408
 30
0.0
  0
VERTEX
  8
OBJECT
 10
31.866116
 20
12.592666
 30
0.0
  0
VERTEX
  8
OBJECT
 10
31.853779
 20
12.54057
 30
0.0
  0
VERTEX
  8
OBJECT
 10
31.867837
 20
12.488131
 30
0.0
  0
VERTEX
  8
OBJECT
 10
31.912714
 20
12.435407
 30
0.0
  0
VERTEX
  8
OBJECT
 10
31.981874
 20
12.382652
 30
0.0
  0
VERTEX
  8
OBJECT
 10
32.066043
 20
12.330168
 30
0.0
  0
VERTEX
  8
OBJECT
 10
32.155948
 20
12.278256
 30
0.0
  0
VERTEX
  8
OBJECT
 10
32.242313
 20
12.227218
 30
0.0
  0
VERTEX
  8
OBJECT
 10
32.315866
 20
12.177356
 30
0.0
  0
VERTEX
  8
OBJECT
 10
32.367331
 20
12.128971
 30
0.0
  0
VERTEX
  8
OBJECT
 10
32.387435
 20
12.082365
 30
0.0
  0
VERTEX
  8
OBJECT
 10
32.370022
 20
12.037622
 30
0.0
  0
VERTEX
  8
OBJECT
 10
32.321403
 20
11.993951
 30
0.0
  0
VERTEX
  8
OBJECT
 10
32.25101
 20
11.950342
 30
0.0
  0
VERTEX
  8
OBJECT
 10
32.168272
 20
11.905786
 30
0.0
  0
VERTEX
  8
OBJECT
 10
32.082619
 20
11.859274
 30
0.0
  0
VERTEX
  8
OBJECT
 10
32.003482
 20
11.809797
 30
0.0
  0
VERTEX
  8
OBJECT
 10
31.940292
 20
11.756345
 30
0.0
  0
VERTEX
  8
OBJECT
 10
31.902477
 20
11.697909
 30
0.0
  0
VERTEX
  8
OBJECT
 10
31.896333
 20
11.633851
 30
0.0
  0
VERTEX
  8
OBJECT
 10
31.915606
 20
11.565017
 30
0.0
  0
VERTEX
  8
OBJECT
 10
31.950908
 20
11.492624
 30
0.0
  0
VERTEX
  8
OBJECT
 10
31.992852
 20
11.417891
 30
0.0
  0
VERTEX
  8
OBJECT
 10
32.032047
 20
11.342033
 30
0.0
  0
VERTEX
  8
OBJECT
 10
32.059106
 20
11.26627
 30
0.0
  0
VERTEX
  8
OBJECT
 10
32.06464
 20
11.191817
 30
0.0
  0
VERTEX
  8
OBJECT
 10
32.03926
 20
11.119893
 30
0.0
  0
VERTEX
  8
OBJECT
 10
31.976975
 20
11.051382
 30
0.0
  0
VERTEX
  8
OBJECT
 10
31.885379
 20
10.985842
 30
0.0
  0
VERTEX
  8
OBJECT
 10
31.875641
 20
10.98023
 30
0.0
  0
SEQEND
  8
OBJECT
  0
CIRCLE
  8
HIDDEN
  6
HIDDEN2
 10
7.436168
 20
6.743945
 30
0.0
 40
0.241
  0
CIRCLE
  8
HIDDEN
  6
HIDDEN2
 10
8.686168
 20
6.743945
 30
0.0
 40
0.241
  0
CIRCLE
  8
HIDDEN
  6
HIDDEN2
 10
9.936168
 20
6.743945
 30
0.0
 40
0.241
  0
CIRCLE
  8
HIDDEN
  6
HIDDEN2
 10
10.936168
 20
6.743945
 30
0.0
 40
0.241
  0
CIRCLE
  8
HIDDEN
  6
HIDDEN2
 10
12.186168
 20
6.743945
 30
0.0
 40
0.241
  0
DIMENSION
  8
DIM
  2
*D11
 10
5.350552
 20
6.743945
 30
0.0
 11
2.746177
 21
4.583945
 31
0.0
 12
0.0
 22
-3.403615
 32
0.0
 13
6.936168
 23
7.118945
 33
0.0
 14
7.436168
 24
6.743945
 34
0.0
 50
90.0
  3
23NSTD2
  0
DIMENSION
  8
DIM
  2
*D20
 10
6.936168
 20
13.266313
 30
0.0
 11
3.204918
 21
13.266313
 31
0.0
 12
0.0
 22
-3.403615
 32
0.0
 13
7.436168
 23
6.743945
 33
0.0
 14
6.936168
 24
7.118945
 34
0.0
  3
23NSTD2
  0
DIMENSION
  8
DIM
  2
*D19
 10
8.686168
 20
11.580313
 30
0.0
 11
12.464293
 21
11.580313
 31
0.0
 12
0.0
 22
-3.403615
 32
0.0
 13
7.436168
 23
6.743945
 33
0.0
 14
8.686168
 24
6.743945
 34
0.0
  3
23NSTD2
  0
DIMENSION
  8
DIM
  2
*D18
 10
9.936168
 20
9.894313
 30
0.0
 11
13.714293
 21
9.894313
 31
0.0
 12
0.0
 22
-3.403615
 32
0.0
 13
8.686168
 23
6.743945
 33
0.0
 14
9.936168
 24
6.743945
 34
0.0
  3
23NSTD2
  0
DIMENSION
  8
DIM
  2
*D17
 10
10.936168
 20
8.208313
 30
0.0
 11
14.620543
 21
8.208313
 31
0.0
 12
0.0
 22
-3.403615
 32
0.0
 13
9.936168
 23
6.743945
 33
0.0
 14
10.936168
 24
6.743945
 34
0.0
  3
23NSTD2
  0
DIMENSION
  8
DIM
  2
*D12
 10
23.045212
 20
10.98023
 30
0.0
 11
20.393962
 21
8.82023
 31
0.0
 12
1.80267
 22
2.002127
 32
0.0
 13
25.170809
 23
11.48023
 33
0.0
 14
24.670809
 24
10.98023
 34
0.0
 50
90.0
  3
23NSTD2
  0
DIMENSION
  8
DIM
  2
*D16
 10
28.670809
 20
9.670036
 30
0.0
 11
32.355184
 21
9.670036
 31
0.0
 12
1.80267
 22
2.002127
 32
0.0
 13
27.670809
 23
11.48023
 33
0.0
 14
28.670809
 24
11.48023
 34
0.0
 50
180.0
  3
23NSTD2
  0
DIMENSION
  8
DIM
  2
*D15
 10
27.670809
 20
7.984036
 30
0.0
 11
31.448934
 21
7.984036
 31
0.0
 12
1.80267
 22
2.002127
 32
0.0
 13
26.420809
 23
11.48023
 33
0.0
 14
27.670809
 24
11.48023
 34
0.0
 50
180.0
  3
23NSTD2
  0
DIMENSION
  8
DIM
  2
*D14
 10
26.420809
 20
6.298036
 30
0.0
 11
30.198934
 21
6.298036
 31
0.0
 12
1.80267
 22
2.002127
 32
0.0
 13
25.170809
 23
11.48023
 33
0.0
 14
26.420809
 24
11.48023
 34
0.0
 50
180.0
  3
23NSTD2
  0
DIMENSION
  8
DIM
  2
*D13
 10
24.670809
 20
4.612036
 30
0.0
 11
20.939559
 21
4.612036
 31
0.0
 12
1.80267
 22
2.002127
 32
0.0
 13
25.170809
 23
11.48023
 33
0.0
 14
24.670809
 24
11.10523
 34
0.0
 50
180.0
  3
23NSTD2
  0
TEXT
  8
TEXT
 10
25.986292
 20
2.686075
 30
0.0
 40
0.75
  1
%%UDETAIL "B"
 41
0.75
  7
TXT
  0
TEXT
  8
TEXT
 10
46.186384
 20
13.730188
 30
0.0
 40
0.75
  1
24.500
 41
0.75
  7
TXT
 72
     1
 11
47.498884
 21
13.730188
 31
0.0
  0
TEXT
  8
TEXT
 10
39.245104
 20
13.730188
 30
0.0
 40
0.75
  1
PMR-2331
 41
0.75
  7
TXT
 72
     1
 11
41.307604
 21
13.730188
 31
0.0
  0
TEXT
  8
TEXT
 10
52.186634
 20
13.730188
 30
0.0
 40
0.75
  1
-----
 41
0.75
  7
TXT
 72
     1
 11
53.499134
 21
13.730188
 31
0.0
  0
TEXT
  8
TEXT
 10
58.186884
 20
13.730188
 30
0.0
 40
0.75
  1
-----
 41
0.75
  7
TXT
 72
     1
 11
59.499384
 21
13.730188
 31
0.0
  0
TEXT
  8
TEXT
 10
64.187134
 20
13.730188
 30
0.0
 40
0.75
  1
-----
 41
0.75
  7
TXT
 72
     1
 11
65.499634
 21
13.730188
 31
0.0
  0
TEXT
  8
TEXT
 10
70.187384
 20
13.730188
 30
0.0
 40
0.75
  1
-----
 41
0.75
  7
TXT
 72
     1
 11
71.499884
 21
13.730188
 31
0.0
  0
TEXT
  8
TEXT
 10
76.488157
 20
13.730188
 30
0.0
 40
0.75
  1
24.000
 41
0.75
  7
TXT
 72
     1
 11
77.753782
 21
13.730188
 31
0.0
  0
TEXT
  8
TEXT
 10
83.285282
 20
13.730188
 30
0.0
 40
0.75
  1
42
 41
0.75
  7
TXT
 72
     1
 11
83.754032
 21
13.730188
 31
0.0
  0
TEXT
  8
TEXT
 10
89.313134
 20
13.730188
 30
0.0
 40
0.75
  1
8
 41
0.75
  7
TXT
 72
     1
 11
89.500634
 21
13.730188
 31
0.0
  0
LINE
  8
TITLE
 10
37.989625
 20
14.871015
 30
0.0
 11
92.628
 21
14.871015
 31
0.0
  0
LINE
  8
TITLE
 10
0.372
 20
57.84
 30
0.0
 11
92.628
 21
57.84
 31
0.0
  0
POLYLINE
  8
TITLE
 66
     1
 10
0.0
 20
0.0
 30
0.0
 70
     1
  0
VERTEX
  8
TITLE
 10
93.0
 20
60.72
 30
0.0
  0
VERTEX
  8
TITLE
 10
93.0
 20
0.0
 30
0.0
  0
VERTEX
  8
TITLE
 10
0.0
 20
0.0
 30
0.0
  0
VERTEX
  8
TITLE
 10
0.0
 20
60.72
 30
0.0
  0
SEQEND
  8
TITLE
  0
POLYLINE
  8
TITLE
 66
     1
 10
0.0
 20
0.0
 30
0.0
 70
     1
  0
VERTEX
  8
TITLE
 10
92.628
 20
60.348
 30
0.0
  0
VERTEX
  8
TITLE
 10
92.628
 20
0.372
 30
0.0
  0
VERTEX
  8
TITLE
 10
0.372
 20
0.372
 30
0.0
  0
VERTEX
  8
TITLE
 10
0.372
 20
60.348
 30
0.0
  0
SEQEND
  8
TITLE
  0
TEXT
  8
TEXT
 10
1.247
 20
58.080475
 30
0.0
 40
0.75
  1
NAME
 72
     1
 11
2.622
 21
58.080475
 31
0.0
  0
TEXT
  8
TEXT
 10
1.247
 20
59.330475
 30
0.0
 40
0.75
  1
PART
 72
     1
 11
2.622
 21
59.330475
 31
0.0
  0
LINE
  8
TITLE
 10
4.872
 20
57.84
 30
0.0
 11
4.872
 21
60.348
 31
0.0
  0
TEXT
  8
TEXT
 10
38.893984
 20
59.330475
 30
0.0
 40
0.75
  1
PART
 72
     1
 11
40.268984
 21
59.330475
 31
0.0
  0
TEXT
  8
TEXT
 10
39.518984
 20
58.080475
 30
0.0
 40
0.75
  1
No.
 72
     1
 11
40.268984
 21
58.080475
 31
0.0
  0
LINE
  8
TITLE
 10
38.018984
 20
60.348
 30
0.0
 11
38.018984
 21
57.84
 31
0.0
  0
LINE
  8
TITLE
 10
37.646984
 20
60.348
 30
0.0
 11
37.646984
 21
57.84
 31
0.0
  0
LINE
  8
TITLE
 10
42.518984
 20
60.348
 30
0.0
 11
42.518984
 21
57.84
 31
0.0
  0
ENDSEC
  0
EOF
