  0
SECTION
  2
HEADER
  9
$ACADVER
  1
AC1009
  9
$INSBASE
 10
0.0
 20
0.0
 30
0.0
  9
$EXTMIN
 10
0.0
 20
0.0
 30
0.0
  9
$EXTMAX
 10
93.0
 20
60.72
 30
0.0
  9
$LIMMIN
 10
0.0
 20
0.0
  9
$LIMMAX
 10
75.0
 20
50.0
  9
$ORTHOMODE
 70
     1
  9
$REGENMODE
 70
     1
  9
$FILLMODE
 70
     1
  9
$QTEXTMODE
 70
     0
  9
$MIRRTEXT
 70
     0
  9
$DRAGMODE
 70
     2
  9
$LTSCALE
 40
3.0
  9
$OSMODE
 70
     0
  9
$ATTMODE
 70
     1
  9
$TEXTSIZE
 40
1.25
  9
$TRACEWID
 40
0.05
  9
$TEXTSTYLE
  7
TXT
  9
$CLAYER
  8
OBJECT
  9
$CELTYPE
  6
BYLAYER
  9
$CECOLOR
 62
   256
  9
$DIMSCALE
 40
6.0
  9
$DIMASZ
 40
0.18
  9
$DIMEXO
 40
0.063
  9
$DIMDLI
 40
0.281
  9
$DIMRND
 40
0.0
  9
$DIMDLE
 40
0.0
  9
$DIMEXE
 40
0.093
  9
$DIMTP
 40
0.0
  9
$DIMTM
 40
0.0
  9
$DIMTXT
 40
0.125
  9
$DIMCEN
 40
0.09
  9
$DIMTSZ
 40
0.0
  9
$DIMTOL
 70
     0
  9
$DIMLIM
 70
     0
  9
$DIMTIH
 70
     1
  9
$DIMTOH
 70
     1
  9
$DIMSE1
 70
     0
  9
$DIMSE2
 70
     0
  9
$DIMTAD
 70
     0
  9
$DIMZIN
 70
     0
  9
$DIMBLK
  1

  9
$DIMASO
 70
     1
  9
$DIMSHO
 70
     1
  9
$DIMPOST
  1

  9
$DIMAPOST
  1

  9
$DIMALT
 70
     0
  9
$DIMALTD
 70
     2
  9
$DIMALTF
 40
25.4
  9
$DIMLFAC
 40
1.0
  9
$DIMTOFL
 70
     0
  9
$DIMTVP
 40
0.0
  9
$DIMTIX
 70
     0
  9
$DIMSOXD
 70
     0
  9
$DIMSAH
 70
     0
  9
$DIMBLK1
  1

  9
$DIMBLK2
  1

  9
$DIMSTYLE
  2
STD
  9
$DIMCLRD
 70
     0
  9
$DIMCLRE
 70
     0
  9
$DIMCLRT
 70
     0
  9
$DIMTFAC
 40
1.0
  9
$DIMGAP
 40
0.09
  9
$LUNITS
 70
     2
  9
$LUPREC
 70
     3
  9
$SKETCHINC
 40
0.1
  9
$FILLETRAD
 40
0.0
  9
$AUNITS
 70
     0
  9
$AUPREC
 70
     0
  9
$MENU
  1
acad
  9
$ELEVATION
 40
0.0
  9
$PELEVATION
 40
0.0
  9
$THICKNESS
 40
0.0
  9
$LIMCHECK
 70
     0
  9
$BLIPMODE
 70
     0
  9
$CHAMFERA
 40
0.0
  9
$CHAMFERB
 40
0.0
  9
$SKPOLY
 70
     0
  9
$TDCREATE
 40
2449097.558699652
  9
$TDUPDATE
 40
2451337.355337384
  9
$TDINDWG
 40
0.0851855324
  9
$TDUSRTIMER
 40
0.0851855324
  9
$USRTIMER
 70
     1
  9
$ANGBASE
 50
0.0
  9
$ANGDIR
 70
     0
  9
$PDMODE
 70
     0
  9
$PDSIZE
 40
0.0
  9
$PLINEWID
 40
0.0
  9
$COORDS
 70
     2
  9
$SPLFRAME
 70
     0
  9
$SPLINETYPE
 70
     6
  9
$SPLINESEGS
 70
     8
  9
$ATTDIA
 70
     0
  9
$ATTREQ
 70
     1
  9
$HANDLING
 70
     0
  9
$HANDSEED
  5
0
  9
$SURFTAB1
 70
     6
  9
$SURFTAB2
 70
     6
  9
$SURFTYPE
 70
     6
  9
$SURFU
 70
     6
  9
$SURFV
 70
     6
  9
$UCSNAME
  2

  9
$UCSORG
 10
0.0
 20
0.0
 30
0.0
  9
$UCSXDIR
 10
1.0
 20
0.0
 30
0.0
  9
$UCSYDIR
 10
0.0
 20
1.0
 30
0.0
  9
$PUCSNAME
  2

  9
$PUCSORG
 10
0.0
 20
0.0
 30
0.0
  9
$PUCSXDIR
 10
1.0
 20
0.0
 30
0.0
  9
$PUCSYDIR
 10
0.0
 20
1.0
 30
0.0
  9
$USERI1
 70
     0
  9
$USERI2
 70
     0
  9
$USERI3
 70
     0
  9
$USERI4
 70
     0
  9
$USERI5
 70
     0
  9
$USERR1
 40
0.0
  9
$USERR2
 40
0.0
  9
$USERR3
 40
0.0
  9
$USERR4
 40
0.0
  9
$USERR5
 40
0.0
  9
$WORLDVIEW
 70
     0
  9
$SHADEDGE
 70
     3
  9
$SHADEDIF
 70
    70
  9
$TILEMODE
 70
     1
  9
$MAXACTVP
 70
    16
  9
$PINSBASE
 10
0.0
 20
0.0
 30
0.0
  9
$PLIMCHECK
 70
     0
  9
$PEXTMIN
 10
1.000000E+20
 20
1.000000E+20
 30
1.000000E+20
  9
$PEXTMAX
 10
-1.000000E+20
 20
-1.000000E+20
 30
-1.000000E+20
  9
$PLIMMIN
 10
0.0
 20
0.0
  9
$PLIMMAX
 10
12.0
 20
9.0
  9
$UNITMODE
 70
     0
  9
$VISRETAIN
 70
     0
  9
$PLINEGEN
 70
     0
  9
$PSLTSCALE
 70
     1
  9
$TREEDEPTH
 70
  3020
  9
$DWGCODEPAGE
  3
ascii
  0
ENDSEC
  0
SECTION
  2
TABLES
  0
TABLE
  2
VPORT
 70
     2
  0
VPORT
  2
*ACTIVE
 70
     0
 10
0.0
 20
0.0
 11
1.0
 21
1.0
 12
46.5
 22
34.132461
 13
0.0
 23
0.0
 14
1.0
 24
1.0
 15
0.0
 25
0.0
 16
0.0
 26
0.0
 36
1.0
 17
0.0
 27
0.0
 37
0.0
 40
68.264921
 41
1.36234
 42
50.0
 43
0.0
 44
0.0
 50
0.0
 51
0.0
 71
     0
 72
   100
 73
     1
 74
     0
 75
     0
 76
     0
 77
     0
 78
     0
  0
ENDTAB
  0
TABLE
  2
LTYPE
 70
     4
  0
LTYPE
  2
CONTINUOUS
 70
    64
  3
Solid line
 72
    65
 73
     0
 40
0.0
  0
LTYPE
  2
HIDDEN
 70
    64
  3
_ _ _ _ _ _ _ _ _ _ _ _ _ _ _ _ _ _ _ _ _ _ _
 72
    65
 73
     2
 40
0.375
 49
0.25
 49
-0.125
  0
LTYPE
  2
PHANTOM
 70
    64
  3
_____ _ _ _____ _ _ _____ _ _ _____ _ _ ____
 72
    65
 73
     6
 40
2.5
 49
1.25
 49
-0.25
 49
0.25
 49
-0.25
 49
0.25
 49
-0.25
  0
LTYPE
  2
CENTER
 70
    64
  3
____ _ ____ _ ____ _ ____ _ ____ _ ____ _ ____
 72
    65
 73
     4
 40
2.0
 49
1.25
 49
-0.25
 49
0.25
 49
-0.25
  0
ENDTAB
  0
TABLE
  2
LAYER
 70
     9
  0
LAYER
  2
0
 70
    64
 62
     7
  6
CONTINUOUS
  0
LAYER
  2
DEFPOINTS
 70
    64
 62
     7
  6
CONTINUOUS
  0
LAYER
  2
OBJECT
 70
    64
 62
     7
  6
CONTINUOUS
  0
LAYER
  2
DIM
 70
    64
 62
     7
  6
CONTINUOUS
  0
LAYER
  2
BEND
 70
    64
 62
     7
  6
PHANTOM
  0
LAYER
  2
TEXT
 70
    64
 62
     7
  6
CONTINUOUS
  0
LAYER
  2
TITLE
 70
    64
 62
     7
  6
CONTINUOUS
  0
LAYER
  2
CENTER
 70
    64
 62
     7
  6
CENTER
  0
LAYER
  2
HIDDEN
 70
    64
 62
     7
  6
HIDDEN
  0
ENDTAB
  0
TABLE
  2
STYLE
 70
     3
  0
STYLE
  2
STANDARD
 70
    64
 40
0.0
 41
0.75
 50
0.0
 71
     0
 42
0.2
  3
TXT.shx
  4

  0
STYLE
  2
TXT
 70
    64
 40
0.0
 41
0.75
 50
0.0
 71
     0
 42
1.25
  3
txt
  4

  0
STYLE
  2
ITALICC
 70
    64
 40
0.0
 41
0.75
 50
0.0
 71
     0
 42
1.0
  3
italicc
  4

  0
ENDTAB
  0
TABLE
  2
VIEW
 70
     0
  0
ENDTAB
  0
TABLE
  2
UCS
 70
     0
  0
ENDTAB
  0
TABLE
  2
APPID
 70
     1
  0
APPID
  2
ACAD
 70
    64
  0
ENDTAB
  0
TABLE
  2
DIMSTYLE
 70
     2
  0
DIMSTYLE
  2
STD
 70
    64
  3

  4

  5

  6

  7

 40
6.0
 41
0.18
 42
0.063
 43
0.281
 44
0.093
 45
0.0
 46
0.0
 47
0.0
 48
0.0
140
0.125
141
0.09
142
0.0
143
25.4
144
1.0
145
0.0
146
1.0
147
0.09
 71
     0
 72
     0
 73
     1
 74
     1
 75
     0
 76
     0
 77
     0
 78
     0
170
     0
171
     2
172
     0
173
     0
174
     0
175
     0
176
     0
177
     0
178
     0
  0
DIMSTYLE
  2
DIM
 70
    64
  3

  4

  5

  6

  7

 40
6.0
 41
0.18
 42
0.063
 43
0.281
 44
0.093
 45
0.0
 46
0.0
 47
0.0
 48
0.0
140
0.125
141
0.09
142
0.0
143
25.4
144
1.0
145
0.0
146
1.0
147
0.09
 71
     0
 72
     0
 73
     1
 74
     1
 75
     0
 76
     0
 77
     0
 78
     0
170
     0
171
     2
172
     0
173
     0
174
     1
175
     0
176
     0
177
     0
178
     0
  0
ENDTAB
  0
ENDSEC
  0
SECTION
  2
BLOCKS
  0
BLOCK
  8
0
  2
*D0
 70
    65
 10
0.0
 20
0.0
 30
0.0
  3
*D
  0
LINE
  8
0
  6
BYBLOCK
 62
     0
 10
7.294014
 20
32.078099
 30
0.0
 11
7.294014
 21
47.851306
 31
0.0
  0
LINE
  8
0
  6
BYBLOCK
 62
     0
 10
68.544014
 20
32.078099
 30
0.0
 11
68.544014
 21
47.851306
 31
0.0
  0
LINE
  8
0
  6
BYBLOCK
 62
     0
 10
8.374014
 20
47.293306
 30
0.0
 11
36.816514
 21
47.293306
 31
0.0
  0
LINE
  8
0
  6
BYBLOCK
 62
     0
 10
67.464014
 20
47.293306
 30
0.0
 11
39.021514
 21
47.293306
 31
0.0
  0
SOLID
  8
0
  6
BYBLOCK
 62
     0
 10
8.374014
 20
47.473306
 30
0.0
 11
8.374014
 21
47.113306
 31
0.0
 12
7.294014
 22
47.293306
 32
0.0
 13
7.294014
 23
47.293306
 33
0.0
  0
SOLID
  8
0
  6
BYBLOCK
 62
     0
 10
67.464014
 20
47.473306
 30
0.0
 11
67.464014
 21
47.113306
 31
0.0
 12
68.544014
 22
47.293306
 32
0.0
 13
68.544014
 23
47.293306
 33
0.0
  0
TEXT
  8
0
  6
BYBLOCK
 62
     0
 10
37.356514
 20
46.918306
 30
0.0
 40
0.75
  1
  
 41
0.75
  7
TXT
 72
     1
 11
37.919014
 21
47.293306
 31
0.0
 73
     2
  0
POINT
  8
DEFPOINTS
  6
BYBLOCK
 62
     0
 10
7.294014
 20
31.700099
 30
0.0
  0
POINT
  8
DEFPOINTS
  6
BYBLOCK
 62
     0
 10
68.544014
 20
31.700099
 30
0.0
  0
POINT
  8
DEFPOINTS
  6
BYBLOCK
 62
     0
 10
68.544014
 20
47.293306
 30
0.0
  0
ENDBLK
  8
0
  0
BLOCK
  8
0
  2
*D1
 70
    65
 10
0.0
 20
0.0
 30
0.0
  3
*D
  0
LINE
  8
0
  6
BYBLOCK
 62
     0
 10
68.294014
 20
54.074805
 30
0.0
 11
68.294014
 21
51.736347
 31
0.0
  0
LINE
  8
0
  6
BYBLOCK
 62
     0
 10
7.544014
 20
54.074805
 30
0.0
 11
7.544014
 21
51.736347
 31
0.0
  0
LINE
  8
0
  6
BYBLOCK
 62
     0
 10
67.214014
 20
52.294347
 30
0.0
 11
49.896514
 21
52.294347
 31
0.0
  0
LINE
  8
0
  6
BYBLOCK
 62
     0
 10
8.624014
 20
52.294347
 30
0.0
 11
25.941514
 21
52.294347
 31
0.0
  0
SOLID
  8
0
  6
BYBLOCK
 62
     0
 10
67.214014
 20
52.474347
 30
0.0
 11
67.214014
 21
52.114347
 31
0.0
 12
68.294014
 22
52.294347
 32
0.0
 13
68.294014
 23
52.294347
 33
0.0
  0
SOLID
  8
0
  6
BYBLOCK
 62
     0
 10
8.624014
 20
52.474347
 30
0.0
 11
8.624014
 21
52.114347
 31
0.0
 12
7.544014
 22
52.294347
 32
0.0
 13
7.544014
 23
52.294347
 33
0.0
  0
TEXT
  8
0
  6
BYBLOCK
 62
     0
 10
26.481514
 20
51.919347
 30
0.0
 40
0.75
  1
(  ) HOLES ON E.I.A. UNIVERSAL SPACING  =   
 41
0.75
  7
TXT
 72
     1
 11
37.919014
 21
52.294347
 31
0.0
 73
     2
  0
POINT
  8
DEFPOINTS
  6
BYBLOCK
 62
     0
 10
68.294014
 20
54.452805
 30
0.0
  0
POINT
  8
DEFPOINTS
  6
BYBLOCK
 62
     0
 10
7.544014
 20
54.452805
 30
0.0
  0
POINT
  8
DEFPOINTS
  6
BYBLOCK
 62
     0
 10
7.544014
 20
52.294347
 30
0.0
  0
ENDBLK
  8
0
  0
BLOCK
  8
0
  2
*D2
 70
    65
 10
0.0
 20
0.0
 30
0.0
  3
*D
  0
LINE
  8
0
  6
BYBLOCK
 62
     0
 10
79.678469
 20
32.078099
 30
0.0
 11
79.678469
 21
36.014595
 31
0.0
  0
LINE
  8
0
  6
BYBLOCK
 62
     0
 10
80.365469
 20
32.078099
 30
0.0
 11
80.365469
 21
36.014595
 31
0.0
  0
LINE
  8
0
  6
BYBLOCK
 62
     0
 10
78.598469
 20
35.456595
 30
0.0
 11
77.518469
 21
35.456595
 31
0.0
  0
LINE
  8
0
  6
BYBLOCK
 62
     0
 10
81.445469
 20
35.456595
 30
0.0
 11
82.525469
 21
35.456595
 31
0.0
  0
SOLID
  8
0
  6
BYBLOCK
 62
     0
 10
78.598469
 20
35.636595
 30
0.0
 11
78.598469
 21
35.276595
 31
0.0
 12
79.678469
 22
35.456595
 32
0.0
 13
79.678469
 23
35.456595
 33
0.0
  0
SOLID
  8
0
  6
BYBLOCK
 62
     0
 10
81.445469
 20
35.636595
 30
0.0
 11
81.445469
 21
35.276595
 31
0.0
 12
80.365469
 22
35.456595
 32
0.0
 13
80.365469
 23
35.456595
 33
0.0
  0
TEXT
  8
0
  6
BYBLOCK
 62
     0
 10
83.065469
 20
35.081595
 30
0.0
 40
0.75
  1
0.687
 41
0.75
  7
TXT
 72
     1
 11
84.143594
 21
35.456595
 31
0.0
 73
     2
  0
POINT
  8
DEFPOINTS
  6
BYBLOCK
 62
     0
 10
79.678469
 20
31.700099
 30
0.0
  0
POINT
  8
DEFPOINTS
  6
BYBLOCK
 62
     0
 10
80.365469
 20
31.700099
 30
0.0
  0
POINT
  8
DEFPOINTS
  6
BYBLOCK
 62
     0
 10
80.365469
 20
35.456595
 30
0.0
  0
ENDBLK
  8
0
  0
BLOCK
  8
0
  2
*D3
 70
    65
 10
0.0
 20
0.0
 30
0.0
  3
*D
  0
LINE
  8
0
  6
BYBLOCK
 62
     0
 10
6.916014
 20
30.15088
 30
0.0
 11
4.623489
 21
30.15088
 31
0.0
  0
LINE
  8
0
  6
BYBLOCK
 62
     0
 10
7.135014
 20
29.40088
 30
0.0
 11
4.623489
 21
29.40088
 31
0.0
  0
LINE
  8
0
  6
BYBLOCK
 62
     0
 10
5.181489
 20
31.23088
 30
0.0
 11
5.181489
 21
32.31088
 31
0.0
  0
LINE
  8
0
  6
BYBLOCK
 62
     0
 10
5.181489
 20
28.32088
 30
0.0
 11
5.181489
 21
27.24088
 31
0.0
  0
LINE
  8
0
  6
BYBLOCK
 62
     0
 10
5.181489
 20
27.24088
 30
0.0
 11
4.101489
 21
27.24088
 31
0.0
  0
SOLID
  8
0
  6
BYBLOCK
 62
     0
 10
5.001489
 20
31.23088
 30
0.0
 11
5.361489
 21
31.23088
 31
0.0
 12
5.181489
 22
30.15088
 32
0.0
 13
5.181489
 23
30.15088
 33
0.0
  0
SOLID
  8
0
  6
BYBLOCK
 62
     0
 10
5.001489
 20
28.32088
 30
0.0
 11
5.361489
 21
28.32088
 31
0.0
 12
5.181489
 22
29.40088
 32
0.0
 13
5.181489
 23
29.40088
 33
0.0
  0
TEXT
  8
0
  6
BYBLOCK
 62
     0
 10
1.498989
 20
26.86588
 30
0.0
 40
0.75
  1
0.750
 41
0.75
  7
TXT
 72
     1
 11
2.530239
 21
27.24088
 31
0.0
 73
     2
  0
POINT
  8
DEFPOINTS
  6
BYBLOCK
 62
     0
 10
7.294014
 20
30.15088
 30
0.0
  0
POINT
  8
DEFPOINTS
  6
BYBLOCK
 62
     0
 10
7.513014
 20
29.40088
 30
0.0
  0
POINT
  8
DEFPOINTS
  6
BYBLOCK
 62
     0
 10
5.181489
 20
29.40088
 30
0.0
  0
ENDBLK
  8
0
  0
BLOCK
  8
0
  2
*D4
 70
    65
 10
0.0
 20
0.0
 30
0.0
  3
*D
  0
LINE
  8
0
  6
BYBLOCK
 62
     0
 10
68.200014
 20
30.09138
 30
0.0
 11
68.200014
 21
32.666426
 31
0.0
  0
LINE
  8
0
  6
BYBLOCK
 62
     0
 10
68.544014
 20
30.52888
 30
0.0
 11
68.544014
 21
32.666426
 31
0.0
  0
LINE
  8
0
  6
BYBLOCK
 62
     0
 10
67.120014
 20
32.108426
 30
0.0
 11
66.040014
 21
32.108426
 31
0.0
  0
LINE
  8
0
  6
BYBLOCK
 62
     0
 10
69.624014
 20
32.108426
 30
0.0
 11
70.704014
 21
32.108426
 31
0.0
  0
SOLID
  8
0
  6
BYBLOCK
 62
     0
 10
67.120014
 20
32.288426
 30
0.0
 11
67.120014
 21
31.928426
 31
0.0
 12
68.200014
 22
32.108426
 32
0.0
 13
68.200014
 23
32.108426
 33
0.0
  0
SOLID
  8
0
  6
BYBLOCK
 62
     0
 10
69.624014
 20
32.288426
 30
0.0
 11
69.624014
 21
31.928426
 31
0.0
 12
68.544014
 22
32.108426
 32
0.0
 13
68.544014
 23
32.108426
 33
0.0
  0
TEXT
  8
0
  6
BYBLOCK
 62
     0
 10
71.244014
 20
31.733426
 30
0.0
 40
0.75
  1
0.344
 41
0.75
  7
TXT
 72
     1
 11
72.322139
 21
32.108426
 31
0.0
 73
     2
  0
POINT
  8
DEFPOINTS
  6
BYBLOCK
 62
     0
 10
68.200014
 20
29.71338
 30
0.0
  0
POINT
  8
DEFPOINTS
  6
BYBLOCK
 62
     0
 10
68.544014
 20
30.15088
 30
0.0
  0
POINT
  8
DEFPOINTS
  6
BYBLOCK
 62
     0
 10
68.544014
 20
32.108426
 30
0.0
  0
ENDBLK
  8
0
  0
BLOCK
  8
0
  2
*D5
 70
    65
 10
0.0
 20
0.0
 30
0.0
  3
*D
  0
LINE
  8
0
  6
BYBLOCK
 62
     0
 10
66.825014
 20
30.09138
 30
0.0
 11
66.825014
 21
36.027418
 31
0.0
  0
LINE
  8
0
  6
BYBLOCK
 62
     0
 10
64.075014
 20
30.09138
 30
0.0
 11
64.075014
 21
36.027418
 31
0.0
  0
LINE
  8
0
  6
BYBLOCK
 62
     0
 10
67.905014
 20
35.469418
 30
0.0
 11
68.985014
 21
35.469418
 31
0.0
  0
LINE
  8
0
  6
BYBLOCK
 62
     0
 10
62.995014
 20
35.469418
 30
0.0
 11
61.915014
 21
35.469418
 31
0.0
  0
SOLID
  8
0
  6
BYBLOCK
 62
     0
 10
67.905014
 20
35.649418
 30
0.0
 11
67.905014
 21
35.289418
 31
0.0
 12
66.825014
 22
35.469418
 32
0.0
 13
66.825014
 23
35.469418
 33
0.0
  0
SOLID
  8
0
  6
BYBLOCK
 62
     0
 10
62.995014
 20
35.649418
 30
0.0
 11
62.995014
 21
35.289418
 31
0.0
 12
64.075014
 22
35.469418
 32
0.0
 13
64.075014
 23
35.469418
 33
0.0
  0
TEXT
  8
0
  6
BYBLOCK
 62
     0
 10
59.218764
 20
35.094418
 30
0.0
 40
0.75
  1
2.750
 41
0.75
  7
TXT
 72
     1
 11
60.296889
 21
35.469418
 31
0.0
 73
     2
  0
POINT
  8
DEFPOINTS
  6
BYBLOCK
 62
     0
 10
66.825014
 20
29.71338
 30
0.0
  0
POINT
  8
DEFPOINTS
  6
BYBLOCK
 62
     0
 10
64.075014
 20
29.71338
 30
0.0
  0
POINT
  8
DEFPOINTS
  6
BYBLOCK
 62
     0
 10
64.075014
 20
35.469418
 30
0.0
  0
ENDBLK
  8
0
  0
BLOCK
  8
0
  2
*D6
 70
    65
 10
0.0
 20
0.0
 30
0.0
  3
*D
  0
LINE
  8
0
  6
BYBLOCK
 62
     0
 10
66.825014
 20
30.09138
 30
0.0
 11
66.825014
 21
34.092269
 31
0.0
  0
LINE
  8
0
  6
BYBLOCK
 62
     0
 10
68.544014
 20
30.52888
 30
0.0
 11
68.544014
 21
34.092269
 31
0.0
  0
LINE
  8
0
  6
BYBLOCK
 62
     0
 10
65.745014
 20
33.534269
 30
0.0
 11
64.665014
 21
33.534269
 31
0.0
  0
LINE
  8
0
  6
BYBLOCK
 62
     0
 10
69.624014
 20
33.534269
 30
0.0
 11
70.704014
 21
33.534269
 31
0.0
  0
SOLID
  8
0
  6
BYBLOCK
 62
     0
 10
65.745014
 20
33.714269
 30
0.0
 11
65.745014
 21
33.354269
 31
0.0
 12
66.825014
 22
33.534269
 32
0.0
 13
66.825014
 23
33.534269
 33
0.0
  0
SOLID
  8
0
  6
BYBLOCK
 62
     0
 10
69.624014
 20
33.714269
 30
0.0
 11
69.624014
 21
33.354269
 31
0.0
 12
68.544014
 22
33.534269
 32
0.0
 13
68.544014
 23
33.534269
 33
0.0
  0
TEXT
  8
0
  6
BYBLOCK
 62
     0
 10
71.244014
 20
33.159269
 30
0.0
 40
0.75
  1
1.719
 41
0.75
  7
TXT
 72
     1
 11
72.181514
 21
33.534269
 31
0.0
 73
     2
  0
POINT
  8
DEFPOINTS
  6
BYBLOCK
 62
     0
 10
66.825014
 20
29.71338
 30
0.0
  0
POINT
  8
DEFPOINTS
  6
BYBLOCK
 62
     0
 10
68.544014
 20
30.15088
 30
0.0
  0
POINT
  8
DEFPOINTS
  6
BYBLOCK
 62
     0
 10
68.544014
 20
33.534269
 30
0.0
  0
ENDBLK
  8
0
  0
BLOCK
  8
0
  2
*D7
 70
    65
 10
0.0
 20
0.0
 30
0.0
  3
*D
  0
LINE
  8
0
  6
BYBLOCK
 62
     0
 10
68.200014
 20
30.09138
 30
0.0
 11
68.200014
 21
38.236028
 31
0.0
  0
LINE
  8
0
  6
BYBLOCK
 62
     0
 10
65.450014
 20
30.09138
 30
0.0
 11
65.450014
 21
38.236028
 31
0.0
  0
LINE
  8
0
  6
BYBLOCK
 62
     0
 10
69.280014
 20
37.678028
 30
0.0
 11
70.360014
 21
37.678028
 31
0.0
  0
LINE
  8
0
  6
BYBLOCK
 62
     0
 10
64.370014
 20
37.678028
 30
0.0
 11
63.290014
 21
37.678028
 31
0.0
  0
SOLID
  8
0
  6
BYBLOCK
 62
     0
 10
69.280014
 20
37.858028
 30
0.0
 11
69.280014
 21
37.498028
 31
0.0
 12
68.200014
 22
37.678028
 32
0.0
 13
68.200014
 23
37.678028
 33
0.0
  0
SOLID
  8
0
  6
BYBLOCK
 62
     0
 10
64.370014
 20
37.858028
 30
0.0
 11
64.370014
 21
37.498028
 31
0.0
 12
65.450014
 22
37.678028
 32
0.0
 13
65.450014
 23
37.678028
 33
0.0
  0
TEXT
  8
0
  6
BYBLOCK
 62
     0
 10
65.746889
 20
37.303028
 30
0.0
 40
0.75
  1
2.750
 41
0.75
  7
TXT
 72
     1
 11
66.825014
 21
37.678028
 31
0.0
 73
     2
  0
POINT
  8
DEFPOINTS
  6
BYBLOCK
 62
     0
 10
68.200014
 20
29.71338
 30
0.0
  0
POINT
  8
DEFPOINTS
  6
BYBLOCK
 62
     0
 10
65.450014
 20
29.71338
 30
0.0
  0
POINT
  8
DEFPOINTS
  6
BYBLOCK
 62
     0
 10
65.450014
 20
37.678028
 30
0.0
  0
ENDBLK
  8
0
  0
BLOCK
  8
0
  2
*D8
 70
    65
 10
0.0
 20
0.0
 30
0.0
  3
*D
  0
LINE
  8
0
  6
BYBLOCK
 62
     0
 10
68.200014
 20
30.09138
 30
0.0
 11
68.200014
 21
39.925641
 31
0.0
  0
LINE
  8
0
  6
BYBLOCK
 62
     0
 10
57.606014
 20
30.09138
 30
0.0
 11
57.606014
 21
39.925641
 31
0.0
  0
LINE
  8
0
  6
BYBLOCK
 62
     0
 10
67.120014
 20
39.367641
 30
0.0
 11
64.005514
 21
39.367641
 31
0.0
  0
LINE
  8
0
  6
BYBLOCK
 62
     0
 10
58.686014
 20
39.367641
 30
0.0
 11
61.800514
 21
39.367641
 31
0.0
  0
SOLID
  8
0
  6
BYBLOCK
 62
     0
 10
67.120014
 20
39.547641
 30
0.0
 11
67.120014
 21
39.187641
 31
0.0
 12
68.200014
 22
39.367641
 32
0.0
 13
68.200014
 23
39.367641
 33
0.0
  0
SOLID
  8
0
  6
BYBLOCK
 62
     0
 10
58.686014
 20
39.547641
 30
0.0
 11
58.686014
 21
39.187641
 31
0.0
 12
57.606014
 22
39.367641
 32
0.0
 13
57.606014
 23
39.367641
 33
0.0
  0
TEXT
  8
0
  6
BYBLOCK
 62
     0
 10
62.340514
 20
38.992641
 30
0.0
 40
0.75
  1
  
 41
0.75
  7
TXT
 72
     1
 11
62.903014
 21
39.367641
 31
0.0
 73
     2
  0
POINT
  8
DEFPOINTS
  6
BYBLOCK
 62
     0
 10
68.200014
 20
29.71338
 30
0.0
  0
POINT
  8
DEFPOINTS
  6
BYBLOCK
 62
     0
 10
57.606014
 20
29.71338
 30
0.0
  0
POINT
  8
DEFPOINTS
  6
BYBLOCK
 62
     0
 10
57.606014
 20
39.367641
 30
0.0
  0
ENDBLK
  8
0
  0
BLOCK
  8
0
  2
*D9
 70
    65
 10
0.0
 20
0.0
 30
0.0
  3
*D
  0
LINE
  8
0
  6
BYBLOCK
 62
     0
 10
57.606014
 20
30.09138
 30
0.0
 11
57.606014
 21
39.925641
 31
0.0
  0
LINE
  8
0
  6
BYBLOCK
 62
     0
 10
54.856014
 20
30.09138
 30
0.0
 11
54.856014
 21
39.925641
 31
0.0
  0
LINE
  8
0
  6
BYBLOCK
 62
     0
 10
58.686014
 20
39.367641
 30
0.0
 11
59.766014
 21
39.367641
 31
0.0
  0
LINE
  8
0
  6
BYBLOCK
 62
     0
 10
53.776014
 20
39.367641
 30
0.0
 11
52.696014
 21
39.367641
 31
0.0
  0
SOLID
  8
0
  6
BYBLOCK
 62
     0
 10
58.686014
 20
39.547641
 30
0.0
 11
58.686014
 21
39.187641
 31
0.0
 12
57.606014
 22
39.367641
 32
0.0
 13
57.606014
 23
39.367641
 33
0.0
  0
SOLID
  8
0
  6
BYBLOCK
 62
     0
 10
53.776014
 20
39.547641
 30
0.0
 11
53.776014
 21
39.187641
 31
0.0
 12
54.856014
 22
39.367641
 32
0.0
 13
54.856014
 23
39.367641
 33
0.0
  0
TEXT
  8
0
  6
BYBLOCK
 62
     0
 10
55.152889
 20
38.992641
 30
0.0
 40
0.75
  1
2.750
 41
0.75
  7
TXT
 72
     1
 11
56.231014
 21
39.367641
 31
0.0
 73
     2
  0
POINT
  8
DEFPOINTS
  6
BYBLOCK
 62
     0
 10
57.606014
 20
29.71338
 30
0.0
  0
POINT
  8
DEFPOINTS
  6
BYBLOCK
 62
     0
 10
54.856014
 20
29.71338
 30
0.0
  0
POINT
  8
DEFPOINTS
  6
BYBLOCK
 62
     0
 10
54.856014
 20
39.367641
 30
0.0
  0
ENDBLK
  8
0
  0
BLOCK
  8
0
  2
*D10
 70
    65
 10
0.0
 20
0.0
 30
0.0
  3
*D
  0
LINE
  8
0
  6
BYBLOCK
 62
     0
 10
68.200014
 20
30.09138
 30
0.0
 11
68.200014
 21
44.522634
 31
0.0
  0
LINE
  8
0
  6
BYBLOCK
 62
     0
 10
39.294014
 20
30.09138
 30
0.0
 11
39.294014
 21
44.522634
 31
0.0
  0
LINE
  8
0
  6
BYBLOCK
 62
     0
 10
67.120014
 20
43.964634
 30
0.0
 11
54.849514
 21
43.964634
 31
0.0
  0
LINE
  8
0
  6
BYBLOCK
 62
     0
 10
40.374014
 20
43.964634
 30
0.0
 11
52.644514
 21
43.964634
 31
0.0
  0
SOLID
  8
0
  6
BYBLOCK
 62
     0
 10
67.120014
 20
44.144634
 30
0.0
 11
67.120014
 21
43.784634
 31
0.0
 12
68.200014
 22
43.964634
 32
0.0
 13
68.200014
 23
43.964634
 33
0.0
  0
SOLID
  8
0
  6
BYBLOCK
 62
     0
 10
40.374014
 20
44.144634
 30
0.0
 11
40.374014
 21
43.784634
 31
0.0
 12
39.294014
 22
43.964634
 32
0.0
 13
39.294014
 23
43.964634
 33
0.0
  0
TEXT
  8
0
  6
BYBLOCK
 62
     0
 10
53.184514
 20
43.589634
 30
0.0
 40
0.75
  1
  
 41
0.75
  7
TXT
 72
     1
 11
53.747014
 21
43.964634
 31
0.0
 73
     2
  0
POINT
  8
DEFPOINTS
  6
BYBLOCK
 62
     0
 10
68.200014
 20
29.71338
 30
0.0
  0
POINT
  8
DEFPOINTS
  6
BYBLOCK
 62
     0
 10
39.294014
 20
29.71338
 30
0.0
  0
POINT
  8
DEFPOINTS
  6
BYBLOCK
 62
     0
 10
39.294014
 20
43.964634
 30
0.0
  0
ENDBLK
  8
0
  0
BLOCK
  8
0
  2
*D11
 70
    65
 10
0.0
 20
0.0
 30
0.0
  3
*D
  0
LINE
  8
0
  6
BYBLOCK
 62
     0
 10
68.544014
 20
30.52888
 30
0.0
 11
68.544014
 21
41.429058
 31
0.0
  0
LINE
  8
0
  6
BYBLOCK
 62
     0
 10
50.919917
 20
30.09138
 30
0.0
 11
50.919917
 21
41.429058
 31
0.0
  0
LINE
  8
0
  6
BYBLOCK
 62
     0
 10
67.464014
 20
40.871058
 30
0.0
 11
60.834465
 21
40.871058
 31
0.0
  0
LINE
  8
0
  6
BYBLOCK
 62
     0
 10
51.999917
 20
40.871058
 30
0.0
 11
58.629465
 21
40.871058
 31
0.0
  0
SOLID
  8
0
  6
BYBLOCK
 62
     0
 10
67.464014
 20
41.051058
 30
0.0
 11
67.464014
 21
40.691058
 31
0.0
 12
68.544014
 22
40.871058
 32
0.0
 13
68.544014
 23
40.871058
 33
0.0
  0
SOLID
  8
0
  6
BYBLOCK
 62
     0
 10
51.999917
 20
41.051058
 30
0.0
 11
51.999917
 21
40.691058
 31
0.0
 12
50.919917
 22
40.871058
 32
0.0
 13
50.919917
 23
40.871058
 33
0.0
  0
TEXT
  8
0
  6
BYBLOCK
 62
     0
 10
59.169465
 20
40.496058
 30
0.0
 40
0.75
  1
  
 41
0.75
  7
TXT
 72
     1
 11
59.731965
 21
40.871058
 31
0.0
 73
     2
  0
POINT
  8
DEFPOINTS
  6
BYBLOCK
 62
     0
 10
68.544014
 20
30.15088
 30
0.0
  0
POINT
  8
DEFPOINTS
  6
BYBLOCK
 62
     0
 10
50.919917
 20
29.71338
 30
0.0
  0
POINT
  8
DEFPOINTS
  6
BYBLOCK
 62
     0
 10
50.919917
 20
40.871058
 30
0.0
  0
ENDBLK
  8
0
  0
BLOCK
  8
0
  2
*D12
 70
    65
 10
0.0
 20
0.0
 30
0.0
  3
*D
  0
LINE
  8
0
  6
BYBLOCK
 62
     0
 10
68.544014
 20
30.52888
 30
0.0
 11
68.544014
 21
42.875431
 31
0.0
  0
LINE
  8
0
  6
BYBLOCK
 62
     0
 10
47.168151
 20
30.09138
 30
0.0
 11
47.168151
 21
42.875431
 31
0.0
  0
LINE
  8
0
  6
BYBLOCK
 62
     0
 10
67.464014
 20
42.317431
 30
0.0
 11
58.958582
 21
42.317431
 31
0.0
  0
LINE
  8
0
  6
BYBLOCK
 62
     0
 10
48.248151
 20
42.317431
 30
0.0
 11
56.753582
 21
42.317431
 31
0.0
  0
SOLID
  8
0
  6
BYBLOCK
 62
     0
 10
67.464014
 20
42.497431
 30
0.0
 11
67.464014
 21
42.137431
 31
0.0
 12
68.544014
 22
42.317431
 32
0.0
 13
68.544014
 23
42.317431
 33
0.0
  0
SOLID
  8
0
  6
BYBLOCK
 62
     0
 10
48.248151
 20
42.497431
 30
0.0
 11
48.248151
 21
42.137431
 31
0.0
 12
47.168151
 22
42.317431
 32
0.0
 13
47.168151
 23
42.317431
 33
0.0
  0
TEXT
  8
0
  6
BYBLOCK
 62
     0
 10
57.293582
 20
41.942431
 30
0.0
 40
0.75
  1
  
 41
0.75
  7
TXT
 72
     1
 11
57.856082
 21
42.317431
 31
0.0
 73
     2
  0
POINT
  8
DEFPOINTS
  6
BYBLOCK
 62
     0
 10
68.544014
 20
30.15088
 30
0.0
  0
POINT
  8
DEFPOINTS
  6
BYBLOCK
 62
     0
 10
47.168151
 20
29.71338
 30
0.0
  0
POINT
  8
DEFPOINTS
  6
BYBLOCK
 62
     0
 10
47.168151
 20
42.317431
 30
0.0
  0
ENDBLK
  8
0
  0
BLOCK
  8
0
  2
*D13
 70
    65
 10
0.0
 20
0.0
 30
0.0
  3
*D
  0
LINE
  8
0
  6
BYBLOCK
 62
     0
 10
50.919917
 20
30.09138
 30
0.0
 11
50.919917
 21
41.429058
 31
0.0
  0
LINE
  8
0
  6
BYBLOCK
 62
     0
 10
48.169917
 20
30.09138
 30
0.0
 11
48.169917
 21
41.429058
 31
0.0
  0
LINE
  8
0
  6
BYBLOCK
 62
     0
 10
51.999917
 20
40.871058
 30
0.0
 11
53.079917
 21
40.871058
 31
0.0
  0
LINE
  8
0
  6
BYBLOCK
 62
     0
 10
47.089917
 20
40.871058
 30
0.0
 11
46.009917
 21
40.871058
 31
0.0
  0
SOLID
  8
0
  6
BYBLOCK
 62
     0
 10
51.999917
 20
41.051058
 30
0.0
 11
51.999917
 21
40.691058
 31
0.0
 12
50.919917
 22
40.871058
 32
0.0
 13
50.919917
 23
40.871058
 33
0.0
  0
SOLID
  8
0
  6
BYBLOCK
 62
     0
 10
47.089917
 20
41.051058
 30
0.0
 11
47.089917
 21
40.691058
 31
0.0
 12
48.169917
 22
40.871058
 32
0.0
 13
48.169917
 23
40.871058
 33
0.0
  0
TEXT
  8
0
  6
BYBLOCK
 62
     0
 10
48.466792
 20
40.496058
 30
0.0
 40
0.75
  1
2.750
 41
0.75
  7
TXT
 72
     1
 11
49.544917
 21
40.871058
 31
0.0
 73
     2
  0
POINT
  8
DEFPOINTS
  6
BYBLOCK
 62
     0
 10
50.919917
 20
29.71338
 30
0.0
  0
POINT
  8
DEFPOINTS
  6
BYBLOCK
 62
     0
 10
48.169917
 20
29.71338
 30
0.0
  0
POINT
  8
DEFPOINTS
  6
BYBLOCK
 62
     0
 10
48.169917
 20
40.871058
 30
0.0
  0
ENDBLK
  8
0
  0
BLOCK
  8
0
  2
*D14
 70
    65
 10
0.0
 20
0.0
 30
0.0
  3
*D
  0
LINE
  8
0
  6
BYBLOCK
 62
     0
 10
47.168151
 20
30.09138
 30
0.0
 11
47.168151
 21
42.875431
 31
0.0
  0
LINE
  8
0
  6
BYBLOCK
 62
     0
 10
44.418151
 20
30.09138
 30
0.0
 11
44.418151
 21
42.875431
 31
0.0
  0
LINE
  8
0
  6
BYBLOCK
 62
     0
 10
48.248151
 20
42.317431
 30
0.0
 11
49.328151
 21
42.317431
 31
0.0
  0
LINE
  8
0
  6
BYBLOCK
 62
     0
 10
43.338151
 20
42.317431
 30
0.0
 11
42.258151
 21
42.317431
 31
0.0
  0
SOLID
  8
0
  6
BYBLOCK
 62
     0
 10
48.248151
 20
42.497431
 30
0.0
 11
48.248151
 21
42.137431
 31
0.0
 12
47.168151
 22
42.317431
 32
0.0
 13
47.168151
 23
42.317431
 33
0.0
  0
SOLID
  8
0
  6
BYBLOCK
 62
     0
 10
43.338151
 20
42.497431
 30
0.0
 11
43.338151
 21
42.137431
 31
0.0
 12
44.418151
 22
42.317431
 32
0.0
 13
44.418151
 23
42.317431
 33
0.0
  0
TEXT
  8
0
  6
BYBLOCK
 62
     0
 10
44.715026
 20
41.942431
 30
0.0
 40
0.75
  1
2.750
 41
0.75
  7
TXT
 72
     1
 11
45.793151
 21
42.317431
 31
0.0
 73
     2
  0
POINT
  8
DEFPOINTS
  6
BYBLOCK
 62
     0
 10
47.168151
 20
29.71338
 30
0.0
  0
POINT
  8
DEFPOINTS
  6
BYBLOCK
 62
     0
 10
44.418151
 20
29.71338
 30
0.0
  0
POINT
  8
DEFPOINTS
  6
BYBLOCK
 62
     0
 10
44.418151
 20
42.317431
 30
0.0
  0
ENDBLK
  8
0
  0
BLOCK
  8
0
  2
*D15
 70
    65
 10
0.0
 20
0.0
 30
0.0
  3
*D
  0
LINE
  8
0
  6
BYBLOCK
 62
     0
 10
28.669876
 20
30.09138
 30
0.0
 11
28.669876
 21
42.875431
 31
0.0
  0
LINE
  8
0
  6
BYBLOCK
 62
     0
 10
31.419876
 20
30.09138
 30
0.0
 11
31.419876
 21
42.875431
 31
0.0
  0
LINE
  8
0
  6
BYBLOCK
 62
     0
 10
27.589876
 20
42.317431
 30
0.0
 11
26.509876
 21
42.317431
 31
0.0
  0
LINE
  8
0
  6
BYBLOCK
 62
     0
 10
32.499876
 20
42.317431
 30
0.0
 11
33.579876
 21
42.317431
 31
0.0
  0
SOLID
  8
0
  6
BYBLOCK
 62
     0
 10
27.589876
 20
42.497431
 30
0.0
 11
27.589876
 21
42.137431
 31
0.0
 12
28.669876
 22
42.317431
 32
0.0
 13
28.669876
 23
42.317431
 33
0.0
  0
SOLID
  8
0
  6
BYBLOCK
 62
     0
 10
32.499876
 20
42.497431
 30
0.0
 11
32.499876
 21
42.137431
 31
0.0
 12
31.419876
 22
42.317431
 32
0.0
 13
31.419876
 23
42.317431
 33
0.0
  0
TEXT
  8
0
  6
BYBLOCK
 62
     0
 10
28.966751
 20
41.942431
 30
0.0
 40
0.75
  1
2.750
 41
0.75
  7
TXT
 72
     1
 11
30.044876
 21
42.317431
 31
0.0
 73
     2
  0
POINT
  8
DEFPOINTS
  6
BYBLOCK
 62
     0
 10
28.669876
 20
29.71338
 30
0.0
  0
POINT
  8
DEFPOINTS
  6
BYBLOCK
 62
     0
 10
31.419876
 20
29.71338
 30
0.0
  0
POINT
  8
DEFPOINTS
  6
BYBLOCK
 62
     0
 10
31.419876
 20
42.317431
 30
0.0
  0
ENDBLK
  8
0
  0
BLOCK
  8
0
  2
*D16
 70
    65
 10
0.0
 20
0.0
 30
0.0
  3
*D
  0
LINE
  8
0
  6
BYBLOCK
 62
     0
 10
24.918111
 20
30.09138
 30
0.0
 11
24.918111
 21
41.429058
 31
0.0
  0
LINE
  8
0
  6
BYBLOCK
 62
     0
 10
27.668111
 20
30.09138
 30
0.0
 11
27.668111
 21
41.429058
 31
0.0
  0
LINE
  8
0
  6
BYBLOCK
 62
     0
 10
23.838111
 20
40.871058
 30
0.0
 11
22.758111
 21
40.871058
 31
0.0
  0
LINE
  8
0
  6
BYBLOCK
 62
     0
 10
28.748111
 20
40.871058
 30
0.0
 11
29.828111
 21
40.871058
 31
0.0
  0
SOLID
  8
0
  6
BYBLOCK
 62
     0
 10
23.838111
 20
41.051058
 30
0.0
 11
23.838111
 21
40.691058
 31
0.0
 12
24.918111
 22
40.871058
 32
0.0
 13
24.918111
 23
40.871058
 33
0.0
  0
SOLID
  8
0
  6
BYBLOCK
 62
     0
 10
28.748111
 20
41.051058
 30
0.0
 11
28.748111
 21
40.691058
 31
0.0
 12
27.668111
 22
40.871058
 32
0.0
 13
27.668111
 23
40.871058
 33
0.0
  0
TEXT
  8
0
  6
BYBLOCK
 62
     0
 10
25.214986
 20
40.496058
 30
0.0
 40
0.75
  1
2.750
 41
0.75
  7
TXT
 72
     1
 11
26.293111
 21
40.871058
 31
0.0
 73
     2
  0
POINT
  8
DEFPOINTS
  6
BYBLOCK
 62
     0
 10
24.918111
 20
29.71338
 30
0.0
  0
POINT
  8
DEFPOINTS
  6
BYBLOCK
 62
     0
 10
27.668111
 20
29.71338
 30
0.0
  0
POINT
  8
DEFPOINTS
  6
BYBLOCK
 62
     0
 10
27.668111
 20
40.871058
 30
0.0
  0
ENDBLK
  8
0
  0
BLOCK
  8
0
  2
*D17
 70
    65
 10
0.0
 20
0.0
 30
0.0
  3
*D
  0
LINE
  8
0
  6
BYBLOCK
 62
     0
 10
7.294014
 20
30.52888
 30
0.0
 11
7.294014
 21
42.875431
 31
0.0
  0
LINE
  8
0
  6
BYBLOCK
 62
     0
 10
28.669876
 20
30.09138
 30
0.0
 11
28.669876
 21
42.875431
 31
0.0
  0
LINE
  8
0
  6
BYBLOCK
 62
     0
 10
8.374014
 20
42.317431
 30
0.0
 11
16.879445
 21
42.317431
 31
0.0
  0
LINE
  8
0
  6
BYBLOCK
 62
     0
 10
27.589876
 20
42.317431
 30
0.0
 11
19.084445
 21
42.317431
 31
0.0
  0
SOLID
  8
0
  6
BYBLOCK
 62
     0
 10
8.374014
 20
42.497431
 30
0.0
 11
8.374014
 21
42.137431
 31
0.0
 12
7.294014
 22
42.317431
 32
0.0
 13
7.294014
 23
42.317431
 33
0.0
  0
SOLID
  8
0
  6
BYBLOCK
 62
     0
 10
27.589876
 20
42.497431
 30
0.0
 11
27.589876
 21
42.137431
 31
0.0
 12
28.669876
 22
42.317431
 32
0.0
 13
28.669876
 23
42.317431
 33
0.0
  0
TEXT
  8
0
  6
BYBLOCK
 62
     0
 10
17.419445
 20
41.942431
 30
0.0
 40
0.75
  1
  
 41
0.75
  7
TXT
 72
     1
 11
17.981945
 21
42.317431
 31
0.0
 73
     2
  0
POINT
  8
DEFPOINTS
  6
BYBLOCK
 62
     0
 10
7.294014
 20
30.15088
 30
0.0
  0
POINT
  8
DEFPOINTS
  6
BYBLOCK
 62
     0
 10
28.669876
 20
29.71338
 30
0.0
  0
POINT
  8
DEFPOINTS
  6
BYBLOCK
 62
     0
 10
28.669876
 20
42.317431
 30
0.0
  0
ENDBLK
  8
0
  0
BLOCK
  8
0
  2
*D18
 70
    65
 10
0.0
 20
0.0
 30
0.0
  3
*D
  0
LINE
  8
0
  6
BYBLOCK
 62
     0
 10
7.294014
 20
30.52888
 30
0.0
 11
7.294014
 21
41.429058
 31
0.0
  0
LINE
  8
0
  6
BYBLOCK
 62
     0
 10
24.918111
 20
30.09138
 30
0.0
 11
24.918111
 21
41.429058
 31
0.0
  0
LINE
  8
0
  6
BYBLOCK
 62
     0
 10
8.374014
 20
40.871058
 30
0.0
 11
15.003562
 21
40.871058
 31
0.0
  0
LINE
  8
0
  6
BYBLOCK
 62
     0
 10
23.838111
 20
40.871058
 30
0.0
 11
17.208562
 21
40.871058
 31
0.0
  0
SOLID
  8
0
  6
BYBLOCK
 62
     0
 10
8.374014
 20
41.051058
 30
0.0
 11
8.374014
 21
40.691058
 31
0.0
 12
7.294014
 22
40.871058
 32
0.0
 13
7.294014
 23
40.871058
 33
0.0
  0
SOLID
  8
0
  6
BYBLOCK
 62
     0
 10
23.838111
 20
41.051058
 30
0.0
 11
23.838111
 21
40.691058
 31
0.0
 12
24.918111
 22
40.871058
 32
0.0
 13
24.918111
 23
40.871058
 33
0.0
  0
TEXT
  8
0
  6
BYBLOCK
 62
     0
 10
15.543562
 20
40.496058
 30
0.0
 40
0.75
  1
  
 41
0.75
  7
TXT
 72
     1
 11
16.106062
 21
40.871058
 31
0.0
 73
     2
  0
POINT
  8
DEFPOINTS
  6
BYBLOCK
 62
     0
 10
7.294014
 20
30.15088
 30
0.0
  0
POINT
  8
DEFPOINTS
  6
BYBLOCK
 62
     0
 10
24.918111
 20
29.71338
 30
0.0
  0
POINT
  8
DEFPOINTS
  6
BYBLOCK
 62
     0
 10
24.918111
 20
40.871058
 30
0.0
  0
ENDBLK
  8
0
  0
BLOCK
  8
0
  2
*D19
 70
    65
 10
0.0
 20
0.0
 30
0.0
  3
*D
  0
LINE
  8
0
  6
BYBLOCK
 62
     0
 10
36.544014
 20
30.09138
 30
0.0
 11
36.544014
 21
44.522634
 31
0.0
  0
LINE
  8
0
  6
BYBLOCK
 62
     0
 10
39.294014
 20
30.09138
 30
0.0
 11
39.294014
 21
44.522634
 31
0.0
  0
LINE
  8
0
  6
BYBLOCK
 62
     0
 10
35.464014
 20
43.964634
 30
0.0
 11
34.384014
 21
43.964634
 31
0.0
  0
LINE
  8
0
  6
BYBLOCK
 62
     0
 10
40.374014
 20
43.964634
 30
0.0
 11
41.454014
 21
43.964634
 31
0.0
  0
SOLID
  8
0
  6
BYBLOCK
 62
     0
 10
35.464014
 20
44.144634
 30
0.0
 11
35.464014
 21
43.784634
 31
0.0
 12
36.544014
 22
43.964634
 32
0.0
 13
36.544014
 23
43.964634
 33
0.0
  0
SOLID
  8
0
  6
BYBLOCK
 62
     0
 10
40.374014
 20
44.144634
 30
0.0
 11
40.374014
 21
43.784634
 31
0.0
 12
39.294014
 22
43.964634
 32
0.0
 13
39.294014
 23
43.964634
 33
0.0
  0
TEXT
  8
0
  6
BYBLOCK
 62
     0
 10
36.840889
 20
43.589634
 30
0.0
 40
0.75
  1
2.750
 41
0.75
  7
TXT
 72
     1
 11
37.919014
 21
43.964634
 31
0.0
 73
     2
  0
POINT
  8
DEFPOINTS
  6
BYBLOCK
 62
     0
 10
36.544014
 20
29.71338
 30
0.0
  0
POINT
  8
DEFPOINTS
  6
BYBLOCK
 62
     0
 10
39.294014
 20
29.71338
 30
0.0
  0
POINT
  8
DEFPOINTS
  6
BYBLOCK
 62
     0
 10
39.294014
 20
43.964634
 30
0.0
  0
ENDBLK
  8
0
  0
BLOCK
  8
0
  2
*D20
 70
    65
 10
0.0
 20
0.0
 30
0.0
  3
*D
  0
LINE
  8
0
  6
BYBLOCK
 62
     0
 10
7.638014
 20
30.09138
 30
0.0
 11
7.638014
 21
44.522634
 31
0.0
  0
LINE
  8
0
  6
BYBLOCK
 62
     0
 10
36.544014
 20
30.09138
 30
0.0
 11
36.544014
 21
44.522634
 31
0.0
  0
LINE
  8
0
  6
BYBLOCK
 62
     0
 10
8.718014
 20
43.964634
 30
0.0
 11
20.988514
 21
43.964634
 31
0.0
  0
LINE
  8
0
  6
BYBLOCK
 62
     0
 10
35.464014
 20
43.964634
 30
0.0
 11
23.193514
 21
43.964634
 31
0.0
  0
SOLID
  8
0
  6
BYBLOCK
 62
     0
 10
8.718014
 20
44.144634
 30
0.0
 11
8.718014
 21
43.784634
 31
0.0
 12
7.638014
 22
43.964634
 32
0.0
 13
7.638014
 23
43.964634
 33
0.0
  0
SOLID
  8
0
  6
BYBLOCK
 62
     0
 10
35.464014
 20
44.144634
 30
0.0
 11
35.464014
 21
43.784634
 31
0.0
 12
36.544014
 22
43.964634
 32
0.0
 13
36.544014
 23
43.964634
 33
0.0
  0
TEXT
  8
0
  6
BYBLOCK
 62
     0
 10
21.528514
 20
43.589634
 30
0.0
 40
0.75
  1
  
 41
0.75
  7
TXT
 72
     1
 11
22.091014
 21
43.964634
 31
0.0
 73
     2
  0
POINT
  8
DEFPOINTS
  6
BYBLOCK
 62
     0
 10
7.638014
 20
29.71338
 30
0.0
  0
POINT
  8
DEFPOINTS
  6
BYBLOCK
 62
     0
 10
36.544014
 20
29.71338
 30
0.0
  0
POINT
  8
DEFPOINTS
  6
BYBLOCK
 62
     0
 10
36.544014
 20
43.964634
 30
0.0
  0
ENDBLK
  8
0
  0
BLOCK
  8
0
  2
*D21
 70
    65
 10
0.0
 20
0.0
 30
0.0
  3
*D
  0
LINE
  8
0
  6
BYBLOCK
 62
     0
 10
18.232014
 20
30.09138
 30
0.0
 11
18.232014
 21
39.925641
 31
0.0
  0
LINE
  8
0
  6
BYBLOCK
 62
     0
 10
20.982014
 20
30.09138
 30
0.0
 11
20.982014
 21
39.925641
 31
0.0
  0
LINE
  8
0
  6
BYBLOCK
 62
     0
 10
17.152014
 20
39.367641
 30
0.0
 11
16.072014
 21
39.367641
 31
0.0
  0
LINE
  8
0
  6
BYBLOCK
 62
     0
 10
22.062014
 20
39.367641
 30
0.0
 11
23.142014
 21
39.367641
 31
0.0
  0
SOLID
  8
0
  6
BYBLOCK
 62
     0
 10
17.152014
 20
39.547641
 30
0.0
 11
17.152014
 21
39.187641
 31
0.0
 12
18.232014
 22
39.367641
 32
0.0
 13
18.232014
 23
39.367641
 33
0.0
  0
SOLID
  8
0
  6
BYBLOCK
 62
     0
 10
22.062014
 20
39.547641
 30
0.0
 11
22.062014
 21
39.187641
 31
0.0
 12
20.982014
 22
39.367641
 32
0.0
 13
20.982014
 23
39.367641
 33
0.0
  0
TEXT
  8
0
  6
BYBLOCK
 62
     0
 10
18.528889
 20
38.992641
 30
0.0
 40
0.75
  1
2.750
 41
0.75
  7
TXT
 72
     1
 11
19.607014
 21
39.367641
 31
0.0
 73
     2
  0
POINT
  8
DEFPOINTS
  6
BYBLOCK
 62
     0
 10
18.232014
 20
29.71338
 30
0.0
  0
POINT
  8
DEFPOINTS
  6
BYBLOCK
 62
     0
 10
20.982014
 20
29.71338
 30
0.0
  0
POINT
  8
DEFPOINTS
  6
BYBLOCK
 62
     0
 10
20.982014
 20
39.367641
 30
0.0
  0
ENDBLK
  8
0
  0
BLOCK
  8
0
  2
*D22
 70
    65
 10
0.0
 20
0.0
 30
0.0
  3
*D
  0
LINE
  8
0
  6
BYBLOCK
 62
     0
 10
7.638014
 20
30.09138
 30
0.0
 11
7.638014
 21
39.925641
 31
0.0
  0
LINE
  8
0
  6
BYBLOCK
 62
     0
 10
18.232014
 20
30.09138
 30
0.0
 11
18.232014
 21
39.925641
 31
0.0
  0
LINE
  8
0
  6
BYBLOCK
 62
     0
 10
8.718014
 20
39.367641
 30
0.0
 11
11.832514
 21
39.367641
 31
0.0
  0
LINE
  8
0
  6
BYBLOCK
 62
     0
 10
17.152014
 20
39.367641
 30
0.0
 11
14.037514
 21
39.367641
 31
0.0
  0
SOLID
  8
0
  6
BYBLOCK
 62
     0
 10
8.718014
 20
39.547641
 30
0.0
 11
8.718014
 21
39.187641
 31
0.0
 12
7.638014
 22
39.367641
 32
0.0
 13
7.638014
 23
39.367641
 33
0.0
  0
SOLID
  8
0
  6
BYBLOCK
 62
     0
 10
17.152014
 20
39.547641
 30
0.0
 11
17.152014
 21
39.187641
 31
0.0
 12
18.232014
 22
39.367641
 32
0.0
 13
18.232014
 23
39.367641
 33
0.0
  0
TEXT
  8
0
  6
BYBLOCK
 62
     0
 10
12.372514
 20
38.992641
 30
0.0
 40
0.75
  1
  
 41
0.75
  7
TXT
 72
     1
 11
12.935014
 21
39.367641
 31
0.0
 73
     2
  0
POINT
  8
DEFPOINTS
  6
BYBLOCK
 62
     0
 10
7.638014
 20
29.71338
 30
0.0
  0
POINT
  8
DEFPOINTS
  6
BYBLOCK
 62
     0
 10
18.232014
 20
29.71338
 30
0.0
  0
POINT
  8
DEFPOINTS
  6
BYBLOCK
 62
     0
 10
18.232014
 20
39.367641
 30
0.0
  0
ENDBLK
  8
0
  0
BLOCK
  8
0
  2
*D23
 70
    65
 10
0.0
 20
0.0
 30
0.0
  3
*D
  0
LINE
  8
0
  6
BYBLOCK
 62
     0
 10
7.638014
 20
30.09138
 30
0.0
 11
7.638014
 21
38.236028
 31
0.0
  0
LINE
  8
0
  6
BYBLOCK
 62
     0
 10
10.388014
 20
30.09138
 30
0.0
 11
10.388014
 21
38.236028
 31
0.0
  0
LINE
  8
0
  6
BYBLOCK
 62
     0
 10
6.558014
 20
37.678028
 30
0.0
 11
5.478014
 21
37.678028
 31
0.0
  0
LINE
  8
0
  6
BYBLOCK
 62
     0
 10
11.468014
 20
37.678028
 30
0.0
 11
12.548014
 21
37.678028
 31
0.0
  0
SOLID
  8
0
  6
BYBLOCK
 62
     0
 10
6.558014
 20
37.858028
 30
0.0
 11
6.558014
 21
37.498028
 31
0.0
 12
7.638014
 22
37.678028
 32
0.0
 13
7.638014
 23
37.678028
 33
0.0
  0
SOLID
  8
0
  6
BYBLOCK
 62
     0
 10
11.468014
 20
37.858028
 30
0.0
 11
11.468014
 21
37.498028
 31
0.0
 12
10.388014
 22
37.678028
 32
0.0
 13
10.388014
 23
37.678028
 33
0.0
  0
TEXT
  8
0
  6
BYBLOCK
 62
     0
 10
7.934889
 20
37.303028
 30
0.0
 40
0.75
  1
2.750
 41
0.75
  7
TXT
 72
     1
 11
9.013014
 21
37.678028
 31
0.0
 73
     2
  0
POINT
  8
DEFPOINTS
  6
BYBLOCK
 62
     0
 10
7.638014
 20
29.71338
 30
0.0
  0
POINT
  8
DEFPOINTS
  6
BYBLOCK
 62
     0
 10
10.388014
 20
29.71338
 30
0.0
  0
POINT
  8
DEFPOINTS
  6
BYBLOCK
 62
     0
 10
10.388014
 20
37.678028
 30
0.0
  0
ENDBLK
  8
0
  0
BLOCK
  8
0
  2
*D24
 70
    65
 10
0.0
 20
0.0
 30
0.0
  3
*D
  0
LINE
  8
0
  6
BYBLOCK
 62
     0
 10
9.013014
 20
30.09138
 30
0.0
 11
9.013014
 21
34.092269
 31
0.0
  0
LINE
  8
0
  6
BYBLOCK
 62
     0
 10
7.294014
 20
30.52888
 30
0.0
 11
7.294014
 21
34.092269
 31
0.0
  0
LINE
  8
0
  6
BYBLOCK
 62
     0
 10
10.093014
 20
33.534269
 30
0.0
 11
11.173014
 21
33.534269
 31
0.0
  0
LINE
  8
0
  6
BYBLOCK
 62
     0
 10
6.214014
 20
33.534269
 30
0.0
 11
5.134014
 21
33.534269
 31
0.0
  0
SOLID
  8
0
  6
BYBLOCK
 62
     0
 10
10.093014
 20
33.714269
 30
0.0
 11
10.093014
 21
33.354269
 31
0.0
 12
9.013014
 22
33.534269
 32
0.0
 13
9.013014
 23
33.534269
 33
0.0
  0
SOLID
  8
0
  6
BYBLOCK
 62
     0
 10
6.214014
 20
33.714269
 30
0.0
 11
6.214014
 21
33.354269
 31
0.0
 12
7.294014
 22
33.534269
 32
0.0
 13
7.294014
 23
33.534269
 33
0.0
  0
TEXT
  8
0
  6
BYBLOCK
 62
     0
 10
2.719014
 20
33.159269
 30
0.0
 40
0.75
  1
1.719
 41
0.75
  7
TXT
 72
     1
 11
3.656514
 21
33.534269
 31
0.0
 73
     2
  0
POINT
  8
DEFPOINTS
  6
BYBLOCK
 62
     0
 10
9.013014
 20
29.71338
 30
0.0
  0
POINT
  8
DEFPOINTS
  6
BYBLOCK
 62
     0
 10
7.294014
 20
30.15088
 30
0.0
  0
POINT
  8
DEFPOINTS
  6
BYBLOCK
 62
     0
 10
7.294014
 20
33.534269
 30
0.0
  0
ENDBLK
  8
0
  0
BLOCK
  8
0
  2
*D25
 70
    65
 10
0.0
 20
0.0
 30
0.0
  3
*D
  0
LINE
  8
0
  6
BYBLOCK
 62
     0
 10
9.013014
 20
30.09138
 30
0.0
 11
9.013014
 21
36.027418
 31
0.0
  0
LINE
  8
0
  6
BYBLOCK
 62
     0
 10
11.763014
 20
30.09138
 30
0.0
 11
11.763014
 21
36.027418
 31
0.0
  0
LINE
  8
0
  6
BYBLOCK
 62
     0
 10
7.933014
 20
35.469418
 30
0.0
 11
6.853014
 21
35.469418
 31
0.0
  0
LINE
  8
0
  6
BYBLOCK
 62
     0
 10
12.843014
 20
35.469418
 30
0.0
 11
13.923014
 21
35.469418
 31
0.0
  0
SOLID
  8
0
  6
BYBLOCK
 62
     0
 10
7.933014
 20
35.649418
 30
0.0
 11
7.933014
 21
35.289418
 31
0.0
 12
9.013014
 22
35.469418
 32
0.0
 13
9.013014
 23
35.469418
 33
0.0
  0
SOLID
  8
0
  6
BYBLOCK
 62
     0
 10
12.843014
 20
35.649418
 30
0.0
 11
12.843014
 21
35.289418
 31
0.0
 12
11.763014
 22
35.469418
 32
0.0
 13
11.763014
 23
35.469418
 33
0.0
  0
TEXT
  8
0
  6
BYBLOCK
 62
     0
 10
14.463014
 20
35.094418
 30
0.0
 40
0.75
  1
2.750
 41
0.75
  7
TXT
 72
     1
 11
15.541139
 21
35.469418
 31
0.0
 73
     2
  0
POINT
  8
DEFPOINTS
  6
BYBLOCK
 62
     0
 10
9.013014
 20
29.71338
 30
0.0
  0
POINT
  8
DEFPOINTS
  6
BYBLOCK
 62
     0
 10
11.763014
 20
29.71338
 30
0.0
  0
POINT
  8
DEFPOINTS
  6
BYBLOCK
 62
     0
 10
11.763014
 20
35.469418
 30
0.0
  0
ENDBLK
  8
0
  0
BLOCK
  8
0
  2
*D26
 70
    65
 10
0.0
 20
0.0
 30
0.0
  3
*D
  0
LINE
  8
0
  6
BYBLOCK
 62
     0
 10
7.638014
 20
30.09138
 30
0.0
 11
7.638014
 21
32.666426
 31
0.0
  0
LINE
  8
0
  6
BYBLOCK
 62
     0
 10
7.294014
 20
30.52888
 30
0.0
 11
7.294014
 21
32.666426
 31
0.0
  0
LINE
  8
0
  6
BYBLOCK
 62
     0
 10
8.718014
 20
32.108426
 30
0.0
 11
9.798014
 21
32.108426
 31
0.0
  0
LINE
  8
0
  6
BYBLOCK
 62
     0
 10
6.214014
 20
32.108426
 30
0.0
 11
5.134014
 21
32.108426
 31
0.0
  0
SOLID
  8
0
  6
BYBLOCK
 62
     0
 10
8.718014
 20
32.288426
 30
0.0
 11
8.718014
 21
31.928426
 31
0.0
 12
7.638014
 22
32.108426
 32
0.0
 13
7.638014
 23
32.108426
 33
0.0
  0
SOLID
  8
0
  6
BYBLOCK
 62
     0
 10
6.214014
 20
32.288426
 30
0.0
 11
6.214014
 21
31.928426
 31
0.0
 12
7.294014
 22
32.108426
 32
0.0
 13
7.294014
 23
32.108426
 33
0.0
  0
TEXT
  8
0
  6
BYBLOCK
 62
     0
 10
2.437764
 20
31.733426
 30
0.0
 40
0.75
  1
0.344
 41
0.75
  7
TXT
 72
     1
 11
3.515889
 21
32.108426
 31
0.0
 73
     2
  0
POINT
  8
DEFPOINTS
  6
BYBLOCK
 62
     0
 10
7.638014
 20
29.71338
 30
0.0
  0
POINT
  8
DEFPOINTS
  6
BYBLOCK
 62
     0
 10
7.294014
 20
30.15088
 30
0.0
  0
POINT
  8
DEFPOINTS
  6
BYBLOCK
 62
     0
 10
7.294014
 20
32.108426
 30
0.0
  0
ENDBLK
  8
0
  0
BLOCK
  8
0
  2
*D27
 70
    65
 10
0.0
 20
0.0
 30
0.0
  3
*D
  0
LINE
  8
0
  6
BYBLOCK
 62
     0
 10
79.300469
 20
31.700099
 30
0.0
 11
76.280673
 21
31.700099
 31
0.0
  0
LINE
  8
0
  6
BYBLOCK
 62
     0
 10
79.300469
 20
29.220099
 30
0.0
 11
76.280673
 21
29.220099
 31
0.0
  0
LINE
  8
0
  6
BYBLOCK
 62
     0
 10
76.838673
 20
32.780099
 30
0.0
 11
76.838673
 21
33.860099
 31
0.0
  0
LINE
  8
0
  6
BYBLOCK
 62
     0
 10
76.838673
 20
28.140099
 30
0.0
 11
76.838673
 21
27.060099
 31
0.0
  0
SOLID
  8
0
  6
BYBLOCK
 62
     0
 10
76.658673
 20
32.780099
 30
0.0
 11
77.018673
 21
32.780099
 31
0.0
 12
76.838673
 22
31.700099
 32
0.0
 13
76.838673
 23
31.700099
 33
0.0
  0
SOLID
  8
0
  6
BYBLOCK
 62
     0
 10
76.658673
 20
28.140099
 30
0.0
 11
77.018673
 21
28.140099
 31
0.0
 12
76.838673
 22
29.220099
 32
0.0
 13
76.838673
 23
29.220099
 33
0.0
  0
TEXT
  8
0
  6
BYBLOCK
 62
     0
 10
76.885548
 20
30.085099
 30
0.0
 40
0.75
  1
 REF.
 41
0.75
  7
TXT
 72
     1
 11
78.010548
 21
30.460099
 31
0.0
 73
     2
  0
TEXT
  8
0
  6
BYBLOCK
 62
     0
 10
74.541798
 20
30.085099
 30
0.0
 40
0.75
  1
2.480
 41
0.75
  7
TXT
 72
     1
 11
75.619923
 21
30.460099
 31
0.0
 73
     2
  0
POINT
  8
DEFPOINTS
  6
BYBLOCK
 62
     0
 10
79.678469
 20
31.700099
 30
0.0
  0
POINT
  8
DEFPOINTS
  6
BYBLOCK
 62
     0
 10
79.678469
 20
29.220099
 30
0.0
  0
POINT
  8
DEFPOINTS
  6
BYBLOCK
 62
     0
 10
76.838673
 20
29.220099
 30
0.0
  0
ENDBLK
  8
0
  0
BLOCK
  8
0
  2
*D28
 70
    65
 10
0.0
 20
0.0
 30
0.0
  3
*D
  0
LINE
  8
0
  6
BYBLOCK
 62
     0
 10
7.544014
 20
25.985853
 30
0.0
 11
7.544014
 21
18.513286
 31
0.0
  0
LINE
  8
0
  6
BYBLOCK
 62
     0
 10
7.294014
 20
25.735853
 30
0.0
 11
7.294014
 21
18.513286
 31
0.0
  0
LINE
  8
0
  6
BYBLOCK
 62
     0
 10
8.624014
 20
19.071286
 30
0.0
 11
9.704014
 21
19.071286
 31
0.0
  0
LINE
  8
0
  6
BYBLOCK
 62
     0
 10
6.214014
 20
19.071286
 30
0.0
 11
5.134014
 21
19.071286
 31
0.0
  0
SOLID
  8
0
  6
BYBLOCK
 62
     0
 10
8.624014
 20
19.251286
 30
0.0
 11
8.624014
 21
18.891286
 31
0.0
 12
7.544014
 22
19.071286
 32
0.0
 13
7.544014
 23
19.071286
 33
0.0
  0
SOLID
  8
0
  6
BYBLOCK
 62
     0
 10
6.214014
 20
19.251286
 30
0.0
 11
6.214014
 21
18.891286
 31
0.0
 12
7.294014
 22
19.071286
 32
0.0
 13
7.294014
 23
19.071286
 33
0.0
  0
TEXT
  8
0
  6
BYBLOCK
 62
     0
 10
2.531514
 20
18.696286
 30
0.0
 40
0.75
  1
0.250
 41
0.75
  7
TXT
 72
     1
 11
3.562764
 21
19.071286
 31
0.0
 73
     2
  0
POINT
  8
DEFPOINTS
  6
BYBLOCK
 62
     0
 10
7.544014
 20
26.363853
 30
0.0
  0
POINT
  8
DEFPOINTS
  6
BYBLOCK
 62
     0
 10
7.294014
 20
26.113853
 30
0.0
  0
POINT
  8
DEFPOINTS
  6
BYBLOCK
 62
     0
 10
7.294014
 20
19.071286
 30
0.0
  0
ENDBLK
  8
0
  0
BLOCK
  8
0
  2
*D29
 70
    65
 10
0.0
 20
0.0
 30
0.0
  3
*D
  0
LINE
  8
0
  6
BYBLOCK
 62
     0
 10
7.544014
 20
25.985853
 30
0.0
 11
7.544014
 21
20.413164
 31
0.0
  0
LINE
  8
0
  6
BYBLOCK
 62
     0
 10
8.169014
 20
25.985853
 30
0.0
 11
8.169014
 21
20.413164
 31
0.0
  0
LINE
  8
0
  6
BYBLOCK
 62
     0
 10
6.464014
 20
20.971164
 30
0.0
 11
5.384014
 21
20.971164
 31
0.0
  0
LINE
  8
0
  6
BYBLOCK
 62
     0
 10
9.249014
 20
20.971164
 30
0.0
 11
10.329014
 21
20.971164
 31
0.0
  0
SOLID
  8
0
  6
BYBLOCK
 62
     0
 10
6.464014
 20
21.151164
 30
0.0
 11
6.464014
 21
20.791164
 31
0.0
 12
7.544014
 22
20.971164
 32
0.0
 13
7.544014
 23
20.971164
 33
0.0
  0
SOLID
  8
0
  6
BYBLOCK
 62
     0
 10
9.249014
 20
21.151164
 30
0.0
 11
9.249014
 21
20.791164
 31
0.0
 12
8.169014
 22
20.971164
 32
0.0
 13
8.169014
 23
20.971164
 33
0.0
  0
TEXT
  8
0
  6
BYBLOCK
 62
     0
 10
10.869014
 20
20.596164
 30
0.0
 40
0.75
  1
0.625
 41
0.75
  7
TXT
 72
     1
 11
11.947139
 21
20.971164
 31
0.0
 73
     2
  0
POINT
  8
DEFPOINTS
  6
BYBLOCK
 62
     0
 10
7.544014
 20
26.363853
 30
0.0
  0
POINT
  8
DEFPOINTS
  6
BYBLOCK
 62
     0
 10
8.169014
 20
26.363853
 30
0.0
  0
POINT
  8
DEFPOINTS
  6
BYBLOCK
 62
     0
 10
8.169014
 20
20.971164
 30
0.0
  0
ENDBLK
  8
0
  0
BLOCK
  8
0
  2
*D30
 70
    65
 10
0.0
 20
0.0
 30
0.0
  3
*D
  0
LINE
  8
0
  6
BYBLOCK
 62
     0
 10
8.169014
 20
25.985853
 30
0.0
 11
8.169014
 21
22.188303
 31
0.0
  0
LINE
  8
0
  6
BYBLOCK
 62
     0
 10
8.794014
 20
25.985853
 30
0.0
 11
8.794014
 21
22.188303
 31
0.0
  0
LINE
  8
0
  6
BYBLOCK
 62
     0
 10
7.089014
 20
22.746303
 30
0.0
 11
6.009014
 21
22.746303
 31
0.0
  0
LINE
  8
0
  6
BYBLOCK
 62
     0
 10
9.874014
 20
22.746303
 30
0.0
 11
10.954014
 21
22.746303
 31
0.0
  0
SOLID
  8
0
  6
BYBLOCK
 62
     0
 10
7.089014
 20
22.926303
 30
0.0
 11
7.089014
 21
22.566303
 31
0.0
 12
8.169014
 22
22.746303
 32
0.0
 13
8.169014
 23
22.746303
 33
0.0
  0
SOLID
  8
0
  6
BYBLOCK
 62
     0
 10
9.874014
 20
22.926303
 30
0.0
 11
9.874014
 21
22.566303
 31
0.0
 12
8.794014
 22
22.746303
 32
0.0
 13
8.794014
 23
22.746303
 33
0.0
  0
TEXT
  8
0
  6
BYBLOCK
 62
     0
 10
11.494014
 20
22.371303
 30
0.0
 40
0.75
  1
0.625
 41
0.75
  7
TXT
 72
     1
 11
12.572139
 21
22.746303
 31
0.0
 73
     2
  0
POINT
  8
DEFPOINTS
  6
BYBLOCK
 62
     0
 10
8.169014
 20
26.363853
 30
0.0
  0
POINT
  8
DEFPOINTS
  6
BYBLOCK
 62
     0
 10
8.794014
 20
26.363853
 30
0.0
  0
POINT
  8
DEFPOINTS
  6
BYBLOCK
 62
     0
 10
8.794014
 20
22.746303
 30
0.0
  0
ENDBLK
  8
0
  0
BLOCK
  8
0
  2
*D31
 70
    65
 10
0.0
 20
0.0
 30
0.0
  3
*D
  0
LINE
  8
0
  6
BYBLOCK
 62
     0
 10
8.794014
 20
25.985853
 30
0.0
 11
8.794014
 21
23.873181
 31
0.0
  0
LINE
  8
0
  6
BYBLOCK
 62
     0
 10
9.294014
 20
25.985853
 30
0.0
 11
9.294014
 21
23.873181
 31
0.0
  0
LINE
  8
0
  6
BYBLOCK
 62
     0
 10
7.714014
 20
24.431181
 30
0.0
 11
6.634014
 21
24.431181
 31
0.0
  0
LINE
  8
0
  6
BYBLOCK
 62
     0
 10
10.374014
 20
24.431181
 30
0.0
 11
11.454014
 21
24.431181
 31
0.0
  0
SOLID
  8
0
  6
BYBLOCK
 62
     0
 10
7.714014
 20
24.611181
 30
0.0
 11
7.714014
 21
24.251181
 31
0.0
 12
8.794014
 22
24.431181
 32
0.0
 13
8.794014
 23
24.431181
 33
0.0
  0
SOLID
  8
0
  6
BYBLOCK
 62
     0
 10
10.374014
 20
24.611181
 30
0.0
 11
10.374014
 21
24.251181
 31
0.0
 12
9.294014
 22
24.431181
 32
0.0
 13
9.294014
 23
24.431181
 33
0.0
  0
TEXT
  8
0
  6
BYBLOCK
 62
     0
 10
11.994014
 20
24.056181
 30
0.0
 40
0.75
  1
0.500
 41
0.75
  7
TXT
 72
     1
 11
12.978389
 21
24.431181
 31
0.0
 73
     2
  0
POINT
  8
DEFPOINTS
  6
BYBLOCK
 62
     0
 10
8.794014
 20
26.363853
 30
0.0
  0
POINT
  8
DEFPOINTS
  6
BYBLOCK
 62
     0
 10
9.294014
 20
26.363853
 30
0.0
  0
POINT
  8
DEFPOINTS
  6
BYBLOCK
 62
     0
 10
9.294014
 20
24.431181
 30
0.0
  0
ENDBLK
  8
0
  0
BLOCK
  8
0
  2
*D32
 70
    65
 10
0.0
 20
0.0
 30
0.0
  3
*D
  0
LINE
  8
0
  6
BYBLOCK
 62
     0
 10
68.294014
 20
25.985853
 30
0.0
 11
68.294014
 21
20.413164
 31
0.0
  0
LINE
  8
0
  6
BYBLOCK
 62
     0
 10
67.669014
 20
25.985853
 30
0.0
 11
67.669014
 21
20.413164
 31
0.0
  0
LINE
  8
0
  6
BYBLOCK
 62
     0
 10
69.374014
 20
20.971164
 30
0.0
 11
70.454014
 21
20.971164
 31
0.0
  0
LINE
  8
0
  6
BYBLOCK
 62
     0
 10
66.589014
 20
20.971164
 30
0.0
 11
65.509014
 21
20.971164
 31
0.0
  0
SOLID
  8
0
  6
BYBLOCK
 62
     0
 10
69.374014
 20
21.151164
 30
0.0
 11
69.374014
 21
20.791164
 31
0.0
 12
68.294014
 22
20.971164
 32
0.0
 13
68.294014
 23
20.971164
 33
0.0
  0
SOLID
  8
0
  6
BYBLOCK
 62
     0
 10
66.589014
 20
21.151164
 30
0.0
 11
66.589014
 21
20.791164
 31
0.0
 12
67.669014
 22
20.971164
 32
0.0
 13
67.669014
 23
20.971164
 33
0.0
  0
TEXT
  8
0
  6
BYBLOCK
 62
     0
 10
62.812764
 20
20.596164
 30
0.0
 40
0.75
  1
0.625
 41
0.75
  7
TXT
 72
     1
 11
63.890889
 21
20.971164
 31
0.0
 73
     2
  0
POINT
  8
DEFPOINTS
  6
BYBLOCK
 62
     0
 10
68.294014
 20
26.363853
 30
0.0
  0
POINT
  8
DEFPOINTS
  6
BYBLOCK
 62
     0
 10
67.669014
 20
26.363853
 30
0.0
  0
POINT
  8
DEFPOINTS
  6
BYBLOCK
 62
     0
 10
67.669014
 20
20.971164
 30
0.0
  0
ENDBLK
  8
0
  0
BLOCK
  8
0
  2
*D33
 70
    65
 10
0.0
 20
0.0
 30
0.0
  3
*D
  0
LINE
  8
0
  6
BYBLOCK
 62
     0
 10
68.294014
 20
25.985853
 30
0.0
 11
68.294014
 21
18.513286
 31
0.0
  0
LINE
  8
0
  6
BYBLOCK
 62
     0
 10
68.544014
 20
25.735853
 30
0.0
 11
68.544014
 21
18.513286
 31
0.0
  0
LINE
  8
0
  6
BYBLOCK
 62
     0
 10
67.214014
 20
19.071286
 30
0.0
 11
66.134014
 21
19.071286
 31
0.0
  0
LINE
  8
0
  6
BYBLOCK
 62
     0
 10
69.624014
 20
19.071286
 30
0.0
 11
70.704014
 21
19.071286
 31
0.0
  0
SOLID
  8
0
  6
BYBLOCK
 62
     0
 10
67.214014
 20
19.251286
 30
0.0
 11
67.214014
 21
18.891286
 31
0.0
 12
68.294014
 22
19.071286
 32
0.0
 13
68.294014
 23
19.071286
 33
0.0
  0
SOLID
  8
0
  6
BYBLOCK
 62
     0
 10
69.624014
 20
19.251286
 30
0.0
 11
69.624014
 21
18.891286
 31
0.0
 12
68.544014
 22
19.071286
 32
0.0
 13
68.544014
 23
19.071286
 33
0.0
  0
TEXT
  8
0
  6
BYBLOCK
 62
     0
 10
71.244014
 20
18.696286
 30
0.0
 40
0.75
  1
0.250
 41
0.75
  7
TXT
 72
     1
 11
72.275264
 21
19.071286
 31
0.0
 73
     2
  0
POINT
  8
DEFPOINTS
  6
BYBLOCK
 62
     0
 10
68.294014
 20
26.363853
 30
0.0
  0
POINT
  8
DEFPOINTS
  6
BYBLOCK
 62
     0
 10
68.544014
 20
26.113853
 30
0.0
  0
POINT
  8
DEFPOINTS
  6
BYBLOCK
 62
     0
 10
68.544014
 20
19.071286
 30
0.0
  0
ENDBLK
  8
0
  0
BLOCK
  8
0
  2
*D34
 70
    65
 10
0.0
 20
0.0
 30
0.0
  3
*D
  0
LINE
  8
0
  6
BYBLOCK
 62
     0
 10
67.669014
 20
25.985853
 30
0.0
 11
67.669014
 21
22.188303
 31
0.0
  0
LINE
  8
0
  6
BYBLOCK
 62
     0
 10
67.044014
 20
25.985853
 30
0.0
 11
67.044014
 21
22.188303
 31
0.0
  0
LINE
  8
0
  6
BYBLOCK
 62
     0
 10
68.749014
 20
22.746303
 30
0.0
 11
69.829014
 21
22.746303
 31
0.0
  0
LINE
  8
0
  6
BYBLOCK
 62
     0
 10
65.964014
 20
22.746303
 30
0.0
 11
64.884014
 21
22.746303
 31
0.0
  0
SOLID
  8
0
  6
BYBLOCK
 62
     0
 10
68.749014
 20
22.926303
 30
0.0
 11
68.749014
 21
22.566303
 31
0.0
 12
67.669014
 22
22.746303
 32
0.0
 13
67.669014
 23
22.746303
 33
0.0
  0
SOLID
  8
0
  6
BYBLOCK
 62
     0
 10
65.964014
 20
22.926303
 30
0.0
 11
65.964014
 21
22.566303
 31
0.0
 12
67.044014
 22
22.746303
 32
0.0
 13
67.044014
 23
22.746303
 33
0.0
  0
TEXT
  8
0
  6
BYBLOCK
 62
     0
 10
62.187764
 20
22.371303
 30
0.0
 40
0.75
  1
0.625
 41
0.75
  7
TXT
 72
     1
 11
63.265889
 21
22.746303
 31
0.0
 73
     2
  0
POINT
  8
DEFPOINTS
  6
BYBLOCK
 62
     0
 10
67.669014
 20
26.363853
 30
0.0
  0
POINT
  8
DEFPOINTS
  6
BYBLOCK
 62
     0
 10
67.044014
 20
26.363853
 30
0.0
  0
POINT
  8
DEFPOINTS
  6
BYBLOCK
 62
     0
 10
67.044014
 20
22.746303
 30
0.0
  0
ENDBLK
  8
0
  0
BLOCK
  8
0
  2
*D35
 70
    65
 10
0.0
 20
0.0
 30
0.0
  3
*D
  0
LINE
  8
0
  6
BYBLOCK
 62
     0
 10
67.044014
 20
25.985853
 30
0.0
 11
67.044014
 21
23.867181
 31
0.0
  0
LINE
  8
0
  6
BYBLOCK
 62
     0
 10
66.544014
 20
25.985853
 30
0.0
 11
66.544014
 21
23.867181
 31
0.0
  0
LINE
  8
0
  6
BYBLOCK
 62
     0
 10
68.124014
 20
24.425181
 30
0.0
 11
69.204014
 21
24.425181
 31
0.0
  0
LINE
  8
0
  6
BYBLOCK
 62
     0
 10
65.464014
 20
24.425181
 30
0.0
 11
64.384014
 21
24.425181
 31
0.0
  0
SOLID
  8
0
  6
BYBLOCK
 62
     0
 10
68.124014
 20
24.605181
 30
0.0
 11
68.124014
 21
24.245181
 31
0.0
 12
67.044014
 22
24.425181
 32
0.0
 13
67.044014
 23
24.425181
 33
0.0
  0
SOLID
  8
0
  6
BYBLOCK
 62
     0
 10
65.464014
 20
24.605181
 30
0.0
 11
65.464014
 21
24.245181
 31
0.0
 12
66.544014
 22
24.425181
 32
0.0
 13
66.544014
 23
24.425181
 33
0.0
  0
TEXT
  8
0
  6
BYBLOCK
 62
     0
 10
61.875264
 20
24.050181
 30
0.0
 40
0.75
  1
0.500
 41
0.75
  7
TXT
 72
     1
 11
62.859639
 21
24.425181
 31
0.0
 73
     2
  0
POINT
  8
DEFPOINTS
  6
BYBLOCK
 62
     0
 10
67.044014
 20
26.363853
 30
0.0
  0
POINT
  8
DEFPOINTS
  6
BYBLOCK
 62
     0
 10
66.544014
 20
26.363853
 30
0.0
  0
POINT
  8
DEFPOINTS
  6
BYBLOCK
 62
     0
 10
66.544014
 20
24.425181
 30
0.0
  0
ENDBLK
  8
0
  0
BLOCK
  8
0
  2
*D36
 70
    65
 10
0.0
 20
0.0
 30
0.0
  3
*D
  0
LINE
  8
0
  6
BYBLOCK
 62
     0
 10
7.544014
 20
48.781232
 30
0.0
 11
7.544014
 21
46.305774
 31
0.0
  0
LINE
  8
0
  6
BYBLOCK
 62
     0
 10
7.294014
 20
48.344232
 30
0.0
 11
7.294014
 21
46.305774
 31
0.0
  0
LINE
  8
0
  6
BYBLOCK
 62
     0
 10
8.624014
 20
46.863774
 30
0.0
 11
9.704014
 21
46.863774
 31
0.0
  0
LINE
  8
0
  6
BYBLOCK
 62
     0
 10
6.214014
 20
46.863774
 30
0.0
 11
5.134014
 21
46.863774
 31
0.0
  0
SOLID
  8
0
  6
BYBLOCK
 62
     0
 10
8.624014
 20
47.043774
 30
0.0
 11
8.624014
 21
46.683774
 31
0.0
 12
7.544014
 22
46.863774
 32
0.0
 13
7.544014
 23
46.863774
 33
0.0
  0
SOLID
  8
0
  6
BYBLOCK
 62
     0
 10
6.214014
 20
47.043774
 30
0.0
 11
6.214014
 21
46.683774
 31
0.0
 12
7.294014
 22
46.863774
 32
0.0
 13
7.294014
 23
46.863774
 33
0.0
  0
TEXT
  8
0
  6
BYBLOCK
 62
     0
 10
2.531514
 20
46.488774
 30
0.0
 40
0.75
  1
0.250
 41
0.75
  7
TXT
 72
     1
 11
3.562764
 21
46.863774
 31
0.0
 73
     2
  0
POINT
  8
DEFPOINTS
  6
BYBLOCK
 62
     0
 10
7.544014
 20
49.159232
 30
0.0
  0
POINT
  8
DEFPOINTS
  6
BYBLOCK
 62
     0
 10
7.294014
 20
48.722232
 30
0.0
  0
POINT
  8
DEFPOINTS
  6
BYBLOCK
 62
     0
 10
7.294014
 20
46.863774
 30
0.0
  0
ENDBLK
  8
0
  0
BLOCK
  8
0
  2
*D37
 70
    65
 10
0.0
 20
0.0
 30
0.0
  3
*D
  0
LINE
  8
0
  6
BYBLOCK
 62
     0
 10
68.294014
 20
48.781232
 30
0.0
 11
68.294014
 21
46.305774
 31
0.0
  0
LINE
  8
0
  6
BYBLOCK
 62
     0
 10
7.544014
 20
48.781232
 30
0.0
 11
7.544014
 21
46.305774
 31
0.0
  0
LINE
  8
0
  6
BYBLOCK
 62
     0
 10
67.214014
 20
46.863774
 30
0.0
 11
49.896514
 21
46.863774
 31
0.0
  0
LINE
  8
0
  6
BYBLOCK
 62
     0
 10
8.624014
 20
46.863774
 30
0.0
 11
25.941514
 21
46.863774
 31
0.0
  0
SOLID
  8
0
  6
BYBLOCK
 62
     0
 10
67.214014
 20
47.043774
 30
0.0
 11
67.214014
 21
46.683774
 31
0.0
 12
68.294014
 22
46.863774
 32
0.0
 13
68.294014
 23
46.863774
 33
0.0
  0
SOLID
  8
0
  6
BYBLOCK
 62
     0
 10
8.624014
 20
47.043774
 30
0.0
 11
8.624014
 21
46.683774
 31
0.0
 12
7.544014
 22
46.863774
 32
0.0
 13
7.544014
 23
46.863774
 33
0.0
  0
TEXT
  8
0
  6
BYBLOCK
 62
     0
 10
26.481514
 20
46.488774
 30
0.0
 40
0.75
  1
(  ) HOLES ON E.I.A. UNIVERSAL SPACING  =   
 41
0.75
  7
TXT
 72
     1
 11
37.919014
 21
46.863774
 31
0.0
 73
     2
  0
POINT
  8
DEFPOINTS
  6
BYBLOCK
 62
     0
 10
68.294014
 20
49.159232
 30
0.0
  0
POINT
  8
DEFPOINTS
  6
BYBLOCK
 62
     0
 10
7.544014
 20
49.159232
 30
0.0
  0
POINT
  8
DEFPOINTS
  6
BYBLOCK
 62
     0
 10
7.544014
 20
46.863774
 30
0.0
  0
ENDBLK
  8
0
  0
BLOCK
  8
0
  2
*D38
 70
    65
 10
0.0
 20
0.0
 30
0.0
  3
*D
  0
LINE
  8
0
  6
BYBLOCK
 62
     0
 10
68.294014
 20
48.781232
 30
0.0
 11
68.294014
 21
46.305774
 31
0.0
  0
LINE
  8
0
  6
BYBLOCK
 62
     0
 10
68.544014
 20
48.344232
 30
0.0
 11
68.544014
 21
46.305774
 31
0.0
  0
LINE
  8
0
  6
BYBLOCK
 62
     0
 10
67.214014
 20
46.863774
 30
0.0
 11
66.134014
 21
46.863774
 31
0.0
  0
LINE
  8
0
  6
BYBLOCK
 62
     0
 10
69.624014
 20
46.863774
 30
0.0
 11
70.704014
 21
46.863774
 31
0.0
  0
SOLID
  8
0
  6
BYBLOCK
 62
     0
 10
67.214014
 20
47.043774
 30
0.0
 11
67.214014
 21
46.683774
 31
0.0
 12
68.294014
 22
46.863774
 32
0.0
 13
68.294014
 23
46.863774
 33
0.0
  0
SOLID
  8
0
  6
BYBLOCK
 62
     0
 10
69.624014
 20
47.043774
 30
0.0
 11
69.624014
 21
46.683774
 31
0.0
 12
68.544014
 22
46.863774
 32
0.0
 13
68.544014
 23
46.863774
 33
0.0
  0
TEXT
  8
0
  6
BYBLOCK
 62
     0
 10
71.244014
 20
46.488774
 30
0.0
 40
0.75
  1
0.250
 41
0.75
  7
TXT
 72
     1
 11
72.275264
 21
46.863774
 31
0.0
 73
     2
  0
POINT
  8
DEFPOINTS
  6
BYBLOCK
 62
     0
 10
68.294014
 20
49.159232
 30
0.0
  0
POINT
  8
DEFPOINTS
  6
BYBLOCK
 62
     0
 10
68.544014
 20
48.722232
 30
0.0
  0
POINT
  8
DEFPOINTS
  6
BYBLOCK
 62
     0
 10
68.544014
 20
46.863774
 30
0.0
  0
ENDBLK
  8
0
  0
BLOCK
  8
0
  2
*D39
 70
    65
 10
0.0
 20
0.0
 30
0.0
  3
*D
  0
LINE
  8
0
  6
BYBLOCK
 62
     0
 10
79.349663
 20
47.187968
 30
0.0
 11
76.823159
 21
47.187968
 31
0.0
  0
LINE
  8
0
  6
BYBLOCK
 62
     0
 10
78.270714
 20
46.687968
 30
0.0
 11
76.823159
 21
46.687968
 31
0.0
  0
LINE
  8
0
  6
BYBLOCK
 62
     0
 10
77.381159
 20
48.267968
 30
0.0
 11
77.381159
 21
49.347968
 31
0.0
  0
LINE
  8
0
  6
BYBLOCK
 62
     0
 10
77.381159
 20
45.607968
 30
0.0
 11
77.381159
 21
44.527968
 31
0.0
  0
LINE
  8
0
  6
BYBLOCK
 62
     0
 10
77.381159
 20
44.527968
 30
0.0
 11
76.301159
 21
44.527968
 31
0.0
  0
SOLID
  8
0
  6
BYBLOCK
 62
     0
 10
77.201159
 20
48.267968
 30
0.0
 11
77.561159
 21
48.267968
 31
0.0
 12
77.381159
 22
47.187968
 32
0.0
 13
77.381159
 23
47.187968
 33
0.0
  0
SOLID
  8
0
  6
BYBLOCK
 62
     0
 10
77.201159
 20
45.607968
 30
0.0
 11
77.561159
 21
45.607968
 31
0.0
 12
77.381159
 22
46.687968
 32
0.0
 13
77.381159
 23
46.687968
 33
0.0
  0
TEXT
  8
0
  6
BYBLOCK
 62
     0
 10
73.698659
 20
44.152968
 30
0.0
 40
0.75
  1
0.250
 41
0.75
  7
TXT
 72
     1
 11
74.729909
 21
44.527968
 31
0.0
 73
     2
  0
POINT
  8
DEFPOINTS
  6
BYBLOCK
 62
     0
 10
79.727663
 20
47.187968
 30
0.0
  0
POINT
  8
DEFPOINTS
  6
BYBLOCK
 62
     0
 10
78.648714
 20
46.687968
 30
0.0
  0
POINT
  8
DEFPOINTS
  6
BYBLOCK
 62
     0
 10
77.381159
 20
46.687968
 30
0.0
  0
ENDBLK
  8
0
  0
BLOCK
  8
0
  2
*D40
 70
    65
 10
0.0
 20
0.0
 30
0.0
  3
*D
  0
LINE
  8
0
  6
BYBLOCK
 62
     0
 10
81.477663
 20
47.065968
 30
0.0
 11
81.477663
 21
50.09681
 31
0.0
  0
LINE
  8
0
  6
BYBLOCK
 62
     0
 10
82.727663
 20
47.065968
 30
0.0
 11
82.727663
 21
50.09681
 31
0.0
  0
LINE
  8
0
  6
BYBLOCK
 62
     0
 10
80.397663
 20
49.53881
 30
0.0
 11
79.317663
 21
49.53881
 31
0.0
  0
LINE
  8
0
  6
BYBLOCK
 62
     0
 10
83.807663
 20
49.53881
 30
0.0
 11
84.887663
 21
49.53881
 31
0.0
  0
SOLID
  8
0
  6
BYBLOCK
 62
     0
 10
80.397663
 20
49.71881
 30
0.0
 11
80.397663
 21
49.35881
 31
0.0
 12
81.477663
 22
49.53881
 32
0.0
 13
81.477663
 23
49.53881
 33
0.0
  0
SOLID
  8
0
  6
BYBLOCK
 62
     0
 10
83.807663
 20
49.71881
 30
0.0
 11
83.807663
 21
49.35881
 31
0.0
 12
82.727663
 22
49.53881
 32
0.0
 13
82.727663
 23
49.53881
 33
0.0
  0
TEXT
  8
0
  6
BYBLOCK
 62
     0
 10
85.427663
 20
49.16381
 30
0.0
 40
0.75
  1
0.625
 41
0.75
  7
TXT
 72
     1
 11
86.505788
 21
49.53881
 31
0.0
 73
     2
  0
POINT
  8
DEFPOINTS
  6
BYBLOCK
 62
     0
 10
81.477663
 20
46.687968
 30
0.0
  0
POINT
  8
DEFPOINTS
  6
BYBLOCK
 62
     0
 10
82.727663
 20
46.687968
 30
0.0
  0
POINT
  8
DEFPOINTS
  6
BYBLOCK
 62
     0
 10
82.727663
 20
49.53881
 30
0.0
  0
ENDBLK
  8
0
  0
BLOCK
  8
0
  2
*D41
 70
    65
 10
0.0
 20
0.0
 30
0.0
  3
*D
  0
LINE
  8
0
  6
BYBLOCK
 62
     0
 10
80.227663
 20
47.065968
 30
0.0
 11
80.227663
 21
51.559892
 31
0.0
  0
LINE
  8
0
  6
BYBLOCK
 62
     0
 10
81.477663
 20
47.065968
 30
0.0
 11
81.477663
 21
51.559892
 31
0.0
  0
LINE
  8
0
  6
BYBLOCK
 62
     0
 10
79.147663
 20
51.001892
 30
0.0
 11
78.067663
 21
51.001892
 31
0.0
  0
LINE
  8
0
  6
BYBLOCK
 62
     0
 10
82.557663
 20
51.001892
 30
0.0
 11
83.637663
 21
51.001892
 31
0.0
  0
SOLID
  8
0
  6
BYBLOCK
 62
     0
 10
79.147663
 20
51.181892
 30
0.0
 11
79.147663
 21
50.821892
 31
0.0
 12
80.227663
 22
51.001892
 32
0.0
 13
80.227663
 23
51.001892
 33
0.0
  0
SOLID
  8
0
  6
BYBLOCK
 62
     0
 10
82.557663
 20
51.181892
 30
0.0
 11
82.557663
 21
50.821892
 31
0.0
 12
81.477663
 22
51.001892
 32
0.0
 13
81.477663
 23
51.001892
 33
0.0
  0
TEXT
  8
0
  6
BYBLOCK
 62
     0
 10
84.177663
 20
50.626892
 30
0.0
 40
0.75
  1
0.625
 41
0.75
  7
TXT
 72
     1
 11
85.255788
 21
51.001892
 31
0.0
 73
     2
  0
POINT
  8
DEFPOINTS
  6
BYBLOCK
 62
     0
 10
80.227663
 20
46.687968
 30
0.0
  0
POINT
  8
DEFPOINTS
  6
BYBLOCK
 62
     0
 10
81.477663
 20
46.687968
 30
0.0
  0
POINT
  8
DEFPOINTS
  6
BYBLOCK
 62
     0
 10
81.477663
 20
51.001892
 30
0.0
  0
ENDBLK
  8
0
  0
BLOCK
  8
0
  2
*D42
 70
    65
 10
0.0
 20
0.0
 30
0.0
  3
*D
  0
LINE
  8
0
  6
BYBLOCK
 62
     0
 10
79.727663
 20
47.565968
 30
0.0
 11
79.727663
 21
53.112819
 31
0.0
  0
LINE
  8
0
  6
BYBLOCK
 62
     0
 10
80.227663
 20
47.065968
 30
0.0
 11
80.227663
 21
53.112819
 31
0.0
  0
LINE
  8
0
  6
BYBLOCK
 62
     0
 10
78.647663
 20
52.554819
 30
0.0
 11
77.567663
 21
52.554819
 31
0.0
  0
LINE
  8
0
  6
BYBLOCK
 62
     0
 10
81.307663
 20
52.554819
 30
0.0
 11
82.387663
 21
52.554819
 31
0.0
  0
SOLID
  8
0
  6
BYBLOCK
 62
     0
 10
78.647663
 20
52.734819
 30
0.0
 11
78.647663
 21
52.374819
 31
0.0
 12
79.727663
 22
52.554819
 32
0.0
 13
79.727663
 23
52.554819
 33
0.0
  0
SOLID
  8
0
  6
BYBLOCK
 62
     0
 10
81.307663
 20
52.734819
 30
0.0
 11
81.307663
 21
52.374819
 31
0.0
 12
80.227663
 22
52.554819
 32
0.0
 13
80.227663
 23
52.554819
 33
0.0
  0
TEXT
  8
0
  6
BYBLOCK
 62
     0
 10
82.927663
 20
52.179819
 30
0.0
 40
0.75
  1
0.250
 41
0.75
  7
TXT
 72
     1
 11
83.958913
 21
52.554819
 31
0.0
 73
     2
  0
POINT
  8
DEFPOINTS
  6
BYBLOCK
 62
     0
 10
79.727663
 20
47.187968
 30
0.0
  0
POINT
  8
DEFPOINTS
  6
BYBLOCK
 62
     0
 10
80.227663
 20
46.687968
 30
0.0
  0
POINT
  8
DEFPOINTS
  6
BYBLOCK
 62
     0
 10
80.227663
 20
52.554819
 30
0.0
  0
ENDBLK
  8
0
  0
BLOCK
  8
0
  2
*D43
 70
    65
 10
0.0
 20
0.0
 30
0.0
  3
*D
  0
LINE
  8
0
  6
BYBLOCK
 62
     0
 10
82.727663
 20
47.065968
 30
0.0
 11
82.727663
 21
48.56563
 31
0.0
  0
LINE
  8
0
  6
BYBLOCK
 62
     0
 10
83.727663
 20
47.065968
 30
0.0
 11
83.727663
 21
48.56563
 31
0.0
  0
LINE
  8
0
  6
BYBLOCK
 62
     0
 10
81.647663
 20
48.00763
 30
0.0
 11
80.567663
 21
48.00763
 31
0.0
  0
LINE
  8
0
  6
BYBLOCK
 62
     0
 10
84.807663
 20
48.00763
 30
0.0
 11
85.887663
 21
48.00763
 31
0.0
  0
SOLID
  8
0
  6
BYBLOCK
 62
     0
 10
81.647663
 20
48.18763
 30
0.0
 11
81.647663
 21
47.82763
 31
0.0
 12
82.727663
 22
48.00763
 32
0.0
 13
82.727663
 23
48.00763
 33
0.0
  0
SOLID
  8
0
  6
BYBLOCK
 62
     0
 10
84.807663
 20
48.18763
 30
0.0
 11
84.807663
 21
47.82763
 31
0.0
 12
83.727663
 22
48.00763
 32
0.0
 13
83.727663
 23
48.00763
 33
0.0
  0
TEXT
  8
0
  6
BYBLOCK
 62
     0
 10
86.427663
 20
47.63263
 30
0.0
 40
0.75
  1
0.500
 41
0.75
  7
TXT
 72
     1
 11
87.412038
 21
48.00763
 31
0.0
 73
     2
  0
POINT
  8
DEFPOINTS
  6
BYBLOCK
 62
     0
 10
82.727663
 20
46.687968
 30
0.0
  0
POINT
  8
DEFPOINTS
  6
BYBLOCK
 62
     0
 10
83.727663
 20
46.687968
 30
0.0
  0
POINT
  8
DEFPOINTS
  6
BYBLOCK
 62
     0
 10
83.727663
 20
48.00763
 30
0.0
  0
ENDBLK
  8
0
  0
BLOCK
  8
0
  2
*D44
 70
    65
 10
0.0
 20
0.0
 30
0.0
  3
*D
  0
LINE
  8
0
  6
BYBLOCK
 62
     0
 10
5.484659
 20
10.746773
 30
0.0
 11
4.684316
 21
10.746773
 31
0.0
  0
LINE
  8
0
  6
BYBLOCK
 62
     0
 10
6.563608
 20
10.246773
 30
0.0
 11
4.684316
 21
10.246773
 31
0.0
  0
LINE
  8
0
  6
BYBLOCK
 62
     0
 10
5.242316
 20
11.826773
 30
0.0
 11
5.242316
 21
12.906773
 31
0.0
  0
LINE
  8
0
  6
BYBLOCK
 62
     0
 10
5.242316
 20
9.166773
 30
0.0
 11
5.242316
 21
8.086773
 31
0.0
  0
LINE
  8
0
  6
BYBLOCK
 62
     0
 10
5.242316
 20
8.086773
 30
0.0
 11
4.162316
 21
8.086773
 31
0.0
  0
SOLID
  8
0
  6
BYBLOCK
 62
     0
 10
5.062316
 20
11.826773
 30
0.0
 11
5.422316
 21
11.826773
 31
0.0
 12
5.242316
 22
10.746773
 32
0.0
 13
5.242316
 23
10.746773
 33
0.0
  0
SOLID
  8
0
  6
BYBLOCK
 62
     0
 10
5.062316
 20
9.166773
 30
0.0
 11
5.422316
 21
9.166773
 31
0.0
 12
5.242316
 22
10.246773
 32
0.0
 13
5.242316
 23
10.246773
 33
0.0
  0
TEXT
  8
0
  6
BYBLOCK
 62
     0
 10
1.559816
 20
7.711773
 30
0.0
 40
0.75
  1
0.250
 41
0.75
  7
TXT
 72
     1
 11
2.591066
 21
8.086773
 31
0.0
 73
     2
  0
POINT
  8
DEFPOINTS
  6
BYBLOCK
 62
     0
 10
5.862659
 20
10.746773
 30
0.0
  0
POINT
  8
DEFPOINTS
  6
BYBLOCK
 62
     0
 10
6.941608
 20
10.246773
 30
0.0
  0
POINT
  8
DEFPOINTS
  6
BYBLOCK
 62
     0
 10
5.242316
 20
10.246773
 30
0.0
  0
ENDBLK
  8
0
  0
BLOCK
  8
0
  2
*D45
 70
    65
 10
0.0
 20
0.0
 30
0.0
  3
*D
  0
LINE
  8
0
  6
BYBLOCK
 62
     0
 10
6.941608
 20
9.868773
 30
0.0
 11
6.941608
 21
4.526215
 31
0.0
  0
LINE
  8
0
  6
BYBLOCK
 62
     0
 10
7.441608
 20
10.368773
 30
0.0
 11
7.441608
 21
4.526215
 31
0.0
  0
LINE
  8
0
  6
BYBLOCK
 62
     0
 10
5.861608
 20
5.084215
 30
0.0
 11
4.781608
 21
5.084215
 31
0.0
  0
LINE
  8
0
  6
BYBLOCK
 62
     0
 10
8.521608
 20
5.084215
 30
0.0
 11
9.601608
 21
5.084215
 31
0.0
  0
SOLID
  8
0
  6
BYBLOCK
 62
     0
 10
5.861608
 20
5.264215
 30
0.0
 11
5.861608
 21
4.904215
 31
0.0
 12
6.941608
 22
5.084215
 32
0.0
 13
6.941608
 23
5.084215
 33
0.0
  0
SOLID
  8
0
  6
BYBLOCK
 62
     0
 10
8.521608
 20
5.264215
 30
0.0
 11
8.521608
 21
4.904215
 31
0.0
 12
7.441608
 22
5.084215
 32
0.0
 13
7.441608
 23
5.084215
 33
0.0
  0
TEXT
  8
0
  6
BYBLOCK
 62
     0
 10
10.141608
 20
4.709215
 30
0.0
 40
0.75
  1
0.250
 41
0.75
  7
TXT
 72
     1
 11
11.172858
 21
5.084215
 31
0.0
 73
     2
  0
POINT
  8
DEFPOINTS
  6
BYBLOCK
 62
     0
 10
6.941608
 20
10.246773
 30
0.0
  0
POINT
  8
DEFPOINTS
  6
BYBLOCK
 62
     0
 10
7.441608
 20
10.746773
 30
0.0
  0
POINT
  8
DEFPOINTS
  6
BYBLOCK
 62
     0
 10
7.441608
 20
5.084215
 30
0.0
  0
ENDBLK
  8
0
  0
BLOCK
  8
0
  2
*D46
 70
    65
 10
0.0
 20
0.0
 30
0.0
  3
*D
  0
LINE
  8
0
  6
BYBLOCK
 62
     0
 10
7.441608
 20
10.368773
 30
0.0
 11
7.441608
 21
5.976995
 31
0.0
  0
LINE
  8
0
  6
BYBLOCK
 62
     0
 10
8.691608
 20
10.368773
 30
0.0
 11
8.691608
 21
5.976995
 31
0.0
  0
LINE
  8
0
  6
BYBLOCK
 62
     0
 10
6.361608
 20
6.534995
 30
0.0
 11
5.281608
 21
6.534995
 31
0.0
  0
LINE
  8
0
  6
BYBLOCK
 62
     0
 10
9.771608
 20
6.534995
 30
0.0
 11
10.851608
 21
6.534995
 31
0.0
  0
SOLID
  8
0
  6
BYBLOCK
 62
     0
 10
6.361608
 20
6.714995
 30
0.0
 11
6.361608
 21
6.354995
 31
0.0
 12
7.441608
 22
6.534995
 32
0.0
 13
7.441608
 23
6.534995
 33
0.0
  0
SOLID
  8
0
  6
BYBLOCK
 62
     0
 10
9.771608
 20
6.714995
 30
0.0
 11
9.771608
 21
6.354995
 31
0.0
 12
8.691608
 22
6.534995
 32
0.0
 13
8.691608
 23
6.534995
 33
0.0
  0
TEXT
  8
0
  6
BYBLOCK
 62
     0
 10
11.391608
 20
6.159995
 30
0.0
 40
0.75
  1
0.625
 41
0.75
  7
TXT
 72
     1
 11
12.469733
 21
6.534995
 31
0.0
 73
     2
  0
POINT
  8
DEFPOINTS
  6
BYBLOCK
 62
     0
 10
7.441608
 20
10.746773
 30
0.0
  0
POINT
  8
DEFPOINTS
  6
BYBLOCK
 62
     0
 10
8.691608
 20
10.746773
 30
0.0
  0
POINT
  8
DEFPOINTS
  6
BYBLOCK
 62
     0
 10
8.691608
 20
6.534995
 30
0.0
  0
ENDBLK
  8
0
  0
BLOCK
  8
0
  2
*D47
 70
    65
 10
0.0
 20
0.0
 30
0.0
  3
*D
  0
LINE
  8
0
  6
BYBLOCK
 62
     0
 10
8.691608
 20
10.368773
 30
0.0
 11
8.691608
 21
7.272671
 31
0.0
  0
LINE
  8
0
  6
BYBLOCK
 62
     0
 10
9.941608
 20
10.368773
 30
0.0
 11
9.941608
 21
7.272671
 31
0.0
  0
LINE
  8
0
  6
BYBLOCK
 62
     0
 10
7.611608
 20
7.830671
 30
0.0
 11
6.531608
 21
7.830671
 31
0.0
  0
LINE
  8
0
  6
BYBLOCK
 62
     0
 10
11.021608
 20
7.830671
 30
0.0
 11
12.101608
 21
7.830671
 31
0.0
  0
SOLID
  8
0
  6
BYBLOCK
 62
     0
 10
7.611608
 20
8.010671
 30
0.0
 11
7.611608
 21
7.650671
 31
0.0
 12
8.691608
 22
7.830671
 32
0.0
 13
8.691608
 23
7.830671
 33
0.0
  0
SOLID
  8
0
  6
BYBLOCK
 62
     0
 10
11.021608
 20
8.010671
 30
0.0
 11
11.021608
 21
7.650671
 31
0.0
 12
9.941608
 22
7.830671
 32
0.0
 13
9.941608
 23
7.830671
 33
0.0
  0
TEXT
  8
0
  6
BYBLOCK
 62
     0
 10
12.641608
 20
7.455671
 30
0.0
 40
0.75
  1
0.625
 41
0.75
  7
TXT
 72
     1
 11
13.719733
 21
7.830671
 31
0.0
 73
     2
  0
POINT
  8
DEFPOINTS
  6
BYBLOCK
 62
     0
 10
8.691608
 20
10.746773
 30
0.0
  0
POINT
  8
DEFPOINTS
  6
BYBLOCK
 62
     0
 10
9.941608
 20
10.746773
 30
0.0
  0
POINT
  8
DEFPOINTS
  6
BYBLOCK
 62
     0
 10
9.941608
 20
7.830671
 30
0.0
  0
ENDBLK
  8
0
  0
BLOCK
  8
0
  2
*D48
 70
    65
 10
0.0
 20
0.0
 30
0.0
  3
*D
  0
LINE
  8
0
  6
BYBLOCK
 62
     0
 10
9.941608
 20
10.368773
 30
0.0
 11
9.941608
 21
8.735754
 31
0.0
  0
LINE
  8
0
  6
BYBLOCK
 62
     0
 10
10.941608
 20
10.368773
 30
0.0
 11
10.941608
 21
8.735754
 31
0.0
  0
LINE
  8
0
  6
BYBLOCK
 62
     0
 10
8.861608
 20
9.293754
 30
0.0
 11
7.781608
 21
9.293754
 31
0.0
  0
LINE
  8
0
  6
BYBLOCK
 62
     0
 10
12.021608
 20
9.293754
 30
0.0
 11
13.101608
 21
9.293754
 31
0.0
  0
SOLID
  8
0
  6
BYBLOCK
 62
     0
 10
8.861608
 20
9.473754
 30
0.0
 11
8.861608
 21
9.113754
 31
0.0
 12
9.941608
 22
9.293754
 32
0.0
 13
9.941608
 23
9.293754
 33
0.0
  0
SOLID
  8
0
  6
BYBLOCK
 62
     0
 10
12.021608
 20
9.473754
 30
0.0
 11
12.021608
 21
9.113754
 31
0.0
 12
10.941608
 22
9.293754
 32
0.0
 13
10.941608
 23
9.293754
 33
0.0
  0
TEXT
  8
0
  6
BYBLOCK
 62
     0
 10
13.641608
 20
8.918754
 30
0.0
 40
0.75
  1
0.500
 41
0.75
  7
TXT
 72
     1
 11
14.625983
 21
9.293754
 31
0.0
 73
     2
  0
POINT
  8
DEFPOINTS
  6
BYBLOCK
 62
     0
 10
9.941608
 20
10.746773
 30
0.0
  0
POINT
  8
DEFPOINTS
  6
BYBLOCK
 62
     0
 10
10.941608
 20
10.746773
 30
0.0
  0
POINT
  8
DEFPOINTS
  6
BYBLOCK
 62
     0
 10
10.941608
 20
9.293754
 30
0.0
  0
ENDBLK
  8
0
  0
ENDSEC
  0
SECTION
  2
ENTITIES
  0
LINE
  8
OBJECT
 62
     7
 10
7.294014
 20
26.113853
 30
0.0
 11
68.544014
 21
26.113853
 31
0.0
  0
LINE
  8
OBJECT
 62
     7
 10
68.544014
 20
26.113853
 30
0.0
 11
68.544014
 21
28.593353
 31
0.0
  0
LINE
  8
OBJECT
 62
     7
 10
7.294014
 20
28.593353
 30
0.0
 11
7.294014
 21
26.113853
 31
0.0
  0
LINE
  8
OBJECT
 62
     7
 10
80.365469
 20
28.593353
 30
0.0
 11
79.678469
 21
28.593353
 31
0.0
  0
LINE
  8
OBJECT
 62
     7
 10
79.678469
 20
28.593353
 30
0.0
 11
79.678469
 21
26.113353
 31
0.0
  0
LINE
  8
OBJECT
 62
     7
 10
80.365469
 20
28.484353
 30
0.0
 11
79.787469
 21
28.484353
 31
0.0
  0
LINE
  8
OBJECT
 62
     7
 10
80.365469
 20
28.484353
 30
0.0
 11
80.365469
 21
28.593353
 31
0.0
  0
DIMENSION
  8
DIM
 62
     7
  2
*D27
 10
76.838673
 20
26.113353
 30
0.0
 11
76.838673
 21
27.353353
 31
0.0
 12
0.0
 22
-3.106745
 32
0.0
  1
<> REF.
 13
79.678469
 23
28.593353
 33
0.0
 14
79.678469
 24
26.113353
 34
0.0
 50
90.0
  3
DIM
  0
DIMENSION
  8
DIM
 62
     7
  2
*D2
 10
80.365469
 20
32.34985
 30
0.0
 11
84.143594
 21
32.34985
 31
0.0
 12
0.0
 22
-3.106745
 32
0.0
 13
79.678469
 23
28.593353
 33
0.0
 14
80.365469
 24
28.593353
 34
0.0
  3
STD
  0
TEXT
  8
DIM
 62
     7
 10
83.101595
 20
30.910654
 30
0.0
 40
0.75
  1
HOLD
 41
0.75
  0
DIMENSION
  8
DIM
 62
     7
  2
*D28
 10
7.294014
 20
19.071286
 30
0.0
 11
3.562764
 21
19.071286
 31
0.0
 13
7.544014
 23
26.363853
 33
0.0
 14
7.294014
 24
26.113853
 34
0.0
  3
STD
  0
DIMENSION
  8
DIM
 62
     7
  2
*D33
 10
68.544014
 20
19.071286
 30
0.0
 11
72.275264
 21
19.071286
 31
0.0
 13
68.294014
 23
26.363853
 33
0.0
 14
68.544014
 24
26.113853
 34
0.0
  3
STD
  0
DIMENSION
  8
DIM
 62
     7
  2
*D31
 10
9.294014
 20
24.431181
 30
0.0
 11
12.978389
 21
24.431181
 31
0.0
 13
8.794014
 23
26.363853
 33
0.0
 14
9.294014
 24
26.363853
 34
0.0
  3
STD
  0
DIMENSION
  8
DIM
 62
     7
  2
*D30
 10
8.794014
 20
22.746303
 30
0.0
 11
12.572139
 21
22.746303
 31
0.0
 13
8.169014
 23
26.363853
 33
0.0
 14
8.794014
 24
26.363853
 34
0.0
  3
STD
  0
DIMENSION
  8
DIM
 62
     7
  2
*D29
 10
8.169014
 20
20.971164
 30
0.0
 11
11.947139
 21
20.971164
 31
0.0
 13
7.544014
 23
26.363853
 33
0.0
 14
8.169014
 24
26.363853
 34
0.0
  3
STD
  0
DIMENSION
  8
DIM
 62
     7
  2
*D35
 10
66.544014
 20
24.425181
 30
0.0
 11
62.859639
 21
24.425181
 31
0.0
 13
67.044014
 23
26.363853
 33
0.0
 14
66.544014
 24
26.363853
 34
0.0
  3
STD
  0
DIMENSION
  8
DIM
 62
     7
  2
*D34
 10
67.044014
 20
22.746303
 30
0.0
 11
63.265889
 21
22.746303
 31
0.0
 13
67.669014
 23
26.363853
 33
0.0
 14
67.044014
 24
26.363853
 34
0.0
  3
STD
  0
DIMENSION
  8
DIM
 62
     7
  2
*D32
 10
67.669014
 20
20.971164
 30
0.0
 11
63.890889
 21
20.971164
 31
0.0
 13
68.294014
 23
26.363853
 33
0.0
 14
67.669014
 24
26.363853
 34
0.0
  3
STD
  0
DIMENSION
  8
DIM
 62
     7
  2
*D0
 10
68.544014
 20
44.186561
 30
0.0
 11
37.919014
 21
44.186561
 31
0.0
 12
0.0
 22
-3.106745
 32
0.0
  1
  
 13
7.294014
 23
28.593353
 33
0.0
 14
68.544014
 24
28.593353
 34
0.0
  3
STD
  0
LINE
  8
OBJECT
 62
     7
 10
7.513014
 20
27.530853
 30
0.0
 11
7.513014
 21
28.155853
 31
0.0
  0
LINE
  8
OBJECT
 62
     7
 10
7.763014
 20
27.530853
 30
0.0
 11
7.763014
 21
28.155853
 31
0.0
  0
ARC
  8
OBJECT
 62
     7
 10
7.638014
 20
27.530853
 30
0.0
 40
0.125
 50
179.999981
 51
359.999981
  0
ARC
  8
OBJECT
 62
     7
 10
7.638014
 20
28.155853
 30
0.0
 40
0.125
 50
359.999981
 51
179.999981
  0
ARC
  8
OBJECT
 62
     7
 10
10.388014
 20
28.155853
 30
0.0
 40
0.125
 50
359.999981
 51
179.999981
  0
ARC
  8
OBJECT
 62
     7
 10
10.388014
 20
27.530853
 30
0.0
 40
0.125
 50
179.999981
 51
359.999981
  0
LINE
  8
OBJECT
 62
     7
 10
10.513014
 20
27.530853
 30
0.0
 11
10.513014
 21
28.155853
 31
0.0
  0
LINE
  8
OBJECT
 62
     7
 10
10.263014
 20
27.530853
 30
0.0
 11
10.263014
 21
28.155853
 31
0.0
  0
LINE
  8
OBJECT
 62
     7
 10
20.857014
 20
27.530853
 30
0.0
 11
20.857014
 21
28.155853
 31
0.0
  0
LINE
  8
OBJECT
 62
     7
 10
21.107014
 20
27.530853
 30
0.0
 11
21.107014
 21
28.155853
 31
0.0
  0
ARC
  8
OBJECT
 62
     7
 10
20.982014
 20
27.530853
 30
0.0
 40
0.125
 50
179.999981
 51
359.999981
  0
ARC
  8
OBJECT
 62
     7
 10
20.982014
 20
28.155853
 30
0.0
 40
0.125
 50
359.999981
 51
179.999981
  0
ARC
  8
OBJECT
 62
     7
 10
18.232014
 20
28.155853
 30
0.0
 40
0.125
 50
359.999981
 51
179.999981
  0
ARC
  8
OBJECT
 62
     7
 10
18.232014
 20
27.530853
 30
0.0
 40
0.125
 50
179.999981
 51
359.999981
  0
LINE
  8
OBJECT
 62
     7
 10
18.357014
 20
27.530853
 30
0.0
 11
18.357014
 21
28.155853
 31
0.0
  0
LINE
  8
OBJECT
 62
     7
 10
18.107014
 20
27.530853
 30
0.0
 11
18.107014
 21
28.155853
 31
0.0
  0
LINE
  8
OBJECT
 62
     7
 10
39.169014
 20
27.530853
 30
0.0
 11
39.169014
 21
28.155853
 31
0.0
  0
LINE
  8
OBJECT
 62
     7
 10
39.419014
 20
27.530853
 30
0.0
 11
39.419014
 21
28.155853
 31
0.0
  0
ARC
  8
OBJECT
 62
     7
 10
39.294014
 20
27.530853
 30
0.0
 40
0.125
 50
179.999981
 51
359.999981
  0
ARC
  8
OBJECT
 62
     7
 10
39.294014
 20
28.155853
 30
0.0
 40
0.125
 50
359.999981
 51
179.999981
  0
ARC
  8
OBJECT
 62
     7
 10
36.544014
 20
28.155853
 30
0.0
 40
0.125
 50
359.999981
 51
179.999981
  0
ARC
  8
OBJECT
 62
     7
 10
36.544014
 20
27.530853
 30
0.0
 40
0.125
 50
179.999981
 51
359.999981
  0
LINE
  8
OBJECT
 62
     7
 10
36.669014
 20
27.530853
 30
0.0
 11
36.669014
 21
28.155853
 31
0.0
  0
LINE
  8
OBJECT
 62
     7
 10
36.419014
 20
27.530853
 30
0.0
 11
36.419014
 21
28.155853
 31
0.0
  0
LINE
  8
OBJECT
 62
     7
 10
11.638014
 20
27.530853
 30
0.0
 11
11.638014
 21
28.155853
 31
0.0
  0
LINE
  8
OBJECT
 62
     7
 10
11.888014
 20
27.530853
 30
0.0
 11
11.888014
 21
28.155853
 31
0.0
  0
ARC
  8
OBJECT
 62
     7
 10
11.763014
 20
27.530853
 30
0.0
 40
0.125
 50
179.999981
 51
359.999981
  0
ARC
  8
OBJECT
 62
     7
 10
11.763014
 20
28.155853
 30
0.0
 40
0.125
 50
359.999981
 51
179.999981
  0
ARC
  8
OBJECT
 62
     7
 10
9.013014
 20
28.155853
 30
0.0
 40
0.125
 50
359.999981
 51
179.999981
  0
ARC
  8
OBJECT
 62
     7
 10
9.013014
 20
27.530853
 30
0.0
 40
0.125
 50
179.999981
 51
359.999981
  0
LINE
  8
OBJECT
 62
     7
 10
9.138014
 20
27.530853
 30
0.0
 11
9.138014
 21
28.155853
 31
0.0
  0
LINE
  8
OBJECT
 62
     7
 10
8.888014
 20
27.530853
 30
0.0
 11
8.888014
 21
28.155853
 31
0.0
  0
LINE
  8
OBJECT
 62
     7
 10
66.950014
 20
27.530853
 30
0.0
 11
66.950014
 21
28.161853
 31
0.0
  0
LINE
  8
OBJECT
 62
     7
 10
66.700014
 20
27.530853
 30
0.0
 11
66.700014
 21
28.161853
 31
0.0
  0
ARC
  8
OBJECT
 62
     7
 10
66.825014
 20
27.530853
 30
0.0
 40
0.125
 50
180.000019
 51
0.000019
  0
ARC
  8
OBJECT
 62
     7
 10
66.825014
 20
28.161853
 30
0.0
 40
0.125
 50
0.000019
 51
180.000019
  0
ARC
  8
OBJECT
 62
     7
 10
64.075014
 20
28.161853
 30
0.0
 40
0.125
 50
0.000019
 51
180.000019
  0
ARC
  8
OBJECT
 62
     7
 10
64.075014
 20
27.530853
 30
0.0
 40
0.125
 50
180.000019
 51
0.000019
  0
LINE
  8
OBJECT
 62
     7
 10
63.950014
 20
27.530853
 30
0.0
 11
63.950014
 21
28.161853
 31
0.0
  0
LINE
  8
OBJECT
 62
     7
 10
64.200014
 20
27.530853
 30
0.0
 11
64.200014
 21
28.161853
 31
0.0
  0
LINE
  8
OBJECT
 62
     7
 10
57.731014
 20
27.530853
 30
0.0
 11
57.731014
 21
28.155853
 31
0.0
  0
LINE
  8
OBJECT
 62
     7
 10
57.481014
 20
27.530853
 30
0.0
 11
57.481014
 21
28.155853
 31
0.0
  0
ARC
  8
OBJECT
 62
     7
 10
57.606014
 20
27.530853
 30
0.0
 40
0.125
 50
180.000019
 51
0.000019
  0
ARC
  8
OBJECT
 62
     7
 10
57.606014
 20
28.155853
 30
0.0
 40
0.125
 50
0.000019
 51
180.000019
  0
ARC
  8
OBJECT
 62
     7
 10
54.856014
 20
28.155853
 30
0.0
 40
0.125
 50
0.000019
 51
180.000019
  0
ARC
  8
OBJECT
 62
     7
 10
54.856014
 20
27.530853
 30
0.0
 40
0.125
 50
180.000019
 51
0.000019
  0
LINE
  8
OBJECT
 62
     7
 10
54.731014
 20
27.530853
 30
0.0
 11
54.731014
 21
28.155853
 31
0.0
  0
LINE
  8
OBJECT
 62
     7
 10
54.981014
 20
27.530853
 30
0.0
 11
54.981014
 21
28.155853
 31
0.0
  0
LINE
  8
OBJECT
 62
     7
 10
65.575014
 20
27.530853
 30
0.0
 11
65.575014
 21
28.161853
 31
0.0
  0
LINE
  8
OBJECT
 62
     7
 10
65.325014
 20
27.530853
 30
0.0
 11
65.325014
 21
28.161853
 31
0.0
  0
ARC
  8
OBJECT
 62
     7
 10
65.450014
 20
27.530853
 30
0.0
 40
0.125
 50
180.000019
 51
0.000019
  0
ARC
  8
OBJECT
 62
     7
 10
65.450014
 20
28.161853
 30
0.0
 40
0.125
 50
0.000019
 51
180.000019
  0
ARC
  8
OBJECT
 62
     7
 10
68.200014
 20
28.161853
 30
0.0
 40
0.125
 50
0.000019
 51
180.000019
  0
ARC
  8
OBJECT
 62
     7
 10
68.200014
 20
27.530853
 30
0.0
 40
0.125
 50
180.000019
 51
0.000019
  0
LINE
  8
OBJECT
 62
     7
 10
68.075014
 20
27.530853
 30
0.0
 11
68.075014
 21
28.161853
 31
0.0
  0
LINE
  8
OBJECT
 62
     7
 10
68.325014
 20
27.530853
 30
0.0
 11
68.325014
 21
28.161853
 31
0.0
  0
DIMENSION
  8
DIM
 62
     7
  2
*D26
 10
7.294014
 20
30.550899
 30
0.0
 11
3.515889
 21
30.550899
 31
0.0
 12
0.0
 22
-1.557527
 32
0.0
 13
7.638014
 23
28.155853
 33
0.0
 14
7.294014
 24
28.593353
 34
0.0
  3
STD
  0
DIMENSION
  8
DIM
 62
     7
  2
*D25
 10
11.763014
 20
33.911891
 30
0.0
 11
15.541139
 21
33.911891
 31
0.0
 12
0.0
 22
-1.557527
 32
0.0
 13
9.013014
 23
28.155853
 33
0.0
 14
11.763014
 24
28.155853
 34
0.0
  3
STD
  0
DIMENSION
  8
DIM
 62
     7
  2
*D24
 10
7.294014
 20
31.976743
 30
0.0
 11
3.656514
 21
31.976743
 31
0.0
 12
0.0
 22
-1.557527
 32
0.0
 13
9.013014
 23
28.155853
 33
0.0
 14
7.294014
 24
28.593353
 34
0.0
  3
STD
  0
DIMENSION
  8
DIM
 62
     7
  2
*D23
 10
10.388014
 20
36.120502
 30
0.0
 11
9.013014
 21
36.120502
 31
0.0
 12
0.0
 22
-1.557527
 32
0.0
 13
7.638014
 23
28.155853
 33
0.0
 14
10.388014
 24
28.155853
 34
0.0
  3
DIM
  0
DIMENSION
  8
DIM
 62
     7
  2
*D22
 10
18.232014
 20
37.810114
 30
0.0
 11
12.935014
 21
37.810114
 31
0.0
 12
0.0
 22
-1.557527
 32
0.0
  1
  
 13
7.638014
 23
28.155853
 33
0.0
 14
18.232014
 24
28.155853
 34
0.0
  3
STD
  0
DIMENSION
  8
DIM
 62
     7
  2
*D21
 10
20.982014
 20
37.810114
 30
0.0
 11
19.607014
 21
37.810114
 31
0.0
 12
0.0
 22
-1.557527
 32
0.0
 13
18.232014
 23
28.155853
 33
0.0
 14
20.982014
 24
28.155853
 34
0.0
  3
DIM
  0
DIMENSION
  8
DIM
 62
     7
  2
*D20
 10
36.544014
 20
42.407108
 30
0.0
 11
22.091014
 21
42.407108
 31
0.0
 12
0.0
 22
-1.557527
 32
0.0
  1
  
 13
7.638014
 23
28.155853
 33
0.0
 14
36.544014
 24
28.155853
 34
0.0
  3
STD
  0
DIMENSION
  8
DIM
 62
     7
  2
*D19
 10
39.294014
 20
42.407108
 30
0.0
 11
37.919014
 21
42.407108
 31
0.0
 12
0.0
 22
-1.557527
 32
0.0
 13
36.544014
 23
28.155853
 33
0.0
 14
39.294014
 24
28.155853
 34
0.0
  3
DIM
  0
TEXT
  8
DIM
 62
     7
 10
27.449624
 20
22.194642
 30
0.0
 40
0.75
  1
0.250 x 0.875 SLOT
 41
0.75
 72
     2
 11
36.355874
 21
22.194642
 31
0.0
  0
TEXT
  8
DIM
 62
     7
 10
28.695745
 20
20.930455
 30
0.0
 40
0.75
  1
(  ) PLACES
 41
0.75
 72
     2
 11
34.320745
 21
20.930455
 31
0.0
  0
LINE
  8
DIM
 62
     7
 10
39.281076
 20
27.406525
 30
0.0
 11
39.080148
 21
26.738629
 31
0.0
  0
LINE
  8
DIM
 62
     7
 10
38.979684
 20
26.386681
 30
0.0
 11
37.855874
 21
22.569642
 31
0.0
  0
LINE
  8
DIM
 62
     7
 10
37.855874
 20
22.569642
 30
0.0
 11
37.105874
 21
22.569642
 31
0.0
  0
SOLID
  8
DIM
 62
     7
 10
38.807843
 20
26.455179
 30
0.0
 11
39.153643
 21
26.355068
 31
0.0
 12
39.281076
 22
27.406525
 32
0.0
 13
39.281076
 23
27.406525
 33
0.0
  0
LINE
  8
OBJECT
 62
     7
 10
68.544014
 20
28.593353
 30
0.0
 11
7.294014
 21
28.593353
 31
0.0
  0
LINE
  8
HIDDEN
 62
     7
 10
68.544014
 20
28.484228
 30
0.0
 11
7.294014
 21
28.484228
 31
0.0
  0
LINE
  8
OBJECT
 62
     7
 10
24.793111
 20
27.530853
 30
0.0
 11
24.793111
 21
28.155853
 31
0.0
  0
LINE
  8
OBJECT
 62
     7
 10
25.043111
 20
27.530853
 30
0.0
 11
25.043111
 21
28.155853
 31
0.0
  0
ARC
  8
OBJECT
 62
     7
 10
24.918111
 20
27.530853
 30
0.0
 40
0.125
 50
179.999981
 51
359.999981
  0
ARC
  8
OBJECT
 62
     7
 10
24.918111
 20
28.155853
 30
0.0
 40
0.125
 50
359.999981
 51
179.999981
  0
ARC
  8
OBJECT
 62
     7
 10
27.668111
 20
28.155853
 30
0.0
 40
0.125
 50
359.999981
 51
179.999981
  0
ARC
  8
OBJECT
 62
     7
 10
27.668111
 20
27.530853
 30
0.0
 40
0.125
 50
179.999981
 51
359.999981
  0
LINE
  8
OBJECT
 62
     7
 10
27.793111
 20
27.530853
 30
0.0
 11
27.793111
 21
28.155853
 31
0.0
  0
LINE
  8
OBJECT
 62
     7
 10
27.543111
 20
27.530853
 30
0.0
 11
27.543111
 21
28.155853
 31
0.0
  0
LINE
  8
OBJECT
 62
     7
 10
31.294876
 20
27.530853
 30
0.0
 11
31.294876
 21
28.155853
 31
0.0
  0
LINE
  8
OBJECT
 62
     7
 10
31.544876
 20
27.530853
 30
0.0
 11
31.544876
 21
28.155853
 31
0.0
  0
ARC
  8
OBJECT
 62
     7
 10
31.419876
 20
28.155853
 30
0.0
 40
0.125
 50
359.999981
 51
179.999981
  0
ARC
  8
OBJECT
 62
     7
 10
28.669876
 20
28.155853
 30
0.0
 40
0.125
 50
359.999981
 51
179.999981
  0
LINE
  8
OBJECT
 62
     7
 10
28.794876
 20
27.530853
 30
0.0
 11
28.794876
 21
28.155853
 31
0.0
  0
LINE
  8
OBJECT
 62
     7
 10
28.544876
 20
27.530853
 30
0.0
 11
28.544876
 21
28.155853
 31
0.0
  0
ARC
  8
OBJECT
 62
     7
 10
31.419876
 20
27.530853
 30
0.0
 40
0.125
 50
179.999981
 51
359.999981
  0
ARC
  8
OBJECT
 62
     7
 10
28.669876
 20
27.530853
 30
0.0
 40
0.125
 50
179.999981
 51
359.999981
  0
DIMENSION
  8
DIM
 62
     7
  2
*D18
 10
24.918111
 20
39.313532
 30
0.0
 11
16.106062
 21
39.313532
 31
0.0
 12
0.0
 22
-1.557527
 32
0.0
  1
  
 13
7.294014
 23
28.593353
 33
0.0
 14
24.918111
 24
28.155853
 34
0.0
  3
STD
  0
DIMENSION
  8
DIM
 62
     7
  2
*D17
 10
28.669876
 20
40.759905
 30
0.0
 11
17.981945
 21
40.759905
 31
0.0
 12
0.0
 22
-1.557527
 32
0.0
  1
  
 13
7.294014
 23
28.593353
 33
0.0
 14
28.669876
 24
28.155853
 34
0.0
  3
STD
  0
DIMENSION
  8
DIM
 62
     7
  2
*D16
 10
27.668111
 20
39.313532
 30
0.0
 11
26.293111
 21
39.313532
 31
0.0
 12
0.0
 22
-1.557527
 32
0.0
 13
24.918111
 23
28.155853
 33
0.0
 14
27.668111
 24
28.155853
 34
0.0
  3
DIM
  0
DIMENSION
  8
DIM
 62
     7
  2
*D15
 10
31.419876
 20
40.759905
 30
0.0
 11
30.044876
 21
40.759905
 31
0.0
 12
0.0
 22
-1.557527
 32
0.0
 13
28.669876
 23
28.155853
 33
0.0
 14
31.419876
 24
28.155853
 34
0.0
  3
DIM
  0
DIMENSION
  8
DIM
 62
     7
  2
*D14
 10
44.418151
 20
40.759905
 30
0.0
 11
45.793151
 21
40.759905
 31
0.0
 12
0.0
 22
-1.557527
 32
0.0
  1
2.750
 13
47.168151
 23
28.155853
 33
0.0
 14
44.418151
 24
28.155853
 34
0.0
  3
DIM
  0
DIMENSION
  8
DIM
 62
     7
  2
*D13
 10
48.169917
 20
39.313532
 30
0.0
 11
49.544917
 21
39.313532
 31
0.0
 12
0.0
 22
-1.557527
 32
0.0
 13
50.919917
 23
28.155853
 33
0.0
 14
48.169917
 24
28.155853
 34
0.0
  3
DIM
  0
DIMENSION
  8
DIM
 62
     7
  2
*D12
 10
47.168151
 20
40.759905
 30
0.0
 11
57.856082
 21
40.759905
 31
0.0
 12
0.0
 22
-1.557527
 32
0.0
  1
  
 13
68.544014
 23
28.593353
 33
0.0
 14
47.168151
 24
28.155853
 34
0.0
  3
STD
  0
DIMENSION
  8
DIM
 62
     7
  2
*D11
 10
50.919917
 20
39.313532
 30
0.0
 11
59.731965
 21
39.313532
 31
0.0
 12
0.0
 22
-1.557527
 32
0.0
  1
  
 13
68.544014
 23
28.593353
 33
0.0
 14
50.919917
 24
28.155853
 34
0.0
  3
STD
  0
DIMENSION
  8
DIM
 62
     7
  2
*D10
 10
39.294014
 20
42.407108
 30
0.0
 11
53.747014
 21
42.407108
 31
0.0
 12
0.0
 22
-1.557527
 32
0.0
  1
  
 13
68.200014
 23
28.155853
 33
0.0
 14
39.294014
 24
28.155853
 34
0.0
  3
STD
  0
DIMENSION
  8
DIM
 62
     7
  2
*D9
 10
54.856014
 20
37.810114
 30
0.0
 11
56.231014
 21
37.810114
 31
0.0
 12
0.0
 22
-1.557527
 32
0.0
 13
57.606014
 23
28.155853
 33
0.0
 14
54.856014
 24
28.155853
 34
0.0
  3
DIM
  0
DIMENSION
  8
DIM
 62
     7
  2
*D8
 10
57.606014
 20
37.810114
 30
0.0
 11
62.903014
 21
37.810114
 31
0.0
 12
0.0
 22
-1.557527
 32
0.0
  1
  
 13
68.200014
 23
28.155853
 33
0.0
 14
57.606014
 24
28.155853
 34
0.0
  3
STD
  0
DIMENSION
  8
DIM
 62
     7
  2
*D7
 10
65.450014
 20
36.120502
 30
0.0
 11
66.825014
 21
36.120502
 31
0.0
 12
0.0
 22
-1.557527
 32
0.0
 13
68.200014
 23
28.155853
 33
0.0
 14
65.450014
 24
28.155853
 34
0.0
  3
DIM
  0
DIMENSION
  8
DIM
 62
     7
  2
*D6
 10
68.544014
 20
31.976743
 30
0.0
 11
72.181514
 21
31.976743
 31
0.0
 12
0.0
 22
-1.557527
 32
0.0
 13
66.825014
 23
28.155853
 33
0.0
 14
68.544014
 24
28.593353
 34
0.0
  3
STD
  0
DIMENSION
  8
DIM
 62
     7
  2
*D5
 10
64.075014
 20
33.911891
 30
0.0
 11
60.296889
 21
33.911891
 31
0.0
 12
0.0
 22
-1.557527
 32
0.0
 13
66.825014
 23
28.155853
 33
0.0
 14
64.075014
 24
28.155853
 34
0.0
  3
STD
  0
DIMENSION
  8
DIM
 62
     7
  2
*D4
 10
68.544014
 20
30.550899
 30
0.0
 11
72.322139
 21
30.550899
 31
0.0
 12
0.0
 22
-1.557527
 32
0.0
 13
68.200014
 23
28.155853
 33
0.0
 14
68.544014
 24
28.593353
 34
0.0
  3
STD
  0
LINE
  8
OBJECT
 62
     7
 10
68.544014
 20
48.722232
 30
0.0
 11
68.544014
 21
49.409232
 31
0.0
  0
LINE
  8
OBJECT
 62
     7
 10
7.294014
 20
49.409232
 30
0.0
 11
7.294014
 21
48.722232
 31
0.0
  0
LINE
  8
OBJECT
 62
     7
 10
68.544014
 20
49.409232
 30
0.0
 11
7.294014
 21
49.409232
 31
0.0
  0
LINE
  8
OBJECT
 62
     7
 10
68.544014
 20
48.722232
 30
0.0
 11
7.294014
 21
48.722232
 31
0.0
  0
CIRCLE
  8
BEND
 62
     7
 10
8.322329
 20
27.209815
 30
0.0
 40
2.127955
  0
LINE
  8
HIDDEN
 62
     7
 10
13.412615
 20
14.988523
 30
0.0
 11
6.941608
 21
14.988523
 31
0.0
  0
LINE
  8
OBJECT
 62
     7
 10
12.23182
 20
15.206773
 30
0.0
 11
6.941608
 21
15.206773
 31
0.0
  0
LINE
  8
OBJECT
 62
     7
 10
10.129608
 20
13.115773
 30
0.0
 11
10.129608
 21
14.365773
 31
0.0
  0
LINE
  8
OBJECT
 62
     7
 10
10.629608
 20
13.115773
 30
0.0
 11
10.629608
 21
14.365773
 31
0.0
  0
ARC
  8
OBJECT
 62
     7
 10
10.379608
 20
13.115773
 30
0.0
 40
0.25
 50
179.999981
 51
359.999981
  0
ARC
  8
OBJECT
 62
     7
 10
10.379608
 20
14.365773
 30
0.0
 40
0.25
 50
359.999981
 51
179.999981
  0
LINE
  8
OBJECT
 62
     7
 10
12.879608
 20
13.115773
 30
0.0
 11
12.879608
 21
14.365773
 31
0.0
  0
LINE
  8
OBJECT
 62
     7
 10
13.379608
 20
13.115773
 30
0.0
 11
13.379608
 21
14.365773
 31
0.0
  0
ARC
  8
OBJECT
 62
     7
 10
13.129608
 20
13.115773
 30
0.0
 40
0.25
 50
179.999981
 51
359.999981
  0
ARC
  8
OBJECT
 62
     7
 10
7.629608
 20
14.365773
 30
0.0
 40
0.25
 50
359.999981
 51
179.999981
  0
ARC
  8
OBJECT
 62
     7
 10
7.629608
 20
13.115773
 30
0.0
 40
0.25
 50
179.999981
 51
359.999981
  0
LINE
  8
OBJECT
 62
     7
 10
7.879608
 20
13.115773
 30
0.0
 11
7.879608
 21
14.365773
 31
0.0
  0
LINE
  8
OBJECT
 62
     7
 10
7.379608
 20
13.115773
 30
0.0
 11
7.379608
 21
14.365773
 31
0.0
  0
LINE
  8
OBJECT
 62
     7
 10
6.941608
 20
15.206773
 30
0.0
 11
6.941608
 21
10.246773
 31
0.0
  0
LINE
  8
OBJECT
 62
     7
 10
6.941608
 20
10.246773
 30
0.0
 11
12.559729
 21
10.246773
 31
0.0
  0
POLYLINE
  8
OBJECT
 62
     7
 66
     1
 10
0.0
 20
0.0
 30
0.0
 70
     4
 75
     6
  0
VERTEX
  8
OBJECT
 62
     7
 10
12.23182
 20
15.206773
 30
0.0
 70
    16
  0
VERTEX
  8
OBJECT
 62
     7
 10
12.23182
 20
15.206773
 30
0.0
 70
     8
  0
VERTEX
  8
OBJECT
 62
     7
 10
12.889032
 20
15.113975
 30
0.0
 70
     8
  0
VERTEX
  8
OBJECT
 62
     7
 10
13.33315
 20
15.017783
 30
0.0
 70
     8
  0
VERTEX
  8
OBJECT
 62
     7
 10
13.600505
 20
14.91934
 30
0.0
 70
     8
  0
VERTEX
  8
OBJECT
 62
     7
 10
13.727425
 20
14.819793
 30
0.0
 70
     8
  0
VERTEX
  8
OBJECT
 62
     7
 10
13.750243
 20
14.720286
 30
0.0
 70
     8
  0
VERTEX
  8
OBJECT
 62
     7
 10
13.705287
 20
14.621964
 30
0.0
 70
     8
  0
VERTEX
  8
OBJECT
 62
     7
 10
13.62889
 20
14.525972
 30
0.0
 70
     8
  0
VERTEX
  8
OBJECT
 62
     7
 10
13.55738
 20
14.433454
 30
0.0
 70
     8
  0
VERTEX
  8
OBJECT
 62
     7
 10
13.519813
 20
14.345309
 30
0.0
 70
     8
  0
VERTEX
  8
OBJECT
 62
     7
 10
13.516148
 20
14.261446
 30
0.0
 70
     8
  0
VERTEX
  8
OBJECT
 62
     7
 10
13.539066
 20
14.181527
 30
0.0
 70
     8
  0
VERTEX
  8
OBJECT
 62
     7
 10
13.58125
 20
14.105212
 30
0.0
 70
     8
  0
VERTEX
  8
OBJECT
 62
     7
 10
13.635384
 20
14.032165
 30
0.0
 70
     8
  0
VERTEX
  8
OBJECT
 62
     7
 10
13.694149
 20
13.962047
 30
0.0
 70
     8
  0
VERTEX
  8
OBJECT
 62
     7
 10
13.750229
 20
13.89452
 30
0.0
 70
     8
  0
VERTEX
  8
OBJECT
 62
     7
 10
13.796306
 20
13.829245
 30
0.0
 70
     8
  0
VERTEX
  8
OBJECT
 62
     7
 10
13.826946
 20
13.765924
 30
0.0
 70
     8
  0
VERTEX
  8
OBJECT
 62
     7
 10
13.844241
 20
13.704413
 30
0.0
 70
     8
  0
VERTEX
  8
OBJECT
 62
     7
 10
13.852169
 20
13.644609
 30
0.0
 70
     8
  0
VERTEX
  8
OBJECT
 62
     7
 10
13.854705
 20
13.586407
 30
0.0
 70
     8
  0
VERTEX
  8
OBJECT
 62
     7
 10
13.855826
 20
13.529704
 30
0.0
 70
     8
  0
VERTEX
  8
OBJECT
 62
     7
 10
13.859507
 20
13.474394
 30
0.0
 70
     8
  0
VERTEX
  8
OBJECT
 62
     7
 10
13.869725
 20
13.420375
 30
0.0
 70
     8
  0
VERTEX
  8
OBJECT
 62
     7
 10
13.890456
 20
13.367542
 30
0.0
 70
     8
  0
VERTEX
  8
OBJECT
 62
     7
 10
13.924216
 20
13.315778
 30
0.0
 70
     8
  0
VERTEX
  8
OBJECT
 62
     7
 10
13.967687
 20
13.264908
 30
0.0
 70
     8
  0
VERTEX
  8
OBJECT
 62
     7
 10
14.016093
 20
13.214745
 30
0.0
 70
     8
  0
VERTEX
  8
OBJECT
 62
     7
 10
14.064654
 20
13.165103
 30
0.0
 70
     8
  0
VERTEX
  8
OBJECT
 62
     7
 10
14.108594
 20
13.115794
 30
0.0
 70
     8
  0
VERTEX
  8
OBJECT
 62
     7
 10
14.143135
 20
13.066631
 30
0.0
 70
     8
  0
VERTEX
  8
OBJECT
 62
     7
 10
14.1635
 20
13.017426
 30
0.0
 70
     8
  0
VERTEX
  8
OBJECT
 62
     7
 10
14.16491
 20
12.967992
 30
0.0
 70
     8
  0
VERTEX
  8
OBJECT
 62
     7
 10
14.144579
 20
12.918219
 30
0.0
 70
     8
  0
VERTEX
  8
OBJECT
 62
     7
 10
14.107676
 20
12.868308
 30
0.0
 70
     8
  0
VERTEX
  8
OBJECT
 62
     7
 10
14.061365
 20
12.818537
 30
0.0
 70
     8
  0
VERTEX
  8
OBJECT
 62
     7
 10
14.012805
 20
12.769184
 30
0.0
 70
     8
  0
VERTEX
  8
OBJECT
 62
     7
 10
13.969159
 20
12.720526
 30
0.0
 70
     8
  0
VERTEX
  8
OBJECT
 62
     7
 10
13.937586
 20
12.672842
 30
0.0
 70
     8
  0
VERTEX
  8
OBJECT
 62
     7
 10
13.925248
 20
12.62641
 30
0.0
 70
     8
  0
VERTEX
  8
OBJECT
 62
     7
 10
13.939307
 20
12.581508
 30
0.0
 70
     8
  0
VERTEX
  8
OBJECT
 62
     7
 10
13.984183
 20
12.538328
 30
0.0
 70
     8
  0
VERTEX
  8
OBJECT
 62
     7
 10
14.053343
 20
12.496722
 30
0.0
 70
     8
  0
VERTEX
  8
OBJECT
 62
     7
 10
14.137513
 20
12.456457
 30
0.0
 70
     8
  0
VERTEX
  8
OBJECT
 62
     7
 10
14.227417
 20
12.417299
 30
0.0
 70
     8
  0
VERTEX
  8
OBJECT
 62
     7
 10
14.313783
 20
12.379016
 30
0.0
 70
     8
  0
VERTEX
  8
OBJECT
 62
     7
 10
14.387335
 20
12.341373
 30
0.0
 70
     8
  0
VERTEX
  8
OBJECT
 62
     7
 10
14.438801
 20
12.304137
 30
0.0
 70
     8
  0
VERTEX
  8
OBJECT
 62
     7
 10
14.458905
 20
12.267075
 30
0.0
 70
     8
  0
VERTEX
  8
OBJECT
 62
     7
 10
14.441491
 20
12.229869
 30
0.0
 70
     8
  0
VERTEX
  8
OBJECT
 62
     7
 10
14.392873
 20
12.191861
 30
0.0
 70
     8
  0
VERTEX
  8
OBJECT
 62
     7
 10
14.322479
 20
12.152311
 30
0.0
 70
     8
  0
VERTEX
  8
OBJECT
 62
     7
 10
14.239741
 20
12.110475
 30
0.0
 70
     8
  0
VERTEX
  8
OBJECT
 62
     7
 10
14.154089
 20
12.065614
 30
0.0
 70
     8
  0
VERTEX
  8
OBJECT
 62
     7
 10
14.074952
 20
12.016984
 30
0.0
 70
     8
  0
VERTEX
  8
OBJECT
 62
     7
 10
14.011761
 20
11.963844
 30
0.0
 70
     8
  0
VERTEX
  8
OBJECT
 62
     7
 10
13.973947
 20
11.905452
 30
0.0
 70
     8
  0
VERTEX
  8
OBJECT
 62
     7
 10
13.967802
 20
11.841394
 30
0.0
 70
     8
  0
VERTEX
  8
OBJECT
 62
     7
 10
13.987075
 20
11.77256
 30
0.0
 70
     8
  0
VERTEX
  8
OBJECT
 62
     7
 10
14.022378
 20
11.700168
 30
0.0
 70
     8
  0
VERTEX
  8
OBJECT
 62
     7
 10
14.064321
 20
11.625434
 30
0.0
 70
     8
  0
VERTEX
  8
OBJECT
 62
     7
 10
14.103517
 20
11.549577
 30
0.0
 70
     8
  0
VERTEX
  8
OBJECT
 62
     7
 10
14.130575
 20
11.473813
 30
0.0
 70
     8
  0
VERTEX
  8
OBJECT
 62
     7
 10
14.136109
 20
11.39936
 30
0.0
 70
     8
  0
VERTEX
  8
OBJECT
 62
     7
 10
14.11073
 20
11.327436
 30
0.0
 70
     8
  0
VERTEX
  8
OBJECT
 62
     7
 10
14.048444
 20
11.258925
 30
0.0
 70
     8
  0
VERTEX
  8
OBJECT
 62
     7
 10
13.956849
 20
11.193385
 30
0.0
 70
     8
  0
VERTEX
  8
OBJECT
 62
     7
 10
13.846934
 20
11.130041
 30
0.0
 70
     8
  0
VERTEX
  8
OBJECT
 62
     7
 10
13.729691
 20
11.068117
 30
0.0
 70
     8
  0
VERTEX
  8
OBJECT
 62
     7
 10
13.616112
 20
11.006837
 30
0.0
 70
     8
  0
VERTEX
  8
OBJECT
 62
     7
 10
13.517189
 20
10.945428
 30
0.0
 70
     8
  0
VERTEX
  8
OBJECT
 62
     7
 10
13.443912
 20
10.883114
 30
0.0
 70
     8
  0
VERTEX
  8
OBJECT
 62
     7
 10
13.407274
 20
10.819119
 30
0.0
 70
     8
  0
VERTEX
  8
OBJECT
 62
     7
 10
13.41203
 20
10.75285
 30
0.0
 70
     8
  0
VERTEX
  8
OBJECT
 62
     7
 10
13.437997
 20
10.684442
 30
0.0
 70
     8
  0
VERTEX
  8
OBJECT
 62
     7
 10
13.458754
 20
10.614211
 30
0.0
 70
     8
  0
VERTEX
  8
OBJECT
 62
     7
 10
13.447884
 20
10.542473
 30
0.0
 70
     8
  0
VERTEX
  8
OBJECT
 62
     7
 10
13.378965
 20
10.469544
 30
0.0
 70
     8
  0
VERTEX
  8
OBJECT
 62
     7
 10
13.22558
 20
10.39574
 30
0.0
 70
     8
  0
VERTEX
  8
OBJECT
 62
     7
 10
12.961308
 20
10.321378
 30
0.0
 70
     8
  0
VERTEX
  8
OBJECT
 62
     7
 10
12.559729
 20
10.246773
 30
0.0
 70
     8
  0
VERTEX
  8
OBJECT
 62
     7
 10
14.300805
 20
14.964856
 30
0.0
 70
    16
  0
VERTEX
  8
OBJECT
 62
     7
 10
13.11772
 20
14.384176
 30
0.0
 70
    16
  0
VERTEX
  8
OBJECT
 62
     7
 10
13.981052
 20
13.808824
 30
0.0
 70
    16
  0
VERTEX
  8
OBJECT
 62
     7
 10
13.735908
 20
13.356
 30
0.0
 70
    16
  0
VERTEX
  8
OBJECT
 62
     7
 10
14.418048
 20
12.972431
 30
0.0
 70
    16
  0
VERTEX
  8
OBJECT
 62
     7
 10
13.581361
 20
12.562226
 30
0.0
 70
    16
  0
VERTEX
  8
OBJECT
 62
     7
 10
14.892348
 20
12.267711
 30
0.0
 70
    16
  0
VERTEX
  8
OBJECT
 62
     7
 10
13.602678
 20
11.96938
 30
0.0
 70
    16
  0
VERTEX
  8
OBJECT
 62
     7
 10
14.54062
 20
11.287481
 30
0.0
 70
    16
  0
VERTEX
  8
OBJECT
 62
     7
 10
12.899222
 20
10.845312
 30
0.0
 70
    16
  0
VERTEX
  8
OBJECT
 62
     7
 10
13.837163
 20
10.445761
 30
0.0
 70
    16
  0
VERTEX
  8
OBJECT
 62
     7
 10
12.559729
 20
10.246773
 30
0.0
 70
    16
  0
SEQEND
  8
OBJECT
 62
     7
  0
ARC
  8
OBJECT
 62
     7
 10
13.129608
 20
14.365773
 30
0.0
 40
0.25
 50
359.999981
 51
179.999981
  0
CIRCLE
  8
BEND
 62
     7
 10
8.237061
 20
49.053465
 30
0.0
 40
1.625609
  0
LINE
  8
OBJECT
 62
     7
 10
84.796768
 20
45.813968
 30
0.0
 11
79.727663
 21
45.813968
 31
0.0
  0
LINE
  8
OBJECT
 62
     7
 10
84.811448
 20
47.187968
 30
0.0
 11
79.727663
 21
47.187968
 31
0.0
  0
LINE
  8
OBJECT
 62
     7
 10
79.727663
 20
47.187968
 30
0.0
 11
79.727663
 21
45.813968
 31
0.0
  0
LINE
  8
CENTER
 62
     7
 10
78.648714
 20
46.687968
 30
0.0
 11
85.997852
 21
46.687968
 31
0.0
  0
DIMENSION
  8
DIM
 62
     7
  2
*D43
 10
83.727663
 20
48.00763
 30
0.0
 11
87.412038
 21
48.00763
 31
0.0
  1
0.500
 13
82.727663
 23
46.687968
 33
0.0
 14
83.727663
 24
46.687968
 34
0.0
  3
STD
  0
DIMENSION
  8
DIM
 62
     7
  2
*D40
 10
82.727663
 20
49.53881
 30
0.0
 11
86.505788
 21
49.53881
 31
0.0
  1
0.625
 13
81.477663
 23
46.687968
 33
0.0
 14
82.727663
 24
46.687968
 34
0.0
  3
STD
  0
DIMENSION
  8
DIM
 62
     7
  2
*D41
 10
81.477663
 20
51.001892
 30
0.0
 11
85.255788
 21
51.001892
 31
0.0
  1
0.625
 13
80.227663
 23
46.687968
 33
0.0
 14
81.477663
 24
46.687968
 34
0.0
  3
STD
  0
DIMENSION
  8
DIM
 62
     7
  2
*D42
 10
80.227663
 20
52.554819
 30
0.0
 11
83.958913
 21
52.554819
 31
0.0
  1
0.250
 13
79.727663
 23
47.187968
 33
0.0
 14
80.227663
 24
46.687968
 34
0.0
  3
STD
  0
DIMENSION
  8
DIM
 62
     7
  2
*D39
 10
77.381159
 20
46.687968
 30
0.0
 11
74.729909
 21
44.527968
 31
0.0
  1
0.250
 13
79.727663
 23
47.187968
 33
0.0
 14
78.648714
 24
46.687968
 34
0.0
 50
90.0
  3
STD
  0
DIMENSION
  8
DIM
 62
     7
  2
*D45
 10
7.441608
 20
5.084215
 30
0.0
 11
11.172858
 21
5.084215
 31
0.0
  1
0.250
 13
6.941608
 23
10.246773
 33
0.0
 14
7.441608
 24
10.746773
 34
0.0
 50
180.0
  3
STD
  0
DIMENSION
  8
DIM
 62
     7
  2
*D46
 10
8.691608
 20
6.534995
 30
0.0
 11
12.469733
 21
6.534995
 31
0.0
  1
0.625
 13
7.441608
 23
10.746773
 33
0.0
 14
8.691608
 24
10.746773
 34
0.0
 50
180.0
  3
STD
  0
DIMENSION
  8
DIM
 62
     7
  2
*D47
 10
9.941608
 20
7.830671
 30
0.0
 11
13.719733
 21
7.830671
 31
0.0
  1
0.625
 13
8.691608
 23
10.746773
 33
0.0
 14
9.941608
 24
10.746773
 34
0.0
 50
180.0
  3
STD
  0
DIMENSION
  8
DIM
 62
     7
  2
*D48
 10
10.941608
 20
9.293754
 30
0.0
 11
14.625983
 21
9.293754
 31
0.0
  1
0.500
 13
9.941608
 23
10.746773
 33
0.0
 14
10.941608
 24
10.746773
 34
0.0
 50
180.0
  3
STD
  0
LINE
  8
CENTER
 62
     7
 10
5.862659
 20
10.746773
 30
0.0
 11
13.211797
 21
10.746773
 31
0.0
  0
DIMENSION
  8
DIM
  2
*D44
 10
5.242316
 20
10.246773
 30
0.0
 11
2.591066
 21
8.086773
 31
0.0
  1
0.250
 13
5.862659
 23
10.746773
 33
0.0
 14
6.941608
 24
10.246773
 34
0.0
 50
90.0
  3
STD
  0
SOLID
  8
DIM
 62
     7
 10
83.113885
 20
45.354451
 30
0.0
 11
83.431557
 21
45.185086
 31
0.0
 12
83.780818
 22
46.322783
 32
0.0
 13
83.780818
 23
46.322783
 33
0.0
  0
LINE
  8
DIM
 62
     7
 10
83.272721
 20
45.269768
 30
0.0
 11
82.121086
 21
43.082281
 31
0.0
  0
LINE
  8
DIM
 62
     7
 10
82.121086
 20
43.082281
 30
0.0
 11
81.041086
 21
43.082281
 31
0.0
  0
TEXT
  8
DIM
 62
     7
 10
77.028583
 20
43.262647
 30
0.0
 40
0.75
  1
0.343
 41
0.75
  7
TXT
 72
     2
 11
79.184833
 21
43.637647
 31
0.0
 73
     2
  0
SOLID
  8
DIM
 62
     7
 10
13.638122
 20
11.275289
 30
0.0
 11
13.507206
 21
11.610641
 31
0.0
 12
12.566608
 22
11.050217
 32
0.0
 13
12.566608
 23
11.050217
 33
0.0
  0
LINE
  8
DIM
 62
     7
 10
13.572664
 20
11.442965
 30
0.0
 11
15.595677
 21
12.232716
 31
0.0
  0
LINE
  8
DIM
 62
     7
 10
15.595677
 20
12.232716
 30
0.0
 11
16.675677
 21
12.232716
 31
0.0
  0
TEXT
  8
DIM
 62
     7
 10
17.295152
 20
11.261863
 30
0.0
 40
0.75
  1
0.348
 41
0.75
  7
TXT
 11
17.295152
 21
11.636863
 31
0.0
 73
     2
  0
TEXT
  8
DIM
 62
     7
 10
16.410344
 20
10.027013
 30
0.0
 40
0.75
  1
(  ) HOLES
 41
0.75
  7
TXT
 11
16.410344
 21
10.402013
 31
0.0
 73
     2
  0
ARC
  8
OBJECT
 62
     7
 10
47.168151
 20
27.530853
 30
0.0
 40
0.125
 50
180.000019
 51
0.000019
  0
ARC
  8
OBJECT
 62
     7
 10
44.418151
 20
27.530853
 30
0.0
 40
0.125
 50
180.000019
 51
0.000019
  0
LINE
  8
OBJECT
 62
     7
 10
47.293151
 20
27.530853
 30
0.0
 11
47.293151
 21
28.155853
 31
0.0
  0
LINE
  8
OBJECT
 62
     7
 10
47.043151
 20
27.530853
 30
0.0
 11
47.043151
 21
28.155853
 31
0.0
  0
ARC
  8
OBJECT
 62
     7
 10
47.168151
 20
28.155853
 30
0.0
 40
0.125
 50
0.000019
 51
180.000019
  0
ARC
  8
OBJECT
 62
     7
 10
44.418151
 20
28.155853
 30
0.0
 40
0.125
 50
0.000019
 51
180.000019
  0
LINE
  8
OBJECT
 62
     7
 10
44.293151
 20
27.530853
 30
0.0
 11
44.293151
 21
28.155853
 31
0.0
  0
LINE
  8
OBJECT
 62
     7
 10
44.543151
 20
27.530853
 30
0.0
 11
44.543151
 21
28.155853
 31
0.0
  0
LINE
  8
OBJECT
 62
     7
 10
48.294917
 20
27.530853
 30
0.0
 11
48.294917
 21
28.155853
 31
0.0
  0
LINE
  8
OBJECT
 62
     7
 10
48.044917
 20
27.530853
 30
0.0
 11
48.044917
 21
28.155853
 31
0.0
  0
ARC
  8
OBJECT
 62
     7
 10
48.169917
 20
27.530853
 30
0.0
 40
0.125
 50
180.000019
 51
0.000019
  0
ARC
  8
OBJECT
 62
     7
 10
48.169917
 20
28.155853
 30
0.0
 40
0.125
 50
0.000019
 51
180.000019
  0
ARC
  8
OBJECT
 62
     7
 10
50.919917
 20
28.155853
 30
0.0
 40
0.125
 50
0.000019
 51
180.000019
  0
ARC
  8
OBJECT
 62
     7
 10
50.919917
 20
27.530853
 30
0.0
 40
0.125
 50
180.000019
 51
0.000019
  0
LINE
  8
OBJECT
 62
     7
 10
50.794917
 20
27.530853
 30
0.0
 11
50.794917
 21
28.155853
 31
0.0
  0
LINE
  8
OBJECT
 62
     7
 10
51.044917
 20
27.530853
 30
0.0
 11
51.044917
 21
28.155853
 31
0.0
  0
DIMENSION
  8
DIM
 62
     7
  2
*D38
 10
68.544014
 20
46.863774
 30
0.0
 11
72.275264
 21
46.863774
 31
0.0
 13
68.294014
 23
49.159232
 33
0.0
 14
68.544014
 24
48.722232
 34
0.0
  3
STD
  0
DIMENSION
  8
DIM
 62
     7
  2
*D36
 10
7.294014
 20
46.863774
 30
0.0
 11
3.562764
 21
46.863774
 31
0.0
 13
7.544014
 23
49.159232
 33
0.0
 14
7.294014
 24
48.722232
 34
0.0
  3
STD
  0
DIMENSION
  8
DIM
 62
     7
  2
*D37
 10
7.544014
 20
46.863774
 30
0.0
 11
37.919014
 21
46.863774
 31
0.0
  1
(  ) HOLES ON E.I.A. UNIVERSAL SPACING  =   
 13
68.294014
 23
49.159232
 33
0.0
 14
7.544014
 24
49.159232
 34
0.0
  3
STD
  0
SOLID
  8
BEND
 62
     7
 10
10.810012
 20
49.830511
 30
0.0
 11
10.714398
 21
50.177582
 31
0.0
 12
9.720993
 22
49.717205
 32
0.0
 13
9.720993
 23
49.717205
 33
0.0
  0
LINE
  8
BEND
 62
     7
 10
10.762205
 20
50.004047
 30
0.0
 11
12.260487
 21
50.416806
 31
0.0
  0
LINE
  8
BEND
 62
     7
 10
12.260487
 20
50.416806
 30
0.0
 11
13.340487
 21
50.416806
 31
0.0
  0
TEXT
  8
BEND
 62
     7
 10
13.880487
 20
50.041806
 30
0.0
 40
0.75
  1
SEE DETAIL "A"
 41
0.75
  7
TXT
 11
13.880487
 21
50.416806
 31
0.0
 73
     2
  0
TEXT
  8
BEND
 62
     7
 10
16.449626
 20
24.406979
 30
0.0
 40
0.75
  1
SEE DETAIL "B"
 50
360.0
 41
0.75
  7
TXT
 11
16.449626
 21
24.781979
 31
0.0
 73
     2
  0
TEXT
  8
TEXT
 10
1.59075
 20
58.080475
 30
0.0
 40
0.75
  1
NAME
 41
0.75
  7
TXT
 72
     1
 11
2.622
 21
58.080475
 31
0.0
  0
TEXT
  8
TEXT
 10
1.59075
 20
59.330475
 30
0.0
 40
0.75
  1
PART
 41
0.75
  7
TXT
 72
     1
 11
2.622
 21
59.330475
 31
0.0
  0
TEXT
  8
TEXT
 10
48.5595
 20
58.080475
 30
0.0
 40
0.75
  1
No.
 41
0.75
  7
TXT
 72
     1
 11
49.122
 21
58.080475
 31
0.0
  0
TEXT
  8
TEXT
 10
48.09075
 20
59.330475
 30
0.0
 40
0.75
  1
PART
 41
0.75
  7
TXT
 72
     1
 11
49.122
 21
59.330475
 31
0.0
  0
LINE
  8
TITLE
 10
51.372
 20
60.348
 30
0.0
 11
51.372
 21
57.84
 31
0.0
  0
LINE
  8
TITLE
 10
46.872
 20
60.348
 30
0.0
 11
46.872
 21
57.84
 31
0.0
  0
LINE
  8
TITLE
 10
46.5
 20
60.348
 30
0.0
 11
46.5
 21
57.84
 31
0.0
  0
LINE
  8
TITLE
 10
4.872
 20
57.84
 30
0.0
 11
4.872
 21
60.348
 31
0.0
  0
LINE
  8
TITLE
 10
0.372
 20
57.84
 30
0.0
 11
92.628
 21
57.84
 31
0.0
  0
LINE
  8
TITLE
 10
0.372
 20
0.372
 30
0.0
 11
0.372
 21
60.348
 31
0.0
  0
LINE
  8
TITLE
 10
92.628
 20
0.372
 30
0.0
 11
0.372
 21
0.372
 31
0.0
  0
LINE
  8
TITLE
 10
92.628
 20
60.348
 30
0.0
 11
92.628
 21
0.372
 31
0.0
  0
LINE
  8
TITLE
 10
0.372
 20
60.348
 30
0.0
 11
92.628
 21
60.348
 31
0.0
  0
LINE
  8
TITLE
 10
0.0
 20
60.72
 30
0.0
 11
93.0
 21
60.72
 31
0.0
  0
LINE
  8
TITLE
 10
0.0
 20
0.0
 30
0.0
 11
0.0
 21
60.72
 31
0.0
  0
LINE
  8
TITLE
 10
93.0
 20
0.0
 30
0.0
 11
0.0
 21
0.0
 31
0.0
  0
LINE
  8
TITLE
 10
93.0
 20
60.72
 30
0.0
 11
93.0
 21
0.0
 31
0.0
  0
SOLID
  8
BEND
 62
     7
 10
10.98279
 20
25.508802
 30
0.0
 11
11.068266
 21
25.858507
 31
0.0
 12
9.976413
 22
25.940085
 32
0.0
 13
9.976413
 23
25.940085
 33
0.0
  0
LINE
  8
BEND
 62
     7
 10
11.025528
 20
25.683654
 30
0.0
 11
14.553868
 21
24.821238
 31
0.0
  0
LINE
  8
BEND
 62
     7
 10
14.553868
 20
24.821238
 30
0.0
 11
16.03551
 21
24.821238
 31
0.0
  0
TEXT
  8
TEXT
 62
     7
 10
83.556133
 20
41.389771
 30
0.0
 40
0.75
  1
%%UVIEW "A"
 41
0.75
  7
TXT
  0
TEXT
  8
TEXT
 62
     7
 10
6.924023
 20
2.851778
 30
0.0
 40
0.75
  1
%%UVIEW "B"
 41
0.75
  7
TXT
  0
LINE
  8
TITLE
 10
23.877625
 20
0.372
 30
0.0
 11
23.877625
 21
5.593089
 31
0.0
  0
LINE
  8
TITLE
 10
30.513583
 20
0.372
 30
0.0
 11
30.513583
 21
5.593089
 31
0.0
  0
LINE
  8
TITLE
 10
38.277833
 20
0.372
 30
0.0
 11
38.277833
 21
5.593089
 31
0.0
  0
LINE
  8
TITLE
 10
46.042083
 20
0.372
 30
0.0
 11
46.042083
 21
5.593089
 31
0.0
  0
LINE
  8
TITLE
 10
53.806333
 20
0.372
 30
0.0
 11
53.806333
 21
5.593089
 31
0.0
  0
LINE
  8
TITLE
 10
61.570583
 20
0.372
 30
0.0
 11
61.570583
 21
5.593089
 31
0.0
  0
LINE
  8
TITLE
 10
69.334833
 20
0.372
 30
0.0
 11
69.334833
 21
5.593089
 31
0.0
  0
LINE
  8
TITLE
 10
77.099083
 20
0.372
 30
0.0
 11
77.099083
 21
5.593089
 31
0.0
  0
LINE
  8
TITLE
 10
84.863333
 20
0.372
 30
0.0
 11
84.863333
 21
5.593089
 31
0.0
  0
LINE
  8
TITLE
 10
23.877625
 20
3.271742
 30
0.0
 11
92.628
 21
3.271742
 31
0.0
  0
LINE
  8
TITLE
 10
23.877625
 20
1.821833
 30
0.0
 11
92.628
 21
1.821833
 31
0.0
  0
TEXT
  8
TEXT
 10
25.039354
 20
2.130915
 30
0.0
 40
0.75
  1
PMR-9483
 41
0.75
  7
TXT
 72
     1
 11
27.195604
 21
2.130915
 31
0.0
  0
TEXT
  8
TEXT
 10
25.039354
 20
0.681006
 30
0.0
 40
0.75
  1
PMR-9484
 41
0.75
  7
TXT
 72
     1
 11
27.195604
 21
0.681006
 31
0.0
  0
TEXT
  8
TEXT
 62
     7
 10
24.508159
 20
4.037187
 30
0.0
 40
0.75
  1
CATALOG No.
 41
0.75
  7
TXT
  0
TEXT
  8
DIM
 62
     7
 10
37.548301
 20
43.732639
 30
0.0
 40
1.0
  1
A
 41
0.75
  7
ITALICC
  0
TEXT
  8
DIM
 62
     7
 10
12.571718
 20
37.415761
 30
0.0
 40
1.0
  1
B
 41
0.75
  7
ITALICC
  0
TEXT
  8
DIM
 62
     7
 10
15.702576
 20
38.706111
 30
0.0
 40
1.0
  1
C
 41
0.75
  7
ITALICC
  0
TEXT
  8
DIM
 62
     7
 10
17.715271
 20
40.216821
 30
0.0
 40
1.0
  1
D
 41
0.75
  7
ITALICC
  0
TEXT
  8
DIM
 62
     7
 10
21.74066
 20
41.874439
 30
0.0
 40
1.0
  1
E
 41
0.75
  7
ITALICC
  0
TEXT
  8
DIM
 62
     7
 10
26.925745
 20
46.429814
 30
0.0
 40
1.0
  1
F
 41
0.75
  7
ITALICC
  0
TEXT
  8
DIM
 62
     7
 10
48.24753
 20
46.362871
 30
0.0
 40
1.0
  1
G
 41
0.75
  7
ITALICC
  0
TEXT
  8
DIM
 62
     7
 10
53.347367
 20
41.874439
 30
0.0
 40
1.0
  1
E
 41
0.75
  7
ITALICC
  0
TEXT
  8
DIM
 62
     7
 10
57.408471
 20
40.216821
 30
0.0
 40
1.0
  1
D
 41
0.75
  7
ITALICC
  0
TEXT
  8
DIM
 62
     7
 10
59.528308
 20
38.706111
 30
0.0
 40
1.0
  1
C
 41
0.75
  7
ITALICC
  0
TEXT
  8
DIM
 62
     7
 10
62.51631
 20
37.415761
 30
0.0
 40
1.0
  1
B
 41
0.75
  7
ITALICC
  0
TEXT
  8
TEXT
 62
     7
 10
33.79766
 20
3.974467
 30
0.0
 40
1.0
  1
A
 41
0.75
  7
ITALICC
  0
TEXT
  8
TEXT
 62
     7
 10
41.56191
 20
3.974467
 30
0.0
 40
1.0
  1
B
 41
0.75
  7
ITALICC
  0
TEXT
  8
TEXT
 62
     7
 10
49.32616
 20
3.974467
 30
0.0
 40
1.0
  1
C
 41
0.75
  7
ITALICC
  0
TEXT
  8
TEXT
 62
     7
 10
57.09041
 20
3.974467
 30
0.0
 40
1.0
  1
D
 41
0.75
  7
ITALICC
  0
TEXT
  8
TEXT
 62
     7
 10
64.85466
 20
3.974467
 30
0.0
 40
1.0
  1
E
 41
0.75
  7
ITALICC
  0
TEXT
  8
TEXT
 62
     7
 10
72.61891
 20
3.974467
 30
0.0
 40
1.0
  1
F
 41
0.75
  7
ITALICC
  0
TEXT
  8
TEXT
 62
     7
 10
80.38316
 20
3.974467
 30
0.0
 40
1.0
  1
G
 41
0.75
  7
ITALICC
  0
TEXT
  8
TEXT
 62
     7
 10
88.14741
 20
3.974467
 30
0.0
 40
1.0
  1
H
 41
0.75
  7
ITALICC
  0
TEXT
  8
DIM
 62
     7
 10
29.11164
 20
20.784307
 30
0.0
 40
1.0
  1
H
 41
0.75
  7
ITALICC
  0
DIMENSION
  8
DIM
 62
     7
  2
*D1
 10
7.544014
 20
19.071286
 30
0.0
 11
37.919014
 21
19.002286
 31
0.0
 12
0.0
 22
-33.223061
 32
0.0
  1
(  ) HOLES ON E.I.A. UNIVERSAL SPACING  =   
 13
68.294014
 23
21.229744
 33
0.0
 14
7.544014
 24
21.229744
 34
0.0
  3
STD
  0
TEXT
  8
DIM
 62
     7
 10
26.925745
 20
18.637327
 30
0.0
 40
1.0
  1
F
 41
0.75
  7
ITALICC
  0
TEXT
  8
DIM
 62
     7
 10
48.24753
 20
18.570384
 30
0.0
 40
1.0
  1
G
 41
0.75
  7
ITALICC
  0
TEXT
  8
DIM
 62
     7
 10
16.877828
 20
9.918631
 30
0.0
 40
1.0
  1
F
 41
0.75
  7
ITALICC
  0
TEXT
  8
DIM
 62
     7
 10
76.257353
 20
40.859806
 30
0.0
 40
0.75
  1
(  ) HOLES
 41
0.75
  7
TXT
 11
76.257353
 21
41.234806
 31
0.0
 73
     2
  0
TEXT
  8
DIM
 62
     7
 10
76.578007
 20
40.597747
 30
0.0
 40
1.0
  1
F
 41
0.75
  7
ITALICC
  0
TEXT
  8
TEXT
 10
33.050134
 20
2.130915
 30
0.0
 40
0.75
  1
70.000
 41
0.75
  7
TXT
 72
     1
 11
34.268884
 21
2.130915
 31
0.0
  0
TEXT
  8
TEXT
 10
40.814384
 20
2.130915
 30
0.0
 40
0.75
  1
15.281
 41
0.75
  7
TXT
 72
     1
 11
42.033134
 21
2.130915
 31
0.0
  0
TEXT
  8
TEXT
 62
     7
 10
48.484884
 20
2.130915
 30
0.0
 40
0.75
  1
-----
 41
0.75
  7
TXT
 72
     1
 11
49.797384
 21
2.130915
 31
0.0
  0
TEXT
  8
TEXT
 62
     7
 10
56.249134
 20
2.130915
 30
0.0
 40
0.75
  1
-----
 41
0.75
  7
TXT
 72
     1
 11
57.561634
 21
2.130915
 31
0.0
  0
TEXT
  8
TEXT
 10
64.013384
 20
2.130915
 30
0.0
 40
0.75
  1
33.281
 41
0.75
  7
TXT
 72
     1
 11
65.325884
 21
2.130915
 31
0.0
  0
TEXT
  8
TEXT
 10
72.480759
 20
2.130915
 30
0.0
 40
0.75
  1
120
 41
0.75
  7
TXT
 72
     1
 11
73.090134
 21
2.130915
 31
0.0
  0
TEXT
  8
TEXT
 10
79.541884
 20
2.130915
 30
0.0
 40
0.75
  1
69.500
 41
0.75
  7
TXT
 72
     1
 11
80.854384
 21
2.130915
 31
0.0
  0
TEXT
  8
TEXT
 10
88.243634
 20
2.130915
 30
0.0
 40
0.75
  1
14
 41
0.75
  7
TXT
 72
     1
 11
88.618634
 21
2.130915
 31
0.0
  0
TEXT
  8
TEXT
 10
32.909509
 20
0.681006
 30
0.0
 40
0.75
  1
78.750
 41
0.75
  7
TXT
 72
     1
 11
34.268884
 21
0.681006
 31
0.0
  0
TEXT
  8
TEXT
 10
40.720634
 20
0.681006
 30
0.0
 40
0.75
  1
13.375
 41
0.75
  7
TXT
 72
     1
 11
42.033134
 21
0.681006
 31
0.0
  0
TEXT
  8
TEXT
 10
48.484884
 20
0.681006
 30
0.0
 40
0.75
  1
25.125
 41
0.75
  7
TXT
 72
     1
 11
49.797384
 21
0.681006
 31
0.0
  0
TEXT
  8
TEXT
 10
56.155384
 20
0.681006
 30
0.0
 40
0.75
  1
29.563
 41
0.75
  7
TXT
 72
     1
 11
57.561634
 21
0.681006
 31
0.0
  0
TEXT
  8
TEXT
 10
63.919634
 20
0.681006
 30
0.0
 40
0.75
  1
37.656
 41
0.75
  7
TXT
 72
     1
 11
65.325884
 21
0.681006
 31
0.0
  0
TEXT
  8
TEXT
 10
72.433884
 20
0.681006
 30
0.0
 40
0.75
  1
135
 41
0.75
  7
TXT
 72
     1
 11
73.090134
 21
0.681006
 31
0.0
  0
TEXT
  8
TEXT
 10
79.495009
 20
0.681006
 30
0.0
 40
0.75
  1
78.250
 41
0.75
  7
TXT
 72
     1
 11
80.854384
 21
0.681006
 31
0.0
  0
TEXT
  8
TEXT
 10
88.149884
 20
0.681006
 30
0.0
 40
0.75
  1
22
 41
0.75
  7
TXT
 72
     1
 11
88.618634
 21
0.681006
 31
0.0
  0
TEXT
  8
TEXT
 10
13.611521
 20
58.390591
 30
0.0
 40
1.25
  1
PANEL MOUNTING RAIL (METRIC)
 41
0.75
  7
TXT
  0
TEXT
  8
TEXT
 10
63.113124
 20
58.390591
 30
0.0
 40
1.25
  1
PMR-9483  &  PMR-9484
 41
0.75
  7
TXT
  0
TEXT
  8
DIM
 62
     7
 10
17.295152
 20
12.393984
 30
0.0
 40
0.75
  1
0.343
 41
0.75
  7
TXT
 11
17.295152
 21
12.768984
 31
0.0
 73
     2
  0
LINE
  8
DIM
 62
     7
 10
17.102747
 20
12.208548
 30
0.0
 11
19.705555
 21
12.208548
 31
0.0
  0
TEXT
  8
DIM
 62
     7
 10
20.066196
 20
11.857134
 30
0.0
 40
0.75
  1
SQ.
 41
0.75
  7
TXT
 11
20.066196
 21
12.232134
 31
0.0
 73
     2
  0
TEXT
  8
DIM
 62
     7
 10
77.028583
 20
42.131978
 30
0.0
 40
0.75
  1
0.348
 41
0.75
  7
TXT
 72
     2
 11
79.184833
 21
42.506978
 31
0.0
 73
     2
  0
LINE
  8
DIM
 62
     7
 10
76.821589
 20
43.05968
 30
0.0
 11
79.434152
 21
43.05968
 31
0.0
  0
TEXT
  8
DIM
 62
     7
 10
79.633457
 20
42.66261
 30
0.0
 40
0.75
  1
SQ.
 41
0.75
  7
TXT
 11
79.633457
 21
43.03761
 31
0.0
 73
     2
  0
TEXT
  8
TEXT
 62
     7
 10
75.887772
 20
10.851005
 30
0.0
 40
0.75
  1
%%UMATERIAL:%%U 12 GA. STEEL
 41
0.75
  7
TXT
  0
TEXT
  8
TEXT
 62
     7
 10
75.887772
 20
9.601005
 30
0.0
 40
0.75
  1
%%UFINISH:%%U SMOOTH BLACK
 41
0.75
  7
TXT
  0
DIMENSION
  8
DIM
  2
*D3
 10
5.181489
 20
27.843353
 30
0.0
 11
2.530239
 21
25.683353
 31
0.0
 12
0.0
 22
-1.557527
 32
0.0
 13
7.294014
 23
28.593353
 33
0.0
 14
7.513014
 24
27.843353
 34
0.0
 50
90.0
  3
STD
  0
TEXT
  8
DIM
 10
1.534648
 20
24.073218
 30
0.0
 40
0.75
  1
TYP.
 41
0.75
  0
LINE
  8
TITLE
 10
23.877625
 20
5.593089
 30
0.0
 11
92.628
 21
5.593089
 31
0.0
  0
LINE
  8
OBJECT
 62
     7
 10
79.787469
 20
26.113353
 30
0.0
 11
79.678469
 21
26.113353
 31
0.0
  0
LINE
  8
OBJECT
 62
     7
 10
79.787469
 20
28.484353
 30
0.0
 11
79.787469
 21
26.113353
 31
0.0
  0
POLYLINE
  8
OBJECT
 62
     7
 66
     1
 10
0.0
 20
0.0
 30
0.0
  0
VERTEX
  8
OBJECT
 62
     7
 10
8.622014
 20
26.191853
 30
0.0
  0
VERTEX
  8
OBJECT
 62
     7
 10
8.966014
 20
26.191853
 30
0.0
  0
VERTEX
  8
OBJECT
 62
     7
 10
8.966014
 20
26.535853
 30
0.0
  0
VERTEX
  8
OBJECT
 62
     7
 10
8.622014
 20
26.535853
 30
0.0
  0
VERTEX
  8
OBJECT
 62
     7
 10
8.622014
 20
26.191853
 30
0.0
  0
SEQEND
  8
OBJECT
 62
     7
  0
POLYLINE
  8
OBJECT
 62
     7
 66
     1
 10
0.0
 20
0.0
 30
0.0
  0
VERTEX
  8
OBJECT
 62
     7
 10
7.997014
 20
26.191853
 30
0.0
  0
VERTEX
  8
OBJECT
 62
     7
 10
8.341014
 20
26.191853
 30
0.0
  0
VERTEX
  8
OBJECT
 62
     7
 10
8.341014
 20
26.535853
 30
0.0
  0
VERTEX
  8
OBJECT
 62
     7
 10
7.997014
 20
26.535853
 30
0.0
  0
VERTEX
  8
OBJECT
 62
     7
 10
7.997014
 20
26.191853
 30
0.0
  0
SEQEND
  8
OBJECT
 62
     7
  0
POLYLINE
  8
OBJECT
 62
     7
 66
     1
 10
0.0
 20
0.0
 30
0.0
  0
VERTEX
  8
OBJECT
 62
     7
 10
7.372014
 20
26.191853
 30
0.0
  0
VERTEX
  8
OBJECT
 62
     7
 10
7.716014
 20
26.191853
 30
0.0
  0
VERTEX
  8
OBJECT
 62
     7
 10
7.716014
 20
26.535853
 30
0.0
  0
VERTEX
  8
OBJECT
 62
     7
 10
7.372014
 20
26.535853
 30
0.0
  0
VERTEX
  8
OBJECT
 62
     7
 10
7.372014
 20
26.191853
 30
0.0
  0
SEQEND
  8
OBJECT
 62
     7
  0
POLYLINE
  8
OBJECT
 62
     7
 66
     1
 10
0.0
 20
0.0
 30
0.0
  0
VERTEX
  8
OBJECT
 62
     7
 10
9.122014
 20
26.191853
 30
0.0
  0
VERTEX
  8
OBJECT
 62
     7
 10
9.466014
 20
26.191853
 30
0.0
  0
VERTEX
  8
OBJECT
 62
     7
 10
9.466014
 20
26.535853
 30
0.0
  0
VERTEX
  8
OBJECT
 62
     7
 10
9.122014
 20
26.535853
 30
0.0
  0
VERTEX
  8
OBJECT
 62
     7
 10
9.122014
 20
26.191853
 30
0.0
  0
SEQEND
  8
OBJECT
 62
     7
  0
POLYLINE
  8
OBJECT
 62
     7
 66
     1
 10
0.0
 20
0.0
 30
0.0
  0
VERTEX
  8
OBJECT
 62
     7
 10
9.747014
 20
26.191853
 30
0.0
  0
VERTEX
  8
OBJECT
 62
     7
 10
10.091014
 20
26.191853
 30
0.0
  0
VERTEX
  8
OBJECT
 62
     7
 10
10.091014
 20
26.535853
 30
0.0
  0
VERTEX
  8
OBJECT
 62
     7
 10
9.747014
 20
26.535853
 30
0.0
  0
VERTEX
  8
OBJECT
 62
     7
 10
9.747014
 20
26.191853
 30
0.0
  0
SEQEND
  8
OBJECT
 62
     7
  0
POLYLINE
  8
OBJECT
 62
     7
 66
     1
 10
0.0
 20
0.0
 30
0.0
  0
VERTEX
  8
OBJECT
 62
     7
 10
10.372014
 20
26.191853
 30
0.0
  0
VERTEX
  8
OBJECT
 62
     7
 10
10.716014
 20
26.191853
 30
0.0
  0
VERTEX
  8
OBJECT
 62
     7
 10
10.716014
 20
26.535853
 30
0.0
  0
VERTEX
  8
OBJECT
 62
     7
 10
10.372014
 20
26.535853
 30
0.0
  0
VERTEX
  8
OBJECT
 62
     7
 10
10.372014
 20
26.191853
 30
0.0
  0
SEQEND
  8
OBJECT
 62
     7
  0
POLYLINE
  8
OBJECT
 62
     7
 66
     1
 10
0.0
 20
0.0
 30
0.0
  0
VERTEX
  8
OBJECT
 62
     7
 10
10.872014
 20
26.191853
 30
0.0
  0
VERTEX
  8
OBJECT
 62
     7
 10
11.216014
 20
26.191853
 30
0.0
  0
VERTEX
  8
OBJECT
 62
     7
 10
11.216014
 20
26.535853
 30
0.0
  0
VERTEX
  8
OBJECT
 62
     7
 10
10.872014
 20
26.535853
 30
0.0
  0
VERTEX
  8
OBJECT
 62
     7
 10
10.872014
 20
26.191853
 30
0.0
  0
SEQEND
  8
OBJECT
 62
     7
  0
POLYLINE
  8
OBJECT
 62
     7
 66
     1
 10
0.0
 20
0.0
 30
0.0
  0
VERTEX
  8
OBJECT
 62
     7
 10
11.497014
 20
26.191853
 30
0.0
  0
VERTEX
  8
OBJECT
 62
     7
 10
11.841014
 20
26.191853
 30
0.0
  0
VERTEX
  8
OBJECT
 62
     7
 10
11.841014
 20
26.535853
 30
0.0
  0
VERTEX
  8
OBJECT
 62
     7
 10
11.497014
 20
26.535853
 30
0.0
  0
VERTEX
  8
OBJECT
 62
     7
 10
11.497014
 20
26.191853
 30
0.0
  0
SEQEND
  8
OBJECT
 62
     7
  0
POLYLINE
  8
OBJECT
 62
     7
 66
     1
 10
0.0
 20
0.0
 30
0.0
  0
VERTEX
  8
OBJECT
 62
     7
 10
12.122014
 20
26.191853
 30
0.0
  0
VERTEX
  8
OBJECT
 62
     7
 10
12.466014
 20
26.191853
 30
0.0
  0
VERTEX
  8
OBJECT
 62
     7
 10
12.466014
 20
26.535853
 30
0.0
  0
VERTEX
  8
OBJECT
 62
     7
 10
12.122014
 20
26.535853
 30
0.0
  0
VERTEX
  8
OBJECT
 62
     7
 10
12.122014
 20
26.191853
 30
0.0
  0
SEQEND
  8
OBJECT
 62
     7
  0
POLYLINE
  8
OBJECT
 62
     7
 66
     1
 10
0.0
 20
0.0
 30
0.0
  0
VERTEX
  8
OBJECT
 62
     7
 10
12.622014
 20
26.191853
 30
0.0
  0
VERTEX
  8
OBJECT
 62
     7
 10
12.966014
 20
26.191853
 30
0.0
  0
VERTEX
  8
OBJECT
 62
     7
 10
12.966014
 20
26.535853
 30
0.0
  0
VERTEX
  8
OBJECT
 62
     7
 10
12.622014
 20
26.535853
 30
0.0
  0
VERTEX
  8
OBJECT
 62
     7
 10
12.622014
 20
26.191853
 30
0.0
  0
SEQEND
  8
OBJECT
 62
     7
  0
POLYLINE
  8
OBJECT
 62
     7
 66
     1
 10
0.0
 20
0.0
 30
0.0
  0
VERTEX
  8
OBJECT
 62
     7
 10
13.247014
 20
26.191853
 30
0.0
  0
VERTEX
  8
OBJECT
 62
     7
 10
13.591014
 20
26.191853
 30
0.0
  0
VERTEX
  8
OBJECT
 62
     7
 10
13.591014
 20
26.535853
 30
0.0
  0
VERTEX
  8
OBJECT
 62
     7
 10
13.247014
 20
26.535853
 30
0.0
  0
VERTEX
  8
OBJECT
 62
     7
 10
13.247014
 20
26.191853
 30
0.0
  0
SEQEND
  8
OBJECT
 62
     7
  0
POLYLINE
  8
OBJECT
 62
     7
 66
     1
 10
0.0
 20
0.0
 30
0.0
  0
VERTEX
  8
OBJECT
 62
     7
 10
13.872014
 20
26.191853
 30
0.0
  0
VERTEX
  8
OBJECT
 62
     7
 10
14.216014
 20
26.191853
 30
0.0
  0
VERTEX
  8
OBJECT
 62
     7
 10
14.216014
 20
26.535853
 30
0.0
  0
VERTEX
  8
OBJECT
 62
     7
 10
13.872014
 20
26.535853
 30
0.0
  0
VERTEX
  8
OBJECT
 62
     7
 10
13.872014
 20
26.191853
 30
0.0
  0
SEQEND
  8
OBJECT
 62
     7
  0
POLYLINE
  8
OBJECT
 62
     7
 66
     1
 10
0.0
 20
0.0
 30
0.0
  0
VERTEX
  8
OBJECT
 62
     7
 10
14.372014
 20
26.191853
 30
0.0
  0
VERTEX
  8
OBJECT
 62
     7
 10
14.716014
 20
26.191853
 30
0.0
  0
VERTEX
  8
OBJECT
 62
     7
 10
14.716014
 20
26.535853
 30
0.0
  0
VERTEX
  8
OBJECT
 62
     7
 10
14.372014
 20
26.535853
 30
0.0
  0
VERTEX
  8
OBJECT
 62
     7
 10
14.372014
 20
26.191853
 30
0.0
  0
SEQEND
  8
OBJECT
 62
     7
  0
POLYLINE
  8
OBJECT
 62
     7
 66
     1
 10
0.0
 20
0.0
 30
0.0
  0
VERTEX
  8
OBJECT
 62
     7
 10
14.997014
 20
26.191853
 30
0.0
  0
VERTEX
  8
OBJECT
 62
     7
 10
15.341014
 20
26.191853
 30
0.0
  0
VERTEX
  8
OBJECT
 62
     7
 10
15.341014
 20
26.535853
 30
0.0
  0
VERTEX
  8
OBJECT
 62
     7
 10
14.997014
 20
26.535853
 30
0.0
  0
VERTEX
  8
OBJECT
 62
     7
 10
14.997014
 20
26.191853
 30
0.0
  0
SEQEND
  8
OBJECT
 62
     7
  0
POLYLINE
  8
OBJECT
 62
     7
 66
     1
 10
0.0
 20
0.0
 30
0.0
  0
VERTEX
  8
OBJECT
 62
     7
 10
15.622014
 20
26.191853
 30
0.0
  0
VERTEX
  8
OBJECT
 62
     7
 10
15.966014
 20
26.191853
 30
0.0
  0
VERTEX
  8
OBJECT
 62
     7
 10
15.966014
 20
26.535853
 30
0.0
  0
VERTEX
  8
OBJECT
 62
     7
 10
15.622014
 20
26.535853
 30
0.0
  0
VERTEX
  8
OBJECT
 62
     7
 10
15.622014
 20
26.191853
 30
0.0
  0
SEQEND
  8
OBJECT
 62
     7
  0
POLYLINE
  8
OBJECT
 62
     7
 66
     1
 10
0.0
 20
0.0
 30
0.0
  0
VERTEX
  8
OBJECT
 62
     7
 10
16.122014
 20
26.191853
 30
0.0
  0
VERTEX
  8
OBJECT
 62
     7
 10
16.466014
 20
26.191853
 30
0.0
  0
VERTEX
  8
OBJECT
 62
     7
 10
16.466014
 20
26.535853
 30
0.0
  0
VERTEX
  8
OBJECT
 62
     7
 10
16.122014
 20
26.535853
 30
0.0
  0
VERTEX
  8
OBJECT
 62
     7
 10
16.122014
 20
26.191853
 30
0.0
  0
SEQEND
  8
OBJECT
 62
     7
  0
POLYLINE
  8
OBJECT
 62
     7
 66
     1
 10
0.0
 20
0.0
 30
0.0
  0
VERTEX
  8
OBJECT
 62
     7
 10
16.747014
 20
26.191853
 30
0.0
  0
VERTEX
  8
OBJECT
 62
     7
 10
17.091014
 20
26.191853
 30
0.0
  0
VERTEX
  8
OBJECT
 62
     7
 10
17.091014
 20
26.535853
 30
0.0
  0
VERTEX
  8
OBJECT
 62
     7
 10
16.747014
 20
26.535853
 30
0.0
  0
VERTEX
  8
OBJECT
 62
     7
 10
16.747014
 20
26.191853
 30
0.0
  0
SEQEND
  8
OBJECT
 62
     7
  0
POLYLINE
  8
OBJECT
 62
     7
 66
     1
 10
0.0
 20
0.0
 30
0.0
  0
VERTEX
  8
OBJECT
 62
     7
 10
17.372014
 20
26.191853
 30
0.0
  0
VERTEX
  8
OBJECT
 62
     7
 10
17.716014
 20
26.191853
 30
0.0
  0
VERTEX
  8
OBJECT
 62
     7
 10
17.716014
 20
26.535853
 30
0.0
  0
VERTEX
  8
OBJECT
 62
     7
 10
17.372014
 20
26.535853
 30
0.0
  0
VERTEX
  8
OBJECT
 62
     7
 10
17.372014
 20
26.191853
 30
0.0
  0
SEQEND
  8
OBJECT
 62
     7
  0
POLYLINE
  8
OBJECT
 62
     7
 66
     1
 10
0.0
 20
0.0
 30
0.0
  0
VERTEX
  8
OBJECT
 62
     7
 10
17.872014
 20
26.191853
 30
0.0
  0
VERTEX
  8
OBJECT
 62
     7
 10
18.216014
 20
26.191853
 30
0.0
  0
VERTEX
  8
OBJECT
 62
     7
 10
18.216014
 20
26.535853
 30
0.0
  0
VERTEX
  8
OBJECT
 62
     7
 10
17.872014
 20
26.535853
 30
0.0
  0
VERTEX
  8
OBJECT
 62
     7
 10
17.872014
 20
26.191853
 30
0.0
  0
SEQEND
  8
OBJECT
 62
     7
  0
POLYLINE
  8
OBJECT
 62
     7
 66
     1
 10
0.0
 20
0.0
 30
0.0
  0
VERTEX
  8
OBJECT
 62
     7
 10
18.497014
 20
26.191853
 30
0.0
  0
VERTEX
  8
OBJECT
 62
     7
 10
18.841014
 20
26.191853
 30
0.0
  0
VERTEX
  8
OBJECT
 62
     7
 10
18.841014
 20
26.535853
 30
0.0
  0
VERTEX
  8
OBJECT
 62
     7
 10
18.497014
 20
26.535853
 30
0.0
  0
VERTEX
  8
OBJECT
 62
     7
 10
18.497014
 20
26.191853
 30
0.0
  0
SEQEND
  8
OBJECT
 62
     7
  0
POLYLINE
  8
OBJECT
 62
     7
 66
     1
 10
0.0
 20
0.0
 30
0.0
  0
VERTEX
  8
OBJECT
 62
     7
 10
19.122014
 20
26.191853
 30
0.0
  0
VERTEX
  8
OBJECT
 62
     7
 10
19.466014
 20
26.191853
 30
0.0
  0
VERTEX
  8
OBJECT
 62
     7
 10
19.466014
 20
26.535853
 30
0.0
  0
VERTEX
  8
OBJECT
 62
     7
 10
19.122014
 20
26.535853
 30
0.0
  0
VERTEX
  8
OBJECT
 62
     7
 10
19.122014
 20
26.191853
 30
0.0
  0
SEQEND
  8
OBJECT
 62
     7
  0
POLYLINE
  8
OBJECT
 62
     7
 66
     1
 10
0.0
 20
0.0
 30
0.0
  0
VERTEX
  8
OBJECT
 62
     7
 10
19.622014
 20
26.191853
 30
0.0
  0
VERTEX
  8
OBJECT
 62
     7
 10
19.966014
 20
26.191853
 30
0.0
  0
VERTEX
  8
OBJECT
 62
     7
 10
19.966014
 20
26.535853
 30
0.0
  0
VERTEX
  8
OBJECT
 62
     7
 10
19.622014
 20
26.535853
 30
0.0
  0
VERTEX
  8
OBJECT
 62
     7
 10
19.622014
 20
26.191853
 30
0.0
  0
SEQEND
  8
OBJECT
 62
     7
  0
POLYLINE
  8
OBJECT
 62
     7
 66
     1
 10
0.0
 20
0.0
 30
0.0
  0
VERTEX
  8
OBJECT
 62
     7
 10
20.247014
 20
26.191853
 30
0.0
  0
VERTEX
  8
OBJECT
 62
     7
 10
20.591014
 20
26.191853
 30
0.0
  0
VERTEX
  8
OBJECT
 62
     7
 10
20.591014
 20
26.535853
 30
0.0
  0
VERTEX
  8
OBJECT
 62
     7
 10
20.247014
 20
26.535853
 30
0.0
  0
VERTEX
  8
OBJECT
 62
     7
 10
20.247014
 20
26.191853
 30
0.0
  0
SEQEND
  8
OBJECT
 62
     7
  0
POLYLINE
  8
OBJECT
 62
     7
 66
     1
 10
0.0
 20
0.0
 30
0.0
  0
VERTEX
  8
OBJECT
 62
     7
 10
20.872014
 20
26.191853
 30
0.0
  0
VERTEX
  8
OBJECT
 62
     7
 10
21.216014
 20
26.191853
 30
0.0
  0
VERTEX
  8
OBJECT
 62
     7
 10
21.216014
 20
26.535853
 30
0.0
  0
VERTEX
  8
OBJECT
 62
     7
 10
20.872014
 20
26.535853
 30
0.0
  0
VERTEX
  8
OBJECT
 62
     7
 10
20.872014
 20
26.191853
 30
0.0
  0
SEQEND
  8
OBJECT
 62
     7
  0
POLYLINE
  8
OBJECT
 62
     7
 66
     1
 10
0.0
 20
0.0
 30
0.0
  0
VERTEX
  8
OBJECT
 62
     7
 10
21.372014
 20
26.191853
 30
0.0
  0
VERTEX
  8
OBJECT
 62
     7
 10
21.716014
 20
26.191853
 30
0.0
  0
VERTEX
  8
OBJECT
 62
     7
 10
21.716014
 20
26.535853
 30
0.0
  0
VERTEX
  8
OBJECT
 62
     7
 10
21.372014
 20
26.535853
 30
0.0
  0
VERTEX
  8
OBJECT
 62
     7
 10
21.372014
 20
26.191853
 30
0.0
  0
SEQEND
  8
OBJECT
 62
     7
  0
POLYLINE
  8
OBJECT
 62
     7
 66
     1
 10
0.0
 20
0.0
 30
0.0
  0
VERTEX
  8
OBJECT
 62
     7
 10
21.997014
 20
26.191853
 30
0.0
  0
VERTEX
  8
OBJECT
 62
     7
 10
22.341014
 20
26.191853
 30
0.0
  0
VERTEX
  8
OBJECT
 62
     7
 10
22.341014
 20
26.535853
 30
0.0
  0
VERTEX
  8
OBJECT
 62
     7
 10
21.997014
 20
26.535853
 30
0.0
  0
VERTEX
  8
OBJECT
 62
     7
 10
21.997014
 20
26.191853
 30
0.0
  0
SEQEND
  8
OBJECT
 62
     7
  0
POLYLINE
  8
OBJECT
 62
     7
 66
     1
 10
0.0
 20
0.0
 30
0.0
  0
VERTEX
  8
OBJECT
 62
     7
 10
22.622014
 20
26.191853
 30
0.0
  0
VERTEX
  8
OBJECT
 62
     7
 10
22.966014
 20
26.191853
 30
0.0
  0
VERTEX
  8
OBJECT
 62
     7
 10
22.966014
 20
26.535853
 30
0.0
  0
VERTEX
  8
OBJECT
 62
     7
 10
22.622014
 20
26.535853
 30
0.0
  0
VERTEX
  8
OBJECT
 62
     7
 10
22.622014
 20
26.191853
 30
0.0
  0
SEQEND
  8
OBJECT
 62
     7
  0
POLYLINE
  8
OBJECT
 62
     7
 66
     1
 10
0.0
 20
0.0
 30
0.0
  0
VERTEX
  8
OBJECT
 62
     7
 10
23.122014
 20
26.191853
 30
0.0
  0
VERTEX
  8
OBJECT
 62
     7
 10
23.466014
 20
26.191853
 30
0.0
  0
VERTEX
  8
OBJECT
 62
     7
 10
23.466014
 20
26.535853
 30
0.0
  0
VERTEX
  8
OBJECT
 62
     7
 10
23.122014
 20
26.535853
 30
0.0
  0
VERTEX
  8
OBJECT
 62
     7
 10
23.122014
 20
26.191853
 30
0.0
  0
SEQEND
  8
OBJECT
 62
     7
  0
POLYLINE
  8
OBJECT
 62
     7
 66
     1
 10
0.0
 20
0.0
 30
0.0
  0
VERTEX
  8
OBJECT
 62
     7
 10
23.747014
 20
26.191853
 30
0.0
  0
VERTEX
  8
OBJECT
 62
     7
 10
24.091014
 20
26.191853
 30
0.0
  0
VERTEX
  8
OBJECT
 62
     7
 10
24.091014
 20
26.535853
 30
0.0
  0
VERTEX
  8
OBJECT
 62
     7
 10
23.747014
 20
26.535853
 30
0.0
  0
VERTEX
  8
OBJECT
 62
     7
 10
23.747014
 20
26.191853
 30
0.0
  0
SEQEND
  8
OBJECT
 62
     7
  0
POLYLINE
  8
OBJECT
 62
     7
 66
     1
 10
0.0
 20
0.0
 30
0.0
  0
VERTEX
  8
OBJECT
 62
     7
 10
24.372014
 20
26.191853
 30
0.0
  0
VERTEX
  8
OBJECT
 62
     7
 10
24.716014
 20
26.191853
 30
0.0
  0
VERTEX
  8
OBJECT
 62
     7
 10
24.716014
 20
26.535853
 30
0.0
  0
VERTEX
  8
OBJECT
 62
     7
 10
24.372014
 20
26.535853
 30
0.0
  0
VERTEX
  8
OBJECT
 62
     7
 10
24.372014
 20
26.191853
 30
0.0
  0
SEQEND
  8
OBJECT
 62
     7
  0
POLYLINE
  8
OBJECT
 62
     7
 66
     1
 10
0.0
 20
0.0
 30
0.0
  0
VERTEX
  8
OBJECT
 62
     7
 10
24.872014
 20
26.191853
 30
0.0
  0
VERTEX
  8
OBJECT
 62
     7
 10
25.216014
 20
26.191853
 30
0.0
  0
VERTEX
  8
OBJECT
 62
     7
 10
25.216014
 20
26.535853
 30
0.0
  0
VERTEX
  8
OBJECT
 62
     7
 10
24.872014
 20
26.535853
 30
0.0
  0
VERTEX
  8
OBJECT
 62
     7
 10
24.872014
 20
26.191853
 30
0.0
  0
SEQEND
  8
OBJECT
 62
     7
  0
POLYLINE
  8
OBJECT
 62
     7
 66
     1
 10
0.0
 20
0.0
 30
0.0
  0
VERTEX
  8
OBJECT
 62
     7
 10
25.497014
 20
26.191853
 30
0.0
  0
VERTEX
  8
OBJECT
 62
     7
 10
25.841014
 20
26.191853
 30
0.0
  0
VERTEX
  8
OBJECT
 62
     7
 10
25.841014
 20
26.535853
 30
0.0
  0
VERTEX
  8
OBJECT
 62
     7
 10
25.497014
 20
26.535853
 30
0.0
  0
VERTEX
  8
OBJECT
 62
     7
 10
25.497014
 20
26.191853
 30
0.0
  0
SEQEND
  8
OBJECT
 62
     7
  0
POLYLINE
  8
OBJECT
 62
     7
 66
     1
 10
0.0
 20
0.0
 30
0.0
  0
VERTEX
  8
OBJECT
 62
     7
 10
26.122014
 20
26.191853
 30
0.0
  0
VERTEX
  8
OBJECT
 62
     7
 10
26.466014
 20
26.191853
 30
0.0
  0
VERTEX
  8
OBJECT
 62
     7
 10
26.466014
 20
26.535853
 30
0.0
  0
VERTEX
  8
OBJECT
 62
     7
 10
26.122014
 20
26.535853
 30
0.0
  0
VERTEX
  8
OBJECT
 62
     7
 10
26.122014
 20
26.191853
 30
0.0
  0
SEQEND
  8
OBJECT
 62
     7
  0
POLYLINE
  8
OBJECT
 62
     7
 66
     1
 10
0.0
 20
0.0
 30
0.0
  0
VERTEX
  8
OBJECT
 62
     7
 10
26.622014
 20
26.191853
 30
0.0
  0
VERTEX
  8
OBJECT
 62
     7
 10
26.966014
 20
26.191853
 30
0.0
  0
VERTEX
  8
OBJECT
 62
     7
 10
26.966014
 20
26.535853
 30
0.0
  0
VERTEX
  8
OBJECT
 62
     7
 10
26.622014
 20
26.535853
 30
0.0
  0
VERTEX
  8
OBJECT
 62
     7
 10
26.622014
 20
26.191853
 30
0.0
  0
SEQEND
  8
OBJECT
 62
     7
  0
POLYLINE
  8
OBJECT
 62
     7
 66
     1
 10
0.0
 20
0.0
 30
0.0
  0
VERTEX
  8
OBJECT
 62
     7
 10
27.247014
 20
26.191853
 30
0.0
  0
VERTEX
  8
OBJECT
 62
     7
 10
27.591014
 20
26.191853
 30
0.0
  0
VERTEX
  8
OBJECT
 62
     7
 10
27.591014
 20
26.535853
 30
0.0
  0
VERTEX
  8
OBJECT
 62
     7
 10
27.247014
 20
26.535853
 30
0.0
  0
VERTEX
  8
OBJECT
 62
     7
 10
27.247014
 20
26.191853
 30
0.0
  0
SEQEND
  8
OBJECT
 62
     7
  0
POLYLINE
  8
OBJECT
 62
     7
 66
     1
 10
0.0
 20
0.0
 30
0.0
  0
VERTEX
  8
OBJECT
 62
     7
 10
27.872014
 20
26.191853
 30
0.0
  0
VERTEX
  8
OBJECT
 62
     7
 10
28.216014
 20
26.191853
 30
0.0
  0
VERTEX
  8
OBJECT
 62
     7
 10
28.216014
 20
26.535853
 30
0.0
  0
VERTEX
  8
OBJECT
 62
     7
 10
27.872014
 20
26.535853
 30
0.0
  0
VERTEX
  8
OBJECT
 62
     7
 10
27.872014
 20
26.191853
 30
0.0
  0
SEQEND
  8
OBJECT
 62
     7
  0
POLYLINE
  8
OBJECT
 62
     7
 66
     1
 10
0.0
 20
0.0
 30
0.0
  0
VERTEX
  8
OBJECT
 62
     7
 10
28.372014
 20
26.191853
 30
0.0
  0
VERTEX
  8
OBJECT
 62
     7
 10
28.716014
 20
26.191853
 30
0.0
  0
VERTEX
  8
OBJECT
 62
     7
 10
28.716014
 20
26.535853
 30
0.0
  0
VERTEX
  8
OBJECT
 62
     7
 10
28.372014
 20
26.535853
 30
0.0
  0
VERTEX
  8
OBJECT
 62
     7
 10
28.372014
 20
26.191853
 30
0.0
  0
SEQEND
  8
OBJECT
 62
     7
  0
POLYLINE
  8
OBJECT
 62
     7
 66
     1
 10
0.0
 20
0.0
 30
0.0
  0
VERTEX
  8
OBJECT
 62
     7
 10
28.997014
 20
26.191853
 30
0.0
  0
VERTEX
  8
OBJECT
 62
     7
 10
29.341014
 20
26.191853
 30
0.0
  0
VERTEX
  8
OBJECT
 62
     7
 10
29.341014
 20
26.535853
 30
0.0
  0
VERTEX
  8
OBJECT
 62
     7
 10
28.997014
 20
26.535853
 30
0.0
  0
VERTEX
  8
OBJECT
 62
     7
 10
28.997014
 20
26.191853
 30
0.0
  0
SEQEND
  8
OBJECT
 62
     7
  0
POLYLINE
  8
OBJECT
 62
     7
 66
     1
 10
0.0
 20
0.0
 30
0.0
  0
VERTEX
  8
OBJECT
 62
     7
 10
29.622014
 20
26.191853
 30
0.0
  0
VERTEX
  8
OBJECT
 62
     7
 10
29.966014
 20
26.191853
 30
0.0
  0
VERTEX
  8
OBJECT
 62
     7
 10
29.966014
 20
26.535853
 30
0.0
  0
VERTEX
  8
OBJECT
 62
     7
 10
29.622014
 20
26.535853
 30
0.0
  0
VERTEX
  8
OBJECT
 62
     7
 10
29.622014
 20
26.191853
 30
0.0
  0
SEQEND
  8
OBJECT
 62
     7
  0
POLYLINE
  8
OBJECT
 62
     7
 66
     1
 10
0.0
 20
0.0
 30
0.0
  0
VERTEX
  8
OBJECT
 62
     7
 10
30.122014
 20
26.191853
 30
0.0
  0
VERTEX
  8
OBJECT
 62
     7
 10
30.466014
 20
26.191853
 30
0.0
  0
VERTEX
  8
OBJECT
 62
     7
 10
30.466014
 20
26.535853
 30
0.0
  0
VERTEX
  8
OBJECT
 62
     7
 10
30.122014
 20
26.535853
 30
0.0
  0
VERTEX
  8
OBJECT
 62
     7
 10
30.122014
 20
26.191853
 30
0.0
  0
SEQEND
  8
OBJECT
 62
     7
  0
POLYLINE
  8
OBJECT
 62
     7
 66
     1
 10
0.0
 20
0.0
 30
0.0
  0
VERTEX
  8
OBJECT
 62
     7
 10
30.747014
 20
26.191853
 30
0.0
  0
VERTEX
  8
OBJECT
 62
     7
 10
31.091014
 20
26.191853
 30
0.0
  0
VERTEX
  8
OBJECT
 62
     7
 10
31.091014
 20
26.535853
 30
0.0
  0
VERTEX
  8
OBJECT
 62
     7
 10
30.747014
 20
26.535853
 30
0.0
  0
VERTEX
  8
OBJECT
 62
     7
 10
30.747014
 20
26.191853
 30
0.0
  0
SEQEND
  8
OBJECT
 62
     7
  0
POLYLINE
  8
OBJECT
 62
     7
 66
     1
 10
0.0
 20
0.0
 30
0.0
  0
VERTEX
  8
OBJECT
 62
     7
 10
31.372014
 20
26.191853
 30
0.0
  0
VERTEX
  8
OBJECT
 62
     7
 10
31.716014
 20
26.191853
 30
0.0
  0
VERTEX
  8
OBJECT
 62
     7
 10
31.716014
 20
26.535853
 30
0.0
  0
VERTEX
  8
OBJECT
 62
     7
 10
31.372014
 20
26.535853
 30
0.0
  0
VERTEX
  8
OBJECT
 62
     7
 10
31.372014
 20
26.191853
 30
0.0
  0
SEQEND
  8
OBJECT
 62
     7
  0
POLYLINE
  8
OBJECT
 62
     7
 66
     1
 10
0.0
 20
0.0
 30
0.0
  0
VERTEX
  8
OBJECT
 62
     7
 10
31.872014
 20
26.191853
 30
0.0
  0
VERTEX
  8
OBJECT
 62
     7
 10
32.216014
 20
26.191853
 30
0.0
  0
VERTEX
  8
OBJECT
 62
     7
 10
32.216014
 20
26.535853
 30
0.0
  0
VERTEX
  8
OBJECT
 62
     7
 10
31.872014
 20
26.535853
 30
0.0
  0
VERTEX
  8
OBJECT
 62
     7
 10
31.872014
 20
26.191853
 30
0.0
  0
SEQEND
  8
OBJECT
 62
     7
  0
POLYLINE
  8
OBJECT
 62
     7
 66
     1
 10
0.0
 20
0.0
 30
0.0
  0
VERTEX
  8
OBJECT
 62
     7
 10
32.497014
 20
26.191853
 30
0.0
  0
VERTEX
  8
OBJECT
 62
     7
 10
32.841014
 20
26.191853
 30
0.0
  0
VERTEX
  8
OBJECT
 62
     7
 10
32.841014
 20
26.535853
 30
0.0
  0
VERTEX
  8
OBJECT
 62
     7
 10
32.497014
 20
26.535853
 30
0.0
  0
VERTEX
  8
OBJECT
 62
     7
 10
32.497014
 20
26.191853
 30
0.0
  0
SEQEND
  8
OBJECT
 62
     7
  0
POLYLINE
  8
OBJECT
 62
     7
 66
     1
 10
0.0
 20
0.0
 30
0.0
  0
VERTEX
  8
OBJECT
 62
     7
 10
33.122014
 20
26.191853
 30
0.0
  0
VERTEX
  8
OBJECT
 62
     7
 10
33.466014
 20
26.191853
 30
0.0
  0
VERTEX
  8
OBJECT
 62
     7
 10
33.466014
 20
26.535853
 30
0.0
  0
VERTEX
  8
OBJECT
 62
     7
 10
33.122014
 20
26.535853
 30
0.0
  0
VERTEX
  8
OBJECT
 62
     7
 10
33.122014
 20
26.191853
 30
0.0
  0
SEQEND
  8
OBJECT
 62
     7
  0
POLYLINE
  8
OBJECT
 62
     7
 66
     1
 10
0.0
 20
0.0
 30
0.0
  0
VERTEX
  8
OBJECT
 62
     7
 10
33.622014
 20
26.191853
 30
0.0
  0
VERTEX
  8
OBJECT
 62
     7
 10
33.966014
 20
26.191853
 30
0.0
  0
VERTEX
  8
OBJECT
 62
     7
 10
33.966014
 20
26.535853
 30
0.0
  0
VERTEX
  8
OBJECT
 62
     7
 10
33.622014
 20
26.535853
 30
0.0
  0
VERTEX
  8
OBJECT
 62
     7
 10
33.622014
 20
26.191853
 30
0.0
  0
SEQEND
  8
OBJECT
 62
     7
  0
POLYLINE
  8
OBJECT
 62
     7
 66
     1
 10
0.0
 20
0.0
 30
0.0
  0
VERTEX
  8
OBJECT
 62
     7
 10
34.247014
 20
26.191853
 30
0.0
  0
VERTEX
  8
OBJECT
 62
     7
 10
34.591014
 20
26.191853
 30
0.0
  0
VERTEX
  8
OBJECT
 62
     7
 10
34.591014
 20
26.535853
 30
0.0
  0
VERTEX
  8
OBJECT
 62
     7
 10
34.247014
 20
26.535853
 30
0.0
  0
VERTEX
  8
OBJECT
 62
     7
 10
34.247014
 20
26.191853
 30
0.0
  0
SEQEND
  8
OBJECT
 62
     7
  0
POLYLINE
  8
OBJECT
 62
     7
 66
     1
 10
0.0
 20
0.0
 30
0.0
  0
VERTEX
  8
OBJECT
 62
     7
 10
34.872014
 20
26.191853
 30
0.0
  0
VERTEX
  8
OBJECT
 62
     7
 10
35.216014
 20
26.191853
 30
0.0
  0
VERTEX
  8
OBJECT
 62
     7
 10
35.216014
 20
26.535853
 30
0.0
  0
VERTEX
  8
OBJECT
 62
     7
 10
34.872014
 20
26.535853
 30
0.0
  0
VERTEX
  8
OBJECT
 62
     7
 10
34.872014
 20
26.191853
 30
0.0
  0
SEQEND
  8
OBJECT
 62
     7
  0
POLYLINE
  8
OBJECT
 62
     7
 66
     1
 10
0.0
 20
0.0
 30
0.0
  0
VERTEX
  8
OBJECT
 62
     7
 10
35.372014
 20
26.191853
 30
0.0
  0
VERTEX
  8
OBJECT
 62
     7
 10
35.716014
 20
26.191853
 30
0.0
  0
VERTEX
  8
OBJECT
 62
     7
 10
35.716014
 20
26.535853
 30
0.0
  0
VERTEX
  8
OBJECT
 62
     7
 10
35.372014
 20
26.535853
 30
0.0
  0
VERTEX
  8
OBJECT
 62
     7
 10
35.372014
 20
26.191853
 30
0.0
  0
SEQEND
  8
OBJECT
 62
     7
  0
POLYLINE
  8
OBJECT
 62
     7
 66
     1
 10
0.0
 20
0.0
 30
0.0
  0
VERTEX
  8
OBJECT
 62
     7
 10
35.997014
 20
26.191853
 30
0.0
  0
VERTEX
  8
OBJECT
 62
     7
 10
36.341014
 20
26.191853
 30
0.0
  0
VERTEX
  8
OBJECT
 62
     7
 10
36.341014
 20
26.535853
 30
0.0
  0
VERTEX
  8
OBJECT
 62
     7
 10
35.997014
 20
26.535853
 30
0.0
  0
VERTEX
  8
OBJECT
 62
     7
 10
35.997014
 20
26.191853
 30
0.0
  0
SEQEND
  8
OBJECT
 62
     7
  0
POLYLINE
  8
OBJECT
 62
     7
 66
     1
 10
0.0
 20
0.0
 30
0.0
  0
VERTEX
  8
OBJECT
 62
     7
 10
36.622014
 20
26.191853
 30
0.0
  0
VERTEX
  8
OBJECT
 62
     7
 10
36.966014
 20
26.191853
 30
0.0
  0
VERTEX
  8
OBJECT
 62
     7
 10
36.966014
 20
26.535853
 30
0.0
  0
VERTEX
  8
OBJECT
 62
     7
 10
36.622014
 20
26.535853
 30
0.0
  0
VERTEX
  8
OBJECT
 62
     7
 10
36.622014
 20
26.191853
 30
0.0
  0
SEQEND
  8
OBJECT
 62
     7
  0
POLYLINE
  8
OBJECT
 62
     7
 66
     1
 10
0.0
 20
0.0
 30
0.0
  0
VERTEX
  8
OBJECT
 62
     7
 10
37.122014
 20
26.191853
 30
0.0
  0
VERTEX
  8
OBJECT
 62
     7
 10
37.466014
 20
26.191853
 30
0.0
  0
VERTEX
  8
OBJECT
 62
     7
 10
37.466014
 20
26.535853
 30
0.0
  0
VERTEX
  8
OBJECT
 62
     7
 10
37.122014
 20
26.535853
 30
0.0
  0
VERTEX
  8
OBJECT
 62
     7
 10
37.122014
 20
26.191853
 30
0.0
  0
SEQEND
  8
OBJECT
 62
     7
  0
POLYLINE
  8
OBJECT
 62
     7
 66
     1
 10
0.0
 20
0.0
 30
0.0
  0
VERTEX
  8
OBJECT
 62
     7
 10
37.747014
 20
26.191853
 30
0.0
  0
VERTEX
  8
OBJECT
 62
     7
 10
38.091014
 20
26.191853
 30
0.0
  0
VERTEX
  8
OBJECT
 62
     7
 10
38.091014
 20
26.535853
 30
0.0
  0
VERTEX
  8
OBJECT
 62
     7
 10
37.747014
 20
26.535853
 30
0.0
  0
VERTEX
  8
OBJECT
 62
     7
 10
37.747014
 20
26.191853
 30
0.0
  0
SEQEND
  8
OBJECT
 62
     7
  0
POLYLINE
  8
OBJECT
 62
     7
 66
     1
 10
0.0
 20
0.0
 30
0.0
  0
VERTEX
  8
OBJECT
 62
     7
 10
38.372014
 20
26.191853
 30
0.0
  0
VERTEX
  8
OBJECT
 62
     7
 10
38.716014
 20
26.191853
 30
0.0
  0
VERTEX
  8
OBJECT
 62
     7
 10
38.716014
 20
26.535853
 30
0.0
  0
VERTEX
  8
OBJECT
 62
     7
 10
38.372014
 20
26.535853
 30
0.0
  0
VERTEX
  8
OBJECT
 62
     7
 10
38.372014
 20
26.191853
 30
0.0
  0
SEQEND
  8
OBJECT
 62
     7
  0
POLYLINE
  8
OBJECT
 62
     7
 66
     1
 10
0.0
 20
0.0
 30
0.0
  0
VERTEX
  8
OBJECT
 62
     7
 10
38.872014
 20
26.191853
 30
0.0
  0
VERTEX
  8
OBJECT
 62
     7
 10
39.216014
 20
26.191853
 30
0.0
  0
VERTEX
  8
OBJECT
 62
     7
 10
39.216014
 20
26.535853
 30
0.0
  0
VERTEX
  8
OBJECT
 62
     7
 10
38.872014
 20
26.535853
 30
0.0
  0
VERTEX
  8
OBJECT
 62
     7
 10
38.872014
 20
26.191853
 30
0.0
  0
SEQEND
  8
OBJECT
 62
     7
  0
POLYLINE
  8
OBJECT
 62
     7
 66
     1
 10
0.0
 20
0.0
 30
0.0
  0
VERTEX
  8
OBJECT
 62
     7
 10
39.497014
 20
26.191853
 30
0.0
  0
VERTEX
  8
OBJECT
 62
     7
 10
39.841014
 20
26.191853
 30
0.0
  0
VERTEX
  8
OBJECT
 62
     7
 10
39.841014
 20
26.535853
 30
0.0
  0
VERTEX
  8
OBJECT
 62
     7
 10
39.497014
 20
26.535853
 30
0.0
  0
VERTEX
  8
OBJECT
 62
     7
 10
39.497014
 20
26.191853
 30
0.0
  0
SEQEND
  8
OBJECT
 62
     7
  0
POLYLINE
  8
OBJECT
 62
     7
 66
     1
 10
0.0
 20
0.0
 30
0.0
  0
VERTEX
  8
OBJECT
 62
     7
 10
40.122014
 20
26.191853
 30
0.0
  0
VERTEX
  8
OBJECT
 62
     7
 10
40.466014
 20
26.191853
 30
0.0
  0
VERTEX
  8
OBJECT
 62
     7
 10
40.466014
 20
26.535853
 30
0.0
  0
VERTEX
  8
OBJECT
 62
     7
 10
40.122014
 20
26.535853
 30
0.0
  0
VERTEX
  8
OBJECT
 62
     7
 10
40.122014
 20
26.191853
 30
0.0
  0
SEQEND
  8
OBJECT
 62
     7
  0
POLYLINE
  8
OBJECT
 62
     7
 66
     1
 10
0.0
 20
0.0
 30
0.0
  0
VERTEX
  8
OBJECT
 62
     7
 10
40.622014
 20
26.191853
 30
0.0
  0
VERTEX
  8
OBJECT
 62
     7
 10
40.966014
 20
26.191853
 30
0.0
  0
VERTEX
  8
OBJECT
 62
     7
 10
40.966014
 20
26.535853
 30
0.0
  0
VERTEX
  8
OBJECT
 62
     7
 10
40.622014
 20
26.535853
 30
0.0
  0
VERTEX
  8
OBJECT
 62
     7
 10
40.622014
 20
26.191853
 30
0.0
  0
SEQEND
  8
OBJECT
 62
     7
  0
POLYLINE
  8
OBJECT
 62
     7
 66
     1
 10
0.0
 20
0.0
 30
0.0
  0
VERTEX
  8
OBJECT
 62
     7
 10
41.247014
 20
26.191853
 30
0.0
  0
VERTEX
  8
OBJECT
 62
     7
 10
41.591014
 20
26.191853
 30
0.0
  0
VERTEX
  8
OBJECT
 62
     7
 10
41.591014
 20
26.535853
 30
0.0
  0
VERTEX
  8
OBJECT
 62
     7
 10
41.247014
 20
26.535853
 30
0.0
  0
VERTEX
  8
OBJECT
 62
     7
 10
41.247014
 20
26.191853
 30
0.0
  0
SEQEND
  8
OBJECT
 62
     7
  0
POLYLINE
  8
OBJECT
 62
     7
 66
     1
 10
0.0
 20
0.0
 30
0.0
  0
VERTEX
  8
OBJECT
 62
     7
 10
41.872014
 20
26.191853
 30
0.0
  0
VERTEX
  8
OBJECT
 62
     7
 10
42.216014
 20
26.191853
 30
0.0
  0
VERTEX
  8
OBJECT
 62
     7
 10
42.216014
 20
26.535853
 30
0.0
  0
VERTEX
  8
OBJECT
 62
     7
 10
41.872014
 20
26.535853
 30
0.0
  0
VERTEX
  8
OBJECT
 62
     7
 10
41.872014
 20
26.191853
 30
0.0
  0
SEQEND
  8
OBJECT
 62
     7
  0
POLYLINE
  8
OBJECT
 62
     7
 66
     1
 10
0.0
 20
0.0
 30
0.0
  0
VERTEX
  8
OBJECT
 62
     7
 10
42.372014
 20
26.191853
 30
0.0
  0
VERTEX
  8
OBJECT
 62
     7
 10
42.716014
 20
26.191853
 30
0.0
  0
VERTEX
  8
OBJECT
 62
     7
 10
42.716014
 20
26.535853
 30
0.0
  0
VERTEX
  8
OBJECT
 62
     7
 10
42.372014
 20
26.535853
 30
0.0
  0
VERTEX
  8
OBJECT
 62
     7
 10
42.372014
 20
26.191853
 30
0.0
  0
SEQEND
  8
OBJECT
 62
     7
  0
POLYLINE
  8
OBJECT
 62
     7
 66
     1
 10
0.0
 20
0.0
 30
0.0
  0
VERTEX
  8
OBJECT
 62
     7
 10
42.997014
 20
26.191853
 30
0.0
  0
VERTEX
  8
OBJECT
 62
     7
 10
43.341014
 20
26.191853
 30
0.0
  0
VERTEX
  8
OBJECT
 62
     7
 10
43.341014
 20
26.535853
 30
0.0
  0
VERTEX
  8
OBJECT
 62
     7
 10
42.997014
 20
26.535853
 30
0.0
  0
VERTEX
  8
OBJECT
 62
     7
 10
42.997014
 20
26.191853
 30
0.0
  0
SEQEND
  8
OBJECT
 62
     7
  0
POLYLINE
  8
OBJECT
 62
     7
 66
     1
 10
0.0
 20
0.0
 30
0.0
  0
VERTEX
  8
OBJECT
 62
     7
 10
43.622014
 20
26.191853
 30
0.0
  0
VERTEX
  8
OBJECT
 62
     7
 10
43.966014
 20
26.191853
 30
0.0
  0
VERTEX
  8
OBJECT
 62
     7
 10
43.966014
 20
26.535853
 30
0.0
  0
VERTEX
  8
OBJECT
 62
     7
 10
43.622014
 20
26.535853
 30
0.0
  0
VERTEX
  8
OBJECT
 62
     7
 10
43.622014
 20
26.191853
 30
0.0
  0
SEQEND
  8
OBJECT
 62
     7
  0
POLYLINE
  8
OBJECT
 62
     7
 66
     1
 10
0.0
 20
0.0
 30
0.0
  0
VERTEX
  8
OBJECT
 62
     7
 10
44.122014
 20
26.191853
 30
0.0
  0
VERTEX
  8
OBJECT
 62
     7
 10
44.466014
 20
26.191853
 30
0.0
  0
VERTEX
  8
OBJECT
 62
     7
 10
44.466014
 20
26.535853
 30
0.0
  0
VERTEX
  8
OBJECT
 62
     7
 10
44.122014
 20
26.535853
 30
0.0
  0
VERTEX
  8
OBJECT
 62
     7
 10
44.122014
 20
26.191853
 30
0.0
  0
SEQEND
  8
OBJECT
 62
     7
  0
POLYLINE
  8
OBJECT
 62
     7
 66
     1
 10
0.0
 20
0.0
 30
0.0
  0
VERTEX
  8
OBJECT
 62
     7
 10
44.747014
 20
26.191853
 30
0.0
  0
VERTEX
  8
OBJECT
 62
     7
 10
45.091014
 20
26.191853
 30
0.0
  0
VERTEX
  8
OBJECT
 62
     7
 10
45.091014
 20
26.535853
 30
0.0
  0
VERTEX
  8
OBJECT
 62
     7
 10
44.747014
 20
26.535853
 30
0.0
  0
VERTEX
  8
OBJECT
 62
     7
 10
44.747014
 20
26.191853
 30
0.0
  0
SEQEND
  8
OBJECT
 62
     7
  0
POLYLINE
  8
OBJECT
 62
     7
 66
     1
 10
0.0
 20
0.0
 30
0.0
  0
VERTEX
  8
OBJECT
 62
     7
 10
45.372014
 20
26.191853
 30
0.0
  0
VERTEX
  8
OBJECT
 62
     7
 10
45.716014
 20
26.191853
 30
0.0
  0
VERTEX
  8
OBJECT
 62
     7
 10
45.716014
 20
26.535853
 30
0.0
  0
VERTEX
  8
OBJECT
 62
     7
 10
45.372014
 20
26.535853
 30
0.0
  0
VERTEX
  8
OBJECT
 62
     7
 10
45.372014
 20
26.191853
 30
0.0
  0
SEQEND
  8
OBJECT
 62
     7
  0
POLYLINE
  8
OBJECT
 62
     7
 66
     1
 10
0.0
 20
0.0
 30
0.0
  0
VERTEX
  8
OBJECT
 62
     7
 10
45.872014
 20
26.191853
 30
0.0
  0
VERTEX
  8
OBJECT
 62
     7
 10
46.216014
 20
26.191853
 30
0.0
  0
VERTEX
  8
OBJECT
 62
     7
 10
46.216014
 20
26.535853
 30
0.0
  0
VERTEX
  8
OBJECT
 62
     7
 10
45.872014
 20
26.535853
 30
0.0
  0
VERTEX
  8
OBJECT
 62
     7
 10
45.872014
 20
26.191853
 30
0.0
  0
SEQEND
  8
OBJECT
 62
     7
  0
POLYLINE
  8
OBJECT
 62
     7
 66
     1
 10
0.0
 20
0.0
 30
0.0
  0
VERTEX
  8
OBJECT
 62
     7
 10
46.497014
 20
26.191853
 30
0.0
  0
VERTEX
  8
OBJECT
 62
     7
 10
46.841014
 20
26.191853
 30
0.0
  0
VERTEX
  8
OBJECT
 62
     7
 10
46.841014
 20
26.535853
 30
0.0
  0
VERTEX
  8
OBJECT
 62
     7
 10
46.497014
 20
26.535853
 30
0.0
  0
VERTEX
  8
OBJECT
 62
     7
 10
46.497014
 20
26.191853
 30
0.0
  0
SEQEND
  8
OBJECT
 62
     7
  0
POLYLINE
  8
OBJECT
 62
     7
 66
     1
 10
0.0
 20
0.0
 30
0.0
  0
VERTEX
  8
OBJECT
 62
     7
 10
47.122014
 20
26.191853
 30
0.0
  0
VERTEX
  8
OBJECT
 62
     7
 10
47.466014
 20
26.191853
 30
0.0
  0
VERTEX
  8
OBJECT
 62
     7
 10
47.466014
 20
26.535853
 30
0.0
  0
VERTEX
  8
OBJECT
 62
     7
 10
47.122014
 20
26.535853
 30
0.0
  0
VERTEX
  8
OBJECT
 62
     7
 10
47.122014
 20
26.191853
 30
0.0
  0
SEQEND
  8
OBJECT
 62
     7
  0
POLYLINE
  8
OBJECT
 62
     7
 66
     1
 10
0.0
 20
0.0
 30
0.0
  0
VERTEX
  8
OBJECT
 62
     7
 10
47.622014
 20
26.191853
 30
0.0
  0
VERTEX
  8
OBJECT
 62
     7
 10
47.966014
 20
26.191853
 30
0.0
  0
VERTEX
  8
OBJECT
 62
     7
 10
47.966014
 20
26.535853
 30
0.0
  0
VERTEX
  8
OBJECT
 62
     7
 10
47.622014
 20
26.535853
 30
0.0
  0
VERTEX
  8
OBJECT
 62
     7
 10
47.622014
 20
26.191853
 30
0.0
  0
SEQEND
  8
OBJECT
 62
     7
  0
POLYLINE
  8
OBJECT
 62
     7
 66
     1
 10
0.0
 20
0.0
 30
0.0
  0
VERTEX
  8
OBJECT
 62
     7
 10
48.247014
 20
26.191853
 30
0.0
  0
VERTEX
  8
OBJECT
 62
     7
 10
48.591014
 20
26.191853
 30
0.0
  0
VERTEX
  8
OBJECT
 62
     7
 10
48.591014
 20
26.535853
 30
0.0
  0
VERTEX
  8
OBJECT
 62
     7
 10
48.247014
 20
26.535853
 30
0.0
  0
VERTEX
  8
OBJECT
 62
     7
 10
48.247014
 20
26.191853
 30
0.0
  0
SEQEND
  8
OBJECT
 62
     7
  0
POLYLINE
  8
OBJECT
 62
     7
 66
     1
 10
0.0
 20
0.0
 30
0.0
  0
VERTEX
  8
OBJECT
 62
     7
 10
48.872014
 20
26.191853
 30
0.0
  0
VERTEX
  8
OBJECT
 62
     7
 10
49.216014
 20
26.191853
 30
0.0
  0
VERTEX
  8
OBJECT
 62
     7
 10
49.216014
 20
26.535853
 30
0.0
  0
VERTEX
  8
OBJECT
 62
     7
 10
48.872014
 20
26.535853
 30
0.0
  0
VERTEX
  8
OBJECT
 62
     7
 10
48.872014
 20
26.191853
 30
0.0
  0
SEQEND
  8
OBJECT
 62
     7
  0
POLYLINE
  8
OBJECT
 62
     7
 66
     1
 10
0.0
 20
0.0
 30
0.0
  0
VERTEX
  8
OBJECT
 62
     7
 10
49.372014
 20
26.191853
 30
0.0
  0
VERTEX
  8
OBJECT
 62
     7
 10
49.716014
 20
26.191853
 30
0.0
  0
VERTEX
  8
OBJECT
 62
     7
 10
49.716014
 20
26.535853
 30
0.0
  0
VERTEX
  8
OBJECT
 62
     7
 10
49.372014
 20
26.535853
 30
0.0
  0
VERTEX
  8
OBJECT
 62
     7
 10
49.372014
 20
26.191853
 30
0.0
  0
SEQEND
  8
OBJECT
 62
     7
  0
POLYLINE
  8
OBJECT
 62
     7
 66
     1
 10
0.0
 20
0.0
 30
0.0
  0
VERTEX
  8
OBJECT
 62
     7
 10
49.997014
 20
26.191853
 30
0.0
  0
VERTEX
  8
OBJECT
 62
     7
 10
50.341014
 20
26.191853
 30
0.0
  0
VERTEX
  8
OBJECT
 62
     7
 10
50.341014
 20
26.535853
 30
0.0
  0
VERTEX
  8
OBJECT
 62
     7
 10
49.997014
 20
26.535853
 30
0.0
  0
VERTEX
  8
OBJECT
 62
     7
 10
49.997014
 20
26.191853
 30
0.0
  0
SEQEND
  8
OBJECT
 62
     7
  0
POLYLINE
  8
OBJECT
 62
     7
 66
     1
 10
0.0
 20
0.0
 30
0.0
  0
VERTEX
  8
OBJECT
 62
     7
 10
50.622014
 20
26.191853
 30
0.0
  0
VERTEX
  8
OBJECT
 62
     7
 10
50.966014
 20
26.191853
 30
0.0
  0
VERTEX
  8
OBJECT
 62
     7
 10
50.966014
 20
26.535853
 30
0.0
  0
VERTEX
  8
OBJECT
 62
     7
 10
50.622014
 20
26.535853
 30
0.0
  0
VERTEX
  8
OBJECT
 62
     7
 10
50.622014
 20
26.191853
 30
0.0
  0
SEQEND
  8
OBJECT
 62
     7
  0
POLYLINE
  8
OBJECT
 62
     7
 66
     1
 10
0.0
 20
0.0
 30
0.0
  0
VERTEX
  8
OBJECT
 62
     7
 10
51.122014
 20
26.191853
 30
0.0
  0
VERTEX
  8
OBJECT
 62
     7
 10
51.466014
 20
26.191853
 30
0.0
  0
VERTEX
  8
OBJECT
 62
     7
 10
51.466014
 20
26.535853
 30
0.0
  0
VERTEX
  8
OBJECT
 62
     7
 10
51.122014
 20
26.535853
 30
0.0
  0
VERTEX
  8
OBJECT
 62
     7
 10
51.122014
 20
26.191853
 30
0.0
  0
SEQEND
  8
OBJECT
 62
     7
  0
POLYLINE
  8
OBJECT
 62
     7
 66
     1
 10
0.0
 20
0.0
 30
0.0
  0
VERTEX
  8
OBJECT
 62
     7
 10
51.747014
 20
26.191853
 30
0.0
  0
VERTEX
  8
OBJECT
 62
     7
 10
52.091014
 20
26.191853
 30
0.0
  0
VERTEX
  8
OBJECT
 62
     7
 10
52.091014
 20
26.535853
 30
0.0
  0
VERTEX
  8
OBJECT
 62
     7
 10
51.747014
 20
26.535853
 30
0.0
  0
VERTEX
  8
OBJECT
 62
     7
 10
51.747014
 20
26.191853
 30
0.0
  0
SEQEND
  8
OBJECT
 62
     7
  0
POLYLINE
  8
OBJECT
 62
     7
 66
     1
 10
0.0
 20
0.0
 30
0.0
  0
VERTEX
  8
OBJECT
 62
     7
 10
52.372014
 20
26.191853
 30
0.0
  0
VERTEX
  8
OBJECT
 62
     7
 10
52.716014
 20
26.191853
 30
0.0
  0
VERTEX
  8
OBJECT
 62
     7
 10
52.716014
 20
26.535853
 30
0.0
  0
VERTEX
  8
OBJECT
 62
     7
 10
52.372014
 20
26.535853
 30
0.0
  0
VERTEX
  8
OBJECT
 62
     7
 10
52.372014
 20
26.191853
 30
0.0
  0
SEQEND
  8
OBJECT
 62
     7
  0
POLYLINE
  8
OBJECT
 62
     7
 66
     1
 10
0.0
 20
0.0
 30
0.0
  0
VERTEX
  8
OBJECT
 62
     7
 10
52.872014
 20
26.191853
 30
0.0
  0
VERTEX
  8
OBJECT
 62
     7
 10
53.216014
 20
26.191853
 30
0.0
  0
VERTEX
  8
OBJECT
 62
     7
 10
53.216014
 20
26.535853
 30
0.0
  0
VERTEX
  8
OBJECT
 62
     7
 10
52.872014
 20
26.535853
 30
0.0
  0
VERTEX
  8
OBJECT
 62
     7
 10
52.872014
 20
26.191853
 30
0.0
  0
SEQEND
  8
OBJECT
 62
     7
  0
POLYLINE
  8
OBJECT
 62
     7
 66
     1
 10
0.0
 20
0.0
 30
0.0
  0
VERTEX
  8
OBJECT
 62
     7
 10
53.497014
 20
26.191853
 30
0.0
  0
VERTEX
  8
OBJECT
 62
     7
 10
53.841014
 20
26.191853
 30
0.0
  0
VERTEX
  8
OBJECT
 62
     7
 10
53.841014
 20
26.535853
 30
0.0
  0
VERTEX
  8
OBJECT
 62
     7
 10
53.497014
 20
26.535853
 30
0.0
  0
VERTEX
  8
OBJECT
 62
     7
 10
53.497014
 20
26.191853
 30
0.0
  0
SEQEND
  8
OBJECT
 62
     7
  0
POLYLINE
  8
OBJECT
 62
     7
 66
     1
 10
0.0
 20
0.0
 30
0.0
  0
VERTEX
  8
OBJECT
 62
     7
 10
54.122014
 20
26.191853
 30
0.0
  0
VERTEX
  8
OBJECT
 62
     7
 10
54.466014
 20
26.191853
 30
0.0
  0
VERTEX
  8
OBJECT
 62
     7
 10
54.466014
 20
26.535853
 30
0.0
  0
VERTEX
  8
OBJECT
 62
     7
 10
54.122014
 20
26.535853
 30
0.0
  0
VERTEX
  8
OBJECT
 62
     7
 10
54.122014
 20
26.191853
 30
0.0
  0
SEQEND
  8
OBJECT
 62
     7
  0
POLYLINE
  8
OBJECT
 62
     7
 66
     1
 10
0.0
 20
0.0
 30
0.0
  0
VERTEX
  8
OBJECT
 62
     7
 10
54.622014
 20
26.191853
 30
0.0
  0
VERTEX
  8
OBJECT
 62
     7
 10
54.966014
 20
26.191853
 30
0.0
  0
VERTEX
  8
OBJECT
 62
     7
 10
54.966014
 20
26.535853
 30
0.0
  0
VERTEX
  8
OBJECT
 62
     7
 10
54.622014
 20
26.535853
 30
0.0
  0
VERTEX
  8
OBJECT
 62
     7
 10
54.622014
 20
26.191853
 30
0.0
  0
SEQEND
  8
OBJECT
 62
     7
  0
POLYLINE
  8
OBJECT
 62
     7
 66
     1
 10
0.0
 20
0.0
 30
0.0
  0
VERTEX
  8
OBJECT
 62
     7
 10
55.247014
 20
26.191853
 30
0.0
  0
VERTEX
  8
OBJECT
 62
     7
 10
55.591014
 20
26.191853
 30
0.0
  0
VERTEX
  8
OBJECT
 62
     7
 10
55.591014
 20
26.535853
 30
0.0
  0
VERTEX
  8
OBJECT
 62
     7
 10
55.247014
 20
26.535853
 30
0.0
  0
VERTEX
  8
OBJECT
 62
     7
 10
55.247014
 20
26.191853
 30
0.0
  0
SEQEND
  8
OBJECT
 62
     7
  0
POLYLINE
  8
OBJECT
 62
     7
 66
     1
 10
0.0
 20
0.0
 30
0.0
  0
VERTEX
  8
OBJECT
 62
     7
 10
55.872014
 20
26.191853
 30
0.0
  0
VERTEX
  8
OBJECT
 62
     7
 10
56.216014
 20
26.191853
 30
0.0
  0
VERTEX
  8
OBJECT
 62
     7
 10
56.216014
 20
26.535853
 30
0.0
  0
VERTEX
  8
OBJECT
 62
     7
 10
55.872014
 20
26.535853
 30
0.0
  0
VERTEX
  8
OBJECT
 62
     7
 10
55.872014
 20
26.191853
 30
0.0
  0
SEQEND
  8
OBJECT
 62
     7
  0
POLYLINE
  8
OBJECT
 62
     7
 66
     1
 10
0.0
 20
0.0
 30
0.0
  0
VERTEX
  8
OBJECT
 62
     7
 10
56.372014
 20
26.191853
 30
0.0
  0
VERTEX
  8
OBJECT
 62
     7
 10
56.716014
 20
26.191853
 30
0.0
  0
VERTEX
  8
OBJECT
 62
     7
 10
56.716014
 20
26.535853
 30
0.0
  0
VERTEX
  8
OBJECT
 62
     7
 10
56.372014
 20
26.535853
 30
0.0
  0
VERTEX
  8
OBJECT
 62
     7
 10
56.372014
 20
26.191853
 30
0.0
  0
SEQEND
  8
OBJECT
 62
     7
  0
POLYLINE
  8
OBJECT
 62
     7
 66
     1
 10
0.0
 20
0.0
 30
0.0
  0
VERTEX
  8
OBJECT
 62
     7
 10
56.997014
 20
26.191853
 30
0.0
  0
VERTEX
  8
OBJECT
 62
     7
 10
57.341014
 20
26.191853
 30
0.0
  0
VERTEX
  8
OBJECT
 62
     7
 10
57.341014
 20
26.535853
 30
0.0
  0
VERTEX
  8
OBJECT
 62
     7
 10
56.997014
 20
26.535853
 30
0.0
  0
VERTEX
  8
OBJECT
 62
     7
 10
56.997014
 20
26.191853
 30
0.0
  0
SEQEND
  8
OBJECT
 62
     7
  0
POLYLINE
  8
OBJECT
 62
     7
 66
     1
 10
0.0
 20
0.0
 30
0.0
  0
VERTEX
  8
OBJECT
 62
     7
 10
57.622014
 20
26.191853
 30
0.0
  0
VERTEX
  8
OBJECT
 62
     7
 10
57.966014
 20
26.191853
 30
0.0
  0
VERTEX
  8
OBJECT
 62
     7
 10
57.966014
 20
26.535853
 30
0.0
  0
VERTEX
  8
OBJECT
 62
     7
 10
57.622014
 20
26.535853
 30
0.0
  0
VERTEX
  8
OBJECT
 62
     7
 10
57.622014
 20
26.191853
 30
0.0
  0
SEQEND
  8
OBJECT
 62
     7
  0
POLYLINE
  8
OBJECT
 62
     7
 66
     1
 10
0.0
 20
0.0
 30
0.0
  0
VERTEX
  8
OBJECT
 62
     7
 10
58.122014
 20
26.191853
 30
0.0
  0
VERTEX
  8
OBJECT
 62
     7
 10
58.466014
 20
26.191853
 30
0.0
  0
VERTEX
  8
OBJECT
 62
     7
 10
58.466014
 20
26.535853
 30
0.0
  0
VERTEX
  8
OBJECT
 62
     7
 10
58.122014
 20
26.535853
 30
0.0
  0
VERTEX
  8
OBJECT
 62
     7
 10
58.122014
 20
26.191853
 30
0.0
  0
SEQEND
  8
OBJECT
 62
     7
  0
POLYLINE
  8
OBJECT
 62
     7
 66
     1
 10
0.0
 20
0.0
 30
0.0
  0
VERTEX
  8
OBJECT
 62
     7
 10
58.747014
 20
26.191853
 30
0.0
  0
VERTEX
  8
OBJECT
 62
     7
 10
59.091014
 20
26.191853
 30
0.0
  0
VERTEX
  8
OBJECT
 62
     7
 10
59.091014
 20
26.535853
 30
0.0
  0
VERTEX
  8
OBJECT
 62
     7
 10
58.747014
 20
26.535853
 30
0.0
  0
VERTEX
  8
OBJECT
 62
     7
 10
58.747014
 20
26.191853
 30
0.0
  0
SEQEND
  8
OBJECT
 62
     7
  0
POLYLINE
  8
OBJECT
 62
     7
 66
     1
 10
0.0
 20
0.0
 30
0.0
  0
VERTEX
  8
OBJECT
 62
     7
 10
59.372014
 20
26.191853
 30
0.0
  0
VERTEX
  8
OBJECT
 62
     7
 10
59.716014
 20
26.191853
 30
0.0
  0
VERTEX
  8
OBJECT
 62
     7
 10
59.716014
 20
26.535853
 30
0.0
  0
VERTEX
  8
OBJECT
 62
     7
 10
59.372014
 20
26.535853
 30
0.0
  0
VERTEX
  8
OBJECT
 62
     7
 10
59.372014
 20
26.191853
 30
0.0
  0
SEQEND
  8
OBJECT
 62
     7
  0
POLYLINE
  8
OBJECT
 62
     7
 66
     1
 10
0.0
 20
0.0
 30
0.0
  0
VERTEX
  8
OBJECT
 62
     7
 10
59.872014
 20
26.191853
 30
0.0
  0
VERTEX
  8
OBJECT
 62
     7
 10
60.216014
 20
26.191853
 30
0.0
  0
VERTEX
  8
OBJECT
 62
     7
 10
60.216014
 20
26.535853
 30
0.0
  0
VERTEX
  8
OBJECT
 62
     7
 10
59.872014
 20
26.535853
 30
0.0
  0
VERTEX
  8
OBJECT
 62
     7
 10
59.872014
 20
26.191853
 30
0.0
  0
SEQEND
  8
OBJECT
 62
     7
  0
POLYLINE
  8
OBJECT
 62
     7
 66
     1
 10
0.0
 20
0.0
 30
0.0
  0
VERTEX
  8
OBJECT
 62
     7
 10
60.497014
 20
26.191853
 30
0.0
  0
VERTEX
  8
OBJECT
 62
     7
 10
60.841014
 20
26.191853
 30
0.0
  0
VERTEX
  8
OBJECT
 62
     7
 10
60.841014
 20
26.535853
 30
0.0
  0
VERTEX
  8
OBJECT
 62
     7
 10
60.497014
 20
26.535853
 30
0.0
  0
VERTEX
  8
OBJECT
 62
     7
 10
60.497014
 20
26.191853
 30
0.0
  0
SEQEND
  8
OBJECT
 62
     7
  0
POLYLINE
  8
OBJECT
 62
     7
 66
     1
 10
0.0
 20
0.0
 30
0.0
  0
VERTEX
  8
OBJECT
 62
     7
 10
61.122014
 20
26.191853
 30
0.0
  0
VERTEX
  8
OBJECT
 62
     7
 10
61.466014
 20
26.191853
 30
0.0
  0
VERTEX
  8
OBJECT
 62
     7
 10
61.466014
 20
26.535853
 30
0.0
  0
VERTEX
  8
OBJECT
 62
     7
 10
61.122014
 20
26.535853
 30
0.0
  0
VERTEX
  8
OBJECT
 62
     7
 10
61.122014
 20
26.191853
 30
0.0
  0
SEQEND
  8
OBJECT
 62
     7
  0
POLYLINE
  8
OBJECT
 62
     7
 66
     1
 10
0.0
 20
0.0
 30
0.0
  0
VERTEX
  8
OBJECT
 62
     7
 10
61.622014
 20
26.191853
 30
0.0
  0
VERTEX
  8
OBJECT
 62
     7
 10
61.966014
 20
26.191853
 30
0.0
  0
VERTEX
  8
OBJECT
 62
     7
 10
61.966014
 20
26.535853
 30
0.0
  0
VERTEX
  8
OBJECT
 62
     7
 10
61.622014
 20
26.535853
 30
0.0
  0
VERTEX
  8
OBJECT
 62
     7
 10
61.622014
 20
26.191853
 30
0.0
  0
SEQEND
  8
OBJECT
 62
     7
  0
POLYLINE
  8
OBJECT
 62
     7
 66
     1
 10
0.0
 20
0.0
 30
0.0
  0
VERTEX
  8
OBJECT
 62
     7
 10
62.247014
 20
26.191853
 30
0.0
  0
VERTEX
  8
OBJECT
 62
     7
 10
62.591014
 20
26.191853
 30
0.0
  0
VERTEX
  8
OBJECT
 62
     7
 10
62.591014
 20
26.535853
 30
0.0
  0
VERTEX
  8
OBJECT
 62
     7
 10
62.247014
 20
26.535853
 30
0.0
  0
VERTEX
  8
OBJECT
 62
     7
 10
62.247014
 20
26.191853
 30
0.0
  0
SEQEND
  8
OBJECT
 62
     7
  0
POLYLINE
  8
OBJECT
 62
     7
 66
     1
 10
0.0
 20
0.0
 30
0.0
  0
VERTEX
  8
OBJECT
 62
     7
 10
62.872014
 20
26.191853
 30
0.0
  0
VERTEX
  8
OBJECT
 62
     7
 10
63.216014
 20
26.191853
 30
0.0
  0
VERTEX
  8
OBJECT
 62
     7
 10
63.216014
 20
26.535853
 30
0.0
  0
VERTEX
  8
OBJECT
 62
     7
 10
62.872014
 20
26.535853
 30
0.0
  0
VERTEX
  8
OBJECT
 62
     7
 10
62.872014
 20
26.191853
 30
0.0
  0
SEQEND
  8
OBJECT
 62
     7
  0
POLYLINE
  8
OBJECT
 62
     7
 66
     1
 10
0.0
 20
0.0
 30
0.0
  0
VERTEX
  8
OBJECT
 62
     7
 10
63.372014
 20
26.191853
 30
0.0
  0
VERTEX
  8
OBJECT
 62
     7
 10
63.716014
 20
26.191853
 30
0.0
  0
VERTEX
  8
OBJECT
 62
     7
 10
63.716014
 20
26.535853
 30
0.0
  0
VERTEX
  8
OBJECT
 62
     7
 10
63.372014
 20
26.535853
 30
0.0
  0
VERTEX
  8
OBJECT
 62
     7
 10
63.372014
 20
26.191853
 30
0.0
  0
SEQEND
  8
OBJECT
 62
     7
  0
POLYLINE
  8
OBJECT
 62
     7
 66
     1
 10
0.0
 20
0.0
 30
0.0
  0
VERTEX
  8
OBJECT
 62
     7
 10
63.997014
 20
26.191853
 30
0.0
  0
VERTEX
  8
OBJECT
 62
     7
 10
64.341014
 20
26.191853
 30
0.0
  0
VERTEX
  8
OBJECT
 62
     7
 10
64.341014
 20
26.535853
 30
0.0
  0
VERTEX
  8
OBJECT
 62
     7
 10
63.997014
 20
26.535853
 30
0.0
  0
VERTEX
  8
OBJECT
 62
     7
 10
63.997014
 20
26.191853
 30
0.0
  0
SEQEND
  8
OBJECT
 62
     7
  0
POLYLINE
  8
OBJECT
 62
     7
 66
     1
 10
0.0
 20
0.0
 30
0.0
  0
VERTEX
  8
OBJECT
 62
     7
 10
64.622014
 20
26.191853
 30
0.0
  0
VERTEX
  8
OBJECT
 62
     7
 10
64.966014
 20
26.191853
 30
0.0
  0
VERTEX
  8
OBJECT
 62
     7
 10
64.966014
 20
26.535853
 30
0.0
  0
VERTEX
  8
OBJECT
 62
     7
 10
64.622014
 20
26.535853
 30
0.0
  0
VERTEX
  8
OBJECT
 62
     7
 10
64.622014
 20
26.191853
 30
0.0
  0
SEQEND
  8
OBJECT
 62
     7
  0
POLYLINE
  8
OBJECT
 62
     7
 66
     1
 10
0.0
 20
0.0
 30
0.0
  0
VERTEX
  8
OBJECT
 62
     7
 10
65.122014
 20
26.191853
 30
0.0
  0
VERTEX
  8
OBJECT
 62
     7
 10
65.466014
 20
26.191853
 30
0.0
  0
VERTEX
  8
OBJECT
 62
     7
 10
65.466014
 20
26.535853
 30
0.0
  0
VERTEX
  8
OBJECT
 62
     7
 10
65.122014
 20
26.535853
 30
0.0
  0
VERTEX
  8
OBJECT
 62
     7
 10
65.122014
 20
26.191853
 30
0.0
  0
SEQEND
  8
OBJECT
 62
     7
  0
POLYLINE
  8
OBJECT
 62
     7
 66
     1
 10
0.0
 20
0.0
 30
0.0
  0
VERTEX
  8
OBJECT
 62
     7
 10
65.747014
 20
26.191853
 30
0.0
  0
VERTEX
  8
OBJECT
 62
     7
 10
66.091014
 20
26.191853
 30
0.0
  0
VERTEX
  8
OBJECT
 62
     7
 10
66.091014
 20
26.535853
 30
0.0
  0
VERTEX
  8
OBJECT
 62
     7
 10
65.747014
 20
26.535853
 30
0.0
  0
VERTEX
  8
OBJECT
 62
     7
 10
65.747014
 20
26.191853
 30
0.0
  0
SEQEND
  8
OBJECT
 62
     7
  0
POLYLINE
  8
OBJECT
 62
     7
 66
     1
 10
0.0
 20
0.0
 30
0.0
  0
VERTEX
  8
OBJECT
 62
     7
 10
66.372014
 20
26.191853
 30
0.0
  0
VERTEX
  8
OBJECT
 62
     7
 10
66.716014
 20
26.191853
 30
0.0
  0
VERTEX
  8
OBJECT
 62
     7
 10
66.716014
 20
26.535853
 30
0.0
  0
VERTEX
  8
OBJECT
 62
     7
 10
66.372014
 20
26.535853
 30
0.0
  0
VERTEX
  8
OBJECT
 62
     7
 10
66.372014
 20
26.191853
 30
0.0
  0
SEQEND
  8
OBJECT
 62
     7
  0
POLYLINE
  8
OBJECT
 62
     7
 66
     1
 10
0.0
 20
0.0
 30
0.0
  0
VERTEX
  8
OBJECT
 62
     7
 10
66.872014
 20
26.191853
 30
0.0
  0
VERTEX
  8
OBJECT
 62
     7
 10
67.216014
 20
26.191853
 30
0.0
  0
VERTEX
  8
OBJECT
 62
     7
 10
67.216014
 20
26.535853
 30
0.0
  0
VERTEX
  8
OBJECT
 62
     7
 10
66.872014
 20
26.535853
 30
0.0
  0
VERTEX
  8
OBJECT
 62
     7
 10
66.872014
 20
26.191853
 30
0.0
  0
SEQEND
  8
OBJECT
 62
     7
  0
POLYLINE
  8
OBJECT
 62
     7
 66
     1
 10
0.0
 20
0.0
 30
0.0
  0
VERTEX
  8
OBJECT
 62
     7
 10
67.497014
 20
26.191853
 30
0.0
  0
VERTEX
  8
OBJECT
 62
     7
 10
67.841014
 20
26.191853
 30
0.0
  0
VERTEX
  8
OBJECT
 62
     7
 10
67.841014
 20
26.535853
 30
0.0
  0
VERTEX
  8
OBJECT
 62
     7
 10
67.497014
 20
26.535853
 30
0.0
  0
VERTEX
  8
OBJECT
 62
     7
 10
67.497014
 20
26.191853
 30
0.0
  0
SEQEND
  8
OBJECT
 62
     7
  0
POLYLINE
  8
OBJECT
 62
     7
 66
     1
 10
0.0
 20
0.0
 30
0.0
  0
VERTEX
  8
OBJECT
 62
     7
 10
68.122014
 20
26.191853
 30
0.0
  0
VERTEX
  8
OBJECT
 62
     7
 10
68.466014
 20
26.191853
 30
0.0
  0
VERTEX
  8
OBJECT
 62
     7
 10
68.466014
 20
26.535853
 30
0.0
  0
VERTEX
  8
OBJECT
 62
     7
 10
68.122014
 20
26.535853
 30
0.0
  0
VERTEX
  8
OBJECT
 62
     7
 10
68.122014
 20
26.191853
 30
0.0
  0
SEQEND
  8
OBJECT
 62
     7
  0
POLYLINE
  8
OBJECT
 62
     7
 66
     1
 10
0.0
 20
0.0
 30
0.0
  0
VERTEX
  8
OBJECT
 62
     7
 10
7.372014
 20
48.987232
 30
0.0
  0
VERTEX
  8
OBJECT
 62
     7
 10
7.716014
 20
48.987232
 30
0.0
  0
VERTEX
  8
OBJECT
 62
     7
 10
7.716014
 20
49.331232
 30
0.0
  0
VERTEX
  8
OBJECT
 62
     7
 10
7.372014
 20
49.331232
 30
0.0
  0
VERTEX
  8
OBJECT
 62
     7
 10
7.372014
 20
48.987232
 30
0.0
  0
SEQEND
  8
OBJECT
 62
     7
  0
POLYLINE
  8
OBJECT
 62
     7
 66
     1
 10
0.0
 20
0.0
 30
0.0
  0
VERTEX
  8
OBJECT
 62
     7
 10
7.997014
 20
48.987232
 30
0.0
  0
VERTEX
  8
OBJECT
 62
     7
 10
8.341014
 20
48.987232
 30
0.0
  0
VERTEX
  8
OBJECT
 62
     7
 10
8.341014
 20
49.331232
 30
0.0
  0
VERTEX
  8
OBJECT
 62
     7
 10
7.997014
 20
49.331232
 30
0.0
  0
VERTEX
  8
OBJECT
 62
     7
 10
7.997014
 20
48.987232
 30
0.0
  0
SEQEND
  8
OBJECT
 62
     7
  0
POLYLINE
  8
OBJECT
 62
     7
 66
     1
 10
0.0
 20
0.0
 30
0.0
  0
VERTEX
  8
OBJECT
 62
     7
 10
8.622014
 20
48.987232
 30
0.0
  0
VERTEX
  8
OBJECT
 62
     7
 10
8.966014
 20
48.987232
 30
0.0
  0
VERTEX
  8
OBJECT
 62
     7
 10
8.966014
 20
49.331232
 30
0.0
  0
VERTEX
  8
OBJECT
 62
     7
 10
8.622014
 20
49.331232
 30
0.0
  0
VERTEX
  8
OBJECT
 62
     7
 10
8.622014
 20
48.987232
 30
0.0
  0
SEQEND
  8
OBJECT
 62
     7
  0
POLYLINE
  8
OBJECT
 62
     7
 66
     1
 10
0.0
 20
0.0
 30
0.0
  0
VERTEX
  8
OBJECT
 62
     7
 10
9.122014
 20
48.987232
 30
0.0
  0
VERTEX
  8
OBJECT
 62
     7
 10
9.466014
 20
48.987232
 30
0.0
  0
VERTEX
  8
OBJECT
 62
     7
 10
9.466014
 20
49.331232
 30
0.0
  0
VERTEX
  8
OBJECT
 62
     7
 10
9.122014
 20
49.331232
 30
0.0
  0
VERTEX
  8
OBJECT
 62
     7
 10
9.122014
 20
48.987232
 30
0.0
  0
SEQEND
  8
OBJECT
 62
     7
  0
POLYLINE
  8
OBJECT
 62
     7
 66
     1
 10
0.0
 20
0.0
 30
0.0
  0
VERTEX
  8
OBJECT
 62
     7
 10
9.747014
 20
48.987232
 30
0.0
  0
VERTEX
  8
OBJECT
 62
     7
 10
10.091014
 20
48.987232
 30
0.0
  0
VERTEX
  8
OBJECT
 62
     7
 10
10.091014
 20
49.331232
 30
0.0
  0
VERTEX
  8
OBJECT
 62
     7
 10
9.747014
 20
49.331232
 30
0.0
  0
VERTEX
  8
OBJECT
 62
     7
 10
9.747014
 20
48.987232
 30
0.0
  0
SEQEND
  8
OBJECT
 62
     7
  0
POLYLINE
  8
OBJECT
 62
     7
 66
     1
 10
0.0
 20
0.0
 30
0.0
  0
VERTEX
  8
OBJECT
 62
     7
 10
10.372014
 20
48.987232
 30
0.0
  0
VERTEX
  8
OBJECT
 62
     7
 10
10.716014
 20
48.987232
 30
0.0
  0
VERTEX
  8
OBJECT
 62
     7
 10
10.716014
 20
49.331232
 30
0.0
  0
VERTEX
  8
OBJECT
 62
     7
 10
10.372014
 20
49.331232
 30
0.0
  0
VERTEX
  8
OBJECT
 62
     7
 10
10.372014
 20
48.987232
 30
0.0
  0
SEQEND
  8
OBJECT
 62
     7
  0
POLYLINE
  8
OBJECT
 62
     7
 66
     1
 10
0.0
 20
0.0
 30
0.0
  0
VERTEX
  8
OBJECT
 62
     7
 10
10.872014
 20
48.987232
 30
0.0
  0
VERTEX
  8
OBJECT
 62
     7
 10
11.216014
 20
48.987232
 30
0.0
  0
VERTEX
  8
OBJECT
 62
     7
 10
11.216014
 20
49.331232
 30
0.0
  0
VERTEX
  8
OBJECT
 62
     7
 10
10.872014
 20
49.331232
 30
0.0
  0
VERTEX
  8
OBJECT
 62
     7
 10
10.872014
 20
48.987232
 30
0.0
  0
SEQEND
  8
OBJECT
 62
     7
  0
POLYLINE
  8
OBJECT
 62
     7
 66
     1
 10
0.0
 20
0.0
 30
0.0
  0
VERTEX
  8
OBJECT
 62
     7
 10
11.497014
 20
48.987232
 30
0.0
  0
VERTEX
  8
OBJECT
 62
     7
 10
11.841014
 20
48.987232
 30
0.0
  0
VERTEX
  8
OBJECT
 62
     7
 10
11.841014
 20
49.331232
 30
0.0
  0
VERTEX
  8
OBJECT
 62
     7
 10
11.497014
 20
49.331232
 30
0.0
  0
VERTEX
  8
OBJECT
 62
     7
 10
11.497014
 20
48.987232
 30
0.0
  0
SEQEND
  8
OBJECT
 62
     7
  0
POLYLINE
  8
OBJECT
 62
     7
 66
     1
 10
0.0
 20
0.0
 30
0.0
  0
VERTEX
  8
OBJECT
 62
     7
 10
12.122014
 20
48.987232
 30
0.0
  0
VERTEX
  8
OBJECT
 62
     7
 10
12.466014
 20
48.987232
 30
0.0
  0
VERTEX
  8
OBJECT
 62
     7
 10
12.466014
 20
49.331232
 30
0.0
  0
VERTEX
  8
OBJECT
 62
     7
 10
12.122014
 20
49.331232
 30
0.0
  0
VERTEX
  8
OBJECT
 62
     7
 10
12.122014
 20
48.987232
 30
0.0
  0
SEQEND
  8
OBJECT
 62
     7
  0
POLYLINE
  8
OBJECT
 62
     7
 66
     1
 10
0.0
 20
0.0
 30
0.0
  0
VERTEX
  8
OBJECT
 62
     7
 10
12.622014
 20
48.987232
 30
0.0
  0
VERTEX
  8
OBJECT
 62
     7
 10
12.966014
 20
48.987232
 30
0.0
  0
VERTEX
  8
OBJECT
 62
     7
 10
12.966014
 20
49.331232
 30
0.0
  0
VERTEX
  8
OBJECT
 62
     7
 10
12.622014
 20
49.331232
 30
0.0
  0
VERTEX
  8
OBJECT
 62
     7
 10
12.622014
 20
48.987232
 30
0.0
  0
SEQEND
  8
OBJECT
 62
     7
  0
POLYLINE
  8
OBJECT
 62
     7
 66
     1
 10
0.0
 20
0.0
 30
0.0
  0
VERTEX
  8
OBJECT
 62
     7
 10
13.247014
 20
48.987232
 30
0.0
  0
VERTEX
  8
OBJECT
 62
     7
 10
13.591014
 20
48.987232
 30
0.0
  0
VERTEX
  8
OBJECT
 62
     7
 10
13.591014
 20
49.331232
 30
0.0
  0
VERTEX
  8
OBJECT
 62
     7
 10
13.247014
 20
49.331232
 30
0.0
  0
VERTEX
  8
OBJECT
 62
     7
 10
13.247014
 20
48.987232
 30
0.0
  0
SEQEND
  8
OBJECT
 62
     7
  0
POLYLINE
  8
OBJECT
 62
     7
 66
     1
 10
0.0
 20
0.0
 30
0.0
  0
VERTEX
  8
OBJECT
 62
     7
 10
13.872014
 20
48.987232
 30
0.0
  0
VERTEX
  8
OBJECT
 62
     7
 10
14.216014
 20
48.987232
 30
0.0
  0
VERTEX
  8
OBJECT
 62
     7
 10
14.216014
 20
49.331232
 30
0.0
  0
VERTEX
  8
OBJECT
 62
     7
 10
13.872014
 20
49.331232
 30
0.0
  0
VERTEX
  8
OBJECT
 62
     7
 10
13.872014
 20
48.987232
 30
0.0
  0
SEQEND
  8
OBJECT
 62
     7
  0
POLYLINE
  8
OBJECT
 62
     7
 66
     1
 10
0.0
 20
0.0
 30
0.0
  0
VERTEX
  8
OBJECT
 62
     7
 10
14.372014
 20
48.987232
 30
0.0
  0
VERTEX
  8
OBJECT
 62
     7
 10
14.716014
 20
48.987232
 30
0.0
  0
VERTEX
  8
OBJECT
 62
     7
 10
14.716014
 20
49.331232
 30
0.0
  0
VERTEX
  8
OBJECT
 62
     7
 10
14.372014
 20
49.331232
 30
0.0
  0
VERTEX
  8
OBJECT
 62
     7
 10
14.372014
 20
48.987232
 30
0.0
  0
SEQEND
  8
OBJECT
 62
     7
  0
POLYLINE
  8
OBJECT
 62
     7
 66
     1
 10
0.0
 20
0.0
 30
0.0
  0
VERTEX
  8
OBJECT
 62
     7
 10
14.997014
 20
48.987232
 30
0.0
  0
VERTEX
  8
OBJECT
 62
     7
 10
15.341014
 20
48.987232
 30
0.0
  0
VERTEX
  8
OBJECT
 62
     7
 10
15.341014
 20
49.331232
 30
0.0
  0
VERTEX
  8
OBJECT
 62
     7
 10
14.997014
 20
49.331232
 30
0.0
  0
VERTEX
  8
OBJECT
 62
     7
 10
14.997014
 20
48.987232
 30
0.0
  0
SEQEND
  8
OBJECT
 62
     7
  0
POLYLINE
  8
OBJECT
 62
     7
 66
     1
 10
0.0
 20
0.0
 30
0.0
  0
VERTEX
  8
OBJECT
 62
     7
 10
15.622014
 20
48.987232
 30
0.0
  0
VERTEX
  8
OBJECT
 62
     7
 10
15.966014
 20
48.987232
 30
0.0
  0
VERTEX
  8
OBJECT
 62
     7
 10
15.966014
 20
49.331232
 30
0.0
  0
VERTEX
  8
OBJECT
 62
     7
 10
15.622014
 20
49.331232
 30
0.0
  0
VERTEX
  8
OBJECT
 62
     7
 10
15.622014
 20
48.987232
 30
0.0
  0
SEQEND
  8
OBJECT
 62
     7
  0
POLYLINE
  8
OBJECT
 62
     7
 66
     1
 10
0.0
 20
0.0
 30
0.0
  0
VERTEX
  8
OBJECT
 62
     7
 10
16.122014
 20
48.987232
 30
0.0
  0
VERTEX
  8
OBJECT
 62
     7
 10
16.466014
 20
48.987232
 30
0.0
  0
VERTEX
  8
OBJECT
 62
     7
 10
16.466014
 20
49.331232
 30
0.0
  0
VERTEX
  8
OBJECT
 62
     7
 10
16.122014
 20
49.331232
 30
0.0
  0
VERTEX
  8
OBJECT
 62
     7
 10
16.122014
 20
48.987232
 30
0.0
  0
SEQEND
  8
OBJECT
 62
     7
  0
POLYLINE
  8
OBJECT
 62
     7
 66
     1
 10
0.0
 20
0.0
 30
0.0
  0
VERTEX
  8
OBJECT
 62
     7
 10
16.747014
 20
48.987232
 30
0.0
  0
VERTEX
  8
OBJECT
 62
     7
 10
17.091014
 20
48.987232
 30
0.0
  0
VERTEX
  8
OBJECT
 62
     7
 10
17.091014
 20
49.331232
 30
0.0
  0
VERTEX
  8
OBJECT
 62
     7
 10
16.747014
 20
49.331232
 30
0.0
  0
VERTEX
  8
OBJECT
 62
     7
 10
16.747014
 20
48.987232
 30
0.0
  0
SEQEND
  8
OBJECT
 62
     7
  0
POLYLINE
  8
OBJECT
 62
     7
 66
     1
 10
0.0
 20
0.0
 30
0.0
  0
VERTEX
  8
OBJECT
 62
     7
 10
17.372014
 20
48.987232
 30
0.0
  0
VERTEX
  8
OBJECT
 62
     7
 10
17.716014
 20
48.987232
 30
0.0
  0
VERTEX
  8
OBJECT
 62
     7
 10
17.716014
 20
49.331232
 30
0.0
  0
VERTEX
  8
OBJECT
 62
     7
 10
17.372014
 20
49.331232
 30
0.0
  0
VERTEX
  8
OBJECT
 62
     7
 10
17.372014
 20
48.987232
 30
0.0
  0
SEQEND
  8
OBJECT
 62
     7
  0
POLYLINE
  8
OBJECT
 62
     7
 66
     1
 10
0.0
 20
0.0
 30
0.0
  0
VERTEX
  8
OBJECT
 62
     7
 10
17.872014
 20
48.987232
 30
0.0
  0
VERTEX
  8
OBJECT
 62
     7
 10
18.216014
 20
48.987232
 30
0.0
  0
VERTEX
  8
OBJECT
 62
     7
 10
18.216014
 20
49.331232
 30
0.0
  0
VERTEX
  8
OBJECT
 62
     7
 10
17.872014
 20
49.331232
 30
0.0
  0
VERTEX
  8
OBJECT
 62
     7
 10
17.872014
 20
48.987232
 30
0.0
  0
SEQEND
  8
OBJECT
 62
     7
  0
POLYLINE
  8
OBJECT
 62
     7
 66
     1
 10
0.0
 20
0.0
 30
0.0
  0
VERTEX
  8
OBJECT
 62
     7
 10
18.497014
 20
48.987232
 30
0.0
  0
VERTEX
  8
OBJECT
 62
     7
 10
18.841014
 20
48.987232
 30
0.0
  0
VERTEX
  8
OBJECT
 62
     7
 10
18.841014
 20
49.331232
 30
0.0
  0
VERTEX
  8
OBJECT
 62
     7
 10
18.497014
 20
49.331232
 30
0.0
  0
VERTEX
  8
OBJECT
 62
     7
 10
18.497014
 20
48.987232
 30
0.0
  0
SEQEND
  8
OBJECT
 62
     7
  0
POLYLINE
  8
OBJECT
 62
     7
 66
     1
 10
0.0
 20
0.0
 30
0.0
  0
VERTEX
  8
OBJECT
 62
     7
 10
19.122014
 20
48.987232
 30
0.0
  0
VERTEX
  8
OBJECT
 62
     7
 10
19.466014
 20
48.987232
 30
0.0
  0
VERTEX
  8
OBJECT
 62
     7
 10
19.466014
 20
49.331232
 30
0.0
  0
VERTEX
  8
OBJECT
 62
     7
 10
19.122014
 20
49.331232
 30
0.0
  0
VERTEX
  8
OBJECT
 62
     7
 10
19.122014
 20
48.987232
 30
0.0
  0
SEQEND
  8
OBJECT
 62
     7
  0
POLYLINE
  8
OBJECT
 62
     7
 66
     1
 10
0.0
 20
0.0
 30
0.0
  0
VERTEX
  8
OBJECT
 62
     7
 10
19.622014
 20
48.987232
 30
0.0
  0
VERTEX
  8
OBJECT
 62
     7
 10
19.966014
 20
48.987232
 30
0.0
  0
VERTEX
  8
OBJECT
 62
     7
 10
19.966014
 20
49.331232
 30
0.0
  0
VERTEX
  8
OBJECT
 62
     7
 10
19.622014
 20
49.331232
 30
0.0
  0
VERTEX
  8
OBJECT
 62
     7
 10
19.622014
 20
48.987232
 30
0.0
  0
SEQEND
  8
OBJECT
 62
     7
  0
POLYLINE
  8
OBJECT
 62
     7
 66
     1
 10
0.0
 20
0.0
 30
0.0
  0
VERTEX
  8
OBJECT
 62
     7
 10
20.247014
 20
48.987232
 30
0.0
  0
VERTEX
  8
OBJECT
 62
     7
 10
20.591014
 20
48.987232
 30
0.0
  0
VERTEX
  8
OBJECT
 62
     7
 10
20.591014
 20
49.331232
 30
0.0
  0
VERTEX
  8
OBJECT
 62
     7
 10
20.247014
 20
49.331232
 30
0.0
  0
VERTEX
  8
OBJECT
 62
     7
 10
20.247014
 20
48.987232
 30
0.0
  0
SEQEND
  8
OBJECT
 62
     7
  0
POLYLINE
  8
OBJECT
 62
     7
 66
     1
 10
0.0
 20
0.0
 30
0.0
  0
VERTEX
  8
OBJECT
 62
     7
 10
20.872014
 20
48.987232
 30
0.0
  0
VERTEX
  8
OBJECT
 62
     7
 10
21.216014
 20
48.987232
 30
0.0
  0
VERTEX
  8
OBJECT
 62
     7
 10
21.216014
 20
49.331232
 30
0.0
  0
VERTEX
  8
OBJECT
 62
     7
 10
20.872014
 20
49.331232
 30
0.0
  0
VERTEX
  8
OBJECT
 62
     7
 10
20.872014
 20
48.987232
 30
0.0
  0
SEQEND
  8
OBJECT
 62
     7
  0
POLYLINE
  8
OBJECT
 62
     7
 66
     1
 10
0.0
 20
0.0
 30
0.0
  0
VERTEX
  8
OBJECT
 62
     7
 10
21.372014
 20
48.987232
 30
0.0
  0
VERTEX
  8
OBJECT
 62
     7
 10
21.716014
 20
48.987232
 30
0.0
  0
VERTEX
  8
OBJECT
 62
     7
 10
21.716014
 20
49.331232
 30
0.0
  0
VERTEX
  8
OBJECT
 62
     7
 10
21.372014
 20
49.331232
 30
0.0
  0
VERTEX
  8
OBJECT
 62
     7
 10
21.372014
 20
48.987232
 30
0.0
  0
SEQEND
  8
OBJECT
 62
     7
  0
POLYLINE
  8
OBJECT
 62
     7
 66
     1
 10
0.0
 20
0.0
 30
0.0
  0
VERTEX
  8
OBJECT
 62
     7
 10
21.997014
 20
48.987232
 30
0.0
  0
VERTEX
  8
OBJECT
 62
     7
 10
22.341014
 20
48.987232
 30
0.0
  0
VERTEX
  8
OBJECT
 62
     7
 10
22.341014
 20
49.331232
 30
0.0
  0
VERTEX
  8
OBJECT
 62
     7
 10
21.997014
 20
49.331232
 30
0.0
  0
VERTEX
  8
OBJECT
 62
     7
 10
21.997014
 20
48.987232
 30
0.0
  0
SEQEND
  8
OBJECT
 62
     7
  0
POLYLINE
  8
OBJECT
 62
     7
 66
     1
 10
0.0
 20
0.0
 30
0.0
  0
VERTEX
  8
OBJECT
 62
     7
 10
22.622014
 20
48.987232
 30
0.0
  0
VERTEX
  8
OBJECT
 62
     7
 10
22.966014
 20
48.987232
 30
0.0
  0
VERTEX
  8
OBJECT
 62
     7
 10
22.966014
 20
49.331232
 30
0.0
  0
VERTEX
  8
OBJECT
 62
     7
 10
22.622014
 20
49.331232
 30
0.0
  0
VERTEX
  8
OBJECT
 62
     7
 10
22.622014
 20
48.987232
 30
0.0
  0
SEQEND
  8
OBJECT
 62
     7
  0
POLYLINE
  8
OBJECT
 62
     7
 66
     1
 10
0.0
 20
0.0
 30
0.0
  0
VERTEX
  8
OBJECT
 62
     7
 10
23.122014
 20
48.987232
 30
0.0
  0
VERTEX
  8
OBJECT
 62
     7
 10
23.466014
 20
48.987232
 30
0.0
  0
VERTEX
  8
OBJECT
 62
     7
 10
23.466014
 20
49.331232
 30
0.0
  0
VERTEX
  8
OBJECT
 62
     7
 10
23.122014
 20
49.331232
 30
0.0
  0
VERTEX
  8
OBJECT
 62
     7
 10
23.122014
 20
48.987232
 30
0.0
  0
SEQEND
  8
OBJECT
 62
     7
  0
POLYLINE
  8
OBJECT
 62
     7
 66
     1
 10
0.0
 20
0.0
 30
0.0
  0
VERTEX
  8
OBJECT
 62
     7
 10
23.747014
 20
48.987232
 30
0.0
  0
VERTEX
  8
OBJECT
 62
     7
 10
24.091014
 20
48.987232
 30
0.0
  0
VERTEX
  8
OBJECT
 62
     7
 10
24.091014
 20
49.331232
 30
0.0
  0
VERTEX
  8
OBJECT
 62
     7
 10
23.747014
 20
49.331232
 30
0.0
  0
VERTEX
  8
OBJECT
 62
     7
 10
23.747014
 20
48.987232
 30
0.0
  0
SEQEND
  8
OBJECT
 62
     7
  0
POLYLINE
  8
OBJECT
 62
     7
 66
     1
 10
0.0
 20
0.0
 30
0.0
  0
VERTEX
  8
OBJECT
 62
     7
 10
24.372014
 20
48.987232
 30
0.0
  0
VERTEX
  8
OBJECT
 62
     7
 10
24.716014
 20
48.987232
 30
0.0
  0
VERTEX
  8
OBJECT
 62
     7
 10
24.716014
 20
49.331232
 30
0.0
  0
VERTEX
  8
OBJECT
 62
     7
 10
24.372014
 20
49.331232
 30
0.0
  0
VERTEX
  8
OBJECT
 62
     7
 10
24.372014
 20
48.987232
 30
0.0
  0
SEQEND
  8
OBJECT
 62
     7
  0
POLYLINE
  8
OBJECT
 62
     7
 66
     1
 10
0.0
 20
0.0
 30
0.0
  0
VERTEX
  8
OBJECT
 62
     7
 10
24.872014
 20
48.987232
 30
0.0
  0
VERTEX
  8
OBJECT
 62
     7
 10
25.216014
 20
48.987232
 30
0.0
  0
VERTEX
  8
OBJECT
 62
     7
 10
25.216014
 20
49.331232
 30
0.0
  0
VERTEX
  8
OBJECT
 62
     7
 10
24.872014
 20
49.331232
 30
0.0
  0
VERTEX
  8
OBJECT
 62
     7
 10
24.872014
 20
48.987232
 30
0.0
  0
SEQEND
  8
OBJECT
 62
     7
  0
POLYLINE
  8
OBJECT
 62
     7
 66
     1
 10
0.0
 20
0.0
 30
0.0
  0
VERTEX
  8
OBJECT
 62
     7
 10
25.497014
 20
48.987232
 30
0.0
  0
VERTEX
  8
OBJECT
 62
     7
 10
25.841014
 20
48.987232
 30
0.0
  0
VERTEX
  8
OBJECT
 62
     7
 10
25.841014
 20
49.331232
 30
0.0
  0
VERTEX
  8
OBJECT
 62
     7
 10
25.497014
 20
49.331232
 30
0.0
  0
VERTEX
  8
OBJECT
 62
     7
 10
25.497014
 20
48.987232
 30
0.0
  0
SEQEND
  8
OBJECT
 62
     7
  0
POLYLINE
  8
OBJECT
 62
     7
 66
     1
 10
0.0
 20
0.0
 30
0.0
  0
VERTEX
  8
OBJECT
 62
     7
 10
26.122014
 20
48.987232
 30
0.0
  0
VERTEX
  8
OBJECT
 62
     7
 10
26.466014
 20
48.987232
 30
0.0
  0
VERTEX
  8
OBJECT
 62
     7
 10
26.466014
 20
49.331232
 30
0.0
  0
VERTEX
  8
OBJECT
 62
     7
 10
26.122014
 20
49.331232
 30
0.0
  0
VERTEX
  8
OBJECT
 62
     7
 10
26.122014
 20
48.987232
 30
0.0
  0
SEQEND
  8
OBJECT
 62
     7
  0
POLYLINE
  8
OBJECT
 62
     7
 66
     1
 10
0.0
 20
0.0
 30
0.0
  0
VERTEX
  8
OBJECT
 62
     7
 10
26.622014
 20
48.987232
 30
0.0
  0
VERTEX
  8
OBJECT
 62
     7
 10
26.966014
 20
48.987232
 30
0.0
  0
VERTEX
  8
OBJECT
 62
     7
 10
26.966014
 20
49.331232
 30
0.0
  0
VERTEX
  8
OBJECT
 62
     7
 10
26.622014
 20
49.331232
 30
0.0
  0
VERTEX
  8
OBJECT
 62
     7
 10
26.622014
 20
48.987232
 30
0.0
  0
SEQEND
  8
OBJECT
 62
     7
  0
POLYLINE
  8
OBJECT
 62
     7
 66
     1
 10
0.0
 20
0.0
 30
0.0
  0
VERTEX
  8
OBJECT
 62
     7
 10
27.247014
 20
48.987232
 30
0.0
  0
VERTEX
  8
OBJECT
 62
     7
 10
27.591014
 20
48.987232
 30
0.0
  0
VERTEX
  8
OBJECT
 62
     7
 10
27.591014
 20
49.331232
 30
0.0
  0
VERTEX
  8
OBJECT
 62
     7
 10
27.247014
 20
49.331232
 30
0.0
  0
VERTEX
  8
OBJECT
 62
     7
 10
27.247014
 20
48.987232
 30
0.0
  0
SEQEND
  8
OBJECT
 62
     7
  0
POLYLINE
  8
OBJECT
 62
     7
 66
     1
 10
0.0
 20
0.0
 30
0.0
  0
VERTEX
  8
OBJECT
 62
     7
 10
27.872014
 20
48.987232
 30
0.0
  0
VERTEX
  8
OBJECT
 62
     7
 10
28.216014
 20
48.987232
 30
0.0
  0
VERTEX
  8
OBJECT
 62
     7
 10
28.216014
 20
49.331232
 30
0.0
  0
VERTEX
  8
OBJECT
 62
     7
 10
27.872014
 20
49.331232
 30
0.0
  0
VERTEX
  8
OBJECT
 62
     7
 10
27.872014
 20
48.987232
 30
0.0
  0
SEQEND
  8
OBJECT
 62
     7
  0
POLYLINE
  8
OBJECT
 62
     7
 66
     1
 10
0.0
 20
0.0
 30
0.0
  0
VERTEX
  8
OBJECT
 62
     7
 10
28.372014
 20
48.987232
 30
0.0
  0
VERTEX
  8
OBJECT
 62
     7
 10
28.716014
 20
48.987232
 30
0.0
  0
VERTEX
  8
OBJECT
 62
     7
 10
28.716014
 20
49.331232
 30
0.0
  0
VERTEX
  8
OBJECT
 62
     7
 10
28.372014
 20
49.331232
 30
0.0
  0
VERTEX
  8
OBJECT
 62
     7
 10
28.372014
 20
48.987232
 30
0.0
  0
SEQEND
  8
OBJECT
 62
     7
  0
POLYLINE
  8
OBJECT
 62
     7
 66
     1
 10
0.0
 20
0.0
 30
0.0
  0
VERTEX
  8
OBJECT
 62
     7
 10
28.997014
 20
48.987232
 30
0.0
  0
VERTEX
  8
OBJECT
 62
     7
 10
29.341014
 20
48.987232
 30
0.0
  0
VERTEX
  8
OBJECT
 62
     7
 10
29.341014
 20
49.331232
 30
0.0
  0
VERTEX
  8
OBJECT
 62
     7
 10
28.997014
 20
49.331232
 30
0.0
  0
VERTEX
  8
OBJECT
 62
     7
 10
28.997014
 20
48.987232
 30
0.0
  0
SEQEND
  8
OBJECT
 62
     7
  0
POLYLINE
  8
OBJECT
 62
     7
 66
     1
 10
0.0
 20
0.0
 30
0.0
  0
VERTEX
  8
OBJECT
 62
     7
 10
29.622014
 20
48.987232
 30
0.0
  0
VERTEX
  8
OBJECT
 62
     7
 10
29.966014
 20
48.987232
 30
0.0
  0
VERTEX
  8
OBJECT
 62
     7
 10
29.966014
 20
49.331232
 30
0.0
  0
VERTEX
  8
OBJECT
 62
     7
 10
29.622014
 20
49.331232
 30
0.0
  0
VERTEX
  8
OBJECT
 62
     7
 10
29.622014
 20
48.987232
 30
0.0
  0
SEQEND
  8
OBJECT
 62
     7
  0
POLYLINE
  8
OBJECT
 62
     7
 66
     1
 10
0.0
 20
0.0
 30
0.0
  0
VERTEX
  8
OBJECT
 62
     7
 10
30.122014
 20
48.987232
 30
0.0
  0
VERTEX
  8
OBJECT
 62
     7
 10
30.466014
 20
48.987232
 30
0.0
  0
VERTEX
  8
OBJECT
 62
     7
 10
30.466014
 20
49.331232
 30
0.0
  0
VERTEX
  8
OBJECT
 62
     7
 10
30.122014
 20
49.331232
 30
0.0
  0
VERTEX
  8
OBJECT
 62
     7
 10
30.122014
 20
48.987232
 30
0.0
  0
SEQEND
  8
OBJECT
 62
     7
  0
POLYLINE
  8
OBJECT
 62
     7
 66
     1
 10
0.0
 20
0.0
 30
0.0
  0
VERTEX
  8
OBJECT
 62
     7
 10
30.747014
 20
48.987232
 30
0.0
  0
VERTEX
  8
OBJECT
 62
     7
 10
31.091014
 20
48.987232
 30
0.0
  0
VERTEX
  8
OBJECT
 62
     7
 10
31.091014
 20
49.331232
 30
0.0
  0
VERTEX
  8
OBJECT
 62
     7
 10
30.747014
 20
49.331232
 30
0.0
  0
VERTEX
  8
OBJECT
 62
     7
 10
30.747014
 20
48.987232
 30
0.0
  0
SEQEND
  8
OBJECT
 62
     7
  0
POLYLINE
  8
OBJECT
 62
     7
 66
     1
 10
0.0
 20
0.0
 30
0.0
  0
VERTEX
  8
OBJECT
 62
     7
 10
31.372014
 20
48.987232
 30
0.0
  0
VERTEX
  8
OBJECT
 62
     7
 10
31.716014
 20
48.987232
 30
0.0
  0
VERTEX
  8
OBJECT
 62
     7
 10
31.716014
 20
49.331232
 30
0.0
  0
VERTEX
  8
OBJECT
 62
     7
 10
31.372014
 20
49.331232
 30
0.0
  0
VERTEX
  8
OBJECT
 62
     7
 10
31.372014
 20
48.987232
 30
0.0
  0
SEQEND
  8
OBJECT
 62
     7
  0
POLYLINE
  8
OBJECT
 62
     7
 66
     1
 10
0.0
 20
0.0
 30
0.0
  0
VERTEX
  8
OBJECT
 62
     7
 10
31.872014
 20
48.987232
 30
0.0
  0
VERTEX
  8
OBJECT
 62
     7
 10
32.216014
 20
48.987232
 30
0.0
  0
VERTEX
  8
OBJECT
 62
     7
 10
32.216014
 20
49.331232
 30
0.0
  0
VERTEX
  8
OBJECT
 62
     7
 10
31.872014
 20
49.331232
 30
0.0
  0
VERTEX
  8
OBJECT
 62
     7
 10
31.872014
 20
48.987232
 30
0.0
  0
SEQEND
  8
OBJECT
 62
     7
  0
POLYLINE
  8
OBJECT
 62
     7
 66
     1
 10
0.0
 20
0.0
 30
0.0
  0
VERTEX
  8
OBJECT
 62
     7
 10
32.497014
 20
48.987232
 30
0.0
  0
VERTEX
  8
OBJECT
 62
     7
 10
32.841014
 20
48.987232
 30
0.0
  0
VERTEX
  8
OBJECT
 62
     7
 10
32.841014
 20
49.331232
 30
0.0
  0
VERTEX
  8
OBJECT
 62
     7
 10
32.497014
 20
49.331232
 30
0.0
  0
VERTEX
  8
OBJECT
 62
     7
 10
32.497014
 20
48.987232
 30
0.0
  0
SEQEND
  8
OBJECT
 62
     7
  0
POLYLINE
  8
OBJECT
 62
     7
 66
     1
 10
0.0
 20
0.0
 30
0.0
  0
VERTEX
  8
OBJECT
 62
     7
 10
33.122014
 20
48.987232
 30
0.0
  0
VERTEX
  8
OBJECT
 62
     7
 10
33.466014
 20
48.987232
 30
0.0
  0
VERTEX
  8
OBJECT
 62
     7
 10
33.466014
 20
49.331232
 30
0.0
  0
VERTEX
  8
OBJECT
 62
     7
 10
33.122014
 20
49.331232
 30
0.0
  0
VERTEX
  8
OBJECT
 62
     7
 10
33.122014
 20
48.987232
 30
0.0
  0
SEQEND
  8
OBJECT
 62
     7
  0
POLYLINE
  8
OBJECT
 62
     7
 66
     1
 10
0.0
 20
0.0
 30
0.0
  0
VERTEX
  8
OBJECT
 62
     7
 10
33.622014
 20
48.987232
 30
0.0
  0
VERTEX
  8
OBJECT
 62
     7
 10
33.966014
 20
48.987232
 30
0.0
  0
VERTEX
  8
OBJECT
 62
     7
 10
33.966014
 20
49.331232
 30
0.0
  0
VERTEX
  8
OBJECT
 62
     7
 10
33.622014
 20
49.331232
 30
0.0
  0
VERTEX
  8
OBJECT
 62
     7
 10
33.622014
 20
48.987232
 30
0.0
  0
SEQEND
  8
OBJECT
 62
     7
  0
POLYLINE
  8
OBJECT
 62
     7
 66
     1
 10
0.0
 20
0.0
 30
0.0
  0
VERTEX
  8
OBJECT
 62
     7
 10
34.247014
 20
48.987232
 30
0.0
  0
VERTEX
  8
OBJECT
 62
     7
 10
34.591014
 20
48.987232
 30
0.0
  0
VERTEX
  8
OBJECT
 62
     7
 10
34.591014
 20
49.331232
 30
0.0
  0
VERTEX
  8
OBJECT
 62
     7
 10
34.247014
 20
49.331232
 30
0.0
  0
VERTEX
  8
OBJECT
 62
     7
 10
34.247014
 20
48.987232
 30
0.0
  0
SEQEND
  8
OBJECT
 62
     7
  0
POLYLINE
  8
OBJECT
 62
     7
 66
     1
 10
0.0
 20
0.0
 30
0.0
  0
VERTEX
  8
OBJECT
 62
     7
 10
34.872014
 20
48.987232
 30
0.0
  0
VERTEX
  8
OBJECT
 62
     7
 10
35.216014
 20
48.987232
 30
0.0
  0
VERTEX
  8
OBJECT
 62
     7
 10
35.216014
 20
49.331232
 30
0.0
  0
VERTEX
  8
OBJECT
 62
     7
 10
34.872014
 20
49.331232
 30
0.0
  0
VERTEX
  8
OBJECT
 62
     7
 10
34.872014
 20
48.987232
 30
0.0
  0
SEQEND
  8
OBJECT
 62
     7
  0
POLYLINE
  8
OBJECT
 62
     7
 66
     1
 10
0.0
 20
0.0
 30
0.0
  0
VERTEX
  8
OBJECT
 62
     7
 10
35.372014
 20
48.987232
 30
0.0
  0
VERTEX
  8
OBJECT
 62
     7
 10
35.716014
 20
48.987232
 30
0.0
  0
VERTEX
  8
OBJECT
 62
     7
 10
35.716014
 20
49.331232
 30
0.0
  0
VERTEX
  8
OBJECT
 62
     7
 10
35.372014
 20
49.331232
 30
0.0
  0
VERTEX
  8
OBJECT
 62
     7
 10
35.372014
 20
48.987232
 30
0.0
  0
SEQEND
  8
OBJECT
 62
     7
  0
POLYLINE
  8
OBJECT
 62
     7
 66
     1
 10
0.0
 20
0.0
 30
0.0
  0
VERTEX
  8
OBJECT
 62
     7
 10
35.997014
 20
48.987232
 30
0.0
  0
VERTEX
  8
OBJECT
 62
     7
 10
36.341014
 20
48.987232
 30
0.0
  0
VERTEX
  8
OBJECT
 62
     7
 10
36.341014
 20
49.331232
 30
0.0
  0
VERTEX
  8
OBJECT
 62
     7
 10
35.997014
 20
49.331232
 30
0.0
  0
VERTEX
  8
OBJECT
 62
     7
 10
35.997014
 20
48.987232
 30
0.0
  0
SEQEND
  8
OBJECT
 62
     7
  0
POLYLINE
  8
OBJECT
 62
     7
 66
     1
 10
0.0
 20
0.0
 30
0.0
  0
VERTEX
  8
OBJECT
 62
     7
 10
36.622014
 20
48.987232
 30
0.0
  0
VERTEX
  8
OBJECT
 62
     7
 10
36.966014
 20
48.987232
 30
0.0
  0
VERTEX
  8
OBJECT
 62
     7
 10
36.966014
 20
49.331232
 30
0.0
  0
VERTEX
  8
OBJECT
 62
     7
 10
36.622014
 20
49.331232
 30
0.0
  0
VERTEX
  8
OBJECT
 62
     7
 10
36.622014
 20
48.987232
 30
0.0
  0
SEQEND
  8
OBJECT
 62
     7
  0
POLYLINE
  8
OBJECT
 62
     7
 66
     1
 10
0.0
 20
0.0
 30
0.0
  0
VERTEX
  8
OBJECT
 62
     7
 10
37.122014
 20
48.987232
 30
0.0
  0
VERTEX
  8
OBJECT
 62
     7
 10
37.466014
 20
48.987232
 30
0.0
  0
VERTEX
  8
OBJECT
 62
     7
 10
37.466014
 20
49.331232
 30
0.0
  0
VERTEX
  8
OBJECT
 62
     7
 10
37.122014
 20
49.331232
 30
0.0
  0
VERTEX
  8
OBJECT
 62
     7
 10
37.122014
 20
48.987232
 30
0.0
  0
SEQEND
  8
OBJECT
 62
     7
  0
POLYLINE
  8
OBJECT
 62
     7
 66
     1
 10
0.0
 20
0.0
 30
0.0
  0
VERTEX
  8
OBJECT
 62
     7
 10
37.747014
 20
48.987232
 30
0.0
  0
VERTEX
  8
OBJECT
 62
     7
 10
38.091014
 20
48.987232
 30
0.0
  0
VERTEX
  8
OBJECT
 62
     7
 10
38.091014
 20
49.331232
 30
0.0
  0
VERTEX
  8
OBJECT
 62
     7
 10
37.747014
 20
49.331232
 30
0.0
  0
VERTEX
  8
OBJECT
 62
     7
 10
37.747014
 20
48.987232
 30
0.0
  0
SEQEND
  8
OBJECT
 62
     7
  0
POLYLINE
  8
OBJECT
 62
     7
 66
     1
 10
0.0
 20
0.0
 30
0.0
  0
VERTEX
  8
OBJECT
 62
     7
 10
38.372014
 20
48.987232
 30
0.0
  0
VERTEX
  8
OBJECT
 62
     7
 10
38.716014
 20
48.987232
 30
0.0
  0
VERTEX
  8
OBJECT
 62
     7
 10
38.716014
 20
49.331232
 30
0.0
  0
VERTEX
  8
OBJECT
 62
     7
 10
38.372014
 20
49.331232
 30
0.0
  0
VERTEX
  8
OBJECT
 62
     7
 10
38.372014
 20
48.987232
 30
0.0
  0
SEQEND
  8
OBJECT
 62
     7
  0
POLYLINE
  8
OBJECT
 62
     7
 66
     1
 10
0.0
 20
0.0
 30
0.0
  0
VERTEX
  8
OBJECT
 62
     7
 10
38.872014
 20
48.987232
 30
0.0
  0
VERTEX
  8
OBJECT
 62
     7
 10
39.216014
 20
48.987232
 30
0.0
  0
VERTEX
  8
OBJECT
 62
     7
 10
39.216014
 20
49.331232
 30
0.0
  0
VERTEX
  8
OBJECT
 62
     7
 10
38.872014
 20
49.331232
 30
0.0
  0
VERTEX
  8
OBJECT
 62
     7
 10
38.872014
 20
48.987232
 30
0.0
  0
SEQEND
  8
OBJECT
 62
     7
  0
POLYLINE
  8
OBJECT
 62
     7
 66
     1
 10
0.0
 20
0.0
 30
0.0
  0
VERTEX
  8
OBJECT
 62
     7
 10
39.497014
 20
48.987232
 30
0.0
  0
VERTEX
  8
OBJECT
 62
     7
 10
39.841014
 20
48.987232
 30
0.0
  0
VERTEX
  8
OBJECT
 62
     7
 10
39.841014
 20
49.331232
 30
0.0
  0
VERTEX
  8
OBJECT
 62
     7
 10
39.497014
 20
49.331232
 30
0.0
  0
VERTEX
  8
OBJECT
 62
     7
 10
39.497014
 20
48.987232
 30
0.0
  0
SEQEND
  8
OBJECT
 62
     7
  0
POLYLINE
  8
OBJECT
 62
     7
 66
     1
 10
0.0
 20
0.0
 30
0.0
  0
VERTEX
  8
OBJECT
 62
     7
 10
40.122014
 20
48.987232
 30
0.0
  0
VERTEX
  8
OBJECT
 62
     7
 10
40.466014
 20
48.987232
 30
0.0
  0
VERTEX
  8
OBJECT
 62
     7
 10
40.466014
 20
49.331232
 30
0.0
  0
VERTEX
  8
OBJECT
 62
     7
 10
40.122014
 20
49.331232
 30
0.0
  0
VERTEX
  8
OBJECT
 62
     7
 10
40.122014
 20
48.987232
 30
0.0
  0
SEQEND
  8
OBJECT
 62
     7
  0
POLYLINE
  8
OBJECT
 62
     7
 66
     1
 10
0.0
 20
0.0
 30
0.0
  0
VERTEX
  8
OBJECT
 62
     7
 10
40.622014
 20
48.987232
 30
0.0
  0
VERTEX
  8
OBJECT
 62
     7
 10
40.966014
 20
48.987232
 30
0.0
  0
VERTEX
  8
OBJECT
 62
     7
 10
40.966014
 20
49.331232
 30
0.0
  0
VERTEX
  8
OBJECT
 62
     7
 10
40.622014
 20
49.331232
 30
0.0
  0
VERTEX
  8
OBJECT
 62
     7
 10
40.622014
 20
48.987232
 30
0.0
  0
SEQEND
  8
OBJECT
 62
     7
  0
POLYLINE
  8
OBJECT
 62
     7
 66
     1
 10
0.0
 20
0.0
 30
0.0
  0
VERTEX
  8
OBJECT
 62
     7
 10
41.247014
 20
48.987232
 30
0.0
  0
VERTEX
  8
OBJECT
 62
     7
 10
41.591014
 20
48.987232
 30
0.0
  0
VERTEX
  8
OBJECT
 62
     7
 10
41.591014
 20
49.331232
 30
0.0
  0
VERTEX
  8
OBJECT
 62
     7
 10
41.247014
 20
49.331232
 30
0.0
  0
VERTEX
  8
OBJECT
 62
     7
 10
41.247014
 20
48.987232
 30
0.0
  0
SEQEND
  8
OBJECT
 62
     7
  0
POLYLINE
  8
OBJECT
 62
     7
 66
     1
 10
0.0
 20
0.0
 30
0.0
  0
VERTEX
  8
OBJECT
 62
     7
 10
41.872014
 20
48.987232
 30
0.0
  0
VERTEX
  8
OBJECT
 62
     7
 10
42.216014
 20
48.987232
 30
0.0
  0
VERTEX
  8
OBJECT
 62
     7
 10
42.216014
 20
49.331232
 30
0.0
  0
VERTEX
  8
OBJECT
 62
     7
 10
41.872014
 20
49.331232
 30
0.0
  0
VERTEX
  8
OBJECT
 62
     7
 10
41.872014
 20
48.987232
 30
0.0
  0
SEQEND
  8
OBJECT
 62
     7
  0
POLYLINE
  8
OBJECT
 62
     7
 66
     1
 10
0.0
 20
0.0
 30
0.0
  0
VERTEX
  8
OBJECT
 62
     7
 10
42.372014
 20
48.987232
 30
0.0
  0
VERTEX
  8
OBJECT
 62
     7
 10
42.716014
 20
48.987232
 30
0.0
  0
VERTEX
  8
OBJECT
 62
     7
 10
42.716014
 20
49.331232
 30
0.0
  0
VERTEX
  8
OBJECT
 62
     7
 10
42.372014
 20
49.331232
 30
0.0
  0
VERTEX
  8
OBJECT
 62
     7
 10
42.372014
 20
48.987232
 30
0.0
  0
SEQEND
  8
OBJECT
 62
     7
  0
POLYLINE
  8
OBJECT
 62
     7
 66
     1
 10
0.0
 20
0.0
 30
0.0
  0
VERTEX
  8
OBJECT
 62
     7
 10
42.997014
 20
48.987232
 30
0.0
  0
VERTEX
  8
OBJECT
 62
     7
 10
43.341014
 20
48.987232
 30
0.0
  0
VERTEX
  8
OBJECT
 62
     7
 10
43.341014
 20
49.331232
 30
0.0
  0
VERTEX
  8
OBJECT
 62
     7
 10
42.997014
 20
49.331232
 30
0.0
  0
VERTEX
  8
OBJECT
 62
     7
 10
42.997014
 20
48.987232
 30
0.0
  0
SEQEND
  8
OBJECT
 62
     7
  0
POLYLINE
  8
OBJECT
 62
     7
 66
     1
 10
0.0
 20
0.0
 30
0.0
  0
VERTEX
  8
OBJECT
 62
     7
 10
43.622014
 20
48.987232
 30
0.0
  0
VERTEX
  8
OBJECT
 62
     7
 10
43.966014
 20
48.987232
 30
0.0
  0
VERTEX
  8
OBJECT
 62
     7
 10
43.966014
 20
49.331232
 30
0.0
  0
VERTEX
  8
OBJECT
 62
     7
 10
43.622014
 20
49.331232
 30
0.0
  0
VERTEX
  8
OBJECT
 62
     7
 10
43.622014
 20
48.987232
 30
0.0
  0
SEQEND
  8
OBJECT
 62
     7
  0
POLYLINE
  8
OBJECT
 62
     7
 66
     1
 10
0.0
 20
0.0
 30
0.0
  0
VERTEX
  8
OBJECT
 62
     7
 10
44.122014
 20
48.987232
 30
0.0
  0
VERTEX
  8
OBJECT
 62
     7
 10
44.466014
 20
48.987232
 30
0.0
  0
VERTEX
  8
OBJECT
 62
     7
 10
44.466014
 20
49.331232
 30
0.0
  0
VERTEX
  8
OBJECT
 62
     7
 10
44.122014
 20
49.331232
 30
0.0
  0
VERTEX
  8
OBJECT
 62
     7
 10
44.122014
 20
48.987232
 30
0.0
  0
SEQEND
  8
OBJECT
 62
     7
  0
POLYLINE
  8
OBJECT
 62
     7
 66
     1
 10
0.0
 20
0.0
 30
0.0
  0
VERTEX
  8
OBJECT
 62
     7
 10
44.747014
 20
48.987232
 30
0.0
  0
VERTEX
  8
OBJECT
 62
     7
 10
45.091014
 20
48.987232
 30
0.0
  0
VERTEX
  8
OBJECT
 62
     7
 10
45.091014
 20
49.331232
 30
0.0
  0
VERTEX
  8
OBJECT
 62
     7
 10
44.747014
 20
49.331232
 30
0.0
  0
VERTEX
  8
OBJECT
 62
     7
 10
44.747014
 20
48.987232
 30
0.0
  0
SEQEND
  8
OBJECT
 62
     7
  0
POLYLINE
  8
OBJECT
 62
     7
 66
     1
 10
0.0
 20
0.0
 30
0.0
  0
VERTEX
  8
OBJECT
 62
     7
 10
45.372014
 20
48.987232
 30
0.0
  0
VERTEX
  8
OBJECT
 62
     7
 10
45.716014
 20
48.987232
 30
0.0
  0
VERTEX
  8
OBJECT
 62
     7
 10
45.716014
 20
49.331232
 30
0.0
  0
VERTEX
  8
OBJECT
 62
     7
 10
45.372014
 20
49.331232
 30
0.0
  0
VERTEX
  8
OBJECT
 62
     7
 10
45.372014
 20
48.987232
 30
0.0
  0
SEQEND
  8
OBJECT
 62
     7
  0
POLYLINE
  8
OBJECT
 62
     7
 66
     1
 10
0.0
 20
0.0
 30
0.0
  0
VERTEX
  8
OBJECT
 62
     7
 10
45.872014
 20
48.987232
 30
0.0
  0
VERTEX
  8
OBJECT
 62
     7
 10
46.216014
 20
48.987232
 30
0.0
  0
VERTEX
  8
OBJECT
 62
     7
 10
46.216014
 20
49.331232
 30
0.0
  0
VERTEX
  8
OBJECT
 62
     7
 10
45.872014
 20
49.331232
 30
0.0
  0
VERTEX
  8
OBJECT
 62
     7
 10
45.872014
 20
48.987232
 30
0.0
  0
SEQEND
  8
OBJECT
 62
     7
  0
POLYLINE
  8
OBJECT
 62
     7
 66
     1
 10
0.0
 20
0.0
 30
0.0
  0
VERTEX
  8
OBJECT
 62
     7
 10
46.497014
 20
48.987232
 30
0.0
  0
VERTEX
  8
OBJECT
 62
     7
 10
46.841014
 20
48.987232
 30
0.0
  0
VERTEX
  8
OBJECT
 62
     7
 10
46.841014
 20
49.331232
 30
0.0
  0
VERTEX
  8
OBJECT
 62
     7
 10
46.497014
 20
49.331232
 30
0.0
  0
VERTEX
  8
OBJECT
 62
     7
 10
46.497014
 20
48.987232
 30
0.0
  0
SEQEND
  8
OBJECT
 62
     7
  0
POLYLINE
  8
OBJECT
 62
     7
 66
     1
 10
0.0
 20
0.0
 30
0.0
  0
VERTEX
  8
OBJECT
 62
     7
 10
47.122014
 20
48.987232
 30
0.0
  0
VERTEX
  8
OBJECT
 62
     7
 10
47.466014
 20
48.987232
 30
0.0
  0
VERTEX
  8
OBJECT
 62
     7
 10
47.466014
 20
49.331232
 30
0.0
  0
VERTEX
  8
OBJECT
 62
     7
 10
47.122014
 20
49.331232
 30
0.0
  0
VERTEX
  8
OBJECT
 62
     7
 10
47.122014
 20
48.987232
 30
0.0
  0
SEQEND
  8
OBJECT
 62
     7
  0
POLYLINE
  8
OBJECT
 62
     7
 66
     1
 10
0.0
 20
0.0
 30
0.0
  0
VERTEX
  8
OBJECT
 62
     7
 10
47.622014
 20
48.987232
 30
0.0
  0
VERTEX
  8
OBJECT
 62
     7
 10
47.966014
 20
48.987232
 30
0.0
  0
VERTEX
  8
OBJECT
 62
     7
 10
47.966014
 20
49.331232
 30
0.0
  0
VERTEX
  8
OBJECT
 62
     7
 10
47.622014
 20
49.331232
 30
0.0
  0
VERTEX
  8
OBJECT
 62
     7
 10
47.622014
 20
48.987232
 30
0.0
  0
SEQEND
  8
OBJECT
 62
     7
  0
POLYLINE
  8
OBJECT
 62
     7
 66
     1
 10
0.0
 20
0.0
 30
0.0
  0
VERTEX
  8
OBJECT
 62
     7
 10
48.247014
 20
48.987232
 30
0.0
  0
VERTEX
  8
OBJECT
 62
     7
 10
48.591014
 20
48.987232
 30
0.0
  0
VERTEX
  8
OBJECT
 62
     7
 10
48.591014
 20
49.331232
 30
0.0
  0
VERTEX
  8
OBJECT
 62
     7
 10
48.247014
 20
49.331232
 30
0.0
  0
VERTEX
  8
OBJECT
 62
     7
 10
48.247014
 20
48.987232
 30
0.0
  0
SEQEND
  8
OBJECT
 62
     7
  0
POLYLINE
  8
OBJECT
 62
     7
 66
     1
 10
0.0
 20
0.0
 30
0.0
  0
VERTEX
  8
OBJECT
 62
     7
 10
48.872014
 20
48.987232
 30
0.0
  0
VERTEX
  8
OBJECT
 62
     7
 10
49.216014
 20
48.987232
 30
0.0
  0
VERTEX
  8
OBJECT
 62
     7
 10
49.216014
 20
49.331232
 30
0.0
  0
VERTEX
  8
OBJECT
 62
     7
 10
48.872014
 20
49.331232
 30
0.0
  0
VERTEX
  8
OBJECT
 62
     7
 10
48.872014
 20
48.987232
 30
0.0
  0
SEQEND
  8
OBJECT
 62
     7
  0
POLYLINE
  8
OBJECT
 62
     7
 66
     1
 10
0.0
 20
0.0
 30
0.0
  0
VERTEX
  8
OBJECT
 62
     7
 10
49.372014
 20
48.987232
 30
0.0
  0
VERTEX
  8
OBJECT
 62
     7
 10
49.716014
 20
48.987232
 30
0.0
  0
VERTEX
  8
OBJECT
 62
     7
 10
49.716014
 20
49.331232
 30
0.0
  0
VERTEX
  8
OBJECT
 62
     7
 10
49.372014
 20
49.331232
 30
0.0
  0
VERTEX
  8
OBJECT
 62
     7
 10
49.372014
 20
48.987232
 30
0.0
  0
SEQEND
  8
OBJECT
 62
     7
  0
POLYLINE
  8
OBJECT
 62
     7
 66
     1
 10
0.0
 20
0.0
 30
0.0
  0
VERTEX
  8
OBJECT
 62
     7
 10
49.997014
 20
48.987232
 30
0.0
  0
VERTEX
  8
OBJECT
 62
     7
 10
50.341014
 20
48.987232
 30
0.0
  0
VERTEX
  8
OBJECT
 62
     7
 10
50.341014
 20
49.331232
 30
0.0
  0
VERTEX
  8
OBJECT
 62
     7
 10
49.997014
 20
49.331232
 30
0.0
  0
VERTEX
  8
OBJECT
 62
     7
 10
49.997014
 20
48.987232
 30
0.0
  0
SEQEND
  8
OBJECT
 62
     7
  0
POLYLINE
  8
OBJECT
 62
     7
 66
     1
 10
0.0
 20
0.0
 30
0.0
  0
VERTEX
  8
OBJECT
 62
     7
 10
50.622014
 20
48.987232
 30
0.0
  0
VERTEX
  8
OBJECT
 62
     7
 10
50.966014
 20
48.987232
 30
0.0
  0
VERTEX
  8
OBJECT
 62
     7
 10
50.966014
 20
49.331232
 30
0.0
  0
VERTEX
  8
OBJECT
 62
     7
 10
50.622014
 20
49.331232
 30
0.0
  0
VERTEX
  8
OBJECT
 62
     7
 10
50.622014
 20
48.987232
 30
0.0
  0
SEQEND
  8
OBJECT
 62
     7
  0
POLYLINE
  8
OBJECT
 62
     7
 66
     1
 10
0.0
 20
0.0
 30
0.0
  0
VERTEX
  8
OBJECT
 62
     7
 10
51.122014
 20
48.987232
 30
0.0
  0
VERTEX
  8
OBJECT
 62
     7
 10
51.466014
 20
48.987232
 30
0.0
  0
VERTEX
  8
OBJECT
 62
     7
 10
51.466014
 20
49.331232
 30
0.0
  0
VERTEX
  8
OBJECT
 62
     7
 10
51.122014
 20
49.331232
 30
0.0
  0
VERTEX
  8
OBJECT
 62
     7
 10
51.122014
 20
48.987232
 30
0.0
  0
SEQEND
  8
OBJECT
 62
     7
  0
POLYLINE
  8
OBJECT
 62
     7
 66
     1
 10
0.0
 20
0.0
 30
0.0
  0
VERTEX
  8
OBJECT
 62
     7
 10
51.747014
 20
48.987232
 30
0.0
  0
VERTEX
  8
OBJECT
 62
     7
 10
52.091014
 20
48.987232
 30
0.0
  0
VERTEX
  8
OBJECT
 62
     7
 10
52.091014
 20
49.331232
 30
0.0
  0
VERTEX
  8
OBJECT
 62
     7
 10
51.747014
 20
49.331232
 30
0.0
  0
VERTEX
  8
OBJECT
 62
     7
 10
51.747014
 20
48.987232
 30
0.0
  0
SEQEND
  8
OBJECT
 62
     7
  0
POLYLINE
  8
OBJECT
 62
     7
 66
     1
 10
0.0
 20
0.0
 30
0.0
  0
VERTEX
  8
OBJECT
 62
     7
 10
52.372014
 20
48.987232
 30
0.0
  0
VERTEX
  8
OBJECT
 62
     7
 10
52.716014
 20
48.987232
 30
0.0
  0
VERTEX
  8
OBJECT
 62
     7
 10
52.716014
 20
49.331232
 30
0.0
  0
VERTEX
  8
OBJECT
 62
     7
 10
52.372014
 20
49.331232
 30
0.0
  0
VERTEX
  8
OBJECT
 62
     7
 10
52.372014
 20
48.987232
 30
0.0
  0
SEQEND
  8
OBJECT
 62
     7
  0
POLYLINE
  8
OBJECT
 62
     7
 66
     1
 10
0.0
 20
0.0
 30
0.0
  0
VERTEX
  8
OBJECT
 62
     7
 10
52.872014
 20
48.987232
 30
0.0
  0
VERTEX
  8
OBJECT
 62
     7
 10
53.216014
 20
48.987232
 30
0.0
  0
VERTEX
  8
OBJECT
 62
     7
 10
53.216014
 20
49.331232
 30
0.0
  0
VERTEX
  8
OBJECT
 62
     7
 10
52.872014
 20
49.331232
 30
0.0
  0
VERTEX
  8
OBJECT
 62
     7
 10
52.872014
 20
48.987232
 30
0.0
  0
SEQEND
  8
OBJECT
 62
     7
  0
POLYLINE
  8
OBJECT
 62
     7
 66
     1
 10
0.0
 20
0.0
 30
0.0
  0
VERTEX
  8
OBJECT
 62
     7
 10
53.497014
 20
48.987232
 30
0.0
  0
VERTEX
  8
OBJECT
 62
     7
 10
53.841014
 20
48.987232
 30
0.0
  0
VERTEX
  8
OBJECT
 62
     7
 10
53.841014
 20
49.331232
 30
0.0
  0
VERTEX
  8
OBJECT
 62
     7
 10
53.497014
 20
49.331232
 30
0.0
  0
VERTEX
  8
OBJECT
 62
     7
 10
53.497014
 20
48.987232
 30
0.0
  0
SEQEND
  8
OBJECT
 62
     7
  0
POLYLINE
  8
OBJECT
 62
     7
 66
     1
 10
0.0
 20
0.0
 30
0.0
  0
VERTEX
  8
OBJECT
 62
     7
 10
54.122014
 20
48.987232
 30
0.0
  0
VERTEX
  8
OBJECT
 62
     7
 10
54.466014
 20
48.987232
 30
0.0
  0
VERTEX
  8
OBJECT
 62
     7
 10
54.466014
 20
49.331232
 30
0.0
  0
VERTEX
  8
OBJECT
 62
     7
 10
54.122014
 20
49.331232
 30
0.0
  0
VERTEX
  8
OBJECT
 62
     7
 10
54.122014
 20
48.987232
 30
0.0
  0
SEQEND
  8
OBJECT
 62
     7
  0
POLYLINE
  8
OBJECT
 62
     7
 66
     1
 10
0.0
 20
0.0
 30
0.0
  0
VERTEX
  8
OBJECT
 62
     7
 10
54.622014
 20
48.987232
 30
0.0
  0
VERTEX
  8
OBJECT
 62
     7
 10
54.966014
 20
48.987232
 30
0.0
  0
VERTEX
  8
OBJECT
 62
     7
 10
54.966014
 20
49.331232
 30
0.0
  0
VERTEX
  8
OBJECT
 62
     7
 10
54.622014
 20
49.331232
 30
0.0
  0
VERTEX
  8
OBJECT
 62
     7
 10
54.622014
 20
48.987232
 30
0.0
  0
SEQEND
  8
OBJECT
 62
     7
  0
POLYLINE
  8
OBJECT
 62
     7
 66
     1
 10
0.0
 20
0.0
 30
0.0
  0
VERTEX
  8
OBJECT
 62
     7
 10
55.247014
 20
48.987232
 30
0.0
  0
VERTEX
  8
OBJECT
 62
     7
 10
55.591014
 20
48.987232
 30
0.0
  0
VERTEX
  8
OBJECT
 62
     7
 10
55.591014
 20
49.331232
 30
0.0
  0
VERTEX
  8
OBJECT
 62
     7
 10
55.247014
 20
49.331232
 30
0.0
  0
VERTEX
  8
OBJECT
 62
     7
 10
55.247014
 20
48.987232
 30
0.0
  0
SEQEND
  8
OBJECT
 62
     7
  0
POLYLINE
  8
OBJECT
 62
     7
 66
     1
 10
0.0
 20
0.0
 30
0.0
  0
VERTEX
  8
OBJECT
 62
     7
 10
55.872014
 20
48.987232
 30
0.0
  0
VERTEX
  8
OBJECT
 62
     7
 10
56.216014
 20
48.987232
 30
0.0
  0
VERTEX
  8
OBJECT
 62
     7
 10
56.216014
 20
49.331232
 30
0.0
  0
VERTEX
  8
OBJECT
 62
     7
 10
55.872014
 20
49.331232
 30
0.0
  0
VERTEX
  8
OBJECT
 62
     7
 10
55.872014
 20
48.987232
 30
0.0
  0
SEQEND
  8
OBJECT
 62
     7
  0
POLYLINE
  8
OBJECT
 62
     7
 66
     1
 10
0.0
 20
0.0
 30
0.0
  0
VERTEX
  8
OBJECT
 62
     7
 10
56.372014
 20
48.987232
 30
0.0
  0
VERTEX
  8
OBJECT
 62
     7
 10
56.716014
 20
48.987232
 30
0.0
  0
VERTEX
  8
OBJECT
 62
     7
 10
56.716014
 20
49.331232
 30
0.0
  0
VERTEX
  8
OBJECT
 62
     7
 10
56.372014
 20
49.331232
 30
0.0
  0
VERTEX
  8
OBJECT
 62
     7
 10
56.372014
 20
48.987232
 30
0.0
  0
SEQEND
  8
OBJECT
 62
     7
  0
POLYLINE
  8
OBJECT
 62
     7
 66
     1
 10
0.0
 20
0.0
 30
0.0
  0
VERTEX
  8
OBJECT
 62
     7
 10
56.997014
 20
48.987232
 30
0.0
  0
VERTEX
  8
OBJECT
 62
     7
 10
57.341014
 20
48.987232
 30
0.0
  0
VERTEX
  8
OBJECT
 62
     7
 10
57.341014
 20
49.331232
 30
0.0
  0
VERTEX
  8
OBJECT
 62
     7
 10
56.997014
 20
49.331232
 30
0.0
  0
VERTEX
  8
OBJECT
 62
     7
 10
56.997014
 20
48.987232
 30
0.0
  0
SEQEND
  8
OBJECT
 62
     7
  0
POLYLINE
  8
OBJECT
 62
     7
 66
     1
 10
0.0
 20
0.0
 30
0.0
  0
VERTEX
  8
OBJECT
 62
     7
 10
57.622014
 20
48.987232
 30
0.0
  0
VERTEX
  8
OBJECT
 62
     7
 10
57.966014
 20
48.987232
 30
0.0
  0
VERTEX
  8
OBJECT
 62
     7
 10
57.966014
 20
49.331232
 30
0.0
  0
VERTEX
  8
OBJECT
 62
     7
 10
57.622014
 20
49.331232
 30
0.0
  0
VERTEX
  8
OBJECT
 62
     7
 10
57.622014
 20
48.987232
 30
0.0
  0
SEQEND
  8
OBJECT
 62
     7
  0
POLYLINE
  8
OBJECT
 62
     7
 66
     1
 10
0.0
 20
0.0
 30
0.0
  0
VERTEX
  8
OBJECT
 62
     7
 10
58.122014
 20
48.987232
 30
0.0
  0
VERTEX
  8
OBJECT
 62
     7
 10
58.466014
 20
48.987232
 30
0.0
  0
VERTEX
  8
OBJECT
 62
     7
 10
58.466014
 20
49.331232
 30
0.0
  0
VERTEX
  8
OBJECT
 62
     7
 10
58.122014
 20
49.331232
 30
0.0
  0
VERTEX
  8
OBJECT
 62
     7
 10
58.122014
 20
48.987232
 30
0.0
  0
SEQEND
  8
OBJECT
 62
     7
  0
POLYLINE
  8
OBJECT
 62
     7
 66
     1
 10
0.0
 20
0.0
 30
0.0
  0
VERTEX
  8
OBJECT
 62
     7
 10
58.747014
 20
48.987232
 30
0.0
  0
VERTEX
  8
OBJECT
 62
     7
 10
59.091014
 20
48.987232
 30
0.0
  0
VERTEX
  8
OBJECT
 62
     7
 10
59.091014
 20
49.331232
 30
0.0
  0
VERTEX
  8
OBJECT
 62
     7
 10
58.747014
 20
49.331232
 30
0.0
  0
VERTEX
  8
OBJECT
 62
     7
 10
58.747014
 20
48.987232
 30
0.0
  0
SEQEND
  8
OBJECT
 62
     7
  0
POLYLINE
  8
OBJECT
 62
     7
 66
     1
 10
0.0
 20
0.0
 30
0.0
  0
VERTEX
  8
OBJECT
 62
     7
 10
59.372014
 20
48.987232
 30
0.0
  0
VERTEX
  8
OBJECT
 62
     7
 10
59.716014
 20
48.987232
 30
0.0
  0
VERTEX
  8
OBJECT
 62
     7
 10
59.716014
 20
49.331232
 30
0.0
  0
VERTEX
  8
OBJECT
 62
     7
 10
59.372014
 20
49.331232
 30
0.0
  0
VERTEX
  8
OBJECT
 62
     7
 10
59.372014
 20
48.987232
 30
0.0
  0
SEQEND
  8
OBJECT
 62
     7
  0
POLYLINE
  8
OBJECT
 62
     7
 66
     1
 10
0.0
 20
0.0
 30
0.0
  0
VERTEX
  8
OBJECT
 62
     7
 10
59.872014
 20
48.987232
 30
0.0
  0
VERTEX
  8
OBJECT
 62
     7
 10
60.216014
 20
48.987232
 30
0.0
  0
VERTEX
  8
OBJECT
 62
     7
 10
60.216014
 20
49.331232
 30
0.0
  0
VERTEX
  8
OBJECT
 62
     7
 10
59.872014
 20
49.331232
 30
0.0
  0
VERTEX
  8
OBJECT
 62
     7
 10
59.872014
 20
48.987232
 30
0.0
  0
SEQEND
  8
OBJECT
 62
     7
  0
POLYLINE
  8
OBJECT
 62
     7
 66
     1
 10
0.0
 20
0.0
 30
0.0
  0
VERTEX
  8
OBJECT
 62
     7
 10
60.497014
 20
48.987232
 30
0.0
  0
VERTEX
  8
OBJECT
 62
     7
 10
60.841014
 20
48.987232
 30
0.0
  0
VERTEX
  8
OBJECT
 62
     7
 10
60.841014
 20
49.331232
 30
0.0
  0
VERTEX
  8
OBJECT
 62
     7
 10
60.497014
 20
49.331232
 30
0.0
  0
VERTEX
  8
OBJECT
 62
     7
 10
60.497014
 20
48.987232
 30
0.0
  0
SEQEND
  8
OBJECT
 62
     7
  0
POLYLINE
  8
OBJECT
 62
     7
 66
     1
 10
0.0
 20
0.0
 30
0.0
  0
VERTEX
  8
OBJECT
 62
     7
 10
61.122014
 20
48.987232
 30
0.0
  0
VERTEX
  8
OBJECT
 62
     7
 10
61.466014
 20
48.987232
 30
0.0
  0
VERTEX
  8
OBJECT
 62
     7
 10
61.466014
 20
49.331232
 30
0.0
  0
VERTEX
  8
OBJECT
 62
     7
 10
61.122014
 20
49.331232
 30
0.0
  0
VERTEX
  8
OBJECT
 62
     7
 10
61.122014
 20
48.987232
 30
0.0
  0
SEQEND
  8
OBJECT
 62
     7
  0
POLYLINE
  8
OBJECT
 62
     7
 66
     1
 10
0.0
 20
0.0
 30
0.0
  0
VERTEX
  8
OBJECT
 62
     7
 10
61.622014
 20
48.987232
 30
0.0
  0
VERTEX
  8
OBJECT
 62
     7
 10
61.966014
 20
48.987232
 30
0.0
  0
VERTEX
  8
OBJECT
 62
     7
 10
61.966014
 20
49.331232
 30
0.0
  0
VERTEX
  8
OBJECT
 62
     7
 10
61.622014
 20
49.331232
 30
0.0
  0
VERTEX
  8
OBJECT
 62
     7
 10
61.622014
 20
48.987232
 30
0.0
  0
SEQEND
  8
OBJECT
 62
     7
  0
POLYLINE
  8
OBJECT
 62
     7
 66
     1
 10
0.0
 20
0.0
 30
0.0
  0
VERTEX
  8
OBJECT
 62
     7
 10
62.247014
 20
48.987232
 30
0.0
  0
VERTEX
  8
OBJECT
 62
     7
 10
62.591014
 20
48.987232
 30
0.0
  0
VERTEX
  8
OBJECT
 62
     7
 10
62.591014
 20
49.331232
 30
0.0
  0
VERTEX
  8
OBJECT
 62
     7
 10
62.247014
 20
49.331232
 30
0.0
  0
VERTEX
  8
OBJECT
 62
     7
 10
62.247014
 20
48.987232
 30
0.0
  0
SEQEND
  8
OBJECT
 62
     7
  0
POLYLINE
  8
OBJECT
 62
     7
 66
     1
 10
0.0
 20
0.0
 30
0.0
  0
VERTEX
  8
OBJECT
 62
     7
 10
62.872014
 20
48.987232
 30
0.0
  0
VERTEX
  8
OBJECT
 62
     7
 10
63.216014
 20
48.987232
 30
0.0
  0
VERTEX
  8
OBJECT
 62
     7
 10
63.216014
 20
49.331232
 30
0.0
  0
VERTEX
  8
OBJECT
 62
     7
 10
62.872014
 20
49.331232
 30
0.0
  0
VERTEX
  8
OBJECT
 62
     7
 10
62.872014
 20
48.987232
 30
0.0
  0
SEQEND
  8
OBJECT
 62
     7
  0
POLYLINE
  8
OBJECT
 62
     7
 66
     1
 10
0.0
 20
0.0
 30
0.0
  0
VERTEX
  8
OBJECT
 62
     7
 10
63.372014
 20
48.987232
 30
0.0
  0
VERTEX
  8
OBJECT
 62
     7
 10
63.716014
 20
48.987232
 30
0.0
  0
VERTEX
  8
OBJECT
 62
     7
 10
63.716014
 20
49.331232
 30
0.0
  0
VERTEX
  8
OBJECT
 62
     7
 10
63.372014
 20
49.331232
 30
0.0
  0
VERTEX
  8
OBJECT
 62
     7
 10
63.372014
 20
48.987232
 30
0.0
  0
SEQEND
  8
OBJECT
 62
     7
  0
POLYLINE
  8
OBJECT
 62
     7
 66
     1
 10
0.0
 20
0.0
 30
0.0
  0
VERTEX
  8
OBJECT
 62
     7
 10
63.997014
 20
48.987232
 30
0.0
  0
VERTEX
  8
OBJECT
 62
     7
 10
64.341014
 20
48.987232
 30
0.0
  0
VERTEX
  8
OBJECT
 62
     7
 10
64.341014
 20
49.331232
 30
0.0
  0
VERTEX
  8
OBJECT
 62
     7
 10
63.997014
 20
49.331232
 30
0.0
  0
VERTEX
  8
OBJECT
 62
     7
 10
63.997014
 20
48.987232
 30
0.0
  0
SEQEND
  8
OBJECT
 62
     7
  0
POLYLINE
  8
OBJECT
 62
     7
 66
     1
 10
0.0
 20
0.0
 30
0.0
  0
VERTEX
  8
OBJECT
 62
     7
 10
64.622014
 20
48.987232
 30
0.0
  0
VERTEX
  8
OBJECT
 62
     7
 10
64.966014
 20
48.987232
 30
0.0
  0
VERTEX
  8
OBJECT
 62
     7
 10
64.966014
 20
49.331232
 30
0.0
  0
VERTEX
  8
OBJECT
 62
     7
 10
64.622014
 20
49.331232
 30
0.0
  0
VERTEX
  8
OBJECT
 62
     7
 10
64.622014
 20
48.987232
 30
0.0
  0
SEQEND
  8
OBJECT
 62
     7
  0
POLYLINE
  8
OBJECT
 62
     7
 66
     1
 10
0.0
 20
0.0
 30
0.0
  0
VERTEX
  8
OBJECT
 62
     7
 10
65.122014
 20
48.987232
 30
0.0
  0
VERTEX
  8
OBJECT
 62
     7
 10
65.466014
 20
48.987232
 30
0.0
  0
VERTEX
  8
OBJECT
 62
     7
 10
65.466014
 20
49.331232
 30
0.0
  0
VERTEX
  8
OBJECT
 62
     7
 10
65.122014
 20
49.331232
 30
0.0
  0
VERTEX
  8
OBJECT
 62
     7
 10
65.122014
 20
48.987232
 30
0.0
  0
SEQEND
  8
OBJECT
 62
     7
  0
POLYLINE
  8
OBJECT
 62
     7
 66
     1
 10
0.0
 20
0.0
 30
0.0
  0
VERTEX
  8
OBJECT
 62
     7
 10
65.747014
 20
48.987232
 30
0.0
  0
VERTEX
  8
OBJECT
 62
     7
 10
66.091014
 20
48.987232
 30
0.0
  0
VERTEX
  8
OBJECT
 62
     7
 10
66.091014
 20
49.331232
 30
0.0
  0
VERTEX
  8
OBJECT
 62
     7
 10
65.747014
 20
49.331232
 30
0.0
  0
VERTEX
  8
OBJECT
 62
     7
 10
65.747014
 20
48.987232
 30
0.0
  0
SEQEND
  8
OBJECT
 62
     7
  0
POLYLINE
  8
OBJECT
 62
     7
 66
     1
 10
0.0
 20
0.0
 30
0.0
  0
VERTEX
  8
OBJECT
 62
     7
 10
66.372014
 20
48.987232
 30
0.0
  0
VERTEX
  8
OBJECT
 62
     7
 10
66.716014
 20
48.987232
 30
0.0
  0
VERTEX
  8
OBJECT
 62
     7
 10
66.716014
 20
49.331232
 30
0.0
  0
VERTEX
  8
OBJECT
 62
     7
 10
66.372014
 20
49.331232
 30
0.0
  0
VERTEX
  8
OBJECT
 62
     7
 10
66.372014
 20
48.987232
 30
0.0
  0
SEQEND
  8
OBJECT
 62
     7
  0
POLYLINE
  8
OBJECT
 62
     7
 66
     1
 10
0.0
 20
0.0
 30
0.0
  0
VERTEX
  8
OBJECT
 62
     7
 10
66.872014
 20
48.987232
 30
0.0
  0
VERTEX
  8
OBJECT
 62
     7
 10
67.216014
 20
48.987232
 30
0.0
  0
VERTEX
  8
OBJECT
 62
     7
 10
67.216014
 20
49.331232
 30
0.0
  0
VERTEX
  8
OBJECT
 62
     7
 10
66.872014
 20
49.331232
 30
0.0
  0
VERTEX
  8
OBJECT
 62
     7
 10
66.872014
 20
48.987232
 30
0.0
  0
SEQEND
  8
OBJECT
 62
     7
  0
POLYLINE
  8
OBJECT
 62
     7
 66
     1
 10
0.0
 20
0.0
 30
0.0
  0
VERTEX
  8
OBJECT
 62
     7
 10
67.497014
 20
48.987232
 30
0.0
  0
VERTEX
  8
OBJECT
 62
     7
 10
67.841014
 20
48.987232
 30
0.0
  0
VERTEX
  8
OBJECT
 62
     7
 10
67.841014
 20
49.331232
 30
0.0
  0
VERTEX
  8
OBJECT
 62
     7
 10
67.497014
 20
49.331232
 30
0.0
  0
VERTEX
  8
OBJECT
 62
     7
 10
67.497014
 20
48.987232
 30
0.0
  0
SEQEND
  8
OBJECT
 62
     7
  0
POLYLINE
  8
OBJECT
 62
     7
 66
     1
 10
0.0
 20
0.0
 30
0.0
  0
VERTEX
  8
OBJECT
 62
     7
 10
68.122014
 20
48.987232
 30
0.0
  0
VERTEX
  8
OBJECT
 62
     7
 10
68.466014
 20
48.987232
 30
0.0
  0
VERTEX
  8
OBJECT
 62
     7
 10
68.466014
 20
49.331232
 30
0.0
  0
VERTEX
  8
OBJECT
 62
     7
 10
68.122014
 20
49.331232
 30
0.0
  0
VERTEX
  8
OBJECT
 62
     7
 10
68.122014
 20
48.987232
 30
0.0
  0
SEQEND
  8
OBJECT
 62
     7
  0
LINE
  8
HIDDEN
 62
     7
 10
68.544014
 20
48.831232
 30
0.0
 11
7.294014
 21
48.831232
 31
0.0
  0
POLYLINE
  8
OBJECT
 62
     7
 66
     1
 10
0.0
 20
0.0
 30
0.0
  0
VERTEX
  8
OBJECT
 62
     7
 10
79.883663
 20
46.343968
 30
0.0
  0
VERTEX
  8
OBJECT
 62
     7
 10
80.571663
 20
46.343968
 30
0.0
  0
VERTEX
  8
OBJECT
 62
     7
 10
80.571663
 20
47.031968
 30
0.0
  0
VERTEX
  8
OBJECT
 62
     7
 10
79.883663
 20
47.031968
 30
0.0
  0
VERTEX
  8
OBJECT
 62
     7
 10
79.883663
 20
46.343968
 30
0.0
  0
SEQEND
  8
OBJECT
 62
     7
  0
POLYLINE
  8
OBJECT
 62
     7
 66
     1
 10
0.0
 20
0.0
 30
0.0
  0
VERTEX
  8
OBJECT
 62
     7
 10
81.133663
 20
46.343968
 30
0.0
  0
VERTEX
  8
OBJECT
 62
     7
 10
81.821663
 20
46.343968
 30
0.0
  0
VERTEX
  8
OBJECT
 62
     7
 10
81.821663
 20
47.031968
 30
0.0
  0
VERTEX
  8
OBJECT
 62
     7
 10
81.133663
 20
47.031968
 30
0.0
  0
VERTEX
  8
OBJECT
 62
     7
 10
81.133663
 20
46.343968
 30
0.0
  0
SEQEND
  8
OBJECT
 62
     7
  0
POLYLINE
  8
OBJECT
 62
     7
 66
     1
 10
0.0
 20
0.0
 30
0.0
  0
VERTEX
  8
OBJECT
 62
     7
 10
82.383663
 20
46.343968
 30
0.0
  0
VERTEX
  8
OBJECT
 62
     7
 10
83.071663
 20
46.343968
 30
0.0
  0
VERTEX
  8
OBJECT
 62
     7
 10
83.071663
 20
47.031968
 30
0.0
  0
VERTEX
  8
OBJECT
 62
     7
 10
82.383663
 20
47.031968
 30
0.0
  0
VERTEX
  8
OBJECT
 62
     7
 10
82.383663
 20
46.343968
 30
0.0
  0
SEQEND
  8
OBJECT
 62
     7
  0
POLYLINE
  8
OBJECT
 62
     7
 66
     1
 10
0.0
 20
0.0
 30
0.0
  0
VERTEX
  8
OBJECT
 62
     7
 10
83.383663
 20
46.343968
 30
0.0
  0
VERTEX
  8
OBJECT
 62
     7
 10
84.071663
 20
46.343968
 30
0.0
  0
VERTEX
  8
OBJECT
 62
     7
 10
84.071663
 20
47.031968
 30
0.0
  0
VERTEX
  8
OBJECT
 62
     7
 10
83.383663
 20
47.031968
 30
0.0
  0
VERTEX
  8
OBJECT
 62
     7
 10
83.383663
 20
46.343968
 30
0.0
  0
SEQEND
  8
OBJECT
 62
     7
  0
POLYLINE
  8
OBJECT
 62
     7
 66
     1
 10
0.0
 20
0.0
 30
0.0
  0
VERTEX
  8
OBJECT
 62
     7
 10
84.633663
 20
46.343968
 30
0.0
  0
VERTEX
  8
OBJECT
 62
     7
 10
84.926493
 20
46.343968
 30
0.0
  0
SEQEND
  8
OBJECT
 62
     7
  0
POLYLINE
  8
OBJECT
 62
     7
 66
     1
 10
0.0
 20
0.0
 30
0.0
  0
VERTEX
  8
OBJECT
 62
     7
 10
85.041882
 20
47.031968
 30
0.0
  0
VERTEX
  8
OBJECT
 62
     7
 10
84.633663
 20
47.031968
 30
0.0
  0
VERTEX
  8
OBJECT
 62
     7
 10
84.633663
 20
46.343968
 30
0.0
  0
SEQEND
  8
OBJECT
 62
     7
  0
POLYLINE
  8
OBJECT
 62
     7
 66
     1
 10
0.0
 20
0.0
 30
0.0
 75
     6
  0
VERTEX
  8
OBJECT
 62
     7
 10
84.811448
 20
47.187968
 30
0.0
  0
VERTEX
  8
OBJECT
 62
     7
 10
84.92729
 20
47.14586
 30
0.0
  0
VERTEX
  8
OBJECT
 62
     7
 10
84.999146
 20
47.104125
 30
0.0
  0
VERTEX
  8
OBJECT
 62
     7
 10
85.035262
 20
47.062968
 30
0.0
  0
VERTEX
  8
OBJECT
 62
     7
 10
85.041882
 20
47.031968
 30
0.0
  0
SEQEND
  8
OBJECT
 62
     7
  0
POLYLINE
  8
OBJECT
 62
     7
 66
     1
 10
0.0
 20
0.0
 30
0.0
 75
     6
  0
VERTEX
  8
OBJECT
 62
     7
 10
84.926493
 20
46.343968
 30
0.0
  0
VERTEX
  8
OBJECT
 62
     7
 10
84.92974
 20
46.309767
 30
0.0
  0
VERTEX
  8
OBJECT
 62
     7
 10
84.946225
 20
46.268652
 30
0.0
  0
VERTEX
  8
OBJECT
 62
     7
 10
84.96921
 20
46.225573
 30
0.0
  0
VERTEX
  8
OBJECT
 62
     7
 10
84.990714
 20
46.178531
 30
0.0
  0
VERTEX
  8
OBJECT
 62
     7
 10
85.002759
 20
46.12553
 30
0.0
  0
VERTEX
  8
OBJECT
 62
     7
 10
84.997366
 20
46.064571
 30
0.0
  0
VERTEX
  8
OBJECT
 62
     7
 10
84.966556
 20
45.993656
 30
0.0
  0
VERTEX
  8
OBJECT
 62
     7
 10
84.90235
 20
45.910788
 30
0.0
  0
VERTEX
  8
OBJECT
 62
     7
 10
84.796768
 20
45.813968
 30
0.0
  0
SEQEND
  8
OBJECT
 62
     7
  0
LINE
  8
HIDDEN
 62
     7
 10
84.983201
 20
46.031968
 30
0.0
 11
79.727663
 21
46.031968
 31
0.0
  0
POLYLINE
  8
OBJECT
 62
     7
 66
     1
 10
0.0
 20
0.0
 30
0.0
  0
VERTEX
  8
OBJECT
 62
     7
 10
7.097608
 20
10.402773
 30
0.0
  0
VERTEX
  8
OBJECT
 62
     7
 10
7.785608
 20
10.402773
 30
0.0
  0
VERTEX
  8
OBJECT
 62
     7
 10
7.785608
 20
11.090773
 30
0.0
  0
VERTEX
  8
OBJECT
 62
     7
 10
7.097608
 20
11.090773
 30
0.0
  0
VERTEX
  8
OBJECT
 62
     7
 10
7.097608
 20
10.402773
 30
0.0
  0
SEQEND
  8
OBJECT
 62
     7
  0
POLYLINE
  8
OBJECT
 62
     7
 66
     1
 10
0.0
 20
0.0
 30
0.0
  0
VERTEX
  8
OBJECT
 62
     7
 10
8.347608
 20
10.402773
 30
0.0
  0
VERTEX
  8
OBJECT
 62
     7
 10
9.035608
 20
10.402773
 30
0.0
  0
VERTEX
  8
OBJECT
 62
     7
 10
9.035608
 20
11.090773
 30
0.0
  0
VERTEX
  8
OBJECT
 62
     7
 10
8.347608
 20
11.090773
 30
0.0
  0
VERTEX
  8
OBJECT
 62
     7
 10
8.347608
 20
10.402773
 30
0.0
  0
SEQEND
  8
OBJECT
 62
     7
  0
POLYLINE
  8
OBJECT
 62
     7
 66
     1
 10
0.0
 20
0.0
 30
0.0
  0
VERTEX
  8
OBJECT
 62
     7
 10
9.597608
 20
10.402773
 30
0.0
  0
VERTEX
  8
OBJECT
 62
     7
 10
10.285608
 20
10.402773
 30
0.0
  0
VERTEX
  8
OBJECT
 62
     7
 10
10.285608
 20
11.090773
 30
0.0
  0
VERTEX
  8
OBJECT
 62
     7
 10
9.597608
 20
11.090773
 30
0.0
  0
VERTEX
  8
OBJECT
 62
     7
 10
9.597608
 20
10.402773
 30
0.0
  0
SEQEND
  8
OBJECT
 62
     7
  0
POLYLINE
  8
OBJECT
 62
     7
 66
     1
 10
0.0
 20
0.0
 30
0.0
  0
VERTEX
  8
OBJECT
 62
     7
 10
10.597608
 20
10.402773
 30
0.0
  0
VERTEX
  8
OBJECT
 62
     7
 10
11.285608
 20
10.402773
 30
0.0
  0
VERTEX
  8
OBJECT
 62
     7
 10
11.285608
 20
11.090773
 30
0.0
  0
VERTEX
  8
OBJECT
 62
     7
 10
10.597608
 20
11.090773
 30
0.0
  0
VERTEX
  8
OBJECT
 62
     7
 10
10.597608
 20
10.402773
 30
0.0
  0
SEQEND
  8
OBJECT
 62
     7
  0
POLYLINE
  8
OBJECT
 62
     7
 66
     1
 10
0.0
 20
0.0
 30
0.0
  0
VERTEX
  8
OBJECT
 62
     7
 10
11.847608
 20
10.402773
 30
0.0
  0
VERTEX
  8
OBJECT
 62
     7
 10
12.535608
 20
10.402773
 30
0.0
  0
VERTEX
  8
OBJECT
 62
     7
 10
12.535608
 20
11.090773
 30
0.0
  0
VERTEX
  8
OBJECT
 62
     7
 10
11.847608
 20
11.090773
 30
0.0
  0
VERTEX
  8
OBJECT
 62
     7
 10
11.847608
 20
10.402773
 30
0.0
  0
SEQEND
  8
OBJECT
 62
     7
  0
ENDSEC
  0
EOF
