  0
SECTION
  2
HEADER
  9
$ACADVER
  1
AC1009
  9
$DWGCODEPAGE
  3
ansi_1252
  9
$INSBASE
 10
0.0
 20
0.0
 30
0.0
  9
$EXTMIN
 10
0.0
 20
0.0
 30
0.0
  9
$EXTMAX
 10
51.0
 20
33.0
 30
0.0
  9
$LIMMIN
 10
0.0
 20
0.0
  9
$LIMMAX
 10
51.0
 20
33.0
  9
$ORTHOMODE
 70
     0
  9
$REGENMODE
 70
     1
  9
$FILLMODE
 70
     1
  9
$QTEXTMODE
 70
     0
  9
$MIRRTEXT
 70
     1
  9
$DRAGMODE
 70
     2
  9
$LTSCALE
 40
3.0
  9
$OSMODE
 70
    37
  9
$ATTMODE
 70
     1
  9
$TEXTSIZE
 40
0.375
  9
$TRACEWID
 40
0.05
  9
$TEXTSTYLE
  7
STANDARD
  9
$CLAYER
  8
0
  9
$CELTYPE
  6
BYLAYER
  9
$CECOLOR
 62
   256
  9
$DIMSCALE
 40
1.0
  9
$DIMASZ
 40
0.39
  9
$DIMEXO
 40
0.15
  9
$DIMDLI
 40
0.38
  9
$DIMRND
 40
0.0
  9
$DIMDLE
 40
0.0
  9
$DIMEXE
 40
0.375
  9
$DIMTP
 40
0.0
  9
$DIMTM
 40
0.0
  9
$DIMTXT
 40
0.375
  9
$DIMCEN
 40
0.09
  9
$DIMTSZ
 40
0.0
  9
$DIMTOL
 70
     0
  9
$DIMLIM
 70
     0
  9
$DIMTIH
 70
     1
  9
$DIMTOH
 70
     1
  9
$DIMSE1
 70
     0
  9
$DIMSE2
 70
     0
  9
$DIMTAD
 70
     1
  9
$DIMZIN
 70
     0
  9
$DIMBLK
  1

  9
$DIMASO
 70
     1
  9
$DIMSHO
 70
     1
  9
$DIMPOST
  1

  9
$DIMAPOST
  1

  9
$DIMALT
 70
     0
  9
$DIMALTD
 70
     2
  9
$DIMALTF
 40
25.4
  9
$DIMLFAC
 40
1.0
  9
$DIMTOFL
 70
     0
  9
$DIMTVP
 40
0.0
  9
$DIMTIX
 70
     0
  9
$DIMSOXD
 70
     0
  9
$DIMSAH
 70
     0
  9
$DIMBLK1
  1

  9
$DIMBLK2
  1

  9
$DIMSTYLE
  2
STANDARD
  9
$DIMCLRD
 70
     0
  9
$DIMCLRE
 70
     0
  9
$DIMCLRT
 70
     0
  9
$DIMTFAC
 40
1.0
  9
$DIMGAP
 40
0.18
  9
$LUNITS
 70
     2
  9
$LUPREC
 70
     3
  9
$SKETCHINC
 40
0.1
  9
$FILLETRAD
 40
0.5
  9
$AUNITS
 70
     0
  9
$AUPREC
 70
     2
  9
$MENU
  1
.
  9
$ELEVATION
 40
0.0
  9
$PELEVATION
 40
0.0
  9
$THICKNESS
 40
0.0
  9
$LIMCHECK
 70
     0
  9
$CHAMFERA
 40
0.5
  9
$CHAMFERB
 40
0.5
  9
$SKPOLY
 70
     0
  9
$TDCREATE
 40
2456500.305114583
  9
$TDUPDATE
 40
2456500.305114595
  9
$TDINDWG
 40
0.0000000116
  9
$TDUSRTIMER
 40
0.0000000116
  9
$USRTIMER
 70
     1
  9
$ANGBASE
 50
0.0
  9
$ANGDIR
 70
     0
  9
$PDMODE
 70
     0
  9
$PDSIZE
 40
-1.0
  9
$PLINEWID
 40
0.0
  9
$COORDS
 70
     1
  9
$SPLFRAME
 70
     0
  9
$SPLINETYPE
 70
     6
  9
$SPLINESEGS
 70
     8
  9
$ATTDIA
 70
     0
  9
$ATTREQ
 70
     1
  9
$HANDLING
 70
     1
  9
$HANDSEED
  5
374
  9
$SURFTAB1
 70
     6
  9
$SURFTAB2
 70
     6
  9
$SURFTYPE
 70
     6
  9
$SURFU
 70
     6
  9
$SURFV
 70
     6
  9
$UCSNAME
  2

  9
$UCSORG
 10
0.0
 20
0.0
 30
0.0
  9
$UCSXDIR
 10
1.0
 20
0.0
 30
0.0
  9
$UCSYDIR
 10
0.0
 20
1.0
 30
0.0
  9
$PUCSNAME
  2

  9
$PUCSORG
 10
0.0
 20
0.0
 30
0.0
  9
$PUCSXDIR
 10
1.0
 20
0.0
 30
0.0
  9
$PUCSYDIR
 10
0.0
 20
1.0
 30
0.0
  9
$USERI1
 70
     0
  9
$USERI2
 70
     0
  9
$USERI3
 70
     0
  9
$USERI4
 70
     0
  9
$USERI5
 70
     0
  9
$USERR1
 40
0.0
  9
$USERR2
 40
0.0
  9
$USERR3
 40
0.0
  9
$USERR4
 40
0.0
  9
$USERR5
 40
0.0
  9
$WORLDVIEW
 70
     1
  9
$SHADEDGE
 70
     3
  9
$SHADEDIF
 70
    70
  9
$TILEMODE
 70
     1
  9
$MAXACTVP
 70
    64
  9
$PLIMCHECK
 70
     0
  9
$PEXTMIN
 10
1.0000000000E+20
 20
1.0000000000E+20
 30
1.0000000000E+20
  9
$PEXTMAX
 10
-1.0000000000E+20
 20
-1.0000000000E+20
 30
-1.0000000000E+20
  9
$PLIMMIN
 10
0.0
 20
0.0
  9
$PLIMMAX
 10
12.0
 20
9.0
  9
$UNITMODE
 70
     0
  9
$VISRETAIN
 70
     1
  9
$PLINEGEN
 70
     0
  9
$PSLTSCALE
 70
     1
  0
ENDSEC
  0
SECTION
  2
TABLES
  0
TABLE
  2
VPORT
 70
     1
  0
VPORT
  2
*ACTIVE
 70
     0
 10
0.0
 20
0.0
 11
1.0
 21
1.0
 12
25.5
 22
16.5
 13
0.0
 23
0.0
 14
0.5
 24
0.5
 15
0.5
 25
0.5
 16
0.0
 26
0.0
 36
1.0
 17
0.0
 27
0.0
 37
0.0
 40
33.0
 41
1.5454545455
 42
50.0
 43
0.0
 44
0.0
 50
0.0
 51
0.0
 71
     0
 72
  2000
 73
     1
 74
     3
 75
     0
 76
     0
 77
     0
 78
     0
  0
ENDTAB
  0
TABLE
  2
LTYPE
 70
     6
  0
LTYPE
  2
CONTINUOUS
 70
     0
  3
Solid line
 72
    65
 73
     0
 40
0.0
  0
LTYPE
  2
HIDDEN
 70
     0
  3
Hidden __ __ __ __ __ __ __ __ __ __ __ __ __ __
 72
    65
 73
     2
 40
0.075
 49
0.05
 49
-0.025
  0
LTYPE
  2
PHANTOM
 70
     0
  3
Phantom ______  __  __  ______  __  __  ______
 72
    65
 73
     6
 40
0.5
 49
0.25
 49
-0.05
 49
0.05
 49
-0.05
 49
0.05
 49
-0.05
  0
LTYPE
  2
CENTER
 70
     0
  3
Center ____ _ ____ _ ____ _ ____ _ ____ _ ____
 72
    65
 73
     4
 40
0.4
 49
0.25
 49
-0.05
 49
0.05
 49
-0.05
  0
LTYPE
  2
CENTERX2
 70
     0
  3
Center (2x) ________  __  ________  __  _____
 72
    65
 73
     4
 40
0.8
 49
0.5
 49
-0.1
 49
0.1
 49
-0.1
  0
LTYPE
  2
DOT2
 70
     0
  3
Dot (.5x) ........................................
 72
    65
 73
     2
 40
0.025
 49
0.0
 49
-0.025
  0
ENDTAB
  0
TABLE
  2
LAYER
 70
     1
  0
LAYER
  2
0
 70
     0
 62
     7
  6
CONTINUOUS
  0
ENDTAB
  0
TABLE
  2
STYLE
 70
     1
  0
STYLE
  2
STANDARD
 70
     0
 40
0.0
 41
1.0
 50
0.0
 71
     0
 42
0.2
  3
txt
  4

  0
ENDTAB
  0
TABLE
  2
VIEW
 70
     0
  0
ENDTAB
  0
TABLE
  2
UCS
 70
     0
  0
ENDTAB
  0
TABLE
  2
APPID
 70
     1
  0
APPID
  2
ACAD
 70
     0
  0
ENDTAB
  0
TABLE
  2
DIMSTYLE
 70
     5
  0
DIMSTYLE
  2
STANDARD
 70
     0
  3

  4

  5

  6

  7

 40
1.0
 41
0.18
 42
0.0625
 43
0.38
 44
0.18
 45
0.0
 46
0.0
 47
0.0
 48
0.0
140
0.18
141
0.09
142
0.0
143
25.4
144
1.0
145
0.0
146
1.0
147
0.09
 71
     0
 72
     0
 73
     1
 74
     1
 75
     0
 76
     0
 77
     0
 78
     0
170
     0
171
     2
172
     0
173
     0
174
     0
175
     0
176
     0
177
     0
178
     0
  0
DIMSTYLE
  2
SLDDIMSTYLE0
 70
     0
  3

  4

  5

  6

  7

 40
1.0
 41
0.39
 42
0.0625
 43
0.38
 44
0.0
 45
0.000000001
 46
0.0
 47
0.0
 48
0.0
140
0.375
141
0.09
142
0.0
143
25.4
144
1.0
145
0.0
146
1.0
147
0.09375
 71
     0
 72
     0
 73
     1
 74
     1
 75
     0
 76
     0
 77
     0
 78
    12
170
     1
171
     2
172
     0
173
     1
174
     0
175
     0
176
     0
177
     0
178
     0
  0
DIMSTYLE
  2
SLDDIMSTYLE1
 70
     0
  3

  4

  5

  6

  7

 40
1.0
 41
0.39
 42
0.0625
 43
0.38
 44
0.0
 45
0.000000001
 46
0.0
 47
0.0
 48
0.0
140
0.375
141
0.09
142
0.0
143
25.4
144
1.0
145
0.0
146
1.0
147
0.09375
 71
     0
 72
     0
 73
     1
 74
     1
 75
     0
 76
     0
 77
     0
 78
     4
170
     1
171
     2
172
     0
173
     1
174
     0
175
     0
176
     0
177
     0
178
     0
  0
DIMSTYLE
  2
SLDDIMSTYLE2
 70
     0
  3

  4

  5

  6

  7

 40
1.0
 41
0.39
 42
0.0625
 43
0.38
 44
0.0
 45
0.000000001
 46
0.0
 47
0.0
 48
0.0
140
0.375
141
0.09
142
0.0
143
25.4
144
1.0
145
0.0
146
1.0
147
0.09375
 71
     0
 72
     0
 73
     1
 74
     1
 75
     0
 76
     0
 77
     0
 78
    12
170
     1
171
     2
172
     1
173
     1
174
     0
175
     0
176
     0
177
     0
178
     0
  0
DIMSTYLE
  2
SLDDIMSTYLE3
 70
     0
  3

  4

  5

  6

  7

 40
1.0
 41
0.39
 42
0.0625
 43
0.38
 44
0.0
 45
0.000000001
 46
0.0
 47
0.0
 48
0.0
140
0.375
141
0.0
142
0.0
143
25.4
144
1.0
145
0.0
146
1.0
147
0.09375
 71
     0
 72
     0
 73
     1
 74
     1
 75
     0
 76
     0
 77
     0
 78
    12
170
     1
171
     2
172
     0
173
     1
174
     0
175
     0
176
     0
177
     0
178
     0
  0
ENDTAB
  0
ENDSEC
  0
SECTION
  2
BLOCKS
  0
BLOCK
  8
0
  2
$MODEL_SPACE
 70
     0
 10
0.0
 20
0.0
 30
0.0
  3
$MODEL_SPACE
  1

  0
ENDBLK
  5
21
  8
0
  0
BLOCK
 67
     1
  8
0
  2
$PAPER_SPACE
 70
     0
 10
0.0
 20
0.0
 30
0.0
  3
$PAPER_SPACE
  1

  0
ENDBLK
  5
1D
 67
     1
  8
0
  0
BLOCK
  8
0
  2
SW_NOTE_0
 70
     0
 10
0.0
 20
0.0
 30
0.0
  3
SW_NOTE_0
  1

  0
TEXT
  5
77
  8
0
  6
CONTINUOUS
 62
     0
 10
0.0
 20
0.1324725232
 30
0.0
 40
0.375
  1
MATERIAL:  16 GA. [1.5mm] STEEL
 41
0.6435483871
 11
0.0
 21
0.0
 31
0.0
 73
     1
  0
TEXT
  5
78
  8
0
  6
CONTINUOUS
 62
     0
 10
0.0
 20
-0.8537479239
 30
0.0
 40
0.375
  1
FINISH:  METALLIC GRAY
 41
0.6522727273
 11
0.0
 21
-0.9862204471
 31
0.0
 73
     1
  0
TEXT
  5
79
  8
0
  6
CONTINUOUS
 62
     0
 10
0.0
 20
-1.3468581474
 30
0.0
 40
0.375
  1
             BLACK TEXTURE
 41
0.5115384615
 11
0.0
 21
-1.4793306706
 31
0.0
 73
     1
  0
TEXT
  5
7A
  8
0
  6
CONTINUOUS
 62
     0
 10
0.0
 20
-2.3330785945
 30
0.0
 40
0.375
  1
LOAD RATING:  150 LBS. [68 KG.] MAX.
 41
0.6319444444
 11
0.0
 21
-2.4655511177
 31
0.0
 73
     1
  0
ENDBLK
  5
76
  8
0
  0
BLOCK
  8
0
  2
SW_NOTE_1
 70
     0
 10
0.0
 20
0.0
 30
0.0
  3
SW_NOTE_1
  1

  0
TEXT
  5
82
  8
0
  6
CONTINUOUS
 62
     0
 10
0.0
 20
0.1324725232
 30
0.0
 40
0.375
  1
PART
 41
0.7
 11
0.0
 21
0.0
 31
0.0
 73
     1
  0
TEXT
  5
83
  8
0
  6
CONTINUOUS
 62
     0
 10
-0.1398111899
 20
-0.3606377003
 30
0.0
 40
0.375
  1
NAME
 41
0.7
 11
-0.1398111899
 21
-0.4931102235
 31
0.0
 73
     1
  0
ENDBLK
  5
81
  8
0
  0
BLOCK
  8
0
  2
SW_NOTE_2
 70
     0
 10
0.0
 20
0.0
 30
0.0
  3
SW_NOTE_2
  1

  0
TEXT
  5
88
  8
0
  6
CONTINUOUS
 62
     0
 10
0.0
 20
0.1324725232
 30
0.0
 40
0.375
  1
PART
 41
0.7
 11
0.0
 21
0.0
 31
0.0
 73
     1
  0
TEXT
  5
89
  8
0
  6
CONTINUOUS
 62
     0
 10
0.1751302144
 20
-0.3606377003
 30
0.0
 40
0.375
  1
No.
 41
0.7
 11
0.1751302144
 21
-0.4931102235
 31
0.0
 73
     1
  0
ENDBLK
  5
87
  8
0
  0
BLOCK
  8
0
  2
SW_NOTE_3
 70
     0
 10
0.0
 20
0.0
 30
0.0
  3
SW_NOTE_3
  1

  0
TEXT
  5
8E
  8
0
  6
CONTINUOUS
 62
     0
 10
0.0
 20
0.1324725232
 30
0.0
 40
0.375
  1
REVISION
 41
0.7
 11
0.0
 21
0.0
 31
0.0
 73
     1
  0
TEXT
  5
8F
  8
0
  6
CONTINUOUS
 62
     0
 10
0.4686848957
 20
-0.3606377003
 30
0.0
 40
0.375
  1
DATE
 41
0.7
 11
0.4686848957
 21
-0.4931102235
 31
0.0
 73
     1
  0
ENDBLK
  5
8D
  8
0
  0
BLOCK
  8
0
  2
*D5
 70
     1
 10
0.0
 20
0.0
 30
0.0
  3
*D5
  1

  0
SOLID
  5
170
  8
0
  6
CONTINUOUS
 62
     7
 10
5.8597256852
 20
11.9922901399
 30
0.0
 11
6.2497256852
 21
11.9322901399
 31
0.0
 12
6.2497256852
 22
12.0522901399
 32
0.0
 13
6.2497256852
 23
12.0522901399
 33
0.0
  0
SOLID
  5
171
  8
0
  6
CONTINUOUS
 62
     7
 10
24.2037256852
 20
11.9922901399
 30
0.0
 11
23.8137256852
 21
12.0522901399
 31
0.0
 12
23.8137256852
 22
11.9322901399
 32
0.0
 13
23.8137256852
 23
11.9322901399
 33
0.0
  0
LINE
  5
172
  8
0
  6
CONTINUOUS
 62
     7
 10
14.3130733624
 20
11.989425553
 30
0.0
 11
14.2369014836
 21
11.989425553
 31
0.0
  0
LINE
  5
173
  8
0
  6
CONTINUOUS
 62
     7
 10
14.2369014836
 20
11.989425553
 30
0.0
 11
14.2369014836
 21
11.3941130351
 31
0.0
  0
LINE
  5
174
  8
0
  6
CONTINUOUS
 62
     7
 10
14.2369014836
 20
11.3941130351
 30
0.0
 11
14.3130733624
 21
11.3941130351
 31
0.0
  0
LINE
  5
175
  8
0
  6
CONTINUOUS
 62
     7
 10
15.7503780354
 20
11.989425553
 30
0.0
 11
15.8265499142
 21
11.989425553
 31
0.0
  0
LINE
  5
176
  8
0
  6
CONTINUOUS
 62
     7
 10
15.8265499142
 20
11.989425553
 30
0.0
 11
15.8265499142
 21
11.3941130351
 31
0.0
  0
LINE
  5
177
  8
0
  6
CONTINUOUS
 62
     7
 10
15.8265499142
 20
11.3941130351
 30
0.0
 11
15.7503780354
 21
11.3941130351
 31
0.0
  0
LINE
  5
178
  8
0
  6
CONTINUOUS
 62
     7
 10
5.8597256852
 20
10.6752111611
 30
0.0
 11
5.8597256852
 21
12.3672901399
 31
0.0
  0
LINE
  5
179
  8
0
  6
CONTINUOUS
 62
     7
 10
24.2037256852
 20
10.6752111611
 30
0.0
 11
24.2037256852
 21
12.3672901399
 31
0.0
  0
LINE
  5
17A
  8
0
  6
CONTINUOUS
 62
     7
 10
5.8597256852
 20
11.9922901399
 30
0.0
 11
13.9651835176
 21
11.9922901399
 31
0.0
  0
LINE
  5
17B
  8
0
  6
CONTINUOUS
 62
     7
 10
24.2037256852
 20
11.9922901399
 30
0.0
 11
16.0982678527
 21
11.9922901399
 31
0.0
  0
TEXT
  5
17C
  8
0
  6
CONTINUOUS
 62
     7
 10
14.0412309074
 20
12.2037991495
 30
0.0039370079
 40
0.375
  1
 
 41
0.7
 11
14.0412309074
 21
12.0713266262
 31
0.0039370079
 73
     1
  0
TEXT
  5
17D
  8
0
  6
CONTINUOUS
 62
     7
 10
14.2559444945
 20
12.198069955
 30
0.0039370079
 40
0.375
  1
18.34
 41
0.7
 11
14.2559444945
 21
12.0655974318
 31
0.0039370079
 73
     1
  0
TEXT
  5
17E
  8
0
  6
CONTINUOUS
 62
     7
 10
14.4082882109
 20
11.5265855377
 30
0.0039370079
 40
0.375
  1
465.9
 41
0.7
 11
14.4082882109
 21
11.3941130145
 31
0.0039370079
 73
     1
  0
TEXT
  5
17F
  8
0
  6
CONTINUOUS
 62
     7
 10
15.8836788233
 20
12.2037991495
 30
0.0039370079
 40
0.375
  1
 
 41
0.7
 11
15.8836788233
 21
12.0713266262
 31
0.0039370079
 73
     1
  0
ENDBLK
  5
16F
  8
0
  0
BLOCK
  8
0
  2
*D6
 70
     1
 10
0.0
 20
0.0
 30
0.0
  3
*D6
  1

  0
SOLID
  5
185
  8
0
  6
CONTINUOUS
 62
     7
 10
5.5317256852
 20
13.5957810157
 30
0.0
 11
5.9217256852
 21
13.5357810157
 31
0.0
 12
5.9217256852
 22
13.6557810157
 32
0.0
 13
5.9217256852
 23
13.6557810157
 33
0.0
  0
SOLID
  5
186
  8
0
  6
CONTINUOUS
 62
     7
 10
24.5317256852
 20
13.5957810157
 30
0.0
 11
24.1417256852
 21
13.6557810157
 31
0.0
 12
24.1417256852
 22
13.5357810157
 32
0.0
 13
24.1417256852
 23
13.5357810157
 33
0.0
  0
LINE
  5
187
  8
0
  6
CONTINUOUS
 62
     7
 10
14.3130733624
 20
13.5929164288
 30
0.0
 11
14.2369014836
 21
13.5929164288
 31
0.0
  0
LINE
  5
188
  8
0
  6
CONTINUOUS
 62
     7
 10
14.2369014836
 20
13.5929164288
 30
0.0
 11
14.2369014836
 21
12.9976039109
 31
0.0
  0
LINE
  5
189
  8
0
  6
CONTINUOUS
 62
     7
 10
14.2369014836
 20
12.9976039109
 30
0.0
 11
14.3130733624
 21
12.9976039109
 31
0.0
  0
LINE
  5
18A
  8
0
  6
CONTINUOUS
 62
     7
 10
15.7503780354
 20
13.5929164288
 30
0.0
 11
15.8265499142
 21
13.5929164288
 31
0.0
  0
LINE
  5
18B
  8
0
  6
CONTINUOUS
 62
     7
 10
15.8265499142
 20
13.5929164288
 30
0.0
 11
15.8265499142
 21
12.9976039109
 31
0.0
  0
LINE
  5
18C
  8
0
  6
CONTINUOUS
 62
     7
 10
15.8265499142
 20
12.9976039109
 30
0.0
 11
15.7503780354
 21
12.9976039109
 31
0.0
  0
LINE
  5
18D
  8
0
  6
CONTINUOUS
 62
     7
 10
5.5317256852
 20
10.7687111611
 30
0.0
 11
5.5317256852
 21
13.9707810157
 31
0.0
  0
LINE
  5
18E
  8
0
  6
CONTINUOUS
 62
     7
 10
24.5317256852
 20
10.7687111611
 30
0.0
 11
24.5317256852
 21
13.9707810157
 31
0.0
  0
LINE
  5
18F
  8
0
  6
CONTINUOUS
 62
     7
 10
5.5317256852
 20
13.5957810157
 30
0.0
 11
13.9651835176
 21
13.5957810157
 31
0.0
  0
LINE
  5
190
  8
0
  6
CONTINUOUS
 62
     7
 10
24.5317256852
 20
13.5957810157
 30
0.0
 11
16.0982678527
 21
13.5957810157
 31
0.0
  0
TEXT
  5
191
  8
0
  6
CONTINUOUS
 62
     7
 10
14.0412309074
 20
13.8072900252
 30
0.0039370079
 40
0.375
  1
 
 41
0.7
 11
14.0412309074
 21
13.674817502
 31
0.0039370079
 73
     1
  0
TEXT
  5
192
  8
0
  6
CONTINUOUS
 62
     7
 10
14.2559444945
 20
13.8015608308
 30
0.0039370079
 40
0.375
  1
19.00
 41
0.7
 11
14.2559444945
 21
13.6690883076
 31
0.0039370079
 73
     1
  0
TEXT
  5
193
  8
0
  6
CONTINUOUS
 62
     7
 10
14.4082882109
 20
13.1300764134
 30
0.0039370079
 40
0.375
  1
482.6
 41
0.7
 11
14.4082882109
 21
12.9976038902
 31
0.0039370079
 73
     1
  0
TEXT
  5
194
  8
0
  6
CONTINUOUS
 62
     7
 10
15.8836788233
 20
13.8072900252
 30
0.0039370079
 40
0.375
  1
 
 41
0.7
 11
15.8836788233
 21
13.674817502
 31
0.0039370079
 73
     1
  0
ENDBLK
  5
184
  8
0
  0
BLOCK
  8
0
  2
*D7
 70
     1
 10
0.0
 20
0.0
 30
0.0
  3
*D7
  1

  0
SOLID
  5
19A
  8
0
  6
CONTINUOUS
 62
     7
 10
19.3988120267
 20
5.7757111611
 30
0.0
 11
19.4588120267
 21
6.1657111611
 31
0.0
 12
19.3388120267
 22
6.1657111611
 32
0.0
 13
19.3388120267
 23
6.1657111611
 33
0.0
  0
SOLID
  5
19B
  8
0
  6
CONTINUOUS
 62
     7
 10
19.3988120267
 20
5.4007111611
 30
0.0
 11
19.3388120267
 21
5.0107111611
 31
0.0
 12
19.4588120267
 22
5.0107111611
 32
0.0
 13
19.4588120267
 23
5.0107111611
 33
0.0
  0
LINE
  5
19C
  8
0
  6
CONTINUOUS
 62
     7
 10
16.0246738659
 20
4.5144004985
 30
0.0
 11
15.9485019871
 21
4.5144004985
 31
0.0
  0
LINE
  5
19D
  8
0
  6
CONTINUOUS
 62
     7
 10
15.9485019871
 20
4.5144004985
 30
0.0
 11
15.9485019871
 21
3.9190879806
 31
0.0
  0
LINE
  5
19E
  8
0
  6
CONTINUOUS
 62
     7
 10
15.9485019871
 20
3.9190879806
 30
0.0
 11
16.0246738659
 21
3.9190879806
 31
0.0
  0
LINE
  5
19F
  8
0
  6
CONTINUOUS
 62
     7
 10
16.9078118707
 20
4.5144004985
 30
0.0
 11
16.9839837495
 21
4.5144004985
 31
0.0
  0
LINE
  5
1A0
  8
0
  6
CONTINUOUS
 62
     7
 10
16.9839837495
 20
4.5144004985
 30
0.0
 11
16.9839837495
 21
3.9190879806
 31
0.0
  0
LINE
  5
1A1
  8
0
  6
CONTINUOUS
 62
     7
 10
16.9839837495
 20
3.9190879806
 30
0.0
 11
16.9078118707
 21
3.9190879806
 31
0.0
  0
LINE
  5
1A2
  8
0
  6
CONTINUOUS
 62
     7
 10
19.0238120267
 20
4.2196087989
 30
0.0
 11
19.3988120267
 21
4.2196087989
 31
0.0
  0
LINE
  5
1A3
  8
0
  6
CONTINUOUS
 62
     7
 10
19.3988120267
 20
4.2196087989
 30
0.0
 11
19.3988120267
 21
5.4007111611
 31
0.0
  0
LINE
  5
1A4
  8
0
  6
CONTINUOUS
 62
     7
 10
19.3988120267
 20
5.7757111611
 30
0.0
 11
19.3988120267
 21
6.5257111611
 31
0.0
  0
TEXT
  5
1A5
  8
0
  6
CONTINUOUS
 62
     7
 10
15.967544943
 20
4.7230449005
 30
0.0039370079
 40
0.375
  1
.38
 41
0.7
 11
15.967544943
 21
4.5905723773
 31
0.0039370079
 73
     1
  0
TEXT
  5
1A6
  8
0
  6
CONTINUOUS
 62
     7
 10
16.1198887144
 20
4.0515604831
 30
0.0039370079
 40
0.375
  1
9.5
 41
0.7
 11
16.1198887144
 21
3.9190879599
 31
0.0039370079
 73
     1
  0
TEXT
  5
1A7
  8
0
  6
CONTINUOUS
 62
     7
 10
17.0411126861
 20
4.7287740949
 30
0.0039370079
 40
0.375
  1
 TYP.
 41
0.7
 11
17.0411126861
 21
4.5963015717
 31
0.0039370079
 73
     1
  0
TEXT
  5
1A8
  8
0
  6
CONTINUOUS
 62
     7
 10
15.2185866401
 20
3.3800760452
 30
0.0039370079
 40
0.375
  1
FRONT & BACK
 41
0.6416666667
 11
15.2185866401
 21
3.247603522
 31
0.0039370079
 73
     1
  0
ENDBLK
  5
199
  8
0
  0
BLOCK
  8
0
  2
*D8
 70
     1
 10
0.0
 20
0.0
 30
0.0
  3
*D8
  1

  0
SOLID
  5
1AD
  8
0
  6
CONTINUOUS
 62
     7
 10
28.234687049
 20
9.1347111611
 30
0.0
 11
28.174687049
 21
8.7447111611
 31
0.0
 12
28.294687049
 22
8.7447111611
 32
0.0
 13
28.294687049
 23
8.7447111611
 33
0.0
  0
SOLID
  5
1AE
  8
0
  6
CONTINUOUS
 62
     7
 10
28.234687049
 20
10.3847111611
 30
0.0
 11
28.294687049
 21
10.7747111611
 31
0.0
 12
28.174687049
 22
10.7747111611
 32
0.0
 13
28.174687049
 23
10.7747111611
 33
0.0
  0
LINE
  5
1AF
  8
0
  6
CONTINUOUS
 62
     7
 10
27.6545763658
 20
9.7568465742
 30
0.0
 11
27.578404487
 21
9.7568465742
 31
0.0
  0
LINE
  5
1B0
  8
0
  6
CONTINUOUS
 62
     7
 10
27.578404487
 20
9.7568465742
 30
0.0
 11
27.578404487
 21
9.1615340563
 31
0.0
  0
LINE
  5
1B1
  8
0
  6
CONTINUOUS
 62
     7
 10
27.578404487
 20
9.1615340563
 30
0.0
 11
27.6545763658
 21
9.1615340563
 31
0.0
  0
LINE
  5
1B2
  8
0
  6
CONTINUOUS
 62
     7
 10
28.8147977597
 20
9.7568465742
 30
0.0
 11
28.8909696385
 21
9.7568465742
 31
0.0
  0
LINE
  5
1B3
  8
0
  6
CONTINUOUS
 62
     7
 10
28.8909696385
 20
9.7568465742
 30
0.0
 11
28.8909696385
 21
9.1615340563
 31
0.0
  0
LINE
  5
1B4
  8
0
  6
CONTINUOUS
 62
     7
 10
28.8909696385
 20
9.1615340563
 30
0.0
 11
28.8147977597
 21
9.1615340563
 31
0.0
  0
LINE
  5
1B5
  8
0
  6
CONTINUOUS
 62
     7
 10
24.4317256852
 20
9.1347111611
 30
0.0
 11
28.609687049
 21
9.1347111611
 31
0.0
  0
LINE
  5
1B6
  8
0
  6
CONTINUOUS
 62
     7
 10
24.4317256852
 20
10.3847111611
 30
0.0
 11
28.609687049
 21
10.3847111611
 31
0.0
  0
LINE
  5
1B7
  8
0
  6
CONTINUOUS
 62
     7
 10
28.234687049
 20
9.1347111611
 30
0.0
 11
28.234687049
 21
8.3847111611
 31
0.0
  0
LINE
  5
1B8
  8
0
  6
CONTINUOUS
 62
     7
 10
28.234687049
 20
10.3847111611
 30
0.0
 11
28.234687049
 21
11.1347111611
 31
0.0
  0
TEXT
  5
1B9
  8
0
  6
CONTINUOUS
 62
     7
 10
27.3827339108
 20
9.9712201707
 30
0.0039370079
 40
0.375
  1
 
 41
0.7
 11
27.3827339108
 21
9.8387476475
 31
0.0039370079
 73
     1
  0
TEXT
  5
1BA
  8
0
  6
CONTINUOUS
 62
     7
 10
27.5974474979
 20
9.9654909762
 30
0.0039370079
 40
0.375
  1
1.25
 41
0.7
 11
27.5974474979
 21
9.833018453
 31
0.0039370079
 73
     1
  0
TEXT
  5
1BB
  8
0
  6
CONTINUOUS
 62
     7
 10
27.7497912143
 20
9.2940065589
 30
0.0039370079
 40
0.375
  1
31.8
 41
0.7
 11
27.7497912143
 21
9.1615340357
 31
0.0039370079
 73
     1
  0
TEXT
  5
1BC
  8
0
  6
CONTINUOUS
 62
     7
 10
28.9480985476
 20
9.9712201707
 30
0.0039370079
 40
0.375
  1
 
 41
0.7
 11
28.9480985476
 21
9.8387476475
 31
0.0039370079
 73
     1
  0
ENDBLK
  5
1AC
  8
0
  0
BLOCK
  8
0
  2
*D9
 70
     1
 10
0.0
 20
0.0
 30
0.0
  3
*D9
  1

  0
SOLID
  5
1C1
  8
0
  6
CONTINUOUS
 62
     7
 10
26.9125264318
 20
9.1347111611
 30
0.0
 11
26.9725264318
 21
9.5247111611
 31
0.0
 12
26.8525264318
 22
9.5247111611
 32
0.0
 13
26.8525264318
 23
9.5247111611
 33
0.0
  0
SOLID
  5
1C2
  8
0
  6
CONTINUOUS
 62
     7
 10
26.9125264318
 20
6.8847111611
 30
0.0
 11
26.8525264318
 21
6.4947111611
 31
0.0
 12
26.9725264318
 22
6.4947111611
 32
0.0
 13
26.9725264318
 23
6.4947111611
 33
0.0
  0
LINE
  5
1C3
  8
0
  6
CONTINUOUS
 62
     7
 10
26.3324157486
 20
8.0068465742
 30
0.0
 11
26.2562438698
 21
8.0068465742
 31
0.0
  0
LINE
  5
1C4
  8
0
  6
CONTINUOUS
 62
     7
 10
26.2562438698
 20
8.0068465742
 30
0.0
 11
26.2562438698
 21
7.4115340563
 31
0.0
  0
LINE
  5
1C5
  8
0
  6
CONTINUOUS
 62
     7
 10
26.2562438698
 20
7.4115340563
 30
0.0
 11
26.3324157486
 21
7.4115340563
 31
0.0
  0
LINE
  5
1C6
  8
0
  6
CONTINUOUS
 62
     7
 10
27.4926371425
 20
8.0068465742
 30
0.0
 11
27.5688090213
 21
8.0068465742
 31
0.0
  0
LINE
  5
1C7
  8
0
  6
CONTINUOUS
 62
     7
 10
27.5688090213
 20
8.0068465742
 30
0.0
 11
27.5688090213
 21
7.4115340563
 31
0.0
  0
LINE
  5
1C8
  8
0
  6
CONTINUOUS
 62
     7
 10
27.5688090213
 20
7.4115340563
 30
0.0
 11
27.4926371425
 21
7.4115340563
 31
0.0
  0
LINE
  5
1C9
  8
0
  6
CONTINUOUS
 62
     7
 10
24.4317256852
 20
9.1347111611
 30
0.0
 11
27.2875264318
 21
9.1347111611
 31
0.0
  0
LINE
  5
1CA
  8
0
  6
CONTINUOUS
 62
     7
 10
24.4317256852
 20
6.8847111611
 30
0.0
 11
27.2875264318
 21
6.8847111611
 31
0.0
  0
LINE
  5
1CB
  8
0
  6
CONTINUOUS
 62
     7
 10
26.9125264318
 20
9.1347111611
 30
0.0
 11
26.9125264318
 21
9.8847111611
 31
0.0
  0
LINE
  5
1CC
  8
0
  6
CONTINUOUS
 62
     7
 10
26.9125264318
 20
6.8847111611
 30
0.0
 11
26.9125264318
 21
6.1347111611
 31
0.0
  0
TEXT
  5
1CD
  8
0
  6
CONTINUOUS
 62
     7
 10
26.0605732936
 20
8.2212201707
 30
0.0039370079
 40
0.375
  1
 
 41
0.7
 11
26.0605732936
 21
8.0887476475
 31
0.0039370079
 73
     1
  0
TEXT
  5
1CE
  8
0
  6
CONTINUOUS
 62
     7
 10
26.2752868808
 20
8.2154909762
 30
0.0039370079
 40
0.375
  1
2.25
 41
0.7
 11
26.2752868808
 21
8.083018453
 31
0.0039370079
 73
     1
  0
TEXT
  5
1CF
  8
0
  6
CONTINUOUS
 62
     7
 10
26.4276305971
 20
7.5440065589
 30
0.0039370079
 40
0.375
  1
57.2
 41
0.7
 11
26.4276305971
 21
7.4115340357
 31
0.0039370079
 73
     1
  0
TEXT
  5
1D0
  8
0
  6
CONTINUOUS
 62
     7
 10
27.6259379304
 20
8.2212201707
 30
0.0039370079
 40
0.375
  1
 
 41
0.7
 11
27.6259379304
 21
8.0887476475
 31
0.0039370079
 73
     1
  0
ENDBLK
  5
1C0
  8
0
  0
BLOCK
  8
0
  2
*D10
 70
     1
 10
0.0
 20
0.0
 30
0.0
  3
*D10
  1

  0
SOLID
  5
1D5
  8
0
  6
CONTINUOUS
 62
     7
 10
25.7128280474
 20
6.8847111611
 30
0.0
 11
25.7728280474
 21
7.2747111611
 31
0.0
 12
25.6528280474
 22
7.2747111611
 32
0.0
 13
25.6528280474
 23
7.2747111611
 33
0.0
  0
SOLID
  5
1D6
  8
0
  6
CONTINUOUS
 62
     7
 10
25.7128280474
 20
5.6347111611
 30
0.0
 11
25.6528280474
 21
5.2447111611
 31
0.0
 12
25.7728280474
 22
5.2447111611
 32
0.0
 13
25.7728280474
 23
5.2447111611
 33
0.0
  0
LINE
  5
1D7
  8
0
  6
CONTINUOUS
 62
     7
 10
25.1327173642
 20
6.2568465742
 30
0.0
 11
25.0565454854
 21
6.2568465742
 31
0.0
  0
LINE
  5
1D8
  8
0
  6
CONTINUOUS
 62
     7
 10
25.0565454854
 20
6.2568465742
 30
0.0
 11
25.0565454854
 21
5.6615340563
 31
0.0
  0
LINE
  5
1D9
  8
0
  6
CONTINUOUS
 62
     7
 10
25.0565454854
 20
5.6615340563
 30
0.0
 11
25.1327173642
 21
5.6615340563
 31
0.0
  0
LINE
  5
1DA
  8
0
  6
CONTINUOUS
 62
     7
 10
26.2929387581
 20
6.2568465742
 30
0.0
 11
26.3691106369
 21
6.2568465742
 31
0.0
  0
LINE
  5
1DB
  8
0
  6
CONTINUOUS
 62
     7
 10
26.3691106369
 20
6.2568465742
 30
0.0
 11
26.3691106369
 21
5.6615340563
 31
0.0
  0
LINE
  5
1DC
  8
0
  6
CONTINUOUS
 62
     7
 10
26.3691106369
 20
5.6615340563
 30
0.0
 11
26.2929387581
 21
5.6615340563
 31
0.0
  0
LINE
  5
1DD
  8
0
  6
CONTINUOUS
 62
     7
 10
24.4317256852
 20
6.8847111611
 30
0.0
 11
26.0878280474
 21
6.8847111611
 31
0.0
  0
LINE
  5
1DE
  8
0
  6
CONTINUOUS
 62
     7
 10
24.4317256852
 20
5.6347111611
 30
0.0
 11
26.0878280474
 21
5.6347111611
 31
0.0
  0
LINE
  5
1DF
  8
0
  6
CONTINUOUS
 62
     7
 10
25.7128280474
 20
6.8847111611
 30
0.0
 11
25.7128280474
 21
7.6347111611
 31
0.0
  0
LINE
  5
1E0
  8
0
  6
CONTINUOUS
 62
     7
 10
25.7128280474
 20
5.6347111611
 30
0.0
 11
25.7128280474
 21
4.8847111611
 31
0.0
  0
TEXT
  5
1E1
  8
0
  6
CONTINUOUS
 62
     7
 10
24.8608749092
 20
6.4712201707
 30
0.0039370079
 40
0.375
  1
 
 41
0.7
 11
24.8608749092
 21
6.3387476475
 31
0.0039370079
 73
     1
  0
TEXT
  5
1E2
  8
0
  6
CONTINUOUS
 62
     7
 10
25.0755884963
 20
6.4654909762
 30
0.0039370079
 40
0.375
  1
1.25
 41
0.7
 11
25.0755884963
 21
6.333018453
 31
0.0039370079
 73
     1
  0
TEXT
  5
1E3
  8
0
  6
CONTINUOUS
 62
     7
 10
25.2279322127
 20
5.7940065589
 30
0.0039370079
 40
0.375
  1
31.8
 41
0.7
 11
25.2279322127
 21
5.6615340357
 31
0.0039370079
 73
     1
  0
TEXT
  5
1E4
  8
0
  6
CONTINUOUS
 62
     7
 10
26.426239546
 20
6.4712201707
 30
0.0039370079
 40
0.375
  1
 
 41
0.7
 11
26.426239546
 21
6.3387476475
 31
0.0039370079
 73
     1
  0
ENDBLK
  5
1D4
  8
0
  0
BLOCK
  8
0
  2
*D11
 70
     1
 10
0.0
 20
0.0
 30
0.0
  3
*D11
  1

  0
SOLID
  5
1E9
  8
0
  6
CONTINUOUS
 62
     7
 10
4.7280947427
 20
5.7752111611
 30
0.0
 11
4.7880947427
 21
6.1652111611
 31
0.0
 12
4.6680947427
 22
6.1652111611
 32
0.0
 13
4.6680947427
 23
6.1652111611
 33
0.0
  0
SOLID
  5
1EA
  8
0
  6
CONTINUOUS
 62
     7
 10
4.7280947427
 20
5.4942111611
 30
0.0
 11
4.6680947427
 21
5.1042111611
 31
0.0
 12
4.7880947427
 22
5.1042111611
 32
0.0
 13
4.7880947427
 23
5.1042111611
 33
0.0
  0
LINE
  5
1EB
  8
0
  6
CONTINUOUS
 62
     7
 10
2.9699721411
 20
6.6358830243
 30
0.0
 11
2.8938002623
 21
6.6358830243
 31
0.0
  0
LINE
  5
1EC
  8
0
  6
CONTINUOUS
 62
     7
 10
2.8938002623
 20
6.6358830243
 30
0.0
 11
2.8938002623
 21
6.0405705064
 31
0.0
  0
LINE
  5
1ED
  8
0
  6
CONTINUOUS
 62
     7
 10
2.8938002623
 20
6.0405705064
 30
0.0
 11
2.9699721411
 21
6.0405705064
 31
0.0
  0
LINE
  5
1EE
  8
0
  6
CONTINUOUS
 62
     7
 10
3.8531101459
 20
6.6358830243
 30
0.0
 11
3.9292820247
 21
6.6358830243
 31
0.0
  0
LINE
  5
1EF
  8
0
  6
CONTINUOUS
 62
     7
 10
3.9292820247
 20
6.6358830243
 30
0.0
 11
3.9292820247
 21
6.0405705064
 31
0.0
  0
LINE
  5
1F0
  8
0
  6
CONTINUOUS
 62
     7
 10
3.9292820247
 20
6.0405705064
 30
0.0
 11
3.8531101459
 21
6.0405705064
 31
0.0
  0
LINE
  5
1F1
  8
0
  6
CONTINUOUS
 62
     7
 10
5.6317256852
 20
5.7752111611
 30
0.0
 11
4.3530947427
 21
5.7752111611
 31
0.0
  0
LINE
  5
1F2
  8
0
  6
CONTINUOUS
 62
     7
 10
5.6317256852
 20
5.4942111611
 30
0.0
 11
4.3530947427
 21
5.4942111611
 31
0.0
  0
LINE
  5
1F3
  8
0
  6
CONTINUOUS
 62
     7
 10
4.3530947427
 20
6.6387476112
 30
0.0
 11
4.7280947427
 21
6.6387476112
 31
0.0
  0
LINE
  5
1F4
  8
0
  6
CONTINUOUS
 62
     7
 10
4.7280947427
 20
6.6387476112
 30
0.0
 11
4.7280947427
 21
5.7752111611
 31
0.0
  0
LINE
  5
1F5
  8
0
  6
CONTINUOUS
 62
     7
 10
4.7280947427
 20
5.4942111611
 30
0.0
 11
4.7280947427
 21
4.7442111611
 31
0.0
  0
TEXT
  5
1F6
  8
0
  6
CONTINUOUS
 62
     7
 10
2.6981296861
 20
6.8502566207
 30
0.0039370079
 40
0.375
  1
 
 41
0.7
 11
2.6981296861
 21
6.7177840975
 31
0.0039370079
 73
     1
  0
TEXT
  5
1F7
  8
0
  6
CONTINUOUS
 62
     7
 10
2.9128432182
 20
6.8445274263
 30
0.0039370079
 40
0.375
  1
.28
 41
0.7
 11
2.9128432182
 21
6.7120549031
 31
0.0039370079
 73
     1
  0
TEXT
  5
1F8
  8
0
  6
CONTINUOUS
 62
     7
 10
3.0651869896
 20
6.173043009
 30
0.0039370079
 40
0.375
  1
7.1
 41
0.7
 11
3.0651869896
 21
6.0405704857
 31
0.0039370079
 73
     1
  0
TEXT
  5
1F9
  8
0
  6
CONTINUOUS
 62
     7
 10
3.9864109338
 20
6.8502566207
 30
0.0039370079
 40
0.375
  1
 
 41
0.7
 11
3.9864109338
 21
6.7177840975
 31
0.0039370079
 73
     1
  0
ENDBLK
  5
1E8
  8
0
  0
BLOCK
  8
0
  2
*D12
 70
     1
 10
0.0
 20
0.0
 30
0.0
  3
*D12
  1

  0
SOLID
  5
1FE
  8
0
  6
CONTINUOUS
 62
     7
 10
5.6412256852
 20
4.2196087989
 30
0.0
 11
5.2512256852
 21
4.2796087989
 31
0.0
 12
5.2512256852
 22
4.1596087989
 32
0.0
 13
5.2512256852
 23
4.1596087989
 33
0.0
  0
SOLID
  5
1FF
  8
0
  6
CONTINUOUS
 62
     7
 10
6.0782256852
 20
4.2196087989
 30
0.0
 11
6.4682256852
 21
4.1596087989
 31
0.0
 12
6.4682256852
 22
4.2796087989
 32
0.0
 13
6.4682256852
 23
4.2796087989
 33
0.0
  0
LINE
  5
200
  8
0
  6
CONTINUOUS
 62
     7
 10
7.4401267052
 20
4.216744212
 30
0.0
 11
7.3639548264
 21
4.216744212
 31
0.0
  0
LINE
  5
201
  8
0
  6
CONTINUOUS
 62
     7
 10
7.3639548264
 20
4.216744212
 30
0.0
 11
7.3639548264
 21
3.6214316941
 31
0.0
  0
LINE
  5
202
  8
0
  6
CONTINUOUS
 62
     7
 10
7.3639548264
 20
3.6214316941
 30
0.0
 11
7.4401267052
 21
3.6214316941
 31
0.0
  0
LINE
  5
203
  8
0
  6
CONTINUOUS
 62
     7
 10
8.6003480991
 20
4.216744212
 30
0.0
 11
8.6765199779
 21
4.216744212
 31
0.0
  0
LINE
  5
204
  8
0
  6
CONTINUOUS
 62
     7
 10
8.6765199779
 20
4.216744212
 30
0.0
 11
8.6765199779
 21
3.6214316941
 31
0.0
  0
LINE
  5
205
  8
0
  6
CONTINUOUS
 62
     7
 10
8.6765199779
 20
3.6214316941
 30
0.0
 11
8.6003480991
 21
3.6214316941
 31
0.0
  0
LINE
  5
206
  8
0
  6
CONTINUOUS
 62
     7
 10
5.6412256852
 20
5.4847111611
 30
0.0
 11
5.6412256852
 21
3.8446087989
 31
0.0
  0
LINE
  5
207
  8
0
  6
CONTINUOUS
 62
     7
 10
6.0782256852
 20
5.4847111611
 30
0.0
 11
6.0782256852
 21
3.8446087989
 31
0.0
  0
LINE
  5
208
  8
0
  6
CONTINUOUS
 62
     7
 10
5.6412256852
 20
4.2196087989
 30
0.0
 11
4.8912256852
 21
4.2196087989
 31
0.0
  0
LINE
  5
209
  8
0
  6
CONTINUOUS
 62
     7
 10
6.0782256852
 20
4.2196087989
 30
0.0
 11
7.0922368604
 21
4.2196087989
 31
0.0
  0
TEXT
  5
20A
  8
0
  6
CONTINUOUS
 62
     7
 10
7.1682842502
 20
4.4311178085
 30
0.0039370079
 40
0.375
  1
 
 41
0.7
 11
7.1682842502
 21
4.2986452852
 31
0.0039370079
 73
     1
  0
TEXT
  5
20B
  8
0
  6
CONTINUOUS
 62
     7
 10
7.5215394769
 20
4.425388614
 30
0.0039370079
 40
0.375
  1
.44
 41
0.7
 11
7.5215394769
 21
4.2929160908
 31
0.0039370079
 73
     1
  0
TEXT
  5
20C
  8
0
  6
CONTINUOUS
 62
     7
 10
7.5353415537
 20
3.7539041967
 30
0.0039370079
 40
0.375
  1
11.1
 41
0.7
 11
7.5353415537
 21
3.6214316735
 31
0.0039370079
 73
     1
  0
TEXT
  5
20D
  8
0
  6
CONTINUOUS
 62
     7
 10
8.733648887
 20
4.4311178085
 30
0.0039370079
 40
0.375
  1
 
 41
0.7
 11
8.733648887
 21
4.2986452852
 31
0.0039370079
 73
     1
  0
ENDBLK
  5
1FD
  8
0
  0
BLOCK
  8
0
  2
*D13
 70
     1
 10
0.0
 20
0.0
 30
0.0
  3
*D13
  1

  0
SOLID
  5
250
  8
0
  6
CONTINUOUS
 62
     7
 10
6.2192256852
 20
27.0071142079
 30
0.0
 11
6.6092256852
 21
26.9471142079
 31
0.0
 12
6.6092256852
 22
27.0671142079
 32
0.0
 13
6.6092256852
 23
27.0671142079
 33
0.0
  0
SOLID
  5
251
  8
0
  6
CONTINUOUS
 62
     7
 10
23.8442256852
 20
27.0071142079
 30
0.0
 11
23.4542256852
 21
27.0671142079
 31
0.0
 12
23.4542256852
 22
26.9471142079
 32
0.0
 13
23.4542256852
 23
26.9471142079
 33
0.0
  0
LINE
  5
252
  8
0
  6
CONTINUOUS
 62
     7
 10
14.3130733624
 20
27.004249621
 30
0.0
 11
14.2369014836
 21
27.004249621
 31
0.0
  0
LINE
  5
253
  8
0
  6
CONTINUOUS
 62
     7
 10
14.2369014836
 20
27.004249621
 30
0.0
 11
14.2369014836
 21
26.4089371031
 31
0.0
  0
LINE
  5
254
  8
0
  6
CONTINUOUS
 62
     7
 10
14.2369014836
 20
26.4089371031
 30
0.0
 11
14.3130733624
 21
26.4089371031
 31
0.0
  0
LINE
  5
255
  8
0
  6
CONTINUOUS
 62
     7
 10
15.7503780354
 20
27.004249621
 30
0.0
 11
15.8265499142
 21
27.004249621
 31
0.0
  0
LINE
  5
256
  8
0
  6
CONTINUOUS
 62
     7
 10
15.8265499142
 20
27.004249621
 30
0.0
 11
15.8265499142
 21
26.4089371031
 31
0.0
  0
LINE
  5
257
  8
0
  6
CONTINUOUS
 62
     7
 10
15.8265499142
 20
26.4089371031
 30
0.0
 11
15.7503780354
 21
26.4089371031
 31
0.0
  0
LINE
  5
258
  8
0
  6
CONTINUOUS
 62
     7
 10
6.2192256852
 20
25.6720185615
 30
0.0
 11
6.2192256852
 21
27.3821142079
 31
0.0
  0
LINE
  5
259
  8
0
  6
CONTINUOUS
 62
     7
 10
23.8442256852
 20
25.6720185615
 30
0.0
 11
23.8442256852
 21
27.3821142079
 31
0.0
  0
LINE
  5
25A
  8
0
  6
CONTINUOUS
 62
     7
 10
6.2192256852
 20
27.0071142079
 30
0.0
 11
13.9651835176
 21
27.0071142079
 31
0.0
  0
LINE
  5
25B
  8
0
  6
CONTINUOUS
 62
     7
 10
23.8442256852
 20
27.0071142079
 30
0.0
 11
16.0982678527
 21
27.0071142079
 31
0.0
  0
TEXT
  5
25C
  8
0
  6
CONTINUOUS
 62
     7
 10
14.0412309074
 20
27.2186232175
 30
-2.6050629921
 40
0.375
  1
 
 41
0.7
 11
14.0412309074
 21
27.0861506942
 31
-2.6050629921
 73
     1
  0
TEXT
  5
25D
  8
0
  6
CONTINUOUS
 62
     7
 10
14.2559444945
 20
27.212894023
 30
-2.6050629921
 40
0.375
  1
17.63
 41
0.7
 11
14.2559444945
 21
27.0804214998
 31
-2.6050629921
 73
     1
  0
TEXT
  5
25E
  8
0
  6
CONTINUOUS
 62
     7
 10
14.4082882109
 20
26.5414096057
 30
-2.6050629921
 40
0.375
  1
447.7
 41
0.7
 11
14.4082882109
 21
26.4089370825
 31
-2.6050629921
 73
     1
  0
TEXT
  5
25F
  8
0
  6
CONTINUOUS
 62
     7
 10
15.8836788233
 20
27.2186232175
 30
-2.6050629921
 40
0.375
  1
 
 41
0.7
 11
15.8836788233
 21
27.0861506942
 31
-2.6050629921
 73
     1
  0
ENDBLK
  5
24F
  8
0
  0
BLOCK
  8
0
  2
*D14
 70
     1
 10
0.0
 20
0.0
 30
0.0
  3
*D14
  1

  0
SOLID
  5
273
  8
0
  6
CONTINUOUS
 62
     7
 10
31.0450320439
 20
10.6187111611
 30
0.0
 11
30.9850320439
 21
10.2287111611
 31
0.0
 12
31.1050320439
 22
10.2287111611
 32
0.0
 13
31.1050320439
 23
10.2287111611
 33
0.0
  0
SOLID
  5
274
  8
0
  6
CONTINUOUS
 62
     7
 10
31.0450320439
 20
5.4007111611
 30
0.0
 11
31.1050320439
 21
5.7907111611
 31
0.0
 12
30.9850320439
 22
5.7907111611
 32
0.0
 13
30.9850320439
 23
5.7907111611
 33
0.0
  0
LINE
  5
275
  8
0
  6
CONTINUOUS
 62
     7
 10
30.3263797211
 20
8.0068465742
 30
0.0
 11
30.2502078423
 21
8.0068465742
 31
0.0
  0
LINE
  5
276
  8
0
  6
CONTINUOUS
 62
     7
 10
30.2502078423
 20
8.0068465742
 30
0.0
 11
30.2502078423
 21
7.4115340563
 31
0.0
  0
LINE
  5
277
  8
0
  6
CONTINUOUS
 62
     7
 10
30.2502078423
 20
7.4115340563
 30
0.0
 11
30.3263797211
 21
7.4115340563
 31
0.0
  0
LINE
  5
278
  8
0
  6
CONTINUOUS
 62
     7
 10
31.7636843941
 20
8.0068465742
 30
0.0
 11
31.8398562729
 21
8.0068465742
 31
0.0
  0
LINE
  5
279
  8
0
  6
CONTINUOUS
 62
     7
 10
31.8398562729
 20
8.0068465742
 30
0.0
 11
31.8398562729
 21
7.4115340563
 31
0.0
  0
LINE
  5
27A
  8
0
  6
CONTINUOUS
 62
     7
 10
31.8398562729
 20
7.4115340563
 30
0.0
 11
31.7636843941
 21
7.4115340563
 31
0.0
  0
LINE
  5
27B
  8
0
  6
CONTINUOUS
 62
     7
 10
32.2793851508
 20
10.6187111611
 30
0.0
 11
30.6700320439
 21
10.6187111611
 31
0.0
  0
LINE
  5
27C
  8
0
  6
CONTINUOUS
 62
     7
 10
32.2793851508
 20
5.4007111611
 30
0.0
 11
30.6700320439
 21
5.4007111611
 31
0.0
  0
LINE
  5
27D
  8
0
  6
CONTINUOUS
 62
     7
 10
31.0450320439
 20
10.6187111611
 30
0.0
 11
31.0450320439
 21
8.684060186
 31
0.0
  0
LINE
  5
27E
  8
0
  6
CONTINUOUS
 62
     7
 10
31.0450320439
 20
5.4007111611
 30
0.0
 11
31.0450320439
 21
7.3353621363
 31
0.0
  0
TEXT
  5
27F
  8
0
  6
CONTINUOUS
 62
     7
 10
30.0545372661
 20
8.2212201707
 30
0.0039370079
 40
0.375
  1
 
 41
0.7
 11
30.0545372661
 21
8.0887476475
 31
0.0039370079
 73
     1
  0
TEXT
  5
280
  8
0
  6
CONTINUOUS
 62
     7
 10
30.4077924928
 20
8.2154909762
 30
0.0039370079
 40
0.375
  1
5.22
 41
0.7
 11
30.4077924928
 21
8.083018453
 31
0.0039370079
 73
     1
  0
TEXT
  5
281
  8
0
  6
CONTINUOUS
 62
     7
 10
30.4215945696
 20
7.5440065589
 30
0.0039370079
 40
0.375
  1
132.5
 41
0.7
 11
30.4215945696
 21
7.4115340357
 31
0.0039370079
 73
     1
  0
TEXT
  5
282
  8
0
  6
CONTINUOUS
 62
     7
 10
31.896985182
 20
8.2212201707
 30
0.0039370079
 40
0.375
  1
 
 41
0.7
 11
31.896985182
 21
8.0887476475
 31
0.0039370079
 73
     1
  0
ENDBLK
  5
272
  8
0
  0
BLOCK
  8
0
  2
*D15
 70
     1
 10
0.0
 20
0.0
 30
0.0
  3
*D15
  1

  0
SOLID
  5
287
  8
0
  6
CONTINUOUS
 62
     7
 10
43.7465956272
 20
7.1187111611
 30
0.0
 11
43.8065956272
 21
7.5087111611
 31
0.0
 12
43.6865956272
 22
7.5087111611
 32
0.0
 13
43.6865956272
 23
7.5087111611
 33
0.0
  0
SOLID
  5
288
  8
0
  6
CONTINUOUS
 62
     7
 10
43.7465956272
 20
5.4007111611
 30
0.0
 11
43.6865956272
 21
5.0107111611
 31
0.0
 12
43.8065956272
 22
5.0107111611
 32
0.0
 13
43.8065956272
 23
5.0107111611
 33
0.0
  0
LINE
  5
289
  8
0
  6
CONTINUOUS
 62
     7
 10
43.166484944
 20
6.2568465742
 30
0.0
 11
43.0903130652
 21
6.2568465742
 31
0.0
  0
LINE
  5
28A
  8
0
  6
CONTINUOUS
 62
     7
 10
43.0903130652
 20
6.2568465742
 30
0.0
 11
43.0903130652
 21
5.6615340563
 31
0.0
  0
LINE
  5
28B
  8
0
  6
CONTINUOUS
 62
     7
 10
43.0903130652
 20
5.6615340563
 30
0.0
 11
43.166484944
 21
5.6615340563
 31
0.0
  0
LINE
  5
28C
  8
0
  6
CONTINUOUS
 62
     7
 10
44.3267063379
 20
6.2568465742
 30
0.0
 11
44.4028782167
 21
6.2568465742
 31
0.0
  0
LINE
  5
28D
  8
0
  6
CONTINUOUS
 62
     7
 10
44.4028782167
 20
6.2568465742
 30
0.0
 11
44.4028782167
 21
5.6615340563
 31
0.0
  0
LINE
  5
28E
  8
0
  6
CONTINUOUS
 62
     7
 10
44.4028782167
 20
5.6615340563
 30
0.0
 11
44.3267063379
 21
5.6615340563
 31
0.0
  0
LINE
  5
28F
  8
0
  6
CONTINUOUS
 62
     7
 10
42.3663851508
 20
7.1187111611
 30
0.0
 11
44.1215956272
 21
7.1187111611
 31
0.0
  0
LINE
  5
290
  8
0
  6
CONTINUOUS
 62
     7
 10
42.5793851508
 20
5.4007111611
 30
0.0
 11
44.1215956272
 21
5.4007111611
 31
0.0
  0
LINE
  5
291
  8
0
  6
CONTINUOUS
 62
     7
 10
43.7465956272
 20
7.1187111611
 30
0.0
 11
43.7465956272
 21
7.8687111611
 31
0.0
  0
LINE
  5
292
  8
0
  6
CONTINUOUS
 62
     7
 10
43.7465956272
 20
5.4007111611
 30
0.0
 11
43.7465956272
 21
4.6507111611
 31
0.0
  0
TEXT
  5
293
  8
0
  6
CONTINUOUS
 62
     7
 10
42.8946424891
 20
6.4712201707
 30
0.0039370079
 40
0.375
  1
 
 41
0.7
 11
42.8946424891
 21
6.3387476475
 31
0.0039370079
 73
     1
  0
TEXT
  5
294
  8
0
  6
CONTINUOUS
 62
     7
 10
43.1093560762
 20
6.4654909762
 30
0.0039370079
 40
0.375
  1
1.72
 41
0.7
 11
43.1093560762
 21
6.333018453
 31
0.0039370079
 73
     1
  0
TEXT
  5
295
  8
0
  6
CONTINUOUS
 62
     7
 10
43.2616997925
 20
5.7940065589
 30
0.0039370079
 40
0.375
  1
43.6
 41
0.7
 11
43.2616997925
 21
5.6615340357
 31
0.0039370079
 73
     1
  0
TEXT
  5
296
  8
0
  6
CONTINUOUS
 62
     7
 10
44.4600071258
 20
6.4712201707
 30
0.0039370079
 40
0.375
  1
 
 41
0.7
 11
44.4600071258
 21
6.3387476475
 31
0.0039370079
 73
     1
  0
ENDBLK
  5
286
  8
0
  0
BLOCK
  8
0
  2
*D16
 70
     1
 10
0.0
 20
0.0
 30
0.0
  3
*D16
  1

  0
SOLID
  5
29B
  8
0
  6
CONTINUOUS
 62
     7
 10
42.0223851508
 20
4.3393133853
 30
0.0
 11
41.6323851508
 21
4.3993133853
 31
0.0
 12
41.6323851508
 22
4.2793133853
 32
0.0
 13
41.6323851508
 23
4.2793133853
 33
0.0
  0
SOLID
  5
29C
  8
0
  6
CONTINUOUS
 62
     7
 10
42.4293851508
 20
4.3393133853
 30
0.0
 11
42.8193851508
 21
4.2793133853
 31
0.0
 12
42.8193851508
 22
4.3993133853
 32
0.0
 13
42.8193851508
 23
4.3993133853
 33
0.0
  0
LINE
  5
29D
  8
0
  6
CONTINUOUS
 62
     7
 10
39.524554236
 20
4.3364487984
 30
0.0
 11
39.4483823572
 21
4.3364487984
 31
0.0
  0
LINE
  5
29E
  8
0
  6
CONTINUOUS
 62
     7
 10
39.4483823572
 20
4.3364487984
 30
0.0
 11
39.4483823572
 21
3.7411362805
 31
0.0
  0
LINE
  5
29F
  8
0
  6
CONTINUOUS
 62
     7
 10
39.4483823572
 20
3.7411362805
 30
0.0
 11
39.524554236
 21
3.7411362805
 31
0.0
  0
LINE
  5
2A0
  8
0
  6
CONTINUOUS
 62
     7
 10
40.6847756299
 20
4.3364487984
 30
0.0
 11
40.7609475088
 21
4.3364487984
 31
0.0
  0
LINE
  5
2A1
  8
0
  6
CONTINUOUS
 62
     7
 10
40.7609475088
 20
4.3364487984
 30
0.0
 11
40.7609475088
 21
3.7411362805
 31
0.0
  0
LINE
  5
2A2
  8
0
  6
CONTINUOUS
 62
     7
 10
40.7609475088
 20
3.7411362805
 30
0.0
 11
40.6847756299
 21
3.7411362805
 31
0.0
  0
LINE
  5
2A3
  8
0
  6
CONTINUOUS
 62
     7
 10
42.0223851508
 20
6.7747111611
 30
0.0
 11
42.0223851508
 21
3.9643133853
 31
0.0
  0
LINE
  5
2A4
  8
0
  6
CONTINUOUS
 62
     7
 10
42.4293851508
 20
5.2507111611
 30
0.0
 11
42.4293851508
 21
3.9643133853
 31
0.0
  0
LINE
  5
2A5
  8
0
  6
CONTINUOUS
 62
     7
 10
42.0223851508
 20
4.3393133853
 30
0.0
 11
41.0326654472
 21
4.3393133853
 31
0.0
  0
LINE
  5
2A6
  8
0
  6
CONTINUOUS
 62
     7
 10
42.4293851508
 20
4.3393133853
 30
0.0
 11
43.1793851508
 21
4.3393133853
 31
0.0
  0
TEXT
  5
2A7
  8
0
  6
CONTINUOUS
 62
     7
 10
39.2527117811
 20
4.5508223949
 30
0.0039370079
 40
0.375
  1
 
 41
0.7
 11
39.2527117811
 21
4.4183498716
 31
0.0039370079
 73
     1
  0
TEXT
  5
2A8
  8
0
  6
CONTINUOUS
 62
     7
 10
39.6059670077
 20
4.5450932004
 30
0.0039370079
 40
0.375
  1
.41
 41
0.7
 11
39.6059670077
 21
4.4126206772
 31
0.0039370079
 73
     1
  0
TEXT
  5
2A9
  8
0
  6
CONTINUOUS
 62
     7
 10
39.6197690846
 20
3.8736087831
 30
0.0039370079
 40
0.375
  1
10.3
 41
0.7
 11
39.6197690846
 21
3.7411362599
 31
0.0039370079
 73
     1
  0
TEXT
  5
2AA
  8
0
  6
CONTINUOUS
 62
     7
 10
40.8180764179
 20
4.5508223949
 30
0.0039370079
 40
0.375
  1
 
 41
0.7
 11
40.8180764179
 21
4.4183498716
 31
0.0039370079
 73
     1
  0
ENDBLK
  5
29A
  8
0
  0
BLOCK
  8
0
  2
*D17
 70
     1
 10
0.0
 20
0.0
 30
0.0
  3
*D17
  1

  0
SOLID
  5
2B0
  8
0
  6
CONTINUOUS
 62
     7
 10
42.0398701414
 20
7.2110706496
 30
0.0
 11
42.1713671161
 21
7.5831036395
 31
0.0
 12
42.0534613862
 22
7.6054249041
 32
0.0
 13
42.0534613862
 23
7.6054249041
 33
0.0
  0
LINE
  5
2B1
  8
0
  6
CONTINUOUS
 62
     7
 10
43.104057829
 20
9.0532069088
 30
0.0
 11
43.0278859502
 21
9.0532069088
 31
0.0
  0
LINE
  5
2B2
  8
0
  6
CONTINUOUS
 62
     7
 10
43.0278859502
 20
9.0532069088
 30
0.0
 11
43.0278859502
 21
8.4578943909
 31
0.0
  0
LINE
  5
2B3
  8
0
  6
CONTINUOUS
 62
     7
 10
43.0278859502
 20
8.4578943909
 30
0.0
 11
43.104057829
 21
8.4578943909
 31
0.0
  0
LINE
  5
2B4
  8
0
  6
CONTINUOUS
 62
     7
 10
44.2642792229
 20
9.0532069088
 30
0.0
 11
44.3404511017
 21
9.0532069088
 31
0.0
  0
LINE
  5
2B5
  8
0
  6
CONTINUOUS
 62
     7
 10
44.3404511017
 20
9.0532069088
 30
0.0
 11
44.3404511017
 21
8.4578943909
 31
0.0
  0
LINE
  5
2B6
  8
0
  6
CONTINUOUS
 62
     7
 10
44.3404511017
 20
8.4578943909
 30
0.0
 11
44.2642792229
 21
8.4578943909
 31
0.0
  0
LINE
  5
2B7
  8
0
  6
CONTINUOUS
 62
     7
 10
42.0398701414
 20
7.2110706496
 30
0.0
 11
42.3891555578
 21
9.0560714957
 31
0.0
  0
LINE
  5
2B8
  8
0
  6
CONTINUOUS
 62
     7
 10
42.3891555578
 20
9.0560714957
 30
0.0
 11
42.7641555578
 21
9.0560714957
 31
0.0
  0
TEXT
  5
2B9
  8
0
  6
CONTINUOUS
 62
     7
 10
42.7641555578
 20
9.2618513108
 30
0.0039370079
 40
0.375
  1
%%c
 41
0.7
 11
42.7641555578
 21
9.1293787876
 31
0.0039370079
 73
     1
  0
TEXT
  5
2BA
  8
0
  6
CONTINUOUS
 62
     7
 10
43.3297024196
 20
9.2618513108
 30
0.0039370079
 40
0.375
  1
.188
 41
0.7
 11
43.3297024196
 21
9.1293787876
 31
0.0039370079
 73
     1
  0
TEXT
  5
2BB
  8
0
  6
CONTINUOUS
 62
     7
 10
43.1992726775
 20
8.5903668935
 30
0.0039370079
 40
0.375
  1
4.78
 41
0.7
 11
43.1992726775
 21
8.4578943703
 31
0.0039370079
 73
     1
  0
TEXT
  5
2BC
  8
0
  6
CONTINUOUS
 62
     7
 10
44.6041815217
 20
9.2675805052
 30
0.0039370079
 40
0.375
  1
 (2X)
 41
0.7
 11
44.6041815217
 21
9.135107982
 31
0.0039370079
 73
     1
  0
ENDBLK
  5
2AF
  8
0
  0
BLOCK
  8
0
  2
*D18
 70
     1
 10
0.0
 20
0.0
 30
0.0
  3
*D18
  1

  0
SOLID
  5
2C1
  8
0
  6
CONTINUOUS
 62
     7
 10
32.4293851508
 20
2.985042628
 30
0.0
 11
32.8193851508
 21
2.925042628
 31
0.0
 12
32.8193851508
 22
3.045042628
 32
0.0
 13
32.8193851508
 23
3.045042628
 33
0.0
  0
SOLID
  5
2C2
  8
0
  6
CONTINUOUS
 62
     7
 10
42.4293851508
 20
2.985042628
 30
0.0
 11
42.0393851508
 21
3.045042628
 31
0.0
 12
42.0393851508
 22
2.925042628
 32
0.0
 13
42.0393851508
 23
2.925042628
 33
0.0
  0
LINE
  5
2C3
  8
0
  6
CONTINUOUS
 62
     7
 10
36.9185453424
 20
2.9821780411
 30
0.0
 11
36.8423734636
 21
2.9821780411
 31
0.0
  0
LINE
  5
2C4
  8
0
  6
CONTINUOUS
 62
     7
 10
36.8423734636
 20
2.9821780411
 30
0.0
 11
36.8423734636
 21
2.3868655232
 31
0.0
  0
LINE
  5
2C5
  8
0
  6
CONTINUOUS
 62
     7
 10
36.8423734636
 20
2.3868655232
 30
0.0
 11
36.9185453424
 21
2.3868655232
 31
0.0
  0
LINE
  5
2C6
  8
0
  6
CONTINUOUS
 62
     7
 10
37.9402250417
 20
2.9821780411
 30
0.0
 11
38.0163969205
 21
2.9821780411
 31
0.0
  0
LINE
  5
2C7
  8
0
  6
CONTINUOUS
 62
     7
 10
38.0163969205
 20
2.9821780411
 30
0.0
 11
38.0163969205
 21
2.3868655232
 31
0.0
  0
LINE
  5
2C8
  8
0
  6
CONTINUOUS
 62
     7
 10
38.0163969205
 20
2.3868655232
 30
0.0
 11
37.9402250417
 21
2.3868655232
 31
0.0
  0
LINE
  5
2C9
  8
0
  6
CONTINUOUS
 62
     7
 10
32.4293851508
 20
5.2507111611
 30
0.0
 11
32.4293851508
 21
2.610042628
 31
0.0
  0
LINE
  5
2CA
  8
0
  6
CONTINUOUS
 62
     7
 10
42.4293851508
 20
5.2507111611
 30
0.0
 11
42.4293851508
 21
2.610042628
 31
0.0
  0
LINE
  5
2CB
  8
0
  6
CONTINUOUS
 62
     7
 10
32.4293851508
 20
2.985042628
 30
0.0
 11
36.4390149034
 21
2.985042628
 31
0.0
  0
LINE
  5
2CC
  8
0
  6
CONTINUOUS
 62
     7
 10
42.4293851508
 20
2.985042628
 30
0.0
 11
38.4197553983
 21
2.985042628
 31
0.0
  0
TEXT
  5
2CD
  8
0
  6
CONTINUOUS
 62
     7
 10
36.5150622931
 20
3.1965516376
 30
0.0039370079
 40
0.375
  1
 
 41
0.7
 11
36.5150622931
 21
3.0640791143
 31
0.0039370079
 73
     1
  0
TEXT
  5
2CE
  8
0
  6
CONTINUOUS
 62
     7
 10
36.6536039602
 20
3.1908224431
 30
0.0039370079
 40
0.375
  1
10.00
 41
0.7
 11
36.6536039602
 21
3.0583499199
 31
0.0039370079
 73
     1
  0
TEXT
  5
2CF
  8
0
  6
CONTINUOUS
 62
     7
 10
37.0137601909
 20
2.5193380258
 30
0.0039370079
 40
0.375
  1
254
 41
0.7
 11
37.0137601909
 21
2.3868655026
 31
0.0039370079
 73
     1
  0
TEXT
  5
2D0
  8
0
  6
CONTINUOUS
 62
     7
 10
38.2051663689
 20
3.1965516376
 30
0.0039370079
 40
0.375
  1
 
 41
0.7
 11
38.2051663689
 21
3.0640791143
 31
0.0039370079
 73
     1
  0
ENDBLK
  5
2C0
  8
0
  0
BLOCK
  8
0
  2
SW_CENTERMARKSYMBOL_0
 70
     0
 10
0.0
 20
0.0
 30
0.0
  3
SW_CENTERMARKSYMBOL_0
  1

  0
LINE
  5
2D4
  8
0
  6
CONTINUOUS
 62
     0
 10
0.0
 20
0.0
 30
0.0
 11
0.0
 21
0.1
 31
0.0
  0
LINE
  5
2D5
  8
0
  6
CONTINUOUS
 62
     0
 10
0.0
 20
0.0
 30
0.0
 11
-0.1
 21
0.0
 31
0.0
  0
LINE
  5
2D6
  8
0
  6
CONTINUOUS
 62
     0
 10
0.0
 20
0.0
 30
0.0
 11
0.0
 21
-0.1
 31
0.0
  0
LINE
  5
2D7
  8
0
  6
CONTINUOUS
 62
     0
 10
0.0
 20
0.0
 30
0.0
 11
0.1
 21
0.0
 31
0.0
  0
LINE
  5
2D8
  8
0
  6
CONTINUOUS
 62
     0
 10
0.0
 20
0.1
 30
0.0
 11
0.0
 21
0.194
 31
0.0
  0
LINE
  5
2D9
  8
0
  6
CONTINUOUS
 62
     0
 10
-0.1
 20
0.0
 30
0.0
 11
-0.194
 21
0.0
 31
0.0
  0
LINE
  5
2DA
  8
0
  6
CONTINUOUS
 62
     0
 10
0.0
 20
-0.1
 30
0.0
 11
0.0
 21
-0.194
 31
0.0
  0
LINE
  5
2DB
  8
0
  6
CONTINUOUS
 62
     0
 10
0.1
 20
0.0
 30
0.0
 11
0.194
 21
0.0
 31
0.0
  0
ENDBLK
  5
2D3
  8
0
  0
ENDSEC
  0
SECTION
  2
ENTITIES
  0
LINE
  5
44
  8
0
  6
CONTINUOUS
 62
     7
 10
0.9397548139
 20
32.1152195122
 30
0.0
 11
50.0677548139
 21
32.1152195122
 31
0.0
  0
LINE
  5
45
  8
0
  6
CONTINUOUS
 62
     7
 10
50.0677548139
 20
0.9872195122
 30
0.0
 11
50.0677548139
 21
32.1152195122
 31
0.0
  0
LINE
  5
46
  8
0
  6
CONTINUOUS
 62
     7
 10
50.0677548139
 20
0.9872195122
 30
0.0
 11
0.9397548139
 21
0.9872195122
 31
0.0
  0
LINE
  5
47
  8
0
  6
CONTINUOUS
 62
     7
 10
0.9397548139
 20
32.1152195122
 30
0.0
 11
0.9397548139
 21
0.9872195122
 31
0.0
  0
LINE
  5
48
  8
0
  6
CONTINUOUS
 62
     7
 10
0.7537548139
 20
32.3012195122
 30
0.0
 11
50.2537548139
 21
32.3012195122
 31
0.0
  0
LINE
  5
49
  8
0
  6
CONTINUOUS
 62
     7
 10
50.2537548139
 20
0.8012195122
 30
0.0
 11
0.7537548139
 21
0.8012195122
 31
0.0
  0
LINE
  5
4A
  8
0
  6
CONTINUOUS
 62
     7
 10
0.7537548139
 20
32.3012195122
 30
0.0
 11
0.7537548139
 21
0.8012195122
 31
0.0
  0
LINE
  5
4B
  8
0
  6
CONTINUOUS
 62
     7
 10
50.2537548139
 20
0.8012195122
 30
0.0
 11
50.2537548139
 21
32.3012195122
 31
0.0
  0
LINE
  5
4C
  8
0
  6
CONTINUOUS
 62
     7
 10
0.9397548139
 20
30.8972195122
 30
0.0
 11
50.0677548139
 21
30.8972195122
 31
0.0
  0
LINE
  5
4D
  8
0
  6
CONTINUOUS
 62
     7
 10
5.5311576621
 20
32.1152195122
 30
0.0
 11
5.5311576621
 21
30.8972195122
 31
0.0
  0
LINE
  5
4E
  8
0
  6
CONTINUOUS
 62
     7
 10
3.3324956511
 20
32.1152195122
 30
0.0
 11
3.3324956511
 21
30.8972195122
 31
0.0
  0
LINE
  5
4F
  8
0
  6
CONTINUOUS
 62
     7
 10
46.3177548139
 20
30.8972195122
 30
0.0
 11
46.3177548139
 21
32.1152195122
 31
0.0
  0
LINE
  5
50
  8
0
  6
CONTINUOUS
 62
     7
 10
44.0677548139
 20
30.8972195122
 30
0.0
 11
44.0677548139
 21
32.1152195122
 31
0.0
  0
LINE
  5
51
  8
0
  6
CONTINUOUS
 62
     7
 10
43.8817548139
 20
30.8972195122
 30
0.0
 11
43.8817548139
 21
32.1152195122
 31
0.0
  0
LINE
  5
52
  8
0
  6
CONTINUOUS
 62
     7
 10
1.3430337515
 20
31.1284803474
 30
0.0
 11
1.3430337515
 21
31.9250846097
 31
0.0
  0
LINE
  5
53
  8
0
  6
CONTINUOUS
 62
     7
 10
1.8977494329
 20
31.1782681138
 30
0.0
 11
1.8977494329
 21
31.9250846097
 31
0.0
  0
LINE
  5
54
  8
0
  6
CONTINUOUS
 62
     7
 10
2.1127017595
 20
31.2584518588
 30
0.0
 11
2.1127017595
 21
31.9250846097
 31
0.0
  0
LINE
  5
55
  8
0
  6
CONTINUOUS
 62
     7
 10
2.0433622993
 20
31.2584518588
 30
0.0
 11
2.0433622993
 21
31.9250846097
 31
0.0
  0
LINE
  5
56
  8
0
  6
CONTINUOUS
 62
     7
 10
2.4212463645
 20
31.1284803474
 30
0.0
 11
2.4212463645
 21
31.9250846097
 31
0.0
  0
LINE
  5
57
  8
0
  6
CONTINUOUS
 62
     7
 10
2.2583146259
 20
31.1782681138
 30
0.0
 11
2.2583146259
 21
31.9250846097
 31
0.0
  0
LINE
  5
58
  8
0
  6
CONTINUOUS
 62
     7
 10
1.9475371993
 20
31.1284803474
 30
0.0
 11
2.2085268595
 21
31.1284803474
 31
0.0
  0
LINE
  5
59
  8
0
  6
CONTINUOUS
 62
     7
 10
1.3430337515
 20
31.1284803474
 30
0.0
 11
1.5995897542
 21
31.1284803474
 31
0.0
  0
LINE
  5
5A
  8
0
  6
CONTINUOUS
 62
     7
 10
1.5995897542
 20
31.506867372
 30
0.0
 11
1.3811704546
 21
31.506867372
 31
0.0
  0
LINE
  5
5B
  8
0
  6
CONTINUOUS
 62
     7
 10
1.5995897542
 20
31.5466975851
 30
0.0
 11
1.3811704546
 21
31.5466975851
 31
0.0
  0
LINE
  5
5C
  8
0
  6
CONTINUOUS
 62
     7
 10
1.3811704546
 20
31.5466975851
 30
0.0
 11
1.3811704546
 21
31.5267824786
 31
0.0
  0
LINE
  5
5D
  8
0
  6
CONTINUOUS
 62
     7
 10
1.3811704546
 20
31.506867372
 30
0.0
 11
1.3811704546
 21
31.5267824786
 31
0.0
  0
LINE
  5
5E
  8
0
  6
CONTINUOUS
 62
     7
 10
2.4212463645
 20
31.1284803474
 30
0.0
 11
2.5203349307
 21
31.1284803474
 31
0.0
  0
LINE
  5
5F
  8
0
  6
CONTINUOUS
 62
     7
 10
2.7991464225
 20
31.4072918392
 30
0.0
 11
2.7991464225
 21
31.6462731179
 31
0.0
  0
LINE
  5
60
  8
0
  6
CONTINUOUS
 62
     7
 10
2.6526312891
 20
31.506867372
 30
0.0
 11
2.6526312891
 21
31.5466975851
 31
0.0
  0
LINE
  5
61
  8
0
  6
CONTINUOUS
 62
     7
 10
2.5287385206
 20
31.506867372
 30
0.0
 11
2.5287385206
 21
31.5466975851
 31
0.0
  0
LINE
  5
62
  8
0
  6
CONTINUOUS
 62
     7
 10
2.6526312891
 20
31.506867372
 30
0.0
 11
2.5287385206
 21
31.506867372
 31
0.0
  0
LINE
  5
63
  8
0
  6
CONTINUOUS
 62
     7
 10
2.6526312891
 20
31.5466975851
 30
0.0
 11
2.5287385206
 21
31.5466975851
 31
0.0
  0
LINE
  5
64
  8
0
  6
CONTINUOUS
 62
     7
 10
2.1127017595
 20
31.9250846097
 30
0.0
 11
2.2583146259
 21
31.9250846097
 31
0.0
  0
LINE
  5
65
  8
0
  6
CONTINUOUS
 62
     7
 10
1.3430337515
 20
31.9250846097
 30
0.0
 11
1.5995897542
 21
31.9250846097
 31
0.0
  0
LINE
  5
66
  8
0
  6
CONTINUOUS
 62
     7
 10
1.8977494329
 20
31.9250846097
 30
0.0
 11
2.0433622993
 21
31.9250846097
 31
0.0
  0
LINE
  5
67
  8
0
  6
CONTINUOUS
 62
     7
 10
2.4212463645
 20
31.9250846097
 30
0.0
 11
2.5203349307
 21
31.9250846097
 31
0.0
  0
LINE
  5
68
  8
0
  6
CONTINUOUS
 62
     7
 10
3.1503000781
 20
32.1152195122
 30
0.0
 11
3.1503000781
 21
30.8972195122
 31
0.0
  0
LINE
  5
69
  8
0
  6
CONTINUOUS
 62
     7
 10
25.1495861308
 20
30.8972195122
 30
0.0
 11
25.1495861308
 21
32.1152195122
 31
0.0
  0
LINE
  5
6A
  8
0
  6
CONTINUOUS
 62
     7
 10
25.3355861308
 20
30.8972195122
 30
0.0
 11
25.3355861308
 21
32.1152195122
 31
0.0
  0
LINE
  5
6B
  8
0
  6
CONTINUOUS
 62
     7
 10
27.5855861308
 20
30.8972195122
 30
0.0
 11
27.5855861308
 21
32.1152195122
 31
0.0
  0
ARC
  5
6C
  8
0
  6
CONTINUOUS
 62
     7
 10
1.5995897542
 20
31.7358910974
 30
0.0
 40
0.1891935122957342
 50
270.0
 51
90.0
  0
ARC
  5
6D
  8
0
  6
CONTINUOUS
 62
     7
 10
2.5203349307
 20
31.6462731179
 30
0.0
 40
0.2788114918042375
 50
0.0
 51
90.0
  0
ARC
  5
6E
  8
0
  6
CONTINUOUS
 62
     7
 10
1.5995897542
 20
31.3176738597
 30
0.0
 40
0.1891935122957342
 50
270.0
 51
90.0
  0
ARC
  5
6F
  8
0
  6
CONTINUOUS
 62
     7
 10
1.9475371993
 20
31.1782681138
 30
0.0
 40
0.0497877663936281
 50
180.0
 51
270.0
  0
ARC
  5
70
  8
0
  6
CONTINUOUS
 62
     7
 10
2.0728715464
 20
31.2584518588
 30
0.0
 40
0.0398302131148797
 50
277.4442840975
 51
0.0
  0
ARC
  5
71
  8
0
  6
CONTINUOUS
 62
     7
 10
2.0831925124
 20
31.2584518588
 30
0.0
 40
0.0398302131149125
 50
180.0
 51
262.5557159021
  0
ARC
  5
72
  8
0
  6
CONTINUOUS
 62
     7
 10
2.5203349307
 20
31.4072918392
 30
0.0
 40
0.2788114918042375
 50
270.0
 51
0.0
  0
ARC
  5
73
  8
0
  6
CONTINUOUS
 62
     7
 10
2.2085268595
 20
31.1782681138
 30
0.0
 40
0.0497877663936208
 50
270.0
 51
0.0
  0
INSERT
  5
7B
  8
0
  6
CONTINUOUS
 62
     7
  2
SW_NOTE_0
 10
25.5191619608
 20
28.1902728194
 30
0.0
  0
TEXT
  5
7C
  8
0
  6
CONTINUOUS
 62
     7
 10
47.1731151101
 20
31.2533724717
 30
0.0
 40
0.5625
  1
7-3-13
 41
0.7
 11
47.1731151101
 21
31.0546636869
 31
0.0
 73
     1
  0
TEXT
  5
7D
  8
0
  6
CONTINUOUS
 62
     7
 10
9.9676277988
 20
31.3015138258
 30
0.0
 40
0.5625
  1
OPEN RELAY RACK SHELF
 41
0.65
 11
9.9676277988
 21
31.102805041
 31
0.0
 73
     1
  0
TEXT
  5
7E
  8
0
  6
CONTINUOUS
 62
     7
 10
33.9881251728
 20
31.2768258673
 30
0.0
 40
0.5625
  1
SA-1748
 41
0.7
 11
33.9881251728
 21
31.0781170825
 31
0.0
 73
     1
  0
INSERT
  5
84
  8
0
  6
CONTINUOUS
 62
     7
  2
SW_NOTE_1
 10
3.8053023739
 20
31.5184147069
 30
0.0
  0
INSERT
  5
8A
  8
0
  6
CONTINUOUS
 62
     7
  2
SW_NOTE_2
 10
25.9315395689
 20
31.4963635605
 30
0.0
  0
INSERT
  5
90
  8
0
  6
CONTINUOUS
 62
     7
  2
SW_NOTE_3
 10
44.1259158823
 20
31.5101505817
 30
0.0
  0
LINE
  5
91
  8
0
  6
CONTINUOUS
 62
     7
 10
42.797495972
 20
15.3800564099
 30
0.0
 11
48.0594312788
 21
18.4177070043
 31
0.0
  0
LINE
  5
92
  8
0
  6
CONTINUOUS
 62
     7
 10
33.5740557911
 20
20.7184469224
 30
0.0
 11
42.7102868414
 21
15.4442130023
 31
0.0
  0
LINE
  5
93
  8
0
  6
CONTINUOUS
 62
     7
 10
38.774651566
 20
23.8018565071
 30
0.0
 11
38.774651566
 21
26.9933705235
 31
0.0
  0
LINE
  5
94
  8
0
  6
CONTINUOUS
 62
     7
 10
48.0713939731
 20
18.4441475817
 30
0.0
 11
48.0713939731
 21
18.39699235
 31
0.0
  0
LINE
  5
95
  8
0
  6
CONTINUOUS
 62
     7
 10
42.8094586663
 20
15.4064969873
 30
0.0
 11
48.0713939731
 21
18.4441475817
 31
0.0
  0
LINE
  5
96
  8
0
  6
CONTINUOUS
 62
     7
 10
42.8094586663
 20
16.5427937173
 30
0.0
 11
42.8094586663
 21
15.4064969873
 31
0.0
  0
LINE
  5
97
  8
0
  6
CONTINUOUS
 62
     7
 10
42.8094586663
 20
16.5427937173
 30
0.0
 11
42.8757500381
 21
16.6576136511
 31
0.0
  0
LINE
  5
98
  8
0
  6
CONTINUOUS
 62
     7
 10
42.8757500381
 20
16.6576136511
 30
0.0
 11
46.5217693394
 21
20.6979455831
 31
0.0
  0
LINE
  5
99
  8
0
  6
CONTINUOUS
 62
     7
 10
48.0719241274
 20
21.5928308941
 30
0.0
 11
46.5217693394
 21
20.6979455831
 31
0.0
  0
LINE
  5
9A
  8
0
  6
CONTINUOUS
 62
     7
 10
48.0719241274
 20
18.3972984015
 30
0.0
 11
48.0719241274
 21
21.5928308941
 31
0.0
  0
LINE
  5
9B
  8
0
  6
CONTINUOUS
 62
     7
 10
48.0719241274
 20
18.3972984015
 30
0.0
 11
48.0713939731
 21
18.39699235
 31
0.0
  0
POLYLINE
  5
9C
  8
0
  6
CONTINUOUS
 62
     7
 66
     1
 10
0.0
 20
0.0
 30
0.0
  0
VERTEX
  5
2DD
  8
0
  6
CONTINUOUS
 62
     7
 10
43.075154152
 20
16.5648373594
 30
0.0
  0
VERTEX
  5
2DE
  8
0
  6
CONTINUOUS
 62
     7
 10
43.07135938
 20
16.5846762762
 30
0.0
  0
VERTEX
  5
2DF
  8
0
  6
CONTINUOUS
 62
     7
 10
43.0605531313
 20
16.5971137327
 30
0.0
  0
VERTEX
  5
2E0
  8
0
  6
CONTINUOUS
 62
     7
 10
43.0443803153
 20
16.6002561117
 30
0.0
  0
VERTEX
  5
2E1
  8
0
  6
CONTINUOUS
 62
     7
 10
43.0253031624
 20
16.5936250785
 30
0.0
  0
VERTEX
  5
2E2
  8
0
  6
CONTINUOUS
 62
     7
 10
43.0062260095
 20
16.5782300998
 30
0.0
  0
VERTEX
  5
2E3
  8
0
  6
CONTINUOUS
 62
     7
 10
42.9900530379
 20
16.5564148951
 30
0.0
  0
VERTEX
  5
2E4
  8
0
  6
CONTINUOUS
 62
     7
 10
42.9792467892
 20
16.5315008094
 30
0.0
  0
VERTEX
  5
2E5
  8
0
  6
CONTINUOUS
 62
     7
 10
42.9754520173
 20
16.5072805422
 30
0.0
  0
VERTEX
  5
2E6
  8
0
  6
CONTINUOUS
 62
     7
 10
42.9792467892
 20
16.4874416254
 30
0.0
  0
VERTEX
  5
2E7
  8
0
  6
CONTINUOUS
 62
     7
 10
42.9900530379
 20
16.4750040791
 30
0.0
  0
VERTEX
  5
2E8
  8
0
  6
CONTINUOUS
 62
     7
 10
43.0062260095
 20
16.47186179
 30
0.0
  0
VERTEX
  5
2E9
  8
0
  6
CONTINUOUS
 62
     7
 10
43.0253031624
 20
16.4784928231
 30
0.0
  0
VERTEX
  5
2EA
  8
0
  6
CONTINUOUS
 62
     7
 10
43.0443803153
 20
16.4938878018
 30
0.0
  0
VERTEX
  5
2EB
  8
0
  6
CONTINUOUS
 62
     7
 10
43.0605531313
 20
16.5157029168
 30
0.0
  0
VERTEX
  5
2EC
  8
0
  6
CONTINUOUS
 62
     7
 10
43.07135938
 20
16.5406170922
 30
0.0
  0
VERTEX
  5
2ED
  8
0
  6
CONTINUOUS
 62
     7
 10
43.075154152
 20
16.5648373594
 30
0.0
  0
SEQEND
  5
2EE
  8
0
  6
CONTINUOUS
 62
     7
  0
LINE
  5
9D
  8
0
  6
CONTINUOUS
 62
     7
 10
42.8428695849
 20
16.6765951327
 30
0.0
 11
42.8757500381
 21
16.6576136511
 31
0.0
  0
LINE
  5
9E
  8
0
  6
CONTINUOUS
 62
     7
 10
46.4888888862
 20
20.7169270647
 30
0.0
 11
46.5217693394
 21
20.6979455831
 31
0.0
  0
LINE
  5
9F
  8
0
  6
CONTINUOUS
 62
     7
 10
46.4888888862
 20
20.7169270647
 30
0.0
 11
42.8428695849
 21
16.6765951327
 31
0.0
  0
LINE
  5
A0
  8
0
  6
CONTINUOUS
 62
     7
 10
42.7765782132
 20
16.5617751988
 30
0.0
 11
42.8094586663
 21
16.5427937173
 31
0.0
  0
LINE
  5
A1
  8
0
  6
CONTINUOUS
 62
     7
 10
42.8428695849
 20
16.6765951327
 30
0.0
 11
42.7765782132
 21
16.5617751988
 31
0.0
  0
LINE
  5
A2
  8
0
  6
CONTINUOUS
 62
     7
 10
42.7765782132
 20
15.4254784689
 30
0.0
 11
42.8094586663
 21
15.4064969873
 31
0.0
  0
LINE
  5
A3
  8
0
  6
CONTINUOUS
 62
     7
 10
42.7765782132
 20
16.5617751988
 30
0.0
 11
42.7765782132
 21
15.4254784689
 31
0.0
  0
ARC
  5
A4
  8
0
  6
CONTINUOUS
 62
     7
 10
42.9476204246
 20
16.5809041737
 30
0.0
 40
0.094286173642986
 50
288.5931788907
 51
11.4121846768
  0
LINE
  5
A5
  8
0
  6
CONTINUOUS
 62
     7
 10
33.6283844685
 20
20.8891151799
 30
0.0
 11
33.5620930968
 21
20.8508336685
 31
0.0
  0
LINE
  5
A6
  8
0
  6
CONTINUOUS
 62
     7
 10
42.6439957808
 20
15.6845135524
 30
0.0
 11
33.6283844685
 21
20.8891151799
 31
0.0
  0
LINE
  5
A7
  8
0
  6
CONTINUOUS
 62
     7
 10
42.7102871525
 20
15.5696936523
 30
0.0
 11
42.6439957808
 21
15.6845135524
 31
0.0
  0
LINE
  5
A8
  8
0
  6
CONTINUOUS
 62
     7
 10
42.7102871525
 20
15.5696936523
 30
0.0
 11
42.7102871525
 21
15.4637474836
 31
0.0
  0
LINE
  5
A9
  8
0
  6
CONTINUOUS
 62
     7
 10
33.5620930968
 20
20.7448874998
 30
0.0
 11
42.7102871525
 21
15.4637474836
 31
0.0
  0
LINE
  5
AA
  8
0
  6
CONTINUOUS
 62
     7
 10
33.5620930968
 20
20.8508336685
 30
0.0
 11
33.5620930968
 21
20.7448874998
 31
0.0
  0
LINE
  5
AB
  8
0
  6
CONTINUOUS
 62
     7
 10
42.676876234
 20
15.703495034
 30
0.0
 11
42.7431676057
 21
15.5886751339
 31
0.0
  0
LINE
  5
AC
  8
0
  6
CONTINUOUS
 62
     7
 10
42.7431676057
 20
15.5886751339
 30
0.0
 11
42.7102871525
 21
15.5696936523
 31
0.0
  0
LINE
  5
AD
  8
0
  6
CONTINUOUS
 62
     7
 10
42.676876234
 20
15.703495034
 30
0.0
 11
42.6439957808
 21
15.6845135524
 31
0.0
  0
ARC
  5
AE
  8
0
  6
CONTINUOUS
 62
     7
 10
42.7845642361
 20
15.4024585252
 30
0.0
 40
0.0252198697516123
 50
230.7966897537
 51
9.2144518445
  0
LINE
  5
AF
  8
0
  6
CONTINUOUS
 62
     7
 10
42.7686234103
 20
15.4208845949
 30
0.0
 11
42.7686234103
 21
15.3829154471
 31
0.0
  0
ARC
  5
B0
  8
0
  6
CONTINUOUS
 62
     7
 10
42.7717286643
 20
15.424691752
 30
0.0
 40
0.0049129469232133
 50
230.7980802961
 51
9.2145210627
  0
ARC
  5
B1
  8
0
  6
CONTINUOUS
 62
     7
 10
48.0432230596
 20
18.4409666728
 30
0.0
 40
0.0283499303105007
 50
304.8702465339
 51
6.4422463924
  0
LINE
  5
B2
  8
0
  6
CONTINUOUS
 62
     7
 10
42.7431676057
 20
15.4827289652
 30
0.0
 11
42.7102871525
 21
15.4637474836
 31
0.0
  0
LINE
  5
B3
  8
0
  6
CONTINUOUS
 62
     7
 10
42.7431676057
 20
15.5886751339
 30
0.0
 11
42.7431676057
 21
15.4827289652
 31
0.0
  0
LINE
  5
B4
  8
0
  6
CONTINUOUS
 62
     7
 10
33.6612649217
 20
20.9080966615
 30
0.0
 11
33.6283844685
 21
20.8891151799
 31
0.0
  0
LINE
  5
B5
  8
0
  6
CONTINUOUS
 62
     7
 10
42.676876234
 20
15.703495034
 30
0.0
 11
33.6612649217
 21
20.9080966615
 31
0.0
  0
LINE
  5
B6
  8
0
  6
CONTINUOUS
 62
     7
 10
42.7686234103
 20
15.4208845949
 30
0.0
 11
42.7765785243
 21
15.4254769844
 31
0.0
  0
LINE
  5
B7
  8
0
  6
CONTINUOUS
 62
     7
 10
42.7102871525
 20
15.4545613997
 30
0.0
 11
42.7102871525
 21
15.4165922519
 31
0.0
  0
LINE
  5
B8
  8
0
  6
CONTINUOUS
 62
     7
 10
42.7686234103
 20
15.4208845949
 30
0.0
 11
42.7102871525
 21
15.4545613997
 31
0.0
  0
LINE
  5
B9
  8
0
  6
CONTINUOUS
 62
     7
 10
42.7686234103
 20
15.3829154471
 30
0.0
 11
42.7102871525
 21
15.4165922519
 31
0.0
  0
LINE
  5
BA
  8
0
  6
CONTINUOUS
 62
     7
 10
42.7102871525
 20
15.4545613997
 30
0.0
 11
42.7110696279
 21
15.4550131131
 31
0.0
  0
LINE
  5
BB
  8
0
  6
CONTINUOUS
 62
     7
 10
42.7110696279
 20
15.4550131131
 30
0.0
 11
42.7511227197
 21
15.4781352708
 31
0.0
  0
LINE
  5
BC
  8
0
  6
CONTINUOUS
 62
     7
 10
42.7431676057
 20
15.4827276603
 30
0.0
 11
42.7511227197
 21
15.4781352708
 31
0.0
  0
LINE
  5
BD
  8
0
  6
CONTINUOUS
 62
     7
 10
33.5620930968
 20
20.7357014158
 30
0.0
 11
33.5628755721
 21
20.7361531292
 31
0.0
  0
LINE
  5
BE
  8
0
  6
CONTINUOUS
 62
     7
 10
33.5620930968
 20
20.7357014158
 30
0.0
 11
33.5032263736
 21
20.7696844518
 31
0.0
  0
LINE
  5
BF
  8
0
  6
CONTINUOUS
 62
     7
 10
38.7651616803
 20
23.8073350462
 30
0.0
 11
33.7021272454
 21
20.884507481
 31
0.0
  0
LINE
  5
C0
  8
0
  6
CONTINUOUS
 62
     7
 10
33.5620930968
 20
20.8036674877
 30
0.0
 11
33.5032263736
 21
20.7696844518
 31
0.0
  0
LINE
  5
C1
  8
0
  6
CONTINUOUS
 62
     7
 10
38.7651616803
 20
23.8073350462
 30
0.0
 11
38.8237633264
 21
23.773505036
 31
0.0
  0
LINE
  5
C2
  8
0
  6
CONTINUOUS
 62
     7
 10
38.8237633264
 20
23.773505036
 30
0.0
 11
38.8242934807
 21
23.7738110875
 31
0.0
  0
LINE
  5
C3
  8
0
  6
CONTINUOUS
 62
     7
 10
45.6773528478
 20
19.8176241247
 30
0.0
 11
38.8242934807
 21
23.7738110875
 31
0.0
  0
ARC
  5
C4
  8
0
  6
CONTINUOUS
 62
     7
 10
42.756949557
 20
15.4635255365
 30
0.0
 40
0.0466629322739175
 50
179.7274779427
 51
190.5109637807
  0
ARC
  5
C5
  8
0
  6
CONTINUOUS
 62
     7
 10
33.5872027045
 20
20.7391311324
 30
0.0
 40
0.0245087305950463
 50
186.9791328592
 51
237.5599020885
  0
ARC
  5
C6
  8
0
  6
CONTINUOUS
 62
     7
 10
33.6087555012
 20
20.7446655527
 30
0.0
 40
0.0466629322748908
 50
179.7274779428
 51
190.5109637805
  0
ARC
  5
C7
  8
0
  6
CONTINUOUS
 62
     7
 10
42.7480173286
 20
15.4819424882
 30
0.0
 40
0.0049130803006582
 50
170.7885656102
 51
309.2027141277
  0
LINE
  5
C8
  8
0
  6
CONTINUOUS
 62
     7
 10
48.0390436742
 20
21.6118123757
 30
0.0
 11
48.0719241274
 21
21.5928308941
 31
0.0
  0
LINE
  5
C9
  8
0
  6
CONTINUOUS
 62
     7
 10
48.0390436742
 20
21.6118123757
 30
0.0
 11
46.4888888862
 21
20.7169270647
 31
0.0
  0
LINE
  5
CA
  8
0
  6
CONTINUOUS
 62
     7
 10
48.4444813192
 20
21.3869429842
 30
0.0
 11
48.4773617724
 21
21.4059244658
 31
0.0
  0
LINE
  5
CB
  8
0
  6
CONTINUOUS
 62
     7
 10
48.4444813192
 20
21.3869429842
 30
0.0
 11
48.0878343553
 21
21.5928308941
 31
0.0
  0
LINE
  5
CC
  8
0
  6
CONTINUOUS
 62
     7
 10
48.0878343553
 20
21.5928308941
 30
0.0
 11
48.1207148084
 21
21.6118123757
 31
0.0
  0
LINE
  5
CD
  8
0
  6
CONTINUOUS
 62
     7
 10
48.1207148084
 20
21.6118123757
 30
0.0
 11
48.4773617724
 21
21.4059244658
 31
0.0
  0
LINE
  5
CE
  8
0
  6
CONTINUOUS
 62
     7
 10
48.4444813192
 20
21.3869429842
 30
0.0
 11
48.4444813192
 21
18.1914104917
 31
0.0
  0
LINE
  5
CF
  8
0
  6
CONTINUOUS
 62
     7
 10
48.4773617724
 20
21.4059244658
 30
0.0
 11
48.4773617724
 21
18.2103919733
 31
0.0
  0
LINE
  5
D0
  8
0
  6
CONTINUOUS
 62
     7
 10
48.4444813192
 20
18.1914104917
 30
0.0
 11
48.4773617724
 21
18.2103919733
 31
0.0
  0
LINE
  5
D1
  8
0
  6
CONTINUOUS
 62
     7
 10
48.4444813192
 20
18.1914104917
 30
0.0
 11
48.0878343553
 21
18.3972984015
 31
0.0
  0
LINE
  5
D2
  8
0
  6
CONTINUOUS
 62
     7
 10
48.0878343553
 20
21.5928308941
 30
0.0
 11
48.0878343553
 21
18.3972984015
 31
0.0
  0
POLYLINE
  5
D3
  8
0
  6
CONTINUOUS
 62
     7
 66
     1
 10
0.0
 20
0.0
 30
0.0
  0
VERTEX
  5
2EF
  8
0
  6
CONTINUOUS
 62
     7
 10
48.229167133
 20
21.4539812367
 30
0.0
  0
VERTEX
  5
2F0
  8
0
  6
CONTINUOUS
 62
     7
 10
48.2036830161
 20
21.4635039126
 30
0.0
  0
VERTEX
  5
2F1
  8
0
  6
CONTINUOUS
 62
     7
 10
48.1812721761
 20
21.4615002953
 30
0.0
  0
VERTEX
  5
2F2
  8
0
  6
CONTINUOUS
 62
     7
 10
48.1646385863
 20
21.4482111724
 30
0.0
  0
VERTEX
  5
2F3
  8
0
  6
CONTINUOUS
 62
     7
 10
48.1557877481
 20
21.4252405304
 30
0.0
  0
VERTEX
  5
2F4
  8
0
  6
CONTINUOUS
 62
     7
 10
48.1557877481
 20
21.3953579315
 30
0.0
  0
VERTEX
  5
2F5
  8
0
  6
CONTINUOUS
 62
     7
 10
48.1646385863
 20
21.3621683292
 30
0.0
  0
VERTEX
  5
2F6
  8
0
  6
CONTINUOUS
 62
     7
 10
48.1812721761
 20
21.3296746519
 30
0.0
  0
VERTEX
  5
2F7
  8
0
  6
CONTINUOUS
 62
     7
 10
48.2036830161
 20
21.3017960296
 30
0.0
  0
VERTEX
  5
2F8
  8
0
  6
CONTINUOUS
 62
     7
 10
48.229167133
 20
21.2818953705
 30
0.0
  0
SEQEND
  5
2F9
  8
0
  6
CONTINUOUS
 62
     7
  0
LINE
  5
D4
  8
0
  6
CONTINUOUS
 62
     7
 10
48.229167133
 20
21.2818953705
 30
0.0
 11
48.3118988869
 21
21.2341353456
 31
0.0
  0
POLYLINE
  5
D5
  8
0
  6
CONTINUOUS
 62
     7
 66
     1
 10
0.0
 20
0.0
 30
0.0
  0
VERTEX
  5
2FA
  8
0
  6
CONTINUOUS
 62
     7
 10
48.3118988869
 20
21.4062212118
 30
0.0
  0
VERTEX
  5
2FB
  8
0
  6
CONTINUOUS
 62
     7
 10
48.3373830037
 20
21.3863205527
 30
0.0
  0
VERTEX
  5
2FC
  8
0
  6
CONTINUOUS
 62
     7
 10
48.3597938437
 20
21.3584419303
 30
0.0
  0
VERTEX
  5
2FD
  8
0
  6
CONTINUOUS
 62
     7
 10
48.3764274335
 20
21.3259480734
 30
0.0
  0
VERTEX
  5
2FE
  8
0
  6
CONTINUOUS
 62
     7
 10
48.3852782717
 20
21.2927584711
 30
0.0
  0
VERTEX
  5
2FF
  8
0
  6
CONTINUOUS
 62
     7
 10
48.3852782717
 20
21.2628758722
 30
0.0
  0
VERTEX
  5
300
  8
0
  6
CONTINUOUS
 62
     7
 10
48.3764274335
 20
21.2399052302
 30
0.0
  0
VERTEX
  5
301
  8
0
  6
CONTINUOUS
 62
     7
 10
48.3597938437
 20
21.2266162869
 30
0.0
  0
VERTEX
  5
302
  8
0
  6
CONTINUOUS
 62
     7
 10
48.3373830037
 20
21.2246126696
 30
0.0
  0
VERTEX
  5
303
  8
0
  6
CONTINUOUS
 62
     7
 10
48.3118988869
 20
21.2341353456
 30
0.0
  0
SEQEND
  5
304
  8
0
  6
CONTINUOUS
 62
     7
  0
LINE
  5
D6
  8
0
  6
CONTINUOUS
 62
     7
 10
48.3118988869
 20
21.4062212118
 30
0.0
 11
48.229167133
 21
21.4539812367
 31
0.0
  0
POLYLINE
  5
D7
  8
0
  6
CONTINUOUS
 62
     7
 66
     1
 10
0.0
 20
0.0
 30
0.0
  0
VERTEX
  5
305
  8
0
  6
CONTINUOUS
 62
     7
 10
48.229167133
 20
20.6884742011
 30
0.0
  0
VERTEX
  5
306
  8
0
  6
CONTINUOUS
 62
     7
 10
48.2036830161
 20
20.697996877
 30
0.0
  0
VERTEX
  5
307
  8
0
  6
CONTINUOUS
 62
     7
 10
48.1812721761
 20
20.6959932598
 30
0.0
  0
VERTEX
  5
308
  8
0
  6
CONTINUOUS
 62
     7
 10
48.1646385863
 20
20.6827043165
 30
0.0
  0
VERTEX
  5
309
  8
0
  6
CONTINUOUS
 62
     7
 10
48.1557877481
 20
20.6597334948
 30
0.0
  0
VERTEX
  5
30A
  8
0
  6
CONTINUOUS
 62
     7
 10
48.1557877481
 20
20.6298510756
 30
0.0
  0
VERTEX
  5
30B
  8
0
  6
CONTINUOUS
 62
     7
 10
48.1646385863
 20
20.5966612936
 30
0.0
  0
VERTEX
  5
30C
  8
0
  6
CONTINUOUS
 62
     7
 10
48.1812721761
 20
20.5641676164
 30
0.0
  0
VERTEX
  5
30D
  8
0
  6
CONTINUOUS
 62
     7
 10
48.2036830161
 20
20.536288994
 30
0.0
  0
VERTEX
  5
30E
  8
0
  6
CONTINUOUS
 62
     7
 10
48.229167133
 20
20.5163883349
 30
0.0
  0
SEQEND
  5
30F
  8
0
  6
CONTINUOUS
 62
     7
  0
LINE
  5
D8
  8
0
  6
CONTINUOUS
 62
     7
 10
48.229167133
 20
20.5163883349
 30
0.0
 11
48.3118988869
 21
20.46862831
 31
0.0
  0
POLYLINE
  5
D9
  8
0
  6
CONTINUOUS
 62
     7
 66
     1
 10
0.0
 20
0.0
 30
0.0
  0
VERTEX
  5
310
  8
0
  6
CONTINUOUS
 62
     7
 10
48.3118988869
 20
20.6407141762
 30
0.0
  0
VERTEX
  5
311
  8
0
  6
CONTINUOUS
 62
     7
 10
48.3373830037
 20
20.6208135171
 30
0.0
  0
VERTEX
  5
312
  8
0
  6
CONTINUOUS
 62
     7
 10
48.3597938437
 20
20.5929348947
 30
0.0
  0
VERTEX
  5
313
  8
0
  6
CONTINUOUS
 62
     7
 10
48.3764274335
 20
20.5604412175
 30
0.0
  0
VERTEX
  5
314
  8
0
  6
CONTINUOUS
 62
     7
 10
48.3852782717
 20
20.5272514355
 30
0.0
  0
VERTEX
  5
315
  8
0
  6
CONTINUOUS
 62
     7
 10
48.3852782717
 20
20.4973690163
 30
0.0
  0
VERTEX
  5
316
  8
0
  6
CONTINUOUS
 62
     7
 10
48.3764274335
 20
20.4743981946
 30
0.0
  0
VERTEX
  5
317
  8
0
  6
CONTINUOUS
 62
     7
 10
48.3597938437
 20
20.4611092513
 30
0.0
  0
VERTEX
  5
318
  8
0
  6
CONTINUOUS
 62
     7
 10
48.3373830037
 20
20.4591056341
 30
0.0
  0
VERTEX
  5
319
  8
0
  6
CONTINUOUS
 62
     7
 10
48.3118988869
 20
20.46862831
 30
0.0
  0
SEQEND
  5
31A
  8
0
  6
CONTINUOUS
 62
     7
  0
LINE
  5
DA
  8
0
  6
CONTINUOUS
 62
     7
 10
48.3118988869
 20
20.6407141762
 30
0.0
 11
48.229167133
 21
20.6884742011
 31
0.0
  0
POLYLINE
  5
DB
  8
0
  6
CONTINUOUS
 62
     7
 66
     1
 10
0.0
 20
0.0
 30
0.0
  0
VERTEX
  5
31B
  8
0
  6
CONTINUOUS
 62
     7
 10
48.229167133
 20
19.3105616089
 30
0.0
  0
VERTEX
  5
31C
  8
0
  6
CONTINUOUS
 62
     7
 10
48.2036830161
 20
19.3200842848
 30
0.0
  0
VERTEX
  5
31D
  8
0
  6
CONTINUOUS
 62
     7
 10
48.1812721761
 20
19.3180805778
 30
0.0
  0
VERTEX
  5
31E
  8
0
  6
CONTINUOUS
 62
     7
 10
48.1646385863
 20
19.3047917243
 30
0.0
  0
VERTEX
  5
31F
  8
0
  6
CONTINUOUS
 62
     7
 10
48.1557877481
 20
19.2818209026
 30
0.0
  0
VERTEX
  5
320
  8
0
  6
CONTINUOUS
 62
     7
 10
48.1557877481
 20
19.2519384834
 30
0.0
  0
VERTEX
  5
321
  8
0
  6
CONTINUOUS
 62
     7
 10
48.1646385863
 20
19.2187487014
 30
0.0
  0
VERTEX
  5
322
  8
0
  6
CONTINUOUS
 62
     7
 10
48.1812721761
 20
19.1862550242
 30
0.0
  0
VERTEX
  5
323
  8
0
  6
CONTINUOUS
 62
     7
 10
48.2036830161
 20
19.158376312
 30
0.0
  0
VERTEX
  5
324
  8
0
  6
CONTINUOUS
 62
     7
 10
48.229167133
 20
19.1384756529
 30
0.0
  0
SEQEND
  5
325
  8
0
  6
CONTINUOUS
 62
     7
  0
LINE
  5
DC
  8
0
  6
CONTINUOUS
 62
     7
 10
48.229167133
 20
19.1384756529
 30
0.0
 11
48.3118988869
 21
19.090715628
 31
0.0
  0
POLYLINE
  5
DD
  8
0
  6
CONTINUOUS
 62
     7
 66
     1
 10
0.0
 20
0.0
 30
0.0
  0
VERTEX
  5
326
  8
0
  6
CONTINUOUS
 62
     7
 10
48.3118988869
 20
19.262801584
 30
0.0
  0
VERTEX
  5
327
  8
0
  6
CONTINUOUS
 62
     7
 10
48.3373830037
 20
19.2429009249
 30
0.0
  0
VERTEX
  5
328
  8
0
  6
CONTINUOUS
 62
     7
 10
48.3597938437
 20
19.2150222127
 30
0.0
  0
VERTEX
  5
329
  8
0
  6
CONTINUOUS
 62
     7
 10
48.3764274335
 20
19.1825286253
 30
0.0
  0
VERTEX
  5
32A
  8
0
  6
CONTINUOUS
 62
     7
 10
48.3852782717
 20
19.1493388434
 30
0.0
  0
VERTEX
  5
32B
  8
0
  6
CONTINUOUS
 62
     7
 10
48.3852782717
 20
19.1194564241
 30
0.0
  0
VERTEX
  5
32C
  8
0
  6
CONTINUOUS
 62
     7
 10
48.3764274335
 20
19.0964856024
 30
0.0
  0
VERTEX
  5
32D
  8
0
  6
CONTINUOUS
 62
     7
 10
48.3597938437
 20
19.0831966592
 30
0.0
  0
VERTEX
  5
32E
  8
0
  6
CONTINUOUS
 62
     7
 10
48.3373830037
 20
19.0811929521
 30
0.0
  0
VERTEX
  5
32F
  8
0
  6
CONTINUOUS
 62
     7
 10
48.3118988869
 20
19.090715628
 30
0.0
  0
SEQEND
  5
330
  8
0
  6
CONTINUOUS
 62
     7
  0
LINE
  5
DE
  8
0
  6
CONTINUOUS
 62
     7
 10
48.3118988869
 20
19.262801584
 30
0.0
 11
48.229167133
 21
19.3105616089
 31
0.0
  0
POLYLINE
  5
DF
  8
0
  6
CONTINUOUS
 62
     7
 66
     1
 10
0.0
 20
0.0
 30
0.0
  0
VERTEX
  5
331
  8
0
  6
CONTINUOUS
 62
     7
 10
48.229167133
 20
18.5450546183
 30
0.0
  0
VERTEX
  5
332
  8
0
  6
CONTINUOUS
 62
     7
 10
48.2036830161
 20
18.5545772717
 30
0.0
  0
VERTEX
  5
333
  8
0
  6
CONTINUOUS
 62
     7
 10
48.1812721761
 20
18.5525735647
 30
0.0
  0
VERTEX
  5
334
  8
0
  6
CONTINUOUS
 62
     7
 10
48.1646385863
 20
18.5392846663
 30
0.0
  0
VERTEX
  5
335
  8
0
  6
CONTINUOUS
 62
     7
 10
48.1557877481
 20
18.5163138671
 30
0.0
  0
VERTEX
  5
336
  8
0
  6
CONTINUOUS
 62
     7
 10
48.1557877481
 20
18.4864314478
 30
0.0
  0
VERTEX
  5
337
  8
0
  6
CONTINUOUS
 62
     7
 10
48.1646385863
 20
18.4532416771
 30
0.0
  0
VERTEX
  5
338
  8
0
  6
CONTINUOUS
 62
     7
 10
48.1812721761
 20
18.420748056
 30
0.0
  0
VERTEX
  5
339
  8
0
  6
CONTINUOUS
 62
     7
 10
48.2036830161
 20
18.3928693438
 30
0.0
  0
VERTEX
  5
33A
  8
0
  6
CONTINUOUS
 62
     7
 10
48.229167133
 20
18.372968651
 30
0.0
  0
SEQEND
  5
33B
  8
0
  6
CONTINUOUS
 62
     7
  0
LINE
  5
E0
  8
0
  6
CONTINUOUS
 62
     7
 10
48.229167133
 20
18.372968651
 30
0.0
 11
48.3118988869
 21
18.3252086261
 31
0.0
  0
POLYLINE
  5
E1
  8
0
  6
CONTINUOUS
 62
     7
 66
     1
 10
0.0
 20
0.0
 30
0.0
  0
VERTEX
  5
33C
  8
0
  6
CONTINUOUS
 62
     7
 10
48.3118988869
 20
18.4972945933
 30
0.0
  0
VERTEX
  5
33D
  8
0
  6
CONTINUOUS
 62
     7
 10
48.3373830037
 20
18.4773939118
 30
0.0
  0
VERTEX
  5
33E
  8
0
  6
CONTINUOUS
 62
     7
 10
48.3597938437
 20
18.4495151996
 30
0.0
  0
VERTEX
  5
33F
  8
0
  6
CONTINUOUS
 62
     7
 10
48.3764274335
 20
18.4170215673
 30
0.0
  0
VERTEX
  5
340
  8
0
  6
CONTINUOUS
 62
     7
 10
48.3852782717
 20
18.3838318078
 30
0.0
  0
VERTEX
  5
341
  8
0
  6
CONTINUOUS
 62
     7
 10
48.3852782717
 20
18.3539493885
 30
0.0
  0
VERTEX
  5
342
  8
0
  6
CONTINUOUS
 62
     7
 10
48.3764274335
 20
18.3309785781
 30
0.0
  0
VERTEX
  5
343
  8
0
  6
CONTINUOUS
 62
     7
 10
48.3597938437
 20
18.3176896909
 30
0.0
  0
VERTEX
  5
344
  8
0
  6
CONTINUOUS
 62
     7
 10
48.3373830037
 20
18.3156859839
 30
0.0
  0
VERTEX
  5
345
  8
0
  6
CONTINUOUS
 62
     7
 10
48.3118988869
 20
18.3252086261
 30
0.0
  0
SEQEND
  5
346
  8
0
  6
CONTINUOUS
 62
     7
  0
LINE
  5
E2
  8
0
  6
CONTINUOUS
 62
     7
 10
48.3118988869
 20
18.4972945933
 30
0.0
 11
48.229167133
 21
18.5450546183
 31
0.0
  0
LINE
  5
E3
  8
0
  6
CONTINUOUS
 62
     7
 10
48.3118988869
 20
21.2341353456
 30
0.0
 11
48.34477934
 21
21.2531168272
 31
0.0
  0
POLYLINE
  5
E4
  8
0
  6
CONTINUOUS
 62
     7
 66
     1
 10
0.0
 20
0.0
 30
0.0
  0
VERTEX
  5
347
  8
0
  6
CONTINUOUS
 62
     7
 10
48.3783921777
 20
21.2429649274
 30
0.0
  0
VERTEX
  5
348
  8
0
  6
CONTINUOUS
 62
     7
 10
48.3702634569
 20
21.2435941512
 30
0.0
  0
VERTEX
  5
349
  8
0
  6
CONTINUOUS
 62
     7
 10
48.34477934
 20
21.2531168272
 30
0.0
  0
SEQEND
  5
34A
  8
0
  6
CONTINUOUS
 62
     7
  0
LINE
  5
E5
  8
0
  6
CONTINUOUS
 62
     7
 10
48.229167133
 20
21.2818953705
 30
0.0
 11
48.2620475861
 21
21.3008768521
 31
0.0
  0
ARC
  5
E6
  8
0
  6
CONTINUOUS
 62
     7
 10
48.3278284139
 20
21.4228382654
 30
0.0
 40
0.1385702119326714
 50
162.6620986144
 51
241.6594538384
  0
LINE
  5
E7
  8
0
  6
CONTINUOUS
 62
     7
 10
48.2620475861
 20
21.3008768521
 30
0.0
 11
48.34477934
 21
21.2531168272
 31
0.0
  0
ARC
  5
E8
  8
0
  6
CONTINUOUS
 62
     7
 10
48.0798792413
 20
18.3819438207
 30
0.0
 40
0.0172929751950329
 50
62.6116037944
 51
117.3883962056
  0
ARC
  5
E9
  8
0
  6
CONTINUOUS
 62
     7
 10
48.0798792413
 20
21.5774763132
 30
0.0
 40
0.017292975195014
 50
62.6116037944
 51
117.3883962056
  0
ARC
  5
EA
  8
0
  6
CONTINUOUS
 62
     7
 10
48.0798792413
 20
21.5329997737
 30
0.0
 40
0.0887635610920362
 50
62.6097453918
 51
117.3902546082
  0
LINE
  5
EB
  8
0
  6
CONTINUOUS
 62
     7
 10
48.3118988869
 20
20.46862831
 30
0.0
 11
48.34477934
 21
20.4876097916
 31
0.0
  0
POLYLINE
  5
EC
  8
0
  6
CONTINUOUS
 62
     7
 66
     1
 10
0.0
 20
0.0
 30
0.0
  0
VERTEX
  5
34B
  8
0
  6
CONTINUOUS
 62
     7
 10
48.3783921777
 20
20.4774578918
 30
0.0
  0
VERTEX
  5
34C
  8
0
  6
CONTINUOUS
 62
     7
 10
48.3702634569
 20
20.4780871157
 30
0.0
  0
VERTEX
  5
34D
  8
0
  6
CONTINUOUS
 62
     7
 10
48.34477934
 20
20.4876097916
 30
0.0
  0
SEQEND
  5
34E
  8
0
  6
CONTINUOUS
 62
     7
  0
LINE
  5
ED
  8
0
  6
CONTINUOUS
 62
     7
 10
48.229167133
 20
20.5163883349
 30
0.0
 11
48.2620475861
 21
20.5353698165
 31
0.0
  0
ARC
  5
EE
  8
0
  6
CONTINUOUS
 62
     7
 10
48.3278284139
 20
20.6573312298
 30
0.0
 40
0.1385702119326714
 50
162.6620986144
 51
241.6594538384
  0
LINE
  5
EF
  8
0
  6
CONTINUOUS
 62
     7
 10
48.2620475861
 20
20.5353698165
 30
0.0
 11
48.34477934
 21
20.4876097916
 31
0.0
  0
LINE
  5
F0
  8
0
  6
CONTINUOUS
 62
     7
 10
48.3118988869
 20
19.090715628
 30
0.0
 11
48.34477934
 21
19.1096971096
 31
0.0
  0
POLYLINE
  5
F1
  8
0
  6
CONTINUOUS
 62
     7
 66
     1
 10
0.0
 20
0.0
 30
0.0
  0
VERTEX
  5
34F
  8
0
  6
CONTINUOUS
 62
     7
 10
48.3783921777
 20
19.0995452996
 30
0.0
  0
VERTEX
  5
350
  8
0
  6
CONTINUOUS
 62
     7
 10
48.3702634569
 20
19.1001744337
 30
0.0
  0
VERTEX
  5
351
  8
0
  6
CONTINUOUS
 62
     7
 10
48.34477934
 20
19.1096971096
 30
0.0
  0
SEQEND
  5
352
  8
0
  6
CONTINUOUS
 62
     7
  0
LINE
  5
F2
  8
0
  6
CONTINUOUS
 62
     7
 10
48.229167133
 20
19.1384756529
 30
0.0
 11
48.2620475861
 21
19.1574571345
 31
0.0
  0
ARC
  5
F3
  8
0
  6
CONTINUOUS
 62
     7
 10
48.3278285089
 20
19.2794186092
 30
0.0
 40
0.1385703110611188
 50
162.6620991014
 51
241.6594313271
  0
LINE
  5
F4
  8
0
  6
CONTINUOUS
 62
     7
 10
48.2620475861
 20
19.1574571345
 30
0.0
 11
48.34477934
 21
19.1096971096
 31
0.0
  0
LINE
  5
F5
  8
0
  6
CONTINUOUS
 62
     7
 10
48.3118988869
 20
18.3252086261
 30
0.0
 11
48.34477934
 21
18.3441901077
 31
0.0
  0
POLYLINE
  5
F6
  8
0
  6
CONTINUOUS
 62
     7
 66
     1
 10
0.0
 20
0.0
 30
0.0
  0
VERTEX
  5
353
  8
0
  6
CONTINUOUS
 62
     7
 10
48.3783921777
 20
18.3340382865
 30
0.0
  0
VERTEX
  5
354
  8
0
  6
CONTINUOUS
 62
     7
 10
48.3702634569
 20
18.3346674655
 30
0.0
  0
VERTEX
  5
355
  8
0
  6
CONTINUOUS
 62
     7
 10
48.34477934
 20
18.3441901077
 30
0.0
  0
SEQEND
  5
356
  8
0
  6
CONTINUOUS
 62
     7
  0
LINE
  5
F7
  8
0
  6
CONTINUOUS
 62
     7
 10
48.229167133
 20
18.372968651
 30
0.0
 11
48.2620475861
 21
18.3919501326
 31
0.0
  0
ARC
  5
F8
  8
0
  6
CONTINUOUS
 62
     7
 10
48.327828576
 20
18.5139116318
 30
0.0
 40
0.1385703644973958
 50
162.6621214764
 51
241.6594117052
  0
LINE
  5
F9
  8
0
  6
CONTINUOUS
 62
     7
 10
48.2620475861
 20
18.3919501326
 30
0.0
 11
48.34477934
 21
18.3441901077
 31
0.0
  0
LINE
  5
FA
  8
0
  6
CONTINUOUS
 62
     7
 10
38.8322485946
 20
23.8935357297
 30
0.0
 11
38.8322485946
 21
23.787589561
 31
0.0
  0
LINE
  5
FB
  8
0
  6
CONTINUOUS
 62
     7
 10
38.8985396552
 20
23.9318174208
 30
0.0
 11
38.8322485946
 21
23.8935357297
 31
0.0
  0
LINE
  5
FC
  8
0
  6
CONTINUOUS
 62
     7
 10
45.7965313067
 20
19.9496916023
 30
0.0
 11
38.8985396552
 21
23.9318174208
 31
0.0
  0
LINE
  5
FD
  8
0
  6
CONTINUOUS
 62
     7
 10
45.6882525891
 20
19.829702701
 30
0.0
 11
38.8322485946
 21
23.787589561
 31
0.0
  0
LINE
  5
FE
  8
0
  6
CONTINUOUS
 62
     7
 10
48.0474713846
 20
18.4108025664
 30
0.0
 11
48.0713939731
 21
18.39699235
 31
0.0
  0
LINE
  5
FF
  8
0
  6
CONTINUOUS
 62
     7
 10
38.8985396552
 20
23.9318174208
 30
0.0
 11
38.9314201084
 21
23.9507989024
 31
0.0
  0
LINE
  5
100
  8
0
  6
CONTINUOUS
 62
     7
 10
45.8190553957
 20
19.9746516857
 30
0.0
 11
38.9314201084
 21
23.9507989024
 31
0.0
  0
ARC
  5
101
  8
0
  6
CONTINUOUS
 62
     7
 10
38.8149766948
 20
23.7883759214
 30
0.0
 40
0.0172897913381367
 50
302.606102647
 51
357.3932199698
  0
POLYLINE
  5
102
  8
0
  6
CONTINUOUS
 62
     7
 66
     1
 10
0.0
 20
0.0
 30
0.0
  0
VERTEX
  5
357
  8
0
  6
CONTINUOUS
 62
     7
 10
33.7609670564
 20
21.9418031178
 30
0.0
  0
VERTEX
  5
358
  8
0
  6
CONTINUOUS
 62
     7
 10
33.7571722845
 20
21.9616420346
 30
0.0
  0
VERTEX
  5
359
  8
0
  6
CONTINUOUS
 62
     7
 10
33.7463660358
 20
21.974079491
 30
0.0
  0
VERTEX
  5
35A
  8
0
  6
CONTINUOUS
 62
     7
 10
33.7301932197
 20
21.97722187
 30
0.0
  0
VERTEX
  5
35B
  8
0
  6
CONTINUOUS
 62
     7
 10
33.7111160668
 20
21.9705908369
 30
0.0
  0
VERTEX
  5
35C
  8
0
  6
CONTINUOUS
 62
     7
 10
33.692038914
 20
21.9551958581
 30
0.0
  0
VERTEX
  5
35D
  8
0
  6
CONTINUOUS
 62
     7
 10
33.6758659424
 20
21.9333806534
 30
0.0
  0
VERTEX
  5
35E
  8
0
  6
CONTINUOUS
 62
     7
 10
33.6650596937
 20
21.9084665678
 30
0.0
  0
VERTEX
  5
35F
  8
0
  6
CONTINUOUS
 62
     7
 10
33.6612649217
 20
21.8842463005
 30
0.0
  0
VERTEX
  5
360
  8
0
  6
CONTINUOUS
 62
     7
 10
33.6650596937
 20
21.8644073838
 30
0.0
  0
VERTEX
  5
361
  8
0
  6
CONTINUOUS
 62
     7
 10
33.6758659424
 20
21.8519698375
 30
0.0
  0
VERTEX
  5
362
  8
0
  6
CONTINUOUS
 62
     7
 10
33.692038914
 20
21.8488275483
 30
0.0
  0
VERTEX
  5
363
  8
0
  6
CONTINUOUS
 62
     7
 10
33.7111160668
 20
21.8554585814
 30
0.0
  0
VERTEX
  5
364
  8
0
  6
CONTINUOUS
 62
     7
 10
33.7301932197
 20
21.8708535602
 30
0.0
  0
VERTEX
  5
365
  8
0
  6
CONTINUOUS
 62
     7
 10
33.7463660358
 20
21.8926686751
 30
0.0
  0
VERTEX
  5
366
  8
0
  6
CONTINUOUS
 62
     7
 10
33.7571722845
 20
21.9175828505
 30
0.0
  0
VERTEX
  5
367
  8
0
  6
CONTINUOUS
 62
     7
 10
33.7609670564
 20
21.9418031178
 30
0.0
  0
SEQEND
  5
368
  8
0
  6
CONTINUOUS
 62
     7
  0
LINE
  5
103
  8
0
  6
CONTINUOUS
 62
     7
 10
38.7572068775
 20
23.82111334
 30
0.0
 11
33.6862162397
 21
20.8936927567
 31
0.0
  0
LINE
  5
104
  8
0
  6
CONTINUOUS
 62
     7
 10
33.5620932523
 20
20.8220380813
 30
0.0
 11
33.4952715708
 21
20.7834627456
 31
0.0
  0
LINE
  5
105
  8
0
  6
CONTINUOUS
 62
     7
 10
33.4952715708
 20
20.7834627456
 30
0.0
 11
33.4952715708
 21
21.9197594756
 31
0.0
  0
LINE
  5
106
  8
0
  6
CONTINUOUS
 62
     7
 10
33.4952715708
 20
21.9197594756
 30
0.0
 11
33.5615629425
 21
22.0345794094
 31
0.0
  0
LINE
  5
107
  8
0
  6
CONTINUOUS
 62
     7
 10
33.5615629425
 20
22.0345794094
 30
0.0
 11
37.2075822438
 21
26.0749113415
 31
0.0
  0
LINE
  5
108
  8
0
  6
CONTINUOUS
 62
     7
 10
38.7577370318
 20
26.9697966524
 30
0.0
 11
37.2075822438
 21
26.0749113415
 31
0.0
  0
LINE
  5
109
  8
0
  6
CONTINUOUS
 62
     7
 10
38.7577370318
 20
26.9697966524
 30
0.0
 11
38.7577370318
 21
23.8175091817
 31
0.0
  0
LINE
  5
10A
  8
0
  6
CONTINUOUS
 62
     7
 10
37.2075822438
 20
26.0749113415
 30
0.0
 11
37.1747017906
 21
26.0938928231
 31
0.0
  0
LINE
  5
10B
  8
0
  6
CONTINUOUS
 62
     7
 10
33.5615629425
 20
22.0345794094
 30
0.0
 11
33.5286824893
 21
22.053560891
 31
0.0
  0
LINE
  5
10C
  8
0
  6
CONTINUOUS
 62
     7
 10
33.5286824893
 20
22.053560891
 30
0.0
 11
37.1747017906
 21
26.0938928231
 31
0.0
  0
LINE
  5
10D
  8
0
  6
CONTINUOUS
 62
     7
 10
33.4952715708
 20
21.9197594756
 30
0.0
 11
33.4623911176
 21
21.9387409572
 31
0.0
  0
LINE
  5
10E
  8
0
  6
CONTINUOUS
 62
     7
 10
33.4623911176
 20
21.9387409572
 30
0.0
 11
33.5286824893
 21
22.053560891
 31
0.0
  0
LINE
  5
10F
  8
0
  6
CONTINUOUS
 62
     7
 10
33.4952715708
 20
20.7834627456
 30
0.0
 11
33.4623911176
 21
20.8024442272
 31
0.0
  0
LINE
  5
110
  8
0
  6
CONTINUOUS
 62
     7
 10
33.4623911176
 20
20.8024442272
 30
0.0
 11
33.4623911176
 21
21.9387409572
 31
0.0
  0
LINE
  5
111
  8
0
  6
CONTINUOUS
 62
     7
 10
33.7280866033
 20
21.9607845994
 30
0.0
 11
33.7258553819
 21
21.9765259415
 31
0.0
  0
ARC
  5
112
  8
0
  6
CONTINUOUS
 62
     7
 10
33.6283509785
 20
21.9618491266
 30
0.0
 40
0.0997413056830942
 50
290.6319266177
 51
359.3884773038
  0
LINE
  5
113
  8
0
  6
CONTINUOUS
 62
     7
 10
33.5032263736
 20
20.7696844518
 30
0.0
 11
33.5032263736
 21
20.731715304
 31
0.0
  0
LINE
  5
114
  8
0
  6
CONTINUOUS
 62
     7
 10
33.5620930968
 20
20.7357014158
 30
0.0
 11
33.5620930968
 21
20.6977322681
 31
0.0
  0
LINE
  5
115
  8
0
  6
CONTINUOUS
 62
     7
 10
33.5620930968
 20
20.6977322681
 30
0.0
 11
33.5032263736
 21
20.731715304
 31
0.0
  0
LINE
  5
116
  8
0
  6
CONTINUOUS
 62
     7
 10
33.5620930968
 20
20.6977322681
 30
0.0
 11
33.5860159964
 21
20.7115426641
 31
0.0
  0
ARC
  5
117
  8
0
  6
CONTINUOUS
 62
     7
 10
33.5510493841
 20
20.8064784135
 30
0.0
 40
0.0887500021328414
 50
182.6053128724
 51
237.3945573113
  0
ARC
  5
118
  8
0
  6
CONTINUOUS
 62
     7
 10
33.5125426715
 20
20.7842486242
 30
0.0
 40
0.0172889712006854
 50
182.6053052584
 51
237.3940782857
  0
ARC
  5
119
  8
0
  6
CONTINUOUS
 62
     7
 10
38.7744779782
 20
23.8218992186
 30
0.0
 40
0.0172889712007105
 50
182.6053052584
 51
237.3940782856
  0
LINE
  5
11A
  8
0
  6
CONTINUOUS
 62
     7
 10
38.7577370318
 20
26.9697966524
 30
0.0
 11
38.7248565786
 21
26.988778134
 31
0.0
  0
LINE
  5
11B
  8
0
  6
CONTINUOUS
 62
     7
 10
38.7248565786
 20
26.988778134
 30
0.0
 11
37.1747017906
 21
26.0938928231
 31
0.0
  0
ARC
  5
11C
  8
0
  6
CONTINUOUS
 62
     7
 10
38.7487898989
 20
26.9933705235
 30
0.0
 40
0.0252146502421751
 50
290.7835570368
 51
69.2164429632
  0
ARC
  5
11D
  8
0
  6
CONTINUOUS
 62
     7
 10
38.723113322
 20
26.9933705235
 30
0.0
 40
0.0049121263343256
 50
290.7866039557
 51
69.2133960442
  0
LINE
  5
11E
  8
0
  6
CONTINUOUS
 62
     7
 10
38.7248565786
 20
26.9979629131
 30
0.0
 11
38.7577370318
 21
27.0169443947
 31
0.0
  0
LINE
  5
11F
  8
0
  6
CONTINUOUS
 62
     7
 10
38.7248565786
 20
26.9887784375
 30
0.0
 11
38.7248565786
 21
26.9979629131
 31
0.0
  0
LINE
  5
120
  8
0
  6
CONTINUOUS
 62
     7
 10
38.3682096146
 20
26.782890422
 30
0.0
 11
38.3682096146
 21
27.2038508229
 31
0.0
  0
LINE
  5
121
  8
0
  6
CONTINUOUS
 62
     7
 10
38.3682096146
 20
27.2038508229
 30
0.0
 11
38.7248565786
 21
26.9979629131
 31
0.0
  0
POLYLINE
  5
122
  8
0
  6
CONTINUOUS
 62
     7
 66
     1
 10
0.0
 20
0.0
 30
0.0
  0
VERTEX
  5
369
  8
0
  6
CONTINUOUS
 62
     7
 10
38.500792047
 20
27.0700526324
 30
0.0
  0
VERTEX
  5
36A
  8
0
  6
CONTINUOUS
 62
     7
 10
38.4753079302
 20
27.0795753083
 30
0.0
  0
VERTEX
  5
36B
  8
0
  6
CONTINUOUS
 62
     7
 10
38.4528970902
 20
27.077571691
 30
0.0
  0
VERTEX
  5
36C
  8
0
  6
CONTINUOUS
 62
     7
 10
38.4362635004
 20
27.0642825681
 30
0.0
  0
VERTEX
  5
36D
  8
0
  6
CONTINUOUS
 62
     7
 10
38.4274126622
 20
27.0413119261
 30
0.0
  0
VERTEX
  5
36E
  8
0
  6
CONTINUOUS
 62
     7
 10
38.4274126622
 20
27.0114293272
 30
0.0
  0
VERTEX
  5
36F
  8
0
  6
CONTINUOUS
 62
     7
 10
38.4362635004
 20
26.9782397248
 30
0.0
  0
VERTEX
  5
370
  8
0
  6
CONTINUOUS
 62
     7
 10
38.4528970902
 20
26.9457460476
 30
0.0
  0
VERTEX
  5
371
  8
0
  6
CONTINUOUS
 62
     7
 10
38.4753079302
 20
26.9178674253
 30
0.0
  0
VERTEX
  5
372
  8
0
  6
CONTINUOUS
 62
     7
 10
38.500792047
 20
26.8979667662
 30
0.0
  0
SEQEND
  5
373
  8
0
  6
CONTINUOUS
 62
     7
  0
LINE
  5
123
  8
0
  6
CONTINUOUS
 62
     7
 10
38.500792047
 20
26.8979667662
 30
0.0
 11
38.5341706087
 21
26.8786977326
 31
0.0
  0
ARC
  5
124
  8
0
  6
CONTINUOUS
 62
     7
 10
38.4961948074
 20
26.8860914443
 30
0.0
 40
0.1617934174844052
 50
20.9687212715
 51
57.3329589413
  0
LINE
  5
125
  8
0
  6
CONTINUOUS
 62
     7
 10
38.5835238009
 20
27.0222926074
 30
0.0
 11
38.500792047
 21
27.0700526324
 31
0.0
  0
LINE
  5
126
  8
0
  6
CONTINUOUS
 62
     7
 10
38.3682096146
 20
27.2038508229
 30
0.0
 11
38.4010900678
 21
27.2228323045
 31
0.0
  0
LINE
  5
127
  8
0
  6
CONTINUOUS
 62
     7
 10
38.4010900678
 20
27.2228323045
 30
0.0
 11
38.7577370318
 21
27.0169443947
 31
0.0
  0
LINE
  5
128
  8
0
  6
CONTINUOUS
 62
     7
 10
38.500792047
 20
26.8979667662
 30
0.0
 11
38.5336725002
 21
26.9169482478
 31
0.0
  0
ARC
  5
129
  8
0
  6
CONTINUOUS
 62
     7
 10
38.599453328
 20
27.0389096611
 30
0.0
 40
0.1385702119326761
 50
162.6620986144
 51
241.6594538384
  0
LINE
  5
12A
  8
0
  6
CONTINUOUS
 62
     7
 10
38.5336725002
 20
26.9169482478
 30
0.0
 11
38.5670510619
 21
26.8976792142
 31
0.0
  0
LINE
  5
12B
  8
0
  6
CONTINUOUS
 62
     7
 10
5.9377259398
 20
6.7442111476
 30
0.0
 11
5.7817254486
 21
6.7442111476
 31
0.0
  0
ARC
  5
12C
  8
0
  6
CONTINUOUS
 62
     7
 10
5.9377256852
 20
6.8847111611
 30
0.0
 40
0.1404999999999994
 50
270.0
 51
90.0
  0
LINE
  5
12D
  8
0
  6
CONTINUOUS
 62
     7
 10
5.7817254486
 20
7.0252111148
 30
0.0
 11
5.9377259398
 21
7.0252111148
 31
0.0
  0
ARC
  5
12E
  8
0
  6
CONTINUOUS
 62
     7
 10
5.7817256852
 20
6.8847111611
 30
0.0
 40
0.1404999999999994
 50
90.0
 51
270.0
  0
LINE
  5
12F
  8
0
  6
CONTINUOUS
 62
     7
 10
5.9377259398
 20
5.4942111627
 30
0.0
 11
5.7817254486
 21
5.4942111627
 31
0.0
  0
ARC
  5
130
  8
0
  6
CONTINUOUS
 62
     7
 10
5.9377256852
 20
5.6347111611
 30
0.0
 40
0.1404999999999994
 50
270.0
 51
90.0
  0
LINE
  5
131
  8
0
  6
CONTINUOUS
 62
     7
 10
5.7817254486
 20
5.7752111482
 30
0.0
 11
5.9377259398
 21
5.7752111482
 31
0.0
  0
ARC
  5
132
  8
0
  6
CONTINUOUS
 62
     7
 10
5.7817256852
 20
5.6347111611
 30
0.0
 40
0.1404999999999994
 50
90.0
 51
270.0
  0
LINE
  5
133
  8
0
  6
CONTINUOUS
 62
     7
 10
5.5317256166
 20
5.4007111611
 30
0.0
 11
6.2042255812
 21
5.4007111611
 31
0.0
  0
LINE
  5
134
  8
0
  6
CONTINUOUS
 62
     7
 10
5.5317256166
 20
10.6187112023
 30
0.0
 11
5.5317256166
 21
5.4007111611
 31
0.0
  0
LINE
  5
135
  8
0
  6
CONTINUOUS
 62
     7
 10
6.2042255812
 20
10.6187112023
 30
0.0
 11
5.5317256166
 21
10.6187112023
 31
0.0
  0
LINE
  5
136
  8
0
  6
CONTINUOUS
 62
     7
 10
5.9377259398
 20
10.2442112886
 30
0.0
 11
5.7817254486
 21
10.2442112886
 31
0.0
  0
LINE
  5
137
  8
0
  6
CONTINUOUS
 62
     7
 10
5.7817254486
 20
10.5252111091
 30
0.0
 11
5.9377259398
 21
10.5252111091
 31
0.0
  0
ARC
  5
138
  8
0
  6
CONTINUOUS
 62
     7
 10
5.9377256852
 20
10.3847111611
 30
0.0
 40
0.1405000000000012
 50
270.0
 51
90.0
  0
ARC
  5
139
  8
0
  6
CONTINUOUS
 62
     7
 10
5.7817256852
 20
9.1347111611
 30
0.0
 40
0.1404999999999994
 50
90.0
 51
270.0
  0
LINE
  5
13A
  8
0
  6
CONTINUOUS
 62
     7
 10
5.7817254486
 20
9.2752110692
 30
0.0
 11
5.9377259398
 21
9.2752110692
 31
0.0
  0
ARC
  5
13B
  8
0
  6
CONTINUOUS
 62
     7
 10
5.9377256852
 20
9.1347111611
 30
0.0
 40
0.1404999999999994
 50
270.0
 51
90.0
  0
LINE
  5
13C
  8
0
  6
CONTINUOUS
 62
     7
 10
5.9377259398
 20
8.9942112487
 30
0.0
 11
5.7817254486
 21
8.9942112487
 31
0.0
  0
ARC
  5
13D
  8
0
  6
CONTINUOUS
 62
     7
 10
5.7817256852
 20
10.3847111611
 30
0.0
 40
0.1405000000000012
 50
90.0
 51
270.0
  0
LINE
  5
13E
  8
0
  6
CONTINUOUS
 62
     7
 10
24.2817259217
 20
10.2442112886
 30
0.0
 11
24.1257254305
 21
10.2442112886
 31
0.0
  0
ARC
  5
13F
  8
0
  6
CONTINUOUS
 62
     7
 10
24.2817256852
 20
10.3847111611
 30
0.0
 40
0.1404999999999994
 50
270.0
 51
90.0
  0
LINE
  5
140
  8
0
  6
CONTINUOUS
 62
     7
 10
24.1257254305
 20
9.2752110692
 30
0.0
 11
24.2817259217
 21
9.2752110692
 31
0.0
  0
ARC
  5
141
  8
0
  6
CONTINUOUS
 62
     7
 10
24.1257256852
 20
9.1347111611
 30
0.0
 40
0.1404999999999994
 50
90.0
 51
270.0
  0
LINE
  5
142
  8
0
  6
CONTINUOUS
 62
     7
 10
24.2817259217
 20
6.7442111476
 30
0.0
 11
24.1257254305
 21
6.7442111476
 31
0.0
  0
ARC
  5
143
  8
0
  6
CONTINUOUS
 62
     7
 10
24.2817256852
 20
6.8847111611
 30
0.0
 40
0.1404999999999994
 50
270.0
 51
90.0
  0
LINE
  5
144
  8
0
  6
CONTINUOUS
 62
     7
 10
24.1257254305
 20
7.0252111148
 30
0.0
 11
24.2817259217
 21
7.0252111148
 31
0.0
  0
ARC
  5
145
  8
0
  6
CONTINUOUS
 62
     7
 10
24.1257256852
 20
6.8847111611
 30
0.0
 40
0.1404999999999994
 50
90.0
 51
270.0
  0
LINE
  5
146
  8
0
  6
CONTINUOUS
 62
     7
 10
24.2817259217
 20
5.4942111627
 30
0.0
 11
24.1257254305
 21
5.4942111627
 31
0.0
  0
ARC
  5
147
  8
0
  6
CONTINUOUS
 62
     7
 10
24.2817256852
 20
5.6347111611
 30
0.0
 40
0.1404999999999994
 50
270.0
 51
90.0
  0
LINE
  5
148
  8
0
  6
CONTINUOUS
 62
     7
 10
24.1257254305
 20
5.7752111482
 30
0.0
 11
24.2817259217
 21
5.7752111482
 31
0.0
  0
ARC
  5
149
  8
0
  6
CONTINUOUS
 62
     7
 10
24.1257256852
 20
5.6347111611
 30
0.0
 40
0.1404999999999994
 50
90.0
 51
270.0
  0
LINE
  5
14A
  8
0
  6
CONTINUOUS
 62
     7
 10
24.5317257537
 20
10.6187112023
 30
0.0
 11
23.8592257891
 21
10.6187112023
 31
0.0
  0
LINE
  5
14B
  8
0
  6
CONTINUOUS
 62
     7
 10
24.5317257537
 20
5.4007111611
 30
0.0
 11
24.5317257537
 21
10.6187112023
 31
0.0
  0
LINE
  5
14C
  8
0
  6
CONTINUOUS
 62
     7
 10
23.8592257891
 20
5.4007111611
 30
0.0
 11
24.5317257537
 21
5.4007111611
 31
0.0
  0
ARC
  5
14D
  8
0
  6
CONTINUOUS
 62
     7
 10
24.1257256852
 20
10.3847111611
 30
0.0
 40
0.1404999999999994
 50
90.0
 51
270.0
  0
LINE
  5
14E
  8
0
  6
CONTINUOUS
 62
     7
 10
24.1257254305
 20
10.5252111091
 30
0.0
 11
24.2817259217
 21
10.5252111091
 31
0.0
  0
LINE
  5
14F
  8
0
  6
CONTINUOUS
 62
     7
 10
24.2817259217
 20
8.9942112487
 30
0.0
 11
24.1257254305
 21
8.9942112487
 31
0.0
  0
ARC
  5
150
  8
0
  6
CONTINUOUS
 62
     7
 10
24.2817256852
 20
9.1347111611
 30
0.0
 40
0.1404999999999994
 50
270.0
 51
90.0
  0
LINE
  5
151
  8
0
  6
CONTINUOUS
 62
     7
 10
6.4067259086
 20
5.6507111581
 30
0.0
 11
6.4067259086
 21
5.4777111608
 31
0.0
  0
LINE
  5
152
  8
0
  6
CONTINUOUS
 62
     7
 10
6.5317255312
 20
5.7757111658
 30
0.0
 11
6.4067259086
 21
5.6507111581
 31
0.0
  0
LINE
  5
153
  8
0
  6
CONTINUOUS
 62
     7
 10
6.5317255312
 20
5.7757111658
 30
0.0
 11
23.5317258391
 21
5.7757111658
 31
0.0
  0
LINE
  5
154
  8
0
  6
CONTINUOUS
 62
     7
 10
23.6567254618
 20
5.6507111581
 30
0.0
 11
23.5317258391
 21
5.7757111658
 31
0.0
  0
LINE
  5
155
  8
0
  6
CONTINUOUS
 62
     7
 10
23.6567254618
 20
5.6507111581
 30
0.0
 11
23.6567254618
 21
5.4777111608
 31
0.0
  0
LINE
  5
156
  8
0
  6
CONTINUOUS
 62
     7
 10
6.4067259086
 20
5.4007111611
 30
0.0
 11
23.6567254618
 21
5.4007111611
 31
0.0
  0
LINE
  5
157
  8
0
  6
CONTINUOUS
 62
     7
 10
6.4067259086
 20
5.4777111608
 30
0.0
 11
6.4067259086
 21
5.4007111611
 31
0.0
  0
LINE
  5
158
  8
0
  6
CONTINUOUS
 62
     7
 10
23.6567254618
 20
5.4007111611
 30
0.0
 11
23.6567254618
 21
5.4777111608
 31
0.0
  0
LINE
  5
159
  8
0
  6
CONTINUOUS
 62
     7
 10
6.281225865
 20
5.4007111611
 30
0.0
 11
6.281225865
 21
10.6187112023
 31
0.0
  0
LINE
  5
15A
  8
0
  6
CONTINUOUS
 62
     7
 10
6.281225865
 20
5.4007111611
 30
0.0
 11
6.2042255812
 21
5.4007111611
 31
0.0
  0
LINE
  5
15B
  8
0
  6
CONTINUOUS
 62
     7
 10
6.2042255812
 20
10.6187112023
 30
0.0
 11
6.281225865
 21
10.6187112023
 31
0.0
  0
LINE
  5
15C
  8
0
  6
CONTINUOUS
 62
     7
 10
23.7822255053
 20
10.6187112023
 30
0.0
 11
23.7822255053
 21
5.4007111611
 31
0.0
  0
LINE
  5
15D
  8
0
  6
CONTINUOUS
 62
     7
 10
23.8592257891
 20
5.4007111611
 30
0.0
 11
23.7822255053
 21
5.4007111611
 31
0.0
  0
LINE
  5
15E
  8
0
  6
CONTINUOUS
 62
     7
 10
23.7822255053
 20
10.6187112023
 30
0.0
 11
23.8592257891
 21
10.6187112023
 31
0.0
  0
LINE
  5
15F
  8
0
  6
CONTINUOUS
 62
     7
 10
23.7672257852
 20
5.4627111611
 30
0.0
 11
23.6567254618
 21
5.4627111611
 31
0.0
  0
LINE
  5
160
  8
0
  6
CONTINUOUS
 62
     7
 10
23.6567254618
 20
5.4007111611
 30
0.0
 11
23.7672257852
 21
5.4007111611
 31
0.0
  0
ARC
  5
161
  8
0
  6
CONTINUOUS
 62
     7
 10
23.7672256852
 20
5.4777111611
 30
0.0
 40
0.0769999999999975
 50
270.0
 51
281.2333438429
  0
ARC
  5
162
  8
0
  6
CONTINUOUS
 62
     7
 10
23.7672256852
 20
5.4777111611
 30
0.0
 40
0.0150000000000041
 50
270.0
 51
360.0
  0
ARC
  5
163
  8
0
  6
CONTINUOUS
 62
     7
 10
6.2962256852
 20
5.4777111611
 30
0.0
 40
0.0769999999999975
 50
258.7666561571
 51
270.0
  0
ARC
  5
164
  8
0
  6
CONTINUOUS
 62
     7
 10
6.2962256852
 20
5.4777111611
 30
0.0
 40
0.0150000000000006
 50
180.0
 51
270.0
  0
LINE
  5
165
  8
0
  6
CONTINUOUS
 62
     7
 10
6.4067259086
 20
5.4627111611
 30
0.0
 11
6.2962255851
 21
5.4627111611
 31
0.0
  0
LINE
  5
166
  8
0
  6
CONTINUOUS
 62
     7
 10
6.4067259086
 20
5.4007111611
 30
0.0
 11
6.2962255851
 21
5.4007111611
 31
0.0
  0
LINE
  5
167
  8
0
  6
CONTINUOUS
 62
     7
 10
6.4062254877
 20
5.4627111611
 30
0.0
 11
6.4062254877
 21
5.4777111608
 31
0.0
  0
LINE
  5
168
  8
0
  6
CONTINUOUS
 62
     7
 10
6.531225697
 20
5.7757111658
 30
0.0
 11
6.4062254877
 21
5.6507111581
 31
0.0
  0
LINE
  5
169
  8
0
  6
CONTINUOUS
 62
     7
 10
6.4062254877
 20
5.6507111581
 30
0.0
 11
6.4062254877
 21
5.4777111608
 31
0.0
  0
LINE
  5
16A
  8
0
  6
CONTINUOUS
 62
     7
 10
6.531225697
 20
5.7757111658
 30
0.0
 11
6.5317255312
 21
5.7757111658
 31
0.0
  0
DIMENSION
  5
16B
  8
0
  6
CONTINUOUS
 62
     7
  2
*D5
 10
24.2037256852
 20
11.9922901399
 30
0.0
 11
15.0317256852
 21
11.9922901399
 31
0.0
 70
   160
  3
SLDDIMSTYLE0
 13
5.8597256852
 23
10.5252111611
 33
0.0
 14
24.2037256852
 24
10.5252111611
 34
0.0
  0
DIMENSION
  5
180
  8
0
  6
CONTINUOUS
 62
     7
  2
*D6
 10
24.5317256852
 20
13.5957810157
 30
0.0
 11
15.0317256852
 21
13.5957810157
 31
0.0
 70
   160
  3
SLDDIMSTYLE1
 13
5.5317256852
 23
10.6187111611
 33
0.0
 14
24.5317256852
 24
10.6187111611
 34
0.0
 50
0.0
  0
DIMENSION
  5
195
  8
0
  6
CONTINUOUS
 62
     7
  2
*D7
 10
19.3988120267
 20
5.4007111611
 30
0.0
 11
19.3988120267
 21
4.2196087989
 31
0.0
 70
   160
  1
<> TYP.\PFRONT & BACK
  3
SLDDIMSTYLE2
 13
23.5317256852
 23
5.7757111611
 33
0.0
 14
23.7672256852
 24
5.4007111611
 34
0.0
 50
90.0
  0
DIMENSION
  5
1A9
  8
0
  6
CONTINUOUS
 62
     7
  2
*D8
 10
28.234687049
 20
10.3847111611
 30
0.0
 11
28.234687049
 21
9.7597111611
 31
0.0
 70
   160
  3
SLDDIMSTYLE2
 13
24.2817256852
 23
9.1347111611
 33
0.0
 14
24.2817256852
 24
10.3847111611
 34
0.0
 50
90.0
  0
DIMENSION
  5
1BD
  8
0
  6
CONTINUOUS
 62
     7
  2
*D9
 10
26.9125264318
 20
6.8847111611
 30
0.0
 11
26.9125264318
 21
8.0097111611
 31
0.0
 70
   160
  3
SLDDIMSTYLE2
 13
24.2817256852
 23
9.1347111611
 33
0.0
 14
24.2817256852
 24
6.8847111611
 34
0.0
 50
90.0
  0
DIMENSION
  5
1D1
  8
0
  6
CONTINUOUS
 62
     7
  2
*D10
 10
25.7128280474
 20
5.6347111611
 30
0.0
 11
25.7128280474
 21
6.2597111611
 31
0.0
 70
   160
  3
SLDDIMSTYLE2
 13
24.2817256852
 23
6.8847111611
 33
0.0
 14
24.2817256852
 24
5.6347111611
 34
0.0
 50
90.0
  0
DIMENSION
  5
1E5
  8
0
  6
CONTINUOUS
 62
     7
  2
*D11
 10
4.7280947427
 20
5.4942111611
 30
0.0
 11
4.7280947427
 21
6.6387476112
 31
0.0
 70
   160
  3
SLDDIMSTYLE2
 13
5.7817256852
 23
5.7752111611
 33
0.0
 14
5.7817256852
 24
5.4942111611
 34
0.0
 50
90.0
  0
DIMENSION
  5
1FA
  8
0
  6
CONTINUOUS
 62
     7
  2
*D12
 10
6.0782256852
 20
4.2196087989
 30
0.0
 11
8.0202373884
 21
4.2196087989
 31
0.0
 70
   160
  3
SLDDIMSTYLE2
 13
5.6412256852
 23
5.6347111611
 33
0.0
 14
6.0782256852
 24
5.6347111611
 34
0.0
  0
LINE
  5
20E
  8
0
  6
CONTINUOUS
 62
     7
 10
6.281225865
 20
25.3970185117
 30
0.0
 11
6.2192258879
 21
25.3970185117
 31
0.0
  0
LINE
  5
20F
  8
0
  6
CONTINUOUS
 62
     7
 10
6.281225865
 20
18.5220185857
 30
0.0
 11
6.2192258879
 21
18.5220185857
 31
0.0
  0
LINE
  5
210
  8
0
  6
CONTINUOUS
 62
     7
 10
6.2192258879
 20
25.3970185117
 30
0.0
 11
6.2192258879
 21
18.5220185857
 31
0.0
  0
LINE
  5
211
  8
0
  6
CONTINUOUS
 62
     7
 10
6.281225865
 20
18.5220185857
 30
0.0
 11
6.281225865
 21
25.3970185117
 31
0.0
  0
LINE
  5
212
  8
0
  6
CONTINUOUS
 62
     7
 10
23.7822255053
 20
18.5220185857
 30
0.0
 11
23.8442254824
 21
18.5220185857
 31
0.0
  0
LINE
  5
213
  8
0
  6
CONTINUOUS
 62
     7
 10
23.7822255053
 20
25.3970185117
 30
0.0
 11
23.8442254824
 21
25.3970185117
 31
0.0
  0
LINE
  5
214
  8
0
  6
CONTINUOUS
 62
     7
 10
23.8442254824
 20
25.3970185117
 30
0.0
 11
23.8442254824
 21
18.5220185857
 31
0.0
  0
LINE
  5
215
  8
0
  6
CONTINUOUS
 62
     7
 10
23.7822255053
 20
25.3970185117
 30
0.0
 11
23.7822255053
 21
18.5220185857
 31
0.0
  0
LINE
  5
216
  8
0
  6
CONTINUOUS
 62
     7
 10
6.2192258879
 20
15.5990186857
 30
0.0
 11
6.2192258879
 21
18.5220185857
 31
0.0
  0
LINE
  5
217
  8
0
  6
CONTINUOUS
 62
     7
 10
6.281225865
 20
15.5990186857
 30
0.0
 11
6.281225865
 21
18.5220185857
 31
0.0
  0
LINE
  5
218
  8
0
  6
CONTINUOUS
 62
     7
 10
23.8442254824
 20
15.5990186857
 30
0.0
 11
23.8442254824
 21
18.5220185857
 31
0.0
  0
LINE
  5
219
  8
0
  6
CONTINUOUS
 62
     7
 10
23.7822255053
 20
15.5990186857
 30
0.0
 11
23.7822255053
 21
18.5220185857
 31
0.0
  0
LINE
  5
21A
  8
0
  6
CONTINUOUS
 62
     7
 10
6.2042255812
 20
15.5220184019
 30
0.0
 11
5.5317256166
 21
15.5220184019
 31
0.0
  0
LINE
  5
21B
  8
0
  6
CONTINUOUS
 62
     7
 10
5.5317256166
 20
15.584018379
 30
0.0
 11
6.2042255812
 21
15.584018379
 31
0.0
  0
LINE
  5
21C
  8
0
  6
CONTINUOUS
 62
     7
 10
5.5317256166
 20
15.584018379
 30
0.0
 11
5.5317256166
 21
15.5220184019
 31
0.0
  0
ARC
  5
21D
  8
0
  6
CONTINUOUS
 62
     7
 10
23.8592256852
 20
15.5990185615
 30
0.0
 40
0.0769999999999946
 50
180.0
 51
270.0
  0
ARC
  5
21E
  8
0
  6
CONTINUOUS
 62
     7
 10
23.8592256852
 20
15.5990185615
 30
0.0
 40
0.0150000000000006
 50
180.0
 51
270.0
  0
LINE
  5
21F
  8
0
  6
CONTINUOUS
 62
     7
 10
24.5317257537
 20
15.584018379
 30
0.0
 11
23.8592257891
 21
15.584018379
 31
0.0
  0
LINE
  5
220
  8
0
  6
CONTINUOUS
 62
     7
 10
24.5317257537
 20
15.5220184019
 30
0.0
 11
23.8592257891
 21
15.5220184019
 31
0.0
  0
LINE
  5
221
  8
0
  6
CONTINUOUS
 62
     7
 10
24.5317257537
 20
15.584018379
 30
0.0
 11
24.5317257537
 21
15.5220184019
 31
0.0
  0
ARC
  5
222
  8
0
  6
CONTINUOUS
 62
     7
 10
6.2042256852
 20
15.5990185615
 30
0.0
 40
0.0769999999999991
 50
270.0
 51
0.0
  0
ARC
  5
223
  8
0
  6
CONTINUOUS
 62
     7
 10
6.2042256852
 20
15.5990185615
 30
0.0
 40
0.0149999999999988
 50
270.0
 51
0.0
  0
LINE
  5
224
  8
0
  6
CONTINUOUS
 62
     7
 10
6.281225865
 20
25.5220187211
 30
0.0
 11
6.2192258879
 21
25.5220187211
 31
0.0
  0
LINE
  5
225
  8
0
  6
CONTINUOUS
 62
     7
 10
6.2192258879
 20
25.5220187211
 30
0.0
 11
6.2192258879
 21
25.3970185117
 31
0.0
  0
LINE
  5
226
  8
0
  6
CONTINUOUS
 62
     7
 10
6.281225865
 20
25.3970185117
 30
0.0
 11
6.281225865
 21
25.5220187211
 31
0.0
  0
LINE
  5
227
  8
0
  6
CONTINUOUS
 62
     7
 10
23.7822255053
 20
25.5220187211
 30
0.0
 11
23.8442254824
 21
25.5220187211
 31
0.0
  0
LINE
  5
228
  8
0
  6
CONTINUOUS
 62
     7
 10
23.8442254824
 20
25.5220187211
 30
0.0
 11
23.8442254824
 21
25.3970185117
 31
0.0
  0
LINE
  5
229
  8
0
  6
CONTINUOUS
 62
     7
 10
23.7822255053
 20
25.5220187211
 30
0.0
 11
23.7822255053
 21
25.3970185117
 31
0.0
  0
LINE
  5
22A
  8
0
  6
CONTINUOUS
 62
     7
 10
23.5312254182
 20
25.460018744
 30
0.0
 11
23.5312254182
 21
25.5220187211
 31
0.0
  0
LINE
  5
22B
  8
0
  6
CONTINUOUS
 62
     7
 10
6.531225697
 20
25.460018744
 30
0.0
 11
23.5312254182
 21
25.460018744
 31
0.0
  0
LINE
  5
22C
  8
0
  6
CONTINUOUS
 62
     7
 10
6.531225697
 20
25.460018744
 30
0.0
 11
6.531225697
 21
25.5220187211
 31
0.0
  0
LINE
  5
22D
  8
0
  6
CONTINUOUS
 62
     7
 10
6.531225697
 20
25.5220187211
 30
0.0
 11
23.5312254182
 21
25.5220187211
 31
0.0
  0
LINE
  5
22E
  8
0
  6
CONTINUOUS
 62
     7
 10
6.531225697
 20
25.460018744
 30
0.0
 11
6.4062254877
 21
25.460018744
 31
0.0
  0
LINE
  5
22F
  8
0
  6
CONTINUOUS
 62
     7
 10
6.4062254877
 20
25.460018744
 30
0.0
 11
6.4062254877
 21
25.5220187211
 31
0.0
  0
LINE
  5
230
  8
0
  6
CONTINUOUS
 62
     7
 10
6.4062254877
 20
25.5220187211
 30
0.0
 11
6.531225697
 21
25.5220187211
 31
0.0
  0
LINE
  5
231
  8
0
  6
CONTINUOUS
 62
     7
 10
23.6562256275
 20
25.460018744
 30
0.0
 11
23.6562256275
 21
25.5220187211
 31
0.0
  0
LINE
  5
232
  8
0
  6
CONTINUOUS
 62
     7
 10
23.6562256275
 20
25.460018744
 30
0.0
 11
23.5312254182
 21
25.460018744
 31
0.0
  0
LINE
  5
233
  8
0
  6
CONTINUOUS
 62
     7
 10
23.5312254182
 20
25.5220187211
 30
0.0
 11
23.6562256275
 21
25.5220187211
 31
0.0
  0
LINE
  5
234
  8
0
  6
CONTINUOUS
 62
     7
 10
6.4067259086
 20
15.584018379
 30
0.0
 11
6.4067259086
 21
15.5220184019
 31
0.0
  0
LINE
  5
235
  8
0
  6
CONTINUOUS
 62
     7
 10
6.4067259086
 20
15.584018379
 30
0.0
 11
6.5317255312
 21
15.584018379
 31
0.0
  0
LINE
  5
236
  8
0
  6
CONTINUOUS
 62
     7
 10
6.5317255312
 20
15.584018379
 30
0.0
 11
6.5317255312
 21
15.5220184019
 31
0.0
  0
LINE
  5
237
  8
0
  6
CONTINUOUS
 62
     7
 10
6.5317255312
 20
15.5220184019
 30
0.0
 11
6.4067259086
 21
15.5220184019
 31
0.0
  0
LINE
  5
238
  8
0
  6
CONTINUOUS
 62
     7
 10
6.5317255312
 20
15.584018379
 30
0.0
 11
23.5317258391
 21
15.584018379
 31
0.0
  0
LINE
  5
239
  8
0
  6
CONTINUOUS
 62
     7
 10
23.5317258391
 20
15.584018379
 30
0.0
 11
23.5317258391
 21
15.5220184019
 31
0.0
  0
LINE
  5
23A
  8
0
  6
CONTINUOUS
 62
     7
 10
6.5317255312
 20
15.5220184019
 30
0.0
 11
23.5317258391
 21
15.5220184019
 31
0.0
  0
LINE
  5
23B
  8
0
  6
CONTINUOUS
 62
     7
 10
23.5317258391
 20
15.584018379
 30
0.0
 11
23.6567254618
 21
15.584018379
 31
0.0
  0
LINE
  5
23C
  8
0
  6
CONTINUOUS
 62
     7
 10
23.6567254618
 20
15.584018379
 30
0.0
 11
23.6567254618
 21
15.5220184019
 31
0.0
  0
LINE
  5
23D
  8
0
  6
CONTINUOUS
 62
     7
 10
23.6567254618
 20
15.5220184019
 30
0.0
 11
23.5317258391
 21
15.5220184019
 31
0.0
  0
LINE
  5
23E
  8
0
  6
CONTINUOUS
 62
     7
 10
23.6562256275
 20
25.460018744
 30
0.0
 11
23.6562256275
 21
25.4450184372
 31
0.0
  0
LINE
  5
23F
  8
0
  6
CONTINUOUS
 62
     7
 10
6.4062254877
 20
25.4450184372
 30
0.0
 11
6.4062254877
 21
25.460018744
 31
0.0
  0
LINE
  5
240
  8
0
  6
CONTINUOUS
 62
     7
 10
6.281225865
 20
15.6000183542
 30
0.0
 11
6.2962255851
 21
15.6000183542
 31
0.0
  0
LINE
  5
241
  8
0
  6
CONTINUOUS
 62
     7
 10
6.281225865
 20
25.5220187211
 30
0.0
 11
6.2962255851
 21
25.5220187211
 31
0.0
  0
LINE
  5
242
  8
0
  6
CONTINUOUS
 62
     7
 10
23.7672257852
 20
15.6000183542
 30
0.0
 11
23.7822255053
 21
15.6000183542
 31
0.0
  0
LINE
  5
243
  8
0
  6
CONTINUOUS
 62
     7
 10
23.7672257852
 20
25.5220187211
 30
0.0
 11
23.7822255053
 21
25.5220187211
 31
0.0
  0
LINE
  5
244
  8
0
  6
CONTINUOUS
 62
     7
 10
6.4067259086
 20
15.584018379
 30
0.0
 11
6.4067259086
 21
15.5990186857
 31
0.0
  0
LINE
  5
245
  8
0
  6
CONTINUOUS
 62
     7
 10
23.6567254618
 20
15.5990186857
 30
0.0
 11
23.6567254618
 21
15.584018379
 31
0.0
  0
LINE
  5
246
  8
0
  6
CONTINUOUS
 62
     7
 10
6.4067259086
 20
15.6000183542
 30
0.0
 11
6.2962255851
 21
15.6000183542
 31
0.0
  0
LINE
  5
247
  8
0
  6
CONTINUOUS
 62
     7
 10
6.2962255851
 20
25.5220187211
 30
0.0
 11
6.4062254877
 21
25.5220187211
 31
0.0
  0
LINE
  5
248
  8
0
  6
CONTINUOUS
 62
     7
 10
23.6562256275
 20
25.5220187211
 30
0.0
 11
23.7672257852
 21
25.5220187211
 31
0.0
  0
LINE
  5
249
  8
0
  6
CONTINUOUS
 62
     7
 10
23.7672257852
 20
15.6000183542
 30
0.0
 11
23.6567254618
 21
15.6000183542
 31
0.0
  0
LINE
  5
24A
  8
0
  6
CONTINUOUS
 62
     7
 10
23.6567254618
 20
15.6000183542
 30
0.0
 11
23.6567254618
 21
15.5990186857
 31
0.0
  0
LINE
  5
24B
  8
0
  6
CONTINUOUS
 62
     7
 10
6.4067259086
 20
15.6000183542
 30
0.0
 11
6.4067259086
 21
15.5990186857
 31
0.0
  0
DIMENSION
  5
24C
  8
0
  6
CONTINUOUS
 62
     7
  2
*D13
 10
23.8442256852
 20
27.0071142079
 30
0.0
 11
15.0317256852
 21
27.0071142079
 31
0.0
 70
   160
  3
SLDDIMSTYLE0
 13
6.2192256852
 23
25.5220185615
 33
0.0
 14
23.8442256852
 24
25.5220185615
 34
0.0
  0
LINE
  5
260
  8
0
  6
CONTINUOUS
 62
     7
 10
32.4913849683
 20
5.4007111611
 30
0.0
 11
32.4913849683
 21
10.6187112023
 31
0.0
  0
LINE
  5
261
  8
0
  6
CONTINUOUS
 62
     7
 10
32.4913849683
 20
5.4007111611
 30
0.0
 11
32.4293849912
 21
5.4007111611
 31
0.0
  0
LINE
  5
262
  8
0
  6
CONTINUOUS
 62
     7
 10
32.4913849683
 20
10.6187112023
 30
0.0
 11
32.4293849912
 21
10.6187112023
 31
0.0
  0
LINE
  5
263
  8
0
  6
CONTINUOUS
 62
     7
 10
32.4293849912
 20
5.4007111611
 30
0.0
 11
32.4293849912
 21
10.6187112023
 31
0.0
  0
LINE
  5
264
  8
0
  6
CONTINUOUS
 62
     7
 10
32.5063852751
 20
10.6187112023
 30
0.0
 11
32.4913849683
 21
10.6187112023
 31
0.0
  0
LINE
  5
265
  8
0
  6
CONTINUOUS
 62
     7
 10
32.4913849683
 20
5.4007111611
 30
0.0
 11
32.5063852751
 21
5.4007111611
 31
0.0
  0
LINE
  5
266
  8
0
  6
CONTINUOUS
 62
     7
 10
42.3043851011
 20
7.4581754998
 30
0.0
 11
35.429385175
 21
10.6187112023
 31
0.0
  0
LINE
  5
267
  8
0
  6
CONTINUOUS
 62
     7
 10
42.4293853104
 20
7.3331754371
 30
0.0
 11
42.3043851011
 21
7.4581754998
 31
0.0
  0
LINE
  5
268
  8
0
  6
CONTINUOUS
 62
     7
 10
42.4293853104
 20
5.4777111608
 30
0.0
 11
42.4293853104
 21
7.3331754371
 31
0.0
  0
LINE
  5
269
  8
0
  6
CONTINUOUS
 62
     7
 10
32.5073849435
 20
5.4007111611
 30
0.0
 11
32.5073849435
 21
5.4777111608
 31
0.0
  0
LINE
  5
26A
  8
0
  6
CONTINUOUS
 62
     7
 10
32.5073849435
 20
5.4007111611
 30
0.0
 11
32.5063852751
 21
5.4007111611
 31
0.0
  0
LINE
  5
26B
  8
0
  6
CONTINUOUS
 62
     7
 10
32.5063852751
 20
10.6187112023
 30
0.0
 11
35.429385175
 21
10.6187112023
 31
0.0
  0
CIRCLE
  5
26C
  8
0
  6
CONTINUOUS
 62
     7
 10
42.0223851508
 20
7.1187111611
 30
0.0
 40
0.0940000000000083
  0
LINE
  5
26D
  8
0
  6
CONTINUOUS
 62
     7
 10
42.4293853104
 20
5.4007111611
 30
0.0
 11
42.4293853104
 21
5.4777111608
 31
0.0
  0
LINE
  5
26E
  8
0
  6
CONTINUOUS
 62
     7
 10
32.5073849435
 20
5.4007111611
 30
0.0
 11
42.4293853104
 21
5.4007111611
 31
0.0
  0
DIMENSION
  5
26F
  8
0
  6
CONTINUOUS
 62
     7
  2
*D14
 10
31.0450320439
 20
5.4007111611
 30
0.0
 11
31.0450320439
 21
8.0097111611
 31
0.0
 70
   160
  3
SLDDIMSTYLE0
 13
32.4293851508
 23
10.6187111611
 33
0.0
 14
32.4293851508
 24
5.4007111611
 34
0.0
 50
90.0
  0
DIMENSION
  5
283
  8
0
  6
CONTINUOUS
 62
     7
  2
*D15
 10
43.7465956272
 20
5.4007111611
 30
0.0
 11
43.7465956272
 21
6.2597111611
 31
0.0
 70
   160
  3
SLDDIMSTYLE2
 13
42.2163851508
 23
7.1187111611
 33
0.0
 14
42.4293851508
 24
5.4007111611
 34
0.0
 50
90.0
  0
DIMENSION
  5
297
  8
0
  6
CONTINUOUS
 62
     7
  2
*D16
 10
42.4293851508
 20
4.3393133853
 30
0.0
 11
40.1046649192
 21
4.3393133853
 31
0.0
 70
   160
  3
SLDDIMSTYLE2
 13
42.0223851508
 23
6.9247111611
 33
0.0
 14
42.4293851508
 24
5.4007111611
 34
0.0
 50
0.0
  0
DIMENSION
  5
2AB
  8
0
  6
CONTINUOUS
 62
     7
  2
*D17
 10
42.0049001603
 20
7.0263516727
 30
0.0
 11
44.2286997593
 21
9.0560714957
 31
0.0
 70
   163
  1
<> (2X)
  3
SLDDIMSTYLE3
 15
42.0398701414
 25
7.2110706496
 35
0.0
 40
0.0
  0
DIMENSION
  5
2BD
  8
0
  6
CONTINUOUS
 62
     7
  2
*D18
 10
42.4293851508
 20
2.985042628
 30
0.0
 11
37.4293851508
 21
2.985042628
 31
0.0
 70
   160
  3
SLDDIMSTYLE1
 13
32.4293851508
 23
5.4007111611
 33
0.0
 14
42.4293851508
 24
5.4007111611
 34
0.0
 50
0.0
  0
INSERT
  5
2DC
  8
0
  6
CONTINUOUS
 62
     7
  2
SW_CENTERMARKSYMBOL_0
 10
42.0223851508
 20
7.1187111611
 30
0.0
  0
ENDSEC
  0
EOF
