  0
SECTION
  2
HEADER
  9
$ACADVER
  1
AC1009
  9
$DWGCODEPAGE
  3
ansi_1252
  9
$INSBASE
 10
0.0
 20
0.0
 30
0.0
  9
$EXTMIN
 10
0.0
 20
0.0
 30
0.0
  9
$EXTMAX
 10
51.0
 20
33.0
 30
0.0
  9
$LIMMIN
 10
0.0
 20
0.0
  9
$LIMMAX
 10
51.0
 20
33.0
  9
$ORTHOMODE
 70
     0
  9
$REGENMODE
 70
     1
  9
$FILLMODE
 70
     1
  9
$QTEXTMODE
 70
     0
  9
$MIRRTEXT
 70
     1
  9
$DRAGMODE
 70
     2
  9
$LTSCALE
 40
3.0
  9
$OSMODE
 70
    37
  9
$ATTMODE
 70
     1
  9
$TEXTSIZE
 40
0.375
  9
$TRACEWID
 40
0.05
  9
$TEXTSTYLE
  7
STANDARD
  9
$CLAYER
  8
0
  9
$CELTYPE
  6
BYLAYER
  9
$CECOLOR
 62
   256
  9
$DIMSCALE
 40
1.0
  9
$DIMASZ
 40
0.39
  9
$DIMEXO
 40
0.15
  9
$DIMDLI
 40
0.38
  9
$DIMRND
 40
0.0
  9
$DIMDLE
 40
0.0
  9
$DIMEXE
 40
0.375
  9
$DIMTP
 40
0.0
  9
$DIMTM
 40
0.0
  9
$DIMTXT
 40
0.375
  9
$DIMCEN
 40
0.09
  9
$DIMTSZ
 40
0.0
  9
$DIMTOL
 70
     0
  9
$DIMLIM
 70
     0
  9
$DIMTIH
 70
     1
  9
$DIMTOH
 70
     1
  9
$DIMSE1
 70
     0
  9
$DIMSE2
 70
     0
  9
$DIMTAD
 70
     1
  9
$DIMZIN
 70
     0
  9
$DIMBLK
  1

  9
$DIMASO
 70
     1
  9
$DIMSHO
 70
     1
  9
$DIMPOST
  1

  9
$DIMAPOST
  1

  9
$DIMALT
 70
     0
  9
$DIMALTD
 70
     2
  9
$DIMALTF
 40
25.4
  9
$DIMLFAC
 40
1.0
  9
$DIMTOFL
 70
     0
  9
$DIMTVP
 40
0.0
  9
$DIMTIX
 70
     0
  9
$DIMSOXD
 70
     0
  9
$DIMSAH
 70
     0
  9
$DIMBLK1
  1

  9
$DIMBLK2
  1

  9
$DIMSTYLE
  2
STANDARD
  9
$DIMCLRD
 70
     0
  9
$DIMCLRE
 70
     0
  9
$DIMCLRT
 70
     0
  9
$DIMTFAC
 40
1.0
  9
$DIMGAP
 40
0.18
  9
$LUNITS
 70
     2
  9
$LUPREC
 70
     3
  9
$SKETCHINC
 40
0.1
  9
$FILLETRAD
 40
0.5
  9
$AUNITS
 70
     0
  9
$AUPREC
 70
     2
  9
$MENU
  1
.
  9
$ELEVATION
 40
0.0
  9
$PELEVATION
 40
0.0
  9
$THICKNESS
 40
0.0
  9
$LIMCHECK
 70
     0
  9
$CHAMFERA
 40
0.5
  9
$CHAMFERB
 40
0.5
  9
$SKPOLY
 70
     0
  9
$TDCREATE
 40
2456500.306092754
  9
$TDUPDATE
 40
2456500.306092766
  9
$TDINDWG
 40
0.0000000116
  9
$TDUSRTIMER
 40
0.0000000116
  9
$USRTIMER
 70
     1
  9
$ANGBASE
 50
0.0
  9
$ANGDIR
 70
     0
  9
$PDMODE
 70
     0
  9
$PDSIZE
 40
-1.0
  9
$PLINEWID
 40
0.0
  9
$COORDS
 70
     1
  9
$SPLFRAME
 70
     0
  9
$SPLINETYPE
 70
     6
  9
$SPLINESEGS
 70
     8
  9
$ATTDIA
 70
     0
  9
$ATTREQ
 70
     1
  9
$HANDLING
 70
     1
  9
$HANDSEED
  5
374
  9
$SURFTAB1
 70
     6
  9
$SURFTAB2
 70
     6
  9
$SURFTYPE
 70
     6
  9
$SURFU
 70
     6
  9
$SURFV
 70
     6
  9
$UCSNAME
  2

  9
$UCSORG
 10
0.0
 20
0.0
 30
0.0
  9
$UCSXDIR
 10
1.0
 20
0.0
 30
0.0
  9
$UCSYDIR
 10
0.0
 20
1.0
 30
0.0
  9
$PUCSNAME
  2

  9
$PUCSORG
 10
0.0
 20
0.0
 30
0.0
  9
$PUCSXDIR
 10
1.0
 20
0.0
 30
0.0
  9
$PUCSYDIR
 10
0.0
 20
1.0
 30
0.0
  9
$USERI1
 70
     0
  9
$USERI2
 70
     0
  9
$USERI3
 70
     0
  9
$USERI4
 70
     0
  9
$USERI5
 70
     0
  9
$USERR1
 40
0.0
  9
$USERR2
 40
0.0
  9
$USERR3
 40
0.0
  9
$USERR4
 40
0.0
  9
$USERR5
 40
0.0
  9
$WORLDVIEW
 70
     1
  9
$SHADEDGE
 70
     3
  9
$SHADEDIF
 70
    70
  9
$TILEMODE
 70
     1
  9
$MAXACTVP
 70
    64
  9
$PLIMCHECK
 70
     0
  9
$PEXTMIN
 10
1.0000000000E+20
 20
1.0000000000E+20
 30
1.0000000000E+20
  9
$PEXTMAX
 10
-1.0000000000E+20
 20
-1.0000000000E+20
 30
-1.0000000000E+20
  9
$PLIMMIN
 10
0.0
 20
0.0
  9
$PLIMMAX
 10
12.0
 20
9.0
  9
$UNITMODE
 70
     0
  9
$VISRETAIN
 70
     1
  9
$PLINEGEN
 70
     0
  9
$PSLTSCALE
 70
     1
  0
ENDSEC
  0
SECTION
  2
TABLES
  0
TABLE
  2
VPORT
 70
     1
  0
VPORT
  2
*ACTIVE
 70
     0
 10
0.0
 20
0.0
 11
1.0
 21
1.0
 12
25.5
 22
16.5
 13
0.0
 23
0.0
 14
0.5
 24
0.5
 15
0.5
 25
0.5
 16
0.0
 26
0.0
 36
1.0
 17
0.0
 27
0.0
 37
0.0
 40
33.0
 41
1.5454545455
 42
50.0
 43
0.0
 44
0.0
 50
0.0
 51
0.0
 71
     0
 72
  2000
 73
     1
 74
     3
 75
     0
 76
     0
 77
     0
 78
     0
  0
ENDTAB
  0
TABLE
  2
LTYPE
 70
     6
  0
LTYPE
  2
CONTINUOUS
 70
     0
  3
Solid line
 72
    65
 73
     0
 40
0.0
  0
LTYPE
  2
HIDDEN
 70
     0
  3
Hidden __ __ __ __ __ __ __ __ __ __ __ __ __ __
 72
    65
 73
     2
 40
0.075
 49
0.05
 49
-0.025
  0
LTYPE
  2
PHANTOM
 70
     0
  3
Phantom ______  __  __  ______  __  __  ______
 72
    65
 73
     6
 40
0.5
 49
0.25
 49
-0.05
 49
0.05
 49
-0.05
 49
0.05
 49
-0.05
  0
LTYPE
  2
CENTER
 70
     0
  3
Center ____ _ ____ _ ____ _ ____ _ ____ _ ____
 72
    65
 73
     4
 40
0.4
 49
0.25
 49
-0.05
 49
0.05
 49
-0.05
  0
LTYPE
  2
CENTERX2
 70
     0
  3
Center (2x) ________  __  ________  __  _____
 72
    65
 73
     4
 40
0.8
 49
0.5
 49
-0.1
 49
0.1
 49
-0.1
  0
LTYPE
  2
DOT2
 70
     0
  3
Dot (.5x) ........................................
 72
    65
 73
     2
 40
0.025
 49
0.0
 49
-0.025
  0
ENDTAB
  0
TABLE
  2
LAYER
 70
     1
  0
LAYER
  2
0
 70
     0
 62
     7
  6
CONTINUOUS
  0
ENDTAB
  0
TABLE
  2
STYLE
 70
     1
  0
STYLE
  2
STANDARD
 70
     0
 40
0.0
 41
1.0
 50
0.0
 71
     0
 42
0.2
  3
txt
  4

  0
ENDTAB
  0
TABLE
  2
VIEW
 70
     0
  0
ENDTAB
  0
TABLE
  2
UCS
 70
     0
  0
ENDTAB
  0
TABLE
  2
APPID
 70
     1
  0
APPID
  2
ACAD
 70
     0
  0
ENDTAB
  0
TABLE
  2
DIMSTYLE
 70
     5
  0
DIMSTYLE
  2
STANDARD
 70
     0
  3

  4

  5

  6

  7

 40
1.0
 41
0.18
 42
0.0625
 43
0.38
 44
0.18
 45
0.0
 46
0.0
 47
0.0
 48
0.0
140
0.18
141
0.09
142
0.0
143
25.4
144
1.0
145
0.0
146
1.0
147
0.09
 71
     0
 72
     0
 73
     1
 74
     1
 75
     0
 76
     0
 77
     0
 78
     0
170
     0
171
     2
172
     0
173
     0
174
     0
175
     0
176
     0
177
     0
178
     0
  0
DIMSTYLE
  2
SLDDIMSTYLE0
 70
     0
  3

  4

  5

  6

  7

 40
1.0
 41
0.39
 42
0.0625
 43
0.38
 44
0.0
 45
0.000000001
 46
0.0
 47
0.0
 48
0.0
140
0.375
141
0.09
142
0.0
143
25.4
144
1.0
145
0.0
146
1.0
147
0.09375
 71
     0
 72
     0
 73
     1
 74
     1
 75
     0
 76
     0
 77
     0
 78
    12
170
     1
171
     2
172
     0
173
     1
174
     0
175
     0
176
     0
177
     0
178
     0
  0
DIMSTYLE
  2
SLDDIMSTYLE1
 70
     0
  3

  4

  5

  6

  7

 40
1.0
 41
0.39
 42
0.0625
 43
0.38
 44
0.0
 45
0.000000001
 46
0.0
 47
0.0
 48
0.0
140
0.375
141
0.09
142
0.0
143
25.4
144
1.0
145
0.0
146
1.0
147
0.09375
 71
     0
 72
     0
 73
     1
 74
     1
 75
     0
 76
     0
 77
     0
 78
     4
170
     1
171
     2
172
     0
173
     1
174
     0
175
     0
176
     0
177
     0
178
     0
  0
DIMSTYLE
  2
SLDDIMSTYLE2
 70
     0
  3

  4

  5

  6

  7

 40
1.0
 41
0.39
 42
0.0625
 43
0.38
 44
0.0
 45
0.000000001
 46
0.0
 47
0.0
 48
0.0
140
0.375
141
0.09
142
0.0
143
25.4
144
1.0
145
0.0
146
1.0
147
0.09375
 71
     0
 72
     0
 73
     1
 74
     1
 75
     0
 76
     0
 77
     0
 78
    12
170
     1
171
     2
172
     1
173
     1
174
     0
175
     0
176
     0
177
     0
178
     0
  0
DIMSTYLE
  2
SLDDIMSTYLE3
 70
     0
  3

  4

  5

  6

  7

 40
1.0
 41
0.39
 42
0.0625
 43
0.38
 44
0.0
 45
0.000000001
 46
0.0
 47
0.0
 48
0.0
140
0.375
141
0.0
142
0.0
143
25.4
144
1.0
145
0.0
146
1.0
147
0.09375
 71
     0
 72
     0
 73
     1
 74
     1
 75
     0
 76
     0
 77
     0
 78
    12
170
     1
171
     2
172
     0
173
     1
174
     0
175
     0
176
     0
177
     0
178
     0
  0
ENDTAB
  0
ENDSEC
  0
SECTION
  2
BLOCKS
  0
BLOCK
  8
0
  2
$MODEL_SPACE
 70
     0
 10
0.0
 20
0.0
 30
0.0
  3
$MODEL_SPACE
  1

  0
ENDBLK
  5
21
  8
0
  0
BLOCK
 67
     1
  8
0
  2
$PAPER_SPACE
 70
     0
 10
0.0
 20
0.0
 30
0.0
  3
$PAPER_SPACE
  1

  0
ENDBLK
  5
1D
 67
     1
  8
0
  0
BLOCK
  8
0
  2
SW_NOTE_0
 70
     0
 10
0.0
 20
0.0
 30
0.0
  3
SW_NOTE_0
  1

  0
TEXT
  5
77
  8
0
  6
CONTINUOUS
 62
     0
 10
0.0
 20
0.1324725232
 30
0.0
 40
0.375
  1
MATERIAL:  16 GA. [1.5mm] STEEL
 41
0.6435483871
 11
0.0
 21
0.0
 31
0.0
 73
     1
  0
TEXT
  5
78
  8
0
  6
CONTINUOUS
 62
     0
 10
0.0
 20
-0.8537479239
 30
0.0
 40
0.375
  1
FINISH:  METALLIC GRAY
 41
0.6522727273
 11
0.0
 21
-0.9862204471
 31
0.0
 73
     1
  0
TEXT
  5
79
  8
0
  6
CONTINUOUS
 62
     0
 10
0.0
 20
-1.3468581474
 30
0.0
 40
0.375
  1
             BLACK TEXTURE
 41
0.5115384615
 11
0.0
 21
-1.4793306706
 31
0.0
 73
     1
  0
TEXT
  5
7A
  8
0
  6
CONTINUOUS
 62
     0
 10
0.0
 20
-2.3330785945
 30
0.0
 40
0.375
  1
LOAD RATING:  150 LBS. [68 KG.] MAX.
 41
0.6319444444
 11
0.0
 21
-2.4655511177
 31
0.0
 73
     1
  0
ENDBLK
  5
76
  8
0
  0
BLOCK
  8
0
  2
SW_NOTE_1
 70
     0
 10
0.0
 20
0.0
 30
0.0
  3
SW_NOTE_1
  1

  0
TEXT
  5
82
  8
0
  6
CONTINUOUS
 62
     0
 10
0.0
 20
0.1324725232
 30
0.0
 40
0.375
  1
PART
 41
0.7
 11
0.0
 21
0.0
 31
0.0
 73
     1
  0
TEXT
  5
83
  8
0
  6
CONTINUOUS
 62
     0
 10
-0.1398111899
 20
-0.3606377003
 30
0.0
 40
0.375
  1
NAME
 41
0.7
 11
-0.1398111899
 21
-0.4931102235
 31
0.0
 73
     1
  0
ENDBLK
  5
81
  8
0
  0
BLOCK
  8
0
  2
SW_NOTE_2
 70
     0
 10
0.0
 20
0.0
 30
0.0
  3
SW_NOTE_2
  1

  0
TEXT
  5
88
  8
0
  6
CONTINUOUS
 62
     0
 10
0.0
 20
0.1324725232
 30
0.0
 40
0.375
  1
PART
 41
0.7
 11
0.0
 21
0.0
 31
0.0
 73
     1
  0
TEXT
  5
89
  8
0
  6
CONTINUOUS
 62
     0
 10
0.1751302144
 20
-0.3606377003
 30
0.0
 40
0.375
  1
No.
 41
0.7
 11
0.1751302144
 21
-0.4931102235
 31
0.0
 73
     1
  0
ENDBLK
  5
87
  8
0
  0
BLOCK
  8
0
  2
SW_NOTE_3
 70
     0
 10
0.0
 20
0.0
 30
0.0
  3
SW_NOTE_3
  1

  0
TEXT
  5
8E
  8
0
  6
CONTINUOUS
 62
     0
 10
0.0
 20
0.1324725232
 30
0.0
 40
0.375
  1
REVISION
 41
0.7
 11
0.0
 21
0.0
 31
0.0
 73
     1
  0
TEXT
  5
8F
  8
0
  6
CONTINUOUS
 62
     0
 10
0.4686848957
 20
-0.3606377003
 30
0.0
 40
0.375
  1
DATE
 41
0.7
 11
0.4686848957
 21
-0.4931102235
 31
0.0
 73
     1
  0
ENDBLK
  5
8D
  8
0
  0
BLOCK
  8
0
  2
*D5
 70
     1
 10
0.0
 20
0.0
 30
0.0
  3
*D5
  1

  0
SOLID
  5
170
  8
0
  6
CONTINUOUS
 62
     7
 10
5.0787512072
 20
10.5112056347
 30
0.0
 11
5.4687512072
 21
10.4512056347
 31
0.0
 12
5.4687512072
 22
10.5712056347
 32
0.0
 13
5.4687512072
 23
10.5712056347
 33
0.0
  0
SOLID
  5
171
  8
0
  6
CONTINUOUS
 62
     7
 10
23.4227512072
 20
10.5112056347
 30
0.0
 11
23.0327512072
 21
10.5712056347
 31
0.0
 12
23.0327512072
 22
10.4512056347
 32
0.0
 13
23.0327512072
 23
10.4512056347
 33
0.0
  0
LINE
  5
172
  8
0
  6
CONTINUOUS
 62
     7
 10
13.5320988844
 20
10.5083410478
 30
0.0
 11
13.4559270056
 21
10.5083410478
 31
0.0
  0
LINE
  5
173
  8
0
  6
CONTINUOUS
 62
     7
 10
13.4559270056
 20
10.5083410478
 30
0.0
 11
13.4559270056
 21
9.9130285299
 31
0.0
  0
LINE
  5
174
  8
0
  6
CONTINUOUS
 62
     7
 10
13.4559270056
 20
9.9130285299
 30
0.0
 11
13.5320988844
 21
9.9130285299
 31
0.0
  0
LINE
  5
175
  8
0
  6
CONTINUOUS
 62
     7
 10
14.9694035575
 20
10.5083410478
 30
0.0
 11
15.0455754363
 21
10.5083410478
 31
0.0
  0
LINE
  5
176
  8
0
  6
CONTINUOUS
 62
     7
 10
15.0455754363
 20
10.5083410478
 30
0.0
 11
15.0455754363
 21
9.9130285299
 31
0.0
  0
LINE
  5
177
  8
0
  6
CONTINUOUS
 62
     7
 10
15.0455754363
 20
9.9130285299
 30
0.0
 11
14.9694035575
 21
9.9130285299
 31
0.0
  0
LINE
  5
178
  8
0
  6
CONTINUOUS
 62
     7
 10
5.0787512072
 20
9.3866032725
 30
0.0
 11
5.0787512072
 21
10.8862056347
 31
0.0
  0
LINE
  5
179
  8
0
  6
CONTINUOUS
 62
     7
 10
23.4227512072
 20
9.3866032725
 30
0.0
 11
23.4227512072
 21
10.8862056347
 31
0.0
  0
LINE
  5
17A
  8
0
  6
CONTINUOUS
 62
     7
 10
5.0787512072
 20
10.5112056347
 30
0.0
 11
13.1842090397
 21
10.5112056347
 31
0.0
  0
LINE
  5
17B
  8
0
  6
CONTINUOUS
 62
     7
 10
23.4227512072
 20
10.5112056347
 30
0.0
 11
15.3172933747
 21
10.5112056347
 31
0.0
  0
TEXT
  5
17C
  8
0
  6
CONTINUOUS
 62
     7
 10
13.2602564295
 20
10.7227146442
 30
0.0039370079
 40
0.375
  1
 
 41
0.7
 11
13.2602564295
 21
10.590242121
 31
0.0039370079
 73
     1
  0
TEXT
  5
17D
  8
0
  6
CONTINUOUS
 62
     7
 10
13.4749700166
 20
10.7169854498
 30
0.0039370079
 40
0.375
  1
18.34
 41
0.7
 11
13.4749700166
 21
10.5845129266
 31
0.0039370079
 73
     1
  0
TEXT
  5
17E
  8
0
  6
CONTINUOUS
 62
     7
 10
13.6273137329
 20
10.0455010325
 30
0.0039370079
 40
0.375
  1
465.9
 41
0.7
 11
13.6273137329
 21
9.9130285093
 31
0.0039370079
 73
     1
  0
TEXT
  5
17F
  8
0
  6
CONTINUOUS
 62
     7
 10
15.1027043454
 20
10.7227146442
 30
0.0039370079
 40
0.375
  1
 
 41
0.7
 11
15.1027043454
 21
10.590242121
 31
0.0039370079
 73
     1
  0
ENDBLK
  5
16F
  8
0
  0
BLOCK
  8
0
  2
*D6
 70
     1
 10
0.0
 20
0.0
 30
0.0
  3
*D6
  1

  0
SOLID
  5
185
  8
0
  6
CONTINUOUS
 62
     7
 10
4.7507512072
 20
11.9285284693
 30
0.0
 11
5.1407512072
 21
11.8685284693
 31
0.0
 12
5.1407512072
 22
11.9885284693
 32
0.0
 13
5.1407512072
 23
11.9885284693
 33
0.0
  0
SOLID
  5
186
  8
0
  6
CONTINUOUS
 62
     7
 10
23.7507512072
 20
11.9285284693
 30
0.0
 11
23.3607512072
 21
11.9885284693
 31
0.0
 12
23.3607512072
 22
11.8685284693
 32
0.0
 13
23.3607512072
 23
11.8685284693
 33
0.0
  0
LINE
  5
187
  8
0
  6
CONTINUOUS
 62
     7
 10
13.5320988844
 20
11.9256638824
 30
0.0
 11
13.4559270056
 21
11.9256638824
 31
0.0
  0
LINE
  5
188
  8
0
  6
CONTINUOUS
 62
     7
 10
13.4559270056
 20
11.9256638824
 30
0.0
 11
13.4559270056
 21
11.3303513645
 31
0.0
  0
LINE
  5
189
  8
0
  6
CONTINUOUS
 62
     7
 10
13.4559270056
 20
11.3303513645
 30
0.0
 11
13.5320988844
 21
11.3303513645
 31
0.0
  0
LINE
  5
18A
  8
0
  6
CONTINUOUS
 62
     7
 10
14.9694035575
 20
11.9256638824
 30
0.0
 11
15.0455754363
 21
11.9256638824
 31
0.0
  0
LINE
  5
18B
  8
0
  6
CONTINUOUS
 62
     7
 10
15.0455754363
 20
11.9256638824
 30
0.0
 11
15.0455754363
 21
11.3303513645
 31
0.0
  0
LINE
  5
18C
  8
0
  6
CONTINUOUS
 62
     7
 10
15.0455754363
 20
11.3303513645
 30
0.0
 11
14.9694035575
 21
11.3303513645
 31
0.0
  0
LINE
  5
18D
  8
0
  6
CONTINUOUS
 62
     7
 10
4.7507512072
 20
9.4801032725
 30
0.0
 11
4.7507512072
 21
12.3035284693
 31
0.0
  0
LINE
  5
18E
  8
0
  6
CONTINUOUS
 62
     7
 10
23.7507512072
 20
9.4801032725
 30
0.0
 11
23.7507512072
 21
12.3035284693
 31
0.0
  0
LINE
  5
18F
  8
0
  6
CONTINUOUS
 62
     7
 10
4.7507512072
 20
11.9285284693
 30
0.0
 11
13.1842090397
 21
11.9285284693
 31
0.0
  0
LINE
  5
190
  8
0
  6
CONTINUOUS
 62
     7
 10
23.7507512072
 20
11.9285284693
 30
0.0
 11
15.3172933747
 21
11.9285284693
 31
0.0
  0
TEXT
  5
191
  8
0
  6
CONTINUOUS
 62
     7
 10
13.2602564295
 20
12.1400374789
 30
0.0039370079
 40
0.375
  1
 
 41
0.7
 11
13.2602564295
 21
12.0075649557
 31
0.0039370079
 73
     1
  0
TEXT
  5
192
  8
0
  6
CONTINUOUS
 62
     7
 10
13.4749700166
 20
12.1343082845
 30
0.0039370079
 40
0.375
  1
19.00
 41
0.7
 11
13.4749700166
 21
12.0018357612
 31
0.0039370079
 73
     1
  0
TEXT
  5
193
  8
0
  6
CONTINUOUS
 62
     7
 10
13.6273137329
 20
11.4628238671
 30
0.0039370079
 40
0.375
  1
482.6
 41
0.7
 11
13.6273137329
 21
11.3303513439
 31
0.0039370079
 73
     1
  0
TEXT
  5
194
  8
0
  6
CONTINUOUS
 62
     7
 10
15.1027043454
 20
12.1400374789
 30
0.0039370079
 40
0.375
  1
 
 41
0.7
 11
15.1027043454
 21
12.0075649557
 31
0.0039370079
 73
     1
  0
ENDBLK
  5
184
  8
0
  0
BLOCK
  8
0
  2
*D7
 70
     1
 10
0.0
 20
0.0
 30
0.0
  3
*D7
  1

  0
SOLID
  5
19A
  8
0
  6
CONTINUOUS
 62
     7
 10
18.6333600228
 20
4.4871032725
 30
0.0
 11
18.6933600228
 21
4.8771032725
 31
0.0
 12
18.5733600228
 22
4.8771032725
 32
0.0
 13
18.5733600228
 23
4.8771032725
 33
0.0
  0
SOLID
  5
19B
  8
0
  6
CONTINUOUS
 62
     7
 10
18.6333600228
 20
4.1121032725
 30
0.0
 11
18.5733600228
 21
3.7221032725
 31
0.0
 12
18.6933600228
 22
3.7221032725
 32
0.0
 13
18.6933600228
 23
3.7221032725
 33
0.0
  0
LINE
  5
19C
  8
0
  6
CONTINUOUS
 62
     7
 10
15.259221862
 20
3.0395229207
 30
0.0
 11
15.1830499832
 21
3.0395229207
 31
0.0
  0
LINE
  5
19D
  8
0
  6
CONTINUOUS
 62
     7
 10
15.1830499832
 20
3.0395229207
 30
0.0
 11
15.1830499832
 21
2.4442104028
 31
0.0
  0
LINE
  5
19E
  8
0
  6
CONTINUOUS
 62
     7
 10
15.1830499832
 20
2.4442104028
 30
0.0
 11
15.259221862
 21
2.4442104028
 31
0.0
  0
LINE
  5
19F
  8
0
  6
CONTINUOUS
 62
     7
 10
16.1423598668
 20
3.0395229207
 30
0.0
 11
16.2185317456
 21
3.0395229207
 31
0.0
  0
LINE
  5
1A0
  8
0
  6
CONTINUOUS
 62
     7
 10
16.2185317456
 20
3.0395229207
 30
0.0
 11
16.2185317456
 21
2.4442104028
 31
0.0
  0
LINE
  5
1A1
  8
0
  6
CONTINUOUS
 62
     7
 10
16.2185317456
 20
2.4442104028
 30
0.0
 11
16.1423598668
 21
2.4442104028
 31
0.0
  0
LINE
  5
1A2
  8
0
  6
CONTINUOUS
 62
     7
 10
18.2583600228
 20
2.7447312211
 30
0.0
 11
18.6333600228
 21
2.7447312211
 31
0.0
  0
LINE
  5
1A3
  8
0
  6
CONTINUOUS
 62
     7
 10
18.6333600228
 20
2.7447312211
 30
0.0
 11
18.6333600228
 21
4.1121032725
 31
0.0
  0
LINE
  5
1A4
  8
0
  6
CONTINUOUS
 62
     7
 10
18.6333600228
 20
4.4871032725
 30
0.0
 11
18.6333600228
 21
5.2371032725
 31
0.0
  0
TEXT
  5
1A5
  8
0
  6
CONTINUOUS
 62
     7
 10
15.2020929392
 20
3.2481673227
 30
0.0039370079
 40
0.375
  1
.38
 41
0.7
 11
15.2020929392
 21
3.1156947995
 31
0.0039370079
 73
     1
  0
TEXT
  5
1A6
  8
0
  6
CONTINUOUS
 62
     7
 10
15.3544367105
 20
2.5766829054
 30
0.0039370079
 40
0.375
  1
9.5
 41
0.7
 11
15.3544367105
 21
2.4442103821
 31
0.0039370079
 73
     1
  0
TEXT
  5
1A7
  8
0
  6
CONTINUOUS
 62
     7
 10
16.2756606822
 20
3.2538965171
 30
0.0039370079
 40
0.375
  1
 TYP.
 41
0.7
 11
16.2756606822
 21
3.1214239939
 31
0.0039370079
 73
     1
  0
TEXT
  5
1A8
  8
0
  6
CONTINUOUS
 62
     7
 10
14.4531346362
 20
1.9051984674
 30
0.0039370079
 40
0.375
  1
FRONT & BACK
 41
0.6416666667
 11
14.4531346362
 21
1.7727259442
 31
0.0039370079
 73
     1
  0
ENDBLK
  5
199
  8
0
  0
BLOCK
  8
0
  2
*D8
 70
     1
 10
0.0
 20
0.0
 30
0.0
  3
*D8
  1

  0
SOLID
  5
1AD
  8
0
  6
CONTINUOUS
 62
     7
 10
27.453712571
 20
7.8461032725
 30
0.0
 11
27.393712571
 21
7.4561032725
 31
0.0
 12
27.513712571
 22
7.4561032725
 32
0.0
 13
27.513712571
 23
7.4561032725
 33
0.0
  0
SOLID
  5
1AE
  8
0
  6
CONTINUOUS
 62
     7
 10
27.453712571
 20
9.0961032725
 30
0.0
 11
27.513712571
 21
9.4861032725
 31
0.0
 12
27.393712571
 22
9.4861032725
 32
0.0
 13
27.393712571
 23
9.4861032725
 33
0.0
  0
LINE
  5
1AF
  8
0
  6
CONTINUOUS
 62
     7
 10
26.8736018878
 20
8.4682386856
 30
0.0
 11
26.797430009
 21
8.4682386856
 31
0.0
  0
LINE
  5
1B0
  8
0
  6
CONTINUOUS
 62
     7
 10
26.797430009
 20
8.4682386856
 30
0.0
 11
26.797430009
 21
7.8729261677
 31
0.0
  0
LINE
  5
1B1
  8
0
  6
CONTINUOUS
 62
     7
 10
26.797430009
 20
7.8729261677
 30
0.0
 11
26.8736018878
 21
7.8729261677
 31
0.0
  0
LINE
  5
1B2
  8
0
  6
CONTINUOUS
 62
     7
 10
28.0338232817
 20
8.4682386856
 30
0.0
 11
28.1099951605
 21
8.4682386856
 31
0.0
  0
LINE
  5
1B3
  8
0
  6
CONTINUOUS
 62
     7
 10
28.1099951605
 20
8.4682386856
 30
0.0
 11
28.1099951605
 21
7.8729261677
 31
0.0
  0
LINE
  5
1B4
  8
0
  6
CONTINUOUS
 62
     7
 10
28.1099951605
 20
7.8729261677
 30
0.0
 11
28.0338232817
 21
7.8729261677
 31
0.0
  0
LINE
  5
1B5
  8
0
  6
CONTINUOUS
 62
     7
 10
23.6507512072
 20
7.8461032725
 30
0.0
 11
27.828712571
 21
7.8461032725
 31
0.0
  0
LINE
  5
1B6
  8
0
  6
CONTINUOUS
 62
     7
 10
23.6507512072
 20
9.0961032725
 30
0.0
 11
27.828712571
 21
9.0961032725
 31
0.0
  0
LINE
  5
1B7
  8
0
  6
CONTINUOUS
 62
     7
 10
27.453712571
 20
7.8461032725
 30
0.0
 11
27.453712571
 21
7.0961032725
 31
0.0
  0
LINE
  5
1B8
  8
0
  6
CONTINUOUS
 62
     7
 10
27.453712571
 20
9.0961032725
 30
0.0
 11
27.453712571
 21
9.8461032725
 31
0.0
  0
TEXT
  5
1B9
  8
0
  6
CONTINUOUS
 62
     7
 10
26.6017594329
 20
8.682612282
 30
0.0039370079
 40
0.375
  1
 
 41
0.7
 11
26.6017594329
 21
8.5501397588
 31
0.0039370079
 73
     1
  0
TEXT
  5
1BA
  8
0
  6
CONTINUOUS
 62
     7
 10
26.81647302
 20
8.6768830876
 30
0.0039370079
 40
0.375
  1
1.25
 41
0.7
 11
26.81647302
 21
8.5444105644
 31
0.0039370079
 73
     1
  0
TEXT
  5
1BB
  8
0
  6
CONTINUOUS
 62
     7
 10
26.9688167363
 20
8.0053986703
 30
0.0039370079
 40
0.375
  1
31.8
 41
0.7
 11
26.9688167363
 21
7.8729261471
 31
0.0039370079
 73
     1
  0
TEXT
  5
1BC
  8
0
  6
CONTINUOUS
 62
     7
 10
28.1671240696
 20
8.682612282
 30
0.0039370079
 40
0.375
  1
 
 41
0.7
 11
28.1671240696
 21
8.5501397588
 31
0.0039370079
 73
     1
  0
ENDBLK
  5
1AC
  8
0
  0
BLOCK
  8
0
  2
*D9
 70
     1
 10
0.0
 20
0.0
 30
0.0
  3
*D9
  1

  0
SOLID
  5
1C1
  8
0
  6
CONTINUOUS
 62
     7
 10
26.1315519539
 20
7.8461032725
 30
0.0
 11
26.1915519539
 21
8.2361032725
 31
0.0
 12
26.0715519539
 22
8.2361032725
 32
0.0
 13
26.0715519539
 23
8.2361032725
 33
0.0
  0
SOLID
  5
1C2
  8
0
  6
CONTINUOUS
 62
     7
 10
26.1315519539
 20
5.5961032725
 30
0.0
 11
26.0715519539
 21
5.2061032725
 31
0.0
 12
26.1915519539
 22
5.2061032725
 32
0.0
 13
26.1915519539
 23
5.2061032725
 33
0.0
  0
LINE
  5
1C3
  8
0
  6
CONTINUOUS
 62
     7
 10
25.5514412707
 20
6.7182386856
 30
0.0
 11
25.4752693918
 21
6.7182386856
 31
0.0
  0
LINE
  5
1C4
  8
0
  6
CONTINUOUS
 62
     7
 10
25.4752693918
 20
6.7182386856
 30
0.0
 11
25.4752693918
 21
6.1229261677
 31
0.0
  0
LINE
  5
1C5
  8
0
  6
CONTINUOUS
 62
     7
 10
25.4752693918
 20
6.1229261677
 30
0.0
 11
25.5514412707
 21
6.1229261677
 31
0.0
  0
LINE
  5
1C6
  8
0
  6
CONTINUOUS
 62
     7
 10
26.7116626646
 20
6.7182386856
 30
0.0
 11
26.7878345434
 21
6.7182386856
 31
0.0
  0
LINE
  5
1C7
  8
0
  6
CONTINUOUS
 62
     7
 10
26.7878345434
 20
6.7182386856
 30
0.0
 11
26.7878345434
 21
6.1229261677
 31
0.0
  0
LINE
  5
1C8
  8
0
  6
CONTINUOUS
 62
     7
 10
26.7878345434
 20
6.1229261677
 30
0.0
 11
26.7116626646
 21
6.1229261677
 31
0.0
  0
LINE
  5
1C9
  8
0
  6
CONTINUOUS
 62
     7
 10
23.6507512072
 20
7.8461032725
 30
0.0
 11
26.5065519539
 21
7.8461032725
 31
0.0
  0
LINE
  5
1CA
  8
0
  6
CONTINUOUS
 62
     7
 10
23.6507512072
 20
5.5961032725
 30
0.0
 11
26.5065519539
 21
5.5961032725
 31
0.0
  0
LINE
  5
1CB
  8
0
  6
CONTINUOUS
 62
     7
 10
26.1315519539
 20
7.8461032725
 30
0.0
 11
26.1315519539
 21
8.5961032725
 31
0.0
  0
LINE
  5
1CC
  8
0
  6
CONTINUOUS
 62
     7
 10
26.1315519539
 20
5.5961032725
 30
0.0
 11
26.1315519539
 21
4.8461032725
 31
0.0
  0
TEXT
  5
1CD
  8
0
  6
CONTINUOUS
 62
     7
 10
25.2795988157
 20
6.932612282
 30
0.0039370079
 40
0.375
  1
 
 41
0.7
 11
25.2795988157
 21
6.8001397588
 31
0.0039370079
 73
     1
  0
TEXT
  5
1CE
  8
0
  6
CONTINUOUS
 62
     7
 10
25.4943124028
 20
6.9268830876
 30
0.0039370079
 40
0.375
  1
2.25
 41
0.7
 11
25.4943124028
 21
6.7944105644
 31
0.0039370079
 73
     1
  0
TEXT
  5
1CF
  8
0
  6
CONTINUOUS
 62
     7
 10
25.6466561192
 20
6.2553986703
 30
0.0039370079
 40
0.375
  1
57.2
 41
0.7
 11
25.6466561192
 21
6.1229261471
 31
0.0039370079
 73
     1
  0
TEXT
  5
1D0
  8
0
  6
CONTINUOUS
 62
     7
 10
26.8449634525
 20
6.932612282
 30
0.0039370079
 40
0.375
  1
 
 41
0.7
 11
26.8449634525
 21
6.8001397588
 31
0.0039370079
 73
     1
  0
ENDBLK
  5
1C0
  8
0
  0
BLOCK
  8
0
  2
*D10
 70
     1
 10
0.0
 20
0.0
 30
0.0
  3
*D10
  1

  0
SOLID
  5
1D5
  8
0
  6
CONTINUOUS
 62
     7
 10
24.9318535694
 20
5.5961032725
 30
0.0
 11
24.9918535694
 21
5.9861032725
 31
0.0
 12
24.8718535694
 22
5.9861032725
 32
0.0
 13
24.8718535694
 23
5.9861032725
 33
0.0
  0
SOLID
  5
1D6
  8
0
  6
CONTINUOUS
 62
     7
 10
24.9318535694
 20
4.3461032725
 30
0.0
 11
24.8718535694
 21
3.9561032725
 31
0.0
 12
24.9918535694
 22
3.9561032725
 32
0.0
 13
24.9918535694
 23
3.9561032725
 33
0.0
  0
LINE
  5
1D7
  8
0
  6
CONTINUOUS
 62
     7
 10
24.3517428862
 20
4.9682386856
 30
0.0
 11
24.2755710074
 21
4.9682386856
 31
0.0
  0
LINE
  5
1D8
  8
0
  6
CONTINUOUS
 62
     7
 10
24.2755710074
 20
4.9682386856
 30
0.0
 11
24.2755710074
 21
4.3729261677
 31
0.0
  0
LINE
  5
1D9
  8
0
  6
CONTINUOUS
 62
     7
 10
24.2755710074
 20
4.3729261677
 30
0.0
 11
24.3517428862
 21
4.3729261677
 31
0.0
  0
LINE
  5
1DA
  8
0
  6
CONTINUOUS
 62
     7
 10
25.5119642801
 20
4.9682386856
 30
0.0
 11
25.5881361589
 21
4.9682386856
 31
0.0
  0
LINE
  5
1DB
  8
0
  6
CONTINUOUS
 62
     7
 10
25.5881361589
 20
4.9682386856
 30
0.0
 11
25.5881361589
 21
4.3729261677
 31
0.0
  0
LINE
  5
1DC
  8
0
  6
CONTINUOUS
 62
     7
 10
25.5881361589
 20
4.3729261677
 30
0.0
 11
25.5119642801
 21
4.3729261677
 31
0.0
  0
LINE
  5
1DD
  8
0
  6
CONTINUOUS
 62
     7
 10
23.6507512072
 20
5.5961032725
 30
0.0
 11
25.3068535694
 21
5.5961032725
 31
0.0
  0
LINE
  5
1DE
  8
0
  6
CONTINUOUS
 62
     7
 10
23.6507512072
 20
4.3461032725
 30
0.0
 11
25.3068535694
 21
4.3461032725
 31
0.0
  0
LINE
  5
1DF
  8
0
  6
CONTINUOUS
 62
     7
 10
24.9318535694
 20
5.5961032725
 30
0.0
 11
24.9318535694
 21
6.3461032725
 31
0.0
  0
LINE
  5
1E0
  8
0
  6
CONTINUOUS
 62
     7
 10
24.9318535694
 20
4.3461032725
 30
0.0
 11
24.9318535694
 21
3.5961032725
 31
0.0
  0
TEXT
  5
1E1
  8
0
  6
CONTINUOUS
 62
     7
 10
24.0799004312
 20
5.182612282
 30
0.0039370079
 40
0.375
  1
 
 41
0.7
 11
24.0799004312
 21
5.0501397588
 31
0.0039370079
 73
     1
  0
TEXT
  5
1E2
  8
0
  6
CONTINUOUS
 62
     7
 10
24.2946140183
 20
5.1768830876
 30
0.0039370079
 40
0.375
  1
1.25
 41
0.7
 11
24.2946140183
 21
5.0444105644
 31
0.0039370079
 73
     1
  0
TEXT
  5
1E3
  8
0
  6
CONTINUOUS
 62
     7
 10
24.4469577347
 20
4.5053986703
 30
0.0039370079
 40
0.375
  1
31.8
 41
0.7
 11
24.4469577347
 21
4.3729261471
 31
0.0039370079
 73
     1
  0
TEXT
  5
1E4
  8
0
  6
CONTINUOUS
 62
     7
 10
25.645265068
 20
5.182612282
 30
0.0039370079
 40
0.375
  1
 
 41
0.7
 11
25.645265068
 21
5.0501397588
 31
0.0039370079
 73
     1
  0
ENDBLK
  5
1D4
  8
0
  0
BLOCK
  8
0
  2
*D11
 70
     1
 10
0.0
 20
0.0
 30
0.0
  3
*D11
  1

  0
SOLID
  5
1E9
  8
0
  6
CONTINUOUS
 62
     7
 10
3.9471202647
 20
4.4866032725
 30
0.0
 11
4.0071202647
 21
4.8766032725
 31
0.0
 12
3.8871202647
 22
4.8766032725
 32
0.0
 13
3.8871202647
 23
4.8766032725
 33
0.0
  0
SOLID
  5
1EA
  8
0
  6
CONTINUOUS
 62
     7
 10
3.9471202647
 20
4.2056032725
 30
0.0
 11
3.8871202647
 21
3.8156032725
 31
0.0
 12
4.0071202647
 22
3.8156032725
 32
0.0
 13
4.0071202647
 23
3.8156032725
 33
0.0
  0
LINE
  5
1EB
  8
0
  6
CONTINUOUS
 62
     7
 10
2.1889976631
 20
5.3472751356
 30
0.0
 11
2.1128257843
 21
5.3472751356
 31
0.0
  0
LINE
  5
1EC
  8
0
  6
CONTINUOUS
 62
     7
 10
2.1128257843
 20
5.3472751356
 30
0.0
 11
2.1128257843
 21
4.7519626177
 31
0.0
  0
LINE
  5
1ED
  8
0
  6
CONTINUOUS
 62
     7
 10
2.1128257843
 20
4.7519626177
 30
0.0
 11
2.1889976631
 21
4.7519626177
 31
0.0
  0
LINE
  5
1EE
  8
0
  6
CONTINUOUS
 62
     7
 10
3.0721356679
 20
5.3472751356
 30
0.0
 11
3.1483075467
 21
5.3472751356
 31
0.0
  0
LINE
  5
1EF
  8
0
  6
CONTINUOUS
 62
     7
 10
3.1483075467
 20
5.3472751356
 30
0.0
 11
3.1483075467
 21
4.7519626177
 31
0.0
  0
LINE
  5
1F0
  8
0
  6
CONTINUOUS
 62
     7
 10
3.1483075467
 20
4.7519626177
 30
0.0
 11
3.0721356679
 21
4.7519626177
 31
0.0
  0
LINE
  5
1F1
  8
0
  6
CONTINUOUS
 62
     7
 10
4.8507512072
 20
4.4866032725
 30
0.0
 11
3.5721202647
 21
4.4866032725
 31
0.0
  0
LINE
  5
1F2
  8
0
  6
CONTINUOUS
 62
     7
 10
4.8507512072
 20
4.2056032725
 30
0.0
 11
3.5721202647
 21
4.2056032725
 31
0.0
  0
LINE
  5
1F3
  8
0
  6
CONTINUOUS
 62
     7
 10
3.5721202647
 20
5.3501397225
 30
0.0
 11
3.9471202647
 21
5.3501397225
 31
0.0
  0
LINE
  5
1F4
  8
0
  6
CONTINUOUS
 62
     7
 10
3.9471202647
 20
5.3501397225
 30
0.0
 11
3.9471202647
 21
4.4866032725
 31
0.0
  0
LINE
  5
1F5
  8
0
  6
CONTINUOUS
 62
     7
 10
3.9471202647
 20
4.2056032725
 30
0.0
 11
3.9471202647
 21
3.4556032725
 31
0.0
  0
TEXT
  5
1F6
  8
0
  6
CONTINUOUS
 62
     7
 10
1.9171552082
 20
5.5616487321
 30
0.0039370079
 40
0.375
  1
 
 41
0.7
 11
1.9171552082
 21
5.4291762089
 31
0.0039370079
 73
     1
  0
TEXT
  5
1F7
  8
0
  6
CONTINUOUS
 62
     7
 10
2.1318687403
 20
5.5559195377
 30
0.0039370079
 40
0.375
  1
.28
 41
0.7
 11
2.1318687403
 21
5.4234470144
 31
0.0039370079
 73
     1
  0
TEXT
  5
1F8
  8
0
  6
CONTINUOUS
 62
     7
 10
2.2842125116
 20
4.8844351203
 30
0.0039370079
 40
0.375
  1
7.1
 41
0.7
 11
2.2842125116
 21
4.7519625971
 31
0.0039370079
 73
     1
  0
TEXT
  5
1F9
  8
0
  6
CONTINUOUS
 62
     7
 10
3.2054364558
 20
5.5616487321
 30
0.0039370079
 40
0.375
  1
 
 41
0.7
 11
3.2054364558
 21
5.4291762089
 31
0.0039370079
 73
     1
  0
ENDBLK
  5
1E8
  8
0
  0
BLOCK
  8
0
  2
*D12
 70
     1
 10
0.0
 20
0.0
 30
0.0
  3
*D12
  1

  0
SOLID
  5
1FE
  8
0
  6
CONTINUOUS
 62
     7
 10
4.8602512072
 20
3.0127370007
 30
0.0
 11
4.4702512072
 21
3.0727370007
 31
0.0
 12
4.4702512072
 22
2.9527370007
 32
0.0
 13
4.4702512072
 23
2.9527370007
 33
0.0
  0
SOLID
  5
1FF
  8
0
  6
CONTINUOUS
 62
     7
 10
5.2972512072
 20
3.0127370007
 30
0.0
 11
5.6872512072
 21
2.9527370007
 31
0.0
 12
5.6872512072
 22
3.0727370007
 32
0.0
 13
5.6872512072
 23
3.0727370007
 33
0.0
  0
LINE
  5
200
  8
0
  6
CONTINUOUS
 62
     7
 10
6.6928082644
 20
3.0098724138
 30
0.0
 11
6.6166363856
 21
3.0098724138
 31
0.0
  0
LINE
  5
201
  8
0
  6
CONTINUOUS
 62
     7
 10
6.6166363856
 20
3.0098724138
 30
0.0
 11
6.6166363856
 21
2.4145598959
 31
0.0
  0
LINE
  5
202
  8
0
  6
CONTINUOUS
 62
     7
 10
6.6166363856
 20
2.4145598959
 30
0.0
 11
6.6928082644
 21
2.4145598959
 31
0.0
  0
LINE
  5
203
  8
0
  6
CONTINUOUS
 62
     7
 10
7.8530296583
 20
3.0098724138
 30
0.0
 11
7.9292015371
 21
3.0098724138
 31
0.0
  0
LINE
  5
204
  8
0
  6
CONTINUOUS
 62
     7
 10
7.9292015371
 20
3.0098724138
 30
0.0
 11
7.9292015371
 21
2.4145598959
 31
0.0
  0
LINE
  5
205
  8
0
  6
CONTINUOUS
 62
     7
 10
7.9292015371
 20
2.4145598959
 30
0.0
 11
7.8530296583
 21
2.4145598959
 31
0.0
  0
LINE
  5
206
  8
0
  6
CONTINUOUS
 62
     7
 10
4.8602512072
 20
4.1961032725
 30
0.0
 11
4.8602512072
 21
2.6377370007
 31
0.0
  0
LINE
  5
207
  8
0
  6
CONTINUOUS
 62
     7
 10
5.2972512072
 20
4.1961032725
 30
0.0
 11
5.2972512072
 21
2.6377370007
 31
0.0
  0
LINE
  5
208
  8
0
  6
CONTINUOUS
 62
     7
 10
4.8602512072
 20
3.0127370007
 30
0.0
 11
4.1102512072
 21
3.0127370007
 31
0.0
  0
LINE
  5
209
  8
0
  6
CONTINUOUS
 62
     7
 10
5.2972512072
 20
3.0127370007
 30
0.0
 11
6.3449184197
 21
3.0127370007
 31
0.0
  0
TEXT
  5
20A
  8
0
  6
CONTINUOUS
 62
     7
 10
6.4209658095
 20
3.2242460102
 30
0.0039370079
 40
0.375
  1
 
 41
0.7
 11
6.4209658095
 21
3.091773487
 31
0.0039370079
 73
     1
  0
TEXT
  5
20B
  8
0
  6
CONTINUOUS
 62
     7
 10
6.7742210361
 20
3.2185168158
 30
0.0039370079
 40
0.375
  1
.44
 41
0.7
 11
6.7742210361
 21
3.0860442926
 31
0.0039370079
 73
     1
  0
TEXT
  5
20C
  8
0
  6
CONTINUOUS
 62
     7
 10
6.7880231129
 20
2.5470323985
 30
0.0039370079
 40
0.375
  1
11.1
 41
0.7
 11
6.7880231129
 21
2.4145598752
 31
0.0039370079
 73
     1
  0
TEXT
  5
20D
  8
0
  6
CONTINUOUS
 62
     7
 10
7.9863304462
 20
3.2242460102
 30
0.0039370079
 40
0.375
  1
 
 41
0.7
 11
7.9863304462
 21
3.091773487
 31
0.0039370079
 73
     1
  0
ENDBLK
  5
1FD
  8
0
  0
BLOCK
  8
0
  2
*D13
 70
     1
 10
0.0
 20
0.0
 30
0.0
  3
*D13
  1

  0
SOLID
  5
250
  8
0
  6
CONTINUOUS
 62
     7
 10
5.4382512072
 20
29.5111075644
 30
0.0
 11
5.8282512072
 21
29.4511075644
 31
0.0
 12
5.8282512072
 22
29.5711075644
 32
0.0
 13
5.8282512072
 23
29.5711075644
 33
0.0
  0
SOLID
  5
251
  8
0
  6
CONTINUOUS
 62
     7
 10
23.0632512072
 20
29.5111075644
 30
0.0
 11
22.6732512072
 21
29.5711075644
 31
0.0
 12
22.6732512072
 22
29.4511075644
 32
0.0
 13
22.6732512072
 23
29.4511075644
 33
0.0
  0
LINE
  5
252
  8
0
  6
CONTINUOUS
 62
     7
 10
13.5320988844
 20
29.5082429775
 30
0.0
 11
13.4559270056
 21
29.5082429775
 31
0.0
  0
LINE
  5
253
  8
0
  6
CONTINUOUS
 62
     7
 10
13.4559270056
 20
29.5082429775
 30
0.0
 11
13.4559270056
 21
28.9129304596
 31
0.0
  0
LINE
  5
254
  8
0
  6
CONTINUOUS
 62
     7
 10
13.4559270056
 20
28.9129304596
 30
0.0
 11
13.5320988844
 21
28.9129304596
 31
0.0
  0
LINE
  5
255
  8
0
  6
CONTINUOUS
 62
     7
 10
14.9694035575
 20
29.5082429775
 30
0.0
 11
15.0455754363
 21
29.5082429775
 31
0.0
  0
LINE
  5
256
  8
0
  6
CONTINUOUS
 62
     7
 10
15.0455754363
 20
29.5082429775
 30
0.0
 11
15.0455754363
 21
28.9129304596
 31
0.0
  0
LINE
  5
257
  8
0
  6
CONTINUOUS
 62
     7
 10
15.0455754363
 20
28.9129304596
 30
0.0
 11
14.9694035575
 21
28.9129304596
 31
0.0
  0
LINE
  5
258
  8
0
  6
CONTINUOUS
 62
     7
 10
5.4382512072
 20
28.7182156187
 30
0.0
 11
5.4382512072
 21
29.8861075644
 31
0.0
  0
LINE
  5
259
  8
0
  6
CONTINUOUS
 62
     7
 10
23.0632512072
 20
28.7182156187
 30
0.0
 11
23.0632512072
 21
29.8861075644
 31
0.0
  0
LINE
  5
25A
  8
0
  6
CONTINUOUS
 62
     7
 10
5.4382512072
 20
29.5111075644
 30
0.0
 11
13.1842090397
 21
29.5111075644
 31
0.0
  0
LINE
  5
25B
  8
0
  6
CONTINUOUS
 62
     7
 10
23.0632512072
 20
29.5111075644
 30
0.0
 11
15.3172933747
 21
29.5111075644
 31
0.0
  0
TEXT
  5
25C
  8
0
  6
CONTINUOUS
 62
     7
 10
13.2602564295
 20
29.7226165739
 30
-2.6050629921
 40
0.375
  1
 
 41
0.7
 11
13.2602564295
 21
29.5901440507
 31
-2.6050629921
 73
     1
  0
TEXT
  5
25D
  8
0
  6
CONTINUOUS
 62
     7
 10
13.4749700166
 20
29.7168873795
 30
-2.6050629921
 40
0.375
  1
17.63
 41
0.7
 11
13.4749700166
 21
29.5844148563
 31
-2.6050629921
 73
     1
  0
TEXT
  5
25E
  8
0
  6
CONTINUOUS
 62
     7
 10
13.6273137329
 20
29.0454029622
 30
-2.6050629921
 40
0.375
  1
447.7
 41
0.7
 11
13.6273137329
 21
28.9129304389
 31
-2.6050629921
 73
     1
  0
TEXT
  5
25F
  8
0
  6
CONTINUOUS
 62
     7
 10
15.1027043454
 20
29.7226165739
 30
-2.6050629921
 40
0.375
  1
 
 41
0.7
 11
15.1027043454
 21
29.5901440507
 31
-2.6050629921
 73
     1
  0
ENDBLK
  5
24F
  8
0
  0
BLOCK
  8
0
  2
*D14
 70
     1
 10
0.0
 20
0.0
 30
0.0
  3
*D14
  1

  0
SOLID
  5
273
  8
0
  6
CONTINUOUS
 62
     7
 10
29.5993475891
 20
9.3301032725
 30
0.0
 11
29.5393475891
 21
8.9401032725
 31
0.0
 12
29.6593475891
 22
8.9401032725
 32
0.0
 13
29.6593475891
 23
8.9401032725
 33
0.0
  0
SOLID
  5
274
  8
0
  6
CONTINUOUS
 62
     7
 10
29.5993475891
 20
4.1121032725
 30
0.0
 11
29.6593475891
 21
4.5021032725
 31
0.0
 12
29.5393475891
 22
4.5021032725
 32
0.0
 13
29.5393475891
 23
4.5021032725
 33
0.0
  0
LINE
  5
275
  8
0
  6
CONTINUOUS
 62
     7
 10
28.8806952664
 20
6.7182386856
 30
0.0
 11
28.8045233875
 21
6.7182386856
 31
0.0
  0
LINE
  5
276
  8
0
  6
CONTINUOUS
 62
     7
 10
28.8045233875
 20
6.7182386856
 30
0.0
 11
28.8045233875
 21
6.1229261677
 31
0.0
  0
LINE
  5
277
  8
0
  6
CONTINUOUS
 62
     7
 10
28.8045233875
 20
6.1229261677
 30
0.0
 11
28.8806952664
 21
6.1229261677
 31
0.0
  0
LINE
  5
278
  8
0
  6
CONTINUOUS
 62
     7
 10
30.3179999394
 20
6.7182386856
 30
0.0
 11
30.3941718182
 21
6.7182386856
 31
0.0
  0
LINE
  5
279
  8
0
  6
CONTINUOUS
 62
     7
 10
30.3941718182
 20
6.7182386856
 30
0.0
 11
30.3941718182
 21
6.1229261677
 31
0.0
  0
LINE
  5
27A
  8
0
  6
CONTINUOUS
 62
     7
 10
30.3941718182
 20
6.1229261677
 30
0.0
 11
30.3179999394
 21
6.1229261677
 31
0.0
  0
LINE
  5
27B
  8
0
  6
CONTINUOUS
 62
     7
 10
30.8337006961
 20
9.3301032725
 30
0.0
 11
29.2243475891
 21
9.3301032725
 31
0.0
  0
LINE
  5
27C
  8
0
  6
CONTINUOUS
 62
     7
 10
30.8337006961
 20
4.1121032725
 30
0.0
 11
29.2243475891
 21
4.1121032725
 31
0.0
  0
LINE
  5
27D
  8
0
  6
CONTINUOUS
 62
     7
 10
29.5993475891
 20
9.3301032725
 30
0.0
 11
29.5993475891
 21
7.3954522973
 31
0.0
  0
LINE
  5
27E
  8
0
  6
CONTINUOUS
 62
     7
 10
29.5993475891
 20
4.1121032725
 30
0.0
 11
29.5993475891
 21
6.0467542476
 31
0.0
  0
TEXT
  5
27F
  8
0
  6
CONTINUOUS
 62
     7
 10
28.6088528114
 20
6.932612282
 30
0.0039370079
 40
0.375
  1
 
 41
0.7
 11
28.6088528114
 21
6.8001397588
 31
0.0039370079
 73
     1
  0
TEXT
  5
280
  8
0
  6
CONTINUOUS
 62
     7
 10
28.9621080381
 20
6.9268830876
 30
0.0039370079
 40
0.375
  1
5.22
 41
0.7
 11
28.9621080381
 21
6.7944105644
 31
0.0039370079
 73
     1
  0
TEXT
  5
281
  8
0
  6
CONTINUOUS
 62
     7
 10
28.9759101149
 20
6.2553986703
 30
0.0039370079
 40
0.375
  1
132.5
 41
0.7
 11
28.9759101149
 21
6.1229261471
 31
0.0039370079
 73
     1
  0
TEXT
  5
282
  8
0
  6
CONTINUOUS
 62
     7
 10
30.4513007273
 20
6.932612282
 30
0.0039370079
 40
0.375
  1
 
 41
0.7
 11
30.4513007273
 21
6.8001397588
 31
0.0039370079
 73
     1
  0
ENDBLK
  5
272
  8
0
  0
BLOCK
  8
0
  2
*D15
 70
     1
 10
0.0
 20
0.0
 30
0.0
  3
*D15
  1

  0
SOLID
  5
287
  8
0
  6
CONTINUOUS
 62
     7
 10
47.356783459
 20
5.8301032725
 30
0.0
 11
47.416783459
 21
6.2201032725
 31
0.0
 12
47.296783459
 22
6.2201032725
 32
0.0
 13
47.296783459
 23
6.2201032725
 33
0.0
  0
SOLID
  5
288
  8
0
  6
CONTINUOUS
 62
     7
 10
47.356783459
 20
4.1121032725
 30
0.0
 11
47.296783459
 21
3.7221032725
 31
0.0
 12
47.416783459
 22
3.7221032725
 32
0.0
 13
47.416783459
 23
3.7221032725
 33
0.0
  0
LINE
  5
289
  8
0
  6
CONTINUOUS
 62
     7
 10
46.7766727758
 20
4.9682386856
 30
0.0
 11
46.7005008969
 21
4.9682386856
 31
0.0
  0
LINE
  5
28A
  8
0
  6
CONTINUOUS
 62
     7
 10
46.7005008969
 20
4.9682386856
 30
0.0
 11
46.7005008969
 21
4.3729261677
 31
0.0
  0
LINE
  5
28B
  8
0
  6
CONTINUOUS
 62
     7
 10
46.7005008969
 20
4.3729261677
 30
0.0
 11
46.7766727758
 21
4.3729261677
 31
0.0
  0
LINE
  5
28C
  8
0
  6
CONTINUOUS
 62
     7
 10
47.9368941696
 20
4.9682386856
 30
0.0
 11
48.0130660485
 21
4.9682386856
 31
0.0
  0
LINE
  5
28D
  8
0
  6
CONTINUOUS
 62
     7
 10
48.0130660485
 20
4.9682386856
 30
0.0
 11
48.0130660485
 21
4.3729261677
 31
0.0
  0
LINE
  5
28E
  8
0
  6
CONTINUOUS
 62
     7
 10
48.0130660485
 20
4.3729261677
 30
0.0
 11
47.9368941696
 21
4.3729261677
 31
0.0
  0
LINE
  5
28F
  8
0
  6
CONTINUOUS
 62
     7
 10
45.9207006961
 20
5.8301032725
 30
0.0
 11
47.731783459
 21
5.8301032725
 31
0.0
  0
LINE
  5
290
  8
0
  6
CONTINUOUS
 62
     7
 10
46.1337006961
 20
4.1121032725
 30
0.0
 11
47.731783459
 21
4.1121032725
 31
0.0
  0
LINE
  5
291
  8
0
  6
CONTINUOUS
 62
     7
 10
47.356783459
 20
5.8301032725
 30
0.0
 11
47.356783459
 21
6.5801032725
 31
0.0
  0
LINE
  5
292
  8
0
  6
CONTINUOUS
 62
     7
 10
47.356783459
 20
4.1121032725
 30
0.0
 11
47.356783459
 21
3.3621032725
 31
0.0
  0
TEXT
  5
293
  8
0
  6
CONTINUOUS
 62
     7
 10
46.5048303208
 20
5.182612282
 30
0.0039370079
 40
0.375
  1
 
 41
0.7
 11
46.5048303208
 21
5.0501397588
 31
0.0039370079
 73
     1
  0
TEXT
  5
294
  8
0
  6
CONTINUOUS
 62
     7
 10
46.7195439079
 20
5.1768830876
 30
0.0039370079
 40
0.375
  1
1.72
 41
0.7
 11
46.7195439079
 21
5.0444105644
 31
0.0039370079
 73
     1
  0
TEXT
  5
295
  8
0
  6
CONTINUOUS
 62
     7
 10
46.8718876243
 20
4.5053986703
 30
0.0039370079
 40
0.375
  1
43.6
 41
0.7
 11
46.8718876243
 21
4.3729261471
 31
0.0039370079
 73
     1
  0
TEXT
  5
296
  8
0
  6
CONTINUOUS
 62
     7
 10
48.0701949576
 20
5.182612282
 30
0.0039370079
 40
0.375
  1
 
 41
0.7
 11
48.0701949576
 21
5.0501397588
 31
0.0039370079
 73
     1
  0
ENDBLK
  5
286
  8
0
  0
BLOCK
  8
0
  2
*D16
 70
     1
 10
0.0
 20
0.0
 30
0.0
  3
*D16
  1

  0
SOLID
  5
29B
  8
0
  6
CONTINUOUS
 62
     7
 10
45.5767006961
 20
3.0507054967
 30
0.0
 11
45.1867006961
 21
3.1107054967
 31
0.0
 12
45.1867006961
 22
2.9907054967
 32
0.0
 13
45.1867006961
 23
2.9907054967
 33
0.0
  0
SOLID
  5
29C
  8
0
  6
CONTINUOUS
 62
     7
 10
45.9837006961
 20
3.0507054967
 30
0.0
 11
46.3737006961
 21
2.9907054967
 31
0.0
 12
46.3737006961
 22
3.1107054967
 32
0.0
 13
46.3737006961
 23
3.1107054967
 33
0.0
  0
LINE
  5
29D
  8
0
  6
CONTINUOUS
 62
     7
 10
43.1898554711
 20
3.0478409098
 30
0.0
 11
43.1136835923
 21
3.0478409098
 31
0.0
  0
LINE
  5
29E
  8
0
  6
CONTINUOUS
 62
     7
 10
43.1136835923
 20
3.0478409098
 30
0.0
 11
43.1136835923
 21
2.4525283919
 31
0.0
  0
LINE
  5
29F
  8
0
  6
CONTINUOUS
 62
     7
 10
43.1136835923
 20
2.4525283919
 30
0.0
 11
43.1898554711
 21
2.4525283919
 31
0.0
  0
LINE
  5
2A0
  8
0
  6
CONTINUOUS
 62
     7
 10
44.350076865
 20
3.0478409098
 30
0.0
 11
44.4262487438
 21
3.0478409098
 31
0.0
  0
LINE
  5
2A1
  8
0
  6
CONTINUOUS
 62
     7
 10
44.4262487438
 20
3.0478409098
 30
0.0
 11
44.4262487438
 21
2.4525283919
 31
0.0
  0
LINE
  5
2A2
  8
0
  6
CONTINUOUS
 62
     7
 10
44.4262487438
 20
2.4525283919
 30
0.0
 11
44.350076865
 21
2.4525283919
 31
0.0
  0
LINE
  5
2A3
  8
0
  6
CONTINUOUS
 62
     7
 10
45.5767006961
 20
5.4861032725
 30
0.0
 11
45.5767006961
 21
2.6757054967
 31
0.0
  0
LINE
  5
2A4
  8
0
  6
CONTINUOUS
 62
     7
 10
45.9837006961
 20
3.9621032725
 30
0.0
 11
45.9837006961
 21
2.6757054967
 31
0.0
  0
LINE
  5
2A5
  8
0
  6
CONTINUOUS
 62
     7
 10
45.5767006961
 20
3.0507054967
 30
0.0
 11
44.6979666822
 21
3.0507054967
 31
0.0
  0
LINE
  5
2A6
  8
0
  6
CONTINUOUS
 62
     7
 10
45.9837006961
 20
3.0507054967
 30
0.0
 11
46.7337006961
 21
3.0507054967
 31
0.0
  0
TEXT
  5
2A7
  8
0
  6
CONTINUOUS
 62
     7
 10
42.9180130161
 20
3.2622145062
 30
0.0039370079
 40
0.375
  1
 
 41
0.7
 11
42.9180130161
 21
3.129741983
 31
0.0039370079
 73
     1
  0
TEXT
  5
2A8
  8
0
  6
CONTINUOUS
 62
     7
 10
43.2712682428
 20
3.2564853118
 30
0.0039370079
 40
0.375
  1
.41
 41
0.7
 11
43.2712682428
 21
3.1240127886
 31
0.0039370079
 73
     1
  0
TEXT
  5
2A9
  8
0
  6
CONTINUOUS
 62
     7
 10
43.2850703196
 20
2.5850008945
 30
0.0039370079
 40
0.375
  1
10.3
 41
0.7
 11
43.2850703196
 21
2.4525283712
 31
0.0039370079
 73
     1
  0
TEXT
  5
2AA
  8
0
  6
CONTINUOUS
 62
     7
 10
44.4833776529
 20
3.2622145062
 30
0.0039370079
 40
0.375
  1
 
 41
0.7
 11
44.4833776529
 21
3.129741983
 31
0.0039370079
 73
     1
  0
ENDBLK
  5
29A
  8
0
  0
BLOCK
  8
0
  2
*D17
 70
     1
 10
0.0
 20
0.0
 30
0.0
  3
*D17
  1

  0
SOLID
  5
2B0
  8
0
  6
CONTINUOUS
 62
     7
 10
45.5941856866
 20
5.9224627609
 30
0.0
 11
45.7256826614
 21
6.2944957509
 31
0.0
 12
45.6077769314
 22
6.3168170155
 32
0.0
 13
45.6077769314
 23
6.3168170155
 33
0.0
  0
LINE
  5
2B1
  8
0
  6
CONTINUOUS
 62
     7
 10
46.6583733743
 20
7.7645990201
 30
0.0
 11
46.5822014955
 21
7.7645990201
 31
0.0
  0
LINE
  5
2B2
  8
0
  6
CONTINUOUS
 62
     7
 10
46.5822014955
 20
7.7645990201
 30
0.0
 11
46.5822014955
 21
7.1692865022
 31
0.0
  0
LINE
  5
2B3
  8
0
  6
CONTINUOUS
 62
     7
 10
46.5822014955
 20
7.1692865022
 30
0.0
 11
46.6583733743
 21
7.1692865022
 31
0.0
  0
LINE
  5
2B4
  8
0
  6
CONTINUOUS
 62
     7
 10
47.8185947682
 20
7.7645990201
 30
0.0
 11
47.894766647
 21
7.7645990201
 31
0.0
  0
LINE
  5
2B5
  8
0
  6
CONTINUOUS
 62
     7
 10
47.894766647
 20
7.7645990201
 30
0.0
 11
47.894766647
 21
7.1692865022
 31
0.0
  0
LINE
  5
2B6
  8
0
  6
CONTINUOUS
 62
     7
 10
47.894766647
 20
7.1692865022
 30
0.0
 11
47.8185947682
 21
7.1692865022
 31
0.0
  0
LINE
  5
2B7
  8
0
  6
CONTINUOUS
 62
     7
 10
45.5941856866
 20
5.9224627609
 30
0.0
 11
45.943471103
 21
7.7674636071
 31
0.0
  0
LINE
  5
2B8
  8
0
  6
CONTINUOUS
 62
     7
 10
45.943471103
 20
7.7674636071
 30
0.0
 11
46.318471103
 21
7.7674636071
 31
0.0
  0
TEXT
  5
2B9
  8
0
  6
CONTINUOUS
 62
     7
 10
46.318471103
 20
7.9732434222
 30
0.0039370079
 40
0.375
  1
%%c
 41
0.7
 11
46.318471103
 21
7.840770899
 31
0.0039370079
 73
     1
  0
TEXT
  5
2BA
  8
0
  6
CONTINUOUS
 62
     7
 10
46.8840179648
 20
7.9732434222
 30
0.0039370079
 40
0.375
  1
.188
 41
0.7
 11
46.8840179648
 21
7.840770899
 31
0.0039370079
 73
     1
  0
TEXT
  5
2BB
  8
0
  6
CONTINUOUS
 62
     7
 10
46.7535882228
 20
7.3017590048
 30
0.0039370079
 40
0.375
  1
4.78
 41
0.7
 11
46.7535882228
 21
7.1692864816
 31
0.0039370079
 73
     1
  0
TEXT
  5
2BC
  8
0
  6
CONTINUOUS
 62
     7
 10
48.1584970669
 20
7.9789726166
 30
0.0039370079
 40
0.375
  1
 (2X)
 41
0.7
 11
48.1584970669
 21
7.8465000934
 31
0.0039370079
 73
     1
  0
ENDBLK
  5
2AF
  8
0
  0
BLOCK
  8
0
  2
*D18
 70
     1
 10
0.0
 20
0.0
 30
0.0
  3
*D18
  1

  0
SOLID
  5
2C1
  8
0
  6
CONTINUOUS
 62
     7
 10
30.9837006961
 20
1.8524841118
 30
0.0
 11
31.3737006961
 21
1.7924841118
 31
0.0
 12
31.3737006961
 22
1.9124841118
 32
0.0
 13
31.3737006961
 23
1.9124841118
 33
0.0
  0
SOLID
  5
2C2
  8
0
  6
CONTINUOUS
 62
     7
 10
45.9837006961
 20
1.8524841118
 30
0.0
 11
45.5937006961
 21
1.9124841118
 31
0.0
 12
45.5937006961
 22
1.7924841118
 32
0.0
 13
45.5937006961
 23
1.7924841118
 33
0.0
  0
LINE
  5
2C3
  8
0
  6
CONTINUOUS
 62
     7
 10
37.9728608876
 20
1.8496195249
 30
0.0
 11
37.8966890088
 21
1.8496195249
 31
0.0
  0
LINE
  5
2C4
  8
0
  6
CONTINUOUS
 62
     7
 10
37.8966890088
 20
1.8496195249
 30
0.0
 11
37.8966890088
 21
1.254307007
 31
0.0
  0
LINE
  5
2C5
  8
0
  6
CONTINUOUS
 62
     7
 10
37.8966890088
 20
1.254307007
 30
0.0
 11
37.9728608876
 21
1.254307007
 31
0.0
  0
LINE
  5
2C6
  8
0
  6
CONTINUOUS
 62
     7
 10
38.994540587
 20
1.8496195249
 30
0.0
 11
39.0707124658
 21
1.8496195249
 31
0.0
  0
LINE
  5
2C7
  8
0
  6
CONTINUOUS
 62
     7
 10
39.0707124658
 20
1.8496195249
 30
0.0
 11
39.0707124658
 21
1.254307007
 31
0.0
  0
LINE
  5
2C8
  8
0
  6
CONTINUOUS
 62
     7
 10
39.0707124658
 20
1.254307007
 30
0.0
 11
38.994540587
 21
1.254307007
 31
0.0
  0
LINE
  5
2C9
  8
0
  6
CONTINUOUS
 62
     7
 10
30.9837006961
 20
3.9621032725
 30
0.0
 11
30.9837006961
 21
1.4774841118
 31
0.0
  0
LINE
  5
2CA
  8
0
  6
CONTINUOUS
 62
     7
 10
45.9837006961
 20
3.9621032725
 30
0.0
 11
45.9837006961
 21
1.4774841118
 31
0.0
  0
LINE
  5
2CB
  8
0
  6
CONTINUOUS
 62
     7
 10
30.9837006961
 20
1.8524841118
 30
0.0
 11
37.4933304486
 21
1.8524841118
 31
0.0
  0
LINE
  5
2CC
  8
0
  6
CONTINUOUS
 62
     7
 10
45.9837006961
 20
1.8524841118
 30
0.0
 11
39.4740709435
 21
1.8524841118
 31
0.0
  0
TEXT
  5
2CD
  8
0
  6
CONTINUOUS
 62
     7
 10
37.5693778384
 20
2.0639931213
 30
0.0039370079
 40
0.375
  1
 
 41
0.7
 11
37.5693778384
 21
1.9315205981
 31
0.0039370079
 73
     1
  0
TEXT
  5
2CE
  8
0
  6
CONTINUOUS
 62
     7
 10
37.7079195054
 20
2.0582639269
 30
0.0039370079
 40
0.375
  1
15.00
 41
0.7
 11
37.7079195054
 21
1.9257914037
 31
0.0039370079
 73
     1
  0
TEXT
  5
2CF
  8
0
  6
CONTINUOUS
 62
     7
 10
38.0680757361
 20
1.3867795096
 30
0.0039370079
 40
0.375
  1
381
 41
0.7
 11
38.0680757361
 21
1.2543069863
 31
0.0039370079
 73
     1
  0
TEXT
  5
2D0
  8
0
  6
CONTINUOUS
 62
     7
 10
39.2594819142
 20
2.0639931213
 30
0.0039370079
 40
0.375
  1
 
 41
0.7
 11
39.2594819142
 21
1.9315205981
 31
0.0039370079
 73
     1
  0
ENDBLK
  5
2C0
  8
0
  0
BLOCK
  8
0
  2
SW_CENTERMARKSYMBOL_0
 70
     0
 10
0.0
 20
0.0
 30
0.0
  3
SW_CENTERMARKSYMBOL_0
  1

  0
LINE
  5
2D4
  8
0
  6
CONTINUOUS
 62
     0
 10
0.0
 20
0.0
 30
0.0
 11
0.0
 21
0.1
 31
0.0
  0
LINE
  5
2D5
  8
0
  6
CONTINUOUS
 62
     0
 10
0.0
 20
0.0
 30
0.0
 11
-0.1
 21
0.0
 31
0.0
  0
LINE
  5
2D6
  8
0
  6
CONTINUOUS
 62
     0
 10
0.0
 20
0.0
 30
0.0
 11
0.0
 21
-0.1
 31
0.0
  0
LINE
  5
2D7
  8
0
  6
CONTINUOUS
 62
     0
 10
0.0
 20
0.0
 30
0.0
 11
0.1
 21
0.0
 31
0.0
  0
LINE
  5
2D8
  8
0
  6
CONTINUOUS
 62
     0
 10
0.0
 20
0.1
 30
0.0
 11
0.0
 21
0.194
 31
0.0
  0
LINE
  5
2D9
  8
0
  6
CONTINUOUS
 62
     0
 10
-0.1
 20
0.0
 30
0.0
 11
-0.194
 21
0.0
 31
0.0
  0
LINE
  5
2DA
  8
0
  6
CONTINUOUS
 62
     0
 10
0.0
 20
-0.1
 30
0.0
 11
0.0
 21
-0.194
 31
0.0
  0
LINE
  5
2DB
  8
0
  6
CONTINUOUS
 62
     0
 10
0.1
 20
0.0
 30
0.0
 11
0.194
 21
0.0
 31
0.0
  0
ENDBLK
  5
2D3
  8
0
  0
ENDSEC
  0
SECTION
  2
ENTITIES
  0
LINE
  5
44
  8
0
  6
CONTINUOUS
 62
     7
 10
0.9397548139
 20
32.1152195122
 30
0.0
 11
50.0677548139
 21
32.1152195122
 31
0.0
  0
LINE
  5
45
  8
0
  6
CONTINUOUS
 62
     7
 10
50.0677548139
 20
0.9872195122
 30
0.0
 11
50.0677548139
 21
32.1152195122
 31
0.0
  0
LINE
  5
46
  8
0
  6
CONTINUOUS
 62
     7
 10
50.0677548139
 20
0.9872195122
 30
0.0
 11
0.9397548139
 21
0.9872195122
 31
0.0
  0
LINE
  5
47
  8
0
  6
CONTINUOUS
 62
     7
 10
0.9397548139
 20
32.1152195122
 30
0.0
 11
0.9397548139
 21
0.9872195122
 31
0.0
  0
LINE
  5
48
  8
0
  6
CONTINUOUS
 62
     7
 10
0.7537548139
 20
32.3012195122
 30
0.0
 11
50.2537548139
 21
32.3012195122
 31
0.0
  0
LINE
  5
49
  8
0
  6
CONTINUOUS
 62
     7
 10
50.2537548139
 20
0.8012195122
 30
0.0
 11
0.7537548139
 21
0.8012195122
 31
0.0
  0
LINE
  5
4A
  8
0
  6
CONTINUOUS
 62
     7
 10
0.7537548139
 20
32.3012195122
 30
0.0
 11
0.7537548139
 21
0.8012195122
 31
0.0
  0
LINE
  5
4B
  8
0
  6
CONTINUOUS
 62
     7
 10
50.2537548139
 20
0.8012195122
 30
0.0
 11
50.2537548139
 21
32.3012195122
 31
0.0
  0
LINE
  5
4C
  8
0
  6
CONTINUOUS
 62
     7
 10
0.9397548139
 20
30.8972195122
 30
0.0
 11
50.0677548139
 21
30.8972195122
 31
0.0
  0
LINE
  5
4D
  8
0
  6
CONTINUOUS
 62
     7
 10
5.5311576621
 20
32.1152195122
 30
0.0
 11
5.5311576621
 21
30.8972195122
 31
0.0
  0
LINE
  5
4E
  8
0
  6
CONTINUOUS
 62
     7
 10
3.3324956511
 20
32.1152195122
 30
0.0
 11
3.3324956511
 21
30.8972195122
 31
0.0
  0
LINE
  5
4F
  8
0
  6
CONTINUOUS
 62
     7
 10
46.3177548139
 20
30.8972195122
 30
0.0
 11
46.3177548139
 21
32.1152195122
 31
0.0
  0
LINE
  5
50
  8
0
  6
CONTINUOUS
 62
     7
 10
44.0677548139
 20
30.8972195122
 30
0.0
 11
44.0677548139
 21
32.1152195122
 31
0.0
  0
LINE
  5
51
  8
0
  6
CONTINUOUS
 62
     7
 10
43.8817548139
 20
30.8972195122
 30
0.0
 11
43.8817548139
 21
32.1152195122
 31
0.0
  0
LINE
  5
52
  8
0
  6
CONTINUOUS
 62
     7
 10
1.3430337515
 20
31.1284803474
 30
0.0
 11
1.3430337515
 21
31.9250846097
 31
0.0
  0
LINE
  5
53
  8
0
  6
CONTINUOUS
 62
     7
 10
1.8977494329
 20
31.1782681138
 30
0.0
 11
1.8977494329
 21
31.9250846097
 31
0.0
  0
LINE
  5
54
  8
0
  6
CONTINUOUS
 62
     7
 10
2.1127017595
 20
31.2584518588
 30
0.0
 11
2.1127017595
 21
31.9250846097
 31
0.0
  0
LINE
  5
55
  8
0
  6
CONTINUOUS
 62
     7
 10
2.0433622993
 20
31.2584518588
 30
0.0
 11
2.0433622993
 21
31.9250846097
 31
0.0
  0
LINE
  5
56
  8
0
  6
CONTINUOUS
 62
     7
 10
2.4212463645
 20
31.1284803474
 30
0.0
 11
2.4212463645
 21
31.9250846097
 31
0.0
  0
LINE
  5
57
  8
0
  6
CONTINUOUS
 62
     7
 10
2.2583146259
 20
31.1782681138
 30
0.0
 11
2.2583146259
 21
31.9250846097
 31
0.0
  0
LINE
  5
58
  8
0
  6
CONTINUOUS
 62
     7
 10
1.9475371993
 20
31.1284803474
 30
0.0
 11
2.2085268595
 21
31.1284803474
 31
0.0
  0
LINE
  5
59
  8
0
  6
CONTINUOUS
 62
     7
 10
1.3430337515
 20
31.1284803474
 30
0.0
 11
1.5995897542
 21
31.1284803474
 31
0.0
  0
LINE
  5
5A
  8
0
  6
CONTINUOUS
 62
     7
 10
1.5995897542
 20
31.506867372
 30
0.0
 11
1.3811704546
 21
31.506867372
 31
0.0
  0
LINE
  5
5B
  8
0
  6
CONTINUOUS
 62
     7
 10
1.5995897542
 20
31.5466975851
 30
0.0
 11
1.3811704546
 21
31.5466975851
 31
0.0
  0
LINE
  5
5C
  8
0
  6
CONTINUOUS
 62
     7
 10
1.3811704546
 20
31.5466975851
 30
0.0
 11
1.3811704546
 21
31.5267824786
 31
0.0
  0
LINE
  5
5D
  8
0
  6
CONTINUOUS
 62
     7
 10
1.3811704546
 20
31.506867372
 30
0.0
 11
1.3811704546
 21
31.5267824786
 31
0.0
  0
LINE
  5
5E
  8
0
  6
CONTINUOUS
 62
     7
 10
2.4212463645
 20
31.1284803474
 30
0.0
 11
2.5203349307
 21
31.1284803474
 31
0.0
  0
LINE
  5
5F
  8
0
  6
CONTINUOUS
 62
     7
 10
2.7991464225
 20
31.4072918392
 30
0.0
 11
2.7991464225
 21
31.6462731179
 31
0.0
  0
LINE
  5
60
  8
0
  6
CONTINUOUS
 62
     7
 10
2.6526312891
 20
31.506867372
 30
0.0
 11
2.6526312891
 21
31.5466975851
 31
0.0
  0
LINE
  5
61
  8
0
  6
CONTINUOUS
 62
     7
 10
2.5287385206
 20
31.506867372
 30
0.0
 11
2.5287385206
 21
31.5466975851
 31
0.0
  0
LINE
  5
62
  8
0
  6
CONTINUOUS
 62
     7
 10
2.6526312891
 20
31.506867372
 30
0.0
 11
2.5287385206
 21
31.506867372
 31
0.0
  0
LINE
  5
63
  8
0
  6
CONTINUOUS
 62
     7
 10
2.6526312891
 20
31.5466975851
 30
0.0
 11
2.5287385206
 21
31.5466975851
 31
0.0
  0
LINE
  5
64
  8
0
  6
CONTINUOUS
 62
     7
 10
2.1127017595
 20
31.9250846097
 30
0.0
 11
2.2583146259
 21
31.9250846097
 31
0.0
  0
LINE
  5
65
  8
0
  6
CONTINUOUS
 62
     7
 10
1.3430337515
 20
31.9250846097
 30
0.0
 11
1.5995897542
 21
31.9250846097
 31
0.0
  0
LINE
  5
66
  8
0
  6
CONTINUOUS
 62
     7
 10
1.8977494329
 20
31.9250846097
 30
0.0
 11
2.0433622993
 21
31.9250846097
 31
0.0
  0
LINE
  5
67
  8
0
  6
CONTINUOUS
 62
     7
 10
2.4212463645
 20
31.9250846097
 30
0.0
 11
2.5203349307
 21
31.9250846097
 31
0.0
  0
LINE
  5
68
  8
0
  6
CONTINUOUS
 62
     7
 10
3.1503000781
 20
32.1152195122
 30
0.0
 11
3.1503000781
 21
30.8972195122
 31
0.0
  0
LINE
  5
69
  8
0
  6
CONTINUOUS
 62
     7
 10
25.1495861308
 20
30.8972195122
 30
0.0
 11
25.1495861308
 21
32.1152195122
 31
0.0
  0
LINE
  5
6A
  8
0
  6
CONTINUOUS
 62
     7
 10
25.3355861308
 20
30.8972195122
 30
0.0
 11
25.3355861308
 21
32.1152195122
 31
0.0
  0
LINE
  5
6B
  8
0
  6
CONTINUOUS
 62
     7
 10
27.5855861308
 20
30.8972195122
 30
0.0
 11
27.5855861308
 21
32.1152195122
 31
0.0
  0
ARC
  5
6C
  8
0
  6
CONTINUOUS
 62
     7
 10
1.5995897542
 20
31.7358910974
 30
0.0
 40
0.1891935122957342
 50
270.0
 51
90.0
  0
ARC
  5
6D
  8
0
  6
CONTINUOUS
 62
     7
 10
2.5203349307
 20
31.6462731179
 30
0.0
 40
0.2788114918042375
 50
0.0
 51
90.0
  0
ARC
  5
6E
  8
0
  6
CONTINUOUS
 62
     7
 10
1.5995897542
 20
31.3176738597
 30
0.0
 40
0.1891935122957342
 50
270.0
 51
90.0
  0
ARC
  5
6F
  8
0
  6
CONTINUOUS
 62
     7
 10
1.9475371993
 20
31.1782681138
 30
0.0
 40
0.0497877663936281
 50
180.0
 51
270.0
  0
ARC
  5
70
  8
0
  6
CONTINUOUS
 62
     7
 10
2.0728715464
 20
31.2584518588
 30
0.0
 40
0.0398302131148797
 50
277.4442840975
 51
0.0
  0
ARC
  5
71
  8
0
  6
CONTINUOUS
 62
     7
 10
2.0831925124
 20
31.2584518588
 30
0.0
 40
0.0398302131149125
 50
180.0
 51
262.5557159021
  0
ARC
  5
72
  8
0
  6
CONTINUOUS
 62
     7
 10
2.5203349307
 20
31.4072918392
 30
0.0
 40
0.2788114918042375
 50
270.0
 51
0.0
  0
ARC
  5
73
  8
0
  6
CONTINUOUS
 62
     7
 10
2.2085268595
 20
31.1782681138
 30
0.0
 40
0.0497877663936208
 50
270.0
 51
0.0
  0
INSERT
  5
7B
  8
0
  6
CONTINUOUS
 62
     7
  2
SW_NOTE_0
 10
25.5191619608
 20
28.4245651628
 30
0.0
  0
TEXT
  5
7C
  8
0
  6
CONTINUOUS
 62
     7
 10
47.1731151101
 20
31.2533724717
 30
0.0
 40
0.5625
  1
7-3-13
 41
0.7
 11
47.1731151101
 21
31.0546636869
 31
0.0
 73
     1
  0
TEXT
  5
7D
  8
0
  6
CONTINUOUS
 62
     7
 10
9.9676277988
 20
31.3015138258
 30
0.0
 40
0.5625
  1
OPEN RELAY RACK SHELF
 41
0.65
 11
9.9676277988
 21
31.102805041
 31
0.0
 73
     1
  0
TEXT
  5
7E
  8
0
  6
CONTINUOUS
 62
     7
 10
33.9894272278
 20
31.2768258673
 30
0.0
 40
0.5625
  1
SA-1750
 41
0.7
 11
33.9894272278
 21
31.0781170825
 31
0.0
 73
     1
  0
INSERT
  5
84
  8
0
  6
CONTINUOUS
 62
     7
  2
SW_NOTE_1
 10
3.8053023739
 20
31.5184147069
 30
0.0
  0
INSERT
  5
8A
  8
0
  6
CONTINUOUS
 62
     7
  2
SW_NOTE_2
 10
25.9315395689
 20
31.4963635605
 30
0.0
  0
INSERT
  5
90
  8
0
  6
CONTINUOUS
 62
     7
  2
SW_NOTE_3
 10
44.1259158823
 20
31.5101505817
 30
0.0
  0
LINE
  5
91
  8
0
  6
CONTINUOUS
 62
     7
 10
40.6516475131
 20
13.9117967505
 30
0.0
 11
48.565233334
 21
18.4802126034
 31
0.0
  0
LINE
  5
92
  8
0
  6
CONTINUOUS
 62
     7
 10
31.4282076433
 20
19.2501874426
 30
0.0
 11
40.5644386936
 21
13.9759535225
 31
0.0
  0
LINE
  5
93
  8
0
  6
CONTINUOUS
 62
     7
 10
39.2804536212
 20
23.8643621062
 30
0.0
 11
39.2804536212
 21
27.0558761226
 31
0.0
  0
LINE
  5
94
  8
0
  6
CONTINUOUS
 62
     7
 10
48.5771960283
 20
18.5066531808
 30
0.0
 11
48.5771960283
 21
18.4594979491
 31
0.0
  0
LINE
  5
95
  8
0
  6
CONTINUOUS
 62
     7
 10
40.6636102074
 20
13.9382373279
 30
0.0
 11
48.5771960283
 21
18.5066531808
 31
0.0
  0
LINE
  5
96
  8
0
  6
CONTINUOUS
 62
     7
 10
40.6636102074
 20
15.0598709261
 30
0.0
 11
40.6636102074
 21
13.9382373279
 31
0.0
  0
LINE
  5
97
  8
0
  6
CONTINUOUS
 62
     7
 10
40.6636102074
 20
15.0598709261
 30
0.0
 11
40.7299015792
 21
15.1746908599
 31
0.0
  0
LINE
  5
98
  8
0
  6
CONTINUOUS
 62
     7
 10
40.7299015792
 20
15.1746908599
 30
0.0
 11
47.0275713168
 21
20.7604511373
 31
0.0
  0
LINE
  5
99
  8
0
  6
CONTINUOUS
 62
     7
 10
48.5777261825
 20
21.6553364932
 30
0.0
 11
47.0275713168
 21
20.7604511373
 31
0.0
  0
LINE
  5
9A
  8
0
  6
CONTINUOUS
 62
     7
 10
48.5777261825
 20
18.4598040006
 30
0.0
 11
48.5777261825
 21
21.6553364932
 31
0.0
  0
LINE
  5
9B
  8
0
  6
CONTINUOUS
 62
     7
 10
48.5777261825
 20
18.4598040006
 30
0.0
 11
48.5771960283
 21
18.4594979491
 31
0.0
  0
POLYLINE
  5
9C
  8
0
  6
CONTINUOUS
 62
     7
 66
     1
 10
0.0
 20
0.0
 30
0.0
  0
VERTEX
  5
2DD
  8
0
  6
CONTINUOUS
 62
     7
 10
40.9293058487
 20
15.0965777898
 30
0.0
  0
VERTEX
  5
2DE
  8
0
  6
CONTINUOUS
 62
     7
 10
40.9255110767
 20
15.1164167066
 30
0.0
  0
VERTEX
  5
2DF
  8
0
  6
CONTINUOUS
 62
     7
 10
40.914704828
 20
15.1288541631
 30
0.0
  0
VERTEX
  5
2E0
  8
0
  6
CONTINUOUS
 62
     7
 10
40.8985317008
 20
15.1319963624
 30
0.0
  0
VERTEX
  5
2E1
  8
0
  6
CONTINUOUS
 62
     7
 10
40.879454548
 20
15.1253653293
 30
0.0
  0
VERTEX
  5
2E2
  8
0
  6
CONTINUOUS
 62
     7
 10
40.8603773951
 20
15.1099703506
 30
0.0
  0
VERTEX
  5
2E3
  8
0
  6
CONTINUOUS
 62
     7
 10
40.844204579
 20
15.0881552356
 30
0.0
  0
VERTEX
  5
2E4
  8
0
  6
CONTINUOUS
 62
     7
 10
40.8333983304
 20
15.06324115
 30
0.0
  0
VERTEX
  5
2E5
  8
0
  6
CONTINUOUS
 62
     7
 10
40.8296035584
 20
15.0390208828
 30
0.0
  0
VERTEX
  5
2E6
  8
0
  6
CONTINUOUS
 62
     7
 10
40.8333983304
 20
15.019181966
 30
0.0
  0
VERTEX
  5
2E7
  8
0
  6
CONTINUOUS
 62
     7
 10
40.844204579
 20
15.0067444197
 30
0.0
  0
VERTEX
  5
2E8
  8
0
  6
CONTINUOUS
 62
     7
 10
40.8603773951
 20
15.0036020407
 30
0.0
  0
VERTEX
  5
2E9
  8
0
  6
CONTINUOUS
 62
     7
 10
40.879454548
 20
15.0102330739
 30
0.0
  0
VERTEX
  5
2EA
  8
0
  6
CONTINUOUS
 62
     7
 10
40.8985317008
 20
15.0256280526
 30
0.0
  0
VERTEX
  5
2EB
  8
0
  6
CONTINUOUS
 62
     7
 10
40.914704828
 20
15.0474433471
 30
0.0
  0
VERTEX
  5
2EC
  8
0
  6
CONTINUOUS
 62
     7
 10
40.9255110767
 20
15.0723575226
 30
0.0
  0
VERTEX
  5
2ED
  8
0
  6
CONTINUOUS
 62
     7
 10
40.9293058487
 20
15.0965777898
 30
0.0
  0
SEQEND
  5
2EE
  8
0
  6
CONTINUOUS
 62
     7
  0
LINE
  5
9D
  8
0
  6
CONTINUOUS
 62
     7
 10
40.697021126
 20
15.1936723415
 30
0.0
 11
40.7299015792
 21
15.1746908599
 31
0.0
  0
LINE
  5
9E
  8
0
  6
CONTINUOUS
 62
     7
 10
46.9946908636
 20
20.7794326189
 30
0.0
 11
47.0275713168
 21
20.7604511373
 31
0.0
  0
LINE
  5
9F
  8
0
  6
CONTINUOUS
 62
     7
 10
46.9946908636
 20
20.7794326189
 30
0.0
 11
40.697021126
 21
15.1936723415
 31
0.0
  0
LINE
  5
A0
  8
0
  6
CONTINUOUS
 62
     7
 10
40.6307297543
 20
15.0788524077
 30
0.0
 11
40.6636102074
 21
15.0598709261
 31
0.0
  0
LINE
  5
A1
  8
0
  6
CONTINUOUS
 62
     7
 10
40.697021126
 20
15.1936723415
 30
0.0
 11
40.6307297543
 21
15.0788524077
 31
0.0
  0
LINE
  5
A2
  8
0
  6
CONTINUOUS
 62
     7
 10
40.6307297543
 20
13.9572188094
 30
0.0
 11
40.6636102074
 21
13.9382373279
 31
0.0
  0
LINE
  5
A3
  8
0
  6
CONTINUOUS
 62
     7
 10
40.6307297543
 20
15.0788524077
 30
0.0
 11
40.6307297543
 21
13.9572188094
 31
0.0
  0
ARC
  5
A4
  8
0
  6
CONTINUOUS
 62
     7
 10
40.8017726824
 20
15.1126441315
 30
0.0
 40
0.0942855468359862
 50
288.592947248
 51
11.4124988449
  0
LINE
  5
A5
  8
0
  6
CONTINUOUS
 62
     7
 10
31.4825360096
 20
19.4208555205
 30
0.0
 11
31.4162446379
 21
19.382574009
 31
0.0
  0
LINE
  5
A6
  8
0
  6
CONTINUOUS
 62
     7
 10
40.4981473219
 20
14.216253893
 30
0.0
 11
31.4825360096
 21
19.4208555205
 31
0.0
  0
LINE
  5
A7
  8
0
  6
CONTINUOUS
 62
     7
 10
40.5644386936
 20
14.1014339929
 30
0.0
 11
40.4981473219
 21
14.216253893
 31
0.0
  0
LINE
  5
A8
  8
0
  6
CONTINUOUS
 62
     7
 10
40.5644386936
 20
14.1014339929
 30
0.0
 11
40.5644386936
 21
13.9954878242
 31
0.0
  0
LINE
  5
A9
  8
0
  6
CONTINUOUS
 62
     7
 10
31.4162446379
 20
19.2766278403
 30
0.0
 11
40.5644386936
 21
13.9954878242
 31
0.0
  0
LINE
  5
AA
  8
0
  6
CONTINUOUS
 62
     7
 10
31.4162446379
 20
19.382574009
 30
0.0
 11
31.4162446379
 21
19.2766278403
 31
0.0
  0
LINE
  5
AB
  8
0
  6
CONTINUOUS
 62
     7
 10
40.5310277751
 20
14.2352353746
 30
0.0
 11
40.5973191468
 21
14.1204154745
 31
0.0
  0
LINE
  5
AC
  8
0
  6
CONTINUOUS
 62
     7
 10
40.5973191468
 20
14.1204154745
 30
0.0
 11
40.5644386936
 21
14.1014339929
 31
0.0
  0
LINE
  5
AD
  8
0
  6
CONTINUOUS
 62
     7
 10
40.5310277751
 20
14.2352353746
 30
0.0
 11
40.4981473219
 21
14.216253893
 31
0.0
  0
ARC
  5
AE
  8
0
  6
CONTINUOUS
 62
     7
 10
40.6387157773
 20
13.9341988658
 30
0.0
 40
0.0252198697516171
 50
230.7966897537
 51
9.2144518445
  0
LINE
  5
AF
  8
0
  6
CONTINUOUS
 62
     7
 10
40.6227749514
 20
13.9526249355
 30
0.0
 11
40.6227749514
 21
13.9146557877
 31
0.0
  0
ARC
  5
B0
  8
0
  6
CONTINUOUS
 62
     7
 10
40.6258802054
 20
13.9564320926
 30
0.0
 40
0.0049129469232168
 50
230.7980802962
 51
9.2145210626
  0
ARC
  5
B1
  8
0
  6
CONTINUOUS
 62
     7
 10
48.5490251148
 20
18.5034722719
 30
0.0
 40
0.0283499303105133
 50
304.8702465339
 51
6.4422463924
  0
LINE
  5
B2
  8
0
  6
CONTINUOUS
 62
     7
 10
40.5973191468
 20
14.0144693058
 30
0.0
 11
40.5644386936
 21
13.9954878242
 31
0.0
  0
LINE
  5
B3
  8
0
  6
CONTINUOUS
 62
     7
 10
40.5973191468
 20
14.1204154745
 30
0.0
 11
40.5973191468
 21
14.0144693058
 31
0.0
  0
LINE
  5
B4
  8
0
  6
CONTINUOUS
 62
     7
 10
31.5154164628
 20
19.4398370021
 30
0.0
 11
31.4825360096
 21
19.4208555205
 31
0.0
  0
LINE
  5
B5
  8
0
  6
CONTINUOUS
 62
     7
 10
40.5310277751
 20
14.2352353746
 30
0.0
 11
31.5154164628
 21
19.4398370021
 31
0.0
  0
LINE
  5
B6
  8
0
  6
CONTINUOUS
 62
     7
 10
40.6227749514
 20
13.9526249355
 30
0.0
 11
40.6307300654
 21
13.957217325
 31
0.0
  0
LINE
  5
B7
  8
0
  6
CONTINUOUS
 62
     7
 10
40.6227749514
 20
13.9526249355
 30
0.0
 11
40.5644386936
 21
13.9863017403
 31
0.0
  0
LINE
  5
B8
  8
0
  6
CONTINUOUS
 62
     7
 10
40.5644386936
 20
13.9863017403
 30
0.0
 11
40.565221169
 21
13.9867534536
 31
0.0
  0
LINE
  5
B9
  8
0
  6
CONTINUOUS
 62
     7
 10
40.565221169
 20
13.9867534536
 30
0.0
 11
40.6052742608
 21
14.0098756114
 31
0.0
  0
LINE
  5
BA
  8
0
  6
CONTINUOUS
 62
     7
 10
40.5973191468
 20
14.0144680009
 30
0.0
 11
40.6052742608
 21
14.0098756114
 31
0.0
  0
LINE
  5
BB
  8
0
  6
CONTINUOUS
 62
     7
 10
31.4162446379
 20
19.2674417564
 30
0.0
 11
31.4170271132
 21
19.2678934698
 31
0.0
  0
LINE
  5
BC
  8
0
  6
CONTINUOUS
 62
     7
 10
31.4162446379
 20
19.2674417564
 30
0.0
 11
31.3573779147
 21
19.3014247924
 31
0.0
  0
LINE
  5
BD
  8
0
  6
CONTINUOUS
 62
     7
 10
39.2709637355
 20
23.8698406453
 30
0.0
 11
31.5562787865
 21
19.4162478216
 31
0.0
  0
LINE
  5
BE
  8
0
  6
CONTINUOUS
 62
     7
 10
31.4162446379
 20
19.3354078283
 30
0.0
 11
31.3573779147
 21
19.3014247924
 31
0.0
  0
LINE
  5
BF
  8
0
  6
CONTINUOUS
 62
     7
 10
39.2709637355
 20
23.8698406453
 30
0.0
 11
39.3295653816
 21
23.8360106351
 31
0.0
  0
LINE
  5
C0
  8
0
  6
CONTINUOUS
 62
     7
 10
39.3295653816
 20
23.8360106351
 30
0.0
 11
39.3300955358
 21
23.8363166866
 31
0.0
  0
LINE
  5
C1
  8
0
  6
CONTINUOUS
 62
     7
 10
46.0605623315
 20
19.9509009089
 30
0.0
 11
39.3300955358
 21
23.8363166866
 31
0.0
  0
LINE
  5
C2
  8
0
  6
CONTINUOUS
 62
     7
 10
40.5644386936
 20
13.9863017403
 30
0.0
 11
40.5644386936
 21
13.9483325925
 31
0.0
  0
LINE
  5
C3
  8
0
  6
CONTINUOUS
 62
     7
 10
40.6227749514
 20
13.9146557877
 30
0.0
 11
40.5644386936
 21
13.9483325925
 31
0.0
  0
ARC
  5
C4
  8
0
  6
CONTINUOUS
 62
     7
 10
40.6111255972
 20
13.9952680719
 30
0.0
 40
0.0466874207237242
 50
179.7303143865
 51
190.5081273368
  0
ARC
  5
C5
  8
0
  6
CONTINUOUS
 62
     7
 10
31.4413533695
 20
19.2708713606
 30
0.0
 40
0.0245078473138835
 50
186.9791209093
 51
237.5618783605
  0
ARC
  5
C6
  8
0
  6
CONTINUOUS
 62
     7
 10
31.4629315414
 20
19.276408088
 30
0.0
 40
0.0466874207235963
 50
179.7303143866
 51
190.5081273368
  0
ARC
  5
C7
  8
0
  6
CONTINUOUS
 62
     7
 10
40.6021688697
 20
14.0136828288
 30
0.0
 40
0.0049130803006623
 50
170.7885656103
 51
309.2027141277
  0
LINE
  5
C8
  8
0
  6
CONTINUOUS
 62
     7
 10
48.5448457294
 20
21.6743179748
 30
0.0
 11
48.5777261825
 21
21.6553364932
 31
0.0
  0
LINE
  5
C9
  8
0
  6
CONTINUOUS
 62
     7
 10
48.5448457294
 20
21.6743179748
 30
0.0
 11
46.9946908636
 21
20.7794326189
 31
0.0
  0
LINE
  5
CA
  8
0
  6
CONTINUOUS
 62
     7
 10
48.9502833744
 20
21.4494485833
 30
0.0
 11
48.9502833744
 21
18.2539160908
 31
0.0
  0
LINE
  5
CB
  8
0
  6
CONTINUOUS
 62
     7
 10
48.9502833744
 20
21.4494485833
 30
0.0
 11
48.9831638276
 21
21.4684300649
 31
0.0
  0
LINE
  5
CC
  8
0
  6
CONTINUOUS
 62
     7
 10
48.9831638276
 20
21.4684300649
 30
0.0
 11
48.9831638276
 21
18.2728975724
 31
0.0
  0
LINE
  5
CD
  8
0
  6
CONTINUOUS
 62
     7
 10
48.9502833744
 20
18.2539160908
 30
0.0
 11
48.9831638276
 21
18.2728975724
 31
0.0
  0
LINE
  5
CE
  8
0
  6
CONTINUOUS
 62
     7
 10
48.9502833744
 20
18.2539160908
 30
0.0
 11
48.5936364104
 21
18.4598040006
 31
0.0
  0
LINE
  5
CF
  8
0
  6
CONTINUOUS
 62
     7
 10
48.5936364104
 20
21.6553364932
 30
0.0
 11
48.5936364104
 21
18.4598040006
 31
0.0
  0
LINE
  5
D0
  8
0
  6
CONTINUOUS
 62
     7
 10
48.9502833744
 20
21.4494485833
 30
0.0
 11
48.5936364104
 21
21.6553364932
 31
0.0
  0
POLYLINE
  5
D1
  8
0
  6
CONTINUOUS
 62
     7
 66
     1
 10
0.0
 20
0.0
 30
0.0
  0
VERTEX
  5
2EF
  8
0
  6
CONTINUOUS
 62
     7
 10
48.7349691881
 20
21.5164868358
 30
0.0
  0
VERTEX
  5
2F0
  8
0
  6
CONTINUOUS
 62
     7
 10
48.7094850713
 20
21.5260095117
 30
0.0
  0
VERTEX
  5
2F1
  8
0
  6
CONTINUOUS
 62
     7
 10
48.6870742313
 20
21.5240058944
 30
0.0
  0
VERTEX
  5
2F2
  8
0
  6
CONTINUOUS
 62
     7
 10
48.6704406415
 20
21.5107167715
 30
0.0
  0
VERTEX
  5
2F3
  8
0
  6
CONTINUOUS
 62
     7
 10
48.6615898033
 20
21.4877461295
 30
0.0
  0
VERTEX
  5
2F4
  8
0
  6
CONTINUOUS
 62
     7
 10
48.6615898033
 20
21.4578635306
 30
0.0
  0
VERTEX
  5
2F5
  8
0
  6
CONTINUOUS
 62
     7
 10
48.6704406415
 20
21.4246739283
 30
0.0
  0
VERTEX
  5
2F6
  8
0
  6
CONTINUOUS
 62
     7
 10
48.6870742313
 20
21.392180251
 30
0.0
  0
VERTEX
  5
2F7
  8
0
  6
CONTINUOUS
 62
     7
 10
48.7094850713
 20
21.3643016287
 30
0.0
  0
VERTEX
  5
2F8
  8
0
  6
CONTINUOUS
 62
     7
 10
48.7349691881
 20
21.3444009696
 30
0.0
  0
SEQEND
  5
2F9
  8
0
  6
CONTINUOUS
 62
     7
  0
LINE
  5
D2
  8
0
  6
CONTINUOUS
 62
     7
 10
48.7349691881
 20
21.3444009696
 30
0.0
 11
48.817700942
 21
21.2966409447
 31
0.0
  0
POLYLINE
  5
D3
  8
0
  6
CONTINUOUS
 62
     7
 66
     1
 10
0.0
 20
0.0
 30
0.0
  0
VERTEX
  5
2FA
  8
0
  6
CONTINUOUS
 62
     7
 10
48.817700942
 20
21.4687268109
 30
0.0
  0
VERTEX
  5
2FB
  8
0
  6
CONTINUOUS
 62
     7
 10
48.8431850589
 20
21.4488261518
 30
0.0
  0
VERTEX
  5
2FC
  8
0
  6
CONTINUOUS
 62
     7
 10
48.8655958989
 20
21.4209475294
 30
0.0
  0
VERTEX
  5
2FD
  8
0
  6
CONTINUOUS
 62
     7
 10
48.8822294887
 20
21.3884536725
 30
0.0
  0
VERTEX
  5
2FE
  8
0
  6
CONTINUOUS
 62
     7
 10
48.8910803268
 20
21.3552640702
 30
0.0
  0
VERTEX
  5
2FF
  8
0
  6
CONTINUOUS
 62
     7
 10
48.8910803268
 20
21.3253814713
 30
0.0
  0
VERTEX
  5
300
  8
0
  6
CONTINUOUS
 62
     7
 10
48.8822294887
 20
21.3024108293
 30
0.0
  0
VERTEX
  5
301
  8
0
  6
CONTINUOUS
 62
     7
 10
48.8655958989
 20
21.289121886
 30
0.0
  0
VERTEX
  5
302
  8
0
  6
CONTINUOUS
 62
     7
 10
48.8431850589
 20
21.2871182687
 30
0.0
  0
VERTEX
  5
303
  8
0
  6
CONTINUOUS
 62
     7
 10
48.817700942
 20
21.2966409447
 30
0.0
  0
SEQEND
  5
304
  8
0
  6
CONTINUOUS
 62
     7
  0
LINE
  5
D4
  8
0
  6
CONTINUOUS
 62
     7
 10
48.817700942
 20
21.4687268109
 30
0.0
 11
48.7349691881
 21
21.5164868358
 31
0.0
  0
POLYLINE
  5
D5
  8
0
  6
CONTINUOUS
 62
     7
 66
     1
 10
0.0
 20
0.0
 30
0.0
  0
VERTEX
  5
305
  8
0
  6
CONTINUOUS
 62
     7
 10
48.7349691881
 20
20.7509798002
 30
0.0
  0
VERTEX
  5
306
  8
0
  6
CONTINUOUS
 62
     7
 10
48.7094850713
 20
20.7605024761
 30
0.0
  0
VERTEX
  5
307
  8
0
  6
CONTINUOUS
 62
     7
 10
48.6870742313
 20
20.7584988589
 30
0.0
  0
VERTEX
  5
308
  8
0
  6
CONTINUOUS
 62
     7
 10
48.6704406415
 20
20.7452099156
 30
0.0
  0
VERTEX
  5
309
  8
0
  6
CONTINUOUS
 62
     7
 10
48.6615898033
 20
20.7222390939
 30
0.0
  0
VERTEX
  5
30A
  8
0
  6
CONTINUOUS
 62
     7
 10
48.6615898033
 20
20.6923566747
 30
0.0
  0
VERTEX
  5
30B
  8
0
  6
CONTINUOUS
 62
     7
 10
48.6704406415
 20
20.6591668927
 30
0.0
  0
VERTEX
  5
30C
  8
0
  6
CONTINUOUS
 62
     7
 10
48.6870742313
 20
20.6266732155
 30
0.0
  0
VERTEX
  5
30D
  8
0
  6
CONTINUOUS
 62
     7
 10
48.7094850713
 20
20.5987945931
 30
0.0
  0
VERTEX
  5
30E
  8
0
  6
CONTINUOUS
 62
     7
 10
48.7349691881
 20
20.578893934
 30
0.0
  0
SEQEND
  5
30F
  8
0
  6
CONTINUOUS
 62
     7
  0
LINE
  5
D6
  8
0
  6
CONTINUOUS
 62
     7
 10
48.7349691881
 20
20.578893934
 30
0.0
 11
48.817700942
 21
20.5311339091
 31
0.0
  0
POLYLINE
  5
D7
  8
0
  6
CONTINUOUS
 62
     7
 66
     1
 10
0.0
 20
0.0
 30
0.0
  0
VERTEX
  5
310
  8
0
  6
CONTINUOUS
 62
     7
 10
48.817700942
 20
20.7032197753
 30
0.0
  0
VERTEX
  5
311
  8
0
  6
CONTINUOUS
 62
     7
 10
48.8431850589
 20
20.6833191162
 30
0.0
  0
VERTEX
  5
312
  8
0
  6
CONTINUOUS
 62
     7
 10
48.8655958989
 20
20.6554404938
 30
0.0
  0
VERTEX
  5
313
  8
0
  6
CONTINUOUS
 62
     7
 10
48.8822294887
 20
20.6229468166
 30
0.0
  0
VERTEX
  5
314
  8
0
  6
CONTINUOUS
 62
     7
 10
48.8910803268
 20
20.5897570346
 30
0.0
  0
VERTEX
  5
315
  8
0
  6
CONTINUOUS
 62
     7
 10
48.8910803268
 20
20.5598746154
 30
0.0
  0
VERTEX
  5
316
  8
0
  6
CONTINUOUS
 62
     7
 10
48.8822294887
 20
20.5369037937
 30
0.0
  0
VERTEX
  5
317
  8
0
  6
CONTINUOUS
 62
     7
 10
48.8655958989
 20
20.5236148504
 30
0.0
  0
VERTEX
  5
318
  8
0
  6
CONTINUOUS
 62
     7
 10
48.8431850589
 20
20.5216112332
 30
0.0
  0
VERTEX
  5
319
  8
0
  6
CONTINUOUS
 62
     7
 10
48.817700942
 20
20.5311339091
 30
0.0
  0
SEQEND
  5
31A
  8
0
  6
CONTINUOUS
 62
     7
  0
LINE
  5
D8
  8
0
  6
CONTINUOUS
 62
     7
 10
48.817700942
 20
20.7032197753
 30
0.0
 11
48.7349691881
 21
20.7509798002
 31
0.0
  0
POLYLINE
  5
D9
  8
0
  6
CONTINUOUS
 62
     7
 66
     1
 10
0.0
 20
0.0
 30
0.0
  0
VERTEX
  5
31B
  8
0
  6
CONTINUOUS
 62
     7
 10
48.7349691881
 20
19.373067208
 30
0.0
  0
VERTEX
  5
31C
  8
0
  6
CONTINUOUS
 62
     7
 10
48.7094850713
 20
19.3825898839
 30
0.0
  0
VERTEX
  5
31D
  8
0
  6
CONTINUOUS
 62
     7
 10
48.6870742313
 20
19.3805861769
 30
0.0
  0
VERTEX
  5
31E
  8
0
  6
CONTINUOUS
 62
     7
 10
48.6704406415
 20
19.3672973234
 30
0.0
  0
VERTEX
  5
31F
  8
0
  6
CONTINUOUS
 62
     7
 10
48.6615898033
 20
19.3443265017
 30
0.0
  0
VERTEX
  5
320
  8
0
  6
CONTINUOUS
 62
     7
 10
48.6615898033
 20
19.3144440825
 30
0.0
  0
VERTEX
  5
321
  8
0
  6
CONTINUOUS
 62
     7
 10
48.6704406415
 20
19.2812543005
 30
0.0
  0
VERTEX
  5
322
  8
0
  6
CONTINUOUS
 62
     7
 10
48.6870742313
 20
19.2487606233
 30
0.0
  0
VERTEX
  5
323
  8
0
  6
CONTINUOUS
 62
     7
 10
48.7094850713
 20
19.2208819111
 30
0.0
  0
VERTEX
  5
324
  8
0
  6
CONTINUOUS
 62
     7
 10
48.7349691881
 20
19.200981252
 30
0.0
  0
SEQEND
  5
325
  8
0
  6
CONTINUOUS
 62
     7
  0
LINE
  5
DA
  8
0
  6
CONTINUOUS
 62
     7
 10
48.7349691881
 20
19.200981252
 30
0.0
 11
48.817700942
 21
19.1532212271
 31
0.0
  0
POLYLINE
  5
DB
  8
0
  6
CONTINUOUS
 62
     7
 66
     1
 10
0.0
 20
0.0
 30
0.0
  0
VERTEX
  5
326
  8
0
  6
CONTINUOUS
 62
     7
 10
48.817700942
 20
19.3253071831
 30
0.0
  0
VERTEX
  5
327
  8
0
  6
CONTINUOUS
 62
     7
 10
48.8431850589
 20
19.305406524
 30
0.0
  0
VERTEX
  5
328
  8
0
  6
CONTINUOUS
 62
     7
 10
48.8655958989
 20
19.2775278118
 30
0.0
  0
VERTEX
  5
329
  8
0
  6
CONTINUOUS
 62
     7
 10
48.8822294887
 20
19.2450342244
 30
0.0
  0
VERTEX
  5
32A
  8
0
  6
CONTINUOUS
 62
     7
 10
48.8910803268
 20
19.2118444425
 30
0.0
  0
VERTEX
  5
32B
  8
0
  6
CONTINUOUS
 62
     7
 10
48.8910803268
 20
19.1819620232
 30
0.0
  0
VERTEX
  5
32C
  8
0
  6
CONTINUOUS
 62
     7
 10
48.8822294887
 20
19.1589912015
 30
0.0
  0
VERTEX
  5
32D
  8
0
  6
CONTINUOUS
 62
     7
 10
48.8655958989
 20
19.1457022583
 30
0.0
  0
VERTEX
  5
32E
  8
0
  6
CONTINUOUS
 62
     7
 10
48.8431850589
 20
19.1436985512
 30
0.0
  0
VERTEX
  5
32F
  8
0
  6
CONTINUOUS
 62
     7
 10
48.817700942
 20
19.1532212271
 30
0.0
  0
SEQEND
  5
330
  8
0
  6
CONTINUOUS
 62
     7
  0
LINE
  5
DC
  8
0
  6
CONTINUOUS
 62
     7
 10
48.817700942
 20
19.3253071831
 30
0.0
 11
48.7349691881
 21
19.373067208
 31
0.0
  0
POLYLINE
  5
DD
  8
0
  6
CONTINUOUS
 62
     7
 66
     1
 10
0.0
 20
0.0
 30
0.0
  0
VERTEX
  5
331
  8
0
  6
CONTINUOUS
 62
     7
 10
48.7349691881
 20
18.6075602174
 30
0.0
  0
VERTEX
  5
332
  8
0
  6
CONTINUOUS
 62
     7
 10
48.7094850713
 20
18.6170828708
 30
0.0
  0
VERTEX
  5
333
  8
0
  6
CONTINUOUS
 62
     7
 10
48.6870742313
 20
18.6150791638
 30
0.0
  0
VERTEX
  5
334
  8
0
  6
CONTINUOUS
 62
     7
 10
48.6704406415
 20
18.6017902654
 30
0.0
  0
VERTEX
  5
335
  8
0
  6
CONTINUOUS
 62
     7
 10
48.6615898033
 20
18.5788194662
 30
0.0
  0
VERTEX
  5
336
  8
0
  6
CONTINUOUS
 62
     7
 10
48.6615898033
 20
18.5489370469
 30
0.0
  0
VERTEX
  5
337
  8
0
  6
CONTINUOUS
 62
     7
 10
48.6704406415
 20
18.5157472762
 30
0.0
  0
VERTEX
  5
338
  8
0
  6
CONTINUOUS
 62
     7
 10
48.6870742313
 20
18.4832536551
 30
0.0
  0
VERTEX
  5
339
  8
0
  6
CONTINUOUS
 62
     7
 10
48.7094850713
 20
18.4553749429
 30
0.0
  0
VERTEX
  5
33A
  8
0
  6
CONTINUOUS
 62
     7
 10
48.7349691881
 20
18.4354742501
 30
0.0
  0
SEQEND
  5
33B
  8
0
  6
CONTINUOUS
 62
     7
  0
LINE
  5
DE
  8
0
  6
CONTINUOUS
 62
     7
 10
48.7349691881
 20
18.4354742501
 30
0.0
 11
48.817700942
 21
18.3877142252
 31
0.0
  0
POLYLINE
  5
DF
  8
0
  6
CONTINUOUS
 62
     7
 66
     1
 10
0.0
 20
0.0
 30
0.0
  0
VERTEX
  5
33C
  8
0
  6
CONTINUOUS
 62
     7
 10
48.817700942
 20
18.5598001924
 30
0.0
  0
VERTEX
  5
33D
  8
0
  6
CONTINUOUS
 62
     7
 10
48.8431850589
 20
18.5398995109
 30
0.0
  0
VERTEX
  5
33E
  8
0
  6
CONTINUOUS
 62
     7
 10
48.8655958989
 20
18.5120207987
 30
0.0
  0
VERTEX
  5
33F
  8
0
  6
CONTINUOUS
 62
     7
 10
48.8822294887
 20
18.4795271664
 30
0.0
  0
VERTEX
  5
340
  8
0
  6
CONTINUOUS
 62
     7
 10
48.8910803268
 20
18.4463374069
 30
0.0
  0
VERTEX
  5
341
  8
0
  6
CONTINUOUS
 62
     7
 10
48.8910803268
 20
18.4164549876
 30
0.0
  0
VERTEX
  5
342
  8
0
  6
CONTINUOUS
 62
     7
 10
48.8822294887
 20
18.3934841772
 30
0.0
  0
VERTEX
  5
343
  8
0
  6
CONTINUOUS
 62
     7
 10
48.8655958989
 20
18.38019529
 30
0.0
  0
VERTEX
  5
344
  8
0
  6
CONTINUOUS
 62
     7
 10
48.8431850589
 20
18.378191583
 30
0.0
  0
VERTEX
  5
345
  8
0
  6
CONTINUOUS
 62
     7
 10
48.817700942
 20
18.3877142252
 30
0.0
  0
SEQEND
  5
346
  8
0
  6
CONTINUOUS
 62
     7
  0
LINE
  5
E0
  8
0
  6
CONTINUOUS
 62
     7
 10
48.817700942
 20
18.5598001924
 30
0.0
 11
48.7349691881
 21
18.6075602174
 31
0.0
  0
LINE
  5
E1
  8
0
  6
CONTINUOUS
 62
     7
 10
48.5936364104
 20
21.6553364932
 30
0.0
 11
48.6265168636
 21
21.6743179748
 31
0.0
  0
LINE
  5
E2
  8
0
  6
CONTINUOUS
 62
     7
 10
48.6265168636
 20
21.6743179748
 30
0.0
 11
48.9831638276
 21
21.4684300649
 31
0.0
  0
LINE
  5
E3
  8
0
  6
CONTINUOUS
 62
     7
 10
48.817700942
 20
21.2966409447
 30
0.0
 11
48.8505813952
 21
21.3156224262
 31
0.0
  0
POLYLINE
  5
E4
  8
0
  6
CONTINUOUS
 62
     7
 66
     1
 10
0.0
 20
0.0
 30
0.0
  0
VERTEX
  5
347
  8
0
  6
CONTINUOUS
 62
     7
 10
48.8841942329
 20
21.3054705265
 30
0.0
  0
VERTEX
  5
348
  8
0
  6
CONTINUOUS
 62
     7
 10
48.8760655121
 20
21.3060997503
 30
0.0
  0
VERTEX
  5
349
  8
0
  6
CONTINUOUS
 62
     7
 10
48.8505813952
 20
21.3156224262
 30
0.0
  0
SEQEND
  5
34A
  8
0
  6
CONTINUOUS
 62
     7
  0
LINE
  5
E5
  8
0
  6
CONTINUOUS
 62
     7
 10
48.7349691881
 20
21.3444009696
 30
0.0
 11
48.7678496413
 21
21.3633824512
 31
0.0
  0
ARC
  5
E6
  8
0
  6
CONTINUOUS
 62
     7
 10
48.8336304691
 20
21.4853438645
 30
0.0
 40
0.1385702119326893
 50
162.6620986144
 51
241.6594538384
  0
LINE
  5
E7
  8
0
  6
CONTINUOUS
 62
     7
 10
48.7678496413
 20
21.3633824512
 30
0.0
 11
48.8505813952
 21
21.3156224262
 31
0.0
  0
ARC
  5
E8
  8
0
  6
CONTINUOUS
 62
     7
 10
48.5856812965
 20
21.6399819123
 30
0.0
 40
0.0172929751950549
 50
62.6116037945
 51
117.3883962055
  0
ARC
  5
E9
  8
0
  6
CONTINUOUS
 62
     7
 10
48.5856812965
 20
21.5955053728
 30
0.0
 40
0.0887635610920583
 50
62.6097453919
 51
117.3902546081
  0
ARC
  5
EA
  8
0
  6
CONTINUOUS
 62
     7
 10
48.5856812965
 20
18.4444494198
 30
0.0
 40
0.0172929751950517
 50
62.6116037945
 51
117.3883962055
  0
LINE
  5
EB
  8
0
  6
CONTINUOUS
 62
     7
 10
48.817700942
 20
20.5311339091
 30
0.0
 11
48.8505813952
 21
20.5501153907
 31
0.0
  0
POLYLINE
  5
EC
  8
0
  6
CONTINUOUS
 62
     7
 66
     1
 10
0.0
 20
0.0
 30
0.0
  0
VERTEX
  5
34B
  8
0
  6
CONTINUOUS
 62
     7
 10
48.8841942329
 20
20.5399634909
 30
0.0
  0
VERTEX
  5
34C
  8
0
  6
CONTINUOUS
 62
     7
 10
48.8760655121
 20
20.5405927148
 30
0.0
  0
VERTEX
  5
34D
  8
0
  6
CONTINUOUS
 62
     7
 10
48.8505813952
 20
20.5501153907
 30
0.0
  0
SEQEND
  5
34E
  8
0
  6
CONTINUOUS
 62
     7
  0
LINE
  5
ED
  8
0
  6
CONTINUOUS
 62
     7
 10
48.7349691881
 20
20.578893934
 30
0.0
 11
48.7678496413
 21
20.5978754156
 31
0.0
  0
ARC
  5
EE
  8
0
  6
CONTINUOUS
 62
     7
 10
48.8336304691
 20
20.7198368289
 30
0.0
 40
0.138570211932684
 50
162.6620986144
 51
241.6594538384
  0
LINE
  5
EF
  8
0
  6
CONTINUOUS
 62
     7
 10
48.7678496413
 20
20.5978754156
 30
0.0
 11
48.8505813952
 21
20.5501153907
 31
0.0
  0
POLYLINE
  5
F0
  8
0
  6
CONTINUOUS
 62
     7
 66
     1
 10
0.0
 20
0.0
 30
0.0
  0
VERTEX
  5
34F
  8
0
  6
CONTINUOUS
 62
     7
 10
31.6151187531
 20
20.4735435482
 30
0.0
  0
VERTEX
  5
350
  8
0
  6
CONTINUOUS
 62
     7
 10
31.6113239811
 20
20.493382465
 30
0.0
  0
VERTEX
  5
351
  8
0
  6
CONTINUOUS
 62
     7
 10
31.6005177324
 20
20.5058199214
 30
0.0
  0
VERTEX
  5
352
  8
0
  6
CONTINUOUS
 62
     7
 10
31.5843446053
 20
20.5089621208
 30
0.0
  0
VERTEX
  5
353
  8
0
  6
CONTINUOUS
 62
     7
 10
31.5652674524
 20
20.5023310876
 30
0.0
  0
VERTEX
  5
354
  8
0
  6
CONTINUOUS
 62
     7
 10
31.5461902995
 20
20.4869361089
 30
0.0
  0
VERTEX
  5
355
  8
0
  6
CONTINUOUS
 62
     7
 10
31.5300174835
 20
20.465120994
 30
0.0
  0
VERTEX
  5
356
  8
0
  6
CONTINUOUS
 62
     7
 10
31.5192112348
 20
20.4402069084
 30
0.0
  0
VERTEX
  5
357
  8
0
  6
CONTINUOUS
 62
     7
 10
31.5154164628
 20
20.4159866411
 30
0.0
  0
VERTEX
  5
358
  8
0
  6
CONTINUOUS
 62
     7
 10
31.5192112348
 20
20.3961477243
 30
0.0
  0
VERTEX
  5
359
  8
0
  6
CONTINUOUS
 62
     7
 10
31.5300174835
 20
20.3837101781
 30
0.0
  0
VERTEX
  5
35A
  8
0
  6
CONTINUOUS
 62
     7
 10
31.5461902995
 20
20.3805677991
 30
0.0
  0
VERTEX
  5
35B
  8
0
  6
CONTINUOUS
 62
     7
 10
31.5652674524
 20
20.3871988322
 30
0.0
  0
VERTEX
  5
35C
  8
0
  6
CONTINUOUS
 62
     7
 10
31.5843446053
 20
20.402593811
 30
0.0
  0
VERTEX
  5
35D
  8
0
  6
CONTINUOUS
 62
     7
 10
31.6005177324
 20
20.4244091055
 30
0.0
  0
VERTEX
  5
35E
  8
0
  6
CONTINUOUS
 62
     7
 10
31.6113239811
 20
20.4493232809
 30
0.0
  0
VERTEX
  5
35F
  8
0
  6
CONTINUOUS
 62
     7
 10
31.6151187531
 20
20.4735435482
 30
0.0
  0
SEQEND
  5
360
  8
0
  6
CONTINUOUS
 62
     7
  0
LINE
  5
F1
  8
0
  6
CONTINUOUS
 62
     7
 10
39.2630089327
 20
23.8836189391
 30
0.0
 11
31.5403676253
 21
19.4254330075
 31
0.0
  0
LINE
  5
F2
  8
0
  6
CONTINUOUS
 62
     7
 10
31.416244949
 20
19.3537785117
 30
0.0
 11
31.3494231119
 21
19.3152030862
 31
0.0
  0
LINE
  5
F3
  8
0
  6
CONTINUOUS
 62
     7
 10
31.3494231119
 20
19.3152030862
 30
0.0
 11
31.3494231119
 21
20.4368366845
 31
0.0
  0
LINE
  5
F4
  8
0
  6
CONTINUOUS
 62
     7
 10
31.3494231119
 20
20.4368366845
 30
0.0
 11
31.4157144836
 21
20.5516566183
 31
0.0
  0
LINE
  5
F5
  8
0
  6
CONTINUOUS
 62
     7
 10
31.4157144836
 20
20.5516566183
 30
0.0
 11
37.7133842212
 21
26.1374168957
 31
0.0
  0
LINE
  5
F6
  8
0
  6
CONTINUOUS
 62
     7
 10
39.263539087
 20
27.0323022515
 30
0.0
 11
37.7133842212
 21
26.1374168957
 31
0.0
  0
LINE
  5
F7
  8
0
  6
CONTINUOUS
 62
     7
 10
39.263539087
 20
27.0323022515
 30
0.0
 11
39.263539087
 21
23.8800147808
 31
0.0
  0
LINE
  5
F8
  8
0
  6
CONTINUOUS
 62
     7
 10
37.7133842212
 20
26.1374168957
 30
0.0
 11
37.680503768
 21
26.1563983773
 31
0.0
  0
LINE
  5
F9
  8
0
  6
CONTINUOUS
 62
     7
 10
31.4157144836
 20
20.5516566183
 30
0.0
 11
31.3828340304
 21
20.5706380999
 31
0.0
  0
LINE
  5
FA
  8
0
  6
CONTINUOUS
 62
     7
 10
31.3828340304
 20
20.5706380999
 30
0.0
 11
37.680503768
 21
26.1563983773
 31
0.0
  0
LINE
  5
FB
  8
0
  6
CONTINUOUS
 62
     7
 10
48.817700942
 20
19.1532212271
 30
0.0
 11
48.8505813952
 21
19.1722027087
 31
0.0
  0
POLYLINE
  5
FC
  8
0
  6
CONTINUOUS
 62
     7
 66
     1
 10
0.0
 20
0.0
 30
0.0
  0
VERTEX
  5
361
  8
0
  6
CONTINUOUS
 62
     7
 10
48.8841942329
 20
19.1620508987
 30
0.0
  0
VERTEX
  5
362
  8
0
  6
CONTINUOUS
 62
     7
 10
48.8760655121
 20
19.1626800328
 30
0.0
  0
VERTEX
  5
363
  8
0
  6
CONTINUOUS
 62
     7
 10
48.8505813952
 20
19.1722027087
 30
0.0
  0
SEQEND
  5
364
  8
0
  6
CONTINUOUS
 62
     7
  0
LINE
  5
FD
  8
0
  6
CONTINUOUS
 62
     7
 10
48.7349691881
 20
19.200981252
 30
0.0
 11
48.7678496413
 21
19.2199627336
 31
0.0
  0
ARC
  5
FE
  8
0
  6
CONTINUOUS
 62
     7
 10
48.8336305641
 20
19.3419242083
 30
0.0
 40
0.1385703110611255
 50
162.6620991014
 51
241.6594313271
  0
LINE
  5
FF
  8
0
  6
CONTINUOUS
 62
     7
 10
48.7678496413
 20
19.2199627336
 30
0.0
 11
48.8505813952
 21
19.1722027087
 31
0.0
  0
LINE
  5
100
  8
0
  6
CONTINUOUS
 62
     7
 10
48.817700942
 20
18.3877142252
 30
0.0
 11
48.8505813952
 21
18.4066957068
 31
0.0
  0
POLYLINE
  5
101
  8
0
  6
CONTINUOUS
 62
     7
 66
     1
 10
0.0
 20
0.0
 30
0.0
  0
VERTEX
  5
365
  8
0
  6
CONTINUOUS
 62
     7
 10
48.8841942329
 20
18.3965438856
 30
0.0
  0
VERTEX
  5
366
  8
0
  6
CONTINUOUS
 62
     7
 10
48.8760655121
 20
18.3971730646
 30
0.0
  0
VERTEX
  5
367
  8
0
  6
CONTINUOUS
 62
     7
 10
48.8505813952
 20
18.4066957068
 30
0.0
  0
SEQEND
  5
368
  8
0
  6
CONTINUOUS
 62
     7
  0
LINE
  5
102
  8
0
  6
CONTINUOUS
 62
     7
 10
48.7349691881
 20
18.4354742501
 30
0.0
 11
48.7678496413
 21
18.4544557317
 31
0.0
  0
ARC
  5
103
  8
0
  6
CONTINUOUS
 62
     7
 10
48.8336306312
 20
18.5764172309
 30
0.0
 40
0.1385703644974153
 50
162.6621214764
 51
241.6594117052
  0
LINE
  5
104
  8
0
  6
CONTINUOUS
 62
     7
 10
48.7678496413
 20
18.4544557317
 30
0.0
 11
48.8505813952
 21
18.4066957068
 31
0.0
  0
LINE
  5
105
  8
0
  6
CONTINUOUS
 62
     7
 10
39.3380506498
 20
23.9560413288
 30
0.0
 11
39.3380506498
 21
23.8500951601
 31
0.0
  0
LINE
  5
106
  8
0
  6
CONTINUOUS
 62
     7
 10
39.4043417104
 20
23.9943230199
 30
0.0
 11
39.3380506498
 21
23.9560413288
 31
0.0
  0
LINE
  5
107
  8
0
  6
CONTINUOUS
 62
     7
 10
46.1977442565
 20
20.0725752067
 30
0.0
 11
39.4043417104
 21
23.9943230199
 31
0.0
  0
LINE
  5
108
  8
0
  6
CONTINUOUS
 62
     7
 10
46.0731086933
 20
19.9620289113
 30
0.0
 11
39.3380506498
 21
23.8500951601
 31
0.0
  0
LINE
  5
109
  8
0
  6
CONTINUOUS
 62
     7
 10
48.5532734397
 20
18.4733081655
 30
0.0
 11
48.5771960283
 21
18.4594979491
 31
0.0
  0
LINE
  5
10A
  8
0
  6
CONTINUOUS
 62
     7
 10
39.4043417104
 20
23.9943230199
 30
0.0
 11
39.4372221636
 21
24.0133045015
 31
0.0
  0
LINE
  5
10B
  8
0
  6
CONTINUOUS
 62
     7
 10
46.2236707908
 20
20.0955711002
 30
0.0
 11
39.4372221636
 21
24.0133045015
 31
0.0
  0
ARC
  5
10C
  8
0
  6
CONTINUOUS
 62
     7
 10
39.32077875
 20
23.8508815205
 30
0.0
 40
0.0172897913381881
 50
302.6061026471
 51
357.3932199696
  0
LINE
  5
10D
  8
0
  6
CONTINUOUS
 62
     7
 10
31.3494231119
 20
20.4368366845
 30
0.0
 11
31.3165426587
 21
20.4558181661
 31
0.0
  0
LINE
  5
10E
  8
0
  6
CONTINUOUS
 62
     7
 10
31.3165426587
 20
20.4558181661
 30
0.0
 11
31.3828340304
 21
20.5706380999
 31
0.0
  0
LINE
  5
10F
  8
0
  6
CONTINUOUS
 62
     7
 10
31.3494231119
 20
19.3152030862
 30
0.0
 11
31.3165426587
 21
19.3341845678
 31
0.0
  0
LINE
  5
110
  8
0
  6
CONTINUOUS
 62
     7
 10
31.3165426587
 20
19.3341845678
 30
0.0
 11
31.3165426587
 21
20.4558181661
 31
0.0
  0
LINE
  5
111
  8
0
  6
CONTINUOUS
 62
     7
 10
31.5822382999
 20
20.4925250298
 30
0.0
 11
31.580006923
 21
20.5082662821
 31
0.0
  0
ARC
  5
112
  8
0
  6
CONTINUOUS
 62
     7
 10
31.4825027306
 20
20.4935895181
 30
0.0
 40
0.0997412498520059
 50
290.6319046755
 51
359.388499246
  0
LINE
  5
113
  8
0
  6
CONTINUOUS
 62
     7
 10
31.3573779147
 20
19.3014247924
 30
0.0
 11
31.3573779147
 21
19.2634556446
 31
0.0
  0
LINE
  5
114
  8
0
  6
CONTINUOUS
 62
     7
 10
31.4162446379
 20
19.2674417564
 30
0.0
 11
31.4162446379
 21
19.2294726087
 31
0.0
  0
LINE
  5
115
  8
0
  6
CONTINUOUS
 62
     7
 10
31.4162446379
 20
19.2294726087
 30
0.0
 11
31.3573779147
 21
19.2634556446
 31
0.0
  0
LINE
  5
116
  8
0
  6
CONTINUOUS
 62
     7
 10
31.4162446379
 20
19.2294726087
 30
0.0
 11
31.4401675375
 21
19.2432830047
 31
0.0
  0
ARC
  5
117
  8
0
  6
CONTINUOUS
 62
     7
 10
31.4052009252
 20
19.3382187541
 30
0.0
 40
0.0887500021327787
 50
182.6053128724
 51
237.3945573114
  0
ARC
  5
118
  8
0
  6
CONTINUOUS
 62
     7
 10
31.3666942126
 20
19.3159889648
 30
0.0
 40
0.017288971200708
 50
182.6053052584
 51
237.3940782857
  0
ARC
  5
119
  8
0
  6
CONTINUOUS
 62
     7
 10
39.2802800334
 20
23.8844048177
 30
0.0
 40
0.017288971200718
 50
182.6053052585
 51
237.3940782857
  0
LINE
  5
11A
  8
0
  6
CONTINUOUS
 62
     7
 10
39.263539087
 20
27.0323022515
 30
0.0
 11
39.2306586338
 21
27.0512837331
 31
0.0
  0
LINE
  5
11B
  8
0
  6
CONTINUOUS
 62
     7
 10
39.2306586338
 20
27.0512837331
 30
0.0
 11
37.680503768
 21
26.1563983773
 31
0.0
  0
ARC
  5
11C
  8
0
  6
CONTINUOUS
 62
     7
 10
39.2545919541
 20
27.0558761226
 30
0.0
 40
0.0252146502421726
 50
290.7835570368
 51
69.2164429632
  0
ARC
  5
11D
  8
0
  6
CONTINUOUS
 62
     7
 10
39.2289153772
 20
27.0558761226
 30
0.0
 40
0.0049121263343273
 50
290.7866039558
 51
69.2133960442
  0
LINE
  5
11E
  8
0
  6
CONTINUOUS
 62
     7
 10
39.2306586338
 20
27.0604685122
 30
0.0
 11
39.263539087
 21
27.0794499938
 31
0.0
  0
LINE
  5
11F
  8
0
  6
CONTINUOUS
 62
     7
 10
39.2306586338
 20
27.0512840366
 30
0.0
 11
39.2306586338
 21
27.0604685122
 31
0.0
  0
LINE
  5
120
  8
0
  6
CONTINUOUS
 62
     7
 10
38.8740116698
 20
26.8453960211
 30
0.0
 11
38.8740116698
 21
27.266356422
 31
0.0
  0
LINE
  5
121
  8
0
  6
CONTINUOUS
 62
     7
 10
38.8740116698
 20
27.266356422
 30
0.0
 11
39.2306586338
 21
27.0604685122
 31
0.0
  0
POLYLINE
  5
122
  8
0
  6
CONTINUOUS
 62
     7
 66
     1
 10
0.0
 20
0.0
 30
0.0
  0
VERTEX
  5
369
  8
0
  6
CONTINUOUS
 62
     7
 10
39.0065941022
 20
27.1325582315
 30
0.0
  0
VERTEX
  5
36A
  8
0
  6
CONTINUOUS
 62
     7
 10
38.9811099853
 20
27.1420809074
 30
0.0
  0
VERTEX
  5
36B
  8
0
  6
CONTINUOUS
 62
     7
 10
38.9586991453
 20
27.1400772901
 30
0.0
  0
VERTEX
  5
36C
  8
0
  6
CONTINUOUS
 62
     7
 10
38.9420655556
 20
27.1267881672
 30
0.0
  0
VERTEX
  5
36D
  8
0
  6
CONTINUOUS
 62
     7
 10
38.9332147174
 20
27.1038175252
 30
0.0
  0
VERTEX
  5
36E
  8
0
  6
CONTINUOUS
 62
     7
 10
38.9332147174
 20
27.0739349263
 30
0.0
  0
VERTEX
  5
36F
  8
0
  6
CONTINUOUS
 62
     7
 10
38.9420655556
 20
27.0407453239
 30
0.0
  0
VERTEX
  5
370
  8
0
  6
CONTINUOUS
 62
     7
 10
38.9586991453
 20
27.0082516467
 30
0.0
  0
VERTEX
  5
371
  8
0
  6
CONTINUOUS
 62
     7
 10
38.9811099853
 20
26.9803730244
 30
0.0
  0
VERTEX
  5
372
  8
0
  6
CONTINUOUS
 62
     7
 10
39.0065941022
 20
26.9604723653
 30
0.0
  0
SEQEND
  5
373
  8
0
  6
CONTINUOUS
 62
     7
  0
LINE
  5
123
  8
0
  6
CONTINUOUS
 62
     7
 10
39.0065941022
 20
26.9604723653
 30
0.0
 11
39.0399726639
 21
26.9412033317
 31
0.0
  0
ARC
  5
124
  8
0
  6
CONTINUOUS
 62
     7
 10
39.0019968625
 20
26.9485970434
 30
0.0
 40
0.1617934174844881
 50
20.9687212715
 51
57.3329589413
  0
LINE
  5
125
  8
0
  6
CONTINUOUS
 62
     7
 10
39.0893258561
 20
27.0847982065
 30
0.0
 11
39.0065941022
 21
27.1325582315
 31
0.0
  0
LINE
  5
126
  8
0
  6
CONTINUOUS
 62
     7
 10
38.8740116698
 20
27.266356422
 30
0.0
 11
38.906892123
 21
27.2853379036
 31
0.0
  0
LINE
  5
127
  8
0
  6
CONTINUOUS
 62
     7
 10
38.906892123
 20
27.2853379036
 30
0.0
 11
39.263539087
 21
27.0794499938
 31
0.0
  0
LINE
  5
128
  8
0
  6
CONTINUOUS
 62
     7
 10
39.0065941022
 20
26.9604723653
 30
0.0
 11
39.0394745554
 21
26.9794538469
 31
0.0
  0
ARC
  5
129
  8
0
  6
CONTINUOUS
 62
     7
 10
39.1052553831
 20
27.1014152602
 30
0.0
 40
0.1385702119326725
 50
162.6620986143
 51
241.6594538384
  0
LINE
  5
12A
  8
0
  6
CONTINUOUS
 62
     7
 10
39.0394745554
 20
26.9794538469
 30
0.0
 11
39.0728531171
 21
26.9601848133
 31
0.0
  0
LINE
  5
12B
  8
0
  6
CONTINUOUS
 62
     7
 10
5.1567514619
 20
5.4556032589
 30
0.0
 11
5.0007509707
 21
5.4556032589
 31
0.0
  0
ARC
  5
12C
  8
0
  6
CONTINUOUS
 62
     7
 10
5.1567512072
 20
5.5961032725
 30
0.0
 40
0.1404999999999994
 50
270.0
 51
90.0
  0
LINE
  5
12D
  8
0
  6
CONTINUOUS
 62
     7
 10
5.0007509707
 20
5.7366032261
 30
0.0
 11
5.1567514619
 21
5.7366032261
 31
0.0
  0
ARC
  5
12E
  8
0
  6
CONTINUOUS
 62
     7
 10
5.0007512072
 20
5.5961032725
 30
0.0
 40
0.1404999999999994
 50
90.0
 51
270.0
  0
LINE
  5
12F
  8
0
  6
CONTINUOUS
 62
     7
 10
5.1567514619
 20
4.205603274
 30
0.0
 11
5.0007509707
 21
4.205603274
 31
0.0
  0
ARC
  5
130
  8
0
  6
CONTINUOUS
 62
     7
 10
5.1567512072
 20
4.3461032725
 30
0.0
 40
0.1404999999999994
 50
270.0
 51
90.0
  0
LINE
  5
131
  8
0
  6
CONTINUOUS
 62
     7
 10
5.0007509707
 20
4.4866032596
 30
0.0
 11
5.1567514619
 21
4.4866032596
 31
0.0
  0
ARC
  5
132
  8
0
  6
CONTINUOUS
 62
     7
 10
5.0007512072
 20
4.3461032725
 30
0.0
 40
0.1404999999999994
 50
90.0
 51
270.0
  0
LINE
  5
133
  8
0
  6
CONTINUOUS
 62
     7
 10
4.7507511387
 20
4.1121032725
 30
0.0
 11
5.4232511032
 21
4.1121032725
 31
0.0
  0
LINE
  5
134
  8
0
  6
CONTINUOUS
 62
     7
 10
4.7507511387
 20
9.3301033137
 30
0.0
 11
4.7507511387
 21
4.1121032725
 31
0.0
  0
LINE
  5
135
  8
0
  6
CONTINUOUS
 62
     7
 10
5.4232511032
 20
9.3301033137
 30
0.0
 11
4.7507511387
 21
9.3301033137
 31
0.0
  0
LINE
  5
136
  8
0
  6
CONTINUOUS
 62
     7
 10
5.1567514619
 20
8.9556034
 30
0.0
 11
5.0007509707
 21
8.9556034
 31
0.0
  0
LINE
  5
137
  8
0
  6
CONTINUOUS
 62
     7
 10
5.0007509707
 20
9.2366032205
 30
0.0
 11
5.1567514619
 21
9.2366032205
 31
0.0
  0
ARC
  5
138
  8
0
  6
CONTINUOUS
 62
     7
 10
5.1567512072
 20
9.0961032725
 30
0.0
 40
0.140500000000003
 50
270.0
 51
90.0
  0
ARC
  5
139
  8
0
  6
CONTINUOUS
 62
     7
 10
5.0007512072
 20
7.8461032725
 30
0.0
 40
0.1405000000000003
 50
90.0
 51
270.0
  0
LINE
  5
13A
  8
0
  6
CONTINUOUS
 62
     7
 10
5.0007509707
 20
7.9866031806
 30
0.0
 11
5.1567514619
 21
7.9866031806
 31
0.0
  0
ARC
  5
13B
  8
0
  6
CONTINUOUS
 62
     7
 10
5.1567512072
 20
7.8461032725
 30
0.0
 40
0.1405000000000003
 50
270.0
 51
90.0
  0
LINE
  5
13C
  8
0
  6
CONTINUOUS
 62
     7
 10
5.1567514619
 20
7.7056033601
 30
0.0
 11
5.0007509707
 21
7.7056033601
 31
0.0
  0
ARC
  5
13D
  8
0
  6
CONTINUOUS
 62
     7
 10
5.0007512072
 20
9.0961032725
 30
0.0
 40
0.1405000000000012
 50
90.0
 51
270.0
  0
LINE
  5
13E
  8
0
  6
CONTINUOUS
 62
     7
 10
23.5007514437
 20
8.9556034
 30
0.0
 11
23.3447509525
 21
8.9556034
 31
0.0
  0
ARC
  5
13F
  8
0
  6
CONTINUOUS
 62
     7
 10
23.5007512072
 20
9.0961032725
 30
0.0
 40
0.1405000000000012
 50
270.0
 51
90.0
  0
LINE
  5
140
  8
0
  6
CONTINUOUS
 62
     7
 10
23.3447509525
 20
7.9866031806
 30
0.0
 11
23.5007514437
 21
7.9866031806
 31
0.0
  0
ARC
  5
141
  8
0
  6
CONTINUOUS
 62
     7
 10
23.3447512072
 20
7.8461032725
 30
0.0
 40
0.1405000000000003
 50
90.0
 51
270.0
  0
LINE
  5
142
  8
0
  6
CONTINUOUS
 62
     7
 10
23.5007514437
 20
5.4556032589
 30
0.0
 11
23.3447509525
 21
5.4556032589
 31
0.0
  0
ARC
  5
143
  8
0
  6
CONTINUOUS
 62
     7
 10
23.5007512072
 20
5.5961032725
 30
0.0
 40
0.1404999999999985
 50
270.0
 51
90.0
  0
LINE
  5
144
  8
0
  6
CONTINUOUS
 62
     7
 10
23.3447509525
 20
5.7366032261
 30
0.0
 11
23.5007514437
 21
5.7366032261
 31
0.0
  0
ARC
  5
145
  8
0
  6
CONTINUOUS
 62
     7
 10
23.3447512072
 20
5.5961032725
 30
0.0
 40
0.1404999999999985
 50
90.0
 51
270.0
  0
LINE
  5
146
  8
0
  6
CONTINUOUS
 62
     7
 10
23.5007514437
 20
4.205603274
 30
0.0
 11
23.3447509525
 21
4.205603274
 31
0.0
  0
ARC
  5
147
  8
0
  6
CONTINUOUS
 62
     7
 10
23.5007512072
 20
4.3461032725
 30
0.0
 40
0.1404999999999994
 50
270.0
 51
90.0
  0
LINE
  5
148
  8
0
  6
CONTINUOUS
 62
     7
 10
23.3447509525
 20
4.4866032596
 30
0.0
 11
23.5007514437
 21
4.4866032596
 31
0.0
  0
ARC
  5
149
  8
0
  6
CONTINUOUS
 62
     7
 10
23.3447512072
 20
4.3461032725
 30
0.0
 40
0.1404999999999994
 50
90.0
 51
270.0
  0
LINE
  5
14A
  8
0
  6
CONTINUOUS
 62
     7
 10
23.7507512757
 20
9.3301033137
 30
0.0
 11
23.0782513112
 21
9.3301033137
 31
0.0
  0
LINE
  5
14B
  8
0
  6
CONTINUOUS
 62
     7
 10
23.7507512757
 20
4.1121032725
 30
0.0
 11
23.7507512757
 21
9.3301033137
 31
0.0
  0
LINE
  5
14C
  8
0
  6
CONTINUOUS
 62
     7
 10
23.0782513112
 20
4.1121032725
 30
0.0
 11
23.7507512757
 21
4.1121032725
 31
0.0
  0
ARC
  5
14D
  8
0
  6
CONTINUOUS
 62
     7
 10
23.3447512072
 20
9.0961032725
 30
0.0
 40
0.140500000000003
 50
90.0
 51
270.0
  0
LINE
  5
14E
  8
0
  6
CONTINUOUS
 62
     7
 10
23.3447509525
 20
9.2366032205
 30
0.0
 11
23.5007514437
 21
9.2366032205
 31
0.0
  0
LINE
  5
14F
  8
0
  6
CONTINUOUS
 62
     7
 10
23.5007514437
 20
7.7056033601
 30
0.0
 11
23.3447509525
 21
7.7056033601
 31
0.0
  0
ARC
  5
150
  8
0
  6
CONTINUOUS
 62
     7
 10
23.5007512072
 20
7.8461032725
 30
0.0
 40
0.1405000000000003
 50
270.0
 51
90.0
  0
LINE
  5
151
  8
0
  6
CONTINUOUS
 62
     7
 10
5.6257514306
 20
4.3621032695
 30
0.0
 11
5.6257514306
 21
4.1891032721
 31
0.0
  0
LINE
  5
152
  8
0
  6
CONTINUOUS
 62
     7
 10
5.7507510533
 20
4.4871032771
 30
0.0
 11
5.6257514306
 21
4.3621032695
 31
0.0
  0
LINE
  5
153
  8
0
  6
CONTINUOUS
 62
     7
 10
5.7507510533
 20
4.4871032771
 30
0.0
 11
22.7507513611
 21
4.4871032771
 31
0.0
  0
LINE
  5
154
  8
0
  6
CONTINUOUS
 62
     7
 10
22.8757509838
 20
4.3621032695
 30
0.0
 11
22.7507513611
 21
4.4871032771
 31
0.0
  0
LINE
  5
155
  8
0
  6
CONTINUOUS
 62
     7
 10
22.8757509838
 20
4.3621032695
 30
0.0
 11
22.8757509838
 21
4.1891032721
 31
0.0
  0
LINE
  5
156
  8
0
  6
CONTINUOUS
 62
     7
 10
5.6257514306
 20
4.1121032725
 30
0.0
 11
22.8757509838
 21
4.1121032725
 31
0.0
  0
LINE
  5
157
  8
0
  6
CONTINUOUS
 62
     7
 10
5.6257514306
 20
4.1891032721
 30
0.0
 11
5.6257514306
 21
4.1121032725
 31
0.0
  0
LINE
  5
158
  8
0
  6
CONTINUOUS
 62
     7
 10
22.8757509838
 20
4.1121032725
 30
0.0
 11
22.8757509838
 21
4.1891032721
 31
0.0
  0
LINE
  5
159
  8
0
  6
CONTINUOUS
 62
     7
 10
5.5002513871
 20
4.1121032725
 30
0.0
 11
5.5002513871
 21
9.3301033137
 31
0.0
  0
LINE
  5
15A
  8
0
  6
CONTINUOUS
 62
     7
 10
5.4232511032
 20
9.3301033137
 30
0.0
 11
5.5002513871
 21
9.3301033137
 31
0.0
  0
LINE
  5
15B
  8
0
  6
CONTINUOUS
 62
     7
 10
5.5002513871
 20
4.1121032725
 30
0.0
 11
5.4232511032
 21
4.1121032725
 31
0.0
  0
LINE
  5
15C
  8
0
  6
CONTINUOUS
 62
     7
 10
23.0012510273
 20
9.3301033137
 30
0.0
 11
23.0012510273
 21
4.1121032725
 31
0.0
  0
LINE
  5
15D
  8
0
  6
CONTINUOUS
 62
     7
 10
23.0782513112
 20
4.1121032725
 30
0.0
 11
23.0012510273
 21
4.1121032725
 31
0.0
  0
LINE
  5
15E
  8
0
  6
CONTINUOUS
 62
     7
 10
23.0012510273
 20
9.3301033137
 30
0.0
 11
23.0782513112
 21
9.3301033137
 31
0.0
  0
LINE
  5
15F
  8
0
  6
CONTINUOUS
 62
     7
 10
22.9862513073
 20
4.1741032725
 30
0.0
 11
22.8757509838
 21
4.1741032725
 31
0.0
  0
LINE
  5
160
  8
0
  6
CONTINUOUS
 62
     7
 10
22.8757509838
 20
4.1121032725
 30
0.0
 11
22.9862513073
 21
4.1121032725
 31
0.0
  0
LINE
  5
161
  8
0
  6
CONTINUOUS
 62
     7
 10
5.6257514306
 20
4.1741032725
 30
0.0
 11
5.5152511071
 21
4.1741032725
 31
0.0
  0
LINE
  5
162
  8
0
  6
CONTINUOUS
 62
     7
 10
5.6257514306
 20
4.1121032725
 30
0.0
 11
5.5152511071
 21
4.1121032725
 31
0.0
  0
ARC
  5
163
  8
0
  6
CONTINUOUS
 62
     7
 10
5.5152512072
 20
4.1891032725
 30
0.0
 40
0.0769999999999966
 50
258.7666561571
 51
270.0
  0
ARC
  5
164
  8
0
  6
CONTINUOUS
 62
     7
 10
5.5152512072
 20
4.1891032725
 30
0.0
 40
0.0150000000000006
 50
180.0
 51
270.0
  0
ARC
  5
165
  8
0
  6
CONTINUOUS
 62
     7
 10
22.9862512072
 20
4.1891032725
 30
0.0
 40
0.0150000000000041
 50
270.0
 51
0.0
  0
ARC
  5
166
  8
0
  6
CONTINUOUS
 62
     7
 10
22.9862512072
 20
4.1891032725
 30
0.0
 40
0.0769999999999966
 50
270.0
 51
281.2333438429
  0
LINE
  5
167
  8
0
  6
CONTINUOUS
 62
     7
 10
5.6252510097
 20
4.1741032725
 30
0.0
 11
5.6252510097
 21
4.1891032721
 31
0.0
  0
LINE
  5
168
  8
0
  6
CONTINUOUS
 62
     7
 10
5.750251219
 20
4.4871032771
 30
0.0
 11
5.6252510097
 21
4.3621032695
 31
0.0
  0
LINE
  5
169
  8
0
  6
CONTINUOUS
 62
     7
 10
5.6252510097
 20
4.3621032695
 30
0.0
 11
5.6252510097
 21
4.1891032721
 31
0.0
  0
LINE
  5
16A
  8
0
  6
CONTINUOUS
 62
     7
 10
5.750251219
 20
4.4871032771
 30
0.0
 11
5.7507510533
 21
4.4871032771
 31
0.0
  0
DIMENSION
  5
16B
  8
0
  6
CONTINUOUS
 62
     7
  2
*D5
 10
23.4227512072
 20
10.5112056347
 30
0.0
 11
14.2507512072
 21
10.5112056347
 31
0.0
 70
   160
  3
SLDDIMSTYLE0
 13
5.0787512072
 23
9.2366032725
 33
0.0
 14
23.4227512072
 24
9.2366032725
 34
0.0
  0
DIMENSION
  5
180
  8
0
  6
CONTINUOUS
 62
     7
  2
*D6
 10
23.7507512072
 20
11.9285284693
 30
0.0
 11
14.2507512072
 21
11.9285284693
 31
0.0
 70
   160
  3
SLDDIMSTYLE1
 13
4.7507512072
 23
9.3301032725
 33
0.0
 14
23.7507512072
 24
9.3301032725
 34
0.0
 50
0.0
  0
DIMENSION
  5
195
  8
0
  6
CONTINUOUS
 62
     7
  2
*D7
 10
18.6333600228
 20
4.1121032725
 30
0.0
 11
18.6333600228
 21
2.7447312211
 31
0.0
 70
   160
  1
<> TYP.\PFRONT & BACK
  3
SLDDIMSTYLE2
 13
22.7507512072
 23
4.4871032725
 33
0.0
 14
22.9862512072
 24
4.1121032725
 34
0.0
 50
90.0
  0
DIMENSION
  5
1A9
  8
0
  6
CONTINUOUS
 62
     7
  2
*D8
 10
27.453712571
 20
9.0961032725
 30
0.0
 11
27.453712571
 21
8.4711032725
 31
0.0
 70
   160
  3
SLDDIMSTYLE2
 13
23.5007512072
 23
7.8461032725
 33
0.0
 14
23.5007512072
 24
9.0961032725
 34
0.0
 50
90.0
  0
DIMENSION
  5
1BD
  8
0
  6
CONTINUOUS
 62
     7
  2
*D9
 10
26.1315519539
 20
5.5961032725
 30
0.0
 11
26.1315519539
 21
6.7211032725
 31
0.0
 70
   160
  3
SLDDIMSTYLE2
 13
23.5007512072
 23
7.8461032725
 33
0.0
 14
23.5007512072
 24
5.5961032725
 34
0.0
 50
90.0
  0
DIMENSION
  5
1D1
  8
0
  6
CONTINUOUS
 62
     7
  2
*D10
 10
24.9318535694
 20
4.3461032725
 30
0.0
 11
24.9318535694
 21
4.9711032725
 31
0.0
 70
   160
  3
SLDDIMSTYLE2
 13
23.5007512072
 23
5.5961032725
 33
0.0
 14
23.5007512072
 24
4.3461032725
 34
0.0
 50
90.0
  0
DIMENSION
  5
1E5
  8
0
  6
CONTINUOUS
 62
     7
  2
*D11
 10
3.9471202647
 20
4.2056032725
 30
0.0
 11
3.9471202647
 21
5.3501397225
 31
0.0
 70
   160
  3
SLDDIMSTYLE2
 13
5.0007512072
 23
4.4866032725
 33
0.0
 14
5.0007512072
 24
4.2056032725
 34
0.0
 50
90.0
  0
DIMENSION
  5
1FA
  8
0
  6
CONTINUOUS
 62
     7
  2
*D12
 10
5.2972512072
 20
3.0127370007
 30
0.0
 11
7.2729189476
 21
3.0127370007
 31
0.0
 70
   160
  3
SLDDIMSTYLE2
 13
4.8602512072
 23
4.3461032725
 33
0.0
 14
5.2972512072
 24
4.3461032725
 34
0.0
  0
LINE
  5
20E
  8
0
  6
CONTINUOUS
 62
     7
 10
5.5002513871
 20
28.4432156488
 30
0.0
 11
5.4382514099
 21
28.4432156488
 31
0.0
  0
LINE
  5
20F
  8
0
  6
CONTINUOUS
 62
     7
 10
5.5002513871
 20
16.5682157098
 30
0.0
 11
5.4382514099
 21
16.5682157098
 31
0.0
  0
LINE
  5
210
  8
0
  6
CONTINUOUS
 62
     7
 10
5.4382514099
 20
28.4432156488
 30
0.0
 11
5.4382514099
 21
16.5682157098
 31
0.0
  0
LINE
  5
211
  8
0
  6
CONTINUOUS
 62
     7
 10
5.5002513871
 20
16.5682157098
 30
0.0
 11
5.5002513871
 21
28.4432156488
 31
0.0
  0
LINE
  5
212
  8
0
  6
CONTINUOUS
 62
     7
 10
23.0012510273
 20
16.5682157098
 30
0.0
 11
23.0632510044
 21
16.5682157098
 31
0.0
  0
LINE
  5
213
  8
0
  6
CONTINUOUS
 62
     7
 10
23.0012510273
 20
28.4432156488
 30
0.0
 11
23.0012510273
 21
16.5682157098
 31
0.0
  0
LINE
  5
214
  8
0
  6
CONTINUOUS
 62
     7
 10
23.0012510273
 20
28.4432156488
 30
0.0
 11
23.0632510044
 21
28.4432156488
 31
0.0
  0
LINE
  5
215
  8
0
  6
CONTINUOUS
 62
     7
 10
23.0632510044
 20
28.4432156488
 30
0.0
 11
23.0632510044
 21
16.5682157098
 31
0.0
  0
LINE
  5
216
  8
0
  6
CONTINUOUS
 62
     7
 10
5.4382514099
 20
13.6452156632
 30
0.0
 11
5.4382514099
 21
16.5682157098
 31
0.0
  0
LINE
  5
217
  8
0
  6
CONTINUOUS
 62
     7
 10
5.5002513871
 20
13.6452156632
 30
0.0
 11
5.5002513871
 21
16.5682157098
 31
0.0
  0
LINE
  5
218
  8
0
  6
CONTINUOUS
 62
     7
 10
23.0632510044
 20
13.6452156632
 30
0.0
 11
23.0632510044
 21
16.5682157098
 31
0.0
  0
LINE
  5
219
  8
0
  6
CONTINUOUS
 62
     7
 10
23.0012510273
 20
13.6452156632
 30
0.0
 11
23.0012510273
 21
16.5682157098
 31
0.0
  0
LINE
  5
21A
  8
0
  6
CONTINUOUS
 62
     7
 10
5.4232511032
 20
13.5682153794
 30
0.0
 11
4.7507511387
 21
13.5682153794
 31
0.0
  0
LINE
  5
21B
  8
0
  6
CONTINUOUS
 62
     7
 10
4.7507511387
 20
13.6302153565
 30
0.0
 11
5.4232511032
 21
13.6302153565
 31
0.0
  0
LINE
  5
21C
  8
0
  6
CONTINUOUS
 62
     7
 10
4.7507511387
 20
13.6302153565
 30
0.0
 11
4.7507511387
 21
13.5682153794
 31
0.0
  0
ARC
  5
21D
  8
0
  6
CONTINUOUS
 62
     7
 10
23.0782512072
 20
13.6452156187
 30
0.0
 40
0.0769999999999946
 50
180.0
 51
270.0
  0
ARC
  5
21E
  8
0
  6
CONTINUOUS
 62
     7
 10
23.0782512072
 20
13.6452156187
 30
0.0
 40
0.0149999999999988
 50
180.0
 51
270.0
  0
ARC
  5
21F
  8
0
  6
CONTINUOUS
 62
     7
 10
5.4232512072
 20
13.6452156187
 30
0.0
 40
0.0150000000000006
 50
270.0
 51
0.0
  0
ARC
  5
220
  8
0
  6
CONTINUOUS
 62
     7
 10
5.4232512072
 20
13.6452156187
 30
0.0
 40
0.0769999999999991
 50
270.0
 51
0.0
  0
LINE
  5
221
  8
0
  6
CONTINUOUS
 62
     7
 10
23.7507512757
 20
13.6302153565
 30
0.0
 11
23.0782513112
 21
13.6302153565
 31
0.0
  0
LINE
  5
222
  8
0
  6
CONTINUOUS
 62
     7
 10
23.7507512757
 20
13.5682153794
 30
0.0
 11
23.0782513112
 21
13.5682153794
 31
0.0
  0
LINE
  5
223
  8
0
  6
CONTINUOUS
 62
     7
 10
23.7507512757
 20
13.6302153565
 30
0.0
 11
23.7507512757
 21
13.5682153794
 31
0.0
  0
LINE
  5
224
  8
0
  6
CONTINUOUS
 62
     7
 10
23.0012510273
 20
28.5682158581
 30
0.0
 11
23.0632510044
 21
28.5682158581
 31
0.0
  0
LINE
  5
225
  8
0
  6
CONTINUOUS
 62
     7
 10
23.0632510044
 20
28.5682158581
 30
0.0
 11
23.0632510044
 21
28.4432156488
 31
0.0
  0
LINE
  5
226
  8
0
  6
CONTINUOUS
 62
     7
 10
23.0012510273
 20
28.5682158581
 30
0.0
 11
23.0012510273
 21
28.4432156488
 31
0.0
  0
LINE
  5
227
  8
0
  6
CONTINUOUS
 62
     7
 10
5.5002513871
 20
28.5682158581
 30
0.0
 11
5.4382514099
 21
28.5682158581
 31
0.0
  0
LINE
  5
228
  8
0
  6
CONTINUOUS
 62
     7
 10
5.4382514099
 20
28.5682158581
 30
0.0
 11
5.4382514099
 21
28.4432156488
 31
0.0
  0
LINE
  5
229
  8
0
  6
CONTINUOUS
 62
     7
 10
5.5002513871
 20
28.4432156488
 30
0.0
 11
5.5002513871
 21
28.5682158581
 31
0.0
  0
LINE
  5
22A
  8
0
  6
CONTINUOUS
 62
     7
 10
22.7502509403
 20
28.506215881
 30
0.0
 11
22.7502509403
 21
28.5682158581
 31
0.0
  0
LINE
  5
22B
  8
0
  6
CONTINUOUS
 62
     7
 10
5.750251219
 20
28.506215881
 30
0.0
 11
22.7502509403
 21
28.506215881
 31
0.0
  0
LINE
  5
22C
  8
0
  6
CONTINUOUS
 62
     7
 10
5.750251219
 20
28.506215881
 30
0.0
 11
5.750251219
 21
28.5682158581
 31
0.0
  0
LINE
  5
22D
  8
0
  6
CONTINUOUS
 62
     7
 10
5.750251219
 20
28.5682158581
 30
0.0
 11
22.7502509403
 21
28.5682158581
 31
0.0
  0
LINE
  5
22E
  8
0
  6
CONTINUOUS
 62
     7
 10
22.8752511496
 20
28.506215881
 30
0.0
 11
22.7502509403
 21
28.506215881
 31
0.0
  0
LINE
  5
22F
  8
0
  6
CONTINUOUS
 62
     7
 10
22.7502509403
 20
28.5682158581
 30
0.0
 11
22.8752511496
 21
28.5682158581
 31
0.0
  0
LINE
  5
230
  8
0
  6
CONTINUOUS
 62
     7
 10
22.8752511496
 20
28.506215881
 30
0.0
 11
22.8752511496
 21
28.5682158581
 31
0.0
  0
LINE
  5
231
  8
0
  6
CONTINUOUS
 62
     7
 10
5.750251219
 20
28.506215881
 30
0.0
 11
5.6252510097
 21
28.506215881
 31
0.0
  0
LINE
  5
232
  8
0
  6
CONTINUOUS
 62
     7
 10
5.6252510097
 20
28.506215881
 30
0.0
 11
5.6252510097
 21
28.5682158581
 31
0.0
  0
LINE
  5
233
  8
0
  6
CONTINUOUS
 62
     7
 10
5.6252510097
 20
28.5682158581
 30
0.0
 11
5.750251219
 21
28.5682158581
 31
0.0
  0
LINE
  5
234
  8
0
  6
CONTINUOUS
 62
     7
 10
5.6257514306
 20
13.6302153565
 30
0.0
 11
5.6257514306
 21
13.5682153794
 31
0.0
  0
LINE
  5
235
  8
0
  6
CONTINUOUS
 62
     7
 10
5.6257514306
 20
13.6302153565
 30
0.0
 11
5.7507510533
 21
13.6302153565
 31
0.0
  0
LINE
  5
236
  8
0
  6
CONTINUOUS
 62
     7
 10
5.7507510533
 20
13.6302153565
 30
0.0
 11
5.7507510533
 21
13.5682153794
 31
0.0
  0
LINE
  5
237
  8
0
  6
CONTINUOUS
 62
     7
 10
5.7507510533
 20
13.5682153794
 30
0.0
 11
5.6257514306
 21
13.5682153794
 31
0.0
  0
LINE
  5
238
  8
0
  6
CONTINUOUS
 62
     7
 10
5.7507510533
 20
13.6302153565
 30
0.0
 11
22.7507513611
 21
13.6302153565
 31
0.0
  0
LINE
  5
239
  8
0
  6
CONTINUOUS
 62
     7
 10
22.7507513611
 20
13.6302153565
 30
0.0
 11
22.7507513611
 21
13.5682153794
 31
0.0
  0
LINE
  5
23A
  8
0
  6
CONTINUOUS
 62
     7
 10
5.7507510533
 20
13.5682153794
 30
0.0
 11
22.7507513611
 21
13.5682153794
 31
0.0
  0
LINE
  5
23B
  8
0
  6
CONTINUOUS
 62
     7
 10
22.7507513611
 20
13.6302153565
 30
0.0
 11
22.8757509838
 21
13.6302153565
 31
0.0
  0
LINE
  5
23C
  8
0
  6
CONTINUOUS
 62
     7
 10
22.8757509838
 20
13.6302153565
 30
0.0
 11
22.8757509838
 21
13.5682153794
 31
0.0
  0
LINE
  5
23D
  8
0
  6
CONTINUOUS
 62
     7
 10
22.8757509838
 20
13.5682153794
 30
0.0
 11
22.7507513611
 21
13.5682153794
 31
0.0
  0
LINE
  5
23E
  8
0
  6
CONTINUOUS
 62
     7
 10
22.8752511496
 20
28.506215881
 30
0.0
 11
22.8752511496
 21
28.4912155743
 31
0.0
  0
LINE
  5
23F
  8
0
  6
CONTINUOUS
 62
     7
 10
5.6252510097
 20
28.4912155743
 30
0.0
 11
5.6252510097
 21
28.506215881
 31
0.0
  0
LINE
  5
240
  8
0
  6
CONTINUOUS
 62
     7
 10
5.5002513871
 20
13.6462153317
 30
0.0
 11
5.5152511071
 21
13.6462153317
 31
0.0
  0
LINE
  5
241
  8
0
  6
CONTINUOUS
 62
     7
 10
5.5002513871
 20
28.5682158581
 30
0.0
 11
5.5152511071
 21
28.5682158581
 31
0.0
  0
LINE
  5
242
  8
0
  6
CONTINUOUS
 62
     7
 10
22.9862513073
 20
13.6462153317
 30
0.0
 11
23.0012510273
 21
13.6462153317
 31
0.0
  0
LINE
  5
243
  8
0
  6
CONTINUOUS
 62
     7
 10
22.9862513073
 20
28.5682158581
 30
0.0
 11
23.0012510273
 21
28.5682158581
 31
0.0
  0
LINE
  5
244
  8
0
  6
CONTINUOUS
 62
     7
 10
5.6257514306
 20
13.6302153565
 30
0.0
 11
5.6257514306
 21
13.6452156632
 31
0.0
  0
LINE
  5
245
  8
0
  6
CONTINUOUS
 62
     7
 10
22.8757509838
 20
13.6452156632
 30
0.0
 11
22.8757509838
 21
13.6302153565
 31
0.0
  0
LINE
  5
246
  8
0
  6
CONTINUOUS
 62
     7
 10
5.6257514306
 20
13.6462153317
 30
0.0
 11
5.5152511071
 21
13.6462153317
 31
0.0
  0
LINE
  5
247
  8
0
  6
CONTINUOUS
 62
     7
 10
5.5152511071
 20
28.5682158581
 30
0.0
 11
5.6252510097
 21
28.5682158581
 31
0.0
  0
LINE
  5
248
  8
0
  6
CONTINUOUS
 62
     7
 10
22.8752511496
 20
28.5682158581
 30
0.0
 11
22.9862513073
 21
28.5682158581
 31
0.0
  0
LINE
  5
249
  8
0
  6
CONTINUOUS
 62
     7
 10
22.9862513073
 20
13.6462153317
 30
0.0
 11
22.8757509838
 21
13.6462153317
 31
0.0
  0
LINE
  5
24A
  8
0
  6
CONTINUOUS
 62
     7
 10
22.8757509838
 20
13.6462153317
 30
0.0
 11
22.8757509838
 21
13.6452156632
 31
0.0
  0
LINE
  5
24B
  8
0
  6
CONTINUOUS
 62
     7
 10
5.6257514306
 20
13.6462153317
 30
0.0
 11
5.6257514306
 21
13.6452156632
 31
0.0
  0
DIMENSION
  5
24C
  8
0
  6
CONTINUOUS
 62
     7
  2
*D13
 10
23.0632512072
 20
29.5111075644
 30
0.0
 11
14.2507512072
 21
29.5111075644
 31
0.0
 70
   160
  3
SLDDIMSTYLE0
 13
5.4382512072
 23
28.5682156187
 33
0.0
 14
23.0632512072
 24
28.5682156187
 34
0.0
  0
LINE
  5
260
  8
0
  6
CONTINUOUS
 62
     7
 10
31.0457004338
 20
4.1121032725
 30
0.0
 11
31.0457004338
 21
9.3301033137
 31
0.0
  0
LINE
  5
261
  8
0
  6
CONTINUOUS
 62
     7
 10
31.0457004338
 20
4.1121032725
 30
0.0
 11
30.9837004567
 21
4.1121032725
 31
0.0
  0
LINE
  5
262
  8
0
  6
CONTINUOUS
 62
     7
 10
31.0457004338
 20
9.3301033137
 30
0.0
 11
30.9837004567
 21
9.3301033137
 31
0.0
  0
LINE
  5
263
  8
0
  6
CONTINUOUS
 62
     7
 10
30.9837004567
 20
4.1121032725
 30
0.0
 11
30.9837004567
 21
9.3301033137
 31
0.0
  0
LINE
  5
264
  8
0
  6
CONTINUOUS
 62
     7
 10
31.0607007405
 20
9.3301033137
 30
0.0
 11
31.0457004338
 21
9.3301033137
 31
0.0
  0
LINE
  5
265
  8
0
  6
CONTINUOUS
 62
     7
 10
31.0457004338
 20
4.1121032725
 30
0.0
 11
31.0607007405
 21
4.1121032725
 31
0.0
  0
LINE
  5
266
  8
0
  6
CONTINUOUS
 62
     7
 10
45.8587007261
 20
6.1456241144
 30
0.0
 11
33.9837007871
 21
9.3301033137
 31
0.0
  0
LINE
  5
267
  8
0
  6
CONTINUOUS
 62
     7
 10
45.9837009354
 20
6.0206240518
 30
0.0
 11
45.8587007261
 21
6.1456241144
 31
0.0
  0
LINE
  5
268
  8
0
  6
CONTINUOUS
 62
     7
 10
45.9837009354
 20
4.1891032721
 30
0.0
 11
45.9837009354
 21
6.0206240518
 31
0.0
  0
LINE
  5
269
  8
0
  6
CONTINUOUS
 62
     7
 10
31.061700409
 20
4.1121032725
 30
0.0
 11
31.061700409
 21
4.1891032721
 31
0.0
  0
LINE
  5
26A
  8
0
  6
CONTINUOUS
 62
     7
 10
31.061700409
 20
4.1121032725
 30
0.0
 11
31.0607007405
 21
4.1121032725
 31
0.0
  0
LINE
  5
26B
  8
0
  6
CONTINUOUS
 62
     7
 10
31.0607007405
 20
9.3301033137
 30
0.0
 11
33.9837007871
 21
9.3301033137
 31
0.0
  0
CIRCLE
  5
26C
  8
0
  6
CONTINUOUS
 62
     7
 10
45.5767006961
 20
5.8301032725
 30
0.0
 40
0.0940000000000083
  0
LINE
  5
26D
  8
0
  6
CONTINUOUS
 62
     7
 10
45.9837009354
 20
4.1121032725
 30
0.0
 11
45.9837009354
 21
4.1891032721
 31
0.0
  0
LINE
  5
26E
  8
0
  6
CONTINUOUS
 62
     7
 10
31.061700409
 20
4.1121032725
 30
0.0
 11
45.9837009354
 21
4.1121032725
 31
0.0
  0
DIMENSION
  5
26F
  8
0
  6
CONTINUOUS
 62
     7
  2
*D14
 10
29.5993475891
 20
4.1121032725
 30
0.0
 11
29.5993475891
 21
6.7211032725
 31
0.0
 70
   160
  3
SLDDIMSTYLE0
 13
30.9837006961
 23
9.3301032725
 33
0.0
 14
30.9837006961
 24
4.1121032725
 34
0.0
 50
90.0
  0
DIMENSION
  5
283
  8
0
  6
CONTINUOUS
 62
     7
  2
*D15
 10
47.356783459
 20
4.1121032725
 30
0.0
 11
47.356783459
 21
4.9711032725
 31
0.0
 70
   160
  3
SLDDIMSTYLE2
 13
45.7707006961
 23
5.8301032725
 33
0.0
 14
45.9837006961
 24
4.1121032725
 34
0.0
 50
90.0
  0
DIMENSION
  5
297
  8
0
  6
CONTINUOUS
 62
     7
  2
*D16
 10
45.9837006961
 20
3.0507054967
 30
0.0
 11
43.7699661543
 21
3.0507054967
 31
0.0
 70
   160
  3
SLDDIMSTYLE2
 13
45.5767006961
 23
5.6361032725
 33
0.0
 14
45.9837006961
 24
4.1121032725
 34
0.0
 50
0.0
  0
DIMENSION
  5
2AB
  8
0
  6
CONTINUOUS
 62
     7
  2
*D17
 10
45.5592157055
 20
5.737743784
 30
0.0
 11
47.7830153045
 21
7.7674636071
 31
0.0
 70
   163
  1
<> (2X)
  3
SLDDIMSTYLE3
 15
45.5941856866
 25
5.9224627609
 35
0.0
 40
0.0
  0
DIMENSION
  5
2BD
  8
0
  6
CONTINUOUS
 62
     7
  2
*D18
 10
45.9837006961
 20
1.8524841118
 30
0.0
 11
38.4837006961
 21
1.8524841118
 31
0.0
 70
   160
  3
SLDDIMSTYLE1
 13
30.9837006961
 23
4.1121032725
 33
0.0
 14
45.9837006961
 24
4.1121032725
 34
0.0
 50
0.0
  0
INSERT
  5
2DC
  8
0
  6
CONTINUOUS
 62
     7
  2
SW_CENTERMARKSYMBOL_0
 10
45.5767006961
 20
5.8301032725
 30
0.0
  0
ENDSEC
  0
EOF
