  0
SECTION
  2
HEADER
  9
$ACADVER
  1
AC1009
  9
$DWGCODEPAGE
  3
ansi_1252
  9
$INSBASE
 10
0.0
 20
0.0
 30
0.0
  9
$EXTMIN
 10
0.0
 20
0.0
 30
0.0
  9
$EXTMAX
 10
63.75
 20
41.25
 30
0.0
  9
$LIMMIN
 10
0.0
 20
0.0
  9
$LIMMAX
 10
63.75
 20
41.25
  9
$ORTHOMODE
 70
     0
  9
$REGENMODE
 70
     1
  9
$FILLMODE
 70
     1
  9
$QTEXTMODE
 70
     0
  9
$MIRRTEXT
 70
     1
  9
$DRAGMODE
 70
     2
  9
$LTSCALE
 40
3.75
  9
$OSMODE
 70
    37
  9
$ATTMODE
 70
     1
  9
$TEXTSIZE
 40
0.46875
  9
$TRACEWID
 40
0.05
  9
$TEXTSTYLE
  7
STANDARD
  9
$CLAYER
  8
0
  9
$CELTYPE
  6
BYLAYER
  9
$CECOLOR
 62
   256
  9
$DIMSCALE
 40
1.0
  9
$DIMASZ
 40
0.4875
  9
$DIMEXO
 40
0.1875
  9
$DIMDLI
 40
0.38
  9
$DIMRND
 40
0.0
  9
$DIMDLE
 40
0.0
  9
$DIMEXE
 40
0.46875
  9
$DIMTP
 40
0.0
  9
$DIMTM
 40
0.0
  9
$DIMTXT
 40
0.46875
  9
$DIMCEN
 40
0.09
  9
$DIMTSZ
 40
0.0
  9
$DIMTOL
 70
     0
  9
$DIMLIM
 70
     0
  9
$DIMTIH
 70
     1
  9
$DIMTOH
 70
     1
  9
$DIMSE1
 70
     0
  9
$DIMSE2
 70
     0
  9
$DIMTAD
 70
     1
  9
$DIMZIN
 70
     0
  9
$DIMBLK
  1

  9
$DIMASO
 70
     1
  9
$DIMSHO
 70
     1
  9
$DIMPOST
  1

  9
$DIMAPOST
  1

  9
$DIMALT
 70
     0
  9
$DIMALTD
 70
     2
  9
$DIMALTF
 40
25.4
  9
$DIMLFAC
 40
1.0
  9
$DIMTOFL
 70
     0
  9
$DIMTVP
 40
0.0
  9
$DIMTIX
 70
     0
  9
$DIMSOXD
 70
     0
  9
$DIMSAH
 70
     0
  9
$DIMBLK1
  1

  9
$DIMBLK2
  1

  9
$DIMSTYLE
  2
STANDARD
  9
$DIMCLRD
 70
     0
  9
$DIMCLRE
 70
     0
  9
$DIMCLRT
 70
     0
  9
$DIMTFAC
 40
1.0
  9
$DIMGAP
 40
0.225
  9
$LUNITS
 70
     2
  9
$LUPREC
 70
     3
  9
$SKETCHINC
 40
0.1
  9
$FILLETRAD
 40
0.5
  9
$AUNITS
 70
     0
  9
$AUPREC
 70
     2
  9
$MENU
  1
.
  9
$ELEVATION
 40
0.0
  9
$PELEVATION
 40
0.0
  9
$THICKNESS
 40
0.0
  9
$LIMCHECK
 70
     0
  9
$CHAMFERA
 40
0.5
  9
$CHAMFERB
 40
0.5
  9
$SKPOLY
 70
     0
  9
$TDCREATE
 40
2456500.309421678
  9
$TDUPDATE
 40
2456500.30942169
  9
$TDINDWG
 40
0.0000000116
  9
$TDUSRTIMER
 40
0.0000000116
  9
$USRTIMER
 70
     1
  9
$ANGBASE
 50
0.0
  9
$ANGDIR
 70
     0
  9
$PDMODE
 70
     0
  9
$PDSIZE
 40
-1.0
  9
$PLINEWID
 40
0.0
  9
$COORDS
 70
     1
  9
$SPLFRAME
 70
     0
  9
$SPLINETYPE
 70
     6
  9
$SPLINESEGS
 70
     8
  9
$ATTDIA
 70
     0
  9
$ATTREQ
 70
     1
  9
$HANDLING
 70
     1
  9
$HANDSEED
  5
376
  9
$SURFTAB1
 70
     6
  9
$SURFTAB2
 70
     6
  9
$SURFTYPE
 70
     6
  9
$SURFU
 70
     6
  9
$SURFV
 70
     6
  9
$UCSNAME
  2

  9
$UCSORG
 10
0.0
 20
0.0
 30
0.0
  9
$UCSXDIR
 10
1.0
 20
0.0
 30
0.0
  9
$UCSYDIR
 10
0.0
 20
1.0
 30
0.0
  9
$PUCSNAME
  2

  9
$PUCSORG
 10
0.0
 20
0.0
 30
0.0
  9
$PUCSXDIR
 10
1.0
 20
0.0
 30
0.0
  9
$PUCSYDIR
 10
0.0
 20
1.0
 30
0.0
  9
$USERI1
 70
     0
  9
$USERI2
 70
     0
  9
$USERI3
 70
     0
  9
$USERI4
 70
     0
  9
$USERI5
 70
     0
  9
$USERR1
 40
0.0
  9
$USERR2
 40
0.0
  9
$USERR3
 40
0.0
  9
$USERR4
 40
0.0
  9
$USERR5
 40
0.0
  9
$WORLDVIEW
 70
     1
  9
$SHADEDGE
 70
     3
  9
$SHADEDIF
 70
    70
  9
$TILEMODE
 70
     1
  9
$MAXACTVP
 70
    64
  9
$PLIMCHECK
 70
     0
  9
$PEXTMIN
 10
1.0000000000E+20
 20
1.0000000000E+20
 30
1.0000000000E+20
  9
$PEXTMAX
 10
-1.0000000000E+20
 20
-1.0000000000E+20
 30
-1.0000000000E+20
  9
$PLIMMIN
 10
0.0
 20
0.0
  9
$PLIMMAX
 10
12.0
 20
9.0
  9
$UNITMODE
 70
     0
  9
$VISRETAIN
 70
     1
  9
$PLINEGEN
 70
     0
  9
$PSLTSCALE
 70
     1
  0
ENDSEC
  0
SECTION
  2
TABLES
  0
TABLE
  2
VPORT
 70
     1
  0
VPORT
  2
*ACTIVE
 70
     0
 10
0.0
 20
0.0
 11
1.0
 21
1.0
 12
31.875
 22
20.625
 13
0.0
 23
0.0
 14
0.5
 24
0.5
 15
0.5
 25
0.5
 16
0.0
 26
0.0
 36
1.0
 17
0.0
 27
0.0
 37
0.0
 40
41.25
 41
1.5454545455
 42
50.0
 43
0.0
 44
0.0
 50
0.0
 51
0.0
 71
     0
 72
  2000
 73
     1
 74
     3
 75
     0
 76
     0
 77
     0
 78
     0
  0
ENDTAB
  0
TABLE
  2
LTYPE
 70
     6
  0
LTYPE
  2
CONTINUOUS
 70
     0
  3
Solid line
 72
    65
 73
     0
 40
0.0
  0
LTYPE
  2
HIDDEN
 70
     0
  3
Hidden __ __ __ __ __ __ __ __ __ __ __ __ __ __
 72
    65
 73
     2
 40
0.075
 49
0.05
 49
-0.025
  0
LTYPE
  2
PHANTOM
 70
     0
  3
Phantom ______  __  __  ______  __  __  ______
 72
    65
 73
     6
 40
0.5
 49
0.25
 49
-0.05
 49
0.05
 49
-0.05
 49
0.05
 49
-0.05
  0
LTYPE
  2
CENTER
 70
     0
  3
Center ____ _ ____ _ ____ _ ____ _ ____ _ ____
 72
    65
 73
     4
 40
0.4
 49
0.25
 49
-0.05
 49
0.05
 49
-0.05
  0
LTYPE
  2
CENTERX2
 70
     0
  3
Center (2x) ________  __  ________  __  _____
 72
    65
 73
     4
 40
0.8
 49
0.5
 49
-0.1
 49
0.1
 49
-0.1
  0
LTYPE
  2
DOT2
 70
     0
  3
Dot (.5x) ........................................
 72
    65
 73
     2
 40
0.025
 49
0.0
 49
-0.025
  0
ENDTAB
  0
TABLE
  2
LAYER
 70
     1
  0
LAYER
  2
0
 70
     0
 62
     7
  6
CONTINUOUS
  0
ENDTAB
  0
TABLE
  2
STYLE
 70
     1
  0
STYLE
  2
STANDARD
 70
     0
 40
0.0
 41
1.0
 50
0.0
 71
     0
 42
0.2
  3
txt
  4

  0
ENDTAB
  0
TABLE
  2
VIEW
 70
     0
  0
ENDTAB
  0
TABLE
  2
UCS
 70
     0
  0
ENDTAB
  0
TABLE
  2
APPID
 70
     1
  0
APPID
  2
ACAD
 70
     0
  0
ENDTAB
  0
TABLE
  2
DIMSTYLE
 70
     5
  0
DIMSTYLE
  2
STANDARD
 70
     0
  3

  4

  5

  6

  7

 40
1.0
 41
0.18
 42
0.0625
 43
0.38
 44
0.18
 45
0.0
 46
0.0
 47
0.0
 48
0.0
140
0.18
141
0.09
142
0.0
143
25.4
144
1.0
145
0.0
146
1.0
147
0.09
 71
     0
 72
     0
 73
     1
 74
     1
 75
     0
 76
     0
 77
     0
 78
     0
170
     0
171
     2
172
     0
173
     0
174
     0
175
     0
176
     0
177
     0
178
     0
  0
DIMSTYLE
  2
SLDDIMSTYLE0
 70
     0
  3

  4

  5

  6

  7

 40
1.0
 41
0.4875
 42
0.0625
 43
0.38
 44
0.0
 45
0.000000001
 46
0.0
 47
0.0
 48
0.0
140
0.46875
141
0.09
142
0.0
143
25.4
144
1.0
145
0.0
146
1.0
147
0.1171875
 71
     0
 72
     0
 73
     1
 74
     1
 75
     0
 76
     0
 77
     0
 78
    12
170
     1
171
     2
172
     0
173
     1
174
     0
175
     0
176
     0
177
     0
178
     0
  0
DIMSTYLE
  2
SLDDIMSTYLE1
 70
     0
  3

  4

  5

  6

  7

 40
1.0
 41
0.4875
 42
0.0625
 43
0.38
 44
0.0
 45
0.000000001
 46
0.0
 47
0.0
 48
0.0
140
0.46875
141
0.09
142
0.0
143
25.4
144
1.0
145
0.0
146
1.0
147
0.1171875
 71
     0
 72
     0
 73
     1
 74
     1
 75
     0
 76
     0
 77
     0
 78
     4
170
     1
171
     2
172
     0
173
     1
174
     0
175
     0
176
     0
177
     0
178
     0
  0
DIMSTYLE
  2
SLDDIMSTYLE2
 70
     0
  3

  4

  5

  6

  7

 40
1.0
 41
0.4875
 42
0.0625
 43
0.38
 44
0.0
 45
0.000000001
 46
0.0
 47
0.0
 48
0.0
140
0.46875
141
0.09
142
0.0
143
25.4
144
1.0
145
0.0
146
1.0
147
0.1171875
 71
     0
 72
     0
 73
     1
 74
     1
 75
     0
 76
     0
 77
     0
 78
    12
170
     1
171
     2
172
     1
173
     1
174
     0
175
     0
176
     0
177
     0
178
     0
  0
DIMSTYLE
  2
SLDDIMSTYLE3
 70
     0
  3

  4

  5

  6

  7

 40
1.0
 41
0.4875
 42
0.0625
 43
0.38
 44
0.0
 45
0.000000001
 46
0.0
 47
0.0
 48
0.0
140
0.46875
141
0.0
142
0.0
143
25.4
144
1.0
145
0.0
146
1.0
147
0.1171875
 71
     0
 72
     0
 73
     1
 74
     1
 75
     0
 76
     0
 77
     0
 78
    12
170
     1
171
     2
172
     0
173
     1
174
     0
175
     0
176
     0
177
     0
178
     0
  0
ENDTAB
  0
ENDSEC
  0
SECTION
  2
BLOCKS
  0
BLOCK
  8
0
  2
$MODEL_SPACE
 70
     0
 10
0.0
 20
0.0
 30
0.0
  3
$MODEL_SPACE
  1

  0
ENDBLK
  5
21
  8
0
  0
BLOCK
 67
     1
  8
0
  2
$PAPER_SPACE
 70
     0
 10
0.0
 20
0.0
 30
0.0
  3
$PAPER_SPACE
  1

  0
ENDBLK
  5
1D
 67
     1
  8
0
  0
BLOCK
  8
0
  2
SW_NOTE_0
 70
     0
 10
0.0
 20
0.0
 30
0.0
  3
SW_NOTE_0
  1

  0
TEXT
  5
77
  8
0
  6
CONTINUOUS
 62
     0
 10
0.0
 20
0.165590654
 30
0.0
 40
0.46875
  1
MATERIAL:  16 GA. [1.5mm] STEEL
 41
0.6435483871
 11
0.0
 21
0.0
 31
0.0
 73
     1
  0
TEXT
  5
78
  8
0
  6
CONTINUOUS
 62
     0
 10
0.0
 20
-1.0671849048
 30
0.0
 40
0.46875
  1
FINISH:  METALLIC GRAY
 41
0.6522727273
 11
0.0
 21
-1.2327755589
 31
0.0
 73
     1
  0
TEXT
  5
79
  8
0
  6
CONTINUOUS
 62
     0
 10
0.0
 20
-1.6835726843
 30
0.0
 40
0.46875
  1
             BLACK TEXTURE
 41
0.5115384615
 11
0.0
 21
-1.8491633383
 31
0.0
 73
     1
  0
TEXT
  5
7A
  8
0
  6
CONTINUOUS
 62
     0
 10
0.0
 20
-2.9163482432
 30
0.0
 40
0.46875
  1
LOAD RATING:  150 LBS. [68 KG.] MAX.
 41
0.6319444444
 11
0.0
 21
-3.0819388972
 31
0.0
 73
     1
  0
ENDBLK
  5
76
  8
0
  0
BLOCK
  8
0
  2
SW_NOTE_1
 70
     0
 10
0.0
 20
0.0
 30
0.0
  3
SW_NOTE_1
  1

  0
TEXT
  5
82
  8
0
  6
CONTINUOUS
 62
     0
 10
0.0
 20
0.165590654
 30
0.0
 40
0.46875
  1
PART
 41
0.7
 11
0.0
 21
0.0
 31
0.0
 73
     1
  0
TEXT
  5
83
  8
0
  6
CONTINUOUS
 62
     0
 10
-0.1747639874
 20
-0.4507971254
 30
0.0
 40
0.46875
  1
NAME
 41
0.7
 11
-0.1747639874
 21
-0.6163877794
 31
0.0
 73
     1
  0
ENDBLK
  5
81
  8
0
  0
BLOCK
  8
0
  2
SW_NOTE_2
 70
     0
 10
0.0
 20
0.0
 30
0.0
  3
SW_NOTE_2
  1

  0
TEXT
  5
88
  8
0
  6
CONTINUOUS
 62
     0
 10
0.0
 20
0.165590654
 30
0.0
 40
0.46875
  1
PART
 41
0.7
 11
0.0
 21
0.0
 31
0.0
 73
     1
  0
TEXT
  5
89
  8
0
  6
CONTINUOUS
 62
     0
 10
0.218912768
 20
-0.4507971254
 30
0.0
 40
0.46875
  1
No.
 41
0.7
 11
0.218912768
 21
-0.6163877794
 31
0.0
 73
     1
  0
ENDBLK
  5
87
  8
0
  0
BLOCK
  8
0
  2
SW_NOTE_3
 70
     0
 10
0.0
 20
0.0
 30
0.0
  3
SW_NOTE_3
  1

  0
TEXT
  5
8E
  8
0
  6
CONTINUOUS
 62
     0
 10
0.0
 20
0.165590654
 30
0.0
 40
0.46875
  1
REVISION
 41
0.7
 11
0.0
 21
0.0
 31
0.0
 73
     1
  0
TEXT
  5
8F
  8
0
  6
CONTINUOUS
 62
     0
 10
0.5858561196
 20
-0.4507971254
 30
0.0
 40
0.46875
  1
DATE
 41
0.7
 11
0.5858561196
 21
-0.6163877794
 31
0.0
 73
     1
  0
ENDBLK
  5
8D
  8
0
  0
BLOCK
  8
0
  2
*D5
 70
     1
 10
0.0
 20
0.0
 30
0.0
  3
*D5
  1

  0
SOLID
  5
170
  8
0
  6
CONTINUOUS
 62
     7
 10
8.6902499139
 20
11.9986479946
 30
0.0
 11
9.1777499139
 21
11.9236479946
 31
0.0
 12
9.1777499139
 22
12.0736479946
 32
0.0
 13
9.1777499139
 23
12.0736479946
 33
0.0
  0
SOLID
  5
171
  8
0
  6
CONTINUOUS
 62
     7
 10
27.0342499139
 20
11.9986479946
 30
0.0
 11
26.5467499139
 21
12.0736479946
 31
0.0
 12
26.5467499139
 22
11.9236479946
 32
0.0
 13
26.5467499139
 23
11.9236479946
 33
0.0
  0
LINE
  5
172
  8
0
  6
CONTINUOUS
 62
     7
 10
16.9639345104
 20
11.995067261
 30
0.0
 11
16.8687196619
 21
11.995067261
 31
0.0
  0
LINE
  5
173
  8
0
  6
CONTINUOUS
 62
     7
 10
16.8687196619
 20
11.995067261
 30
0.0
 11
16.8687196619
 21
11.2509266136
 31
0.0
  0
LINE
  5
174
  8
0
  6
CONTINUOUS
 62
     7
 10
16.8687196619
 20
11.2509266136
 30
0.0
 11
16.9639345104
 21
11.2509266136
 31
0.0
  0
LINE
  5
175
  8
0
  6
CONTINUOUS
 62
     7
 10
18.7605653517
 20
11.995067261
 30
0.0
 11
18.8557802002
 21
11.995067261
 31
0.0
  0
LINE
  5
176
  8
0
  6
CONTINUOUS
 62
     7
 10
18.8557802002
 20
11.995067261
 30
0.0
 11
18.8557802002
 21
11.2509266136
 31
0.0
  0
LINE
  5
177
  8
0
  6
CONTINUOUS
 62
     7
 10
18.8557802002
 20
11.2509266136
 30
0.0
 11
18.7605653517
 21
11.2509266136
 31
0.0
  0
LINE
  5
178
  8
0
  6
CONTINUOUS
 62
     7
 10
8.6902499139
 20
10.6162700419
 30
0.0
 11
8.6902499139
 21
12.4673979946
 31
0.0
  0
LINE
  5
179
  8
0
  6
CONTINUOUS
 62
     7
 10
27.0342499139
 20
10.6162700419
 30
0.0
 11
27.0342499139
 21
12.4673979946
 31
0.0
  0
LINE
  5
17A
  8
0
  6
CONTINUOUS
 62
     7
 10
8.6902499139
 20
11.9986479946
 30
0.0
 11
16.5290722045
 21
11.9986479946
 31
0.0
  0
LINE
  5
17B
  8
0
  6
CONTINUOUS
 62
     7
 10
27.0342499139
 20
11.9986479946
 30
0.0
 11
19.1954276233
 21
11.9986479946
 31
0.0
  0
TEXT
  5
17C
  8
0
  6
CONTINUOUS
 62
     7
 10
16.6241314417
 20
12.2630342566
 30
0.0039370079
 40
0.46875
  1
 
 41
0.7
 11
16.6241314417
 21
12.0974436026
 31
0.0039370079
 73
     1
  0
TEXT
  5
17D
  8
0
  6
CONTINUOUS
 62
     7
 10
16.8925234256
 20
12.2558727635
 30
0.0039370079
 40
0.46875
  1
18.34
 41
0.7
 11
16.8925234256
 21
12.0902821095
 31
0.0039370079
 73
     1
  0
TEXT
  5
17E
  8
0
  6
CONTINUOUS
 62
     7
 10
17.0829530711
 20
11.4165172419
 30
0.0039370079
 40
0.46875
  1
465.9
 41
0.7
 11
17.0829530711
 21
11.2509265878
 31
0.0039370079
 73
     1
  0
TEXT
  5
17F
  8
0
  6
CONTINUOUS
 62
     7
 10
18.9271913366
 20
12.2630342566
 30
0.0039370079
 40
0.46875
  1
 
 41
0.7
 11
18.9271913366
 21
12.0974436026
 31
0.0039370079
 73
     1
  0
ENDBLK
  5
16F
  8
0
  0
BLOCK
  8
0
  2
*D6
 70
     1
 10
0.0
 20
0.0
 30
0.0
  3
*D6
  1

  0
SOLID
  5
185
  8
0
  6
CONTINUOUS
 62
     7
 10
8.3622499139
 20
13.7703015379
 30
0.0
 11
8.8497499139
 21
13.6953015379
 31
0.0
 12
8.8497499139
 22
13.8453015379
 32
0.0
 13
8.8497499139
 23
13.8453015379
 33
0.0
  0
SOLID
  5
186
  8
0
  6
CONTINUOUS
 62
     7
 10
27.3622499139
 20
13.7703015379
 30
0.0
 11
26.8747499139
 21
13.8453015379
 31
0.0
 12
26.8747499139
 22
13.6953015379
 32
0.0
 13
26.8747499139
 23
13.6953015379
 33
0.0
  0
LINE
  5
187
  8
0
  6
CONTINUOUS
 62
     7
 10
16.9639345104
 20
13.7667208043
 30
0.0
 11
16.8687196619
 21
13.7667208043
 31
0.0
  0
LINE
  5
188
  8
0
  6
CONTINUOUS
 62
     7
 10
16.8687196619
 20
13.7667208043
 30
0.0
 11
16.8687196619
 21
13.0225801569
 31
0.0
  0
LINE
  5
189
  8
0
  6
CONTINUOUS
 62
     7
 10
16.8687196619
 20
13.0225801569
 30
0.0
 11
16.9639345104
 21
13.0225801569
 31
0.0
  0
LINE
  5
18A
  8
0
  6
CONTINUOUS
 62
     7
 10
18.7605653517
 20
13.7667208043
 30
0.0
 11
18.8557802002
 21
13.7667208043
 31
0.0
  0
LINE
  5
18B
  8
0
  6
CONTINUOUS
 62
     7
 10
18.8557802002
 20
13.7667208043
 30
0.0
 11
18.8557802002
 21
13.0225801569
 31
0.0
  0
LINE
  5
18C
  8
0
  6
CONTINUOUS
 62
     7
 10
18.8557802002
 20
13.0225801569
 30
0.0
 11
18.7605653517
 21
13.0225801569
 31
0.0
  0
LINE
  5
18D
  8
0
  6
CONTINUOUS
 62
     7
 10
8.3622499139
 20
10.7097700419
 30
0.0
 11
8.3622499139
 21
14.2390515379
 31
0.0
  0
LINE
  5
18E
  8
0
  6
CONTINUOUS
 62
     7
 10
27.3622499139
 20
10.7097700419
 30
0.0
 11
27.3622499139
 21
14.2390515379
 31
0.0
  0
LINE
  5
18F
  8
0
  6
CONTINUOUS
 62
     7
 10
8.3622499139
 20
13.7703015379
 30
0.0
 11
16.5290722045
 21
13.7703015379
 31
0.0
  0
LINE
  5
190
  8
0
  6
CONTINUOUS
 62
     7
 10
27.3622499139
 20
13.7703015379
 30
0.0
 11
19.1954276233
 21
13.7703015379
 31
0.0
  0
TEXT
  5
191
  8
0
  6
CONTINUOUS
 62
     7
 10
16.6241314417
 20
14.0346877999
 30
0.0039370079
 40
0.46875
  1
 
 41
0.7
 11
16.6241314417
 21
13.8690971459
 31
0.0039370079
 73
     1
  0
TEXT
  5
192
  8
0
  6
CONTINUOUS
 62
     7
 10
16.8925234256
 20
14.0275263068
 30
0.0039370079
 40
0.46875
  1
19.00
 41
0.7
 11
16.8925234256
 21
13.8619356528
 31
0.0039370079
 73
     1
  0
TEXT
  5
193
  8
0
  6
CONTINUOUS
 62
     7
 10
17.0829530711
 20
13.1881707852
 30
0.0039370079
 40
0.46875
  1
482.6
 41
0.7
 11
17.0829530711
 21
13.0225801312
 31
0.0039370079
 73
     1
  0
TEXT
  5
194
  8
0
  6
CONTINUOUS
 62
     7
 10
18.9271913366
 20
14.0346877999
 30
0.0039370079
 40
0.46875
  1
 
 41
0.7
 11
18.9271913366
 21
13.8690971459
 31
0.0039370079
 73
     1
  0
ENDBLK
  5
184
  8
0
  0
BLOCK
  8
0
  2
*D7
 70
     1
 10
0.0
 20
0.0
 30
0.0
  3
*D7
  1

  0
SOLID
  5
19A
  8
0
  6
CONTINUOUS
 62
     7
 10
21.4061114564
 20
5.6792700419
 30
0.0
 11
21.4811114564
 21
6.1667700419
 31
0.0
 12
21.3311114564
 22
6.1667700419
 32
0.0
 13
21.3311114564
 23
6.1667700419
 33
0.0
  0
SOLID
  5
19B
  8
0
  6
CONTINUOUS
 62
     7
 10
21.4061114564
 20
5.3042700419
 30
0.0
 11
21.3311114564
 21
4.8167700419
 31
0.0
 12
21.4811114564
 22
4.8167700419
 32
0.0
 13
21.4811114564
 23
4.8167700419
 33
0.0
  0
LINE
  5
19C
  8
0
  6
CONTINUOUS
 62
     7
 10
17.1884387554
 20
3.9500646125
 30
0.0
 11
17.0932239069
 21
3.9500646125
 31
0.0
  0
LINE
  5
19D
  8
0
  6
CONTINUOUS
 62
     7
 10
17.0932239069
 20
3.9500646125
 30
0.0
 11
17.0932239069
 21
3.2059239652
 31
0.0
  0
LINE
  5
19E
  8
0
  6
CONTINUOUS
 62
     7
 10
17.0932239069
 20
3.2059239652
 30
0.0
 11
17.1884387554
 21
3.2059239652
 31
0.0
  0
LINE
  5
19F
  8
0
  6
CONTINUOUS
 62
     7
 10
18.2923612614
 20
3.9500646125
 30
0.0
 11
18.3875761099
 21
3.9500646125
 31
0.0
  0
LINE
  5
1A0
  8
0
  6
CONTINUOUS
 62
     7
 10
18.3875761099
 20
3.9500646125
 30
0.0
 11
18.3875761099
 21
3.2059239652
 31
0.0
  0
LINE
  5
1A1
  8
0
  6
CONTINUOUS
 62
     7
 10
18.3875761099
 20
3.2059239652
 30
0.0
 11
18.2923612614
 21
3.2059239652
 31
0.0
  0
LINE
  5
1A2
  8
0
  6
CONTINUOUS
 62
     7
 10
20.9373614564
 20
3.5815749881
 30
0.0
 11
21.4061114564
 21
3.5815749881
 31
0.0
  0
LINE
  5
1A3
  8
0
  6
CONTINUOUS
 62
     7
 10
21.4061114564
 20
3.5815749881
 30
0.0
 11
21.4061114564
 21
5.3042700419
 31
0.0
  0
LINE
  5
1A4
  8
0
  6
CONTINUOUS
 62
     7
 10
21.4061114564
 20
5.6792700419
 30
0.0
 11
21.4061114564
 21
6.6167700419
 31
0.0
  0
TEXT
  5
1A5
  8
0
  6
CONTINUOUS
 62
     7
 10
17.1170276018
 20
4.2108701151
 30
0.0039370079
 40
0.46875
  1
.38
 41
0.7
 11
17.1170276018
 21
4.0452794611
 31
0.0039370079
 73
     1
  0
TEXT
  5
1A6
  8
0
  6
CONTINUOUS
 62
     7
 10
17.307457316
 20
3.3715145934
 30
0.0039370079
 40
0.46875
  1
9.5
 41
0.7
 11
17.307457316
 21
3.2059239394
 31
0.0039370079
 73
     1
  0
TEXT
  5
1A7
  8
0
  6
CONTINUOUS
 62
     7
 10
18.4589872806
 20
4.2180316081
 30
0.0039370079
 40
0.46875
  1
 TYP.
 41
0.7
 11
18.4589872806
 21
4.0524409541
 31
0.0039370079
 73
     1
  0
TEXT
  5
1A8
  8
0
  6
CONTINUOUS
 62
     7
 10
16.1808297231
 20
2.532159046
 30
0.0039370079
 40
0.46875
  1
FRONT & BACK
 41
0.6416666667
 11
16.1808297231
 21
2.3665683919
 31
0.0039370079
 73
     1
  0
ENDBLK
  5
199
  8
0
  0
BLOCK
  8
0
  2
*D8
 70
     1
 10
0.0
 20
0.0
 30
0.0
  3
*D8
  1

  0
SOLID
  5
1AD
  8
0
  6
CONTINUOUS
 62
     7
 10
31.9516068339
 20
9.0382700419
 30
0.0
 11
31.8766068339
 21
8.5507700419
 31
0.0
 12
32.0266068339
 22
8.5507700419
 32
0.0
 13
32.0266068339
 23
8.5507700419
 33
0.0
  0
SOLID
  5
1AE
  8
0
  6
CONTINUOUS
 62
     7
 10
31.9516068339
 20
10.2882700419
 30
0.0
 11
32.0266068339
 21
10.7757700419
 31
0.0
 12
31.8766068339
 22
10.7757700419
 32
0.0
 13
31.8766068339
 23
10.7757700419
 33
0.0
  0
LINE
  5
1AF
  8
0
  6
CONTINUOUS
 62
     7
 10
33.0453376143
 20
11.3403645063
 30
0.0
 11
32.9501227658
 21
11.3403645063
 31
0.0
  0
LINE
  5
1B0
  8
0
  6
CONTINUOUS
 62
     7
 10
32.9501227658
 20
11.3403645063
 30
0.0
 11
32.9501227658
 21
10.596223859
 31
0.0
  0
LINE
  5
1B1
  8
0
  6
CONTINUOUS
 62
     7
 10
32.9501227658
 20
10.596223859
 30
0.0
 11
33.0453376143
 21
10.596223859
 31
0.0
  0
LINE
  5
1B2
  8
0
  6
CONTINUOUS
 62
     7
 10
34.4956143567
 20
11.3403645063
 30
0.0
 11
34.5908292052
 21
11.3403645063
 31
0.0
  0
LINE
  5
1B3
  8
0
  6
CONTINUOUS
 62
     7
 10
34.5908292052
 20
11.3403645063
 30
0.0
 11
34.5908292052
 21
10.596223859
 31
0.0
  0
LINE
  5
1B4
  8
0
  6
CONTINUOUS
 62
     7
 10
34.5908292052
 20
10.596223859
 30
0.0
 11
34.4956143567
 21
10.596223859
 31
0.0
  0
LINE
  5
1B5
  8
0
  6
CONTINUOUS
 62
     7
 10
27.2997499139
 20
9.0382700419
 30
0.0
 11
32.4203568339
 21
9.0382700419
 31
0.0
  0
LINE
  5
1B6
  8
0
  6
CONTINUOUS
 62
     7
 10
27.2997499139
 20
10.2882700419
 30
0.0
 11
32.4203568339
 21
10.2882700419
 31
0.0
  0
LINE
  5
1B7
  8
0
  6
CONTINUOUS
 62
     7
 10
32.4203568339
 20
11.34394524
 30
0.0
 11
31.9516068339
 21
11.34394524
 31
0.0
  0
LINE
  5
1B8
  8
0
  6
CONTINUOUS
 62
     7
 10
31.9516068339
 20
11.34394524
 30
0.0
 11
31.9516068339
 21
10.2882700419
 31
0.0
  0
LINE
  5
1B9
  8
0
  6
CONTINUOUS
 62
     7
 10
31.9516068339
 20
9.0382700419
 30
0.0
 11
31.9516068339
 21
8.1007700419
 31
0.0
  0
TEXT
  5
1BA
  8
0
  6
CONTINUOUS
 62
     7
 10
32.7055345456
 20
11.6083315019
 30
0.0039370079
 40
0.46875
  1
 
 41
0.7
 11
32.7055345456
 21
11.4427408479
 31
0.0039370079
 73
     1
  0
TEXT
  5
1BB
  8
0
  6
CONTINUOUS
 62
     7
 10
32.9739265295
 20
11.6011700089
 30
0.0039370079
 40
0.46875
  1
1.25
 41
0.7
 11
32.9739265295
 21
11.4355793549
 31
0.0039370079
 73
     1
  0
TEXT
  5
1BC
  8
0
  6
CONTINUOUS
 62
     7
 10
33.164356175
 20
10.7618144872
 30
0.0039370079
 40
0.46875
  1
31.8
 41
0.7
 11
33.164356175
 21
10.5962238332
 31
0.0039370079
 73
     1
  0
TEXT
  5
1BD
  8
0
  6
CONTINUOUS
 62
     7
 10
34.6622403416
 20
11.6083315019
 30
0.0039370079
 40
0.46875
  1
 
 41
0.7
 11
34.6622403416
 21
11.4427408479
 31
0.0039370079
 73
     1
  0
ENDBLK
  5
1AC
  8
0
  0
BLOCK
  8
0
  2
*D9
 70
     1
 10
0.0
 20
0.0
 30
0.0
  3
*D9
  1

  0
SOLID
  5
1C2
  8
0
  6
CONTINUOUS
 62
     7
 10
30.2879051129
 20
9.0382700419
 30
0.0
 11
30.3629051129
 21
9.5257700419
 31
0.0
 12
30.2129051129
 22
9.5257700419
 32
0.0
 13
30.2129051129
 23
9.5257700419
 33
0.0
  0
SOLID
  5
1C3
  8
0
  6
CONTINUOUS
 62
     7
 10
30.2879051129
 20
6.7882700419
 30
0.0
 11
30.2129051129
 21
6.3007700419
 31
0.0
 12
30.3629051129
 22
6.3007700419
 32
0.0
 13
30.3629051129
 23
6.3007700419
 33
0.0
  0
LINE
  5
1C4
  8
0
  6
CONTINUOUS
 62
     7
 10
29.5627667589
 20
7.9096893082
 30
0.0
 11
29.4675519104
 21
7.9096893082
 31
0.0
  0
LINE
  5
1C5
  8
0
  6
CONTINUOUS
 62
     7
 10
29.4675519104
 20
7.9096893082
 30
0.0
 11
29.4675519104
 21
7.1655486609
 31
0.0
  0
LINE
  5
1C6
  8
0
  6
CONTINUOUS
 62
     7
 10
29.4675519104
 20
7.1655486609
 30
0.0
 11
29.5627667589
 21
7.1655486609
 31
0.0
  0
LINE
  5
1C7
  8
0
  6
CONTINUOUS
 62
     7
 10
31.0130435013
 20
7.9096893082
 30
0.0
 11
31.1082583498
 21
7.9096893082
 31
0.0
  0
LINE
  5
1C8
  8
0
  6
CONTINUOUS
 62
     7
 10
31.1082583498
 20
7.9096893082
 30
0.0
 11
31.1082583498
 21
7.1655486609
 31
0.0
  0
LINE
  5
1C9
  8
0
  6
CONTINUOUS
 62
     7
 10
31.1082583498
 20
7.1655486609
 30
0.0
 11
31.0130435013
 21
7.1655486609
 31
0.0
  0
LINE
  5
1CA
  8
0
  6
CONTINUOUS
 62
     7
 10
27.2997499139
 20
9.0382700419
 30
0.0
 11
30.7566551129
 21
9.0382700419
 31
0.0
  0
LINE
  5
1CB
  8
0
  6
CONTINUOUS
 62
     7
 10
27.2997499139
 20
6.7882700419
 30
0.0
 11
30.7566551129
 21
6.7882700419
 31
0.0
  0
LINE
  5
1CC
  8
0
  6
CONTINUOUS
 62
     7
 10
30.2879051129
 20
9.0382700419
 30
0.0
 11
30.2879051129
 21
9.9757700419
 31
0.0
  0
LINE
  5
1CD
  8
0
  6
CONTINUOUS
 62
     7
 10
30.2879051129
 20
6.7882700419
 30
0.0
 11
30.2879051129
 21
5.8507700419
 31
0.0
  0
TEXT
  5
1CE
  8
0
  6
CONTINUOUS
 62
     7
 10
29.2229636902
 20
8.1776563038
 30
0.0039370079
 40
0.46875
  1
 
 41
0.7
 11
29.2229636902
 21
8.0120656498
 31
0.0039370079
 73
     1
  0
TEXT
  5
1CF
  8
0
  6
CONTINUOUS
 62
     7
 10
29.4913556741
 20
8.1704948108
 30
0.0039370079
 40
0.46875
  1
2.25
 41
0.7
 11
29.4913556741
 21
8.0049041568
 31
0.0039370079
 73
     1
  0
TEXT
  5
1D0
  8
0
  6
CONTINUOUS
 62
     7
 10
29.6817853196
 20
7.3311392891
 30
0.0039370079
 40
0.46875
  1
57.2
 41
0.7
 11
29.6817853196
 21
7.1655486351
 31
0.0039370079
 73
     1
  0
TEXT
  5
1D1
  8
0
  6
CONTINUOUS
 62
     7
 10
31.1796694862
 20
8.1776563038
 30
0.0039370079
 40
0.46875
  1
 
 41
0.7
 11
31.1796694862
 21
8.0120656498
 31
0.0039370079
 73
     1
  0
ENDBLK
  5
1C1
  8
0
  0
BLOCK
  8
0
  2
*D10
 70
     1
 10
0.0
 20
0.0
 30
0.0
  3
*D10
  1

  0
SOLID
  5
1D6
  8
0
  6
CONTINUOUS
 62
     7
 10
28.679041084
 20
6.7882700419
 30
0.0
 11
28.754041084
 21
7.2757700419
 31
0.0
 12
28.604041084
 22
7.2757700419
 32
0.0
 13
28.604041084
 23
7.2757700419
 33
0.0
  0
SOLID
  5
1D7
  8
0
  6
CONTINUOUS
 62
     7
 10
28.679041084
 20
5.5382700419
 30
0.0
 11
28.604041084
 21
5.0507700419
 31
0.0
 12
28.754041084
 22
5.0507700419
 32
0.0
 13
28.754041084
 23
5.0507700419
 33
0.0
  0
LINE
  5
1D8
  8
0
  6
CONTINUOUS
 62
     7
 10
29.7727718645
 20
4.4214263056
 30
0.0
 11
29.6775570159
 21
4.4214263056
 31
0.0
  0
LINE
  5
1D9
  8
0
  6
CONTINUOUS
 62
     7
 10
29.6775570159
 20
4.4214263056
 30
0.0
 11
29.6775570159
 21
3.6772856582
 31
0.0
  0
LINE
  5
1DA
  8
0
  6
CONTINUOUS
 62
     7
 10
29.6775570159
 20
3.6772856582
 30
0.0
 11
29.7727718645
 21
3.6772856582
 31
0.0
  0
LINE
  5
1DB
  8
0
  6
CONTINUOUS
 62
     7
 10
31.2230486068
 20
4.4214263056
 30
0.0
 11
31.3182634553
 21
4.4214263056
 31
0.0
  0
LINE
  5
1DC
  8
0
  6
CONTINUOUS
 62
     7
 10
31.3182634553
 20
4.4214263056
 30
0.0
 11
31.3182634553
 21
3.6772856582
 31
0.0
  0
LINE
  5
1DD
  8
0
  6
CONTINUOUS
 62
     7
 10
31.3182634553
 20
3.6772856582
 30
0.0
 11
31.2230486068
 21
3.6772856582
 31
0.0
  0
LINE
  5
1DE
  8
0
  6
CONTINUOUS
 62
     7
 10
27.2997499139
 20
6.7882700419
 30
0.0
 11
29.147791084
 21
6.7882700419
 31
0.0
  0
LINE
  5
1DF
  8
0
  6
CONTINUOUS
 62
     7
 10
27.2997499139
 20
5.5382700419
 30
0.0
 11
29.147791084
 21
5.5382700419
 31
0.0
  0
LINE
  5
1E0
  8
0
  6
CONTINUOUS
 62
     7
 10
29.147791084
 20
4.4250070392
 30
0.0
 11
28.679041084
 21
4.4250070392
 31
0.0
  0
LINE
  5
1E1
  8
0
  6
CONTINUOUS
 62
     7
 10
28.679041084
 20
4.4250070392
 30
0.0
 11
28.679041084
 21
5.5382700419
 31
0.0
  0
LINE
  5
1E2
  8
0
  6
CONTINUOUS
 62
     7
 10
28.679041084
 20
6.7882700419
 30
0.0
 11
28.679041084
 21
7.7257700419
 31
0.0
  0
TEXT
  5
1E3
  8
0
  6
CONTINUOUS
 62
     7
 10
29.4329687957
 20
4.6893933012
 30
0.0039370079
 40
0.46875
  1
 
 41
0.7
 11
29.4329687957
 21
4.5238026472
 31
0.0039370079
 73
     1
  0
TEXT
  5
1E4
  8
0
  6
CONTINUOUS
 62
     7
 10
29.7013607796
 20
4.6822318081
 30
0.0039370079
 40
0.46875
  1
1.25
 41
0.7
 11
29.7013607796
 21
4.5166411541
 31
0.0039370079
 73
     1
  0
TEXT
  5
1E5
  8
0
  6
CONTINUOUS
 62
     7
 10
29.8917904251
 20
3.8428762865
 30
0.0039370079
 40
0.46875
  1
31.8
 41
0.7
 11
29.8917904251
 21
3.6772856325
 31
0.0039370079
 73
     1
  0
TEXT
  5
1E6
  8
0
  6
CONTINUOUS
 62
     7
 10
31.3896745917
 20
4.6893933012
 30
0.0039370079
 40
0.46875
  1
 
 41
0.7
 11
31.3896745917
 21
4.5238026472
 31
0.0039370079
 73
     1
  0
ENDBLK
  5
1D5
  8
0
  0
BLOCK
  8
0
  2
*D11
 70
     1
 10
0.0
 20
0.0
 30
0.0
  3
*D11
  1

  0
SOLID
  5
1EB
  8
0
  6
CONTINUOUS
 62
     7
 10
7.1895344522
 20
5.6787700419
 30
0.0
 11
7.2645344522
 21
6.1662700419
 31
0.0
 12
7.1145344522
 22
6.1662700419
 32
0.0
 13
7.1145344522
 23
6.1662700419
 33
0.0
  0
SOLID
  5
1EC
  8
0
  6
CONTINUOUS
 62
     7
 10
7.1895344522
 20
5.3977700419
 30
0.0
 11
7.1145344522
 21
4.9102700419
 31
0.0
 12
7.2645344522
 22
4.9102700419
 32
0.0
 13
7.2645344522
 23
4.9102700419
 33
0.0
  0
LINE
  5
1ED
  8
0
  6
CONTINUOUS
 62
     7
 10
4.9918812002
 20
6.6284200429
 30
0.0
 11
4.8966663517
 21
6.6284200429
 31
0.0
  0
LINE
  5
1EE
  8
0
  6
CONTINUOUS
 62
     7
 10
4.8966663517
 20
6.6284200429
 30
0.0
 11
4.8966663517
 21
5.8842793955
 31
0.0
  0
LINE
  5
1EF
  8
0
  6
CONTINUOUS
 62
     7
 10
4.8966663517
 20
5.8842793955
 30
0.0
 11
4.9918812002
 21
5.8842793955
 31
0.0
  0
LINE
  5
1F0
  8
0
  6
CONTINUOUS
 62
     7
 10
6.0958037062
 20
6.6284200429
 30
0.0
 11
6.1910185547
 21
6.6284200429
 31
0.0
  0
LINE
  5
1F1
  8
0
  6
CONTINUOUS
 62
     7
 10
6.1910185547
 20
6.6284200429
 30
0.0
 11
6.1910185547
 21
5.8842793955
 31
0.0
  0
LINE
  5
1F2
  8
0
  6
CONTINUOUS
 62
     7
 10
6.1910185547
 20
5.8842793955
 30
0.0
 11
6.0958037062
 21
5.8842793955
 31
0.0
  0
LINE
  5
1F3
  8
0
  6
CONTINUOUS
 62
     7
 10
8.4247499139
 20
5.6787700419
 30
0.0
 11
6.7207844522
 21
5.6787700419
 31
0.0
  0
LINE
  5
1F4
  8
0
  6
CONTINUOUS
 62
     7
 10
8.4247499139
 20
5.3977700419
 30
0.0
 11
6.7207844522
 21
5.3977700419
 31
0.0
  0
LINE
  5
1F5
  8
0
  6
CONTINUOUS
 62
     7
 10
6.7207844522
 20
6.6320007765
 30
0.0
 11
7.1895344522
 21
6.6320007765
 31
0.0
  0
LINE
  5
1F6
  8
0
  6
CONTINUOUS
 62
     7
 10
7.1895344522
 20
6.6320007765
 30
0.0
 11
7.1895344522
 21
5.6787700419
 31
0.0
  0
LINE
  5
1F7
  8
0
  6
CONTINUOUS
 62
     7
 10
7.1895344522
 20
5.3977700419
 30
0.0
 11
7.1895344522
 21
4.4602700419
 31
0.0
  0
TEXT
  5
1F8
  8
0
  6
CONTINUOUS
 62
     7
 10
4.6520781315
 20
6.8963870385
 30
0.0039370079
 40
0.46875
  1
 
 41
0.7
 11
4.6520781315
 21
6.7307963845
 31
0.0039370079
 73
     1
  0
TEXT
  5
1F9
  8
0
  6
CONTINUOUS
 62
     7
 10
4.9204700466
 20
6.8892255454
 30
0.0039370079
 40
0.46875
  1
.28
 41
0.7
 11
4.9204700466
 21
6.7236348914
 31
0.0039370079
 73
     1
  0
TEXT
  5
1FA
  8
0
  6
CONTINUOUS
 62
     7
 10
5.1108997608
 20
6.0498700238
 30
0.0039370079
 40
0.46875
  1
7.1
 41
0.7
 11
5.1108997608
 21
5.8842793697
 31
0.0039370079
 73
     1
  0
TEXT
  5
1FB
  8
0
  6
CONTINUOUS
 62
     7
 10
6.262429691
 20
6.8963870385
 30
0.0039370079
 40
0.46875
  1
 
 41
0.7
 11
6.262429691
 21
6.7307963845
 31
0.0039370079
 73
     1
  0
ENDBLK
  5
1EA
  8
0
  0
BLOCK
  8
0
  2
*D12
 70
     1
 10
0.0
 20
0.0
 30
0.0
  3
*D12
  1

  0
SOLID
  5
200
  8
0
  6
CONTINUOUS
 62
     7
 10
8.4717499139
 20
3.98612113
 30
0.0
 11
7.9842499139
 21
4.06112113
 31
0.0
 12
7.9842499139
 22
3.91112113
 32
0.0
 13
7.9842499139
 23
3.91112113
 33
0.0
  0
SOLID
  5
201
  8
0
  6
CONTINUOUS
 62
     7
 10
8.9087499139
 20
3.98612113
 30
0.0
 11
9.3962499139
 21
3.91112113
 31
0.0
 12
9.3962499139
 22
4.06112113
 32
0.0
 13
9.3962499139
 23
4.06112113
 33
0.0
  0
LINE
  5
202
  8
0
  6
CONTINUOUS
 62
     7
 10
10.4171503685
 20
3.9825403964
 30
0.0
 11
10.32193552
 21
3.9825403964
 31
0.0
  0
LINE
  5
203
  8
0
  6
CONTINUOUS
 62
     7
 10
10.32193552
 20
3.9825403964
 30
0.0
 11
10.32193552
 21
3.238399749
 31
0.0
  0
LINE
  5
204
  8
0
  6
CONTINUOUS
 62
     7
 10
10.32193552
 20
3.238399749
 30
0.0
 11
10.4171503685
 21
3.238399749
 31
0.0
  0
LINE
  5
205
  8
0
  6
CONTINUOUS
 62
     7
 10
11.8674271109
 20
3.9825403964
 30
0.0
 11
11.9626419594
 21
3.9825403964
 31
0.0
  0
LINE
  5
206
  8
0
  6
CONTINUOUS
 62
     7
 10
11.9626419594
 20
3.9825403964
 30
0.0
 11
11.9626419594
 21
3.238399749
 31
0.0
  0
LINE
  5
207
  8
0
  6
CONTINUOUS
 62
     7
 10
11.9626419594
 20
3.238399749
 30
0.0
 11
11.8674271109
 21
3.238399749
 31
0.0
  0
LINE
  5
208
  8
0
  6
CONTINUOUS
 62
     7
 10
8.4717499139
 20
5.3507700419
 30
0.0
 11
8.4717499139
 21
3.51737113
 31
0.0
  0
LINE
  5
209
  8
0
  6
CONTINUOUS
 62
     7
 10
8.9087499139
 20
5.3507700419
 30
0.0
 11
8.9087499139
 21
3.51737113
 31
0.0
  0
LINE
  5
20A
  8
0
  6
CONTINUOUS
 62
     7
 10
8.4717499139
 20
3.98612113
 30
0.0
 11
7.5342499139
 21
3.98612113
 31
0.0
  0
LINE
  5
20B
  8
0
  6
CONTINUOUS
 62
     7
 10
8.9087499139
 20
3.98612113
 30
0.0
 11
9.9822880626
 21
3.98612113
 31
0.0
  0
TEXT
  5
20C
  8
0
  6
CONTINUOUS
 62
     7
 10
10.0773472998
 20
4.2505073919
 30
0.0039370079
 40
0.46875
  1
 
 41
0.7
 11
10.0773472998
 21
4.0849167379
 31
0.0039370079
 73
     1
  0
TEXT
  5
20D
  8
0
  6
CONTINUOUS
 62
     7
 10
10.5189163331
 20
4.2433458989
 30
0.0039370079
 40
0.46875
  1
.44
 41
0.7
 11
10.5189163331
 21
4.0777552449
 31
0.0039370079
 73
     1
  0
TEXT
  5
20E
  8
0
  6
CONTINUOUS
 62
     7
 10
10.5361689291
 20
3.4039903772
 30
0.0039370079
 40
0.46875
  1
11.1
 41
0.7
 11
10.5361689291
 21
3.2383997232
 31
0.0039370079
 73
     1
  0
TEXT
  5
20F
  8
0
  6
CONTINUOUS
 62
     7
 10
12.0340530958
 20
4.2505073919
 30
0.0039370079
 40
0.46875
  1
 
 41
0.7
 11
12.0340530958
 21
4.0849167379
 31
0.0039370079
 73
     1
  0
ENDBLK
  5
1FF
  8
0
  0
BLOCK
  8
0
  2
*D13
 70
     1
 10
0.0
 20
0.0
 30
0.0
  3
*D13
  1

  0
SOLID
  5
252
  8
0
  6
CONTINUOUS
 62
     7
 10
9.0497499139
 20
37.318640836
 30
0.0
 11
9.5372499139
 21
37.243640836
 31
0.0
 12
9.5372499139
 22
37.393640836
 32
0.0
 13
9.5372499139
 23
37.393640836
 33
0.0
  0
SOLID
  5
253
  8
0
  6
CONTINUOUS
 62
     7
 10
26.6747499139
 20
37.318640836
 30
0.0
 11
26.1872499139
 21
37.393640836
 31
0.0
 12
26.1872499139
 22
37.243640836
 32
0.0
 13
26.1872499139
 23
37.243640836
 33
0.0
  0
LINE
  5
254
  8
0
  6
CONTINUOUS
 62
     7
 10
16.9639345104
 20
37.3150601024
 30
0.0
 11
16.8687196619
 21
37.3150601024
 31
0.0
  0
LINE
  5
255
  8
0
  6
CONTINUOUS
 62
     7
 10
16.8687196619
 20
37.3150601024
 30
0.0
 11
16.8687196619
 21
36.570919455
 31
0.0
  0
LINE
  5
256
  8
0
  6
CONTINUOUS
 62
     7
 10
16.8687196619
 20
36.570919455
 30
0.0
 11
16.9639345104
 21
36.570919455
 31
0.0
  0
LINE
  5
257
  8
0
  6
CONTINUOUS
 62
     7
 10
18.7605653517
 20
37.3150601024
 30
0.0
 11
18.8557802002
 21
37.3150601024
 31
0.0
  0
LINE
  5
258
  8
0
  6
CONTINUOUS
 62
     7
 10
18.8557802002
 20
37.3150601024
 30
0.0
 11
18.8557802002
 21
36.570919455
 31
0.0
  0
LINE
  5
259
  8
0
  6
CONTINUOUS
 62
     7
 10
18.8557802002
 20
36.570919455
 30
0.0
 11
18.7605653517
 21
36.570919455
 31
0.0
  0
LINE
  5
25A
  8
0
  6
CONTINUOUS
 62
     7
 10
9.0497499139
 20
36.3275259039
 30
0.0
 11
9.0497499139
 21
37.787390836
 31
0.0
  0
LINE
  5
25B
  8
0
  6
CONTINUOUS
 62
     7
 10
26.6747499139
 20
36.3275259039
 30
0.0
 11
26.6747499139
 21
37.787390836
 31
0.0
  0
LINE
  5
25C
  8
0
  6
CONTINUOUS
 62
     7
 10
9.0497499139
 20
37.318640836
 30
0.0
 11
16.5290722045
 21
37.318640836
 31
0.0
  0
LINE
  5
25D
  8
0
  6
CONTINUOUS
 62
     7
 10
26.6747499139
 20
37.318640836
 30
0.0
 11
19.1954276233
 21
37.318640836
 31
0.0
  0
TEXT
  5
25E
  8
0
  6
CONTINUOUS
 62
     7
 10
16.6241314417
 20
37.5830270979
 30
-2.6050629921
 40
0.46875
  1
 
 41
0.7
 11
16.6241314417
 21
37.4174364439
 31
-2.6050629921
 73
     1
  0
TEXT
  5
25F
  8
0
  6
CONTINUOUS
 62
     7
 10
16.8925234256
 20
37.5758656049
 30
-2.6050629921
 40
0.46875
  1
17.63
 41
0.7
 11
16.8925234256
 21
37.4102749509
 31
-2.6050629921
 73
     1
  0
TEXT
  5
260
  8
0
  6
CONTINUOUS
 62
     7
 10
17.0829530711
 20
36.7365100832
 30
-2.6050629921
 40
0.46875
  1
447.7
 41
0.7
 11
17.0829530711
 21
36.5709194292
 31
-2.6050629921
 73
     1
  0
TEXT
  5
261
  8
0
  6
CONTINUOUS
 62
     7
 10
18.9271913366
 20
37.5830270979
 30
-2.6050629921
 40
0.46875
  1
 
 41
0.7
 11
18.9271913366
 21
37.4174364439
 31
-2.6050629921
 73
     1
  0
ENDBLK
  5
251
  8
0
  0
BLOCK
  8
0
  2
*D14
 70
     1
 10
0.0
 20
0.0
 30
0.0
  3
*D14
  1

  0
SOLID
  5
275
  8
0
  6
CONTINUOUS
 62
     7
 10
36.3741844864
 20
10.5222700419
 30
0.0
 11
36.2991844864
 21
10.0347700419
 31
0.0
 12
36.4491844864
 22
10.0347700419
 32
0.0
 13
36.4491844864
 23
10.0347700419
 33
0.0
  0
SOLID
  5
276
  8
0
  6
CONTINUOUS
 62
     7
 10
36.3741844864
 20
5.3042700419
 30
0.0
 11
36.4491844864
 21
5.7917700419
 31
0.0
 12
36.2991844864
 22
5.7917700419
 32
0.0
 13
36.2991844864
 23
5.7917700419
 33
0.0
  0
LINE
  5
277
  8
0
  6
CONTINUOUS
 62
     7
 10
35.4758690829
 20
7.9096893082
 30
0.0
 11
35.3806542344
 21
7.9096893082
 31
0.0
  0
LINE
  5
278
  8
0
  6
CONTINUOUS
 62
     7
 10
35.3806542344
 20
7.9096893082
 30
0.0
 11
35.3806542344
 21
7.1655486609
 31
0.0
  0
LINE
  5
279
  8
0
  6
CONTINUOUS
 62
     7
 10
35.3806542344
 20
7.1655486609
 30
0.0
 11
35.4758690829
 21
7.1655486609
 31
0.0
  0
LINE
  5
27A
  8
0
  6
CONTINUOUS
 62
     7
 10
37.2724999242
 20
7.9096893082
 30
0.0
 11
37.3677147727
 21
7.9096893082
 31
0.0
  0
LINE
  5
27B
  8
0
  6
CONTINUOUS
 62
     7
 10
37.3677147727
 20
7.9096893082
 30
0.0
 11
37.3677147727
 21
7.1655486609
 31
0.0
  0
LINE
  5
27C
  8
0
  6
CONTINUOUS
 62
     7
 10
37.3677147727
 20
7.1655486609
 30
0.0
 11
37.2724999242
 21
7.1655486609
 31
0.0
  0
LINE
  5
27D
  8
0
  6
CONTINUOUS
 62
     7
 10
37.9171258701
 20
10.5222700419
 30
0.0
 11
35.9054344864
 21
10.5222700419
 31
0.0
  0
LINE
  5
27E
  8
0
  6
CONTINUOUS
 62
     7
 10
37.9171258701
 20
5.3042700419
 30
0.0
 11
35.9054344864
 21
5.3042700419
 31
0.0
  0
LINE
  5
27F
  8
0
  6
CONTINUOUS
 62
     7
 10
36.3741844864
 20
10.5222700419
 30
0.0
 11
36.3741844864
 21
8.756206323
 31
0.0
  0
LINE
  5
280
  8
0
  6
CONTINUOUS
 62
     7
 10
36.3741844864
 20
5.3042700419
 30
0.0
 11
36.3741844864
 21
7.0703337608
 31
0.0
  0
TEXT
  5
281
  8
0
  6
CONTINUOUS
 62
     7
 10
35.1360660142
 20
8.1776563038
 30
0.0039370079
 40
0.46875
  1
 
 41
0.7
 11
35.1360660142
 21
8.0120656498
 31
0.0039370079
 73
     1
  0
TEXT
  5
282
  8
0
  6
CONTINUOUS
 62
     7
 10
35.5776350476
 20
8.1704948108
 30
0.0039370079
 40
0.46875
  1
5.22
 41
0.7
 11
35.5776350476
 21
8.0049041568
 31
0.0039370079
 73
     1
  0
TEXT
  5
283
  8
0
  6
CONTINUOUS
 62
     7
 10
35.5948876436
 20
7.3311392891
 30
0.0039370079
 40
0.46875
  1
132.5
 41
0.7
 11
35.5948876436
 21
7.1655486351
 31
0.0039370079
 73
     1
  0
TEXT
  5
284
  8
0
  6
CONTINUOUS
 62
     7
 10
37.4391259091
 20
8.1776563038
 30
0.0039370079
 40
0.46875
  1
 
 41
0.7
 11
37.4391259091
 21
8.0120656498
 31
0.0039370079
 73
     1
  0
ENDBLK
  5
274
  8
0
  0
BLOCK
  8
0
  2
*D15
 70
     1
 10
0.0
 20
0.0
 30
0.0
  3
*D15
  1

  0
SOLID
  5
289
  8
0
  6
CONTINUOUS
 62
     7
 10
59.9039404785
 20
7.0222700419
 30
0.0
 11
59.9789404785
 21
7.5097700419
 31
0.0
 12
59.8289404785
 22
7.5097700419
 32
0.0
 13
59.8289404785
 23
7.5097700419
 33
0.0
  0
SOLID
  5
28A
  8
0
  6
CONTINUOUS
 62
     7
 10
59.9039404785
 20
5.3042700419
 30
0.0
 11
59.8289404785
 21
4.8167700419
 31
0.0
 12
59.9789404785
 22
4.8167700419
 32
0.0
 13
59.9789404785
 23
4.8167700419
 33
0.0
  0
LINE
  5
28B
  8
0
  6
CONTINUOUS
 62
     7
 10
59.1788021245
 20
6.1596893082
 30
0.0
 11
59.083587276
 21
6.1596893082
 31
0.0
  0
LINE
  5
28C
  8
0
  6
CONTINUOUS
 62
     7
 10
59.083587276
 20
6.1596893082
 30
0.0
 11
59.083587276
 21
5.4155486609
 31
0.0
  0
LINE
  5
28D
  8
0
  6
CONTINUOUS
 62
     7
 10
59.083587276
 20
5.4155486609
 30
0.0
 11
59.1788021245
 21
5.4155486609
 31
0.0
  0
LINE
  5
28E
  8
0
  6
CONTINUOUS
 62
     7
 10
60.6290788669
 20
6.1596893082
 30
0.0
 11
60.7242937154
 21
6.1596893082
 31
0.0
  0
LINE
  5
28F
  8
0
  6
CONTINUOUS
 62
     7
 10
60.7242937154
 20
6.1596893082
 30
0.0
 11
60.7242937154
 21
5.4155486609
 31
0.0
  0
LINE
  5
290
  8
0
  6
CONTINUOUS
 62
     7
 10
60.7242937154
 20
5.4155486609
 30
0.0
 11
60.6290788669
 21
5.4155486609
 31
0.0
  0
LINE
  5
291
  8
0
  6
CONTINUOUS
 62
     7
 10
58.0791258701
 20
7.0222700419
 30
0.0
 11
60.3726904785
 21
7.0222700419
 31
0.0
  0
LINE
  5
292
  8
0
  6
CONTINUOUS
 62
     7
 10
58.2921258701
 20
5.3042700419
 30
0.0
 11
60.3726904785
 21
5.3042700419
 31
0.0
  0
LINE
  5
293
  8
0
  6
CONTINUOUS
 62
     7
 10
59.9039404785
 20
7.0222700419
 30
0.0
 11
59.9039404785
 21
7.9597700419
 31
0.0
  0
LINE
  5
294
  8
0
  6
CONTINUOUS
 62
     7
 10
59.9039404785
 20
5.3042700419
 30
0.0
 11
59.9039404785
 21
4.3667700419
 31
0.0
  0
TEXT
  5
295
  8
0
  6
CONTINUOUS
 62
     7
 10
58.8389990558
 20
6.4276563038
 30
0.0039370079
 40
0.46875
  1
 
 41
0.7
 11
58.8389990558
 21
6.2620656498
 31
0.0039370079
 73
     1
  0
TEXT
  5
296
  8
0
  6
CONTINUOUS
 62
     7
 10
59.1073910397
 20
6.4204948108
 30
0.0039370079
 40
0.46875
  1
1.72
 41
0.7
 11
59.1073910397
 21
6.2549041568
 31
0.0039370079
 73
     1
  0
TEXT
  5
297
  8
0
  6
CONTINUOUS
 62
     7
 10
59.2978206851
 20
5.5811392891
 30
0.0039370079
 40
0.46875
  1
43.6
 41
0.7
 11
59.2978206851
 21
5.4155486351
 31
0.0039370079
 73
     1
  0
TEXT
  5
298
  8
0
  6
CONTINUOUS
 62
     7
 10
60.7957048518
 20
6.4276563038
 30
0.0039370079
 40
0.46875
  1
 
 41
0.7
 11
60.7957048518
 21
6.2620656498
 31
0.0039370079
 73
     1
  0
ENDBLK
  5
288
  8
0
  0
BLOCK
  8
0
  2
*D16
 70
     1
 10
0.0
 20
0.0
 30
0.0
  3
*D16
  1

  0
SOLID
  5
29D
  8
0
  6
CONTINUOUS
 62
     7
 10
57.6976258701
 20
3.9955313174
 30
0.0
 11
57.2101258701
 21
4.0705313174
 31
0.0
 12
57.2101258701
 22
3.9205313174
 32
0.0
 13
57.2101258701
 23
3.9205313174
 33
0.0
  0
SOLID
  5
29E
  8
0
  6
CONTINUOUS
 62
     7
 10
58.1046258701
 20
3.9955313174
 30
0.0
 11
58.5921258701
 21
3.9205313174
 31
0.0
 12
58.5921258701
 22
4.0705313174
 32
0.0
 13
58.5921258701
 23
4.0705313174
 33
0.0
  0
LINE
  5
29F
  8
0
  6
CONTINUOUS
 62
     7
 10
54.5174471421
 20
3.9919505838
 30
0.0
 11
54.4222322936
 21
3.9919505838
 31
0.0
  0
LINE
  5
2A0
  8
0
  6
CONTINUOUS
 62
     7
 10
54.4222322936
 20
3.9919505838
 30
0.0
 11
54.4222322936
 21
3.2478099364
 31
0.0
  0
LINE
  5
2A1
  8
0
  6
CONTINUOUS
 62
     7
 10
54.4222322936
 20
3.2478099364
 30
0.0
 11
54.5174471421
 21
3.2478099364
 31
0.0
  0
LINE
  5
2A2
  8
0
  6
CONTINUOUS
 62
     7
 10
55.9677238845
 20
3.9919505838
 30
0.0
 11
56.062938733
 21
3.9919505838
 31
0.0
  0
LINE
  5
2A3
  8
0
  6
CONTINUOUS
 62
     7
 10
56.062938733
 20
3.9919505838
 30
0.0
 11
56.062938733
 21
3.2478099364
 31
0.0
  0
LINE
  5
2A4
  8
0
  6
CONTINUOUS
 62
     7
 10
56.062938733
 20
3.2478099364
 30
0.0
 11
55.9677238845
 21
3.2478099364
 31
0.0
  0
LINE
  5
2A5
  8
0
  6
CONTINUOUS
 62
     7
 10
57.6976258701
 20
6.6407700419
 30
0.0
 11
57.6976258701
 21
3.5267813174
 31
0.0
  0
LINE
  5
2A6
  8
0
  6
CONTINUOUS
 62
     7
 10
58.1046258701
 20
5.1167700419
 30
0.0
 11
58.1046258701
 21
3.5267813174
 31
0.0
  0
LINE
  5
2A7
  8
0
  6
CONTINUOUS
 62
     7
 10
57.6976258701
 20
3.9955313174
 30
0.0
 11
56.4025861561
 21
3.9955313174
 31
0.0
  0
LINE
  5
2A8
  8
0
  6
CONTINUOUS
 62
     7
 10
58.1046258701
 20
3.9955313174
 30
0.0
 11
59.0421258701
 21
3.9955313174
 31
0.0
  0
TEXT
  5
2A9
  8
0
  6
CONTINUOUS
 62
     7
 10
54.1776440734
 20
4.2599175794
 30
0.0039370079
 40
0.46875
  1
 
 41
0.7
 11
54.1776440734
 21
4.0943269254
 31
0.0039370079
 73
     1
  0
TEXT
  5
2AA
  8
0
  6
CONTINUOUS
 62
     7
 10
54.6192131067
 20
4.2527560863
 30
0.0039370079
 40
0.46875
  1
.41
 41
0.7
 11
54.6192131067
 21
4.0871654323
 31
0.0039370079
 73
     1
  0
TEXT
  5
2AB
  8
0
  6
CONTINUOUS
 62
     7
 10
54.6364657028
 20
3.4134005647
 30
0.0039370079
 40
0.46875
  1
10.3
 41
0.7
 11
54.6364657028
 21
3.2478099107
 31
0.0039370079
 73
     1
  0
TEXT
  5
2AC
  8
0
  6
CONTINUOUS
 62
     7
 10
56.1343498694
 20
4.2599175794
 30
0.0039370079
 40
0.46875
  1
 
 41
0.7
 11
56.1343498694
 21
4.0943269254
 31
0.0039370079
 73
     1
  0
ENDBLK
  5
29C
  8
0
  0
BLOCK
  8
0
  2
*D17
 70
     1
 10
0.0
 20
0.0
 30
0.0
  3
*D17
  1

  0
SOLID
  5
2B2
  8
0
  6
CONTINUOUS
 62
     7
 10
57.7274790459
 20
7.1114035815
 30
0.0
 11
57.953419883
 21
7.5498462666
 31
0.0
 12
57.8111855112
 22
7.5974843132
 32
0.0
 13
57.8111855112
 23
7.5974843132
 33
0.0
  0
LINE
  5
2B3
  8
0
  6
CONTINUOUS
 62
     7
 10
59.3491012658
 20
9.2814179252
 30
0.0
 11
59.2538864172
 21
9.2814179252
 31
0.0
  0
LINE
  5
2B4
  8
0
  6
CONTINUOUS
 62
     7
 10
59.2538864172
 20
9.2814179252
 30
0.0
 11
59.2538864172
 21
8.5372772778
 31
0.0
  0
LINE
  5
2B5
  8
0
  6
CONTINUOUS
 62
     7
 10
59.2538864172
 20
8.5372772778
 30
0.0
 11
59.3491012658
 21
8.5372772778
 31
0.0
  0
LINE
  5
2B6
  8
0
  6
CONTINUOUS
 62
     7
 10
60.7993780081
 20
9.2814179252
 30
0.0
 11
60.8945928566
 21
9.2814179252
 31
0.0
  0
LINE
  5
2B7
  8
0
  6
CONTINUOUS
 62
     7
 10
60.8945928566
 20
9.2814179252
 30
0.0
 11
60.8945928566
 21
8.5372772778
 31
0.0
  0
LINE
  5
2B8
  8
0
  6
CONTINUOUS
 62
     7
 10
60.8945928566
 20
8.5372772778
 30
0.0
 11
60.7993780081
 21
8.5372772778
 31
0.0
  0
LINE
  5
2B9
  8
0
  6
CONTINUOUS
 62
     7
 10
57.7274790459
 20
7.1114035815
 30
0.0
 11
58.4554734267
 21
9.2849986588
 31
0.0
  0
LINE
  5
2BA
  8
0
  6
CONTINUOUS
 62
     7
 10
58.4554734267
 20
9.2849986588
 30
0.0
 11
58.9242234267
 21
9.2849986588
 31
0.0
  0
TEXT
  5
2BB
  8
0
  6
CONTINUOUS
 62
     7
 10
58.9242234267
 20
9.5422234277
 30
0.0039370079
 40
0.46875
  1
%%c
 41
0.7
 11
58.9242234267
 21
9.3766327737
 31
0.0039370079
 73
     1
  0
TEXT
  5
2BC
  8
0
  6
CONTINUOUS
 62
     7
 10
59.6311570039
 20
9.5422234277
 30
0.0039370079
 40
0.46875
  1
.188
 41
0.7
 11
59.6311570039
 21
9.3766327737
 31
0.0039370079
 73
     1
  0
TEXT
  5
2BD
  8
0
  6
CONTINUOUS
 62
     7
 10
59.4681198264
 20
8.7028679061
 30
0.0039370079
 40
0.46875
  1
4.78
 41
0.7
 11
59.4681198264
 21
8.537277252
 31
0.0039370079
 73
     1
  0
TEXT
  5
2BE
  8
0
  6
CONTINUOUS
 62
     7
 10
61.2242558815
 20
9.5493849208
 30
0.0039370079
 40
0.46875
  1
 (2X)
 41
0.7
 11
61.2242558815
 21
9.3837942667
 31
0.0039370079
 73
     1
  0
ENDBLK
  5
2B1
  8
0
  0
BLOCK
  8
0
  2
*D18
 70
     1
 10
0.0
 20
0.0
 30
0.0
  3
*D18
  1

  0
SOLID
  5
2C3
  8
0
  6
CONTINUOUS
 62
     7
 10
38.1046258701
 20
2.4603704011
 30
0.0
 11
38.5921258701
 21
2.3853704011
 31
0.0
 12
38.5921258701
 22
2.5353704011
 32
0.0
 13
38.5921258701
 23
2.5353704011
 33
0.0
  0
SOLID
  5
2C4
  8
0
  6
CONTINUOUS
 62
     7
 10
58.1046258701
 20
2.4603704011
 30
0.0
 11
57.6171258701
 21
2.5353704011
 31
0.0
 12
57.6171258701
 22
2.3853704011
 32
0.0
 13
57.6171258701
 23
2.3853704011
 33
0.0
  0
LINE
  5
2C5
  8
0
  6
CONTINUOUS
 62
     7
 10
47.4660761095
 20
2.4567896674
 30
0.0
 11
47.370861261
 21
2.4567896674
 31
0.0
  0
LINE
  5
2C6
  8
0
  6
CONTINUOUS
 62
     7
 10
47.370861261
 20
2.4567896674
 30
0.0
 11
47.370861261
 21
1.7126490201
 31
0.0
  0
LINE
  5
2C7
  8
0
  6
CONTINUOUS
 62
     7
 10
47.370861261
 20
1.7126490201
 30
0.0
 11
47.4660761095
 21
1.7126490201
 31
0.0
  0
LINE
  5
2C8
  8
0
  6
CONTINUOUS
 62
     7
 10
48.7431757337
 20
2.4567896674
 30
0.0
 11
48.8383905822
 21
2.4567896674
 31
0.0
  0
LINE
  5
2C9
  8
0
  6
CONTINUOUS
 62
     7
 10
48.8383905822
 20
2.4567896674
 30
0.0
 11
48.8383905822
 21
1.7126490201
 31
0.0
  0
LINE
  5
2CA
  8
0
  6
CONTINUOUS
 62
     7
 10
48.8383905822
 20
1.7126490201
 30
0.0
 11
48.7431757337
 21
1.7126490201
 31
0.0
  0
LINE
  5
2CB
  8
0
  6
CONTINUOUS
 62
     7
 10
38.1046258701
 20
5.1167700419
 30
0.0
 11
38.1046258701
 21
1.9916204011
 31
0.0
  0
LINE
  5
2CC
  8
0
  6
CONTINUOUS
 62
     7
 10
58.1046258701
 20
5.1167700419
 30
0.0
 11
58.1046258701
 21
1.9916204011
 31
0.0
  0
LINE
  5
2CD
  8
0
  6
CONTINUOUS
 62
     7
 10
38.1046258701
 20
2.4603704011
 30
0.0
 11
46.8666630608
 21
2.4603704011
 31
0.0
  0
LINE
  5
2CE
  8
0
  6
CONTINUOUS
 62
     7
 10
58.1046258701
 20
2.4603704011
 30
0.0
 11
49.3425886794
 21
2.4603704011
 31
0.0
  0
TEXT
  5
2CF
  8
0
  6
CONTINUOUS
 62
     7
 10
46.961722298
 20
2.724756663
 30
0.0039370079
 40
0.46875
  1
 
 41
0.7
 11
46.961722298
 21
2.559166009
 31
0.0039370079
 73
     1
  0
TEXT
  5
2D0
  8
0
  6
CONTINUOUS
 62
     7
 10
47.1348993818
 20
2.71759517
 30
0.0039370079
 40
0.46875
  1
20.00
 41
0.7
 11
47.1348993818
 21
2.5520045159
 31
0.0039370079
 73
     1
  0
TEXT
  5
2D1
  8
0
  6
CONTINUOUS
 62
     7
 10
47.5850946702
 20
1.8782396483
 30
0.0039370079
 40
0.46875
  1
508
 41
0.7
 11
47.5850946702
 21
1.7126489943
 31
0.0039370079
 73
     1
  0
TEXT
  5
2D2
  8
0
  6
CONTINUOUS
 62
     7
 10
49.0743523927
 20
2.724756663
 30
0.0039370079
 40
0.46875
  1
 
 41
0.7
 11
49.0743523927
 21
2.559166009
 31
0.0039370079
 73
     1
  0
ENDBLK
  5
2C2
  8
0
  0
BLOCK
  8
0
  2
SW_CENTERMARKSYMBOL_0
 70
     0
 10
0.0
 20
0.0
 30
0.0
  3
SW_CENTERMARKSYMBOL_0
  1

  0
LINE
  5
2D6
  8
0
  6
CONTINUOUS
 62
     0
 10
0.0
 20
0.0
 30
0.0
 11
0.0
 21
0.1
 31
0.0
  0
LINE
  5
2D7
  8
0
  6
CONTINUOUS
 62
     0
 10
0.0
 20
0.0
 30
0.0
 11
-0.1
 21
0.0
 31
0.0
  0
LINE
  5
2D8
  8
0
  6
CONTINUOUS
 62
     0
 10
0.0
 20
0.0
 30
0.0
 11
0.0
 21
-0.1
 31
0.0
  0
LINE
  5
2D9
  8
0
  6
CONTINUOUS
 62
     0
 10
0.0
 20
0.0
 30
0.0
 11
0.1
 21
0.0
 31
0.0
  0
LINE
  5
2DA
  8
0
  6
CONTINUOUS
 62
     0
 10
0.0
 20
0.1
 30
0.0
 11
0.0
 21
0.194
 31
0.0
  0
LINE
  5
2DB
  8
0
  6
CONTINUOUS
 62
     0
 10
-0.1
 20
0.0
 30
0.0
 11
-0.194
 21
0.0
 31
0.0
  0
LINE
  5
2DC
  8
0
  6
CONTINUOUS
 62
     0
 10
0.0
 20
-0.1
 30
0.0
 11
0.0
 21
-0.194
 31
0.0
  0
LINE
  5
2DD
  8
0
  6
CONTINUOUS
 62
     0
 10
0.1
 20
0.0
 30
0.0
 11
0.194
 21
0.0
 31
0.0
  0
ENDBLK
  5
2D5
  8
0
  0
ENDSEC
  0
SECTION
  2
ENTITIES
  0
LINE
  5
44
  8
0
  6
CONTINUOUS
 62
     7
 10
1.1746935173
 20
40.1440243902
 30
0.0
 11
62.5846935173
 21
40.1440243902
 31
0.0
  0
LINE
  5
45
  8
0
  6
CONTINUOUS
 62
     7
 10
62.5846935173
 20
1.2340243902
 30
0.0
 11
62.5846935173
 21
40.1440243902
 31
0.0
  0
LINE
  5
46
  8
0
  6
CONTINUOUS
 62
     7
 10
62.5846935173
 20
1.2340243902
 30
0.0
 11
1.1746935173
 21
1.2340243902
 31
0.0
  0
LINE
  5
47
  8
0
  6
CONTINUOUS
 62
     7
 10
1.1746935173
 20
40.1440243902
 30
0.0
 11
1.1746935173
 21
1.2340243902
 31
0.0
  0
LINE
  5
48
  8
0
  6
CONTINUOUS
 62
     7
 10
0.9421935173
 20
40.3765243902
 30
0.0
 11
62.8171935173
 21
40.3765243902
 31
0.0
  0
LINE
  5
49
  8
0
  6
CONTINUOUS
 62
     7
 10
62.8171935173
 20
1.0015243902
 30
0.0
 11
0.9421935173
 21
1.0015243902
 31
0.0
  0
LINE
  5
4A
  8
0
  6
CONTINUOUS
 62
     7
 10
0.9421935173
 20
40.3765243902
 30
0.0
 11
0.9421935173
 21
1.0015243902
 31
0.0
  0
LINE
  5
4B
  8
0
  6
CONTINUOUS
 62
     7
 10
62.8171935173
 20
1.0015243902
 30
0.0
 11
62.8171935173
 21
40.3765243902
 31
0.0
  0
LINE
  5
4C
  8
0
  6
CONTINUOUS
 62
     7
 10
1.1746935173
 20
38.6215243902
 30
0.0
 11
62.5846935173
 21
38.6215243902
 31
0.0
  0
LINE
  5
4D
  8
0
  6
CONTINUOUS
 62
     7
 10
6.9139470776
 20
40.1440243902
 30
0.0
 11
6.9139470776
 21
38.6215243902
 31
0.0
  0
LINE
  5
4E
  8
0
  6
CONTINUOUS
 62
     7
 10
4.1656195639
 20
40.1440243902
 30
0.0
 11
4.1656195639
 21
38.6215243902
 31
0.0
  0
LINE
  5
4F
  8
0
  6
CONTINUOUS
 62
     7
 10
57.8971935173
 20
38.6215243902
 30
0.0
 11
57.8971935173
 21
40.1440243902
 31
0.0
  0
LINE
  5
50
  8
0
  6
CONTINUOUS
 62
     7
 10
55.0846935173
 20
38.6215243902
 30
0.0
 11
55.0846935173
 21
40.1440243902
 31
0.0
  0
LINE
  5
51
  8
0
  6
CONTINUOUS
 62
     7
 10
54.8521935173
 20
38.6215243902
 30
0.0
 11
54.8521935173
 21
40.1440243902
 31
0.0
  0
LINE
  5
52
  8
0
  6
CONTINUOUS
 62
     7
 10
1.6787921894
 20
38.9106004343
 30
0.0
 11
1.6787921894
 21
39.9063557621
 31
0.0
  0
LINE
  5
53
  8
0
  6
CONTINUOUS
 62
     7
 10
2.3721867912
 20
38.9728351423
 30
0.0
 11
2.3721867912
 21
39.9063557621
 31
0.0
  0
LINE
  5
54
  8
0
  6
CONTINUOUS
 62
     7
 10
2.6408771994
 20
39.0730648234
 30
0.0
 11
2.6408771994
 21
39.9063557621
 31
0.0
  0
LINE
  5
55
  8
0
  6
CONTINUOUS
 62
     7
 10
2.5542028742
 20
39.0730648234
 30
0.0
 11
2.5542028742
 21
39.9063557621
 31
0.0
  0
LINE
  5
56
  8
0
  6
CONTINUOUS
 62
     7
 10
3.0265579557
 20
38.9106004343
 30
0.0
 11
3.0265579557
 21
39.9063557621
 31
0.0
  0
LINE
  5
57
  8
0
  6
CONTINUOUS
 62
     7
 10
2.8228932823
 20
38.9728351423
 30
0.0
 11
2.8228932823
 21
39.9063557621
 31
0.0
  0
LINE
  5
58
  8
0
  6
CONTINUOUS
 62
     7
 10
2.4344214992
 20
38.9106004343
 30
0.0
 11
2.7606585743
 21
38.9106004343
 31
0.0
  0
LINE
  5
59
  8
0
  6
CONTINUOUS
 62
     7
 10
1.6787921894
 20
38.9106004343
 30
0.0
 11
1.9994871927
 21
38.9106004343
 31
0.0
  0
LINE
  5
5A
  8
0
  6
CONTINUOUS
 62
     7
 10
1.9994871927
 20
39.383584215
 30
0.0
 11
1.7264630683
 21
39.383584215
 31
0.0
  0
LINE
  5
5B
  8
0
  6
CONTINUOUS
 62
     7
 10
1.9994871927
 20
39.4333719814
 30
0.0
 11
1.7264630683
 21
39.4333719814
 31
0.0
  0
LINE
  5
5C
  8
0
  6
CONTINUOUS
 62
     7
 10
1.7264630683
 20
39.4333719814
 30
0.0
 11
1.7264630683
 21
39.4084780982
 31
0.0
  0
LINE
  5
5D
  8
0
  6
CONTINUOUS
 62
     7
 10
1.7264630683
 20
39.383584215
 30
0.0
 11
1.7264630683
 21
39.4084780982
 31
0.0
  0
LINE
  5
5E
  8
0
  6
CONTINUOUS
 62
     7
 10
3.0265579557
 20
38.9106004343
 30
0.0
 11
3.1504186634
 21
38.9106004343
 31
0.0
  0
LINE
  5
5F
  8
0
  6
CONTINUOUS
 62
     7
 10
3.4989330281
 20
39.259114799
 30
0.0
 11
3.4989330281
 21
39.5578413974
 31
0.0
  0
LINE
  5
60
  8
0
  6
CONTINUOUS
 62
     7
 10
3.3157891114
 20
39.383584215
 30
0.0
 11
3.3157891114
 21
39.4333719814
 31
0.0
  0
LINE
  5
61
  8
0
  6
CONTINUOUS
 62
     7
 10
3.1609231507
 20
39.383584215
 30
0.0
 11
3.1609231507
 21
39.4333719814
 31
0.0
  0
LINE
  5
62
  8
0
  6
CONTINUOUS
 62
     7
 10
3.3157891114
 20
39.383584215
 30
0.0
 11
3.1609231507
 21
39.383584215
 31
0.0
  0
LINE
  5
63
  8
0
  6
CONTINUOUS
 62
     7
 10
3.3157891114
 20
39.4333719814
 30
0.0
 11
3.1609231507
 21
39.4333719814
 31
0.0
  0
LINE
  5
64
  8
0
  6
CONTINUOUS
 62
     7
 10
2.6408771994
 20
39.9063557621
 30
0.0
 11
2.8228932823
 21
39.9063557621
 31
0.0
  0
LINE
  5
65
  8
0
  6
CONTINUOUS
 62
     7
 10
1.6787921894
 20
39.9063557621
 30
0.0
 11
1.9994871927
 21
39.9063557621
 31
0.0
  0
LINE
  5
66
  8
0
  6
CONTINUOUS
 62
     7
 10
2.3721867912
 20
39.9063557621
 30
0.0
 11
2.5542028742
 21
39.9063557621
 31
0.0
  0
LINE
  5
67
  8
0
  6
CONTINUOUS
 62
     7
 10
3.0265579557
 20
39.9063557621
 30
0.0
 11
3.1504186634
 21
39.9063557621
 31
0.0
  0
LINE
  5
68
  8
0
  6
CONTINUOUS
 62
     7
 10
3.9378750976
 20
40.1440243902
 30
0.0
 11
3.9378750976
 21
38.6215243902
 31
0.0
  0
LINE
  5
69
  8
0
  6
CONTINUOUS
 62
     7
 10
31.4369826635
 20
38.6215243902
 30
0.0
 11
31.4369826635
 21
40.1440243902
 31
0.0
  0
LINE
  5
6A
  8
0
  6
CONTINUOUS
 62
     7
 10
31.6694826635
 20
38.6215243902
 30
0.0
 11
31.6694826635
 21
40.1440243902
 31
0.0
  0
LINE
  5
6B
  8
0
  6
CONTINUOUS
 62
     7
 10
34.4819826635
 20
38.6215243902
 30
0.0
 11
34.4819826635
 21
40.1440243902
 31
0.0
  0
ARC
  5
6C
  8
0
  6
CONTINUOUS
 62
     7
 10
1.9994871927
 20
39.6698638718
 30
0.0
 40
0.2364918903696633
 50
270.0
 51
90.0
  0
ARC
  5
6D
  8
0
  6
CONTINUOUS
 62
     7
 10
3.1504186634
 20
39.5578413974
 30
0.0
 40
0.3485143647553031
 50
0.0
 51
90.0
  0
ARC
  5
6E
  8
0
  6
CONTINUOUS
 62
     7
 10
1.9994871927
 20
39.1470923246
 30
0.0
 40
0.2364918903696633
 50
270.0
 51
90.0
  0
ARC
  5
6F
  8
0
  6
CONTINUOUS
 62
     7
 10
2.4344214992
 20
38.9728351423
 30
0.0
 40
0.0622347079920353
 50
180.0
 51
270.0
  0
ARC
  5
70
  8
0
  6
CONTINUOUS
 62
     7
 10
2.591089433
 20
39.0730648234
 30
0.0
 40
0.0497877663936075
 50
277.4442840975
 51
0.0
  0
ARC
  5
71
  8
0
  6
CONTINUOUS
 62
     7
 10
2.6039906405
 20
39.0730648234
 30
0.0
 40
0.0497877663936486
 50
180.0
 51
262.5557159021
  0
ARC
  5
72
  8
0
  6
CONTINUOUS
 62
     7
 10
3.1504186634
 20
39.259114799
 30
0.0
 40
0.348514364755296
 50
270.0
 51
0.0
  0
ARC
  5
73
  8
0
  6
CONTINUOUS
 62
     7
 10
2.7606585743
 20
38.9728351423
 30
0.0
 40
0.0622347079920189
 50
270.0
 51
0.0
  0
INSERT
  5
7B
  8
0
  6
CONTINUOUS
 62
     7
  2
SW_NOTE_0
 10
30.9715452584
 20
35.4818955486
 30
0.0
  0
TEXT
  5
7C
  8
0
  6
CONTINUOUS
 62
     7
 10
58.9663938877
 20
39.0667155897
 30
0.0
 40
0.703125
  1
7-3-13
 41
0.7
 11
58.9663938877
 21
38.8183296086
 31
0.0
 73
     1
  0
TEXT
  5
7D
  8
0
  6
CONTINUOUS
 62
     7
 10
12.4595347485
 20
39.1268922822
 30
0.0
 40
0.703125
  1
OPEN RELAY RACK SHELF
 41
0.65
 11
12.4595347485
 21
38.8785063012
 31
0.0
 73
     1
  0
TEXT
  5
7E
  8
0
  6
CONTINUOUS
 62
     7
 10
42.4870282319
 20
39.0960323341
 30
0.0
 40
0.703125
  1
SA-1752
 41
0.7
 11
42.4870282319
 21
38.8476463531
 31
0.0
 73
     1
  0
INSERT
  5
84
  8
0
  6
CONTINUOUS
 62
     7
  2
SW_NOTE_1
 10
4.7566279673
 20
39.3980183837
 30
0.0
  0
INSERT
  5
8A
  8
0
  6
CONTINUOUS
 62
     7
  2
SW_NOTE_2
 10
32.4144244612
 20
39.3704544507
 30
0.0
  0
INSERT
  5
90
  8
0
  6
CONTINUOUS
 62
     7
  2
SW_NOTE_3
 10
55.1573948528
 20
39.3876882272
 30
0.0
  0
LINE
  5
91
  8
0
  6
CONTINUOUS
 62
     7
 10
47.5953288642
 20
15.7496649833
 30
0.0
 11
60.8018742828
 21
23.3736413726
 31
0.0
  0
LINE
  5
92
  8
0
  6
CONTINUOUS
 62
     7
 10
36.066028638
 20
22.4226531239
 30
0.0
 11
47.4863174509
 21
15.8298607238
 31
0.0
  0
LINE
  5
93
  8
0
  6
CONTINUOUS
 62
     7
 10
49.1958992529
 20
30.1038280266
 30
0.0
 11
49.1958992529
 21
34.0932205472
 31
0.0
  0
LINE
  5
94
  8
0
  6
CONTINUOUS
 62
     7
 10
60.8168276507
 20
23.4066920943
 30
0.0
 11
60.8168276507
 21
23.3477480547
 31
0.0
  0
LINE
  5
95
  8
0
  6
CONTINUOUS
 62
     7
 10
47.6102822321
 20
15.782715705
 30
0.0
 11
60.8168276507
 21
23.4066920943
 31
0.0
  0
LINE
  5
96
  8
0
  6
CONTINUOUS
 62
     7
 10
47.6102822321
 20
17.1772105952
 30
0.0
 11
47.6102822321
 21
15.782715705
 31
0.0
  0
LINE
  5
97
  8
0
  6
CONTINUOUS
 62
     7
 10
47.6102822321
 20
17.1772105952
 30
0.0
 11
47.6931468357
 21
17.3207356247
 31
0.0
  0
LINE
  5
98
  8
0
  6
CONTINUOUS
 62
     7
 10
47.6931468357
 20
17.3207356247
 30
0.0
 11
58.8797967613
 21
26.22393954
 31
0.0
  0
LINE
  5
99
  8
0
  6
CONTINUOUS
 62
     7
 10
60.8174903436
 20
27.3425462348
 30
0.0
 11
58.8797967613
 21
26.22393954
 31
0.0
  0
LINE
  5
9A
  8
0
  6
CONTINUOUS
 62
     7
 10
60.8174903436
 20
23.3481306191
 30
0.0
 11
60.8174903436
 21
27.3425462348
 31
0.0
  0
LINE
  5
9B
  8
0
  6
CONTINUOUS
 62
     7
 10
60.8174903436
 20
23.3481306191
 30
0.0
 11
60.8168276507
 21
23.3477480547
 31
0.0
  0
POLYLINE
  5
9C
  8
0
  6
CONTINUOUS
 62
     7
 66
     1
 10
0.0
 20
0.0
 30
0.0
  0
VERTEX
  5
2DF
  8
0
  6
CONTINUOUS
 62
     7
 10
47.9424017836
 20
17.2306412825
 30
0.0
  0
VERTEX
  5
2E0
  8
0
  6
CONTINUOUS
 62
     7
 10
47.9376583187
 20
17.2554399285
 30
0.0
  0
VERTEX
  5
2E1
  8
0
  6
CONTINUOUS
 62
     7
 10
47.9241505078
 20
17.270986749
 30
0.0
  0
VERTEX
  5
2E2
  8
0
  6
CONTINUOUS
 62
     7
 10
47.9039344877
 20
17.2749147228
 30
0.0
  0
VERTEX
  5
2E3
  8
0
  6
CONTINUOUS
 62
     7
 10
47.8800880466
 20
17.2666259313
 30
0.0
  0
VERTEX
  5
2E4
  8
0
  6
CONTINUOUS
 62
     7
 10
47.8562416055
 20
17.2473822079
 30
0.0
  0
VERTEX
  5
2E5
  8
0
  6
CONTINUOUS
 62
     7
 10
47.8360251966
 20
17.2201130897
 30
0.0
  0
VERTEX
  5
2E6
  8
0
  6
CONTINUOUS
 62
     7
 10
47.8225173857
 20
17.1889704827
 30
0.0
  0
VERTEX
  5
2E7
  8
0
  6
CONTINUOUS
 62
     7
 10
47.8177739208
 20
17.1586951487
 30
0.0
  0
VERTEX
  5
2E8
  8
0
  6
CONTINUOUS
 62
     7
 10
47.8225173857
 20
17.1338965027
 30
0.0
  0
VERTEX
  5
2E9
  8
0
  6
CONTINUOUS
 62
     7
 10
47.8360251966
 20
17.1183495699
 30
0.0
  0
VERTEX
  5
2EA
  8
0
  6
CONTINUOUS
 62
     7
 10
47.8562416055
 20
17.1144218206
 30
0.0
  0
VERTEX
  5
2EB
  8
0
  6
CONTINUOUS
 62
     7
 10
47.8800880466
 20
17.1227106121
 30
0.0
  0
VERTEX
  5
2EC
  8
0
  6
CONTINUOUS
 62
     7
 10
47.9039344877
 20
17.1419543355
 30
0.0
  0
VERTEX
  5
2ED
  8
0
  6
CONTINUOUS
 62
     7
 10
47.9241505078
 20
17.1692232291
 30
0.0
  0
VERTEX
  5
2EE
  8
0
  6
CONTINUOUS
 62
     7
 10
47.9376583187
 20
17.2003659484
 30
0.0
  0
VERTEX
  5
2EF
  8
0
  6
CONTINUOUS
 62
     7
 10
47.9424017836
 20
17.2306412825
 30
0.0
  0
SEQEND
  5
2F0
  8
0
  6
CONTINUOUS
 62
     7
  0
LINE
  5
9D
  8
0
  6
CONTINUOUS
 62
     7
 10
47.6520462692
 20
17.3444624767
 30
0.0
 11
47.6931468357
 21
17.3207356247
 31
0.0
  0
LINE
  5
9E
  8
0
  6
CONTINUOUS
 62
     7
 10
58.8386961949
 20
26.247666392
 30
0.0
 11
58.8797967613
 21
26.22393954
 31
0.0
  0
LINE
  5
9F
  8
0
  6
CONTINUOUS
 62
     7
 10
58.8386961949
 20
26.247666392
 30
0.0
 11
47.6520462692
 21
17.3444624767
 31
0.0
  0
LINE
  5
A0
  8
0
  6
CONTINUOUS
 62
     7
 10
47.5691816656
 20
17.2009374472
 30
0.0
 11
47.6102822321
 21
17.1772105952
 31
0.0
  0
LINE
  5
A1
  8
0
  6
CONTINUOUS
 62
     7
 10
47.6520462692
 20
17.3444624767
 30
0.0
 11
47.5691816656
 21
17.2009374472
 31
0.0
  0
LINE
  5
A2
  8
0
  6
CONTINUOUS
 62
     7
 10
47.5691816656
 20
15.806442557
 30
0.0
 11
47.6102822321
 21
15.782715705
 31
0.0
  0
LINE
  5
A3
  8
0
  6
CONTINUOUS
 62
     7
 10
47.5691816656
 20
17.2009374472
 30
0.0
 11
47.5691816656
 21
15.806442557
 31
0.0
  0
ARC
  5
A4
  8
0
  6
CONTINUOUS
 62
     7
 10
47.782985261
 20
17.250724247
 30
0.0
 40
0.1178569896778824
 50
288.5929713146
 51
11.4124747783
  0
LINE
  5
A5
  8
0
  6
CONTINUOUS
 62
     7
 10
36.1339394848
 20
22.6359884459
 30
0.0
 11
36.0510752701
 21
22.5881365565
 31
0.0
  0
LINE
  5
A6
  8
0
  6
CONTINUOUS
 62
     7
 10
47.4034536252
 20
16.1302364115
 30
0.0
 11
36.1339394848
 21
22.6359884459
 31
0.0
  0
LINE
  5
A7
  8
0
  6
CONTINUOUS
 62
     7
 10
47.4863178398
 20
15.9867115363
 30
0.0
 11
47.4034536252
 21
16.1302364115
 31
0.0
  0
LINE
  5
A8
  8
0
  6
CONTINUOUS
 62
     7
 10
47.4863178398
 20
15.9867115363
 30
0.0
 11
47.4863178398
 21
15.8542788254
 31
0.0
  0
LINE
  5
A9
  8
0
  6
CONTINUOUS
 62
     7
 10
36.0510752701
 20
22.4557038456
 30
0.0
 11
47.4863178398
 21
15.8542788254
 31
0.0
  0
LINE
  5
AA
  8
0
  6
CONTINUOUS
 62
     7
 10
36.0510752701
 20
22.5881365565
 30
0.0
 11
36.0510752701
 21
22.4557038456
 31
0.0
  0
LINE
  5
AB
  8
0
  6
CONTINUOUS
 62
     7
 10
47.4445545805
 20
16.153963488
 30
0.0
 11
47.5274187952
 21
16.0104386128
 31
0.0
  0
LINE
  5
AC
  8
0
  6
CONTINUOUS
 62
     7
 10
47.5274187952
 20
16.0104386128
 30
0.0
 11
47.4863178398
 21
15.9867115363
 31
0.0
  0
LINE
  5
AD
  8
0
  6
CONTINUOUS
 62
     7
 10
47.4445545805
 20
16.153963488
 30
0.0
 11
47.4034536252
 21
16.1302364115
 31
0.0
  0
ARC
  5
AE
  8
0
  6
CONTINUOUS
 62
     7
 10
47.5791641943
 20
15.7776676275
 30
0.0
 40
0.0315248371895193
 50
230.7966897537
 51
9.2144518445
  0
LINE
  5
AF
  8
0
  6
CONTINUOUS
 62
     7
 10
47.5592381621
 20
15.8007002145
 30
0.0
 11
47.5592381621
 21
15.7532387798
 31
0.0
  0
ARC
  5
B0
  8
0
  6
CONTINUOUS
 62
     7
 10
47.5631197296
 20
15.8054591609
 30
0.0
 40
0.0061411836540163
 50
230.7980802962
 51
9.2145210626
  0
ARC
  5
B1
  8
0
  6
CONTINUOUS
 62
     7
 10
60.7816140089
 20
23.4027159583
 30
0.0
 40
0.0354374128880968
 50
304.8702465339
 51
6.4422463924
  0
LINE
  5
B2
  8
0
  6
CONTINUOUS
 62
     7
 10
47.5274187952
 20
15.8780059019
 30
0.0
 11
47.4863178398
 21
15.8542788254
 31
0.0
  0
LINE
  5
B3
  8
0
  6
CONTINUOUS
 62
     7
 10
47.5274187952
 20
16.0104386128
 30
0.0
 11
47.5274187952
 21
15.8780059019
 31
0.0
  0
LINE
  5
B4
  8
0
  6
CONTINUOUS
 62
     7
 10
36.1750404402
 20
22.6597155224
 30
0.0
 11
36.1339394848
 21
22.6359884459
 31
0.0
  0
LINE
  5
B5
  8
0
  6
CONTINUOUS
 62
     7
 10
47.4445545805
 20
16.153963488
 30
0.0
 11
36.1750404402
 21
22.6597155224
 31
0.0
  0
LINE
  5
B6
  8
0
  6
CONTINUOUS
 62
     7
 10
47.5592381621
 20
15.8007002145
 30
0.0
 11
47.5691824434
 21
15.806440926
 31
0.0
  0
LINE
  5
B7
  8
0
  6
CONTINUOUS
 62
     7
 10
47.5592381621
 20
15.8007002145
 30
0.0
 11
47.4863178398
 21
15.8427962205
 31
0.0
  0
LINE
  5
B8
  8
0
  6
CONTINUOUS
 62
     7
 10
47.4863178398
 20
15.8427962205
 30
0.0
 11
47.4872963229
 21
15.8433610868
 31
0.0
  0
LINE
  5
B9
  8
0
  6
CONTINUOUS
 62
     7
 10
47.4872963229
 20
15.8433610868
 30
0.0
 11
47.5373622988
 21
15.8722635594
 31
0.0
  0
LINE
  5
BA
  8
0
  6
CONTINUOUS
 62
     7
 10
47.5274184063
 20
15.8780040463
 30
0.0
 11
47.5373622988
 21
15.8722635594
 31
0.0
  0
LINE
  5
BB
  8
0
  6
CONTINUOUS
 62
     7
 10
36.0510752701
 20
22.4442212407
 30
0.0
 11
36.0520537532
 21
22.444786107
 31
0.0
  0
LINE
  5
BC
  8
0
  6
CONTINUOUS
 62
     7
 10
36.0510752701
 20
22.4442212407
 30
0.0
 11
35.9774918662
 21
22.4867000357
 31
0.0
  0
LINE
  5
BD
  8
0
  6
CONTINUOUS
 62
     7
 10
49.1840372848
 20
30.110676425
 30
0.0
 11
36.226117956
 21
22.6302288222
 31
0.0
  0
LINE
  5
BE
  8
0
  6
CONTINUOUS
 62
     7
 10
36.051075659
 20
22.5291790551
 30
0.0
 11
35.9774918662
 21
22.4867000357
 31
0.0
  0
LINE
  5
BF
  8
0
  6
CONTINUOUS
 62
     7
 10
49.1840372848
 20
30.110676425
 30
0.0
 11
49.2572893424
 21
30.0683889122
 31
0.0
  0
LINE
  5
C0
  8
0
  6
CONTINUOUS
 62
     7
 10
49.2572893424
 20
30.0683889122
 30
0.0
 11
49.2579520352
 21
30.0687714767
 31
0.0
  0
LINE
  5
C1
  8
0
  6
CONTINUOUS
 62
     7
 10
57.5935870011
 20
25.2567118384
 30
0.0
 11
49.2579520352
 21
30.0687714767
 31
0.0
  0
LINE
  5
C2
  8
0
  6
CONTINUOUS
 62
     7
 10
47.4863178398
 20
15.8427962205
 30
0.0
 11
47.4863178398
 21
15.7953347858
 31
0.0
  0
LINE
  5
C3
  8
0
  6
CONTINUOUS
 62
     7
 10
47.5592381621
 20
15.7532387798
 30
0.0
 11
47.4863178398
 21
15.7953347858
 31
0.0
  0
ARC
  5
C4
  8
0
  6
CONTINUOUS
 62
     7
 10
47.5334806359
 20
15.8770223406
 30
0.0
 40
0.006141115946174
 50
170.7838151797
 51
309.2035834614
  0
ARC
  5
C5
  8
0
  6
CONTINUOUS
 62
     7
 10
47.5445462949
 20
15.8539947312
 30
0.0
 40
0.0582291481065965
 50
179.7204585096
 51
190.5222420249
  0
ARC
  5
C6
  8
0
  6
CONTINUOUS
 62
     7
 10
36.0824664169
 20
22.4485104265
 30
0.0
 40
0.0306398542434814
 50
186.9816511215
 51
237.5554195014
  0
ARC
  5
C7
  8
0
  6
CONTINUOUS
 62
     7
 10
36.1093037252
 20
22.4554197514
 30
0.0
 40
0.0582291481068523
 50
179.7204585097
 51
190.5222420249
  0
LINE
  5
C8
  8
0
  6
CONTINUOUS
 62
     7
 10
60.7763897771
 20
27.3662730868
 30
0.0
 11
60.8174903436
 21
27.3425462348
 31
0.0
  0
LINE
  5
C9
  8
0
  6
CONTINUOUS
 62
     7
 10
60.7763897771
 20
27.3662730868
 30
0.0
 11
58.8386961949
 21
26.247666392
 31
0.0
  0
POLYLINE
  5
CA
  8
0
  6
CONTINUOUS
 62
     7
 66
     1
 10
0.0
 20
0.0
 30
0.0
  0
VERTEX
  5
2F1
  8
0
  6
CONTINUOUS
 62
     7
 10
36.2996679142
 20
23.9518484804
 30
0.0
  0
VERTEX
  5
2F2
  8
0
  6
CONTINUOUS
 62
     7
 10
36.2949244492
 20
23.9766471264
 30
0.0
  0
VERTEX
  5
2F3
  8
0
  6
CONTINUOUS
 62
     7
 10
36.2814166383
 20
23.992193947
 30
0.0
  0
VERTEX
  5
2F4
  8
0
  6
CONTINUOUS
 62
     7
 10
36.2612006183
 20
23.9961219207
 30
0.0
  0
VERTEX
  5
2F5
  8
0
  6
CONTINUOUS
 62
     7
 10
36.2373541772
 20
23.9878331293
 30
0.0
  0
VERTEX
  5
2F6
  8
0
  6
CONTINUOUS
 62
     7
 10
36.2135077361
 20
23.9685894058
 30
0.0
  0
VERTEX
  5
2F7
  8
0
  6
CONTINUOUS
 62
     7
 10
36.1932913271
 20
23.9413202877
 30
0.0
  0
VERTEX
  5
2F8
  8
0
  6
CONTINUOUS
 62
     7
 10
36.1797835163
 20
23.9101776807
 30
0.0
  0
VERTEX
  5
2F9
  8
0
  6
CONTINUOUS
 62
     7
 10
36.1750400513
 20
23.8799023466
 30
0.0
  0
VERTEX
  5
2FA
  8
0
  6
CONTINUOUS
 62
     7
 10
36.1797835163
 20
23.8551037006
 30
0.0
  0
VERTEX
  5
2FB
  8
0
  6
CONTINUOUS
 62
     7
 10
36.1932913271
 20
23.8395567678
 30
0.0
  0
VERTEX
  5
2FC
  8
0
  6
CONTINUOUS
 62
     7
 10
36.2135077361
 20
23.8356290186
 30
0.0
  0
VERTEX
  5
2FD
  8
0
  6
CONTINUOUS
 62
     7
 10
36.2373541772
 20
23.84391781
 30
0.0
  0
VERTEX
  5
2FE
  8
0
  6
CONTINUOUS
 62
     7
 10
36.2612006183
 20
23.8631615334
 30
0.0
  0
VERTEX
  5
2FF
  8
0
  6
CONTINUOUS
 62
     7
 10
36.2814166383
 20
23.8904304271
 30
0.0
  0
VERTEX
  5
300
  8
0
  6
CONTINUOUS
 62
     7
 10
36.2949244492
 20
23.9215731464
 30
0.0
  0
VERTEX
  5
301
  8
0
  6
CONTINUOUS
 62
     7
 10
36.2996679142
 20
23.9518484804
 30
0.0
  0
SEQEND
  5
302
  8
0
  6
CONTINUOUS
 62
     7
  0
LINE
  5
CB
  8
0
  6
CONTINUOUS
 62
     7
 10
49.1740937813
 20
30.1278992922
 30
0.0
 11
36.2062293933
 21
22.6417105291
 31
0.0
  0
LINE
  5
CC
  8
0
  6
CONTINUOUS
 62
     7
 10
36.051075659
 20
22.5521421848
 30
0.0
 11
35.9675483626
 21
22.503922903
 31
0.0
  0
LINE
  5
CD
  8
0
  6
CONTINUOUS
 62
     7
 10
35.9675483626
 20
22.503922903
 30
0.0
 11
35.9675483626
 21
23.8984177931
 31
0.0
  0
LINE
  5
CE
  8
0
  6
CONTINUOUS
 62
     7
 10
35.9675483626
 20
23.8984177931
 30
0.0
 11
36.0504129662
 21
24.0419428226
 31
0.0
  0
LINE
  5
CF
  8
0
  6
CONTINUOUS
 62
     7
 10
36.0504129662
 20
24.0419428226
 30
0.0
 11
47.2370628919
 21
32.945146738
 31
0.0
  0
LINE
  5
D0
  8
0
  6
CONTINUOUS
 62
     7
 10
49.1747564741
 20
34.0637534328
 30
0.0
 11
47.2370628919
 21
32.945146738
 31
0.0
  0
LINE
  5
D1
  8
0
  6
CONTINUOUS
 62
     7
 10
49.1747564741
 20
34.0637534328
 30
0.0
 11
49.1747564741
 21
30.1233940944
 31
0.0
  0
LINE
  5
D2
  8
0
  6
CONTINUOUS
 62
     7
 10
47.2370628919
 20
32.945146738
 30
0.0
 11
47.1959623254
 21
32.96887359
 31
0.0
  0
LINE
  5
D3
  8
0
  6
CONTINUOUS
 62
     7
 10
36.0504129662
 20
24.0419428226
 30
0.0
 11
36.0093123997
 21
24.0656696746
 31
0.0
  0
LINE
  5
D4
  8
0
  6
CONTINUOUS
 62
     7
 10
36.0093123997
 20
24.0656696746
 30
0.0
 11
47.1959623254
 21
32.96887359
 31
0.0
  0
LINE
  5
D5
  8
0
  6
CONTINUOUS
 62
     7
 10
61.2831864445
 20
27.085186123
 30
0.0
 11
61.3242873999
 21
27.1089131995
 31
0.0
  0
LINE
  5
D6
  8
0
  6
CONTINUOUS
 62
     7
 10
61.2831864445
 20
27.085186123
 30
0.0
 11
60.8373777395
 21
27.3425460103
 31
0.0
  0
LINE
  5
D7
  8
0
  6
CONTINUOUS
 62
     7
 10
60.8373777395
 20
27.3425460103
 30
0.0
 11
60.8784786949
 21
27.3662730868
 31
0.0
  0
LINE
  5
D8
  8
0
  6
CONTINUOUS
 62
     7
 10
60.8784786949
 20
27.3662730868
 30
0.0
 11
61.3242873999
 21
27.1089131995
 31
0.0
  0
LINE
  5
D9
  8
0
  6
CONTINUOUS
 62
     7
 10
61.2831864445
 20
27.085186123
 30
0.0
 11
61.2831864445
 21
23.0907705073
 31
0.0
  0
LINE
  5
DA
  8
0
  6
CONTINUOUS
 62
     7
 10
61.2831864445
 20
23.0907705073
 30
0.0
 11
60.8373777395
 21
23.3481303946
 31
0.0
  0
LINE
  5
DB
  8
0
  6
CONTINUOUS
 62
     7
 10
60.8373777395
 20
27.3425460103
 30
0.0
 11
60.8373777395
 21
23.3481303946
 31
0.0
  0
POLYLINE
  5
DC
  8
0
  6
CONTINUOUS
 62
     7
 66
     1
 10
0.0
 20
0.0
 30
0.0
  0
VERTEX
  5
303
  8
0
  6
CONTINUOUS
 62
     7
 10
61.0140437116
 20
27.1689839386
 30
0.0
  0
VERTEX
  5
304
  8
0
  6
CONTINUOUS
 62
     7
 10
60.9821885656
 20
27.1808872835
 30
0.0
  0
VERTEX
  5
305
  8
0
  6
CONTINUOUS
 62
     7
 10
60.9541750156
 20
27.1783827619
 30
0.0
  0
VERTEX
  5
306
  8
0
  6
CONTINUOUS
 62
     7
 10
60.9333830284
 20
27.1617713583
 30
0.0
  0
VERTEX
  5
307
  8
0
  6
CONTINUOUS
 62
     7
 10
60.9223194806
 20
27.1330580557
 30
0.0
  0
VERTEX
  5
308
  8
0
  6
CONTINUOUS
 62
     7
 10
60.9223194806
 20
27.0957048071
 30
0.0
  0
VERTEX
  5
309
  8
0
  6
CONTINUOUS
 62
     7
 10
60.9333830284
 20
27.0542178042
 30
0.0
  0
VERTEX
  5
30A
  8
0
  6
CONTINUOUS
 62
     7
 10
60.9541750156
 20
27.0136007077
 30
0.0
  0
VERTEX
  5
30B
  8
0
  6
CONTINUOUS
 62
     7
 10
60.9821885656
 20
26.9787524297
 30
0.0
  0
VERTEX
  5
30C
  8
0
  6
CONTINUOUS
 62
     7
 10
61.0140437116
 20
26.9538766058
 30
0.0
  0
SEQEND
  5
30D
  8
0
  6
CONTINUOUS
 62
     7
  0
LINE
  5
DD
  8
0
  6
CONTINUOUS
 62
     7
 10
61.0140437116
 20
26.9538766058
 30
0.0
 11
61.117458404
 21
26.8941765747
 31
0.0
  0
POLYLINE
  5
DE
  8
0
  6
CONTINUOUS
 62
     7
 66
     1
 10
0.0
 20
0.0
 30
0.0
  0
VERTEX
  5
30E
  8
0
  6
CONTINUOUS
 62
     7
 10
61.117458404
 20
27.1092839074
 30
0.0
  0
VERTEX
  5
30F
  8
0
  6
CONTINUOUS
 62
     7
 10
61.1493135501
 20
27.0844080836
 30
0.0
  0
VERTEX
  5
310
  8
0
  6
CONTINUOUS
 62
     7
 10
61.1773271001
 20
27.0495598056
 30
0.0
  0
VERTEX
  5
311
  8
0
  6
CONTINUOUS
 62
     7
 10
61.1981190873
 20
27.0089424845
 30
0.0
  0
VERTEX
  5
312
  8
0
  6
CONTINUOUS
 62
     7
 10
61.209182635
 20
26.9674554816
 30
0.0
  0
VERTEX
  5
313
  8
0
  6
CONTINUOUS
 62
     7
 10
61.209182635
 20
26.930102233
 30
0.0
  0
VERTEX
  5
314
  8
0
  6
CONTINUOUS
 62
     7
 10
61.1981190873
 20
26.9013889304
 30
0.0
  0
VERTEX
  5
315
  8
0
  6
CONTINUOUS
 62
     7
 10
61.1773271001
 20
26.8847777514
 30
0.0
  0
VERTEX
  5
316
  8
0
  6
CONTINUOUS
 62
     7
 10
61.1493135501
 20
26.8822732298
 30
0.0
  0
VERTEX
  5
317
  8
0
  6
CONTINUOUS
 62
     7
 10
61.117458404
 20
26.8941765747
 30
0.0
  0
SEQEND
  5
318
  8
0
  6
CONTINUOUS
 62
     7
  0
LINE
  5
DF
  8
0
  6
CONTINUOUS
 62
     7
 10
61.117458404
 20
27.1092839074
 30
0.0
 11
61.0140437116
 21
27.1689839386
 31
0.0
  0
POLYLINE
  5
E0
  8
0
  6
CONTINUOUS
 62
     7
 66
     1
 10
0.0
 20
0.0
 30
0.0
  0
VERTEX
  5
319
  8
0
  6
CONTINUOUS
 62
     7
 10
61.0140437116
 20
26.2121001441
 30
0.0
  0
VERTEX
  5
31A
  8
0
  6
CONTINUOUS
 62
     7
 10
60.9821885656
 20
26.224003489
 30
0.0
  0
VERTEX
  5
31B
  8
0
  6
CONTINUOUS
 62
     7
 10
60.9541750156
 20
26.2214989674
 30
0.0
  0
VERTEX
  5
31C
  8
0
  6
CONTINUOUS
 62
     7
 10
60.9333830284
 20
26.2048877884
 30
0.0
  0
VERTEX
  5
31D
  8
0
  6
CONTINUOUS
 62
     7
 10
60.9223194806
 20
26.1761742612
 30
0.0
  0
VERTEX
  5
31E
  8
0
  6
CONTINUOUS
 62
     7
 10
60.9223194806
 20
26.1388212372
 30
0.0
  0
VERTEX
  5
31F
  8
0
  6
CONTINUOUS
 62
     7
 10
60.9333830284
 20
26.0973340097
 30
0.0
  0
VERTEX
  5
320
  8
0
  6
CONTINUOUS
 62
     7
 10
60.9541750156
 20
26.0567169132
 30
0.0
  0
VERTEX
  5
321
  8
0
  6
CONTINUOUS
 62
     7
 10
60.9821885656
 20
26.0218686352
 30
0.0
  0
VERTEX
  5
322
  8
0
  6
CONTINUOUS
 62
     7
 10
61.0140437116
 20
25.9969928114
 30
0.0
  0
SEQEND
  5
323
  8
0
  6
CONTINUOUS
 62
     7
  0
LINE
  5
E1
  8
0
  6
CONTINUOUS
 62
     7
 10
61.0140437116
 20
25.9969928114
 30
0.0
 11
61.117458404
 21
25.9372927802
 31
0.0
  0
POLYLINE
  5
E2
  8
0
  6
CONTINUOUS
 62
     7
 66
     1
 10
0.0
 20
0.0
 30
0.0
  0
VERTEX
  5
324
  8
0
  6
CONTINUOUS
 62
     7
 10
61.117458404
 20
26.152400113
 30
0.0
  0
VERTEX
  5
325
  8
0
  6
CONTINUOUS
 62
     7
 10
61.1493135501
 20
26.1275242891
 30
0.0
  0
VERTEX
  5
326
  8
0
  6
CONTINUOUS
 62
     7
 10
61.1773271001
 20
26.0926760111
 30
0.0
  0
VERTEX
  5
327
  8
0
  6
CONTINUOUS
 62
     7
 10
61.1981190873
 20
26.0520589146
 30
0.0
  0
VERTEX
  5
328
  8
0
  6
CONTINUOUS
 62
     7
 10
61.209182635
 20
26.0105716872
 30
0.0
  0
VERTEX
  5
329
  8
0
  6
CONTINUOUS
 62
     7
 10
61.209182635
 20
25.9732186631
 30
0.0
  0
VERTEX
  5
32A
  8
0
  6
CONTINUOUS
 62
     7
 10
61.1981190873
 20
25.944505136
 30
0.0
  0
VERTEX
  5
32B
  8
0
  6
CONTINUOUS
 62
     7
 10
61.1773271001
 20
25.9278939569
 30
0.0
  0
VERTEX
  5
32C
  8
0
  6
CONTINUOUS
 62
     7
 10
61.1493135501
 20
25.9253894353
 30
0.0
  0
VERTEX
  5
32D
  8
0
  6
CONTINUOUS
 62
     7
 10
61.117458404
 20
25.9372927802
 30
0.0
  0
SEQEND
  5
32E
  8
0
  6
CONTINUOUS
 62
     7
  0
LINE
  5
E3
  8
0
  6
CONTINUOUS
 62
     7
 10
61.117458404
 20
26.152400113
 30
0.0
 11
61.0140437116
 21
26.2121001441
 31
0.0
  0
POLYLINE
  5
E4
  8
0
  6
CONTINUOUS
 62
     7
 66
     1
 10
0.0
 20
0.0
 30
0.0
  0
VERTEX
  5
32F
  8
0
  6
CONTINUOUS
 62
     7
 10
61.0140437116
 20
24.4897094039
 30
0.0
  0
VERTEX
  5
330
  8
0
  6
CONTINUOUS
 62
     7
 10
60.9821885656
 20
24.5016127488
 30
0.0
  0
VERTEX
  5
331
  8
0
  6
CONTINUOUS
 62
     7
 10
60.9541750156
 20
24.4991081149
 30
0.0
  0
VERTEX
  5
332
  8
0
  6
CONTINUOUS
 62
     7
 10
60.9333830284
 20
24.4824970481
 30
0.0
  0
VERTEX
  5
333
  8
0
  6
CONTINUOUS
 62
     7
 10
60.9223194806
 20
24.453783521
 30
0.0
  0
VERTEX
  5
334
  8
0
  6
CONTINUOUS
 62
     7
 10
60.9223194806
 20
24.4164304969
 30
0.0
  0
VERTEX
  5
335
  8
0
  6
CONTINUOUS
 62
     7
 10
60.9333830284
 20
24.3749432695
 30
0.0
  0
VERTEX
  5
336
  8
0
  6
CONTINUOUS
 62
     7
 10
60.9541750156
 20
24.334326173
 30
0.0
  0
VERTEX
  5
337
  8
0
  6
CONTINUOUS
 62
     7
 10
60.9821885656
 20
24.2994777827
 30
0.0
  0
VERTEX
  5
338
  8
0
  6
CONTINUOUS
 62
     7
 10
61.0140437116
 20
24.2746019589
 30
0.0
  0
SEQEND
  5
339
  8
0
  6
CONTINUOUS
 62
     7
  0
LINE
  5
E5
  8
0
  6
CONTINUOUS
 62
     7
 10
61.0140437116
 20
24.2746019589
 30
0.0
 11
61.117458404
 21
24.2149019277
 31
0.0
  0
POLYLINE
  5
E6
  8
0
  6
CONTINUOUS
 62
     7
 66
     1
 10
0.0
 20
0.0
 30
0.0
  0
VERTEX
  5
33A
  8
0
  6
CONTINUOUS
 62
     7
 10
61.117458404
 20
24.4300093727
 30
0.0
  0
VERTEX
  5
33B
  8
0
  6
CONTINUOUS
 62
     7
 10
61.1493135501
 20
24.4051335489
 30
0.0
  0
VERTEX
  5
33C
  8
0
  6
CONTINUOUS
 62
     7
 10
61.1773271001
 20
24.3702851586
 30
0.0
  0
VERTEX
  5
33D
  8
0
  6
CONTINUOUS
 62
     7
 10
61.1981190873
 20
24.3296681744
 30
0.0
  0
VERTEX
  5
33E
  8
0
  6
CONTINUOUS
 62
     7
 10
61.209182635
 20
24.2881809469
 30
0.0
  0
VERTEX
  5
33F
  8
0
  6
CONTINUOUS
 62
     7
 10
61.209182635
 20
24.2508279229
 30
0.0
  0
VERTEX
  5
340
  8
0
  6
CONTINUOUS
 62
     7
 10
61.1981190873
 20
24.2221143957
 30
0.0
  0
VERTEX
  5
341
  8
0
  6
CONTINUOUS
 62
     7
 10
61.1773271001
 20
24.2055032167
 30
0.0
  0
VERTEX
  5
342
  8
0
  6
CONTINUOUS
 62
     7
 10
61.1493135501
 20
24.2029985828
 30
0.0
  0
VERTEX
  5
343
  8
0
  6
CONTINUOUS
 62
     7
 10
61.117458404
 20
24.2149019277
 30
0.0
  0
SEQEND
  5
344
  8
0
  6
CONTINUOUS
 62
     7
  0
LINE
  5
E7
  8
0
  6
CONTINUOUS
 62
     7
 10
61.117458404
 20
24.4300093727
 30
0.0
 11
61.0140437116
 21
24.4897094039
 31
0.0
  0
POLYLINE
  5
E8
  8
0
  6
CONTINUOUS
 62
     7
 66
     1
 10
0.0
 20
0.0
 30
0.0
  0
VERTEX
  5
345
  8
0
  6
CONTINUOUS
 62
     7
 10
61.0140437116
 20
23.5328256656
 30
0.0
  0
VERTEX
  5
346
  8
0
  6
CONTINUOUS
 62
     7
 10
60.9821885656
 20
23.5447289824
 30
0.0
  0
VERTEX
  5
347
  8
0
  6
CONTINUOUS
 62
     7
 10
60.9541750156
 20
23.5422243485
 30
0.0
  0
VERTEX
  5
348
  8
0
  6
CONTINUOUS
 62
     7
 10
60.9333830284
 20
23.5256132256
 30
0.0
  0
VERTEX
  5
349
  8
0
  6
CONTINUOUS
 62
     7
 10
60.9223194806
 20
23.4968997265
 30
0.0
  0
VERTEX
  5
34A
  8
0
  6
CONTINUOUS
 62
     7
 10
60.9223194806
 20
23.4595467025
 30
0.0
  0
VERTEX
  5
34B
  8
0
  6
CONTINUOUS
 62
     7
 10
60.9333830284
 20
23.4180594891
 30
0.0
  0
VERTEX
  5
34C
  8
0
  6
CONTINUOUS
 62
     7
 10
60.9541750156
 20
23.3774424627
 30
0.0
  0
VERTEX
  5
34D
  8
0
  6
CONTINUOUS
 62
     7
 10
60.9821885656
 20
23.3425940725
 30
0.0
  0
VERTEX
  5
34E
  8
0
  6
CONTINUOUS
 62
     7
 10
61.0140437116
 20
23.3177182065
 30
0.0
  0
SEQEND
  5
34F
  8
0
  6
CONTINUOUS
 62
     7
  0
LINE
  5
E9
  8
0
  6
CONTINUOUS
 62
     7
 10
61.0140437116
 20
23.3177182065
 30
0.0
 11
61.117458404
 21
23.2580181754
 31
0.0
  0
POLYLINE
  5
EA
  8
0
  6
CONTINUOUS
 62
     7
 66
     1
 10
0.0
 20
0.0
 30
0.0
  0
VERTEX
  5
350
  8
0
  6
CONTINUOUS
 62
     7
 10
61.117458404
 20
23.4731256344
 30
0.0
  0
VERTEX
  5
351
  8
0
  6
CONTINUOUS
 62
     7
 10
61.1493135501
 20
23.4482497825
 30
0.0
  0
VERTEX
  5
352
  8
0
  6
CONTINUOUS
 62
     7
 10
61.1773271001
 20
23.4134013922
 30
0.0
  0
VERTEX
  5
353
  8
0
  6
CONTINUOUS
 62
     7
 10
61.1981190873
 20
23.3727843518
 30
0.0
  0
VERTEX
  5
354
  8
0
  6
CONTINUOUS
 62
     7
 10
61.209182635
 20
23.3312971525
 30
0.0
  0
VERTEX
  5
355
  8
0
  6
CONTINUOUS
 62
     7
 10
61.209182635
 20
23.2939441284
 30
0.0
  0
VERTEX
  5
356
  8
0
  6
CONTINUOUS
 62
     7
 10
61.1981190873
 20
23.2652306153
 30
0.0
  0
VERTEX
  5
357
  8
0
  6
CONTINUOUS
 62
     7
 10
61.1773271001
 20
23.2486195064
 30
0.0
  0
VERTEX
  5
358
  8
0
  6
CONTINUOUS
 62
     7
 10
61.1493135501
 20
23.2461148726
 30
0.0
  0
VERTEX
  5
359
  8
0
  6
CONTINUOUS
 62
     7
 10
61.117458404
 20
23.2580181754
 30
0.0
  0
SEQEND
  5
35A
  8
0
  6
CONTINUOUS
 62
     7
  0
LINE
  5
EB
  8
0
  6
CONTINUOUS
 62
     7
 10
61.117458404
 20
23.4731256344
 30
0.0
 11
61.0140437116
 21
23.5328256656
 31
0.0
  0
LINE
  5
EC
  8
0
  6
CONTINUOUS
 62
     7
 10
61.3242873999
 20
27.1089131995
 30
0.0
 11
61.3242873999
 21
23.1144975838
 31
0.0
  0
LINE
  5
ED
  8
0
  6
CONTINUOUS
 62
     7
 10
61.2831864445
 20
23.0907705073
 30
0.0
 11
61.3242873999
 21
23.1144975838
 31
0.0
  0
LINE
  5
EE
  8
0
  6
CONTINUOUS
 62
     7
 10
61.117458404
 20
26.8941765747
 30
0.0
 11
61.1585593594
 21
26.9179036512
 31
0.0
  0
POLYLINE
  5
EF
  8
0
  6
CONTINUOUS
 62
     7
 66
     1
 10
0.0
 20
0.0
 30
0.0
  0
VERTEX
  5
35B
  8
0
  6
CONTINUOUS
 62
     7
 10
61.2005754065
 20
26.9052137764
 30
0.0
  0
VERTEX
  5
35C
  8
0
  6
CONTINUOUS
 62
     7
 10
61.1904145055
 20
26.9060003063
 30
0.0
  0
VERTEX
  5
35D
  8
0
  6
CONTINUOUS
 62
     7
 10
61.1585593594
 20
26.9179036512
 30
0.0
  0
SEQEND
  5
35E
  8
0
  6
CONTINUOUS
 62
     7
  0
LINE
  5
F0
  8
0
  6
CONTINUOUS
 62
     7
 10
61.0140437116
 20
26.9538766058
 30
0.0
 11
61.055144667
 21
26.9776036823
 31
0.0
  0
ARC
  5
F1
  8
0
  6
CONTINUOUS
 62
     7
 10
61.1373707017
 20
27.1300554489
 30
0.0
 40
0.1732127649158493
 50
162.6620986144
 51
241.6594538384
  0
LINE
  5
F2
  8
0
  6
CONTINUOUS
 62
     7
 10
61.055144667
 20
26.9776036823
 30
0.0
 11
61.1585593594
 21
26.9179036512
 31
0.0
  0
ARC
  5
F3
  8
0
  6
CONTINUOUS
 62
     7
 10
60.8274338249
 20
23.3289390266
 30
0.0
 40
0.021614579433044
 50
62.609285783
 51
117.3894205881
  0
ARC
  5
F4
  8
0
  6
CONTINUOUS
 62
     7
 10
60.8274338249
 20
27.3233546423
 30
0.0
 40
0.0216145794330881
 50
62.6092857831
 51
117.3894205881
  0
ARC
  5
F5
  8
0
  6
CONTINUOUS
 62
     7
 10
60.827434236
 20
27.2677553638
 30
0.0
 40
0.1109562009671706
 50
62.6102135066
 51
117.3897864934
  0
LINE
  5
F6
  8
0
  6
CONTINUOUS
 62
     7
 10
61.117458404
 20
25.9372927802
 30
0.0
 11
61.1585593594
 21
25.9610198567
 31
0.0
  0
POLYLINE
  5
F7
  8
0
  6
CONTINUOUS
 62
     7
 66
     1
 10
0.0
 20
0.0
 30
0.0
  0
VERTEX
  5
35F
  8
0
  6
CONTINUOUS
 62
     7
 10
61.2005754065
 20
25.948329982
 30
0.0
  0
VERTEX
  5
360
  8
0
  6
CONTINUOUS
 62
     7
 10
61.1904145055
 20
25.9491165118
 30
0.0
  0
VERTEX
  5
361
  8
0
  6
CONTINUOUS
 62
     7
 10
61.1585593594
 20
25.9610198567
 30
0.0
  0
SEQEND
  5
362
  8
0
  6
CONTINUOUS
 62
     7
  0
LINE
  5
F8
  8
0
  6
CONTINUOUS
 62
     7
 10
35.9675483626
 20
23.8984177931
 30
0.0
 11
35.9264477961
 21
23.9221446451
 31
0.0
  0
LINE
  5
F9
  8
0
  6
CONTINUOUS
 62
     7
 10
35.9264477961
 20
23.9221446451
 30
0.0
 11
36.0093123997
 21
24.0656696746
 31
0.0
  0
LINE
  5
FA
  8
0
  6
CONTINUOUS
 62
     7
 10
35.9675483626
 20
22.503922903
 30
0.0
 11
35.9264477961
 21
22.5276497549
 31
0.0
  0
LINE
  5
FB
  8
0
  6
CONTINUOUS
 62
     7
 10
35.9264477961
 20
22.5276497549
 30
0.0
 11
35.9264477961
 21
23.9221446451
 31
0.0
  0
LINE
  5
FC
  8
0
  6
CONTINUOUS
 62
     7
 10
61.0140437116
 20
25.9969928114
 30
0.0
 11
61.055144667
 21
26.0207198879
 31
0.0
  0
ARC
  5
FD
  8
0
  6
CONTINUOUS
 62
     7
 10
61.1373707017
 20
26.1731716545
 30
0.0
 40
0.1732127649158592
 50
162.6620986144
 51
241.6594538384
  0
LINE
  5
FE
  8
0
  6
CONTINUOUS
 62
     7
 10
61.055144667
 20
26.0207198879
 30
0.0
 11
61.1585593594
 21
25.9610198567
 31
0.0
  0
LINE
  5
FF
  8
0
  6
CONTINUOUS
 62
     7
 10
36.2585673477
 20
23.9755753324
 30
0.0
 11
36.2557781265
 21
23.9952518978
 31
0.0
  0
ARC
  5
100
  8
0
  6
CONTINUOUS
 62
     7
 10
36.1338978168
 20
23.9769059914
 30
0.0
 40
0.1246766321038415
 50
290.6319266177
 51
359.3884773038
  0
LINE
  5
101
  8
0
  6
CONTINUOUS
 62
     7
 10
35.9774918662
 20
22.4867000357
 30
0.0
 11
35.9774918662
 21
22.439238601
 31
0.0
  0
LINE
  5
102
  8
0
  6
CONTINUOUS
 62
     7
 10
36.0510752701
 20
22.4442212407
 30
0.0
 11
36.0510752701
 21
22.396759806
 31
0.0
  0
LINE
  5
103
  8
0
  6
CONTINUOUS
 62
     7
 10
36.0510752701
 20
22.396759806
 30
0.0
 11
35.9774918662
 21
22.439238601
 31
0.0
  0
LINE
  5
104
  8
0
  6
CONTINUOUS
 62
     7
 10
36.0510752701
 20
22.396759806
 30
0.0
 11
36.0809788947
 21
22.4140228011
 31
0.0
  0
ARC
  5
105
  8
0
  6
CONTINUOUS
 62
     7
 10
35.9891372385
 20
22.5049052512
 30
0.0
 40
0.0216112140008536
 50
182.6053052584
 51
237.3940782857
  0
ARC
  5
106
  8
0
  6
CONTINUOUS
 62
     7
 10
49.1956826572
 20
30.1288816405
 30
0.0
 40
0.0216112140008421
 50
182.6053052584
 51
237.3940782857
  0
ARC
  5
107
  8
0
  6
CONTINUOUS
 62
     7
 10
36.0372706293
 20
22.5326924879
 30
0.0
 40
0.1109375026660119
 50
182.6053128724
 51
237.3945573114
  0
LINE
  5
108
  8
0
  6
CONTINUOUS
 62
     7
 10
61.117458404
 20
24.2149019277
 30
0.0
 11
61.1585593594
 21
24.2386290042
 31
0.0
  0
POLYLINE
  5
109
  8
0
  6
CONTINUOUS
 62
     7
 66
     1
 10
0.0
 20
0.0
 30
0.0
  0
VERTEX
  5
363
  8
0
  6
CONTINUOUS
 62
     7
 10
61.2005754065
 20
24.2259392417
 30
0.0
  0
VERTEX
  5
364
  8
0
  6
CONTINUOUS
 62
     7
 10
61.1904145055
 20
24.2267256593
 30
0.0
  0
VERTEX
  5
365
  8
0
  6
CONTINUOUS
 62
     7
 10
61.1585593594
 20
24.2386290042
 30
0.0
  0
SEQEND
  5
366
  8
0
  6
CONTINUOUS
 62
     7
  0
LINE
  5
10A
  8
0
  6
CONTINUOUS
 62
     7
 10
61.0140437116
 20
24.2746019589
 30
0.0
 11
61.055144667
 21
24.2983290354
 31
0.0
  0
ARC
  5
10B
  8
0
  6
CONTINUOUS
 62
     7
 10
61.1373708205
 20
24.4507808787
 30
0.0
 40
0.1732128888264096
 50
162.6620991014
 51
241.6594313271
  0
LINE
  5
10C
  8
0
  6
CONTINUOUS
 62
     7
 10
61.055144667
 20
24.2983290354
 30
0.0
 11
61.1585593594
 21
24.2386290042
 31
0.0
  0
LINE
  5
10D
  8
0
  6
CONTINUOUS
 62
     7
 10
61.117458404
 20
23.2580181754
 30
0.0
 11
61.1585593594
 21
23.2817452518
 31
0.0
  0
POLYLINE
  5
10E
  8
0
  6
CONTINUOUS
 62
     7
 66
     1
 10
0.0
 20
0.0
 30
0.0
  0
VERTEX
  5
367
  8
0
  6
CONTINUOUS
 62
     7
 10
61.2005754065
 20
23.2690554753
 30
0.0
  0
VERTEX
  5
368
  8
0
  6
CONTINUOUS
 62
     7
 10
61.1904145055
 20
23.2698419491
 30
0.0
  0
VERTEX
  5
369
  8
0
  6
CONTINUOUS
 62
     7
 10
61.1585593594
 20
23.2817452518
 30
0.0
  0
SEQEND
  5
36A
  8
0
  6
CONTINUOUS
 62
     7
  0
LINE
  5
10F
  8
0
  6
CONTINUOUS
 62
     7
 10
61.0140437116
 20
23.3177182065
 30
0.0
 11
61.055144667
 21
23.341445283
 31
0.0
  0
ARC
  5
110
  8
0
  6
CONTINUOUS
 62
     7
 10
61.1373709044
 20
23.493897157
 30
0.0
 40
0.1732129556217765
 50
162.6621214764
 51
241.6594117052
  0
LINE
  5
111
  8
0
  6
CONTINUOUS
 62
     7
 10
61.055144667
 20
23.341445283
 30
0.0
 11
61.1585593594
 21
23.2817452518
 31
0.0
  0
LINE
  5
112
  8
0
  6
CONTINUOUS
 62
     7
 10
49.2678955387
 20
30.2184270548
 30
0.0
 11
49.2678955387
 21
30.085994344
 31
0.0
  0
LINE
  5
113
  8
0
  6
CONTINUOUS
 62
     7
 10
49.3507593645
 20
30.2662791687
 30
0.0
 11
49.2678955387
 21
30.2184270548
 31
0.0
  0
LINE
  5
114
  8
0
  6
CONTINUOUS
 62
     7
 10
57.7764377173
 20
25.4022385896
 30
0.0
 11
49.3507593645
 21
30.2662791687
 31
0.0
  0
LINE
  5
115
  8
0
  6
CONTINUOUS
 62
     7
 10
57.6103098833
 20
25.2700210537
 30
0.0
 11
49.2678955387
 21
30.085994344
 31
0.0
  0
LINE
  5
116
  8
0
  6
CONTINUOUS
 62
     7
 10
60.786924415
 20
23.3650108252
 30
0.0
 11
60.8168276507
 21
23.3477480547
 31
0.0
  0
LINE
  5
117
  8
0
  6
CONTINUOUS
 62
     7
 10
49.3507593645
 20
30.2662791687
 30
0.0
 11
49.3918603199
 21
30.2900062452
 31
0.0
  0
LINE
  5
118
  8
0
  6
CONTINUOUS
 62
     7
 10
57.8109961367
 20
25.4297425918
 30
0.0
 11
49.3918603199
 21
30.2900062452
 31
0.0
  0
ARC
  5
119
  8
0
  6
CONTINUOUS
 62
     7
 10
49.2463072618
 20
30.0869763464
 30
0.0
 40
0.0216105998694076
 50
302.6050779164
 51
357.3955385394
  0
LINE
  5
11A
  8
0
  6
CONTINUOUS
 62
     7
 10
49.1747564741
 20
34.0637534328
 30
0.0
 11
49.1336559076
 21
34.0874802848
 31
0.0
  0
LINE
  5
11B
  8
0
  6
CONTINUOUS
 62
     7
 10
49.1336559076
 20
34.0874802848
 30
0.0
 11
47.1959623254
 21
32.96887359
 31
0.0
  0
ARC
  5
11C
  8
0
  6
CONTINUOUS
 62
     7
 10
49.1635720636
 20
34.0932207717
 30
0.0
 40
0.0315184882162114
 50
290.7843971908
 51
69.2156028092
  0
ARC
  5
11D
  8
0
  6
CONTINUOUS
 62
     7
 10
49.1314770071
 20
34.0932205856
 30
0.0
 40
0.0061399235612484
 50
290.7857350372
 51
69.2181466906
  0
LINE
  5
11E
  8
0
  6
CONTINUOUS
 62
     7
 10
49.1336555187
 20
34.0989610341
 30
0.0
 11
49.1747564741
 21
34.1226881106
 31
0.0
  0
LINE
  5
11F
  8
0
  6
CONTINUOUS
 62
     7
 10
49.1336555187
 20
34.0874804396
 30
0.0
 11
49.1336555187
 21
34.0989610341
 31
0.0
  0
LINE
  5
120
  8
0
  6
CONTINUOUS
 62
     7
 10
48.6878468137
 20
33.8301204202
 30
0.0
 11
48.6878468137
 21
34.3563209214
 31
0.0
  0
LINE
  5
121
  8
0
  6
CONTINUOUS
 62
     7
 10
48.6878468137
 20
34.3563209214
 30
0.0
 11
49.1336555187
 21
34.0989610341
 31
0.0
  0
POLYLINE
  5
122
  8
0
  6
CONTINUOUS
 62
     7
 66
     1
 10
0.0
 20
0.0
 30
0.0
  0
VERTEX
  5
36B
  8
0
  6
CONTINUOUS
 62
     7
 10
48.8535748542
 20
34.1890731832
 30
0.0
  0
VERTEX
  5
36C
  8
0
  6
CONTINUOUS
 62
     7
 10
48.8217197081
 20
34.2009765281
 30
0.0
  0
VERTEX
  5
36D
  8
0
  6
CONTINUOUS
 62
     7
 10
48.7937061581
 20
34.1984720065
 30
0.0
  0
VERTEX
  5
36E
  8
0
  6
CONTINUOUS
 62
     7
 10
48.7729141709
 20
34.1818606029
 30
0.0
  0
VERTEX
  5
36F
  8
0
  6
CONTINUOUS
 62
     7
 10
48.7618506232
 20
34.1531473003
 30
0.0
  0
VERTEX
  5
370
  8
0
  6
CONTINUOUS
 62
     7
 10
48.7618506232
 20
34.1157940517
 30
0.0
  0
VERTEX
  5
371
  8
0
  6
CONTINUOUS
 62
     7
 10
48.7729141709
 20
34.0743070488
 30
0.0
  0
VERTEX
  5
372
  8
0
  6
CONTINUOUS
 62
     7
 10
48.7937061581
 20
34.0336899523
 30
0.0
  0
VERTEX
  5
373
  8
0
  6
CONTINUOUS
 62
     7
 10
48.8217197081
 20
33.9988416743
 30
0.0
  0
VERTEX
  5
374
  8
0
  6
CONTINUOUS
 62
     7
 10
48.8535748542
 20
33.9739658504
 30
0.0
  0
SEQEND
  5
375
  8
0
  6
CONTINUOUS
 62
     7
  0
LINE
  5
123
  8
0
  6
CONTINUOUS
 62
     7
 10
48.8535748542
 20
33.9739658504
 30
0.0
 11
48.8952980564
 21
33.9498795585
 31
0.0
  0
ARC
  5
124
  8
0
  6
CONTINUOUS
 62
     7
 10
48.8478283047
 20
33.9591216981
 30
0.0
 40
0.2022417718557047
 50
20.9687212715
 51
57.3329589413
  0
LINE
  5
125
  8
0
  6
CONTINUOUS
 62
     7
 10
48.9569895466
 20
34.129373152
 30
0.0
 11
48.8535748542
 21
34.1890731832
 31
0.0
  0
LINE
  5
126
  8
0
  6
CONTINUOUS
 62
     7
 10
48.6878468137
 20
34.3563209214
 30
0.0
 11
48.7289477691
 21
34.3800479979
 31
0.0
  0
LINE
  5
127
  8
0
  6
CONTINUOUS
 62
     7
 10
48.7289477691
 20
34.3800479979
 30
0.0
 11
49.1747564741
 21
34.1226881106
 31
0.0
  0
LINE
  5
128
  8
0
  6
CONTINUOUS
 62
     7
 10
48.8535748542
 20
33.9739658504
 30
0.0
 11
48.8946758096
 21
33.9976929269
 31
0.0
  0
ARC
  5
129
  8
0
  6
CONTINUOUS
 62
     7
 10
48.9769018443
 20
34.1501446936
 30
0.0
 40
0.1732127649158267
 50
162.6620986143
 51
241.6594538384
  0
LINE
  5
12A
  8
0
  6
CONTINUOUS
 62
     7
 10
48.8946758096
 20
33.9976929269
 30
0.0
 11
48.9363990117
 21
33.973606635
 31
0.0
  0
LINE
  5
12B
  8
0
  6
CONTINUOUS
 62
     7
 10
27.1122501504
 20
10.1477701694
 30
0.0
 11
26.9562496592
 21
10.1477701694
 31
0.0
  0
ARC
  5
12C
  8
0
  6
CONTINUOUS
 62
     7
 10
27.1122499139
 20
10.2882700419
 30
0.0
 40
0.1404999999999994
 50
270.0
 51
90.0
  0
LINE
  5
12D
  8
0
  6
CONTINUOUS
 62
     7
 10
26.9562496592
 20
10.4287699899
 30
0.0
 11
27.1122501504
 21
10.4287699899
 31
0.0
  0
LINE
  5
12E
  8
0
  6
CONTINUOUS
 62
     7
 10
27.1122501504
 20
8.8977701295
 30
0.0
 11
26.9562496592
 21
8.8977701295
 31
0.0
  0
ARC
  5
12F
  8
0
  6
CONTINUOUS
 62
     7
 10
27.1122499139
 20
9.0382700419
 30
0.0
 40
0.1404999999999994
 50
270.0
 51
90.0
  0
LINE
  5
130
  8
0
  6
CONTINUOUS
 62
     7
 10
26.9562496592
 20
9.17876995
 30
0.0
 11
27.1122501504
 21
9.17876995
 31
0.0
  0
ARC
  5
131
  8
0
  6
CONTINUOUS
 62
     7
 10
26.9562499139
 20
9.0382700419
 30
0.0
 40
0.1405000000000012
 50
90.0
 51
270.0
  0
LINE
  5
132
  8
0
  6
CONTINUOUS
 62
     7
 10
27.1122501504
 20
6.6477700283
 30
0.0
 11
26.9562496592
 21
6.6477700283
 31
0.0
  0
ARC
  5
133
  8
0
  6
CONTINUOUS
 62
     7
 10
27.1122499139
 20
6.7882700419
 30
0.0
 40
0.1404999999999985
 50
270.0
 51
90.0
  0
LINE
  5
134
  8
0
  6
CONTINUOUS
 62
     7
 10
26.9562496592
 20
6.9287699955
 30
0.0
 11
27.1122501504
 21
6.9287699955
 31
0.0
  0
ARC
  5
135
  8
0
  6
CONTINUOUS
 62
     7
 10
26.9562499139
 20
6.7882700419
 30
0.0
 40
0.1405000000000012
 50
90.0
 51
270.0
  0
LINE
  5
136
  8
0
  6
CONTINUOUS
 62
     7
 10
27.1122501504
 20
5.3977700434
 30
0.0
 11
26.9562496592
 21
5.3977700434
 31
0.0
  0
ARC
  5
137
  8
0
  6
CONTINUOUS
 62
     7
 10
27.1122499139
 20
5.5382700419
 30
0.0
 40
0.1404999999999994
 50
270.0
 51
90.0
  0
LINE
  5
138
  8
0
  6
CONTINUOUS
 62
     7
 10
26.9562496592
 20
5.678770029
 30
0.0
 11
27.1122501504
 21
5.678770029
 31
0.0
  0
ARC
  5
139
  8
0
  6
CONTINUOUS
 62
     7
 10
26.9562499139
 20
5.5382700419
 30
0.0
 40
0.1405000000000012
 50
90.0
 51
270.0
  0
LINE
  5
13A
  8
0
  6
CONTINUOUS
 62
     7
 10
27.3622499824
 20
10.5222700831
 30
0.0
 11
26.6897500178
 21
10.5222700831
 31
0.0
  0
LINE
  5
13B
  8
0
  6
CONTINUOUS
 62
     7
 10
27.3622499824
 20
5.3042700419
 30
0.0
 11
27.3622499824
 21
10.5222700831
 31
0.0
  0
LINE
  5
13C
  8
0
  6
CONTINUOUS
 62
     7
 10
26.6897500178
 20
5.3042700419
 30
0.0
 11
27.3622499824
 21
5.3042700419
 31
0.0
  0
ARC
  5
13D
  8
0
  6
CONTINUOUS
 62
     7
 10
26.9562499139
 20
10.2882700419
 30
0.0
 40
0.1404999999999994
 50
90.0
 51
270.0
  0
LINE
  5
13E
  8
0
  6
CONTINUOUS
 62
     7
 10
8.3622498453
 20
5.3042700419
 30
0.0
 11
9.0347498099
 21
5.3042700419
 31
0.0
  0
LINE
  5
13F
  8
0
  6
CONTINUOUS
 62
     7
 10
8.3622498453
 20
10.5222700831
 30
0.0
 11
8.3622498453
 21
5.3042700419
 31
0.0
  0
LINE
  5
140
  8
0
  6
CONTINUOUS
 62
     7
 10
9.0347498099
 20
10.5222700831
 30
0.0
 11
8.3622498453
 21
10.5222700831
 31
0.0
  0
ARC
  5
141
  8
0
  6
CONTINUOUS
 62
     7
 10
8.7682499139
 20
5.5382700419
 30
0.0
 40
0.1404999999999994
 50
270.0
 51
90.0
  0
ARC
  5
142
  8
0
  6
CONTINUOUS
 62
     7
 10
8.6122499139
 20
5.5382700419
 30
0.0
 40
0.1405000000000021
 50
90.0
 51
270.0
  0
LINE
  5
143
  8
0
  6
CONTINUOUS
 62
     7
 10
8.6122496773
 20
9.17876995
 30
0.0
 11
8.7682501685
 21
9.17876995
 31
0.0
  0
LINE
  5
144
  8
0
  6
CONTINUOUS
 62
     7
 10
8.7682501685
 20
5.3977700434
 30
0.0
 11
8.6122496773
 21
5.3977700434
 31
0.0
  0
ARC
  5
145
  8
0
  6
CONTINUOUS
 62
     7
 10
8.6122499139
 20
9.0382700419
 30
0.0
 40
0.1405000000000012
 50
90.0
 51
270.0
  0
LINE
  5
146
  8
0
  6
CONTINUOUS
 62
     7
 10
8.6122496773
 20
5.678770029
 30
0.0
 11
8.7682501685
 21
5.678770029
 31
0.0
  0
LINE
  5
147
  8
0
  6
CONTINUOUS
 62
     7
 10
8.7682501685
 20
10.1477701694
 30
0.0
 11
8.6122496773
 21
10.1477701694
 31
0.0
  0
ARC
  5
148
  8
0
  6
CONTINUOUS
 62
     7
 10
8.6122499139
 20
6.7882700419
 30
0.0
 40
0.1405000000000021
 50
90.0
 51
270.0
  0
LINE
  5
149
  8
0
  6
CONTINUOUS
 62
     7
 10
8.6122496773
 20
6.9287699955
 30
0.0
 11
8.7682501685
 21
6.9287699955
 31
0.0
  0
ARC
  5
14A
  8
0
  6
CONTINUOUS
 62
     7
 10
8.7682499139
 20
6.7882700419
 30
0.0
 40
0.1405000000000003
 50
270.0
 51
90.0
  0
LINE
  5
14B
  8
0
  6
CONTINUOUS
 62
     7
 10
8.7682501685
 20
6.6477700283
 30
0.0
 11
8.6122496773
 21
6.6477700283
 31
0.0
  0
ARC
  5
14C
  8
0
  6
CONTINUOUS
 62
     7
 10
8.7682499139
 20
10.2882700419
 30
0.0
 40
0.1404999999999994
 50
270.0
 51
90.0
  0
ARC
  5
14D
  8
0
  6
CONTINUOUS
 62
     7
 10
8.6122499139
 20
10.2882700419
 30
0.0
 40
0.1404999999999994
 50
90.0
 51
270.0
  0
ARC
  5
14E
  8
0
  6
CONTINUOUS
 62
     7
 10
8.7682499139
 20
9.0382700419
 30
0.0
 40
0.1404999999999994
 50
270.0
 51
90.0
  0
LINE
  5
14F
  8
0
  6
CONTINUOUS
 62
     7
 10
8.7682501685
 20
8.8977701295
 30
0.0
 11
8.6122496773
 21
8.8977701295
 31
0.0
  0
LINE
  5
150
  8
0
  6
CONTINUOUS
 62
     7
 10
8.6122496773
 20
10.4287699899
 30
0.0
 11
8.7682501685
 21
10.4287699899
 31
0.0
  0
LINE
  5
151
  8
0
  6
CONTINUOUS
 62
     7
 10
9.2372501373
 20
5.5542700389
 30
0.0
 11
9.2372501373
 21
5.3812700415
 31
0.0
  0
LINE
  5
152
  8
0
  6
CONTINUOUS
 62
     7
 10
26.4872496905
 20
5.5542700389
 30
0.0
 11
26.3622500678
 21
5.6792700465
 31
0.0
  0
LINE
  5
153
  8
0
  6
CONTINUOUS
 62
     7
 10
26.4872496905
 20
5.5542700389
 30
0.0
 11
26.4872496905
 21
5.3812700415
 31
0.0
  0
LINE
  5
154
  8
0
  6
CONTINUOUS
 62
     7
 10
9.3622497599
 20
5.6792700465
 30
0.0
 11
26.3622500678
 21
5.6792700465
 31
0.0
  0
LINE
  5
155
  8
0
  6
CONTINUOUS
 62
     7
 10
9.3622497599
 20
5.6792700465
 30
0.0
 11
9.2372501373
 21
5.5542700389
 31
0.0
  0
LINE
  5
156
  8
0
  6
CONTINUOUS
 62
     7
 10
9.1117500937
 20
5.3042700419
 30
0.0
 11
9.1117500937
 21
10.5222700831
 31
0.0
  0
LINE
  5
157
  8
0
  6
CONTINUOUS
 62
     7
 10
9.1117500937
 20
5.3042700419
 30
0.0
 11
9.0347498099
 21
5.3042700419
 31
0.0
  0
LINE
  5
158
  8
0
  6
CONTINUOUS
 62
     7
 10
9.0347498099
 20
10.5222700831
 30
0.0
 11
9.1117500937
 21
10.5222700831
 31
0.0
  0
LINE
  5
159
  8
0
  6
CONTINUOUS
 62
     7
 10
26.612749734
 20
10.5222700831
 30
0.0
 11
26.612749734
 21
5.3042700419
 31
0.0
  0
LINE
  5
15A
  8
0
  6
CONTINUOUS
 62
     7
 10
26.6897500178
 20
5.3042700419
 30
0.0
 11
26.612749734
 21
5.3042700419
 31
0.0
  0
LINE
  5
15B
  8
0
  6
CONTINUOUS
 62
     7
 10
26.612749734
 20
10.5222700831
 30
0.0
 11
26.6897500178
 21
10.5222700831
 31
0.0
  0
LINE
  5
15C
  8
0
  6
CONTINUOUS
 62
     7
 10
26.4872496905
 20
5.3042700419
 30
0.0
 11
26.4872496905
 21
5.3812700415
 31
0.0
  0
LINE
  5
15D
  8
0
  6
CONTINUOUS
 62
     7
 10
9.2372501373
 20
5.3042700419
 30
0.0
 11
26.4872496905
 21
5.3042700419
 31
0.0
  0
LINE
  5
15E
  8
0
  6
CONTINUOUS
 62
     7
 10
9.2372501373
 20
5.3812700415
 30
0.0
 11
9.2372501373
 21
5.3042700419
 31
0.0
  0
LINE
  5
15F
  8
0
  6
CONTINUOUS
 62
     7
 10
9.2372501373
 20
5.3042700419
 30
0.0
 11
9.1267498138
 21
5.3042700419
 31
0.0
  0
LINE
  5
160
  8
0
  6
CONTINUOUS
 62
     7
 10
9.2372501373
 20
5.3662700419
 30
0.0
 11
9.1267498138
 21
5.3662700419
 31
0.0
  0
ARC
  5
161
  8
0
  6
CONTINUOUS
 62
     7
 10
9.1267499139
 20
5.3812700419
 30
0.0
 40
0.0150000000000023
 50
180.0
 51
270.0
  0
ARC
  5
162
  8
0
  6
CONTINUOUS
 62
     7
 10
9.1267499139
 20
5.3812700419
 30
0.0
 40
0.0769999999999982
 50
258.7666561571
 51
270.0
  0
LINE
  5
163
  8
0
  6
CONTINUOUS
 62
     7
 10
26.4872496905
 20
5.3042700419
 30
0.0
 11
26.597750014
 21
5.3042700419
 31
0.0
  0
LINE
  5
164
  8
0
  6
CONTINUOUS
 62
     7
 10
26.597750014
 20
5.3662700419
 30
0.0
 11
26.4872496905
 21
5.3662700419
 31
0.0
  0
ARC
  5
165
  8
0
  6
CONTINUOUS
 62
     7
 10
26.5977499139
 20
5.3812700419
 30
0.0
 40
0.0769999999999984
 50
270.0
 51
281.2333438429
  0
ARC
  5
166
  8
0
  6
CONTINUOUS
 62
     7
 10
26.5977499139
 20
5.3812700419
 30
0.0
 40
0.0150000000000006
 50
270.0
 51
0.0
  0
LINE
  5
167
  8
0
  6
CONTINUOUS
 62
     7
 10
9.2367497164
 20
5.3662700419
 30
0.0
 11
9.2367497164
 21
5.3812700415
 31
0.0
  0
LINE
  5
168
  8
0
  6
CONTINUOUS
 62
     7
 10
9.3617499257
 20
5.6792700465
 30
0.0
 11
9.2367497164
 21
5.5542700389
 31
0.0
  0
LINE
  5
169
  8
0
  6
CONTINUOUS
 62
     7
 10
9.2367497164
 20
5.5542700389
 30
0.0
 11
9.2367497164
 21
5.3812700415
 31
0.0
  0
LINE
  5
16A
  8
0
  6
CONTINUOUS
 62
     7
 10
9.3617499257
 20
5.6792700465
 30
0.0
 11
9.3622497599
 21
5.6792700465
 31
0.0
  0
DIMENSION
  5
16B
  8
0
  6
CONTINUOUS
 62
     7
  2
*D5
 10
27.0342499139
 20
11.9986479946
 30
0.0
 11
17.8622499139
 21
11.9986479946
 31
0.0
 70
   160
  3
SLDDIMSTYLE0
 13
8.6902499139
 23
10.4287700419
 33
0.0
 14
27.0342499139
 24
10.4287700419
 34
0.0
  0
DIMENSION
  5
180
  8
0
  6
CONTINUOUS
 62
     7
  2
*D6
 10
27.3622499139
 20
13.7703015379
 30
0.0
 11
17.8622499139
 21
13.7703015379
 31
0.0
 70
   160
  3
SLDDIMSTYLE1
 13
8.3622499139
 23
10.5222700419
 33
0.0
 14
27.3622499139
 24
10.5222700419
 34
0.0
 50
0.0
  0
DIMENSION
  5
195
  8
0
  6
CONTINUOUS
 62
     7
  2
*D7
 10
21.4061114564
 20
5.3042700419
 30
0.0
 11
21.4061114564
 21
3.5815749881
 31
0.0
 70
   160
  1
<> TYP.\PFRONT & BACK
  3
SLDDIMSTYLE2
 13
26.3622499139
 23
5.6792700419
 33
0.0
 14
26.5977499139
 24
5.3042700419
 34
0.0
 50
90.0
  0
DIMENSION
  5
1A9
  8
0
  6
CONTINUOUS
 62
     7
  2
*D8
 10
31.9516068339
 20
10.2882700419
 30
0.0
 11
31.9516068339
 21
11.34394524
 31
0.0
 70
   160
  3
SLDDIMSTYLE2
 13
27.1122499139
 23
9.0382700419
 33
0.0
 14
27.1122499139
 24
10.2882700419
 34
0.0
 50
90.0
  0
DIMENSION
  5
1BE
  8
0
  6
CONTINUOUS
 62
     7
  2
*D9
 10
30.2879051129
 20
6.7882700419
 30
0.0
 11
30.2879051129
 21
7.9132700419
 31
0.0
 70
   160
  3
SLDDIMSTYLE2
 13
27.1122499139
 23
9.0382700419
 33
0.0
 14
27.1122499139
 24
6.7882700419
 34
0.0
 50
90.0
  0
DIMENSION
  5
1D2
  8
0
  6
CONTINUOUS
 62
     7
  2
*D10
 10
28.679041084
 20
5.5382700419
 30
0.0
 11
28.679041084
 21
4.4250070392
 31
0.0
 70
   160
  3
SLDDIMSTYLE2
 13
27.1122499139
 23
6.7882700419
 33
0.0
 14
27.1122499139
 24
5.5382700419
 34
0.0
 50
90.0
  0
DIMENSION
  5
1E7
  8
0
  6
CONTINUOUS
 62
     7
  2
*D11
 10
7.1895344522
 20
5.3977700419
 30
0.0
 11
7.1895344522
 21
6.6320007765
 31
0.0
 70
   160
  3
SLDDIMSTYLE2
 13
8.6122499139
 23
5.6787700419
 33
0.0
 14
8.6122499139
 24
5.3977700419
 34
0.0
 50
90.0
  0
DIMENSION
  5
1FC
  8
0
  6
CONTINUOUS
 62
     7
  2
*D12
 10
8.9087499139
 20
3.98612113
 30
0.0
 11
11.1422887225
 21
3.98612113
 31
0.0
 70
   160
  3
SLDDIMSTYLE2
 13
8.4717499139
 23
5.5382700419
 33
0.0
 14
8.9087499139
 24
5.5382700419
 34
0.0
  0
LINE
  5
210
  8
0
  6
CONTINUOUS
 62
     7
 10
26.612749734
 20
19.1400259152
 30
0.0
 11
26.6747497111
 21
19.1400259152
 31
0.0
  0
LINE
  5
211
  8
0
  6
CONTINUOUS
 62
     7
 10
26.612749734
 20
36.0150254271
 30
0.0
 11
26.612749734
 21
19.1400259152
 31
0.0
  0
LINE
  5
212
  8
0
  6
CONTINUOUS
 62
     7
 10
26.612749734
 20
36.0150254271
 30
0.0
 11
26.6747497111
 21
36.0150254271
 31
0.0
  0
LINE
  5
213
  8
0
  6
CONTINUOUS
 62
     7
 10
26.6747497111
 20
36.0150254271
 30
0.0
 11
26.6747497111
 21
19.1400259152
 31
0.0
  0
LINE
  5
214
  8
0
  6
CONTINUOUS
 62
     7
 10
9.1117500937
 20
36.0150254271
 30
0.0
 11
9.0497501166
 21
36.0150254271
 31
0.0
  0
LINE
  5
215
  8
0
  6
CONTINUOUS
 62
     7
 10
9.1117500937
 20
19.1400259152
 30
0.0
 11
9.0497501166
 21
19.1400259152
 31
0.0
  0
LINE
  5
216
  8
0
  6
CONTINUOUS
 62
     7
 10
9.1117500937
 20
19.1400259152
 30
0.0
 11
9.1117500937
 21
36.0150254271
 31
0.0
  0
LINE
  5
217
  8
0
  6
CONTINUOUS
 62
     7
 10
9.0497501166
 20
36.0150254271
 30
0.0
 11
9.0497501166
 21
19.1400259152
 31
0.0
  0
LINE
  5
218
  8
0
  6
CONTINUOUS
 62
     7
 10
9.1117500937
 20
16.2170258686
 30
0.0
 11
9.1117500937
 21
19.1400259152
 31
0.0
  0
LINE
  5
219
  8
0
  6
CONTINUOUS
 62
     7
 10
9.0497501166
 20
16.2170258686
 30
0.0
 11
9.0497501166
 21
19.1400259152
 31
0.0
  0
LINE
  5
21A
  8
0
  6
CONTINUOUS
 62
     7
 10
26.612749734
 20
16.2170258686
 30
0.0
 11
26.612749734
 21
19.1400259152
 31
0.0
  0
LINE
  5
21B
  8
0
  6
CONTINUOUS
 62
     7
 10
26.6747497111
 20
16.2170258686
 30
0.0
 11
26.6747497111
 21
19.1400259152
 31
0.0
  0
LINE
  5
21C
  8
0
  6
CONTINUOUS
 62
     7
 10
8.3622498453
 20
16.2020261486
 30
0.0
 11
9.0347498099
 21
16.2020261486
 31
0.0
  0
LINE
  5
21D
  8
0
  6
CONTINUOUS
 62
     7
 10
9.0347498099
 20
16.1400255848
 30
0.0
 11
8.3622498453
 21
16.1400255848
 31
0.0
  0
LINE
  5
21E
  8
0
  6
CONTINUOUS
 62
     7
 10
8.3622498453
 20
16.2020261486
 30
0.0
 11
8.3622498453
 21
16.1400255848
 31
0.0
  0
ARC
  5
21F
  8
0
  6
CONTINUOUS
 62
     7
 10
26.6897499139
 20
16.2170259039
 30
0.0
 40
0.0769999999999982
 50
180.0
 51
270.0
  0
ARC
  5
220
  8
0
  6
CONTINUOUS
 62
     7
 10
26.6897499139
 20
16.2170259039
 30
0.0
 40
0.0150000000000006
 50
180.0
 51
270.0
  0
ARC
  5
221
  8
0
  6
CONTINUOUS
 62
     7
 10
9.0347499139
 20
16.2170259039
 30
0.0
 40
0.0150000000000006
 50
270.0
 51
0.0
  0
ARC
  5
222
  8
0
  6
CONTINUOUS
 62
     7
 10
9.0347499139
 20
16.2170259039
 30
0.0
 40
0.077
 50
270.0
 51
0.0
  0
LINE
  5
223
  8
0
  6
CONTINUOUS
 62
     7
 10
27.3622499824
 20
16.2020261486
 30
0.0
 11
26.6897500178
 21
16.2020261486
 31
0.0
  0
LINE
  5
224
  8
0
  6
CONTINUOUS
 62
     7
 10
27.3622499824
 20
16.1400255848
 30
0.0
 11
26.6897500178
 21
16.1400255848
 31
0.0
  0
LINE
  5
225
  8
0
  6
CONTINUOUS
 62
     7
 10
27.3622499824
 20
16.2020261486
 30
0.0
 11
27.3622499824
 21
16.1400255848
 31
0.0
  0
LINE
  5
226
  8
0
  6
CONTINUOUS
 62
     7
 10
26.612749734
 20
36.1400262231
 30
0.0
 11
26.6747497111
 21
36.1400262231
 31
0.0
  0
LINE
  5
227
  8
0
  6
CONTINUOUS
 62
     7
 10
26.612749734
 20
36.1400262231
 30
0.0
 11
26.612749734
 21
36.0150254271
 31
0.0
  0
LINE
  5
228
  8
0
  6
CONTINUOUS
 62
     7
 10
26.6747497111
 20
36.1400262231
 30
0.0
 11
26.6747497111
 21
36.0150254271
 31
0.0
  0
LINE
  5
229
  8
0
  6
CONTINUOUS
 62
     7
 10
9.1117500937
 20
36.1400262231
 30
0.0
 11
9.0497501166
 21
36.1400262231
 31
0.0
  0
LINE
  5
22A
  8
0
  6
CONTINUOUS
 62
     7
 10
9.1117500937
 20
36.0150254271
 30
0.0
 11
9.1117500937
 21
36.1400262231
 31
0.0
  0
LINE
  5
22B
  8
0
  6
CONTINUOUS
 62
     7
 10
9.0497501166
 20
36.1400262231
 30
0.0
 11
9.0497501166
 21
36.0150254271
 31
0.0
  0
LINE
  5
22C
  8
0
  6
CONTINUOUS
 62
     7
 10
26.3617496469
 20
36.0780256593
 30
0.0
 11
26.3617496469
 21
36.1400262231
 31
0.0
  0
LINE
  5
22D
  8
0
  6
CONTINUOUS
 62
     7
 10
9.3617499257
 20
36.0780256593
 30
0.0
 11
26.3617496469
 21
36.0780256593
 31
0.0
  0
LINE
  5
22E
  8
0
  6
CONTINUOUS
 62
     7
 10
9.3617499257
 20
36.0780256593
 30
0.0
 11
9.3617499257
 21
36.1400262231
 31
0.0
  0
LINE
  5
22F
  8
0
  6
CONTINUOUS
 62
     7
 10
9.3617499257
 20
36.1400262231
 30
0.0
 11
26.3617496469
 21
36.1400262231
 31
0.0
  0
LINE
  5
230
  8
0
  6
CONTINUOUS
 62
     7
 10
9.3617499257
 20
36.0780256593
 30
0.0
 11
9.2367497164
 21
36.0780256593
 31
0.0
  0
LINE
  5
231
  8
0
  6
CONTINUOUS
 62
     7
 10
9.2367497164
 20
36.0780256593
 30
0.0
 11
9.2367497164
 21
36.1400262231
 31
0.0
  0
LINE
  5
232
  8
0
  6
CONTINUOUS
 62
     7
 10
9.2367497164
 20
36.1400262231
 30
0.0
 11
9.3617499257
 21
36.1400262231
 31
0.0
  0
LINE
  5
233
  8
0
  6
CONTINUOUS
 62
     7
 10
26.4867498562
 20
36.0780256593
 30
0.0
 11
26.4867498562
 21
36.1400262231
 31
0.0
  0
LINE
  5
234
  8
0
  6
CONTINUOUS
 62
     7
 10
26.4867498562
 20
36.0780256593
 30
0.0
 11
26.3617496469
 21
36.0780256593
 31
0.0
  0
LINE
  5
235
  8
0
  6
CONTINUOUS
 62
     7
 10
26.3617496469
 20
36.1400262231
 30
0.0
 11
26.4867498562
 21
36.1400262231
 31
0.0
  0
LINE
  5
236
  8
0
  6
CONTINUOUS
 62
     7
 10
26.3622500678
 20
16.2020261486
 30
0.0
 11
26.3622500678
 21
16.1400255848
 31
0.0
  0
LINE
  5
237
  8
0
  6
CONTINUOUS
 62
     7
 10
26.3622500678
 20
16.2020261486
 30
0.0
 11
26.4872496905
 21
16.2020261486
 31
0.0
  0
LINE
  5
238
  8
0
  6
CONTINUOUS
 62
     7
 10
26.4872496905
 20
16.2020261486
 30
0.0
 11
26.4872496905
 21
16.1400255848
 31
0.0
  0
LINE
  5
239
  8
0
  6
CONTINUOUS
 62
     7
 10
26.4872496905
 20
16.1400255848
 30
0.0
 11
26.3622500678
 21
16.1400255848
 31
0.0
  0
LINE
  5
23A
  8
0
  6
CONTINUOUS
 62
     7
 10
9.3622497599
 20
16.2020261486
 30
0.0
 11
9.3622497599
 21
16.1400255848
 31
0.0
  0
LINE
  5
23B
  8
0
  6
CONTINUOUS
 62
     7
 10
9.3622497599
 20
16.2020261486
 30
0.0
 11
26.3622500678
 21
16.2020261486
 31
0.0
  0
LINE
  5
23C
  8
0
  6
CONTINUOUS
 62
     7
 10
9.3622497599
 20
16.1400255848
 30
0.0
 11
26.3622500678
 21
16.1400255848
 31
0.0
  0
LINE
  5
23D
  8
0
  6
CONTINUOUS
 62
     7
 10
9.2372501373
 20
16.2020261486
 30
0.0
 11
9.2372501373
 21
16.1400255848
 31
0.0
  0
LINE
  5
23E
  8
0
  6
CONTINUOUS
 62
     7
 10
9.3622497599
 20
16.1400255848
 30
0.0
 11
9.2372501373
 21
16.1400255848
 31
0.0
  0
LINE
  5
23F
  8
0
  6
CONTINUOUS
 62
     7
 10
9.2372501373
 20
16.2020261486
 30
0.0
 11
9.3622497599
 21
16.2020261486
 31
0.0
  0
LINE
  5
240
  8
0
  6
CONTINUOUS
 62
     7
 10
26.4867498562
 20
36.0780256593
 30
0.0
 11
26.4867498562
 21
36.0630259393
 31
0.0
  0
LINE
  5
241
  8
0
  6
CONTINUOUS
 62
     7
 10
9.2367497164
 20
36.0630259393
 30
0.0
 11
9.2367497164
 21
36.0780256593
 31
0.0
  0
LINE
  5
242
  8
0
  6
CONTINUOUS
 62
     7
 10
9.1117500937
 20
16.2180255371
 30
0.0
 11
9.1267498138
 21
16.2180255371
 31
0.0
  0
LINE
  5
243
  8
0
  6
CONTINUOUS
 62
     7
 10
9.1117500937
 20
36.1400262231
 30
0.0
 11
9.1267498138
 21
36.1400262231
 31
0.0
  0
LINE
  5
244
  8
0
  6
CONTINUOUS
 62
     7
 10
26.597750014
 20
16.2180255371
 30
0.0
 11
26.612749734
 21
16.2180255371
 31
0.0
  0
LINE
  5
245
  8
0
  6
CONTINUOUS
 62
     7
 10
26.597750014
 20
36.1400262231
 30
0.0
 11
26.612749734
 21
36.1400262231
 31
0.0
  0
LINE
  5
246
  8
0
  6
CONTINUOUS
 62
     7
 10
9.2372501373
 20
16.2020261486
 30
0.0
 11
9.2372501373
 21
16.2170258686
 31
0.0
  0
LINE
  5
247
  8
0
  6
CONTINUOUS
 62
     7
 10
26.4872496905
 20
16.2170258686
 30
0.0
 11
26.4872496905
 21
16.2020261486
 31
0.0
  0
LINE
  5
248
  8
0
  6
CONTINUOUS
 62
     7
 10
9.2372501373
 20
16.2180255371
 30
0.0
 11
9.1267498138
 21
16.2180255371
 31
0.0
  0
LINE
  5
249
  8
0
  6
CONTINUOUS
 62
     7
 10
9.1267498138
 20
36.1400262231
 30
0.0
 11
9.2367497164
 21
36.1400262231
 31
0.0
  0
LINE
  5
24A
  8
0
  6
CONTINUOUS
 62
     7
 10
26.4867498562
 20
36.1400262231
 30
0.0
 11
26.597750014
 21
36.1400262231
 31
0.0
  0
LINE
  5
24B
  8
0
  6
CONTINUOUS
 62
     7
 10
26.597750014
 20
16.2180255371
 30
0.0
 11
26.4872496905
 21
16.2180255371
 31
0.0
  0
LINE
  5
24C
  8
0
  6
CONTINUOUS
 62
     7
 10
26.4872496905
 20
16.2180255371
 30
0.0
 11
26.4872496905
 21
16.2170258686
 31
0.0
  0
LINE
  5
24D
  8
0
  6
CONTINUOUS
 62
     7
 10
9.2372501373
 20
16.2180255371
 30
0.0
 11
9.2372501373
 21
16.2170258686
 31
0.0
  0
DIMENSION
  5
24E
  8
0
  6
CONTINUOUS
 62
     7
  2
*D13
 10
26.6747499139
 20
37.318640836
 30
0.0
 11
17.8622499139
 21
37.318640836
 31
0.0
 70
   160
  3
SLDDIMSTYLE0
 13
9.0497499139
 23
36.1400259039
 33
0.0
 14
26.6747499139
 24
36.1400259039
 34
0.0
  0
LINE
  5
262
  8
0
  6
CONTINUOUS
 62
     7
 10
38.1666261147
 20
5.3042700419
 30
0.0
 11
38.1046255509
 21
5.3042700419
 31
0.0
  0
LINE
  5
263
  8
0
  6
CONTINUOUS
 62
     7
 10
38.1046255509
 20
5.3042700419
 30
0.0
 11
38.1046255509
 21
10.5222700831
 31
0.0
  0
LINE
  5
264
  8
0
  6
CONTINUOUS
 62
     7
 10
38.1666261147
 20
10.5222700831
 30
0.0
 11
38.1046255509
 21
10.5222700831
 31
0.0
  0
LINE
  5
265
  8
0
  6
CONTINUOUS
 62
     7
 10
38.1666261147
 20
5.3042700419
 30
0.0
 11
38.1666261147
 21
10.5222700831
 31
0.0
  0
LINE
  5
266
  8
0
  6
CONTINUOUS
 62
     7
 10
38.1816258347
 20
10.5222700831
 30
0.0
 11
38.1666261147
 21
10.5222700831
 31
0.0
  0
LINE
  5
267
  8
0
  6
CONTINUOUS
 62
     7
 10
38.1666261147
 20
5.3042700419
 30
0.0
 11
38.1816258347
 21
5.3042700419
 31
0.0
  0
LINE
  5
268
  8
0
  6
CONTINUOUS
 62
     7
 10
57.9796253932
 20
7.327931771
 30
0.0
 11
41.1046258813
 21
10.5222700831
 31
0.0
  0
LINE
  5
269
  8
0
  6
CONTINUOUS
 62
     7
 10
58.1046261892
 20
7.202931855
 30
0.0
 11
57.9796253932
 21
7.327931771
 31
0.0
  0
LINE
  5
26A
  8
0
  6
CONTINUOUS
 62
     7
 10
58.1046261892
 20
5.3812700415
 30
0.0
 11
58.1046261892
 21
7.202931855
 31
0.0
  0
LINE
  5
26B
  8
0
  6
CONTINUOUS
 62
     7
 10
38.1826255032
 20
5.3042700419
 30
0.0
 11
38.1826255032
 21
5.3812700415
 31
0.0
  0
LINE
  5
26C
  8
0
  6
CONTINUOUS
 62
     7
 10
38.1826255032
 20
5.3042700419
 30
0.0
 11
38.1816258347
 21
5.3042700419
 31
0.0
  0
LINE
  5
26D
  8
0
  6
CONTINUOUS
 62
     7
 10
38.1816258347
 20
10.5222700831
 30
0.0
 11
41.1046258813
 21
10.5222700831
 31
0.0
  0
CIRCLE
  5
26E
  8
0
  6
CONTINUOUS
 62
     7
 10
57.6976258701
 20
7.0222700419
 30
0.0
 40
0.0939999999999941
  0
LINE
  5
26F
  8
0
  6
CONTINUOUS
 62
     7
 10
58.1046261892
 20
5.3042700419
 30
0.0
 11
58.1046261892
 21
5.3812700415
 31
0.0
  0
LINE
  5
270
  8
0
  6
CONTINUOUS
 62
     7
 10
38.1826255032
 20
5.3042700419
 30
0.0
 11
58.1046261892
 21
5.3042700419
 31
0.0
  0
DIMENSION
  5
271
  8
0
  6
CONTINUOUS
 62
     7
  2
*D14
 10
36.3741844864
 20
5.3042700419
 30
0.0
 11
36.3741844864
 21
7.9132700419
 31
0.0
 70
   160
  3
SLDDIMSTYLE0
 13
38.1046258701
 23
10.5222700419
 33
0.0
 14
38.1046258701
 24
5.3042700419
 34
0.0
 50
90.0
  0
DIMENSION
  5
285
  8
0
  6
CONTINUOUS
 62
     7
  2
*D15
 10
59.9039404785
 20
5.3042700419
 30
0.0
 11
59.9039404785
 21
6.1632700419
 31
0.0
 70
   160
  3
SLDDIMSTYLE2
 13
57.8916258701
 23
7.0222700419
 33
0.0
 14
58.1046258701
 24
5.3042700419
 34
0.0
 50
90.0
  0
DIMENSION
  5
299
  8
0
  6
CONTINUOUS
 62
     7
  2
*D16
 10
58.1046258701
 20
3.9955313174
 30
0.0
 11
55.2425854961
 21
3.9955313174
 31
0.0
 70
   160
  3
SLDDIMSTYLE2
 13
57.6976258701
 23
6.8282700419
 33
0.0
 14
58.1046258701
 24
5.3042700419
 34
0.0
 50
0.0
  0
DIMENSION
  5
2AD
  8
0
  6
CONTINUOUS
 62
     7
  2
*D17
 10
57.6677726942
 20
6.9331365022
 30
0.0
 11
60.7549036785
 21
9.2849986588
 31
0.0
 70
   163
  1
<> (2X)
  3
SLDDIMSTYLE3
 15
57.7274790459
 25
7.1114035815
 35
0.0
 40
0.0
  0
DIMENSION
  5
2BF
  8
0
  6
CONTINUOUS
 62
     7
  2
*D18
 10
58.1046258701
 20
2.4603704011
 30
0.0
 11
48.1046258701
 21
2.4603704011
 31
0.0
 70
   160
  3
SLDDIMSTYLE1
 13
38.1046258701
 23
5.3042700419
 33
0.0
 14
58.1046258701
 24
5.3042700419
 34
0.0
  0
INSERT
  5
2DE
  8
0
  6
CONTINUOUS
 62
     7
  2
SW_CENTERMARKSYMBOL_0
 10
57.6976258701
 20
7.0222700419
 30
0.0
  0
ENDSEC
  0
EOF
