  0
SECTION
  2
HEADER
  9
$ACADVER
  1
AC1015
  9
$ACADMAINTVER
 70
     6
  9
$DWGCODEPAGE
  3
ANSI_1252
  9
$INSBASE
 10
0.0
 20
0.0
 30
0.0
  9
$EXTMIN
 10
0.0
 20
-0.0000000000000053
 30
0.0
  9
$EXTMAX
 10
30.35999999999999
 20
46.5
 30
0.0
  9
$LIMMIN
 10
0.0
 20
0.0
  9
$LIMMAX
 10
30.174
 20
46.31399999999999
  9
$ORTHOMODE
 70
     1
  9
$REGENMODE
 70
     1
  9
$FILLMODE
 70
     1
  9
$QTEXTMODE
 70
     0
  9
$MIRRTEXT
 70
     0
  9
$LTSCALE
 40
1.0
  9
$ATTMODE
 70
     1
  9
$TEXTSIZE
 40
0.375
  9
$TRACEWID
 40
0.05
  9
$TEXTSTYLE
  7
TXT
  9
$CLAYER
  8
TEXT
  9
$CELTYPE
  6
ByLayer
  9
$CECOLOR
 62
   256
  9
$CELTSCALE
 40
1.0
  9
$DISPSILH
 70
     0
  9
$DIMSCALE
 40
3.0
  9
$DIMASZ
 40
0.18
  9
$DIMEXO
 40
0.063
  9
$DIMDLI
 40
0.281
  9
$DIMRND
 40
0.0
  9
$DIMDLE
 40
0.0
  9
$DIMEXE
 40
0.093
  9
$DIMTP
 40
0.0
  9
$DIMTM
 40
0.0
  9
$DIMTXT
 40
0.125
  9
$DIMCEN
 40
0.09
  9
$DIMTSZ
 40
0.0
  9
$DIMTOL
 70
     0
  9
$DIMLIM
 70
     0
  9
$DIMTIH
 70
     1
  9
$DIMTOH
 70
     1
  9
$DIMSE1
 70
     0
  9
$DIMSE2
 70
     0
  9
$DIMTAD
 70
     0
  9
$DIMZIN
 70
     0
  9
$DIMBLK
  1

  9
$DIMASO
 70
     1
  9
$DIMSHO
 70
     1
  9
$DIMPOST
  1

  9
$DIMAPOST
  1

  9
$DIMALT
 70
     1
  9
$DIMALTD
 70
     1
  9
$DIMALTF
 40
25.4
  9
$DIMLFAC
 40
1.0
  9
$DIMTOFL
 70
     0
  9
$DIMTVP
 40
0.0
  9
$DIMTIX
 70
     0
  9
$DIMSOXD
 70
     0
  9
$DIMSAH
 70
     0
  9
$DIMBLK1
  1

  9
$DIMBLK2
  1

  9
$DIMSTYLE
  2
23NSTD
  9
$DIMCLRD
 70
     0
  9
$DIMCLRE
 70
     0
  9
$DIMCLRT
 70
     0
  9
$DIMTFAC
 40
1.0
  9
$DIMGAP
 40
0.09
  9
$DIMJUST
 70
     0
  9
$DIMSD1
 70
     0
  9
$DIMSD2
 70
     0
  9
$DIMTOLJ
 70
     1
  9
$DIMTZIN
 70
     0
  9
$DIMALTZ
 70
     0
  9
$DIMALTTZ
 70
     0
  9
$DIMUPT
 70
     0
  9
$DIMDEC
 70
     2
  9
$DIMTDEC
 70
     2
  9
$DIMALTU
 70
     2
  9
$DIMALTTD
 70
     1
  9
$DIMTXSTY
  7
TXT
  9
$DIMAUNIT
 70
     0
  9
$DIMADEC
 70
     0
  9
$DIMALTRND
 40
0.0
  9
$DIMAZIN
 70
     0
  9
$DIMDSEP
 70
    46
  9
$DIMATFIT
 70
     1
  9
$DIMFRAC
 70
     0
  9
$DIMLDRBLK
  1

  9
$DIMLUNIT
 70
     2
  9
$DIMLWD
 70
    -2
  9
$DIMLWE
 70
    -2
  9
$DIMTMOVE
 70
     0
  9
$LUNITS
 70
     2
  9
$LUPREC
 70
     3
  9
$SKETCHINC
 40
0.1
  9
$FILLETRAD
 40
0.0
  9
$AUNITS
 70
     0
  9
$AUPREC
 70
     0
  9
$MENU
  1
acad
  9
$ELEVATION
 40
0.0
  9
$PELEVATION
 40
0.0
  9
$THICKNESS
 40
0.0
  9
$LIMCHECK
 70
     0
  9
$CHAMFERA
 40
0.0
  9
$CHAMFERB
 40
0.0
  9
$CHAMFERC
 40
0.0
  9
$CHAMFERD
 40
0.0
  9
$SKPOLY
 70
     0
  9
$TDCREATE
 40
2450298.402710648
  9
$TDUCREATE
 40
2450298.569377315
  9
$TDUPDATE
 40
2456500.355828623
  9
$TDUUPDATE
 40
2456500.522495289
  9
$TDINDWG
 40
0.0968351852
  9
$TDUSRTIMER
 40
0.0968351852
  9
$USRTIMER
 70
     1
  9
$ANGBASE
 50
0.0
  9
$ANGDIR
 70
     0
  9
$PDMODE
 70
     0
  9
$PDSIZE
 40
0.0
  9
$PLINEWID
 40
0.0
  9
$SPLFRAME
 70
     0
  9
$SPLINETYPE
 70
     6
  9
$SPLINESEGS
 70
     8
  9
$HANDSEED
  5
83C
  9
$SURFTAB1
 70
     6
  9
$SURFTAB2
 70
     6
  9
$SURFTYPE
 70
     6
  9
$SURFU
 70
     6
  9
$SURFV
 70
     6
  9
$UCSBASE
  2

  9
$UCSNAME
  2

  9
$UCSORG
 10
0.0
 20
0.0
 30
0.0
  9
$UCSXDIR
 10
1.0
 20
0.0
 30
0.0
  9
$UCSYDIR
 10
0.0
 20
1.0
 30
0.0
  9
$UCSORTHOREF
  2

  9
$UCSORTHOVIEW
 70
     0
  9
$UCSORGTOP
 10
0.0
 20
0.0
 30
0.0
  9
$UCSORGBOTTOM
 10
0.0
 20
0.0
 30
0.0
  9
$UCSORGLEFT
 10
0.0
 20
0.0
 30
0.0
  9
$UCSORGRIGHT
 10
0.0
 20
0.0
 30
0.0
  9
$UCSORGFRONT
 10
0.0
 20
0.0
 30
0.0
  9
$UCSORGBACK
 10
0.0
 20
0.0
 30
0.0
  9
$PUCSBASE
  2

  9
$PUCSNAME
  2

  9
$PUCSORG
 10
0.0
 20
0.0
 30
0.0
  9
$PUCSXDIR
 10
1.0
 20
0.0
 30
0.0
  9
$PUCSYDIR
 10
0.0
 20
1.0
 30
0.0
  9
$PUCSORTHOREF
  2

  9
$PUCSORTHOVIEW
 70
     0
  9
$PUCSORGTOP
 10
0.0
 20
0.0
 30
0.0
  9
$PUCSORGBOTTOM
 10
0.0
 20
0.0
 30
0.0
  9
$PUCSORGLEFT
 10
0.0
 20
0.0
 30
0.0
  9
$PUCSORGRIGHT
 10
0.0
 20
0.0
 30
0.0
  9
$PUCSORGFRONT
 10
0.0
 20
0.0
 30
0.0
  9
$PUCSORGBACK
 10
0.0
 20
0.0
 30
0.0
  9
$USERI1
 70
     0
  9
$USERI2
 70
     0
  9
$USERI3
 70
     0
  9
$USERI4
 70
     0
  9
$USERI5
 70
     0
  9
$USERR1
 40
0.0
  9
$USERR2
 40
0.0
  9
$USERR3
 40
0.0
  9
$USERR4
 40
0.0
  9
$USERR5
 40
0.0
  9
$WORLDVIEW
 70
     1
  9
$SHADEDGE
 70
     3
  9
$SHADEDIF
 70
    70
  9
$TILEMODE
 70
     1
  9
$MAXACTVP
 70
    16
  9
$PINSBASE
 10
0.0
 20
0.0
 30
0.0
  9
$PLIMCHECK
 70
     0
  9
$PEXTMIN
 10
1.000000000000000E+20
 20
1.000000000000000E+20
 30
1.000000000000000E+20
  9
$PEXTMAX
 10
-1.000000000000000E+20
 20
-1.000000000000000E+20
 30
-1.000000000000000E+20
  9
$PLIMMIN
 10
0.0
 20
0.0
  9
$PLIMMAX
 10
12.0
 20
9.0
  9
$UNITMODE
 70
     0
  9
$VISRETAIN
 70
     0
  9
$PLINEGEN
 70
     0
  9
$PSLTSCALE
 70
     1
  9
$TREEDEPTH
 70
  3020
  9
$CMLSTYLE
  2
Standard
  9
$CMLJUST
 70
     0
  9
$CMLSCALE
 40
1.0
  9
$PROXYGRAPHICS
 70
     1
  9
$MEASUREMENT
 70
     0
  9
$CELWEIGHT
370
    -1
  9
$ENDCAPS
280
     0
  9
$JOINSTYLE
280
     0
  9
$LWDISPLAY
290
     0
  9
$INSUNITS
 70
     0
  9
$HYPERLINKBASE
  1

  9
$STYLESHEET
  1
monochrome.ctb
  9
$XEDIT
290
     1
  9
$CEPSNTYPE
380
     0
  9
$PSTYLEMODE
290
     1
  9
$FINGERPRINTGUID
  2
{FA85ABA2-449E-446F-A87B-1F75A81D7B29}
  9
$VERSIONGUID
  2
{BD2FED30-2D50-4862-A9A0-4203AAE481A6}
  9
$EXTNAMES
290
     1
  9
$PSVPSCALE
 40
0.0
  9
$OLESTARTUP
290
     0
  0
ENDSEC
  0
SECTION
  2
CLASSES
  0
CLASS
  1
ACDBDICTIONARYWDFLT
  2
AcDbDictionaryWithDefault
  3
AutoCAD 2000
 90
        0
280
     0
281
     0
  0
CLASS
  1
ACDBPLACEHOLDER
  2
AcDbPlaceHolder
  3
AutoCAD 2000
 90
        0
280
     0
281
     0
  0
CLASS
  1
LAYOUT
  2
AcDbLayout
  3
AutoCAD 2000
 90
        0
280
     0
281
     0
  0
ENDSEC
  0
SECTION
  2
TABLES
  0
TABLE
  2
VPORT
  5
8
330
0
100
AcDbSymbolTable
 70
     2
  0
VPORT
  5
83B
330
8
100
AcDbSymbolTableRecord
100
AcDbViewportTableRecord
  2
*Active
 70
     0
 10
0.0
 20
0.0
 11
1.0
 21
1.0
 12
15.18000007068737
 22
23.25000010826625
 13
0.0
 23
0.0
 14
1.0
 24
1.0
 15
0.0
 25
0.0
 16
0.0
 26
0.0
 36
1.0
 17
0.0
 27
0.0
 37
0.0
 40
46.97098751196461
 41
1.836974789915966
 42
50.0
 43
0.0
 44
0.0
 50
0.0
 51
0.0
 71
     0
 72
   500
 73
     1
 74
     0
 75
     0
 76
     0
 77
     0
 78
     0
281
     0
 65
     1
110
0.0
120
0.0
130
0.0
111
1.0
121
0.0
131
0.0
112
0.0
122
1.0
132
0.0
 79
     0
146
0.0
  0
ENDTAB
  0
TABLE
  2
LTYPE
  5
5
330
0
100
AcDbSymbolTable
 70
     6
  0
LTYPE
  5
13
330
5
100
AcDbSymbolTableRecord
100
AcDbLinetypeTableRecord
  2
ByBlock
 70
     0
  3

 72
    65
 73
     0
 40
0.0
  0
LTYPE
  5
14
330
5
100
AcDbSymbolTableRecord
100
AcDbLinetypeTableRecord
  2
ByLayer
 70
     0
  3

 72
    65
 73
     0
 40
0.0
  0
LTYPE
  5
15
330
5
100
AcDbSymbolTableRecord
100
AcDbLinetypeTableRecord
  2
CONTINUOUS
 70
     0
  3
Solid line
 72
    65
 73
     0
 40
0.0
  0
LTYPE
  5
25
330
5
100
AcDbSymbolTableRecord
100
AcDbLinetypeTableRecord
  2
HIDDEN
 70
     0
  3
_ _ _ _ _ _ _ _ _ _ _ _ _ _ _ _ _ _ _ _ _ _ _
 72
    65
 73
     2
 40
0.375
 49
0.25
 74
     0
 49
-0.125
 74
     0
  0
LTYPE
  5
26
330
5
100
AcDbSymbolTableRecord
100
AcDbLinetypeTableRecord
  2
PHANTOM
 70
     0
  3
_____ _ _ _____ _ _ _____ _ _ _____ _ _ ____
 72
    65
 73
     6
 40
2.5
 49
1.25
 74
     0
 49
-0.25
 74
     0
 49
0.25
 74
     0
 49
-0.25
 74
     0
 49
0.25
 74
     0
 49
-0.25
 74
     0
  0
LTYPE
  5
27
330
5
100
AcDbSymbolTableRecord
100
AcDbLinetypeTableRecord
  2
CENTER
 70
     0
  3
____ _ ____ _ ____ _ ____ _ ____ _ ____ _ ____
 72
    65
 73
     4
 40
2.0
 49
1.25
 74
     0
 49
-0.25
 74
     0
 49
0.25
 74
     0
 49
-0.25
 74
     0
  0
LTYPE
  5
38D
330
5
100
AcDbSymbolTableRecord
100
AcDbLinetypeTableRecord
  2
HIDDEN2
 70
     0
  3
_ _ _ _ _ _ _ _ _ _ _ _ _ _ _ _ _ _ _ _ _ _ _ _
 72
    65
 73
     2
 40
0.1875
 49
0.125
 74
     0
 49
-0.0625
 74
     0
  0
LTYPE
  5
38E
330
5
100
AcDbSymbolTableRecord
100
AcDbLinetypeTableRecord
  2
PHANTOM2
 70
     0
  3
___ _ _ ___ _ _ ___ _ _ ___ _ _ ___ _ _ ___ _ _
 72
    65
 73
     6
 40
1.25
 49
0.625
 74
     0
 49
-0.125
 74
     0
 49
0.125
 74
     0
 49
-0.125
 74
     0
 49
0.125
 74
     0
 49
-0.125
 74
     0
  0
ENDTAB
  0
TABLE
  2
LAYER
  5
2
330
0
100
AcDbSymbolTable
 70
     9
  0
LAYER
  5
10
330
2
100
AcDbSymbolTableRecord
100
AcDbLayerTableRecord
  2
0
 70
     0
 62
     7
  6
CONTINUOUS
370
    -3
390
F
  0
LAYER
  5
22
330
2
100
AcDbSymbolTableRecord
100
AcDbLayerTableRecord
  2
TEXT
 70
     0
 62
     7
  6
CONTINUOUS
370
    -3
390
F
  0
LAYER
  5
28
330
2
100
AcDbSymbolTableRecord
100
AcDbLayerTableRecord
  2
OBJECT
 70
     0
 62
     7
  6
CONTINUOUS
370
    -3
390
F
  0
LAYER
  5
29
330
2
100
AcDbSymbolTableRecord
100
AcDbLayerTableRecord
  2
DIM
 70
     0
 62
     7
  6
CONTINUOUS
370
    -3
390
F
  0
LAYER
  5
2A
330
2
100
AcDbSymbolTableRecord
100
AcDbLayerTableRecord
  2
HIDDEN
 70
     0
 62
     7
  6
HIDDEN
370
    -3
390
F
  0
LAYER
  5
2B
330
2
100
AcDbSymbolTableRecord
100
AcDbLayerTableRecord
  2
BEND
 70
     0
 62
     7
  6
PHANTOM
370
    -3
390
F
  0
LAYER
  5
2C
330
2
100
AcDbSymbolTableRecord
100
AcDbLayerTableRecord
  2
TITLE
 70
     0
 62
     7
  6
CONTINUOUS
370
    -3
390
F
  0
LAYER
  5
2D
330
2
100
AcDbSymbolTableRecord
100
AcDbLayerTableRecord
  2
CENTER
 70
     0
 62
     7
  6
CENTER
370
    -3
390
F
  0
LAYER
  5
2E
330
2
100
AcDbSymbolTableRecord
100
AcDbLayerTableRecord
  2
DEFPOINTS
 70
     0
 62
     7
  6
CONTINUOUS
290
     0
370
    -3
390
F
  0
ENDTAB
  0
TABLE
  2
STYLE
  5
3
330
0
100
AcDbSymbolTable
 70
     2
  0
STYLE
  5
11
330
3
100
AcDbSymbolTableRecord
100
AcDbTextStyleTableRecord
  2
STANDARD
 70
     0
 40
0.0
 41
1.0
 50
0.0
 71
     0
 42
0.2
  3
txt
  4

  0
STYLE
  5
23
330
3
100
AcDbSymbolTableRecord
100
AcDbTextStyleTableRecord
  2
TXT
 70
     0
 40
0.0
 41
0.75
 50
0.0
 71
     0
 42
0.375
  3
TXT.shx
  4

  0
ENDTAB
  0
TABLE
  2
VIEW
  5
6
330
0
100
AcDbSymbolTable
 70
     0
  0
ENDTAB
  0
TABLE
  2
UCS
  5
7
330
0
100
AcDbSymbolTable
 70
     0
  0
ENDTAB
  0
TABLE
  2
APPID
  5
9
330
0
100
AcDbSymbolTable
 70
     1
  0
APPID
  5
12
330
9
100
AcDbSymbolTableRecord
100
AcDbRegAppTableRecord
  2
ACAD
 70
     0
  0
ENDTAB
  0
TABLE
  2
DIMSTYLE
  5
A
330
0
100
AcDbSymbolTable
 70
     4
100
AcDbDimStyleTable
 71
     4
340
2F
340
31
340
32
340
30
  0
DIMSTYLE
105
2F
102
{ACAD_REACTORS
330
1EA
330
20D
330
248
330
28F
330
29D
330
237
330
1DC
330
357
102
}
330
A
100
AcDbSymbolTableRecord
100
AcDbDimStyleTableRecord
  2
23NSTD
 70
     0
 40
3.0
 42
0.063
 43
0.281
 44
0.093
140
0.125
170
     1
171
     1
271
     2
272
     2
274
     1
289
     1
340
23
  0
DIMSTYLE
105
30
102
{ACAD_REACTORS
330
1F8
330
21B
330
229
330
257
330
265
330
273
330
281
102
}
330
A
100
AcDbSymbolTableRecord
100
AcDbDimStyleTableRecord
  2
23NSTDI
 70
     0
 40
3.0
 42
0.063
 43
0.281
 44
0.093
140
0.125
170
     1
171
     1
174
     1
271
     2
272
     2
274
     1
340
23
  0
DIMSTYLE
105
31
102
{ACAD_REACTORS
330
1A4
330
1B2
102
}
330
A
100
AcDbSymbolTableRecord
100
AcDbDimStyleTableRecord
  2
23NSTD4
 70
     0
 40
3.0
 42
0.063
 43
0.281
 44
0.093
140
0.125
144
0.25
170
     1
171
     1
271
     2
272
     2
274
     1
289
     1
340
23
  0
DIMSTYLE
105
32
102
{ACAD_REACTORS
330
1C0
102
}
330
A
100
AcDbSymbolTableRecord
100
AcDbDimStyleTableRecord
  2
23NSTD4I
 70
     0
 40
3.0
 42
0.063
 43
0.281
 44
0.093
140
0.125
144
0.25
170
     1
171
     1
174
     1
271
     2
272
     2
274
     1
340
23
  0
ENDTAB
  0
TABLE
  2
BLOCK_RECORD
  5
1
330
0
100
AcDbSymbolTable
 70
    19
  0
BLOCK_RECORD
  5
1E
330
1
100
AcDbSymbolTableRecord
100
AcDbBlockTableRecord
  2
*Model_Space
340
21
  0
BLOCK_RECORD
  5
1A
330
1
100
AcDbSymbolTableRecord
100
AcDbBlockTableRecord
  2
*Paper_Space
340
1D
  0
BLOCK_RECORD
  5
34
330
1
100
AcDbSymbolTableRecord
100
AcDbBlockTableRecord
  2
HB
340
0
102
{BLKREFS
331
1A1
331
835
102
}
  0
BLOCK_RECORD
  5
1A5
330
1
100
AcDbSymbolTableRecord
100
AcDbBlockTableRecord
  2
*D1
340
0
  0
BLOCK_RECORD
  5
1B3
330
1
100
AcDbSymbolTableRecord
100
AcDbBlockTableRecord
  2
*D2
340
0
  0
BLOCK_RECORD
  5
1C1
330
1
100
AcDbSymbolTableRecord
100
AcDbBlockTableRecord
  2
*D3
340
0
  0
BLOCK_RECORD
  5
1DD
330
1
100
AcDbSymbolTableRecord
100
AcDbBlockTableRecord
  2
*D4
340
0
  0
BLOCK_RECORD
  5
1EB
330
1
100
AcDbSymbolTableRecord
100
AcDbBlockTableRecord
  2
*D5
340
0
  0
BLOCK_RECORD
  5
1F9
330
1
100
AcDbSymbolTableRecord
100
AcDbBlockTableRecord
  2
*D6
340
0
  0
BLOCK_RECORD
  5
20E
330
1
100
AcDbSymbolTableRecord
100
AcDbBlockTableRecord
  2
*D7
340
0
  0
BLOCK_RECORD
  5
21C
330
1
100
AcDbSymbolTableRecord
100
AcDbBlockTableRecord
  2
*D8
340
0
  0
BLOCK_RECORD
  5
22A
330
1
100
AcDbSymbolTableRecord
100
AcDbBlockTableRecord
  2
*D9
340
0
  0
BLOCK_RECORD
  5
238
330
1
100
AcDbSymbolTableRecord
100
AcDbBlockTableRecord
  2
*D10
340
0
  0
BLOCK_RECORD
  5
249
330
1
100
AcDbSymbolTableRecord
100
AcDbBlockTableRecord
  2
*D11
340
0
  0
BLOCK_RECORD
  5
258
330
1
100
AcDbSymbolTableRecord
100
AcDbBlockTableRecord
  2
*D12
340
0
  0
BLOCK_RECORD
  5
266
330
1
100
AcDbSymbolTableRecord
100
AcDbBlockTableRecord
  2
*D13
340
0
  0
BLOCK_RECORD
  5
274
330
1
100
AcDbSymbolTableRecord
100
AcDbBlockTableRecord
  2
*D14
340
0
  0
BLOCK_RECORD
  5
282
330
1
100
AcDbSymbolTableRecord
100
AcDbBlockTableRecord
  2
*D15
340
0
  0
BLOCK_RECORD
  5
290
330
1
100
AcDbSymbolTableRecord
100
AcDbBlockTableRecord
  2
*D16
340
0
  0
BLOCK_RECORD
  5
29E
330
1
100
AcDbSymbolTableRecord
100
AcDbBlockTableRecord
  2
*D17
340
0
  0
BLOCK_RECORD
  5
358
330
1
100
AcDbSymbolTableRecord
100
AcDbBlockTableRecord
  2
*D18
340
0
  0
ENDTAB
  0
ENDSEC
  0
SECTION
  2
BLOCKS
  0
BLOCK
  5
1F
330
1E
100
AcDbEntity
  8
0
100
AcDbBlockBegin
  2
*Model_Space
 70
     0
 10
0.0
 20
0.0
 30
0.0
  3
*Model_Space
  1

  0
ENDBLK
  5
20
330
1E
100
AcDbEntity
  8
0
100
AcDbBlockEnd
  0
BLOCK
  5
1B
330
1A
100
AcDbEntity
 67
     1
  8
0
100
AcDbBlockBegin
  2
*Paper_Space
 70
     0
 10
0.0
 20
0.0
 30
0.0
  3
*Paper_Space
  1

  0
ENDBLK
  5
1C
330
1A
100
AcDbEntity
 67
     1
  8
0
100
AcDbBlockEnd
  0
BLOCK
  5
35
330
34
100
AcDbEntity
  8
0
100
AcDbBlockBegin
  2
HB
 70
     0
 10
0.0
 20
0.0
 30
0.0
  3
HB
  1

  0
LINE
  5
800
330
34
100
AcDbEntity
  8
TITLE
100
AcDbLine
 10
0.0
 20
15.5
 30
0.0
 11
10.11999999999999
 21
15.49999999999999
 31
0.0
  0
LINE
  5
801
330
34
100
AcDbEntity
  8
TITLE
100
AcDbLine
 10
10.11999999999999
 20
-0.0000000000000018
 30
0.0
 11
0.0
 21
0.0
 31
0.0
  0
LINE
  5
802
330
34
100
AcDbEntity
  8
TITLE
100
AcDbLine
 10
0.0620000000000012
 20
15.438
 30
0.0
 11
10.058
 21
15.438
 31
0.0
  0
LINE
  5
803
330
34
100
AcDbEntity
  8
TITLE
100
AcDbLine
 10
10.058
 20
0.0619999999999994
 30
0.0
 11
0.0619999999999976
 21
0.0620000000000012
 31
0.0
  0
LINE
  5
804
330
34
100
AcDbEntity
  8
TITLE
100
AcDbLine
 10
0.0620000000000012
 20
15.01999999999999
 30
0.0
 11
10.058
 21
15.01999999999999
 31
0.0
  0
LINE
  5
805
330
34
100
AcDbEntity
  8
TITLE
100
AcDbLine
 10
0.0
 20
0.0
 30
0.0
 11
0.0
 21
15.5
 31
0.0
  0
LINE
  5
806
330
34
100
AcDbEntity
  8
TITLE
100
AcDbLine
 10
0.0619999999999976
 20
0.0620000000000012
 30
0.0
 11
0.0620000000000012
 21
15.438
 31
0.0
  0
LINE
  5
807
330
34
100
AcDbEntity
  8
TITLE
100
AcDbLine
 10
0.6396020312089732
 20
15.01999999999999
 30
0.0
 11
0.6396020312089697
 21
15.438
 31
0.0
  0
LINE
  5
808
330
34
100
AcDbEntity
  8
TITLE
100
AcDbLine
 10
10.11999999999999
 20
15.49999999999999
 30
0.0
 11
10.11999999999999
 21
-0.0000000000000018
 31
0.0
  0
LINE
  5
809
330
34
100
AcDbEntity
  8
TITLE
100
AcDbLine
 10
10.058
 20
15.438
 30
0.0
 11
10.058
 21
0.0619999999999994
 31
0.0
  0
TEXT
  5
80A
330
34
100
AcDbEntity
  8
TEXT
100
AcDbText
 10
4.570393157811527
 20
15.26841252897341
 30
0.0
 40
0.125
  1
PART
  7
TXT
 72
     1
 11
4.799559824478194
 21
15.26841252897341
 31
0.0
100
AcDbText
  0
LINE
  5
80B
330
34
100
AcDbEntity
  8
TITLE
100
AcDbLine
 10
4.464500000000001
 20
15.438
 30
0.0
 11
4.464500000000001
 21
15.01999999999999
 31
0.0
  0
LINE
  5
80C
330
34
100
AcDbEntity
  8
TITLE
100
AcDbLine
 10
4.526499999999998
 20
15.438
 30
0.0
 11
4.526499999999998
 21
15.01999999999999
 31
0.0
  0
TEXT
  5
80D
330
34
100
AcDbEntity
  8
TEXT
100
AcDbText
 10
4.674559824478194
 20
15.06007919564008
 30
0.0
 40
0.125
  1
No.
  7
TXT
 72
     1
 11
4.799559824478194
 21
15.06007919564008
 31
0.0
100
AcDbText
  0
LINE
  5
80E
330
34
100
AcDbEntity
  8
TITLE
100
AcDbLine
 10
8.414128646203558
 20
15.438
 30
0.0
 11
8.414128646203558
 21
15.02
 31
0.0
  0
LINE
  5
80F
330
34
100
AcDbEntity
  8
TITLE
100
AcDbLine
 10
8.352128646203546
 20
15.438
 30
0.0
 11
8.352128646203546
 21
15.02
 31
0.0
  0
TEXT
  5
810
330
34
100
AcDbEntity
  8
TEXT
100
AcDbText
 10
8.456471011235349
 20
15.06007919564008
 30
0.0
 40
0.125
  1
DATE
  7
TXT
 72
     1
 11
8.685637677902015
 21
15.06007919564008
 31
0.0
100
AcDbText
  0
TEXT
  5
811
330
34
100
AcDbEntity
  8
TEXT
100
AcDbText
 10
8.477304344568681
 20
15.26841252897341
 30
0.0
 40
0.125
  1
REV.
  7
TXT
 72
     1
 11
8.685637677902015
 21
15.26841252897341
 31
0.0
100
AcDbText
  0
TEXT
  5
812
330
34
100
AcDbEntity
  8
TEXT
100
AcDbText
 10
0.6833401984899558
 20
15.06007919564008
 30
0.0
 40
0.125
  1
NAME
  7
TXT
 72
     1
 11
0.9125068651566223
 21
15.06007919564008
 31
0.0
100
AcDbText
  0
TEXT
  5
813
330
34
100
AcDbEntity
  8
TEXT
100
AcDbText
 10
0.6833401984899558
 20
15.26841252897341
 30
0.0
 40
0.125
  1
PART
  7
TXT
 72
     1
 11
0.9125068651566223
 21
15.26841252897341
 31
0.0
100
AcDbText
  0
LINE
  5
814
330
34
100
AcDbEntity
  8
TITLE
100
AcDbLine
 10
1.183310283038842
 20
15.01999999999999
 30
0.0
 11
1.183310283038839
 21
15.438
 31
0.0
  0
LINE
  5
815
330
34
100
AcDbEntity
  8
TITLE
100
AcDbLine
 10
5.070499999999999
 20
15.438
 30
0.0
 11
5.070499999999999
 21
15.01999999999999
 31
0.0
  0
LINE
  5
816
330
34
100
AcDbEntity
  8
TITLE
100
AcDbLine
 10
8.958128646203554
 20
15.438
 30
0.0
 11
8.958128646203554
 21
15.02
 31
0.0
  0
LINE
  5
817
330
34
100
AcDbEntity
  8
TITLE
100
AcDbLine
 10
0.1058316404171364
 20
15.09138808647464
 30
0.0
 11
0.1058316404171364
 21
15.35692284057391
 31
0.0
  0
ARC
  5
818
330
34
100
AcDbEntity
  8
TITLE
100
AcDbCircle
 10
0.1913503079702643
 20
15.29385833647534
 30
0.0
 40
0.063064504098577
100
AcDbArc
 50
270.0
 51
90.0
  0
LINE
  5
819
330
34
100
AcDbEntity
  8
TITLE
100
AcDbLine
 10
0.2907368675590263
 20
15.10798400860585
 30
0.0
 11
0.2907368675590263
 21
15.35692284057391
 31
0.0
  0
LINE
  5
81A
330
34
100
AcDbEntity
  8
TITLE
100
AcDbLine
 10
0.3623876430765094
 20
15.13471192359016
 30
0.0
 11
0.3623876430765094
 21
15.35692284057391
 31
0.0
  0
LINE
  5
81B
330
34
100
AcDbEntity
  8
TITLE
100
AcDbLine
 10
0.3392744896837776
 20
15.13471192359016
 30
0.0
 11
0.3392744896837776
 21
15.35692284057391
 31
0.0
  0
LINE
  5
81C
330
34
100
AcDbEntity
  8
TITLE
100
AcDbLine
 10
0.4652358447541367
 20
15.09138808647464
 30
0.0
 11
0.4652358447541367
 21
15.35692284057391
 31
0.0
  0
ARC
  5
81D
330
34
100
AcDbEntity
  8
TITLE
100
AcDbCircle
 10
0.4982653668098039
 20
15.26398567663917
 30
0.0
 40
0.0929371639347451
100
AcDbArc
 50
0.0
 51
90.0
  0
LINE
  5
81E
330
34
100
AcDbEntity
  8
TITLE
100
AcDbLine
 10
0.4109252652012572
 20
15.10798400860585
 30
0.0
 11
0.4109252652012572
 21
15.35692284057391
 31
0.0
  0
LINE
  5
81F
330
34
100
AcDbEntity
  8
TITLE
100
AcDbLine
 10
0.3073327896902356
 20
15.09138808647464
 30
0.0
 11
0.3943293430700585
 21
15.09138808647464
 31
0.0
  0
LINE
  5
820
330
34
100
AcDbEntity
  8
TITLE
100
AcDbLine
 10
0.1058316404171364
 20
15.09138808647464
 30
0.0
 11
0.1913503079702643
 21
15.09138808647464
 31
0.0
  0
LINE
  5
821
330
34
100
AcDbEntity
  8
TITLE
100
AcDbLine
 10
0.1913503079702643
 20
15.2175170946718
 30
0.0
 11
0.1185438747831391
 21
15.2175170946718
 31
0.0
  0
LINE
  5
822
330
34
100
AcDbEntity
  8
TITLE
100
AcDbLine
 10
0.1913503079702643
 20
15.23079383237676
 30
0.0
 11
0.1185438747831391
 21
15.23079383237676
 31
0.0
  0
LINE
  5
823
330
34
100
AcDbEntity
  8
TITLE
100
AcDbLine
 10
0.1185438747831391
 20
15.23079383237676
 30
0.0
 11
0.1185438747831391
 21
15.22415546352428
 31
0.0
  0
LINE
  5
824
330
34
100
AcDbEntity
  8
TITLE
100
AcDbLine
 10
0.1185438747831391
 20
15.2175170946718
 30
0.0
 11
0.1185438747831391
 21
15.22415546352428
 31
0.0
  0
ARC
  5
825
330
34
100
AcDbEntity
  8
TITLE
100
AcDbCircle
 10
0.1913503079702643
 20
15.15445259057322
 30
0.0
 40
0.063064504098577
100
AcDbArc
 50
270.0
 51
90.0
  0
ARC
  5
826
330
34
100
AcDbEntity
  8
TITLE
100
AcDbCircle
 10
0.3073327896902356
 20
15.10798400860585
 30
0.0
 40
0.0165959221312045
100
AcDbArc
 50
180.0
 51
270.0
  0
ARC
  5
827
330
34
100
AcDbEntity
  8
TITLE
100
AcDbCircle
 10
0.3491109053715498
 20
15.13471192359016
 30
0.0
 40
0.0132767377049636
100
AcDbArc
 50
277.4442840977136
 51
0.0
  0
ARC
  5
828
330
34
100
AcDbEntity
  8
TITLE
100
AcDbCircle
 10
0.3525512273887479
 20
15.13471192359016
 30
0.0
 40
0.0132767377049636
100
AcDbArc
 50
180.0
 51
262.5557159022863
  0
ARC
  5
829
330
34
100
AcDbEntity
  8
TITLE
100
AcDbCircle
 10
0.4982653668098039
 20
15.18432525040939
 30
0.0
 40
0.0929371639347451
100
AcDbArc
 50
270.0
 51
0.0
  0
ARC
  5
82A
330
34
100
AcDbEntity
  8
TITLE
100
AcDbCircle
 10
0.3943293430700585
 20
15.10798400860585
 30
0.0
 40
0.0165959221312045
100
AcDbArc
 50
270.0
 51
0.0
  0
LINE
  5
82B
330
34
100
AcDbEntity
  8
TITLE
100
AcDbLine
 10
0.4652358447541367
 20
15.09138808647464
 30
0.0
 11
0.4982653668098039
 21
15.09138808647464
 31
0.0
  0
LINE
  5
82C
330
34
100
AcDbEntity
  8
TITLE
100
AcDbLine
 10
0.5912025307445532
 20
15.18432525040939
 30
0.0
 11
0.5912025307445532
 21
15.26398567663917
 31
0.0
  0
LINE
  5
82D
330
34
100
AcDbEntity
  8
TITLE
100
AcDbLine
 10
0.5423641529412322
 20
15.2175170946718
 30
0.0
 11
0.5423641529412322
 21
15.23079383237676
 31
0.0
  0
LINE
  5
82E
330
34
100
AcDbEntity
  8
TITLE
100
AcDbLine
 10
0.5010665634329392
 20
15.2175170946718
 30
0.0
 11
0.5010665634329392
 21
15.23079383237676
 31
0.0
  0
LINE
  5
82F
330
34
100
AcDbEntity
  8
TITLE
100
AcDbLine
 10
0.5423641529412322
 20
15.2175170946718
 30
0.0
 11
0.5010665634329392
 21
15.2175170946718
 31
0.0
  0
LINE
  5
830
330
34
100
AcDbEntity
  8
TITLE
100
AcDbLine
 10
0.5423641529412322
 20
15.23079383237676
 30
0.0
 11
0.5010665634329392
 21
15.23079383237676
 31
0.0
  0
LINE
  5
831
330
34
100
AcDbEntity
  8
TITLE
100
AcDbLine
 10
0.3623876430765094
 20
15.35692284057391
 30
0.0
 11
0.4109252652012572
 21
15.35692284057391
 31
0.0
  0
LINE
  5
832
330
34
100
AcDbEntity
  8
TITLE
100
AcDbLine
 10
0.1058316404171364
 20
15.35692284057391
 30
0.0
 11
0.1913503079702643
 21
15.35692284057391
 31
0.0
  0
LINE
  5
833
330
34
100
AcDbEntity
  8
TITLE
100
AcDbLine
 10
0.2907368675590263
 20
15.35692284057391
 30
0.0
 11
0.3392744896837776
 21
15.35692284057391
 31
0.0
  0
LINE
  5
834
330
34
100
AcDbEntity
  8
TITLE
100
AcDbLine
 10
0.4652358447541367
 20
15.35692284057391
 30
0.0
 11
0.4982653668098039
 21
15.35692284057391
 31
0.0
  0
ENDBLK
  5
47
330
34
100
AcDbEntity
  8
0
100
AcDbBlockEnd
  0
BLOCK
  5
1B0
330
1A5
100
AcDbEntity
  8
0
100
AcDbBlockBegin
  2
*D1
 70
     1
 10
0.0
 20
0.0
 30
0.0
  3
*D1
  1

  0
LINE
  5
7B3
330
1A5
100
AcDbEntity
  8
DIM
 62
     0
370
    -2
100
AcDbLine
 10
17.040765
 20
14.38596378763365
 30
0.0
 11
17.040765
 21
16.24099678763365
 31
0.0
  0
LINE
  5
7B4
330
1A5
100
AcDbEntity
  8
DIM
 62
     0
370
    -2
100
AcDbLine
 10
19.19676499999999
 20
13.44996378763365
 30
0.0
 11
19.19676499999999
 21
16.24099678763365
 31
0.0
  0
LINE
  5
7B5
330
1A5
100
AcDbEntity
  8
DIM
 62
     0
370
    -2
100
AcDbLine
 10
16.500765
 20
15.96199678763365
 30
0.0
 11
15.960765
 21
15.96199678763365
 31
0.0
  0
LINE
  5
7B6
330
1A5
100
AcDbEntity
  8
DIM
 62
     0
370
    -2
100
AcDbLine
 10
19.73676499999999
 20
15.96199678763365
 30
0.0
 11
20.276765
 21
15.96199678763365
 31
0.0
  0
SOLID
  5
7B7
330
1A5
100
AcDbEntity
  8
DIM
 62
     0
100
AcDbTrace
 10
16.500765
 20
16.05199678763365
 30
0.0
 11
16.500765
 21
15.87199678763365
 31
0.0
 12
17.040765
 22
15.96199678763365
 32
0.0
 13
17.040765
 23
15.96199678763365
 33
0.0
  0
SOLID
  5
7B8
330
1A5
100
AcDbEntity
  8
DIM
 62
     0
100
AcDbTrace
 10
19.73676499999999
 20
16.05199678763365
 30
0.0
 11
19.73676499999999
 21
15.87199678763365
 31
0.0
 12
19.19676499999999
 22
15.96199678763365
 32
0.0
 13
19.19676499999999
 23
15.96199678763365
 33
0.0
  0
MTEXT
  5
7B9
330
1A5
100
AcDbEntity
  8
DIM
 62
     0
100
AcDbMText
 10
21.6952025
 20
15.96199678763365
 30
0.0
 40
0.375
 41
0.0
 71
     5
 72
     1
  1
\A1;0.54 [13.7]
  7
TXT
 73
     1
 44
1.0
  0
POINT
  5
7BA
330
1A5
100
AcDbEntity
  8
DEFPOINTS
 62
     0
100
AcDbPoint
 10
17.040765
 20
14.19696378763365
 30
0.0
  0
POINT
  5
7BB
330
1A5
100
AcDbEntity
  8
DEFPOINTS
 62
     0
100
AcDbPoint
 10
19.19676499999999
 20
13.26096378763365
 30
0.0
  0
POINT
  5
7BC
330
1A5
100
AcDbEntity
  8
DEFPOINTS
 62
     0
100
AcDbPoint
 10
19.19676499999999
 20
15.96199678763365
 30
0.0
  0
ENDBLK
  5
1B1
330
1A5
100
AcDbEntity
  8
0
100
AcDbBlockEnd
  0
BLOCK
  5
1BE
330
1B3
100
AcDbEntity
  8
0
100
AcDbBlockBegin
  2
*D2
 70
     1
 10
0.0
 20
0.0
 30
0.0
  3
*D2
  1

  0
LINE
  5
632
330
1B3
100
AcDbEntity
  8
DIM
 62
     0
370
    -2
100
AcDbLine
 10
17.572765
 20
13.44996378763365
 30
0.0
 11
17.572765
 21
15.39799678763365
 31
0.0
  0
LINE
  5
633
330
1B3
100
AcDbEntity
  8
DIM
 62
     0
370
    -2
100
AcDbLine
 10
19.19676499999999
 20
13.44996378763365
 30
0.0
 11
19.19676499999999
 21
15.39799678763365
 31
0.0
  0
LINE
  5
634
330
1B3
100
AcDbEntity
  8
DIM
 62
     0
370
    -2
100
AcDbLine
 10
17.032765
 20
15.11899678763365
 30
0.0
 11
16.492765
 21
15.11899678763365
 31
0.0
  0
LINE
  5
635
330
1B3
100
AcDbEntity
  8
DIM
 62
     0
370
    -2
100
AcDbLine
 10
19.73676499999999
 20
15.11899678763365
 30
0.0
 11
20.276765
 21
15.11899678763365
 31
0.0
  0
SOLID
  5
636
330
1B3
100
AcDbEntity
  8
DIM
 62
     0
100
AcDbTrace
 10
17.032765
 20
15.20899678763365
 30
0.0
 11
17.032765
 21
15.02899678763365
 31
0.0
 12
17.572765
 22
15.11899678763365
 32
0.0
 13
17.572765
 23
15.11899678763365
 33
0.0
  0
SOLID
  5
637
330
1B3
100
AcDbEntity
  8
DIM
 62
     0
100
AcDbTrace
 10
19.73676499999999
 20
15.20899678763365
 30
0.0
 11
19.73676499999999
 21
15.02899678763365
 31
0.0
 12
19.19676499999999
 22
15.11899678763365
 32
0.0
 13
19.19676499999999
 23
15.11899678763365
 33
0.0
  0
MTEXT
  5
638
330
1B3
100
AcDbEntity
  8
DIM
 62
     0
100
AcDbMText
 10
21.62489
 20
15.11899678763365
 30
0.0
 40
0.375
 41
0.0
 71
     5
 72
     1
  1
\A1;0.41 [10.3]
  7
TXT
 73
     1
 44
1.0
  0
POINT
  5
639
330
1B3
100
AcDbEntity
  8
DEFPOINTS
 62
     0
100
AcDbPoint
 10
17.572765
 20
13.26096378763365
 30
0.0
  0
POINT
  5
63A
330
1B3
100
AcDbEntity
  8
DEFPOINTS
 62
     0
100
AcDbPoint
 10
19.19676499999999
 20
13.26096378763365
 30
0.0
  0
POINT
  5
63B
330
1B3
100
AcDbEntity
  8
DEFPOINTS
 62
     0
100
AcDbPoint
 10
19.19676499999999
 20
15.11899678763365
 30
0.0
  0
ENDBLK
  5
1BF
330
1B3
100
AcDbEntity
  8
0
100
AcDbBlockEnd
  0
BLOCK
  5
1CC
330
1C1
100
AcDbEntity
  8
0
100
AcDbBlockBegin
  2
*D3
 70
     1
 10
0.0
 20
0.0
 30
0.0
  3
*D3
  1

  0
LINE
  5
7C7
330
1C1
100
AcDbEntity
  8
DIM
 62
     0
370
    -2
100
AcDbLine
 10
17.93976499999999
 20
13.81696378763365
 30
0.0
 11
15.3812202976097
 21
13.81696378763365
 31
0.0
  0
LINE
  5
7C8
330
1C1
100
AcDbEntity
  8
DIM
 62
     0
370
    -2
100
AcDbLine
 10
17.93976499999999
 20
12.70496378763365
 30
0.0
 11
15.3812202976097
 21
12.70496378763365
 31
0.0
  0
LINE
  5
7C9
330
1C1
100
AcDbEntity
  8
DIM
 62
     0
370
    -2
100
AcDbLine
 10
15.66022029760969
 20
14.35696378763364
 30
0.0
 11
15.66022029760969
 21
14.89696378763365
 31
0.0
  0
LINE
  5
7CA
330
1C1
100
AcDbEntity
  8
DIM
 62
     0
370
    -2
100
AcDbLine
 10
15.66022029760969
 20
12.16496378763364
 30
0.0
 11
15.66022029760969
 21
11.62496378763365
 31
0.0
  0
SOLID
  5
7CB
330
1C1
100
AcDbEntity
  8
DIM
 62
     0
100
AcDbTrace
 10
15.5702202976097
 20
14.35696378763364
 30
0.0
 11
15.7502202976097
 21
14.35696378763364
 31
0.0
 12
15.66022029760969
 22
13.81696378763365
 32
0.0
 13
15.66022029760969
 23
13.81696378763365
 33
0.0
  0
SOLID
  5
7CC
330
1C1
100
AcDbEntity
  8
DIM
 62
     0
100
AcDbTrace
 10
15.5702202976097
 20
12.16496378763364
 30
0.0
 11
15.7502202976097
 21
12.16496378763364
 31
0.0
 12
15.66022029760969
 22
12.70496378763365
 32
0.0
 13
15.66022029760969
 23
12.70496378763365
 33
0.0
  0
MTEXT
  5
7CD
330
1C1
100
AcDbEntity
  8
DIM
 62
     0
100
AcDbMText
 10
15.66022029760969
 20
13.26096378763365
 30
0.0
 40
0.375
 41
0.0
 71
     5
 72
     1
  1
\A1;0.28 [7.1]
  7
TXT
 73
     1
 44
1.0
  0
POINT
  5
7CE
330
1C1
100
AcDbEntity
  8
DEFPOINTS
 62
     0
100
AcDbPoint
 10
18.12876499999999
 20
13.81696378763365
 30
0.0
  0
POINT
  5
7CF
330
1C1
100
AcDbEntity
  8
DEFPOINTS
 62
     0
100
AcDbPoint
 10
18.12876499999999
 20
12.70496378763365
 30
0.0
  0
POINT
  5
7D0
330
1C1
100
AcDbEntity
  8
DEFPOINTS
 62
     0
100
AcDbPoint
 10
15.66022029760969
 20
12.70496378763365
 30
0.0
  0
ENDBLK
  5
1CD
330
1C1
100
AcDbEntity
  8
0
100
AcDbBlockEnd
  0
BLOCK
  5
1E8
330
1DD
100
AcDbEntity
  8
0
100
AcDbBlockBegin
  2
*D4
 70
     1
 10
0.0
 20
0.0
 30
0.0
  3
*D4
  1

  0
LINE
  5
67B
330
1DD
100
AcDbEntity
  8
DIM
 62
     0
370
    -2
100
AcDbLine
 10
22.618105
 20
33.93748556974971
 30
0.0
 11
24.36641906220124
 21
33.93748556974971
 31
0.0
  0
LINE
  5
67C
330
1DD
100
AcDbEntity
  8
DIM
 62
     0
370
    -2
100
AcDbLine
 10
22.909105
 20
32.4534855697497
 30
0.0
 11
24.36641906220124
 21
32.4534855697497
 31
0.0
  0
LINE
  5
67D
330
1DD
100
AcDbEntity
  8
DIM
 62
     0
370
    -2
100
AcDbLine
 10
24.08741906220124
 20
34.47748556974971
 30
0.0
 11
24.08741906220124
 21
35.01748556974971
 31
0.0
  0
LINE
  5
67E
330
1DD
100
AcDbEntity
  8
DIM
 62
     0
370
    -2
100
AcDbLine
 10
24.08741906220124
 20
31.91348556974971
 30
0.0
 11
24.08741906220124
 21
31.37348556974971
 31
0.0
  0
SOLID
  5
67F
330
1DD
100
AcDbEntity
  8
DIM
 62
     0
100
AcDbTrace
 10
23.99741906220124
 20
34.47748556974971
 30
0.0
 11
24.17741906220124
 21
34.47748556974971
 31
0.0
 12
24.08741906220124
 22
33.93748556974971
 32
0.0
 13
24.08741906220124
 23
33.93748556974971
 33
0.0
  0
SOLID
  5
680
330
1DD
100
AcDbEntity
  8
DIM
 62
     0
100
AcDbTrace
 10
23.99741906220124
 20
31.91348556974971
 30
0.0
 11
24.17741906220124
 21
31.91348556974971
 31
0.0
 12
24.08741906220124
 22
32.4534855697497
 32
0.0
 13
24.08741906220124
 23
32.4534855697497
 33
0.0
  0
MTEXT
  5
681
330
1DD
100
AcDbEntity
  8
DIM
 62
     0
100
AcDbMText
 10
24.08741906220123
 20
33.19548556974972
 30
0.0
 40
0.375
 41
0.0
 71
     5
 72
     1
  1
\A1;1.48 [37.7]
  7
TXT
 73
     1
 44
1.0
  0
POINT
  5
682
330
1DD
100
AcDbEntity
  8
DEFPOINTS
 62
     0
100
AcDbPoint
 10
22.429105
 20
33.93748556974971
 30
0.0
  0
POINT
  5
683
330
1DD
100
AcDbEntity
  8
DEFPOINTS
 62
     0
100
AcDbPoint
 10
22.72010499999999
 20
32.4534855697497
 30
0.0
  0
POINT
  5
684
330
1DD
100
AcDbEntity
  8
DEFPOINTS
 62
     0
100
AcDbPoint
 10
24.08741906220124
 20
32.4534855697497
 30
0.0
  0
ENDBLK
  5
1E9
330
1DD
100
AcDbEntity
  8
0
100
AcDbBlockEnd
  0
BLOCK
  5
1F6
330
1EB
100
AcDbEntity
  8
0
100
AcDbBlockBegin
  2
*D5
 70
     1
 10
0.0
 20
0.0
 30
0.0
  3
*D5
  1

  0
LINE
  5
757
330
1EB
100
AcDbEntity
  8
DIM
 62
     0
370
    -2
100
AcDbLine
 10
22.909105
 20
32.4534855697497
 30
0.0
 11
27.95166739218254
 21
32.4534855697497
 31
0.0
  0
LINE
  5
758
330
1EB
100
AcDbEntity
  8
DIM
 62
     0
370
    -2
100
AcDbLine
 10
22.909105
 20
37.68748556974971
 30
0.0
 11
27.95166739218254
 21
37.68748556974971
 31
0.0
  0
LINE
  5
759
330
1EB
100
AcDbEntity
  8
DIM
 62
     0
370
    -2
100
AcDbLine
 10
27.67266739218254
 20
32.99348556974971
 30
0.0
 11
27.67266739218254
 21
34.61298556974971
 31
0.0
  0
LINE
  5
75A
330
1EB
100
AcDbEntity
  8
DIM
 62
     0
370
    -2
100
AcDbLine
 10
27.67266739218254
 20
37.14748556974971
 30
0.0
 11
27.67266739218254
 21
35.52798556974972
 31
0.0
  0
SOLID
  5
75B
330
1EB
100
AcDbEntity
  8
DIM
 62
     0
100
AcDbTrace
 10
27.58266739218254
 20
32.99348556974971
 30
0.0
 11
27.76266739218254
 21
32.99348556974971
 31
0.0
 12
27.67266739218254
 22
32.4534855697497
 32
0.0
 13
27.67266739218254
 23
32.4534855697497
 33
0.0
  0
SOLID
  5
75C
330
1EB
100
AcDbEntity
  8
DIM
 62
     0
100
AcDbTrace
 10
27.58266739218254
 20
37.14748556974971
 30
0.0
 11
27.76266739218254
 21
37.14748556974971
 31
0.0
 12
27.67266739218254
 22
37.68748556974971
 32
0.0
 13
27.67266739218254
 23
37.68748556974971
 33
0.0
  0
MTEXT
  5
75D
330
1EB
100
AcDbEntity
  8
DIM
 62
     0
100
AcDbMText
 10
27.67266739218254
 20
35.07048556974972
 30
0.0
 40
0.375
 41
0.0
 71
     5
 72
     1
  1
\A1;A
  7
TXT
 73
     1
 44
1.0
  0
POINT
  5
75E
330
1EB
100
AcDbEntity
  8
DEFPOINTS
 62
     0
100
AcDbPoint
 10
22.72010499999999
 20
32.4534855697497
 30
0.0
  0
POINT
  5
75F
330
1EB
100
AcDbEntity
  8
DEFPOINTS
 62
     0
100
AcDbPoint
 10
22.72010499999999
 20
37.68748556974971
 30
0.0
  0
POINT
  5
760
330
1EB
100
AcDbEntity
  8
DEFPOINTS
 62
     0
100
AcDbPoint
 10
27.67266739218254
 20
37.68748556974971
 30
0.0
  0
ENDBLK
  5
1F7
330
1EB
100
AcDbEntity
  8
0
100
AcDbBlockEnd
  0
BLOCK
  5
204
330
1F9
100
AcDbEntity
  8
0
100
AcDbBlockBegin
  2
*D6
 70
     1
 10
0.0
 20
0.0
 30
0.0
  3
*D6
  1

  0
LINE
  5
761
330
1F9
100
AcDbEntity
  8
DIM
 62
     0
370
    -2
100
AcDbLine
 10
22.618105
 20
36.2034855697497
 30
0.0
 11
26.04364860072467
 21
36.2034855697497
 31
0.0
  0
LINE
  5
762
330
1F9
100
AcDbEntity
  8
DIM
 62
     0
370
    -2
100
AcDbLine
 10
22.618105
 20
33.93748556974971
 30
0.0
 11
26.04364860072467
 21
33.93748556974971
 31
0.0
  0
LINE
  5
763
330
1F9
100
AcDbEntity
  8
DIM
 62
     0
370
    -2
100
AcDbLine
 10
25.76464860072467
 20
35.66348556974971
 30
0.0
 11
25.76464860072467
 21
35.52798556974972
 31
0.0
  0
LINE
  5
764
330
1F9
100
AcDbEntity
  8
DIM
 62
     0
370
    -2
100
AcDbLine
 10
25.76464860072467
 20
34.47748556974971
 30
0.0
 11
25.76464860072467
 21
34.61298556974971
 31
0.0
  0
SOLID
  5
765
330
1F9
100
AcDbEntity
  8
DIM
 62
     0
100
AcDbTrace
 10
25.67464860072467
 20
35.66348556974971
 30
0.0
 11
25.85464860072467
 21
35.66348556974971
 31
0.0
 12
25.76464860072467
 22
36.2034855697497
 32
0.0
 13
25.76464860072467
 23
36.2034855697497
 33
0.0
  0
SOLID
  5
766
330
1F9
100
AcDbEntity
  8
DIM
 62
     0
100
AcDbTrace
 10
25.67464860072467
 20
34.47748556974971
 30
0.0
 11
25.85464860072467
 21
34.47748556974971
 31
0.0
 12
25.76464860072467
 22
33.93748556974971
 32
0.0
 13
25.76464860072467
 23
33.93748556974971
 33
0.0
  0
MTEXT
  5
767
330
1F9
100
AcDbEntity
  8
DIM
 62
     0
100
AcDbMText
 10
25.76464860072467
 20
35.07048556974972
 30
0.0
 40
0.375
 41
0.0
 71
     5
 72
     1
  1
\A1;B
  7
TXT
 73
     1
 44
1.0
  0
POINT
  5
768
330
1F9
100
AcDbEntity
  8
DEFPOINTS
 62
     0
100
AcDbPoint
 10
22.429105
 20
36.2034855697497
 30
0.0
  0
POINT
  5
769
330
1F9
100
AcDbEntity
  8
DEFPOINTS
 62
     0
100
AcDbPoint
 10
22.429105
 20
33.93748556974971
 30
0.0
  0
POINT
  5
76A
330
1F9
100
AcDbEntity
  8
DEFPOINTS
 62
     0
100
AcDbPoint
 10
25.76464860072467
 20
33.93748556974971
 30
0.0
  0
ENDBLK
  5
205
330
1F9
100
AcDbEntity
  8
0
100
AcDbBlockEnd
  0
BLOCK
  5
219
330
20E
100
AcDbEntity
  8
0
100
AcDbBlockBegin
  2
*D7
 70
     1
 10
0.0
 20
0.0
 30
0.0
  3
*D7
  1

  0
LINE
  5
547
330
20E
100
AcDbEntity
  8
DIM
 62
     0
370
    -2
100
AcDbLine
 10
22.72010499999999
 20
42.64679256974971
 30
0.0
 11
22.72010499999999
 21
43.53779256974971
 31
0.0
  0
LINE
  5
548
330
20E
100
AcDbEntity
  8
DIM
 62
     0
370
    -2
100
AcDbLine
 10
3.720105
 20
42.64679256974971
 30
0.0
 11
3.720105
 21
43.53779256974971
 31
0.0
  0
LINE
  5
549
330
20E
100
AcDbEntity
  8
DIM
 62
     0
370
    -2
100
AcDbLine
 10
22.180105
 20
43.2587925697497
 30
0.0
 11
14.896355
 21
43.2587925697497
 31
0.0
  0
LINE
  5
54A
330
20E
100
AcDbEntity
  8
DIM
 62
     0
370
    -2
100
AcDbLine
 10
4.260105
 20
43.2587925697497
 30
0.0
 11
11.543855
 21
43.2587925697497
 31
0.0
  0
SOLID
  5
54B
330
20E
100
AcDbEntity
  8
DIM
 62
     0
100
AcDbTrace
 10
22.180105
 20
43.34879256974971
 30
0.0
 11
22.180105
 21
43.1687925697497
 31
0.0
 12
22.72010499999999
 22
43.2587925697497
 32
0.0
 13
22.72010499999999
 23
43.2587925697497
 33
0.0
  0
SOLID
  5
54C
330
20E
100
AcDbEntity
  8
DIM
 62
     0
100
AcDbTrace
 10
4.260105
 20
43.34879256974971
 30
0.0
 11
4.260105
 21
43.1687925697497
 31
0.0
 12
3.720105
 22
43.2587925697497
 32
0.0
 13
3.720105
 23
43.2587925697497
 33
0.0
  0
MTEXT
  5
54D
330
20E
100
AcDbEntity
  8
DIM
 62
     0
100
AcDbMText
 10
13.220105
 20
43.2587925697497
 30
0.0
 40
0.375
 41
0.0
 71
     5
 72
     1
  1
\A1;19.00 [482.6]
  7
TXT
 73
     1
 44
1.0
  0
POINT
  5
54E
330
20E
100
AcDbEntity
  8
DEFPOINTS
 62
     0
100
AcDbPoint
 10
22.72010499999999
 20
42.4577925697497
 30
0.0
  0
POINT
  5
54F
330
20E
100
AcDbEntity
  8
DEFPOINTS
 62
     0
100
AcDbPoint
 10
3.720105
 20
42.4577925697497
 30
0.0
  0
POINT
  5
550
330
20E
100
AcDbEntity
  8
DEFPOINTS
 62
     0
100
AcDbPoint
 10
3.720105
 20
43.2587925697497
 30
0.0
  0
ENDBLK
  5
21A
330
20E
100
AcDbEntity
  8
0
100
AcDbBlockEnd
  0
BLOCK
  5
227
330
21C
100
AcDbEntity
  8
0
100
AcDbBlockBegin
  2
*D8
 70
     1
 10
0.0
 20
0.0
 30
0.0
  3
*D8
  1

  0
LINE
  5
789
330
21C
100
AcDbEntity
  8
DIM
 62
     0
370
    -2
100
AcDbLine
 10
22.618105
 20
42.22379256974971
 30
0.0
 11
26.04364860072468
 21
42.22379256974971
 31
0.0
  0
LINE
  5
78A
330
21C
100
AcDbEntity
  8
DIM
 62
     0
370
    -2
100
AcDbLine
 10
22.618105
 20
40.9577925697497
 30
0.0
 11
26.04364860072468
 21
40.9577925697497
 31
0.0
  0
LINE
  5
78B
330
21C
100
AcDbEntity
  8
DIM
 62
     0
370
    -2
100
AcDbLine
 10
25.76464860072467
 20
42.76379256974971
 30
0.0
 11
25.76464860072467
 21
43.3037925697497
 31
0.0
  0
LINE
  5
78C
330
21C
100
AcDbEntity
  8
DIM
 62
     0
370
    -2
100
AcDbLine
 10
25.76464860072467
 20
40.41779256974971
 30
0.0
 11
25.76464860072467
 21
39.8777925697497
 31
0.0
  0
SOLID
  5
78D
330
21C
100
AcDbEntity
  8
DIM
 62
     0
100
AcDbTrace
 10
25.67464860072468
 20
42.76379256974971
 30
0.0
 11
25.85464860072468
 21
42.76379256974971
 31
0.0
 12
25.76464860072467
 22
42.22379256974971
 32
0.0
 13
25.76464860072467
 23
42.22379256974971
 33
0.0
  0
SOLID
  5
78E
330
21C
100
AcDbEntity
  8
DIM
 62
     0
100
AcDbTrace
 10
25.67464860072468
 20
40.41779256974971
 30
0.0
 11
25.85464860072468
 21
40.41779256974971
 31
0.0
 12
25.76464860072467
 22
40.9577925697497
 32
0.0
 13
25.76464860072467
 23
40.9577925697497
 33
0.0
  0
MTEXT
  5
78F
330
21C
100
AcDbEntity
  8
DIM
 62
     0
100
AcDbMText
 10
25.76464860072467
 20
41.59079256974972
 30
0.0
 40
0.375
 41
0.0
 71
     5
 72
     1
  1
\A1;B
  7
TXT
 73
     1
 44
1.0
  0
POINT
  5
790
330
21C
100
AcDbEntity
  8
DEFPOINTS
 62
     0
100
AcDbPoint
 10
22.429105
 20
42.22379256974971
 30
0.0
  0
POINT
  5
791
330
21C
100
AcDbEntity
  8
DEFPOINTS
 62
     0
100
AcDbPoint
 10
22.429105
 20
40.9577925697497
 30
0.0
  0
POINT
  5
792
330
21C
100
AcDbEntity
  8
DEFPOINTS
 62
     0
100
AcDbPoint
 10
25.76464860072467
 20
40.9577925697497
 30
0.0
  0
ENDBLK
  5
228
330
21C
100
AcDbEntity
  8
0
100
AcDbBlockEnd
  0
BLOCK
  5
235
330
22A
100
AcDbEntity
  8
0
100
AcDbBlockBegin
  2
*D9
 70
     1
 10
0.0
 20
0.0
 30
0.0
  3
*D9
  1

  0
LINE
  5
77F
330
22A
100
AcDbEntity
  8
DIM
 62
     0
370
    -2
100
AcDbLine
 10
22.909105
 20
42.4577925697497
 30
0.0
 11
27.95166739218255
 21
42.4577925697497
 31
0.0
  0
LINE
  5
780
330
22A
100
AcDbEntity
  8
DIM
 62
     0
370
    -2
100
AcDbLine
 10
22.909105
 20
40.72379256974971
 30
0.0
 11
27.95166739218255
 21
40.72379256974971
 31
0.0
  0
LINE
  5
781
330
22A
100
AcDbEntity
  8
DIM
 62
     0
370
    -2
100
AcDbLine
 10
27.67266739218255
 20
42.99779256974971
 30
0.0
 11
27.67266739218255
 21
43.5377925697497
 31
0.0
  0
LINE
  5
782
330
22A
100
AcDbEntity
  8
DIM
 62
     0
370
    -2
100
AcDbLine
 10
27.67266739218255
 20
40.18379256974971
 30
0.0
 11
27.67266739218255
 21
39.64379256974971
 31
0.0
  0
SOLID
  5
783
330
22A
100
AcDbEntity
  8
DIM
 62
     0
100
AcDbTrace
 10
27.58266739218255
 20
42.99779256974971
 30
0.0
 11
27.76266739218255
 21
42.99779256974971
 31
0.0
 12
27.67266739218255
 22
42.4577925697497
 32
0.0
 13
27.67266739218255
 23
42.4577925697497
 33
0.0
  0
SOLID
  5
784
330
22A
100
AcDbEntity
  8
DIM
 62
     0
100
AcDbTrace
 10
27.58266739218255
 20
40.18379256974971
 30
0.0
 11
27.76266739218255
 21
40.18379256974971
 31
0.0
 12
27.67266739218255
 22
40.72379256974971
 32
0.0
 13
27.67266739218255
 23
40.72379256974971
 33
0.0
  0
MTEXT
  5
785
330
22A
100
AcDbEntity
  8
DIM
 62
     0
100
AcDbMText
 10
27.67266739218254
 20
41.59079256974972
 30
0.0
 40
0.375
 41
0.0
 71
     5
 72
     1
  1
\A1;A
  7
TXT
 73
     1
 44
1.0
  0
POINT
  5
786
330
22A
100
AcDbEntity
  8
DEFPOINTS
 62
     0
100
AcDbPoint
 10
22.72010499999999
 20
42.4577925697497
 30
0.0
  0
POINT
  5
787
330
22A
100
AcDbEntity
  8
DEFPOINTS
 62
     0
100
AcDbPoint
 10
22.72010499999999
 20
40.72379256974971
 30
0.0
  0
POINT
  5
788
330
22A
100
AcDbEntity
  8
DEFPOINTS
 62
     0
100
AcDbPoint
 10
27.67266739218255
 20
40.72379256974971
 30
0.0
  0
ENDBLK
  5
236
330
22A
100
AcDbEntity
  8
0
100
AcDbBlockEnd
  0
BLOCK
  5
243
330
238
100
AcDbEntity
  8
0
100
AcDbBlockBegin
  2
*D10
 70
     1
 10
0.0
 20
0.0
 30
0.0
  3
*D10
  1

  0
LINE
  5
793
330
238
100
AcDbEntity
  8
DIM
 62
     0
370
    -2
100
AcDbLine
 10
22.618105
 20
40.9577925697497
 30
0.0
 11
24.36641906220124
 21
40.9577925697497
 31
0.0
  0
LINE
  5
794
330
238
100
AcDbEntity
  8
DIM
 62
     0
370
    -2
100
AcDbLine
 10
22.909105
 20
40.72379256974971
 30
0.0
 11
24.36641906220124
 21
40.72379256974971
 31
0.0
  0
LINE
  5
795
330
238
100
AcDbEntity
  8
DIM
 62
     0
370
    -2
100
AcDbLine
 10
24.08741906220125
 20
41.4977925697497
 30
0.0
 11
24.08741906220125
 21
42.03779256974971
 31
0.0
  0
LINE
  5
796
330
238
100
AcDbEntity
  8
DIM
 62
     0
370
    -2
100
AcDbLine
 10
24.08741906220125
 20
40.18379256974971
 30
0.0
 11
24.08741906220124
 21
39.64379256974971
 31
0.0
  0
LINE
  5
797
330
238
100
AcDbEntity
  8
DIM
 62
     0
370
    -2
100
AcDbLine
 10
24.08741906220124
 20
39.64379256974971
 30
0.0
 11
23.54741906220124
 21
39.64379256974971
 31
0.0
  0
SOLID
  5
798
330
238
100
AcDbEntity
  8
DIM
 62
     0
100
AcDbTrace
 10
23.99741906220124
 20
41.4977925697497
 30
0.0
 11
24.17741906220125
 21
41.4977925697497
 31
0.0
 12
24.08741906220125
 22
40.9577925697497
 32
0.0
 13
24.08741906220125
 23
40.9577925697497
 33
0.0
  0
SOLID
  5
799
330
238
100
AcDbEntity
  8
DIM
 62
     0
100
AcDbTrace
 10
23.99741906220124
 20
40.18379256974971
 30
0.0
 11
24.17741906220125
 21
40.18379256974971
 31
0.0
 12
24.08741906220125
 22
40.72379256974971
 32
0.0
 13
24.08741906220125
 23
40.72379256974971
 33
0.0
  0
MTEXT
  5
79A
330
238
100
AcDbEntity
  8
DIM
 62
     0
100
AcDbMText
 10
22.22273156220124
 20
39.64379256974972
 30
0.0
 40
0.375
 41
0.0
 71
     5
 72
     1
  1
\A1;0.23 [5.9]
  7
TXT
 73
     1
 44
1.0
  0
POINT
  5
79B
330
238
100
AcDbEntity
  8
DEFPOINTS
 62
     0
100
AcDbPoint
 10
22.429105
 20
40.9577925697497
 30
0.0
  0
POINT
  5
79C
330
238
100
AcDbEntity
  8
DEFPOINTS
 62
     0
100
AcDbPoint
 10
22.72010499999999
 20
40.72379256974971
 30
0.0
  0
POINT
  5
79D
330
238
100
AcDbEntity
  8
DEFPOINTS
 62
     0
100
AcDbPoint
 10
24.08741906220125
 20
40.72379256974971
 30
0.0
  0
ENDBLK
  5
244
330
238
100
AcDbEntity
  8
0
100
AcDbBlockEnd
  0
BLOCK
  5
254
330
249
100
AcDbEntity
  8
0
100
AcDbBlockBegin
  2
*D11
 70
     1
 10
0.0
 20
0.0
 30
0.0
  3
*D11
  1

  0
LINE
  5
74D
330
249
100
AcDbEntity
  8
DIM
 62
     0
370
    -2
100
AcDbLine
 10
22.909105
 20
19.02410356974971
 30
0.0
 11
27.95166739218254
 21
19.0241035697497
 31
0.0
  0
LINE
  5
74E
330
249
100
AcDbEntity
  8
DIM
 62
     0
370
    -2
100
AcDbLine
 10
22.909105
 20
29.50810356974971
 30
0.0
 11
27.95166739218254
 21
29.5081035697497
 31
0.0
  0
LINE
  5
74F
330
249
100
AcDbEntity
  8
DIM
 62
     0
370
    -2
100
AcDbLine
 10
27.67266739218254
 20
19.5641035697497
 30
0.0
 11
27.67266739218254
 21
23.8086035697497
 31
0.0
  0
LINE
  5
750
330
249
100
AcDbEntity
  8
DIM
 62
     0
370
    -2
100
AcDbLine
 10
27.67266739218254
 20
28.9681035697497
 30
0.0
 11
27.67266739218254
 21
24.7236035697497
 31
0.0
  0
SOLID
  5
751
330
249
100
AcDbEntity
  8
DIM
 62
     0
100
AcDbTrace
 10
27.58266739218254
 20
19.5641035697497
 30
0.0
 11
27.76266739218254
 21
19.5641035697497
 31
0.0
 12
27.67266739218254
 22
19.0241035697497
 32
0.0
 13
27.67266739218254
 23
19.0241035697497
 33
0.0
  0
SOLID
  5
752
330
249
100
AcDbEntity
  8
DIM
 62
     0
100
AcDbTrace
 10
27.58266739218254
 20
28.9681035697497
 30
0.0
 11
27.76266739218254
 21
28.9681035697497
 31
0.0
 12
27.67266739218254
 22
29.5081035697497
 32
0.0
 13
27.67266739218254
 23
29.5081035697497
 33
0.0
  0
MTEXT
  5
753
330
249
100
AcDbEntity
  8
DIM
 62
     0
100
AcDbMText
 10
27.67266739218253
 20
24.26610356974971
 30
0.0
 40
0.375
 41
0.0
 71
     5
 72
     1
  1
\A1;A
  7
TXT
 73
     1
 44
1.0
  0
POINT
  5
754
330
249
100
AcDbEntity
  8
DEFPOINTS
 62
     0
100
AcDbPoint
 10
22.72010499999999
 20
19.02410356974971
 30
0.0
  0
POINT
  5
755
330
249
100
AcDbEntity
  8
DEFPOINTS
 62
     0
100
AcDbPoint
 10
22.72010499999999
 20
29.50810356974971
 30
0.0
  0
POINT
  5
756
330
249
100
AcDbEntity
  8
DEFPOINTS
 62
     0
100
AcDbPoint
 10
27.67266739218254
 20
29.5081035697497
 30
0.0
  0
ENDBLK
  5
255
330
249
100
AcDbEntity
  8
0
100
AcDbBlockEnd
  0
BLOCK
  5
263
330
258
100
AcDbEntity
  8
0
100
AcDbBlockBegin
  2
*D12
 70
     1
 10
0.0
 20
0.0
 30
0.0
  3
*D12
  1

  0
LINE
  5
775
330
258
100
AcDbEntity
  8
DIM
 62
     0
370
    -2
100
AcDbLine
 10
22.618105
 20
22.7581035697497
 30
0.0
 11
26.04364860072466
 21
22.7581035697497
 31
0.0
  0
LINE
  5
776
330
258
100
AcDbEntity
  8
DIM
 62
     0
370
    -2
100
AcDbLine
 10
22.618105
 20
20.5081035697497
 30
0.0
 11
26.04364860072466
 21
20.5081035697497
 31
0.0
  0
LINE
  5
777
330
258
100
AcDbEntity
  8
DIM
 62
     0
370
    -2
100
AcDbLine
 10
25.76464860072467
 20
22.2181035697497
 30
0.0
 11
25.76464860072467
 21
22.0906035697497
 31
0.0
  0
LINE
  5
778
330
258
100
AcDbEntity
  8
DIM
 62
     0
370
    -2
100
AcDbLine
 10
25.76464860072467
 20
21.0481035697497
 30
0.0
 11
25.76464860072467
 21
21.1756035697497
 31
0.0
  0
SOLID
  5
779
330
258
100
AcDbEntity
  8
DIM
 62
     0
100
AcDbTrace
 10
25.67464860072467
 20
22.2181035697497
 30
0.0
 11
25.85464860072467
 21
22.2181035697497
 31
0.0
 12
25.76464860072467
 22
22.7581035697497
 32
0.0
 13
25.76464860072467
 23
22.7581035697497
 33
0.0
  0
SOLID
  5
77A
330
258
100
AcDbEntity
  8
DIM
 62
     0
100
AcDbTrace
 10
25.67464860072467
 20
21.0481035697497
 30
0.0
 11
25.85464860072467
 21
21.0481035697497
 31
0.0
 12
25.76464860072467
 22
20.5081035697497
 32
0.0
 13
25.76464860072467
 23
20.5081035697497
 33
0.0
  0
MTEXT
  5
77B
330
258
100
AcDbEntity
  8
DIM
 62
     0
100
AcDbMText
 10
25.76464860072466
 20
21.6331035697497
 30
0.0
 40
0.375
 41
0.0
 71
     5
 72
     1
  1
\A1;B
  7
TXT
 73
     1
 44
1.0
  0
POINT
  5
77C
330
258
100
AcDbEntity
  8
DEFPOINTS
 62
     0
100
AcDbPoint
 10
22.429105
 20
22.7581035697497
 30
0.0
  0
POINT
  5
77D
330
258
100
AcDbEntity
  8
DEFPOINTS
 62
     0
100
AcDbPoint
 10
22.429105
 20
20.5081035697497
 30
0.0
  0
POINT
  5
77E
330
258
100
AcDbEntity
  8
DEFPOINTS
 62
     0
100
AcDbPoint
 10
25.76464860072467
 20
20.5081035697497
 30
0.0
  0
ENDBLK
  5
264
330
258
100
AcDbEntity
  8
0
100
AcDbBlockEnd
  0
BLOCK
  5
271
330
266
100
AcDbEntity
  8
0
100
AcDbBlockBegin
  2
*D13
 70
     1
 10
0.0
 20
0.0
 30
0.0
  3
*D13
  1

  0
LINE
  5
6CB
330
266
100
AcDbEntity
  8
DIM
 62
     0
370
    -2
100
AcDbLine
 10
22.618105
 20
20.5081035697497
 30
0.0
 11
24.36641906220124
 21
20.5081035697497
 31
0.0
  0
LINE
  5
6CC
330
266
100
AcDbEntity
  8
DIM
 62
     0
370
    -2
100
AcDbLine
 10
22.909105
 20
19.02410356974971
 30
0.0
 11
24.36641906220124
 21
19.0241035697497
 31
0.0
  0
LINE
  5
6CD
330
266
100
AcDbEntity
  8
DIM
 62
     0
370
    -2
100
AcDbLine
 10
24.08741906220124
 20
21.0481035697497
 30
0.0
 11
24.08741906220124
 21
21.5881035697497
 31
0.0
  0
LINE
  5
6CE
330
266
100
AcDbEntity
  8
DIM
 62
     0
370
    -2
100
AcDbLine
 10
24.08741906220124
 20
18.4841035697497
 30
0.0
 11
24.08741906220124
 21
17.9441035697497
 31
0.0
  0
SOLID
  5
6CF
330
266
100
AcDbEntity
  8
DIM
 62
     0
100
AcDbTrace
 10
23.99741906220124
 20
21.0481035697497
 30
0.0
 11
24.17741906220124
 21
21.0481035697497
 31
0.0
 12
24.08741906220124
 22
20.5081035697497
 32
0.0
 13
24.08741906220124
 23
20.5081035697497
 33
0.0
  0
SOLID
  5
6D0
330
266
100
AcDbEntity
  8
DIM
 62
     0
100
AcDbTrace
 10
23.99741906220124
 20
18.4841035697497
 30
0.0
 11
24.17741906220124
 21
18.4841035697497
 31
0.0
 12
24.08741906220124
 22
19.0241035697497
 32
0.0
 13
24.08741906220124
 23
19.0241035697497
 33
0.0
  0
MTEXT
  5
6D1
330
266
100
AcDbEntity
  8
DIM
 62
     0
100
AcDbMText
 10
24.08741906220123
 20
19.76610356974971
 30
0.0
 40
0.375
 41
0.0
 71
     5
 72
     1
  1
\A1;1.48 [37.7]
  7
TXT
 73
     1
 44
1.0
  0
POINT
  5
6D2
330
266
100
AcDbEntity
  8
DEFPOINTS
 62
     0
100
AcDbPoint
 10
22.429105
 20
20.5081035697497
 30
0.0
  0
POINT
  5
6D3
330
266
100
AcDbEntity
  8
DEFPOINTS
 62
     0
100
AcDbPoint
 10
22.72010499999999
 20
19.02410356974971
 30
0.0
  0
POINT
  5
6D4
330
266
100
AcDbEntity
  8
DEFPOINTS
 62
     0
100
AcDbPoint
 10
24.08741906220124
 20
19.0241035697497
 30
0.0
  0
ENDBLK
  5
272
330
266
100
AcDbEntity
  8
0
100
AcDbBlockEnd
  0
BLOCK
  5
27F
330
274
100
AcDbEntity
  8
0
100
AcDbBlockBegin
  2
*D14
 70
     1
 10
0.0
 20
0.0
 30
0.0
  3
*D14
  1

  0
LINE
  5
76B
330
274
100
AcDbEntity
  8
DIM
 62
     0
370
    -2
100
AcDbLine
 10
22.618105
 20
25.7741035697497
 30
0.0
 11
26.04364860072467
 21
25.7741035697497
 31
0.0
  0
LINE
  5
76C
330
274
100
AcDbEntity
  8
DIM
 62
     0
370
    -2
100
AcDbLine
 10
22.618105
 20
28.0241035697497
 30
0.0
 11
26.04364860072467
 21
28.0241035697497
 31
0.0
  0
LINE
  5
76D
330
274
100
AcDbEntity
  8
DIM
 62
     0
370
    -2
100
AcDbLine
 10
25.76464860072467
 20
26.3141035697497
 30
0.0
 11
25.76464860072467
 21
26.4416035697497
 31
0.0
  0
LINE
  5
76E
330
274
100
AcDbEntity
  8
DIM
 62
     0
370
    -2
100
AcDbLine
 10
25.76464860072467
 20
27.4841035697497
 30
0.0
 11
25.76464860072467
 21
27.3566035697497
 31
0.0
  0
SOLID
  5
76F
330
274
100
AcDbEntity
  8
DIM
 62
     0
100
AcDbTrace
 10
25.67464860072467
 20
26.3141035697497
 30
0.0
 11
25.85464860072467
 21
26.3141035697497
 31
0.0
 12
25.76464860072467
 22
25.7741035697497
 32
0.0
 13
25.76464860072467
 23
25.7741035697497
 33
0.0
  0
SOLID
  5
770
330
274
100
AcDbEntity
  8
DIM
 62
     0
100
AcDbTrace
 10
25.67464860072467
 20
27.4841035697497
 30
0.0
 11
25.85464860072467
 21
27.4841035697497
 31
0.0
 12
25.76464860072467
 22
28.0241035697497
 32
0.0
 13
25.76464860072467
 23
28.0241035697497
 33
0.0
  0
MTEXT
  5
771
330
274
100
AcDbEntity
  8
DIM
 62
     0
100
AcDbMText
 10
25.76464860072466
 20
26.89910356974971
 30
0.0
 40
0.375
 41
0.0
 71
     5
 72
     1
  1
\A1;B
  7
TXT
 73
     1
 44
1.0
  0
POINT
  5
772
330
274
100
AcDbEntity
  8
DEFPOINTS
 62
     0
100
AcDbPoint
 10
22.429105
 20
25.7741035697497
 30
0.0
  0
POINT
  5
773
330
274
100
AcDbEntity
  8
DEFPOINTS
 62
     0
100
AcDbPoint
 10
22.429105
 20
28.0241035697497
 30
0.0
  0
POINT
  5
774
330
274
100
AcDbEntity
  8
DEFPOINTS
 62
     0
100
AcDbPoint
 10
25.76464860072467
 20
28.0241035697497
 30
0.0
  0
ENDBLK
  5
280
330
274
100
AcDbEntity
  8
0
100
AcDbBlockEnd
  0
BLOCK
  5
28D
330
282
100
AcDbEntity
  8
0
100
AcDbBlockBegin
  2
*D15
 70
     1
 10
0.0
 20
0.0
 30
0.0
  3
*D15
  1

  0
LINE
  5
71B
330
282
100
AcDbEntity
  8
DIM
 62
     0
370
    -2
100
AcDbLine
 10
22.618105
 20
25.7741035697497
 30
0.0
 11
26.04364860072467
 21
25.7741035697497
 31
0.0
  0
LINE
  5
71C
330
282
100
AcDbEntity
  8
DIM
 62
     0
370
    -2
100
AcDbLine
 10
22.618105
 20
22.7581035697497
 30
0.0
 11
26.04364860072466
 21
22.7581035697497
 31
0.0
  0
LINE
  5
71D
330
282
100
AcDbEntity
  8
DIM
 62
     0
370
    -2
100
AcDbLine
 10
25.76464860072467
 20
25.2341035697497
 30
0.0
 11
25.76464860072467
 21
24.7236035697497
 31
0.0
  0
LINE
  5
71E
330
282
100
AcDbEntity
  8
DIM
 62
     0
370
    -2
100
AcDbLine
 10
25.76464860072467
 20
23.2981035697497
 30
0.0
 11
25.76464860072467
 21
23.8086035697497
 31
0.0
  0
SOLID
  5
71F
330
282
100
AcDbEntity
  8
DIM
 62
     0
100
AcDbTrace
 10
25.67464860072467
 20
25.2341035697497
 30
0.0
 11
25.85464860072467
 21
25.2341035697497
 31
0.0
 12
25.76464860072467
 22
25.7741035697497
 32
0.0
 13
25.76464860072467
 23
25.7741035697497
 33
0.0
  0
SOLID
  5
720
330
282
100
AcDbEntity
  8
DIM
 62
     0
100
AcDbTrace
 10
25.67464860072467
 20
23.2981035697497
 30
0.0
 11
25.85464860072467
 21
23.2981035697497
 31
0.0
 12
25.76464860072467
 22
22.7581035697497
 32
0.0
 13
25.76464860072467
 23
22.7581035697497
 33
0.0
  0
MTEXT
  5
721
330
282
100
AcDbEntity
  8
DIM
 62
     0
100
AcDbMText
 10
25.76464860072466
 20
24.26610356974971
 30
0.0
 40
0.375
 41
0.0
 71
     5
 72
     1
  1
\A1;C
  7
TXT
 73
     1
 44
1.0
  0
POINT
  5
722
330
282
100
AcDbEntity
  8
DEFPOINTS
 62
     0
100
AcDbPoint
 10
22.429105
 20
25.7741035697497
 30
0.0
  0
POINT
  5
723
330
282
100
AcDbEntity
  8
DEFPOINTS
 62
     0
100
AcDbPoint
 10
22.429105
 20
22.7581035697497
 30
0.0
  0
POINT
  5
724
330
282
100
AcDbEntity
  8
DEFPOINTS
 62
     0
100
AcDbPoint
 10
25.76464860072467
 20
22.7581035697497
 30
0.0
  0
ENDBLK
  5
28E
330
282
100
AcDbEntity
  8
0
100
AcDbBlockEnd
  0
BLOCK
  5
29B
330
290
100
AcDbEntity
  8
0
100
AcDbBlockBegin
  2
*D16
 70
     1
 10
0.0
 20
0.0
 30
0.0
  3
*D16
  1

  0
LINE
  5
566
330
290
100
AcDbEntity
  8
DIM
 62
     0
370
    -2
100
AcDbLine
 10
22.72010499999999
 20
37.87648556974971
 30
0.0
 11
22.72010499999999
 21
38.76748556974971
 31
0.0
  0
LINE
  5
567
330
290
100
AcDbEntity
  8
DIM
 62
     0
370
    -2
100
AcDbLine
 10
3.720105
 20
37.87648556974971
 30
0.0
 11
3.720105
 21
38.76748556974971
 31
0.0
  0
LINE
  5
568
330
290
100
AcDbEntity
  8
DIM
 62
     0
370
    -2
100
AcDbLine
 10
22.180105
 20
38.4884855697497
 30
0.0
 11
14.896355
 21
38.4884855697497
 31
0.0
  0
LINE
  5
569
330
290
100
AcDbEntity
  8
DIM
 62
     0
370
    -2
100
AcDbLine
 10
4.260105
 20
38.4884855697497
 30
0.0
 11
11.543855
 21
38.4884855697497
 31
0.0
  0
SOLID
  5
56A
330
290
100
AcDbEntity
  8
DIM
 62
     0
100
AcDbTrace
 10
22.180105
 20
38.57848556974971
 30
0.0
 11
22.180105
 21
38.3984855697497
 31
0.0
 12
22.72010499999999
 22
38.4884855697497
 32
0.0
 13
22.72010499999999
 23
38.4884855697497
 33
0.0
  0
SOLID
  5
56B
330
290
100
AcDbEntity
  8
DIM
 62
     0
100
AcDbTrace
 10
4.260105
 20
38.57848556974971
 30
0.0
 11
4.260105
 21
38.3984855697497
 31
0.0
 12
3.720105
 22
38.4884855697497
 32
0.0
 13
3.720105
 23
38.4884855697497
 33
0.0
  0
MTEXT
  5
56C
330
290
100
AcDbEntity
  8
DIM
 62
     0
100
AcDbMText
 10
13.220105
 20
38.4884855697497
 30
0.0
 40
0.375
 41
0.0
 71
     5
 72
     1
  1
\A1;19.00 [482.6]
  7
TXT
 73
     1
 44
1.0
  0
POINT
  5
56D
330
290
100
AcDbEntity
  8
DEFPOINTS
 62
     0
100
AcDbPoint
 10
22.72010499999999
 20
37.68748556974971
 30
0.0
  0
POINT
  5
56E
330
290
100
AcDbEntity
  8
DEFPOINTS
 62
     0
100
AcDbPoint
 10
3.720105
 20
37.68748556974971
 30
0.0
  0
POINT
  5
56F
330
290
100
AcDbEntity
  8
DEFPOINTS
 62
     0
100
AcDbPoint
 10
3.720105
 20
38.4884855697497
 30
0.0
  0
ENDBLK
  5
29C
330
290
100
AcDbEntity
  8
0
100
AcDbBlockEnd
  0
BLOCK
  5
2A9
330
29E
100
AcDbEntity
  8
0
100
AcDbBlockBegin
  2
*D17
 70
     1
 10
0.0
 20
0.0
 30
0.0
  3
*D17
  1

  0
LINE
  5
570
330
29E
100
AcDbEntity
  8
DIM
 62
     0
370
    -2
100
AcDbLine
 10
22.72010499999999
 20
29.69710356974971
 30
0.0
 11
22.72010499999999
 21
30.58810356974971
 31
0.0
  0
LINE
  5
571
330
29E
100
AcDbEntity
  8
DIM
 62
     0
370
    -2
100
AcDbLine
 10
3.720105
 20
29.69710356974971
 30
0.0
 11
3.720105
 21
30.58810356974971
 31
0.0
  0
LINE
  5
572
330
29E
100
AcDbEntity
  8
DIM
 62
     0
370
    -2
100
AcDbLine
 10
22.180105
 20
30.3091035697497
 30
0.0
 11
14.896355
 21
30.3091035697497
 31
0.0
  0
LINE
  5
573
330
29E
100
AcDbEntity
  8
DIM
 62
     0
370
    -2
100
AcDbLine
 10
4.260105
 20
30.3091035697497
 30
0.0
 11
11.543855
 21
30.3091035697497
 31
0.0
  0
SOLID
  5
574
330
29E
100
AcDbEntity
  8
DIM
 62
     0
100
AcDbTrace
 10
22.180105
 20
30.39910356974971
 30
0.0
 11
22.180105
 21
30.21910356974971
 31
0.0
 12
22.72010499999999
 22
30.3091035697497
 32
0.0
 13
22.72010499999999
 23
30.3091035697497
 33
0.0
  0
SOLID
  5
575
330
29E
100
AcDbEntity
  8
DIM
 62
     0
100
AcDbTrace
 10
4.260105
 20
30.39910356974971
 30
0.0
 11
4.260105
 21
30.21910356974971
 31
0.0
 12
3.720105
 22
30.3091035697497
 32
0.0
 13
3.720105
 23
30.3091035697497
 33
0.0
  0
MTEXT
  5
576
330
29E
100
AcDbEntity
  8
DIM
 62
     0
100
AcDbMText
 10
13.220105
 20
30.3091035697497
 30
0.0
 40
0.375
 41
0.0
 71
     5
 72
     1
  1
\A1;19.00 [482.6]
  7
TXT
 73
     1
 44
1.0
  0
POINT
  5
577
330
29E
100
AcDbEntity
  8
DEFPOINTS
 62
     0
100
AcDbPoint
 10
22.72010499999999
 20
29.50810356974971
 30
0.0
  0
POINT
  5
578
330
29E
100
AcDbEntity
  8
DEFPOINTS
 62
     0
100
AcDbPoint
 10
3.720105
 20
29.50810356974971
 30
0.0
  0
POINT
  5
579
330
29E
100
AcDbEntity
  8
DEFPOINTS
 62
     0
100
AcDbPoint
 10
3.720105
 20
30.3091035697497
 30
0.0
  0
ENDBLK
  5
2AA
330
29E
100
AcDbEntity
  8
0
100
AcDbBlockEnd
  0
BLOCK
  5
363
330
358
100
AcDbEntity
  8
0
100
AcDbBlockBegin
  2
*D18
 70
     1
 10
0.0
 20
0.0
 30
0.0
  3
*D18
  1

  0
LINE
  5
7BD
330
358
100
AcDbEntity
  8
DIM
 62
     0
370
    -2
100
AcDbLine
 10
19.19676499999999
 20
13.44996378763365
 30
0.0
 11
19.19676499999999
 21
17.08399678763365
 31
0.0
  0
LINE
  5
7BE
330
358
100
AcDbEntity
  8
DIM
 62
     0
370
    -2
100
AcDbLine
 10
17.040765
 20
14.38596378763365
 30
0.0
 11
17.040765
 21
17.08399678763365
 31
0.0
  0
LINE
  5
7BF
330
358
100
AcDbEntity
  8
DIM
 62
     0
370
    -2
100
AcDbLine
 10
16.500765
 20
16.80499678763365
 30
0.0
 11
15.960765
 21
16.80499678763365
 31
0.0
  0
LINE
  5
7C0
330
358
100
AcDbEntity
  8
DIM
 62
     0
370
    -2
100
AcDbLine
 10
19.73676499999999
 20
16.80499678763365
 30
0.0
 11
20.276765
 21
16.80499678763365
 31
0.0
  0
SOLID
  5
7C1
330
358
100
AcDbEntity
  8
DIM
 62
     0
100
AcDbTrace
 10
16.500765
 20
16.89499678763365
 30
0.0
 11
16.500765
 21
16.71499678763365
 31
0.0
 12
17.040765
 22
16.80499678763365
 32
0.0
 13
17.040765
 23
16.80499678763365
 33
0.0
  0
SOLID
  5
7C2
330
358
100
AcDbEntity
  8
DIM
 62
     0
100
AcDbTrace
 10
19.73676499999999
 20
16.89499678763365
 30
0.0
 11
19.73676499999999
 21
16.71499678763365
 31
0.0
 12
19.19676499999999
 22
16.80499678763365
 32
0.0
 13
19.19676499999999
 23
16.80499678763365
 33
0.0
  0
MTEXT
  5
7C3
330
358
100
AcDbEntity
  8
DIM
 62
     0
100
AcDbMText
 10
21.9764525
 20
16.80499678763365
 30
0.0
 40
0.375
 41
0.0
 71
     5
 72
     1
  1
\A1;* 0.53 [13.5]
  7
TXT
 73
     1
 44
1.0
  0
POINT
  5
7C4
330
358
100
AcDbEntity
  8
DEFPOINTS
 62
     0
100
AcDbPoint
 10
19.19676499999999
 20
13.26096378763365
 30
0.0
  0
POINT
  5
7C5
330
358
100
AcDbEntity
  8
DEFPOINTS
 62
     0
100
AcDbPoint
 10
17.040765
 20
14.19696378763365
 30
0.0
  0
POINT
  5
7C6
330
358
100
AcDbEntity
  8
DEFPOINTS
 62
     0
100
AcDbPoint
 10
17.040765
 20
16.80499678763365
 30
0.0
  0
ENDBLK
  5
364
330
358
100
AcDbEntity
  8
0
100
AcDbBlockEnd
  0
ENDSEC
  0
SECTION
  2
ENTITIES
  0
LINE
  5
133
330
1E
100
AcDbEntity
  8
TITLE
100
AcDbLine
 10
30.174
 20
0.8100000000000001
 30
0.0
 11
0.186
 21
0.8100000000000001
 31
0.0
  0
LINE
  5
134
330
1E
100
AcDbEntity
  8
TITLE
100
AcDbLine
 10
30.174
 20
1.434
 30
0.0
 11
0.186
 21
1.434
 31
0.0
  0
LINE
  5
135
330
1E
100
AcDbEntity
  8
TITLE
100
AcDbLine
 10
30.174
 20
2.058
 30
0.0
 11
0.186
 21
2.058
 31
0.0
  0
LINE
  5
136
330
1E
100
AcDbEntity
  8
TITLE
100
AcDbLine
 10
30.174
 20
2.681999999999999
 30
0.0
 11
0.186
 21
2.681999999999999
 31
0.0
  0
LINE
  5
137
330
1E
100
AcDbEntity
  8
TITLE
100
AcDbLine
 10
30.174
 20
3.306
 30
0.0
 11
0.186
 21
3.306
 31
0.0
  0
LINE
  5
138
330
1E
100
AcDbEntity
  8
TITLE
100
AcDbLine
 10
30.174
 20
3.93
 30
0.0
 11
0.186
 21
3.93
 31
0.0
  0
LINE
  5
139
330
1E
100
AcDbEntity
  8
TITLE
100
AcDbLine
 10
30.174
 20
4.553999999999999
 30
0.0
 11
0.186
 21
4.553999999999999
 31
0.0
  0
LINE
  5
13A
330
1E
100
AcDbEntity
  8
TITLE
100
AcDbLine
 10
30.174
 20
5.177999999999999
 30
0.0
 11
0.186
 21
5.177999999999999
 31
0.0
  0
LINE
  5
13B
330
1E
100
AcDbEntity
  8
TITLE
100
AcDbLine
 10
30.174
 20
5.802
 30
0.0
 11
0.186
 21
5.802
 31
0.0
  0
LINE
  5
13C
330
1E
100
AcDbEntity
  8
TITLE
100
AcDbLine
 10
30.174
 20
6.426
 30
0.0
 11
0.186
 21
6.426
 31
0.0
  0
LINE
  5
13D
330
1E
100
AcDbEntity
  8
TITLE
100
AcDbLine
 10
30.174
 20
7.049999999999999
 30
0.0
 11
0.186
 21
7.049999999999999
 31
0.0
  0
LINE
  5
13E
330
1E
100
AcDbEntity
  8
TITLE
100
AcDbLine
 10
30.174
 20
7.673999999999999
 30
0.0
 11
0.186
 21
7.673999999999999
 31
0.0
  0
LINE
  5
13F
330
1E
100
AcDbEntity
  8
TITLE
100
AcDbLine
 10
30.174
 20
8.298
 30
0.0
 11
0.186
 21
8.298
 31
0.0
  0
TEXT
  5
146
330
1E
100
AcDbEntity
  8
TEXT
100
AcDbText
 10
1.628026648850718
 20
7.7985
 30
0.0
 40
0.375
  1
PART NO.
 41
0.75
  7
TXT
 72
     4
 11
2.612401648850718
 21
7.986
 31
0.0
100
AcDbText
  0
TEXT
  5
148
330
1E
100
AcDbEntity
  8
TEXT
100
AcDbText
 10
12.14538819238728
 20
7.7985
 30
0.0
 40
0.375
  1
TYPE
 41
0.75
  7
TXT
 72
     4
 11
12.66101319238728
 21
7.986
 31
0.0
100
AcDbText
  0
TEXT
  5
149
330
1E
100
AcDbEntity
  8
TEXT
100
AcDbText
 10
17.70446854075754
 20
7.7985
 30
0.0
 40
0.375
  1
A
 41
0.75
  7
TXT
 72
     4
 11
17.79821854075755
 21
7.986
 31
0.0
100
AcDbText
  0
TEXT
  5
14A
330
1E
100
AcDbEntity
  8
TEXT
100
AcDbText
 10
22.597900875048
 20
7.7985
 30
0.0
 40
0.375
  1
B
 41
0.75
  7
TXT
 72
     4
 11
22.691650875048
 21
7.986
 31
0.0
100
AcDbText
  0
TEXT
  5
14B
330
1E
100
AcDbEntity
  8
TEXT
100
AcDbText
 10
27.61321951546931
 20
7.7985
 30
0.0
 40
0.375
  1
C
 41
0.75
  7
TXT
 72
     4
 11
27.70696951546931
 21
7.986
 31
0.0
100
AcDbText
  0
TEXT
  5
14C
330
1E
100
AcDbEntity
  8
TEXT
100
AcDbText
 10
1.838964148850718
 20
7.1735
 30
0.0
 40
0.375
  1
PA-1101
 41
0.75
  7
TXT
 72
     4
 11
2.612401648850718
 21
7.361
 31
0.0
100
AcDbText
  0
TEXT
  5
14D
330
1E
100
AcDbEntity
  8
TEXT
100
AcDbText
 10
1.792089148850718
 20
6.5485
 30
0.0
 40
0.375
  1
PA-1102
 41
0.75
  7
TXT
 72
     4
 11
2.612401648850718
 21
6.736
 31
0.0
100
AcDbText
  0
TEXT
  5
14E
330
1E
100
AcDbEntity
  8
TEXT
100
AcDbText
 10
1.792089148850718
 20
5.9235
 30
0.0
 40
0.375
  1
PA-1103
 41
0.75
  7
TXT
 72
     4
 11
2.612401648850718
 21
6.111
 31
0.0
100
AcDbText
  0
TEXT
  5
14F
330
1E
100
AcDbEntity
  8
TEXT
100
AcDbText
 10
1.792089148850718
 20
5.2985
 30
0.0
 40
0.375
  1
PA-1104
 41
0.75
  7
TXT
 72
     4
 11
2.612401648850718
 21
5.486
 31
0.0
100
AcDbText
  0
TEXT
  5
150
330
1E
100
AcDbEntity
  8
TEXT
100
AcDbText
 10
1.792089148850718
 20
4.6735
 30
0.0
 40
0.375
  1
PA-1105
 41
0.75
  7
TXT
 72
     4
 11
2.612401648850718
 21
4.861
 31
0.0
100
AcDbText
  0
TEXT
  5
151
330
1E
100
AcDbEntity
  8
TEXT
100
AcDbText
 10
1.792089148850718
 20
4.0485
 30
0.0
 40
0.375
  1
PA-1106
 41
0.75
  7
TXT
 72
     4
 11
2.612401648850718
 21
4.236
 31
0.0
100
AcDbText
  0
TEXT
  5
152
330
1E
100
AcDbEntity
  8
TEXT
100
AcDbText
 10
1.792089148850718
 20
3.4235
 30
0.0
 40
0.375
  1
PA-1107
 41
0.75
  7
TXT
 72
     4
 11
2.612401648850718
 21
3.611
 31
0.0
100
AcDbText
  0
TEXT
  5
153
330
1E
100
AcDbEntity
  8
TEXT
100
AcDbText
 10
1.792089148850718
 20
2.7985
 30
0.0
 40
0.375
  1
PA-1108
 41
0.75
  7
TXT
 72
     4
 11
2.612401648850718
 21
2.986
 31
0.0
100
AcDbText
  0
TEXT
  5
154
330
1E
100
AcDbEntity
  8
TEXT
100
AcDbText
 10
1.792089148850718
 20
2.173499999999999
 30
0.0
 40
0.375
  1
PA-1109
 41
0.75
  7
TXT
 72
     4
 11
2.612401648850718
 21
2.360999999999999
 31
0.0
100
AcDbText
  0
TEXT
  5
155
330
1E
100
AcDbEntity
  8
TEXT
100
AcDbText
 10
1.838964148850718
 20
1.548499999999999
 30
0.0
 40
0.375
  1
PA-1110
 41
0.75
  7
TXT
 72
     4
 11
2.612401648850718
 21
1.735999999999999
 31
0.0
100
AcDbText
  0
TEXT
  5
156
330
1E
100
AcDbEntity
  8
TEXT
100
AcDbText
 10
1.862401648850718
 20
0.9234999999999997
 30
0.0
 40
0.375
  1
PA-1111
 41
0.75
  7
TXT
 72
     4
 11
2.612401648850718
 21
1.110999999999999
 31
0.0
100
AcDbText
  0
TEXT
  5
157
330
1E
100
AcDbEntity
  8
TEXT
100
AcDbText
 10
1.815526648850718
 20
0.2985
 30
0.0
 40
0.375
  1
PA-1112
 41
0.75
  7
TXT
 72
     4
 11
2.612401648850718
 21
0.486
 31
0.0
100
AcDbText
  0
TEXT
  5
16F
330
1E
100
AcDbEntity
  8
TEXT
100
AcDbText
 10
12.56726319238728
 20
7.1735
 30
0.0
 40
0.375
  1
A
 41
0.75
  7
TXT
 72
     4
 11
12.66101319238728
 21
7.361
 31
0.0
100
AcDbText
  0
TEXT
  5
170
330
1E
100
AcDbEntity
  8
TEXT
100
AcDbText
 10
12.56726319238728
 20
6.5485
 30
0.0
 40
0.375
  1
A
 41
0.75
  7
TXT
 72
     4
 11
12.66101319238728
 21
6.736
 31
0.0
100
AcDbText
  0
TEXT
  5
171
330
1E
100
AcDbEntity
  8
TEXT
100
AcDbText
 10
12.56726319238728
 20
5.9235
 30
0.0
 40
0.375
  1
B
 41
0.75
  7
TXT
 72
     4
 11
12.66101319238728
 21
6.111
 31
0.0
100
AcDbText
  0
TEXT
  5
172
330
1E
100
AcDbEntity
  8
TEXT
100
AcDbText
 10
12.56726319238728
 20
5.2985
 30
0.0
 40
0.375
  1
B
 41
0.75
  7
TXT
 72
     4
 11
12.66101319238728
 21
5.486
 31
0.0
100
AcDbText
  0
TEXT
  5
173
330
1E
100
AcDbEntity
  8
TEXT
100
AcDbText
 10
12.56726319238728
 20
4.6735
 30
0.0
 40
0.375
  1
B
 41
0.75
  7
TXT
 72
     4
 11
12.66101319238728
 21
4.861
 31
0.0
100
AcDbText
  0
TEXT
  5
174
330
1E
100
AcDbEntity
  8
TEXT
100
AcDbText
 10
12.56726319238728
 20
4.0485
 30
0.0
 40
0.375
  1
C
 41
0.75
  7
TXT
 72
     4
 11
12.66101319238728
 21
4.236
 31
0.0
100
AcDbText
  0
TEXT
  5
175
330
1E
100
AcDbEntity
  8
TEXT
100
AcDbText
 10
12.56726319238728
 20
3.4235
 30
0.0
 40
0.375
  1
C
 41
0.75
  7
TXT
 72
     4
 11
12.66101319238728
 21
3.611
 31
0.0
100
AcDbText
  0
TEXT
  5
176
330
1E
100
AcDbEntity
  8
TEXT
100
AcDbText
 10
12.56726319238728
 20
2.7985
 30
0.0
 40
0.375
  1
C
 41
0.75
  7
TXT
 72
     4
 11
12.66101319238728
 21
2.986
 31
0.0
100
AcDbText
  0
TEXT
  5
177
330
1E
100
AcDbEntity
  8
TEXT
100
AcDbText
 10
12.56726319238728
 20
2.173499999999999
 30
0.0
 40
0.375
  1
C
 41
0.75
  7
TXT
 72
     4
 11
12.66101319238728
 21
2.360999999999999
 31
0.0
100
AcDbText
  0
TEXT
  5
178
330
1E
100
AcDbEntity
  8
TEXT
100
AcDbText
 10
12.56726319238728
 20
1.548499999999999
 30
0.0
 40
0.375
  1
C
 41
0.75
  7
TXT
 72
     4
 11
12.66101319238728
 21
1.735999999999999
 31
0.0
100
AcDbText
  0
TEXT
  5
179
330
1E
100
AcDbEntity
  8
TEXT
100
AcDbText
 10
12.56726319238728
 20
0.9234999999999997
 30
0.0
 40
0.375
  1
C
 41
0.75
  7
TXT
 72
     4
 11
12.66101319238728
 21
1.110999999999999
 31
0.0
100
AcDbText
  0
TEXT
  5
17A
330
1E
100
AcDbEntity
  8
TEXT
100
AcDbText
 10
12.56726319238728
 20
0.2984999999999998
 30
0.0
 40
0.375
  1
C
 41
0.75
  7
TXT
 72
     4
 11
12.66101319238728
 21
0.4859999999999998
 31
0.0
100
AcDbText
  0
TEXT
  5
17B
330
1E
100
AcDbEntity
  8
TEXT
100
AcDbText
 10
16.62634354075755
 20
7.1735
 30
0.0
 40
0.375
  1
1.72 [43.6]
 41
0.75
  7
TXT
 72
     4
 11
17.79821854075755
 21
7.361
 31
0.0
100
AcDbText
  0
TEXT
  5
17C
330
1E
100
AcDbEntity
  8
TEXT
100
AcDbText
 10
16.62634354075755
 20
6.5485
 30
0.0
 40
0.375
  1
3.47 [88.1]
 41
0.75
  7
TXT
 72
     4
 11
17.79821854075755
 21
6.736
 31
0.0
100
AcDbText
  0
TEXT
  5
17D
330
1E
100
AcDbEntity
  8
TEXT
100
AcDbText
 10
16.48571854075755
 20
5.9235
 30
0.0
 40
0.375
  1
5.22 [132.5]
 41
0.75
  7
TXT
 72
     4
 11
17.79821854075755
 21
6.111
 31
0.0
100
AcDbText
  0
TEXT
  5
17E
330
1E
100
AcDbEntity
  8
TEXT
100
AcDbText
 10
16.50915604075755
 20
5.2985
 30
0.0
 40
0.375
  1
6.97 [177.0]
 41
0.75
  7
TXT
 72
     4
 11
17.79821854075755
 21
5.486
 31
0.0
100
AcDbText
  0
TEXT
  5
17F
330
1E
100
AcDbEntity
  8
TEXT
100
AcDbText
 10
16.48571854075755
 20
4.6735
 30
0.0
 40
0.375
  1
8.72 [221.4]
 41
0.75
  7
TXT
 72
     4
 11
17.79821854075755
 21
4.861
 31
0.0
100
AcDbText
  0
TEXT
  5
180
330
1E
100
AcDbEntity
  8
TEXT
100
AcDbText
 10
16.36853104075755
 20
4.0485
 30
0.0
 40
0.375
  1
10.47 [265.9]
 41
0.75
  7
TXT
 72
     4
 11
17.79821854075755
 21
4.236
 31
0.0
100
AcDbText
  0
TEXT
  5
181
330
1E
100
AcDbEntity
  8
TEXT
100
AcDbText
 10
16.41540604075754
 20
3.4235
 30
0.0
 40
0.375
  1
12.22 [310.3]
 41
0.75
  7
TXT
 72
     4
 11
17.79821854075755
 21
3.611
 31
0.0
100
AcDbText
  0
TEXT
  5
182
330
1E
100
AcDbEntity
  8
TEXT
100
AcDbText
 10
16.34509354075754
 20
2.7985
 30
0.0
 40
0.375
  1
13.97 [354.8]
 41
0.75
  7
TXT
 72
     4
 11
17.79821854075755
 21
2.986
 31
0.0
100
AcDbText
  0
TEXT
  5
183
330
1E
100
AcDbEntity
  8
TEXT
100
AcDbText
 10
16.34509354075754
 20
2.173499999999999
 30
0.0
 40
0.375
  1
15.72 [399.2]
 41
0.75
  7
TXT
 72
     4
 11
17.79821854075755
 21
2.360999999999999
 31
0.0
100
AcDbText
  0
TEXT
  5
184
330
1E
100
AcDbEntity
  8
TEXT
100
AcDbText
 10
16.34509354075754
 20
1.548499999999999
 30
0.0
 40
0.375
  1
17.47 [443.7]
 41
0.75
  7
TXT
 72
     4
 11
17.79821854075755
 21
1.735999999999999
 31
0.0
100
AcDbText
  0
TEXT
  5
185
330
1E
100
AcDbEntity
  8
TEXT
100
AcDbText
 10
16.39196854075755
 20
0.9234999999999997
 30
0.0
 40
0.375
  1
19.22 [488.1]
 41
0.75
  7
TXT
 72
     4
 11
17.79821854075755
 21
1.110999999999999
 31
0.0
100
AcDbText
  0
TEXT
  5
186
330
1E
100
AcDbEntity
  8
TEXT
100
AcDbText
 10
16.32165604075755
 20
0.2984999999999998
 30
0.0
 40
0.375
  1
20.97 [532.6]
 41
0.75
  7
TXT
 72
     4
 11
17.79821854075755
 21
0.4859999999999998
 31
0.0
100
AcDbText
  0
TEXT
  5
187
330
1E
100
AcDbEntity
  8
TEXT
100
AcDbText
 10
22.199463375048
 20
7.1735
 30
0.0
 40
0.375
  1
1.250
 41
0.75
  7
TXT
 72
     4
 11
22.691650875048
 21
7.361
 31
0.0
100
AcDbText
  0
TEXT
  5
18A
330
1E
100
AcDbEntity
  8
TEXT
100
AcDbText
 10
21.496338375048
 20
5.2985
 30
0.0
 40
0.375
  1
4.00 [101.6]
 41
0.75
  7
TXT
 72
     4
 11
22.691650875048
 21
5.486
 31
0.0
100
AcDbText
  0
TEXT
  5
18D
330
1E
100
AcDbEntity
  8
TEXT
100
AcDbText
 10
21.496338375048
 20
3.4235
 30
0.0
 40
0.375
  1
3.50 [88.9]
 41
0.75
  7
TXT
 72
     4
 11
22.691650875048
 21
3.611
 31
0.0
100
AcDbText
  0
TEXT
  5
190
330
1E
100
AcDbEntity
  8
TEXT
100
AcDbText
 10
21.496338375048
 20
1.548499999999999
 30
0.0
 40
0.375
  1
4.00 [101.6]
 41
0.75
  7
TXT
 72
     4
 11
22.691650875048
 21
1.735999999999999
 31
0.0
100
AcDbText
  0
TEXT
  5
192
330
1E
100
AcDbEntity
  8
TEXT
100
AcDbText
 10
21.379150875048
 20
0.2984999999999998
 30
0.0
 40
0.375
  1
5.25 [133.4]
 41
0.75
  7
TXT
 72
     4
 11
22.691650875048
 21
0.4859999999999998
 31
0.0
100
AcDbText
  0
TEXT
  5
193
330
1E
100
AcDbEntity
  8
TEXT
100
AcDbText
 10
27.61321951546931
 20
7.1735
 30
0.0
 40
0.375
  1
-
 41
0.75
  7
TXT
 72
     4
 11
27.70696951546931
 21
7.361
 31
0.0
100
AcDbText
  0
TEXT
  5
194
330
1E
100
AcDbEntity
  8
TEXT
100
AcDbText
 10
27.61321951546931
 20
6.5485
 30
0.0
 40
0.375
  1
-
 41
0.75
  7
TXT
 72
     4
 11
27.70696951546931
 21
6.736
 31
0.0
100
AcDbText
  0
TEXT
  5
195
330
1E
100
AcDbEntity
  8
TEXT
100
AcDbText
 10
27.61321951546931
 20
5.9235
 30
0.0
 40
0.375
  1
-
 41
0.75
  7
TXT
 72
     4
 11
27.70696951546931
 21
6.111
 31
0.0
100
AcDbText
  0
TEXT
  5
196
330
1E
100
AcDbEntity
  8
TEXT
100
AcDbText
 10
27.61321951546931
 20
5.2985
 30
0.0
 40
0.375
  1
-
 41
0.75
  7
TXT
 72
     4
 11
27.70696951546931
 21
5.486
 31
0.0
100
AcDbText
  0
TEXT
  5
197
330
1E
100
AcDbEntity
  8
TEXT
100
AcDbText
 10
27.61321951546931
 20
4.6735
 30
0.0
 40
0.375
  1
-
 41
0.75
  7
TXT
 72
     4
 11
27.70696951546931
 21
4.861
 31
0.0
100
AcDbText
  0
TEXT
  5
198
330
1E
100
AcDbEntity
  8
TEXT
100
AcDbText
 10
26.53509451546931
 20
4.0485
 30
0.0
 40
0.375
  1
3.00 [76.2]
 41
0.75
  7
TXT
 72
     4
 11
27.70696951546931
 21
4.236
 31
0.0
100
AcDbText
  0
TEXT
  5
199
330
1E
100
AcDbEntity
  8
TEXT
100
AcDbText
 10
26.48821951546931
 20
3.4235
 30
0.0
 40
0.375
  1
2.25 [57.2]
 41
0.75
  7
TXT
 72
     4
 11
27.70696951546931
 21
3.611
 31
0.0
100
AcDbText
  0
TEXT
  5
19A
330
1E
100
AcDbEntity
  8
TEXT
100
AcDbText
 10
26.53509451546931
 20
2.7985
 30
0.0
 40
0.375
  1
3.00 [76.2]
 41
0.75
  7
TXT
 72
     4
 11
27.70696951546931
 21
2.986
 31
0.0
100
AcDbText
  0
TEXT
  5
19B
330
1E
100
AcDbEntity
  8
TEXT
100
AcDbText
 10
26.41790701546931
 20
2.173499999999999
 30
0.0
 40
0.375
  1
4.75 [120.7]
 41
0.75
  7
TXT
 72
     4
 11
27.70696951546931
 21
2.360999999999999
 31
0.0
100
AcDbText
  0
TEXT
  5
19C
330
1E
100
AcDbEntity
  8
TEXT
100
AcDbText
 10
26.46478201546931
 20
1.548499999999999
 30
0.0
 40
0.375
  1
6.50 [165.1]
 41
0.75
  7
TXT
 72
     4
 11
27.70696951546931
 21
1.735999999999999
 31
0.0
100
AcDbText
  0
TEXT
  5
19D
330
1E
100
AcDbEntity
  8
TEXT
100
AcDbText
 10
26.44134451546931
 20
0.9234999999999997
 30
0.0
 40
0.375
  1
5.75 [146.1]
 41
0.75
  7
TXT
 72
     4
 11
27.70696951546931
 21
1.110999999999999
 31
0.0
100
AcDbText
  0
TEXT
  5
19E
330
1E
100
AcDbEntity
  8
TEXT
100
AcDbText
 10
26.44134451546931
 20
0.2984999999999998
 30
0.0
 40
0.375
  1
7.50 [190.5]
 41
0.75
  7
TXT
 72
     4
 11
27.70696951546931
 21
0.4859999999999998
 31
0.0
100
AcDbText
  0
TEXT
  5
19F
330
1E
100
AcDbEntity
  8
TEXT
100
AcDbText
 10
14.448579
 20
9.88554178763365
 30
0.0
 40
0.375
  1
* - THIS DIMENSION APPLIES TO ONLY
 41
0.75
  7
TXT
 11
14.448579
 21
10.07304178763365
 31
0.0
100
AcDbText
 73
     2
  0
TEXT
  5
1A0
330
1E
100
AcDbEntity
  8
TEXT
100
AcDbText
 10
5.428280692748889
 20
45.453
 30
0.0
 40
0.468
  1
RELAY RACK PANELS
 41
0.75
  7
TXT
 72
     4
 11
8.353280692748889
 21
45.68699999999999
 31
0.0
100
AcDbText
  0
INSERT
  5
1A1
330
1E
100
AcDbEntity
  8
TITLE
100
AcDbBlockReference
  2
HB
 10
0.0
 20
0.0
 30
0.0
 41
3.0
 42
3.0
 43
3.0
  0
LINE
  5
1A2
330
1E
100
AcDbEntity
  8
OBJECT
100
AcDbLine
 10
17.040765
 20
14.19696378763365
 30
0.0
 11
21.211508
 21
14.19696378763365
 31
0.0
  0
LINE
  5
1A3
330
1E
100
AcDbEntity
  8
OBJECT
100
AcDbLine
 10
17.040765
 20
11.61692178763365
 30
0.0
 11
17.040765
 21
14.19696378763365
 31
0.0
  0
DIMENSION
  5
1A4
330
1E
100
AcDbEntity
  8
DIM
100
AcDbDimension
  2
*D1
 10
19.19676499999999
 20
15.96199678763365
 30
0.0
 11
21.6952025
 21
15.96199678763365
 31
0.0
 70
   160
  1
<>
 71
     5
 42
0.5389999999999997
  3
23NSTD4
100
AcDbAlignedDimension
 13
17.040765
 23
14.19696378763365
 33
0.0
 14
19.19676499999999
 24
13.26096378763365
 34
0.0
100
AcDbRotatedDimension
  0
DIMENSION
  5
1B2
330
1E
100
AcDbEntity
  8
DIM
100
AcDbDimension
  2
*D2
 10
19.19676499999999
 20
15.11899678763365
 30
0.0
 11
21.62489
 21
15.11899678763365
 31
0.0
 70
    32
  1
<>
 71
     5
 42
0.4059999999999997
  3
23NSTD4
100
AcDbAlignedDimension
 13
17.572765
 23
13.26096378763365
 33
0.0
 14
19.19676499999999
 24
13.26096378763365
 34
0.0
100
AcDbRotatedDimension
  0
DIMENSION
  5
1C0
330
1E
100
AcDbEntity
  8
DIM
100
AcDbDimension
  2
*D3
 10
15.66022029760969
 20
12.70496378763365
 30
0.0
 11
15.66022029760969
 21
13.26096378763365
 31
0.0
 70
    32
  1
<>
 71
     5
 42
0.278
  3
23NSTD4I
100
AcDbAlignedDimension
 13
18.12876499999999
 23
13.81696378763365
 33
0.0
 14
18.12876499999999
 24
12.70496378763365
 34
0.0
 50
90.0
100
AcDbRotatedDimension
  0
TEXT
  5
1CE
330
1E
100
AcDbEntity
  8
TEXT
100
AcDbText
 10
16.8691
 20
10.81172978763365
 30
0.0
 40
0.375
  1
NOTCH DETAIL
 41
0.75
  7
TXT
100
AcDbText
  0
TEXT
  5
1CF
330
1E
100
AcDbEntity
  8
TEXT
100
AcDbText
 10
12.23104249999999
 20
39.6437925697497
 30
0.0
 40
0.375
  1
%%uTYPE "A"
 41
0.75
  7
TXT
 72
     1
 11
13.22010499999999
 21
39.6437925697497
 31
0.0
100
AcDbText
  0
TEXT
  5
1D8
330
1E
100
AcDbEntity
  8
TEXT
100
AcDbText
 10
17.19657910767197
 20
45.44738658885503
 30
0.0
 40
0.468
  1
PA-1101 THRU PA-1112
 41
0.75
  7
TXT
 72
     4
 11
20.26782910767197
 21
45.68138658885503
 31
0.0
100
AcDbText
  0
LINE
  5
1D9
330
1E
100
AcDbEntity
  8
OBJECT
100
AcDbLine
 10
22.72010499999999
 20
32.4534855697497
 30
0.0
 11
3.720105000000003
 21
32.4534855697497
 31
0.0
  0
LINE
  5
1DA
330
1E
100
AcDbEntity
  8
OBJECT
100
AcDbLine
 10
3.720105000000003
 20
37.68748556974971
 30
0.0
 11
22.72010499999999
 21
37.68748556974971
 31
0.0
  0
LINE
  5
1DB
330
1E
100
AcDbEntity
  8
OBJECT
100
AcDbLine
 10
3.720105000000003
 20
32.4534855697497
 30
0.0
 11
3.720105000000003
 21
37.68748556974971
 31
0.0
  0
DIMENSION
  5
1DC
330
1E
100
AcDbEntity
  8
DIM
100
AcDbDimension
  2
*D4
 10
24.08741906220124
 20
32.4534855697497
 30
0.0
 11
24.08741906220123
 21
33.19548556974972
 31
0.0
 70
    32
 71
     5
 42
1.484000000000001
  3
23NSTD
100
AcDbAlignedDimension
 13
22.429105
 23
33.93748556974971
 33
0.0
 14
22.72010499999999
 24
32.4534855697497
 34
0.0
 50
90.0
100
AcDbRotatedDimension
  0
DIMENSION
  5
1EA
330
1E
100
AcDbEntity
  8
DIM
100
AcDbDimension
  2
*D5
 10
27.67266739218254
 20
37.68748556974971
 30
0.0
 11
27.67266739218254
 21
35.07048556974972
 31
0.0
 70
    32
  1
A
 71
     5
 42
5.234000000000001
  3
23NSTD
100
AcDbAlignedDimension
 13
22.72010499999999
 23
32.4534855697497
 33
0.0
 14
22.72010499999999
 24
37.68748556974971
 34
0.0
 50
90.0
100
AcDbRotatedDimension
  0
DIMENSION
  5
1F8
330
1E
100
AcDbEntity
  8
DIM
100
AcDbDimension
  2
*D6
 10
25.76464860072467
 20
33.93748556974971
 30
0.0
 11
25.76464860072467
 21
35.07048556974972
 31
0.0
 70
   160
  1
B
 71
     5
 42
2.265999999999998
  3
23NSTDI
100
AcDbAlignedDimension
 13
22.429105
 23
36.2034855697497
 33
0.0
 14
22.429105
 24
33.93748556974971
 34
0.0
 50
90.0
100
AcDbRotatedDimension
  0
LINE
  5
206
330
1E
100
AcDbEntity
  8
OBJECT
100
AcDbLine
 10
22.72010499999999
 20
37.68748556974971
 30
0.0
 11
22.72010499999999
 21
32.4534855697497
 31
0.0
  0
LINE
  5
207
330
1E
100
AcDbEntity
  8
CENTER
100
AcDbLine
 10
4.011105
 20
42.22379256974971
 30
0.0
 11
4.101105000000003
 21
42.22379256974971
 31
0.0
  0
LINE
  5
208
330
1E
100
AcDbEntity
  8
CENTER
100
AcDbLine
 10
4.056105000000002
 20
42.17879256974971
 30
0.0
 11
4.056105000000002
 21
42.2687925697497
 31
0.0
  0
LINE
  5
209
330
1E
100
AcDbEntity
  8
OBJECT
100
AcDbLine
 10
3.720105000000003
 20
40.72379256974971
 30
0.0
 11
22.72010499999999
 21
40.72379256974971
 31
0.0
  0
LINE
  5
20A
330
1E
100
AcDbEntity
  8
OBJECT
100
AcDbLine
 10
3.720105000000003
 20
42.4577925697497
 30
0.0
 11
22.72010499999999
 21
42.4577925697497
 31
0.0
  0
LINE
  5
20B
330
1E
100
AcDbEntity
  8
OBJECT
100
AcDbLine
 10
3.720105000000003
 20
40.72379256974971
 30
0.0
 11
3.720105000000003
 21
42.4577925697497
 31
0.0
  0
LINE
  5
20C
330
1E
100
AcDbEntity
  8
OBJECT
100
AcDbLine
 10
22.72010499999999
 20
40.72379256974971
 30
0.0
 11
22.72010499999999
 21
42.4577925697497
 31
0.0
  0
DIMENSION
  5
20D
330
1E
100
AcDbEntity
  8
DIM
100
AcDbDimension
  2
*D7
 10
3.720105
 20
43.2587925697497
 30
0.0
 11
13.220105
 21
43.2587925697497
 31
0.0
 70
    32
 71
     5
 42
19.0
  3
23NSTD
100
AcDbAlignedDimension
 13
22.72010499999999
 23
42.4577925697497
 33
0.0
 14
3.720105
 24
42.4577925697497
 34
0.0
 50
180.0
100
AcDbRotatedDimension
  0
DIMENSION
  5
21B
330
1E
100
AcDbEntity
  8
DIM
100
AcDbDimension
  2
*D8
 10
25.76464860072467
 20
40.9577925697497
 30
0.0
 11
25.76464860072467
 21
41.59079256974972
 31
0.0
 70
    32
  1
B
 71
     5
 42
1.266000000000005
  3
23NSTDI
100
AcDbAlignedDimension
 13
22.429105
 23
42.22379256974971
 33
0.0
 14
22.429105
 24
40.9577925697497
 34
0.0
 50
90.0
100
AcDbRotatedDimension
  0
DIMENSION
  5
229
330
1E
100
AcDbEntity
  8
DIM
100
AcDbDimension
  2
*D9
 10
27.67266739218255
 20
40.72379256974971
 30
0.0
 11
27.67266739218254
 21
41.59079256974972
 31
0.0
 70
    32
  1
A
 71
     5
 42
1.733999999999994
  3
23NSTDI
100
AcDbAlignedDimension
 13
22.72010499999999
 23
42.4577925697497
 33
0.0
 14
22.72010499999999
 24
40.72379256974971
 34
0.0
 50
90.0
100
AcDbRotatedDimension
  0
DIMENSION
  5
237
330
1E
100
AcDbEntity
  8
DIM
100
AcDbDimension
  2
*D10
 10
24.08741906220125
 20
40.72379256974971
 30
0.0
 11
22.22273156220124
 21
39.64379256974972
 31
0.0
 70
    32
 71
     5
 42
0.2339999999999947
  3
23NSTD
100
AcDbAlignedDimension
 13
22.429105
 23
40.9577925697497
 33
0.0
 14
22.72010499999999
 24
40.72379256974971
 34
0.0
 50
90.0
100
AcDbRotatedDimension
  0
LINE
  5
245
330
1E
100
AcDbEntity
  8
OBJECT
100
AcDbLine
 10
3.720105000000003
 20
29.50810356974971
 30
0.0
 11
22.72010499999999
 21
29.50810356974971
 31
0.0
  0
LINE
  5
246
330
1E
100
AcDbEntity
  8
OBJECT
100
AcDbLine
 10
22.72010499999999
 20
19.02410356974971
 30
0.0
 11
3.720105000000003
 21
19.02410356974971
 31
0.0
  0
LINE
  5
247
330
1E
100
AcDbEntity
  8
OBJECT
100
AcDbLine
 10
3.720105000000003
 20
19.02410356974971
 30
0.0
 11
3.720105000000003
 21
29.50810356974971
 31
0.0
  0
DIMENSION
  5
248
330
1E
100
AcDbEntity
  8
DIM
100
AcDbDimension
  2
*D11
 10
27.67266739218254
 20
29.5081035697497
 30
0.0
 11
27.67266739218253
 21
24.26610356974971
 31
0.0
 70
    32
  1
A
 71
     5
 42
10.48399999999999
  3
23NSTD
100
AcDbAlignedDimension
 13
22.72010499999999
 23
19.02410356974971
 33
0.0
 14
22.72010499999999
 24
29.50810356974971
 34
0.0
 50
90.0
100
AcDbRotatedDimension
  0
LINE
  5
256
330
1E
100
AcDbEntity
  8
OBJECT
100
AcDbLine
 10
22.72010499999999
 20
29.50810356974971
 30
0.0
 11
22.72010499999999
 21
19.02410356974971
 31
0.0
  0
DIMENSION
  5
257
330
1E
100
AcDbEntity
  8
DIM
100
AcDbDimension
  2
*D12
 10
25.76464860072467
 20
20.5081035697497
 30
0.0
 11
25.76464860072466
 21
21.6331035697497
 31
0.0
 70
   160
  1
B
 71
     5
 42
2.25
  3
23NSTDI
100
AcDbAlignedDimension
 13
22.429105
 23
22.7581035697497
 33
0.0
 14
22.429105
 24
20.5081035697497
 34
0.0
 50
90.0
100
AcDbRotatedDimension
  0
DIMENSION
  5
265
330
1E
100
AcDbEntity
  8
DIM
100
AcDbDimension
  2
*D13
 10
24.08741906220124
 20
19.0241035697497
 30
0.0
 11
24.08741906220123
 21
19.76610356974971
 31
0.0
 70
    32
 71
     5
 42
1.483999999999998
  3
23NSTDI
100
AcDbAlignedDimension
 13
22.429105
 23
20.5081035697497
 33
0.0
 14
22.72010499999999
 24
19.02410356974971
 34
0.0
 50
90.0
100
AcDbRotatedDimension
  0
DIMENSION
  5
273
330
1E
100
AcDbEntity
  8
DIM
100
AcDbDimension
  2
*D14
 10
25.76464860072467
 20
28.0241035697497
 30
0.0
 11
25.76464860072466
 21
26.89910356974971
 31
0.0
 70
   160
  1
B
 71
     5
 42
2.25
  3
23NSTDI
100
AcDbAlignedDimension
 13
22.429105
 23
25.7741035697497
 33
0.0
 14
22.429105
 24
28.0241035697497
 34
0.0
 50
90.0
100
AcDbRotatedDimension
  0
DIMENSION
  5
281
330
1E
100
AcDbEntity
  8
DIM
100
AcDbDimension
  2
*D15
 10
25.76464860072467
 20
22.7581035697497
 30
0.0
 11
25.76464860072466
 21
24.26610356974971
 31
0.0
 70
    32
  1
C
 71
     5
 42
3.016000000000001
  3
23NSTDI
100
AcDbAlignedDimension
 13
22.429105
 23
25.7741035697497
 33
0.0
 14
22.429105
 24
22.7581035697497
 34
0.0
 50
90.0
100
AcDbRotatedDimension
  0
DIMENSION
  5
28F
330
1E
100
AcDbEntity
  8
DIM
100
AcDbDimension
  2
*D16
 10
3.720105
 20
38.4884855697497
 30
0.0
 11
13.220105
 21
38.4884855697497
 31
0.0
 70
    32
 71
     5
 42
19.0
  3
23NSTD
100
AcDbAlignedDimension
 13
22.72010499999999
 23
37.68748556974971
 33
0.0
 14
3.720105
 24
37.68748556974971
 34
0.0
 50
180.0
100
AcDbRotatedDimension
  0
DIMENSION
  5
29D
330
1E
100
AcDbEntity
  8
DIM
100
AcDbDimension
  2
*D17
 10
3.720105
 20
30.3091035697497
 30
0.0
 11
13.220105
 21
30.3091035697497
 31
0.0
 70
    32
 71
     5
 42
19.0
  3
23NSTD
100
AcDbAlignedDimension
 13
22.72010499999999
 23
29.50810356974971
 33
0.0
 14
3.720105
 24
29.50810356974971
 34
0.0
 50
180.0
100
AcDbRotatedDimension
  0
TEXT
  5
2AB
330
1E
100
AcDbEntity
  8
TEXT
100
AcDbText
 10
12.23104249999999
 20
31.3734855697497
 30
0.0
 40
0.375
  1
%%uTYPE "B"
 41
0.75
  7
TXT
 72
     1
 11
13.22010499999999
 21
31.3734855697497
 31
0.0
100
AcDbText
  0
TEXT
  5
2AC
330
1E
100
AcDbEntity
  8
TEXT
100
AcDbText
 10
12.23104249999999
 20
17.9441035697497
 30
0.0
 40
0.375
  1
%%uTYPE "C"
 41
0.75
  7
TXT
 72
     1
 11
13.22010499999999
 21
17.9441035697497
 31
0.0
100
AcDbText
  0
LWPOLYLINE
  5
2AE
330
1E
100
AcDbEntity
  8
OBJECT
100
AcDbPolyline
 90
        4
 70
     1
 43
0.0
 10
4.120105
 20
42.3627925697497
 10
3.992105
 20
42.3627925697497
 42
1.0
 10
3.992105
 20
42.0847925697497
 10
4.120105
 20
42.0847925697497
 42
1.0
  0
LWPOLYLINE
  5
2B4
330
1E
100
AcDbEntity
  8
OBJECT
100
AcDbPolyline
 90
        4
 70
     1
 43
0.0
 10
4.120105
 20
40.8187925697497
 10
3.992105
 20
40.8187925697497
 42
-1.0
 10
3.992105
 20
41.0967925697497
 10
4.120105
 20
41.0967925697497
 42
-1.0
  0
LINE
  5
2BA
330
1E
100
AcDbEntity
  8
CENTER
100
AcDbLine
 10
4.056105000000002
 20
41.0027925697497
 30
0.0
 11
4.056105000000002
 21
40.91279256974971
 31
0.0
  0
LINE
  5
2BB
330
1E
100
AcDbEntity
  8
CENTER
100
AcDbLine
 10
4.011105
 20
40.9577925697497
 30
0.0
 11
4.101105000000003
 21
40.9577925697497
 31
0.0
  0
LWPOLYLINE
  5
2BC
330
1E
100
AcDbEntity
  8
OBJECT
100
AcDbPolyline
 90
        4
 70
     1
 43
0.0
 10
22.32010499999999
 20
40.8187925697497
 10
22.44810499999999
 20
40.8187925697497
 42
1.0
 10
22.44810499999999
 20
41.0967925697497
 10
22.32010499999999
 20
41.0967925697497
 42
1.0
  0
LINE
  5
2C2
330
1E
100
AcDbEntity
  8
CENTER
100
AcDbLine
 10
22.429105
 20
40.9577925697497
 30
0.0
 11
22.33910499999999
 21
40.9577925697497
 31
0.0
  0
LINE
  5
2C3
330
1E
100
AcDbEntity
  8
CENTER
100
AcDbLine
 10
22.384105
 20
41.0027925697497
 30
0.0
 11
22.384105
 21
40.91279256974971
 31
0.0
  0
LWPOLYLINE
  5
2C4
330
1E
100
AcDbEntity
  8
OBJECT
100
AcDbPolyline
 90
        4
 70
     1
 43
0.0
 10
22.32010499999999
 20
42.3627925697497
 10
22.44810499999999
 20
42.3627925697497
 42
-1.0
 10
22.44810499999999
 20
42.0847925697497
 10
22.32010499999999
 20
42.0847925697497
 42
-1.0
  0
LINE
  5
2CA
330
1E
100
AcDbEntity
  8
CENTER
100
AcDbLine
 10
22.384105
 20
42.17879256974971
 30
0.0
 11
22.384105
 21
42.2687925697497
 31
0.0
  0
LINE
  5
2CB
330
1E
100
AcDbEntity
  8
CENTER
100
AcDbLine
 10
22.429105
 20
42.22379256974971
 30
0.0
 11
22.33910499999999
 21
42.22379256974971
 31
0.0
  0
LWPOLYLINE
  5
2CC
330
1E
100
AcDbEntity
  8
OBJECT
100
AcDbPolyline
 90
        4
 70
     1
 43
0.0
 10
4.120105
 20
36.0644855697497
 10
3.992105
 20
36.0644855697497
 42
-1.0
 10
3.992105
 20
36.3424855697497
 10
4.120105
 20
36.3424855697497
 42
-1.0
  0
LINE
  5
2D2
330
1E
100
AcDbEntity
  8
CENTER
100
AcDbLine
 10
4.011105
 20
36.2034855697497
 30
0.0
 11
4.101105000000003
 21
36.2034855697497
 31
0.0
  0
LINE
  5
2D3
330
1E
100
AcDbEntity
  8
CENTER
100
AcDbLine
 10
4.056105000000002
 20
36.24848556974971
 30
0.0
 11
4.056105000000002
 21
36.1584855697497
 31
0.0
  0
LWPOLYLINE
  5
2D4
330
1E
100
AcDbEntity
  8
OBJECT
100
AcDbPolyline
 90
        4
 70
     1
 43
0.0
 10
4.120105
 20
33.7984855697497
 10
3.992105
 20
33.7984855697497
 42
-1.0
 10
3.992105
 20
34.07648556974971
 10
4.120105
 20
34.07648556974971
 42
-1.0
  0
LINE
  5
2DA
330
1E
100
AcDbEntity
  8
CENTER
100
AcDbLine
 10
4.011105
 20
33.93748556974971
 30
0.0
 11
4.101105000000003
 21
33.93748556974971
 31
0.0
  0
LINE
  5
2DB
330
1E
100
AcDbEntity
  8
CENTER
100
AcDbLine
 10
4.056105000000002
 20
33.9824855697497
 30
0.0
 11
4.056105000000002
 21
33.89248556974971
 31
0.0
  0
LWPOLYLINE
  5
2DC
330
1E
100
AcDbEntity
  8
OBJECT
100
AcDbPolyline
 90
        4
 70
     1
 43
0.0
 10
22.32010499999999
 20
33.7984855697497
 10
22.44810499999999
 20
33.7984855697497
 42
1.0
 10
22.44810499999999
 20
34.07648556974971
 10
22.32010499999999
 20
34.07648556974971
 42
1.0
  0
LINE
  5
2E2
330
1E
100
AcDbEntity
  8
CENTER
100
AcDbLine
 10
22.384105
 20
33.9824855697497
 30
0.0
 11
22.384105
 21
33.89248556974971
 31
0.0
  0
LINE
  5
2E3
330
1E
100
AcDbEntity
  8
CENTER
100
AcDbLine
 10
22.429105
 20
33.93748556974971
 30
0.0
 11
22.33910499999999
 21
33.93748556974971
 31
0.0
  0
LWPOLYLINE
  5
2E4
330
1E
100
AcDbEntity
  8
OBJECT
100
AcDbPolyline
 90
        4
 70
     1
 43
0.0
 10
22.32010499999999
 20
36.0644855697497
 10
22.44810499999999
 20
36.0644855697497
 42
1.0
 10
22.44810499999999
 20
36.3424855697497
 10
22.32010499999999
 20
36.3424855697497
 42
1.0
  0
LINE
  5
2EA
330
1E
100
AcDbEntity
  8
CENTER
100
AcDbLine
 10
22.384105
 20
36.24848556974971
 30
0.0
 11
22.384105
 21
36.1584855697497
 31
0.0
  0
LINE
  5
2EB
330
1E
100
AcDbEntity
  8
CENTER
100
AcDbLine
 10
22.429105
 20
36.2034855697497
 30
0.0
 11
22.33910499999999
 21
36.2034855697497
 31
0.0
  0
LWPOLYLINE
  5
2EC
330
1E
100
AcDbEntity
  8
OBJECT
100
AcDbPolyline
 90
        4
 70
     1
 43
0.0
 10
4.120105
 20
27.8851035697497
 10
3.992105
 20
27.8851035697497
 42
-1.0
 10
3.992105
 20
28.16310356974971
 10
4.120105
 20
28.16310356974971
 42
-1.0
  0
LINE
  5
2F2
330
1E
100
AcDbEntity
  8
CENTER
100
AcDbLine
 10
4.056105000000002
 20
28.0691035697497
 30
0.0
 11
4.056105000000002
 21
27.9791035697497
 31
0.0
  0
LINE
  5
2F3
330
1E
100
AcDbEntity
  8
CENTER
100
AcDbLine
 10
4.011105
 20
28.0241035697497
 30
0.0
 11
4.101105000000003
 21
28.0241035697497
 31
0.0
  0
LWPOLYLINE
  5
2F4
330
1E
100
AcDbEntity
  8
OBJECT
100
AcDbPolyline
 90
        4
 70
     1
 43
0.0
 10
4.120105
 20
25.6351035697497
 10
3.992105
 20
25.6351035697497
 42
-1.0
 10
3.992105
 20
25.9131035697497
 10
4.120105
 20
25.9131035697497
 42
-1.0
  0
LINE
  5
2FA
330
1E
100
AcDbEntity
  8
CENTER
100
AcDbLine
 10
4.011105
 20
25.7741035697497
 30
0.0
 11
4.101105000000003
 21
25.7741035697497
 31
0.0
  0
LINE
  5
2FB
330
1E
100
AcDbEntity
  8
CENTER
100
AcDbLine
 10
4.056105000000002
 20
25.81910356974971
 30
0.0
 11
4.056105000000002
 21
25.7291035697497
 31
0.0
  0
LWPOLYLINE
  5
2FC
330
1E
100
AcDbEntity
  8
OBJECT
100
AcDbPolyline
 90
        4
 70
     1
 43
0.0
 10
4.120105
 20
22.6191035697497
 10
3.992105
 20
22.6191035697497
 42
-1.0
 10
3.992105
 20
22.8971035697497
 10
4.120105
 20
22.8971035697497
 42
-1.0
  0
LWPOLYLINE
  5
302
330
1E
100
AcDbEntity
  8
OBJECT
100
AcDbPolyline
 90
        4
 70
     1
 43
0.0
 10
4.120105
 20
20.3691035697497
 10
3.992105
 20
20.3691035697497
 42
-1.0
 10
3.992105
 20
20.6471035697497
 10
4.120105
 20
20.6471035697497
 42
-1.0
  0
LINE
  5
308
330
1E
100
AcDbEntity
  8
CENTER
100
AcDbLine
 10
4.056105000000002
 20
20.5531035697497
 30
0.0
 11
4.056105000000002
 21
20.4631035697497
 31
0.0
  0
LINE
  5
309
330
1E
100
AcDbEntity
  8
CENTER
100
AcDbLine
 10
4.011105
 20
20.5081035697497
 30
0.0
 11
4.101105000000003
 21
20.5081035697497
 31
0.0
  0
LINE
  5
30A
330
1E
100
AcDbEntity
  8
CENTER
100
AcDbLine
 10
4.011105
 20
22.7581035697497
 30
0.0
 11
4.101105000000003
 21
22.7581035697497
 31
0.0
  0
LINE
  5
30B
330
1E
100
AcDbEntity
  8
CENTER
100
AcDbLine
 10
4.056105000000002
 20
22.8031035697497
 30
0.0
 11
4.056105000000002
 21
22.71310356974971
 31
0.0
  0
LWPOLYLINE
  5
30C
330
1E
100
AcDbEntity
  8
OBJECT
100
AcDbPolyline
 90
        4
 70
     1
 43
0.0
 10
22.32010499999999
 20
20.3691035697497
 10
22.44810499999999
 20
20.3691035697497
 42
1.0
 10
22.44810499999999
 20
20.6471035697497
 10
22.32010499999999
 20
20.6471035697497
 42
1.0
  0
LINE
  5
312
330
1E
100
AcDbEntity
  8
CENTER
100
AcDbLine
 10
22.429105
 20
20.5081035697497
 30
0.0
 11
22.33910499999999
 21
20.5081035697497
 31
0.0
  0
LINE
  5
313
330
1E
100
AcDbEntity
  8
CENTER
100
AcDbLine
 10
22.384105
 20
20.5531035697497
 30
0.0
 11
22.384105
 21
20.4631035697497
 31
0.0
  0
LWPOLYLINE
  5
314
330
1E
100
AcDbEntity
  8
OBJECT
100
AcDbPolyline
 90
        4
 70
     1
 43
0.0
 10
22.32010499999999
 20
22.6191035697497
 10
22.44810499999999
 20
22.6191035697497
 42
1.0
 10
22.44810499999999
 20
22.8971035697497
 10
22.32010499999999
 20
22.8971035697497
 42
1.0
  0
LINE
  5
31A
330
1E
100
AcDbEntity
  8
CENTER
100
AcDbLine
 10
22.384105
 20
22.8031035697497
 30
0.0
 11
22.384105
 21
22.71310356974971
 31
0.0
  0
LINE
  5
31B
330
1E
100
AcDbEntity
  8
CENTER
100
AcDbLine
 10
22.429105
 20
22.7581035697497
 30
0.0
 11
22.33910499999999
 21
22.7581035697497
 31
0.0
  0
LWPOLYLINE
  5
31C
330
1E
100
AcDbEntity
  8
OBJECT
100
AcDbPolyline
 90
        4
 70
     1
 43
0.0
 10
22.32010499999999
 20
27.8851035697497
 10
22.44810499999999
 20
27.8851035697497
 42
1.0
 10
22.44810499999999
 20
28.16310356974971
 10
22.32010499999999
 20
28.16310356974971
 42
1.0
  0
LWPOLYLINE
  5
322
330
1E
100
AcDbEntity
  8
OBJECT
100
AcDbPolyline
 90
        4
 70
     1
 43
0.0
 10
22.32010499999999
 20
25.6351035697497
 10
22.44810499999999
 20
25.6351035697497
 42
1.0
 10
22.44810499999999
 20
25.9131035697497
 10
22.32010499999999
 20
25.9131035697497
 42
1.0
  0
LINE
  5
328
330
1E
100
AcDbEntity
  8
CENTER
100
AcDbLine
 10
22.384105
 20
25.81910356974971
 30
0.0
 11
22.384105
 21
25.7291035697497
 31
0.0
  0
LINE
  5
329
330
1E
100
AcDbEntity
  8
CENTER
100
AcDbLine
 10
22.429105
 20
25.7741035697497
 30
0.0
 11
22.33910499999999
 21
25.7741035697497
 31
0.0
  0
LINE
  5
32A
330
1E
100
AcDbEntity
  8
CENTER
100
AcDbLine
 10
22.429105
 20
28.0241035697497
 30
0.0
 11
22.33910499999999
 21
28.0241035697497
 31
0.0
  0
LINE
  5
32B
330
1E
100
AcDbEntity
  8
CENTER
100
AcDbLine
 10
22.384105
 20
28.0691035697497
 30
0.0
 11
22.384105
 21
27.9791035697497
 31
0.0
  0
LWPOLYLINE
  5
32C
330
1E
100
AcDbEntity
  8
OBJECT
100
AcDbPolyline
 90
        4
 70
     1
 43
0.0
 10
18.64076499999999
 20
13.81696378763365
 10
18.12876499999999
 20
13.81696378763365
 42
1.0
 10
18.12876499999999
 20
12.70496378763365
 10
18.64076499999999
 20
12.70496378763365
 42
1.0
  0
LINE
  5
332
330
1E
100
AcDbEntity
  8
CENTER
100
AcDbLine
 10
18.38476499999999
 20
13.08096378763365
 30
0.0
 11
18.38476499999999
 21
13.44096378763365
 31
0.0
  0
LINE
  5
333
330
1E
100
AcDbEntity
  8
CENTER
100
AcDbLine
 10
18.20476499999999
 20
13.26096378763365
 30
0.0
 11
18.56476499999999
 21
13.26096378763365
 31
0.0
  0
LWPOLYLINE
  5
334
330
1E
100
AcDbEntity
  8
OBJECT
100
AcDbPolyline
 90
       31
 70
     0
 43
0.0
 10
21.211508
 20
14.19696378763365
 10
20.977201
 20
13.93443778763365
 10
20.794811
 20
13.70597178763365
 10
20.65605199999999
 20
13.50909878763365
 10
20.552641
 20
13.34135078763365
 10
20.476292
 20
13.20025778763365
 10
20.41872
 20
13.08335278763365
 10
20.371642
 20
12.98816778763365
 10
20.326772
 20
12.91223378763365
 10
20.277388
 20
12.85294178763365
 10
20.223012
 20
12.80712078763365
 10
20.16472999999999
 20
12.77146078763365
 10
20.10362699999999
 20
12.74265078763365
 10
20.04078799999999
 20
12.71737778763365
 10
19.977297
 20
12.69233178763365
 10
19.914241
 20
12.66420178763365
 10
19.852704
 20
12.62967578763365
 10
19.793414
 20
12.58639478763365
 10
19.735672
 20
12.53580278763365
 10
19.678422
 20
12.48029678763365
 10
19.62060799999999
 20
12.42227378763365
 10
19.56117399999999
 20
12.36412978763365
 10
19.499063
 20
12.30826178763365
 10
19.433219
 20
12.25706478763365
 10
19.36258699999999
 20
12.21293678763365
 10
19.28653299999999
 20
12.17750978763365
 10
19.206122
 20
12.14935878763365
 10
19.122838
 20
12.12629478763365
 10
19.03816899999999
 20
12.10613078763365
 10
18.953602
 20
12.08667778763365
 10
17.040765
 20
11.61692178763365
  0
DIMENSION
  5
357
330
1E
100
AcDbEntity
  8
DIM
100
AcDbDimension
  2
*D18
 10
17.040765
 20
16.80499678763365
 30
0.0
 11
21.9764525
 21
16.80499678763365
 31
0.0
 70
   160
  1
* 0.53 [13.5]
 71
     5
 42
2.155999999999998
  3
23NSTD
100
AcDbAlignedDimension
 13
19.19676499999999
 23
13.26096378763365
 33
0.0
 14
17.040765
 24
14.19696378763365
 34
0.0
100
AcDbRotatedDimension
  0
TEXT
  5
365
330
1E
100
AcDbEntity
  8
DIM
100
AcDbText
 10
23.10332207095587
 20
15.77449678763365
 30
0.0
 40
0.375
  1
(ALL OTHERS)
 41
0.75
  7
TXT
 11
23.10332207095587
 21
15.96199678763365
 31
0.0
100
AcDbText
 73
     2
  0
TEXT
  5
366
330
1E
100
AcDbEntity
  8
TEXT
100
AcDbText
 10
15.86649099999999
 20
9.27841678763365
 30
0.0
 40
0.375
  1
PA-1101 & PA-1102
 41
0.75
  7
TXT
 11
15.86649099999999
 21
9.46591678763365
 31
0.0
100
AcDbText
 73
     2
  0
TEXT
  5
368
330
1E
100
AcDbEntity
  8
TEXT
100
AcDbText
 10
4.473571999999999
 20
12.26527261568044
 30
0.0
 40
0.375
  1
WHITE TEXTURE
 41
0.75
  7
TXT
100
AcDbText
  0
TEXT
  5
369
330
1E
100
AcDbEntity
  8
TEXT
100
AcDbText
 10
2.63404
 20
12.89027261568044
 30
0.0
 40
0.375
  1
FINISH: METALLIC GRAY
 41
0.75
  7
TXT
100
AcDbText
  0
TEXT
  5
36A
330
1E
100
AcDbEntity
  8
TEXT
100
AcDbText
 10
2.63404
 20
13.51627261568044
 30
0.0
 40
0.375
  1
MATERIAL: 0.13 [3.2] THK. ALUMINUM
 41
0.75
  7
TXT
100
AcDbText
  0
TEXT
  5
36C
330
1E
100
AcDbEntity
  8
TEXT
100
AcDbText
 10
4.473571999999999
 20
11.65814761568044
 30
0.0
 40
0.375
  1
BLACK TEXTURE
 41
0.75
  7
TXT
100
AcDbText
  0
LINE
  5
376
330
1E
100
AcDbEntity
  8
TEXT
100
AcDbLine
 10
0.186
 20
8.298
 30
0.0
 11
0.186
 21
0.186
 31
0.0
  0
LINE
  5
377
330
1E
100
AcDbEntity
  8
TEXT
100
AcDbLine
 10
5.184
 20
8.298
 30
0.0
 11
5.184
 21
0.186
 31
0.0
  0
LINE
  5
378
330
1E
100
AcDbEntity
  8
TEXT
100
AcDbLine
 10
10.18199999999999
 20
8.298
 30
0.0
 11
10.182
 21
0.186
 31
0.0
  0
LINE
  5
379
330
1E
100
AcDbEntity
  8
TEXT
100
AcDbLine
 10
15.17999999999999
 20
8.298
 30
0.0
 11
15.17999999999999
 21
0.186
 31
0.0
  0
LINE
  5
37A
330
1E
100
AcDbEntity
  8
TEXT
100
AcDbLine
 10
20.178
 20
8.298
 30
0.0
 11
20.178
 21
0.186
 31
0.0
  0
LINE
  5
37B
330
1E
100
AcDbEntity
  8
TEXT
100
AcDbLine
 10
25.176
 20
8.298
 30
0.0
 11
25.176
 21
0.186
 31
0.0
  0
TEXT
  5
37E
330
1E
100
AcDbEntity
  8
TEXT
100
AcDbText
 10
7.334888192387282
 20
0.2984999999999998
 30
0.0
 40
0.375
  1
12U
 41
0.75
  7
TXT
 72
     4
 11
7.663013192387282
 21
0.4859999999999998
 31
0.0
100
AcDbText
  0
TEXT
  5
37F
330
1E
100
AcDbEntity
  8
TEXT
100
AcDbText
 10
7.381763192387282
 20
0.9234999999999997
 30
0.0
 40
0.375
  1
11U
 41
0.75
  7
TXT
 72
     4
 11
7.663013192387282
 21
1.110999999999999
 31
0.0
100
AcDbText
  0
TEXT
  5
380
330
1E
100
AcDbEntity
  8
TEXT
100
AcDbText
 10
6.538013192387282
 20
7.7985
 30
0.0
 40
0.375
  1
E.I.A. UNIT
 41
0.75
  7
TXT
 72
     4
 11
7.663013192387282
 21
7.986
 31
0.0
100
AcDbText
  0
TEXT
  5
381
330
1E
100
AcDbEntity
  8
TEXT
100
AcDbText
 10
7.428638192387282
 20
2.173499999999999
 30
0.0
 40
0.375
  1
9U
 41
0.75
  7
TXT
 72
     4
 11
7.663013192387282
 21
2.360999999999999
 31
0.0
100
AcDbText
  0
TEXT
  5
382
330
1E
100
AcDbEntity
  8
TEXT
100
AcDbText
 10
7.358325692387282
 20
1.548499999999999
 30
0.0
 40
0.375
  1
10U
 41
0.75
  7
TXT
 72
     4
 11
7.663013192387282
 21
1.735999999999999
 31
0.0
100
AcDbText
  0
TEXT
  5
383
330
1E
100
AcDbEntity
  8
TEXT
100
AcDbText
 10
7.428638192387282
 20
2.7985
 30
0.0
 40
0.375
  1
8U
 41
0.75
  7
TXT
 72
     4
 11
7.663013192387282
 21
2.986
 31
0.0
100
AcDbText
  0
TEXT
  5
384
330
1E
100
AcDbEntity
  8
TEXT
100
AcDbText
 10
7.428638192387282
 20
4.0485
 30
0.0
 40
0.375
  1
6U
 41
0.75
  7
TXT
 72
     4
 11
7.663013192387282
 21
4.236
 31
0.0
100
AcDbText
  0
TEXT
  5
385
330
1E
100
AcDbEntity
  8
TEXT
100
AcDbText
 10
7.428638192387282
 20
3.4235
 30
0.0
 40
0.375
  1
7U
 41
0.75
  7
TXT
 72
     4
 11
7.663013192387282
 21
3.611
 31
0.0
100
AcDbText
  0
TEXT
  5
386
330
1E
100
AcDbEntity
  8
TEXT
100
AcDbText
 10
7.428638192387282
 20
4.6735
 30
0.0
 40
0.375
  1
5U
 41
0.75
  7
TXT
 72
     4
 11
7.663013192387282
 21
4.861
 31
0.0
100
AcDbText
  0
TEXT
  5
387
330
1E
100
AcDbEntity
  8
TEXT
100
AcDbText
 10
7.428638192387282
 20
6.5485
 30
0.0
 40
0.375
  1
2U
 41
0.75
  7
TXT
 72
     4
 11
7.663013192387282
 21
6.736
 31
0.0
100
AcDbText
  0
TEXT
  5
388
330
1E
100
AcDbEntity
  8
TEXT
100
AcDbText
 10
7.428638192387282
 20
5.9235
 30
0.0
 40
0.375
  1
3U
 41
0.75
  7
TXT
 72
     4
 11
7.663013192387282
 21
6.111
 31
0.0
100
AcDbText
  0
TEXT
  5
389
330
1E
100
AcDbEntity
  8
TEXT
100
AcDbText
 10
7.428638192387282
 20
5.2985
 30
0.0
 40
0.375
  1
4U
 41
0.75
  7
TXT
 72
     4
 11
7.663013192387282
 21
5.486
 31
0.0
100
AcDbText
  0
TEXT
  5
38A
330
1E
100
AcDbEntity
  8
TEXT
100
AcDbText
 10
7.475513192387282
 20
7.1735
 30
0.0
 40
0.375
  1
1U
 41
0.75
  7
TXT
 72
     4
 11
7.663013192387282
 21
7.361
 31
0.0
100
AcDbText
  0
TEXT
  5
45C
330
1E
100
AcDbEntity
  8
TEXT
100
AcDbText
 10
27.7063796390052
 20
45.44738658885503
 30
0.0
 40
0.468
  1
7-8-13
 41
0.75
  7
TXT
 72
     4
 11
28.6423796390052
 21
45.68138658885503
 31
0.0
100
AcDbText
  0
TEXT
  5
7E2
330
1E
100
AcDbEntity
  8
TEXT
100
AcDbText
 10
21.379150875048
 20
0.9224999999999997
 30
0.0
 40
0.375
  1
5.25 [133.4]
 41
0.75
  7
TXT
 72
     4
 11
22.691650875048
 21
1.109999999999999
 31
0.0
100
AcDbText
  0
TEXT
  5
7E3
330
1E
100
AcDbEntity
  8
TEXT
100
AcDbText
 10
21.496338375048
 20
2.172499999999999
 30
0.0
 40
0.375
  1
4.00 [101.6]
 41
0.75
  7
TXT
 72
     4
 11
22.691650875048
 21
2.359999999999999
 31
0.0
100
AcDbText
  0
TEXT
  5
7E4
330
1E
100
AcDbEntity
  8
TEXT
100
AcDbText
 10
21.496338375048
 20
2.796499999999999
 30
0.0
 40
0.375
  1
4.00 [101.6]
 41
0.75
  7
TXT
 72
     4
 11
22.691650875048
 21
2.983999999999999
 31
0.0
100
AcDbText
  0
TEXT
  5
7E5
330
1E
100
AcDbEntity
  8
TEXT
100
AcDbText
 10
21.53709451546931
 20
6.544500000000001
 30
0.0
 40
0.375
  1
3.00 [76.2]
 41
0.75
  7
TXT
 72
     4
 11
22.70896951546931
 21
6.732000000000001
 31
0.0
100
AcDbText
  0
TEXT
  5
7E6
330
1E
100
AcDbEntity
  8
TEXT
100
AcDbText
 10
21.4902195154693
 20
5.919500000000001
 30
0.0
 40
0.375
  1
2.25 [57.2]
 41
0.75
  7
TXT
 72
     4
 11
22.70896951546931
 21
6.107000000000001
 31
0.0
100
AcDbText
  0
TEXT
  5
7E7
330
1E
100
AcDbEntity
  8
TEXT
100
AcDbText
 10
21.44334451546931
 20
4.667499999999999
 30
0.0
 40
0.375
  1
5.75 [146.1]
 41
0.75
  7
TXT
 72
     4
 11
22.70896951546931
 21
4.854999999999999
 31
0.0
100
AcDbText
  0
TEXT
  5
7E8
330
1E
100
AcDbEntity
  8
TEXT
100
AcDbText
 10
21.4902195154693
 20
4.047499999999999
 30
0.0
 40
0.375
  1
2.25 [57.2]
 41
0.75
  7
TXT
 72
     4
 11
22.70896951546931
 21
4.234999999999999
 31
0.0
100
AcDbText
  0
INSERT
  5
835
330
1E
100
AcDbEntity
  8
TEXT
100
AcDbBlockReference
  2
HB
 10
0.0
 20
0.0
 30
0.0
 41
3.0
 42
3.0
 43
3.0
  0
ENDSEC
  0
SECTION
  2
OBJECTS
  0
DICTIONARY
  5
C
330
0
100
AcDbDictionary
281
     1
  3
ACAD_GROUP
350
D
  3
ACAD_LAYOUT
350
19
  3
ACAD_MLINESTYLE
350
16
  3
ACAD_PLOTSETTINGS
350
18
  3
ACAD_PLOTSTYLENAME
350
E
  0
DICTIONARY
  5
D
102
{ACAD_REACTORS
330
C
102
}
330
C
100
AcDbDictionary
281
     1
  0
DICTIONARY
  5
19
102
{ACAD_REACTORS
330
C
102
}
330
C
100
AcDbDictionary
281
     1
  3
Layout1
350
1D
  3
Model
350
21
  0
DICTIONARY
  5
16
102
{ACAD_REACTORS
330
C
102
}
330
C
100
AcDbDictionary
281
     1
  3
Standard
350
17
  0
DICTIONARY
  5
18
102
{ACAD_REACTORS
330
C
102
}
330
C
100
AcDbDictionary
281
     1
  0
ACDBDICTIONARYWDFLT
  5
E
102
{ACAD_REACTORS
330
C
102
}
330
C
100
AcDbDictionary
281
     1
  3
Normal
350
F
100
AcDbDictionaryWithDefault
340
F
  0
LAYOUT
  5
1D
102
{ACAD_REACTORS
330
19
102
}
330
19
100
AcDbPlotSettings
  1

  2
None
  4

  6

 40
0.0
 41
0.0
 42
0.0
 43
0.0
 44
0.0
 45
0.0
 46
0.0
 47
0.0
 48
0.0
 49
0.0
140
0.0
141
0.0
142
1.0
143
1.0
 70
   688
 72
     0
 73
     0
 74
     5
  7
monochrome.ctb
 75
    16
147
1.0
148
0.0
149
0.0
100
AcDbLayout
  1
Layout1
 70
     1
 71
     1
 10
0.0
 20
0.0
 11
12.0
 21
9.0
 12
0.0
 22
0.0
 32
0.0
 14
1.000000000000000E+20
 24
1.000000000000000E+20
 34
1.000000000000000E+20
 15
-1.000000000000000E+20
 25
-1.000000000000000E+20
 35
-1.000000000000000E+20
146
0.0
 13
0.0
 23
0.0
 33
0.0
 16
1.0
 26
0.0
 36
0.0
 17
0.0
 27
1.0
 37
0.0
 76
     0
330
1A
  0
LAYOUT
  5
21
102
{ACAD_REACTORS
330
19
102
}
330
19
100
AcDbPlotSettings
  1

  2
RICOH Aficio MP 7001 PCL 5e
  4
Letter
  6

 40
3.174999952316284
 41
3.174999952316284
 42
3.175003051757812
 43
3.17498779296875
 44
215.9000091552734
 45
279.3999938964843
 46
15.74799999999999
 47
0.0
 48
0.0
 49
0.0
140
0.0
141
0.0
142
1.0
143
4.325977292524804
 70
 11956
 72
     0
 73
     0
 74
     1
  7
monochrome.ctb
 75
     0
147
0.2311616387187187
148
0.0352908338593181
149
0.054052166483794
100
AcDbLayout
  1
Model
 70
     1
 71
     0
 10
0.0
 20
0.0
 11
12.0
 21
9.0
 12
0.0
 22
0.0
 32
0.0
 14
0.0
 24
0.0
 34
0.0
 15
0.0
 25
0.0
 35
0.0
146
0.0
 13
0.0
 23
0.0
 33
0.0
 16
1.0
 26
0.0
 36
0.0
 17
0.0
 27
1.0
 37
0.0
 76
     0
330
1E
  0
MLINESTYLE
  5
17
102
{ACAD_REACTORS
330
16
102
}
330
16
100
AcDbMlineStyle
  2
STANDARD
 70
     0
  3

 62
   256
 51
90.0
 52
90.0
 71
     2
 49
0.5
 62
   256
  6
BYLAYER
 49
-0.5
 62
   256
  6
BYLAYER
  0
ACDBPLACEHOLDER
  5
F
102
{ACAD_REACTORS
330
E
102
}
330
E
  0
ENDSEC
  0
EOF
