  0
SECTION
  2
HEADER
  9
$ACADVER
  1
AC1015
  9
$ACADMAINTVER
 70
     6
  9
$DWGCODEPAGE
  3
ANSI_1252
  9
$INSBASE
 10
0.0
 20
0.0
 30
0.0
  9
$EXTMIN
 10
0.0
 20
-0.0000000000000053
 30
0.0
  9
$EXTMAX
 10
30.35999999999999
 20
46.5
 30
0.0
  9
$LIMMIN
 10
0.0
 20
0.0
  9
$LIMMAX
 10
30.174
 20
46.31399999999999
  9
$ORTHOMODE
 70
     1
  9
$REGENMODE
 70
     1
  9
$FILLMODE
 70
     1
  9
$QTEXTMODE
 70
     0
  9
$MIRRTEXT
 70
     0
  9
$LTSCALE
 40
1.0
  9
$ATTMODE
 70
     1
  9
$TEXTSIZE
 40
0.125
  9
$TRACEWID
 40
0.05
  9
$TEXTSTYLE
  7
TXT
  9
$CLAYER
  8
OBJECT
  9
$CELTYPE
  6
ByLayer
  9
$CECOLOR
 62
   256
  9
$CELTSCALE
 40
1.0
  9
$DISPSILH
 70
     0
  9
$DIMSCALE
 40
3.0
  9
$DIMASZ
 40
0.18
  9
$DIMEXO
 40
0.063
  9
$DIMDLI
 40
0.281
  9
$DIMRND
 40
0.0
  9
$DIMDLE
 40
0.0
  9
$DIMEXE
 40
0.093
  9
$DIMTP
 40
0.0
  9
$DIMTM
 40
0.0
  9
$DIMTXT
 40
0.125
  9
$DIMCEN
 40
0.09
  9
$DIMTSZ
 40
0.0
  9
$DIMTOL
 70
     0
  9
$DIMLIM
 70
     0
  9
$DIMTIH
 70
     1
  9
$DIMTOH
 70
     1
  9
$DIMSE1
 70
     0
  9
$DIMSE2
 70
     0
  9
$DIMTAD
 70
     0
  9
$DIMZIN
 70
     0
  9
$DIMBLK
  1

  9
$DIMASO
 70
     1
  9
$DIMSHO
 70
     1
  9
$DIMPOST
  1

  9
$DIMAPOST
  1

  9
$DIMALT
 70
     1
  9
$DIMALTD
 70
     1
  9
$DIMALTF
 40
25.4
  9
$DIMLFAC
 40
1.0
  9
$DIMTOFL
 70
     0
  9
$DIMTVP
 40
0.0
  9
$DIMTIX
 70
     0
  9
$DIMSOXD
 70
     0
  9
$DIMSAH
 70
     0
  9
$DIMBLK1
  1

  9
$DIMBLK2
  1

  9
$DIMSTYLE
  2
23NSTD
  9
$DIMCLRD
 70
     0
  9
$DIMCLRE
 70
     0
  9
$DIMCLRT
 70
     0
  9
$DIMTFAC
 40
1.0
  9
$DIMGAP
 40
0.09
  9
$DIMJUST
 70
     0
  9
$DIMSD1
 70
     0
  9
$DIMSD2
 70
     0
  9
$DIMTOLJ
 70
     1
  9
$DIMTZIN
 70
     0
  9
$DIMALTZ
 70
     0
  9
$DIMALTTZ
 70
     0
  9
$DIMUPT
 70
     0
  9
$DIMDEC
 70
     2
  9
$DIMTDEC
 70
     2
  9
$DIMALTU
 70
     2
  9
$DIMALTTD
 70
     1
  9
$DIMTXSTY
  7
TXT
  9
$DIMAUNIT
 70
     0
  9
$DIMADEC
 70
     0
  9
$DIMALTRND
 40
0.0
  9
$DIMAZIN
 70
     0
  9
$DIMDSEP
 70
    46
  9
$DIMATFIT
 70
     1
  9
$DIMFRAC
 70
     0
  9
$DIMLDRBLK
  1

  9
$DIMLUNIT
 70
     2
  9
$DIMLWD
 70
    -2
  9
$DIMLWE
 70
    -2
  9
$DIMTMOVE
 70
     0
  9
$LUNITS
 70
     2
  9
$LUPREC
 70
     3
  9
$SKETCHINC
 40
0.1
  9
$FILLETRAD
 40
0.0
  9
$AUNITS
 70
     0
  9
$AUPREC
 70
     0
  9
$MENU
  1
acad
  9
$ELEVATION
 40
0.0
  9
$PELEVATION
 40
0.0
  9
$THICKNESS
 40
0.0
  9
$LIMCHECK
 70
     0
  9
$CHAMFERA
 40
0.0
  9
$CHAMFERB
 40
0.0
  9
$CHAMFERC
 40
0.0
  9
$CHAMFERD
 40
0.0
  9
$SKPOLY
 70
     0
  9
$TDCREATE
 40
2450298.402710648
  9
$TDUCREATE
 40
2450298.569377315
  9
$TDUPDATE
 40
2456500.357043541
  9
$TDUUPDATE
 40
2456500.523710208
  9
$TDINDWG
 40
0.0634626852
  9
$TDUSRTIMER
 40
0.0634626852
  9
$USRTIMER
 70
     1
  9
$ANGBASE
 50
0.0
  9
$ANGDIR
 70
     0
  9
$PDMODE
 70
     0
  9
$PDSIZE
 40
0.0
  9
$PLINEWID
 40
0.0
  9
$SPLFRAME
 70
     0
  9
$SPLINETYPE
 70
     6
  9
$SPLINESEGS
 70
     8
  9
$HANDSEED
  5
C5B
  9
$SURFTAB1
 70
     6
  9
$SURFTAB2
 70
     6
  9
$SURFTYPE
 70
     6
  9
$SURFU
 70
     6
  9
$SURFV
 70
     6
  9
$UCSBASE
  2

  9
$UCSNAME
  2

  9
$UCSORG
 10
0.0
 20
0.0
 30
0.0
  9
$UCSXDIR
 10
1.0
 20
0.0
 30
0.0
  9
$UCSYDIR
 10
0.0
 20
1.0
 30
0.0
  9
$UCSORTHOREF
  2

  9
$UCSORTHOVIEW
 70
     0
  9
$UCSORGTOP
 10
0.0
 20
0.0
 30
0.0
  9
$UCSORGBOTTOM
 10
0.0
 20
0.0
 30
0.0
  9
$UCSORGLEFT
 10
0.0
 20
0.0
 30
0.0
  9
$UCSORGRIGHT
 10
0.0
 20
0.0
 30
0.0
  9
$UCSORGFRONT
 10
0.0
 20
0.0
 30
0.0
  9
$UCSORGBACK
 10
0.0
 20
0.0
 30
0.0
  9
$PUCSBASE
  2

  9
$PUCSNAME
  2

  9
$PUCSORG
 10
0.0
 20
0.0
 30
0.0
  9
$PUCSXDIR
 10
1.0
 20
0.0
 30
0.0
  9
$PUCSYDIR
 10
0.0
 20
1.0
 30
0.0
  9
$PUCSORTHOREF
  2

  9
$PUCSORTHOVIEW
 70
     0
  9
$PUCSORGTOP
 10
0.0
 20
0.0
 30
0.0
  9
$PUCSORGBOTTOM
 10
0.0
 20
0.0
 30
0.0
  9
$PUCSORGLEFT
 10
0.0
 20
0.0
 30
0.0
  9
$PUCSORGRIGHT
 10
0.0
 20
0.0
 30
0.0
  9
$PUCSORGFRONT
 10
0.0
 20
0.0
 30
0.0
  9
$PUCSORGBACK
 10
0.0
 20
0.0
 30
0.0
  9
$USERI1
 70
     0
  9
$USERI2
 70
     0
  9
$USERI3
 70
     0
  9
$USERI4
 70
     0
  9
$USERI5
 70
     0
  9
$USERR1
 40
0.0
  9
$USERR2
 40
0.0
  9
$USERR3
 40
0.0
  9
$USERR4
 40
0.0
  9
$USERR5
 40
0.0
  9
$WORLDVIEW
 70
     1
  9
$SHADEDGE
 70
     3
  9
$SHADEDIF
 70
    70
  9
$TILEMODE
 70
     1
  9
$MAXACTVP
 70
    16
  9
$PINSBASE
 10
0.0
 20
0.0
 30
0.0
  9
$PLIMCHECK
 70
     0
  9
$PEXTMIN
 10
1.000000000000000E+20
 20
1.000000000000000E+20
 30
1.000000000000000E+20
  9
$PEXTMAX
 10
-1.000000000000000E+20
 20
-1.000000000000000E+20
 30
-1.000000000000000E+20
  9
$PLIMMIN
 10
0.0
 20
0.0
  9
$PLIMMAX
 10
12.0
 20
9.0
  9
$UNITMODE
 70
     0
  9
$VISRETAIN
 70
     0
  9
$PLINEGEN
 70
     0
  9
$PSLTSCALE
 70
     1
  9
$TREEDEPTH
 70
  3020
  9
$CMLSTYLE
  2
Standard
  9
$CMLJUST
 70
     0
  9
$CMLSCALE
 40
1.0
  9
$PROXYGRAPHICS
 70
     1
  9
$MEASUREMENT
 70
     0
  9
$CELWEIGHT
370
    -1
  9
$ENDCAPS
280
     0
  9
$JOINSTYLE
280
     0
  9
$LWDISPLAY
290
     0
  9
$INSUNITS
 70
     0
  9
$HYPERLINKBASE
  1

  9
$STYLESHEET
  1
monochrome.ctb
  9
$XEDIT
290
     1
  9
$CEPSNTYPE
380
     0
  9
$PSTYLEMODE
290
     1
  9
$FINGERPRINTGUID
  2
{68732A5A-B043-43EC-BEB6-BE365468CEB6}
  9
$VERSIONGUID
  2
{19114269-C892-474D-87E8-DEDDCC604FDF}
  9
$EXTNAMES
290
     1
  9
$PSVPSCALE
 40
0.0
  9
$OLESTARTUP
290
     0
  0
ENDSEC
  0
SECTION
  2
CLASSES
  0
CLASS
  1
ACDBDICTIONARYWDFLT
  2
AcDbDictionaryWithDefault
  3
AutoCAD 2000
 90
        0
280
     0
281
     0
  0
CLASS
  1
ACDBPLACEHOLDER
  2
AcDbPlaceHolder
  3
AutoCAD 2000
 90
        0
280
     0
281
     0
  0
CLASS
  1
LAYOUT
  2
AcDbLayout
  3
AutoCAD 2000
 90
        0
280
     0
281
     0
  0
ENDSEC
  0
SECTION
  2
TABLES
  0
TABLE
  2
VPORT
  5
8
330
0
100
AcDbSymbolTable
 70
     2
  0
VPORT
  5
C5A
330
8
100
AcDbSymbolTableRecord
100
AcDbViewportTableRecord
  2
*Active
 70
     0
 10
0.0
 20
0.0
 11
1.0
 21
1.0
 12
15.18000007068737
 22
23.25000010826625
 13
0.0
 23
0.0
 14
1.0
 24
1.0
 15
0.0
 25
0.0
 16
0.0
 26
0.0
 36
1.0
 17
0.0
 27
0.0
 37
0.0
 40
46.97098751196461
 41
1.836974789915966
 42
50.0
 43
0.0
 44
0.0
 50
0.0
 51
0.0
 71
     0
 72
   500
 73
     1
 74
     0
 75
     0
 76
     0
 77
     0
 78
     0
281
     0
 65
     1
110
0.0
120
0.0
130
0.0
111
1.0
121
0.0
131
0.0
112
0.0
122
1.0
132
0.0
 79
     0
146
0.0
  0
ENDTAB
  0
TABLE
  2
LTYPE
  5
5
330
0
100
AcDbSymbolTable
 70
     6
  0
LTYPE
  5
13
330
5
100
AcDbSymbolTableRecord
100
AcDbLinetypeTableRecord
  2
ByBlock
 70
     0
  3

 72
    65
 73
     0
 40
0.0
  0
LTYPE
  5
14
330
5
100
AcDbSymbolTableRecord
100
AcDbLinetypeTableRecord
  2
ByLayer
 70
     0
  3

 72
    65
 73
     0
 40
0.0
  0
LTYPE
  5
15
330
5
100
AcDbSymbolTableRecord
100
AcDbLinetypeTableRecord
  2
CONTINUOUS
 70
     0
  3
Solid line
 72
    65
 73
     0
 40
0.0
  0
LTYPE
  5
25
330
5
100
AcDbSymbolTableRecord
100
AcDbLinetypeTableRecord
  2
HIDDEN
 70
     0
  3
_ _ _ _ _ _ _ _ _ _ _ _ _ _ _ _ _ _ _ _ _ _ _
 72
    65
 73
     2
 40
0.375
 49
0.25
 74
     0
 49
-0.125
 74
     0
  0
LTYPE
  5
26
330
5
100
AcDbSymbolTableRecord
100
AcDbLinetypeTableRecord
  2
PHANTOM
 70
     0
  3
_____ _ _ _____ _ _ _____ _ _ _____ _ _ ____
 72
    65
 73
     6
 40
2.5
 49
1.25
 74
     0
 49
-0.25
 74
     0
 49
0.25
 74
     0
 49
-0.25
 74
     0
 49
0.25
 74
     0
 49
-0.25
 74
     0
  0
LTYPE
  5
27
330
5
100
AcDbSymbolTableRecord
100
AcDbLinetypeTableRecord
  2
CENTER
 70
     0
  3
____ _ ____ _ ____ _ ____ _ ____ _ ____ _ ____
 72
    65
 73
     4
 40
2.0
 49
1.25
 74
     0
 49
-0.25
 74
     0
 49
0.25
 74
     0
 49
-0.25
 74
     0
  0
LTYPE
  5
390
330
5
100
AcDbSymbolTableRecord
100
AcDbLinetypeTableRecord
  2
HIDDEN2
 70
     0
  3
_ _ _ _ _ _ _ _ _ _ _ _ _ _ _ _ _ _ _ _ _ _ _ _
 72
    65
 73
     2
 40
0.1875
 49
0.125
 74
     0
 49
-0.0625
 74
     0
  0
LTYPE
  5
391
330
5
100
AcDbSymbolTableRecord
100
AcDbLinetypeTableRecord
  2
PHANTOM2
 70
     0
  3
___ _ _ ___ _ _ ___ _ _ ___ _ _ ___ _ _ ___ _ _
 72
    65
 73
     6
 40
1.25
 49
0.625
 74
     0
 49
-0.125
 74
     0
 49
0.125
 74
     0
 49
-0.125
 74
     0
 49
0.125
 74
     0
 49
-0.125
 74
     0
  0
ENDTAB
  0
TABLE
  2
LAYER
  5
2
330
0
100
AcDbSymbolTable
 70
     9
  0
LAYER
  5
10
330
2
100
AcDbSymbolTableRecord
100
AcDbLayerTableRecord
  2
0
 70
     0
 62
     7
  6
CONTINUOUS
370
    -3
390
F
  0
LAYER
  5
22
330
2
100
AcDbSymbolTableRecord
100
AcDbLayerTableRecord
  2
OBJECT
 70
     0
 62
     7
  6
CONTINUOUS
370
    -3
390
F
  0
LAYER
  5
28
330
2
100
AcDbSymbolTableRecord
100
AcDbLayerTableRecord
  2
DIM
 70
     0
 62
     7
  6
CONTINUOUS
370
    -3
390
F
  0
LAYER
  5
29
330
2
100
AcDbSymbolTableRecord
100
AcDbLayerTableRecord
  2
HIDDEN
 70
     0
 62
     7
  6
HIDDEN
370
    -3
390
F
  0
LAYER
  5
2A
330
2
100
AcDbSymbolTableRecord
100
AcDbLayerTableRecord
  2
BEND
 70
     0
 62
     7
  6
PHANTOM
370
    -3
390
F
  0
LAYER
  5
2B
330
2
100
AcDbSymbolTableRecord
100
AcDbLayerTableRecord
  2
TEXT
 70
     0
 62
     7
  6
CONTINUOUS
370
    -3
390
F
  0
LAYER
  5
2C
330
2
100
AcDbSymbolTableRecord
100
AcDbLayerTableRecord
  2
TITLE
 70
     0
 62
     7
  6
CONTINUOUS
370
    -3
390
F
  0
LAYER
  5
2D
330
2
100
AcDbSymbolTableRecord
100
AcDbLayerTableRecord
  2
CENTER
 70
     0
 62
     7
  6
CENTER
370
    -3
390
F
  0
LAYER
  5
2E
330
2
100
AcDbSymbolTableRecord
100
AcDbLayerTableRecord
  2
DEFPOINTS
 70
     0
 62
     7
  6
CONTINUOUS
290
     0
370
    -3
390
F
  0
ENDTAB
  0
TABLE
  2
STYLE
  5
3
330
0
100
AcDbSymbolTable
 70
     2
  0
STYLE
  5
11
330
3
100
AcDbSymbolTableRecord
100
AcDbTextStyleTableRecord
  2
STANDARD
 70
     0
 40
0.0
 41
1.0
 50
0.0
 71
     0
 42
0.2
  3
txt
  4

  0
STYLE
  5
23
330
3
100
AcDbSymbolTableRecord
100
AcDbTextStyleTableRecord
  2
TXT
 70
     0
 40
0.0
 41
0.75
 50
0.0
 71
     0
 42
0.125
  3
TXT.shx
  4

  0
ENDTAB
  0
TABLE
  2
VIEW
  5
6
330
0
100
AcDbSymbolTable
 70
     0
  0
ENDTAB
  0
TABLE
  2
UCS
  5
7
330
0
100
AcDbSymbolTable
 70
     0
  0
ENDTAB
  0
TABLE
  2
APPID
  5
9
330
0
100
AcDbSymbolTable
 70
     1
  0
APPID
  5
12
330
9
100
AcDbSymbolTableRecord
100
AcDbRegAppTableRecord
  2
ACAD
 70
     0
  0
ENDTAB
  0
TABLE
  2
DIMSTYLE
  5
A
330
0
100
AcDbSymbolTable
 70
     4
100
AcDbDimStyleTable
 71
     4
340
2F
340
31
340
30
340
32
  0
DIMSTYLE
105
2F
102
{ACAD_REACTORS
330
220
330
243
330
26D
330
27E
330
2C5
330
2D3
102
}
330
A
100
AcDbSymbolTableRecord
100
AcDbDimStyleTableRecord
  2
23NSTD
 70
     0
 40
3.0
 42
0.063
 43
0.281
 44
0.093
140
0.125
170
     1
171
     1
271
     2
272
     2
274
     1
289
     1
340
23
  0
DIMSTYLE
105
30
102
{ACAD_REACTORS
330
212
330
22E
330
251
330
25F
330
28D
330
29B
330
2A9
330
2B7
102
}
330
A
100
AcDbSymbolTableRecord
100
AcDbDimStyleTableRecord
  2
23NSTDI
 70
     0
 40
3.0
 42
0.063
 43
0.281
 44
0.093
140
0.125
170
     1
171
     1
174
     1
271
     2
272
     2
274
     1
340
23
  0
DIMSTYLE
105
31
102
{ACAD_REACTORS
330
1E8
330
1DA
102
}
330
A
100
AcDbSymbolTableRecord
100
AcDbDimStyleTableRecord
  2
23NSTD4
 70
     0
 40
3.0
 42
0.063
 43
0.281
 44
0.093
140
0.125
144
0.25
170
     1
171
     1
271
     2
272
     2
274
     1
289
     1
340
23
  0
DIMSTYLE
105
32
102
{ACAD_REACTORS
330
1F6
102
}
330
A
100
AcDbSymbolTableRecord
100
AcDbDimStyleTableRecord
  2
23NSTD4I
 70
     0
 40
3.0
 42
0.063
 43
0.281
 44
0.093
140
0.125
144
0.25
170
     1
171
     1
174
     1
271
     2
272
     2
274
     1
340
23
  0
ENDTAB
  0
TABLE
  2
BLOCK_RECORD
  5
1
330
0
100
AcDbSymbolTable
 70
    18
  0
BLOCK_RECORD
  5
1E
330
1
100
AcDbSymbolTableRecord
100
AcDbBlockTableRecord
  2
*Model_Space
340
21
  0
BLOCK_RECORD
  5
1A
330
1
100
AcDbSymbolTableRecord
100
AcDbBlockTableRecord
  2
*Paper_Space
340
1D
  0
BLOCK_RECORD
  5
34
330
1
100
AcDbSymbolTableRecord
100
AcDbBlockTableRecord
  2
HB
340
0
102
{BLKREFS
331
1D7
331
C54
102
}
  0
BLOCK_RECORD
  5
1DB
330
1
100
AcDbSymbolTableRecord
100
AcDbBlockTableRecord
  2
*D1
340
0
  0
BLOCK_RECORD
  5
1E9
330
1
100
AcDbSymbolTableRecord
100
AcDbBlockTableRecord
  2
*D2
340
0
  0
BLOCK_RECORD
  5
1F7
330
1
100
AcDbSymbolTableRecord
100
AcDbBlockTableRecord
  2
*D3
340
0
  0
BLOCK_RECORD
  5
213
330
1
100
AcDbSymbolTableRecord
100
AcDbBlockTableRecord
  2
*D4
340
0
  0
BLOCK_RECORD
  5
221
330
1
100
AcDbSymbolTableRecord
100
AcDbBlockTableRecord
  2
*D5
340
0
  0
BLOCK_RECORD
  5
22F
330
1
100
AcDbSymbolTableRecord
100
AcDbBlockTableRecord
  2
*D6
340
0
  0
BLOCK_RECORD
  5
244
330
1
100
AcDbSymbolTableRecord
100
AcDbBlockTableRecord
  2
*D7
340
0
  0
BLOCK_RECORD
  5
252
330
1
100
AcDbSymbolTableRecord
100
AcDbBlockTableRecord
  2
*D8
340
0
  0
BLOCK_RECORD
  5
260
330
1
100
AcDbSymbolTableRecord
100
AcDbBlockTableRecord
  2
*D9
340
0
  0
BLOCK_RECORD
  5
26E
330
1
100
AcDbSymbolTableRecord
100
AcDbBlockTableRecord
  2
*D10
340
0
  0
BLOCK_RECORD
  5
27F
330
1
100
AcDbSymbolTableRecord
100
AcDbBlockTableRecord
  2
*D11
340
0
  0
BLOCK_RECORD
  5
28E
330
1
100
AcDbSymbolTableRecord
100
AcDbBlockTableRecord
  2
*D12
340
0
  0
BLOCK_RECORD
  5
29C
330
1
100
AcDbSymbolTableRecord
100
AcDbBlockTableRecord
  2
*D13
340
0
  0
BLOCK_RECORD
  5
2AA
330
1
100
AcDbSymbolTableRecord
100
AcDbBlockTableRecord
  2
*D14
340
0
  0
BLOCK_RECORD
  5
2B8
330
1
100
AcDbSymbolTableRecord
100
AcDbBlockTableRecord
  2
*D15
340
0
  0
BLOCK_RECORD
  5
2C6
330
1
100
AcDbSymbolTableRecord
100
AcDbBlockTableRecord
  2
*D16
340
0
  0
BLOCK_RECORD
  5
2D4
330
1
100
AcDbSymbolTableRecord
100
AcDbBlockTableRecord
  2
*D17
340
0
  0
ENDTAB
  0
ENDSEC
  0
SECTION
  2
BLOCKS
  0
BLOCK
  5
1F
330
1E
100
AcDbEntity
  8
0
100
AcDbBlockBegin
  2
*Model_Space
 70
     0
 10
0.0
 20
0.0
 30
0.0
  3
*Model_Space
  1

  0
ENDBLK
  5
20
330
1E
100
AcDbEntity
  8
0
100
AcDbBlockEnd
  0
BLOCK
  5
1B
330
1A
100
AcDbEntity
 67
     1
  8
0
100
AcDbBlockBegin
  2
*Paper_Space
 70
     0
 10
0.0
 20
0.0
 30
0.0
  3
*Paper_Space
  1

  0
ENDBLK
  5
1C
330
1A
100
AcDbEntity
 67
     1
  8
0
100
AcDbBlockEnd
  0
BLOCK
  5
35
330
34
100
AcDbEntity
  8
0
100
AcDbBlockBegin
  2
HB
 70
     0
 10
0.0
 20
0.0
 30
0.0
  3
HB
  1

  0
LINE
  5
C1F
330
34
100
AcDbEntity
  8
TITLE
100
AcDbLine
 10
0.0
 20
15.5
 30
0.0
 11
10.11999999999999
 21
15.49999999999999
 31
0.0
  0
LINE
  5
C20
330
34
100
AcDbEntity
  8
TITLE
100
AcDbLine
 10
10.11999999999999
 20
-0.0000000000000018
 30
0.0
 11
0.0
 21
0.0
 31
0.0
  0
LINE
  5
C21
330
34
100
AcDbEntity
  8
TITLE
100
AcDbLine
 10
0.0620000000000012
 20
15.438
 30
0.0
 11
10.058
 21
15.438
 31
0.0
  0
LINE
  5
C22
330
34
100
AcDbEntity
  8
TITLE
100
AcDbLine
 10
10.058
 20
0.0619999999999994
 30
0.0
 11
0.0619999999999976
 21
0.0620000000000012
 31
0.0
  0
LINE
  5
C23
330
34
100
AcDbEntity
  8
TITLE
100
AcDbLine
 10
0.0620000000000012
 20
15.01999999999999
 30
0.0
 11
10.058
 21
15.01999999999999
 31
0.0
  0
LINE
  5
C24
330
34
100
AcDbEntity
  8
TITLE
100
AcDbLine
 10
0.0
 20
0.0
 30
0.0
 11
0.0
 21
15.5
 31
0.0
  0
LINE
  5
C25
330
34
100
AcDbEntity
  8
TITLE
100
AcDbLine
 10
0.0619999999999976
 20
0.0620000000000012
 30
0.0
 11
0.0620000000000012
 21
15.438
 31
0.0
  0
LINE
  5
C26
330
34
100
AcDbEntity
  8
TITLE
100
AcDbLine
 10
0.6396020312089732
 20
15.01999999999999
 30
0.0
 11
0.6396020312089697
 21
15.438
 31
0.0
  0
LINE
  5
C27
330
34
100
AcDbEntity
  8
TITLE
100
AcDbLine
 10
10.11999999999999
 20
15.49999999999999
 30
0.0
 11
10.11999999999999
 21
-0.0000000000000018
 31
0.0
  0
LINE
  5
C28
330
34
100
AcDbEntity
  8
TITLE
100
AcDbLine
 10
10.058
 20
15.438
 30
0.0
 11
10.058
 21
0.0619999999999994
 31
0.0
  0
TEXT
  5
C29
330
34
100
AcDbEntity
  8
TEXT
100
AcDbText
 10
4.570393157811527
 20
15.26841252897341
 30
0.0
 40
0.125
  1
PART
  7
TXT
 72
     1
 11
4.799559824478194
 21
15.26841252897341
 31
0.0
100
AcDbText
  0
LINE
  5
C2A
330
34
100
AcDbEntity
  8
TITLE
100
AcDbLine
 10
4.464500000000001
 20
15.438
 30
0.0
 11
4.464500000000001
 21
15.01999999999999
 31
0.0
  0
LINE
  5
C2B
330
34
100
AcDbEntity
  8
TITLE
100
AcDbLine
 10
4.526499999999998
 20
15.438
 30
0.0
 11
4.526499999999998
 21
15.01999999999999
 31
0.0
  0
TEXT
  5
C2C
330
34
100
AcDbEntity
  8
TEXT
100
AcDbText
 10
4.674559824478194
 20
15.06007919564008
 30
0.0
 40
0.125
  1
No.
  7
TXT
 72
     1
 11
4.799559824478194
 21
15.06007919564008
 31
0.0
100
AcDbText
  0
LINE
  5
C2D
330
34
100
AcDbEntity
  8
TITLE
100
AcDbLine
 10
8.414128646203558
 20
15.438
 30
0.0
 11
8.414128646203558
 21
15.02
 31
0.0
  0
LINE
  5
C2E
330
34
100
AcDbEntity
  8
TITLE
100
AcDbLine
 10
8.352128646203546
 20
15.438
 30
0.0
 11
8.352128646203546
 21
15.02
 31
0.0
  0
TEXT
  5
C2F
330
34
100
AcDbEntity
  8
TEXT
100
AcDbText
 10
8.456471011235349
 20
15.06007919564008
 30
0.0
 40
0.125
  1
DATE
  7
TXT
 72
     1
 11
8.685637677902015
 21
15.06007919564008
 31
0.0
100
AcDbText
  0
TEXT
  5
C30
330
34
100
AcDbEntity
  8
TEXT
100
AcDbText
 10
8.477304344568681
 20
15.26841252897341
 30
0.0
 40
0.125
  1
REV.
  7
TXT
 72
     1
 11
8.685637677902015
 21
15.26841252897341
 31
0.0
100
AcDbText
  0
TEXT
  5
C31
330
34
100
AcDbEntity
  8
TEXT
100
AcDbText
 10
0.6833401984899558
 20
15.06007919564008
 30
0.0
 40
0.125
  1
NAME
  7
TXT
 72
     1
 11
0.9125068651566223
 21
15.06007919564008
 31
0.0
100
AcDbText
  0
TEXT
  5
C32
330
34
100
AcDbEntity
  8
TEXT
100
AcDbText
 10
0.6833401984899558
 20
15.26841252897341
 30
0.0
 40
0.125
  1
PART
  7
TXT
 72
     1
 11
0.9125068651566223
 21
15.26841252897341
 31
0.0
100
AcDbText
  0
LINE
  5
C33
330
34
100
AcDbEntity
  8
TITLE
100
AcDbLine
 10
1.183310283038842
 20
15.01999999999999
 30
0.0
 11
1.183310283038839
 21
15.438
 31
0.0
  0
LINE
  5
C34
330
34
100
AcDbEntity
  8
TITLE
100
AcDbLine
 10
5.070499999999999
 20
15.438
 30
0.0
 11
5.070499999999999
 21
15.01999999999999
 31
0.0
  0
LINE
  5
C35
330
34
100
AcDbEntity
  8
TITLE
100
AcDbLine
 10
8.958128646203554
 20
15.438
 30
0.0
 11
8.958128646203554
 21
15.02
 31
0.0
  0
LINE
  5
C36
330
34
100
AcDbEntity
  8
TITLE
100
AcDbLine
 10
0.1058316404171364
 20
15.09138808647464
 30
0.0
 11
0.1058316404171364
 21
15.35692284057391
 31
0.0
  0
ARC
  5
C37
330
34
100
AcDbEntity
  8
TITLE
100
AcDbCircle
 10
0.1913503079702643
 20
15.29385833647534
 30
0.0
 40
0.063064504098577
100
AcDbArc
 50
270.0
 51
90.0
  0
LINE
  5
C38
330
34
100
AcDbEntity
  8
TITLE
100
AcDbLine
 10
0.2907368675590263
 20
15.10798400860585
 30
0.0
 11
0.2907368675590263
 21
15.35692284057391
 31
0.0
  0
LINE
  5
C39
330
34
100
AcDbEntity
  8
TITLE
100
AcDbLine
 10
0.3623876430765094
 20
15.13471192359016
 30
0.0
 11
0.3623876430765094
 21
15.35692284057391
 31
0.0
  0
LINE
  5
C3A
330
34
100
AcDbEntity
  8
TITLE
100
AcDbLine
 10
0.3392744896837776
 20
15.13471192359016
 30
0.0
 11
0.3392744896837776
 21
15.35692284057391
 31
0.0
  0
LINE
  5
C3B
330
34
100
AcDbEntity
  8
TITLE
100
AcDbLine
 10
0.4652358447541367
 20
15.09138808647464
 30
0.0
 11
0.4652358447541367
 21
15.35692284057391
 31
0.0
  0
ARC
  5
C3C
330
34
100
AcDbEntity
  8
TITLE
100
AcDbCircle
 10
0.4982653668098039
 20
15.26398567663917
 30
0.0
 40
0.0929371639347451
100
AcDbArc
 50
0.0
 51
90.0
  0
LINE
  5
C3D
330
34
100
AcDbEntity
  8
TITLE
100
AcDbLine
 10
0.4109252652012572
 20
15.10798400860585
 30
0.0
 11
0.4109252652012572
 21
15.35692284057391
 31
0.0
  0
LINE
  5
C3E
330
34
100
AcDbEntity
  8
TITLE
100
AcDbLine
 10
0.3073327896902356
 20
15.09138808647464
 30
0.0
 11
0.3943293430700585
 21
15.09138808647464
 31
0.0
  0
LINE
  5
C3F
330
34
100
AcDbEntity
  8
TITLE
100
AcDbLine
 10
0.1058316404171364
 20
15.09138808647464
 30
0.0
 11
0.1913503079702643
 21
15.09138808647464
 31
0.0
  0
LINE
  5
C40
330
34
100
AcDbEntity
  8
TITLE
100
AcDbLine
 10
0.1913503079702643
 20
15.2175170946718
 30
0.0
 11
0.1185438747831391
 21
15.2175170946718
 31
0.0
  0
LINE
  5
C41
330
34
100
AcDbEntity
  8
TITLE
100
AcDbLine
 10
0.1913503079702643
 20
15.23079383237676
 30
0.0
 11
0.1185438747831391
 21
15.23079383237676
 31
0.0
  0
LINE
  5
C42
330
34
100
AcDbEntity
  8
TITLE
100
AcDbLine
 10
0.1185438747831391
 20
15.23079383237676
 30
0.0
 11
0.1185438747831391
 21
15.22415546352428
 31
0.0
  0
LINE
  5
C43
330
34
100
AcDbEntity
  8
TITLE
100
AcDbLine
 10
0.1185438747831391
 20
15.2175170946718
 30
0.0
 11
0.1185438747831391
 21
15.22415546352428
 31
0.0
  0
ARC
  5
C44
330
34
100
AcDbEntity
  8
TITLE
100
AcDbCircle
 10
0.1913503079702643
 20
15.15445259057322
 30
0.0
 40
0.063064504098577
100
AcDbArc
 50
270.0
 51
90.0
  0
ARC
  5
C45
330
34
100
AcDbEntity
  8
TITLE
100
AcDbCircle
 10
0.3073327896902356
 20
15.10798400860585
 30
0.0
 40
0.0165959221312045
100
AcDbArc
 50
180.0
 51
270.0
  0
ARC
  5
C46
330
34
100
AcDbEntity
  8
TITLE
100
AcDbCircle
 10
0.3491109053715498
 20
15.13471192359016
 30
0.0
 40
0.0132767377049636
100
AcDbArc
 50
277.4442840977136
 51
0.0
  0
ARC
  5
C47
330
34
100
AcDbEntity
  8
TITLE
100
AcDbCircle
 10
0.3525512273887479
 20
15.13471192359016
 30
0.0
 40
0.0132767377049636
100
AcDbArc
 50
180.0
 51
262.5557159022863
  0
ARC
  5
C48
330
34
100
AcDbEntity
  8
TITLE
100
AcDbCircle
 10
0.4982653668098039
 20
15.18432525040939
 30
0.0
 40
0.0929371639347451
100
AcDbArc
 50
270.0
 51
0.0
  0
ARC
  5
C49
330
34
100
AcDbEntity
  8
TITLE
100
AcDbCircle
 10
0.3943293430700585
 20
15.10798400860585
 30
0.0
 40
0.0165959221312045
100
AcDbArc
 50
270.0
 51
0.0
  0
LINE
  5
C4A
330
34
100
AcDbEntity
  8
TITLE
100
AcDbLine
 10
0.4652358447541367
 20
15.09138808647464
 30
0.0
 11
0.4982653668098039
 21
15.09138808647464
 31
0.0
  0
LINE
  5
C4B
330
34
100
AcDbEntity
  8
TITLE
100
AcDbLine
 10
0.5912025307445532
 20
15.18432525040939
 30
0.0
 11
0.5912025307445532
 21
15.26398567663917
 31
0.0
  0
LINE
  5
C4C
330
34
100
AcDbEntity
  8
TITLE
100
AcDbLine
 10
0.5423641529412322
 20
15.2175170946718
 30
0.0
 11
0.5423641529412322
 21
15.23079383237676
 31
0.0
  0
LINE
  5
C4D
330
34
100
AcDbEntity
  8
TITLE
100
AcDbLine
 10
0.5010665634329392
 20
15.2175170946718
 30
0.0
 11
0.5010665634329392
 21
15.23079383237676
 31
0.0
  0
LINE
  5
C4E
330
34
100
AcDbEntity
  8
TITLE
100
AcDbLine
 10
0.5423641529412322
 20
15.2175170946718
 30
0.0
 11
0.5010665634329392
 21
15.2175170946718
 31
0.0
  0
LINE
  5
C4F
330
34
100
AcDbEntity
  8
TITLE
100
AcDbLine
 10
0.5423641529412322
 20
15.23079383237676
 30
0.0
 11
0.5010665634329392
 21
15.23079383237676
 31
0.0
  0
LINE
  5
C50
330
34
100
AcDbEntity
  8
TITLE
100
AcDbLine
 10
0.3623876430765094
 20
15.35692284057391
 30
0.0
 11
0.4109252652012572
 21
15.35692284057391
 31
0.0
  0
LINE
  5
C51
330
34
100
AcDbEntity
  8
TITLE
100
AcDbLine
 10
0.1058316404171364
 20
15.35692284057391
 30
0.0
 11
0.1913503079702643
 21
15.35692284057391
 31
0.0
  0
LINE
  5
C52
330
34
100
AcDbEntity
  8
TITLE
100
AcDbLine
 10
0.2907368675590263
 20
15.35692284057391
 30
0.0
 11
0.3392744896837776
 21
15.35692284057391
 31
0.0
  0
LINE
  5
C53
330
34
100
AcDbEntity
  8
TITLE
100
AcDbLine
 10
0.4652358447541367
 20
15.35692284057391
 30
0.0
 11
0.4982653668098039
 21
15.35692284057391
 31
0.0
  0
ENDBLK
  5
47
330
34
100
AcDbEntity
  8
0
100
AcDbBlockEnd
  0
BLOCK
  5
1E6
330
1DB
100
AcDbEntity
  8
0
100
AcDbBlockBegin
  2
*D1
 70
     1
 10
0.0
 20
0.0
 30
0.0
  3
*D1
  1

  0
LINE
  5
7D8
330
1DB
100
AcDbEntity
  8
DIM
 62
     0
370
    -2
100
AcDbLine
 10
18.60567628447881
 20
13.05054921803541
 30
0.0
 11
18.60567628447881
 21
14.90558121803541
 31
0.0
  0
LINE
  5
7D9
330
1DB
100
AcDbEntity
  8
DIM
 62
     0
370
    -2
100
AcDbLine
 10
20.76167628447881
 20
12.11454921803541
 30
0.0
 11
20.76167628447881
 21
14.90558121803541
 31
0.0
  0
LINE
  5
7DA
330
1DB
100
AcDbEntity
  8
DIM
 62
     0
370
    -2
100
AcDbLine
 10
18.06567628447881
 20
14.62658121803541
 30
0.0
 11
17.52567628447881
 21
14.62658121803541
 31
0.0
  0
LINE
  5
7DB
330
1DB
100
AcDbEntity
  8
DIM
 62
     0
370
    -2
100
AcDbLine
 10
21.30167628447881
 20
14.62658121803541
 30
0.0
 11
21.84167628447882
 21
14.62658121803541
 31
0.0
  0
SOLID
  5
7DC
330
1DB
100
AcDbEntity
  8
DIM
 62
     0
100
AcDbTrace
 10
18.06567628447881
 20
14.71658121803541
 30
0.0
 11
18.06567628447881
 21
14.53658121803541
 31
0.0
 12
18.60567628447881
 22
14.62658121803541
 32
0.0
 13
18.60567628447881
 23
14.62658121803541
 33
0.0
  0
SOLID
  5
7DD
330
1DB
100
AcDbEntity
  8
DIM
 62
     0
100
AcDbTrace
 10
21.30167628447881
 20
14.71658121803541
 30
0.0
 11
21.30167628447881
 21
14.53658121803541
 31
0.0
 12
20.76167628447881
 22
14.62658121803541
 32
0.0
 13
20.76167628447881
 23
14.62658121803541
 33
0.0
  0
MTEXT
  5
7DE
330
1DB
100
AcDbEntity
  8
DIM
 62
     0
100
AcDbMText
 10
23.26011378447881
 20
14.62658121803541
 30
0.0
 40
0.375
 41
0.0
 71
     5
 72
     1
  1
\A1;0.54 [13.7]
  7
TXT
 73
     1
 44
1.0
  0
POINT
  5
7DF
330
1DB
100
AcDbEntity
  8
DEFPOINTS
 62
     0
100
AcDbPoint
 10
18.60567628447881
 20
12.86154921803541
 30
0.0
  0
POINT
  5
7E0
330
1DB
100
AcDbEntity
  8
DEFPOINTS
 62
     0
100
AcDbPoint
 10
20.76167628447881
 20
11.92554921803541
 30
0.0
  0
POINT
  5
7E1
330
1DB
100
AcDbEntity
  8
DEFPOINTS
 62
     0
100
AcDbPoint
 10
20.76167628447881
 20
14.62658121803541
 30
0.0
  0
ENDBLK
  5
1E7
330
1DB
100
AcDbEntity
  8
0
100
AcDbBlockEnd
  0
BLOCK
  5
1F4
330
1E9
100
AcDbEntity
  8
0
100
AcDbBlockBegin
  2
*D2
 70
     1
 10
0.0
 20
0.0
 30
0.0
  3
*D2
  1

  0
LINE
  5
7CE
330
1E9
100
AcDbEntity
  8
DIM
 62
     0
370
    -2
100
AcDbLine
 10
19.13767628447881
 20
12.11454921803541
 30
0.0
 11
19.13767628447881
 21
14.06258121803541
 31
0.0
  0
LINE
  5
7CF
330
1E9
100
AcDbEntity
  8
DIM
 62
     0
370
    -2
100
AcDbLine
 10
20.76167628447881
 20
12.11454921803541
 30
0.0
 11
20.76167628447881
 21
14.06258121803541
 31
0.0
  0
LINE
  5
7D0
330
1E9
100
AcDbEntity
  8
DIM
 62
     0
370
    -2
100
AcDbLine
 10
18.59767628447881
 20
13.78358121803541
 30
0.0
 11
18.05767628447881
 21
13.78358121803541
 31
0.0
  0
LINE
  5
7D1
330
1E9
100
AcDbEntity
  8
DIM
 62
     0
370
    -2
100
AcDbLine
 10
21.30167628447881
 20
13.78358121803541
 30
0.0
 11
21.84167628447882
 21
13.78358121803541
 31
0.0
  0
SOLID
  5
7D2
330
1E9
100
AcDbEntity
  8
DIM
 62
     0
100
AcDbTrace
 10
18.59767628447881
 20
13.87358121803541
 30
0.0
 11
18.59767628447881
 21
13.69358121803541
 31
0.0
 12
19.13767628447881
 22
13.78358121803541
 32
0.0
 13
19.13767628447881
 23
13.78358121803541
 33
0.0
  0
SOLID
  5
7D3
330
1E9
100
AcDbEntity
  8
DIM
 62
     0
100
AcDbTrace
 10
21.30167628447881
 20
13.87358121803541
 30
0.0
 11
21.30167628447881
 21
13.69358121803541
 31
0.0
 12
20.76167628447881
 22
13.78358121803541
 32
0.0
 13
20.76167628447881
 23
13.78358121803541
 33
0.0
  0
MTEXT
  5
7D4
330
1E9
100
AcDbEntity
  8
DIM
 62
     0
100
AcDbMText
 10
23.18980128447881
 20
13.78358121803541
 30
0.0
 40
0.375
 41
0.0
 71
     5
 72
     1
  1
\A1;0.41 [10.3]
  7
TXT
 73
     1
 44
1.0
  0
POINT
  5
7D5
330
1E9
100
AcDbEntity
  8
DEFPOINTS
 62
     0
100
AcDbPoint
 10
19.13767628447881
 20
11.92554921803541
 30
0.0
  0
POINT
  5
7D6
330
1E9
100
AcDbEntity
  8
DEFPOINTS
 62
     0
100
AcDbPoint
 10
20.76167628447881
 20
11.92554921803541
 30
0.0
  0
POINT
  5
7D7
330
1E9
100
AcDbEntity
  8
DEFPOINTS
 62
     0
100
AcDbPoint
 10
20.76167628447881
 20
13.78358121803541
 30
0.0
  0
ENDBLK
  5
1F5
330
1E9
100
AcDbEntity
  8
0
100
AcDbBlockEnd
  0
BLOCK
  5
202
330
1F7
100
AcDbEntity
  8
0
100
AcDbBlockBegin
  2
*D3
 70
     1
 10
0.0
 20
0.0
 30
0.0
  3
*D3
  1

  0
LINE
  5
645
330
1F7
100
AcDbEntity
  8
DIM
 62
     0
370
    -2
100
AcDbLine
 10
19.50467728447881
 20
12.48154921803541
 30
0.0
 11
17.15045428447881
 21
12.48154921803541
 31
0.0
  0
LINE
  5
646
330
1F7
100
AcDbEntity
  8
DIM
 62
     0
370
    -2
100
AcDbLine
 10
19.50467628447881
 20
11.36954921803541
 30
0.0
 11
17.15045428447881
 21
11.36954921803541
 31
0.0
  0
LINE
  5
647
330
1F7
100
AcDbEntity
  8
DIM
 62
     0
370
    -2
100
AcDbLine
 10
17.42945428447881
 20
13.02154921803541
 30
0.0
 11
17.42945428447881
 21
13.56154921803541
 31
0.0
  0
LINE
  5
648
330
1F7
100
AcDbEntity
  8
DIM
 62
     0
370
    -2
100
AcDbLine
 10
17.42945428447881
 20
10.82954921803541
 30
0.0
 11
17.42945428447881
 21
10.28954921803541
 31
0.0
  0
SOLID
  5
649
330
1F7
100
AcDbEntity
  8
DIM
 62
     0
100
AcDbTrace
 10
17.33945428447881
 20
13.02154921803541
 30
0.0
 11
17.51945428447881
 21
13.02154921803541
 31
0.0
 12
17.42945428447881
 22
12.48154921803541
 32
0.0
 13
17.42945428447881
 23
12.48154921803541
 33
0.0
  0
SOLID
  5
64A
330
1F7
100
AcDbEntity
  8
DIM
 62
     0
100
AcDbTrace
 10
17.33945428447881
 20
10.82954921803541
 30
0.0
 11
17.51945428447881
 21
10.82954921803541
 31
0.0
 12
17.42945428447881
 22
11.36954921803541
 32
0.0
 13
17.42945428447881
 23
11.36954921803541
 33
0.0
  0
MTEXT
  5
64B
330
1F7
100
AcDbEntity
  8
DIM
 62
     0
100
AcDbMText
 10
17.42945428447881
 20
11.92554921803541
 30
0.0
 40
0.375
 41
0.0
 71
     5
 72
     1
  1
\A1;0.28 [7.1]
  7
TXT
 73
     1
 44
1.0
  0
POINT
  5
64C
330
1F7
100
AcDbEntity
  8
DEFPOINTS
 62
     0
100
AcDbPoint
 10
19.69367728447881
 20
12.48154921803541
 30
0.0
  0
POINT
  5
64D
330
1F7
100
AcDbEntity
  8
DEFPOINTS
 62
     0
100
AcDbPoint
 10
19.69367628447881
 20
11.36954921803541
 30
0.0
  0
POINT
  5
64E
330
1F7
100
AcDbEntity
  8
DEFPOINTS
 62
     0
100
AcDbPoint
 10
17.42945428447881
 20
11.36954921803541
 30
0.0
  0
ENDBLK
  5
203
330
1F7
100
AcDbEntity
  8
0
100
AcDbBlockEnd
  0
BLOCK
  5
21E
330
213
100
AcDbEntity
  8
0
100
AcDbBlockBegin
  2
*D4
 70
     1
 10
0.0
 20
0.0
 30
0.0
  3
*D4
  1

  0
LINE
  5
754
330
213
100
AcDbEntity
  8
DIM
 62
     0
370
    -2
100
AcDbLine
 10
23.06983134378394
 20
32.63387115248264
 30
0.0
 11
24.88263987904378
 21
32.63387115248264
 31
0.0
  0
LINE
  5
755
330
213
100
AcDbEntity
  8
DIM
 62
     0
370
    -2
100
AcDbLine
 10
23.36083134378394
 20
31.14987115248264
 30
0.0
 11
24.88263987904378
 21
31.14987115248264
 31
0.0
  0
LINE
  5
756
330
213
100
AcDbEntity
  8
DIM
 62
     0
370
    -2
100
AcDbLine
 10
24.60363987904378
 20
33.17387115248264
 30
0.0
 11
24.60363987904378
 21
33.71387115248264
 31
0.0
  0
LINE
  5
757
330
213
100
AcDbEntity
  8
DIM
 62
     0
370
    -2
100
AcDbLine
 10
24.60363987904378
 20
30.60987115248264
 30
0.0
 11
24.60363987904378
 21
30.06987115248264
 31
0.0
  0
SOLID
  5
758
330
213
100
AcDbEntity
  8
DIM
 62
     0
100
AcDbTrace
 10
24.51363987904378
 20
33.17387115248264
 30
0.0
 11
24.69363987904378
 21
33.17387115248264
 31
0.0
 12
24.60363987904378
 22
32.63387115248264
 32
0.0
 13
24.60363987904378
 23
32.63387115248264
 33
0.0
  0
SOLID
  5
759
330
213
100
AcDbEntity
  8
DIM
 62
     0
100
AcDbTrace
 10
24.51363987904378
 20
30.60987115248264
 30
0.0
 11
24.69363987904378
 21
30.60987115248264
 31
0.0
 12
24.60363987904378
 22
31.14987115248264
 32
0.0
 13
24.60363987904378
 23
31.14987115248264
 33
0.0
  0
MTEXT
  5
75A
330
213
100
AcDbEntity
  8
DIM
 62
     0
100
AcDbMText
 10
24.60363987904378
 20
31.89187115248265
 30
0.0
 40
0.375
 41
0.0
 71
     5
 72
     1
  1
\A1;1.48 [37.7]
  7
TXT
 73
     1
 44
1.0
  0
POINT
  5
75B
330
213
100
AcDbEntity
  8
DEFPOINTS
 62
     0
100
AcDbPoint
 10
22.88083134378394
 20
32.63387115248264
 30
0.0
  0
POINT
  5
75C
330
213
100
AcDbEntity
  8
DEFPOINTS
 62
     0
100
AcDbPoint
 10
23.17183134378394
 20
31.14987115248264
 30
0.0
  0
POINT
  5
75D
330
213
100
AcDbEntity
  8
DEFPOINTS
 62
     0
100
AcDbPoint
 10
24.60363987904378
 20
31.14987115248264
 30
0.0
  0
ENDBLK
  5
21F
330
213
100
AcDbEntity
  8
0
100
AcDbBlockEnd
  0
BLOCK
  5
22C
330
221
100
AcDbEntity
  8
0
100
AcDbBlockBegin
  2
*D5
 70
     1
 10
0.0
 20
0.0
 30
0.0
  3
*D5
  1

  0
LINE
  5
7A4
330
221
100
AcDbEntity
  8
DIM
 62
     0
370
    -2
100
AcDbLine
 10
23.36083134378394
 20
31.14987115248264
 30
0.0
 11
28.11424697829866
 21
31.14987115248264
 31
0.0
  0
LINE
  5
7A5
330
221
100
AcDbEntity
  8
DIM
 62
     0
370
    -2
100
AcDbLine
 10
23.36083134378394
 20
36.38387115248264
 30
0.0
 11
28.11424697829866
 21
36.38387115248264
 31
0.0
  0
LINE
  5
7A6
330
221
100
AcDbEntity
  8
DIM
 62
     0
370
    -2
100
AcDbLine
 10
27.83524697829866
 20
31.68987115248264
 30
0.0
 11
27.83524697829866
 21
33.30937115248264
 31
0.0
  0
LINE
  5
7A7
330
221
100
AcDbEntity
  8
DIM
 62
     0
370
    -2
100
AcDbLine
 10
27.83524697829866
 20
35.84387115248265
 30
0.0
 11
27.83524697829866
 21
34.22437115248264
 31
0.0
  0
SOLID
  5
7A8
330
221
100
AcDbEntity
  8
DIM
 62
     0
100
AcDbTrace
 10
27.74524697829866
 20
31.68987115248264
 30
0.0
 11
27.92524697829866
 21
31.68987115248264
 31
0.0
 12
27.83524697829866
 22
31.14987115248264
 32
0.0
 13
27.83524697829866
 23
31.14987115248264
 33
0.0
  0
SOLID
  5
7A9
330
221
100
AcDbEntity
  8
DIM
 62
     0
100
AcDbTrace
 10
27.74524697829866
 20
35.84387115248265
 30
0.0
 11
27.92524697829866
 21
35.84387115248265
 31
0.0
 12
27.83524697829866
 22
36.38387115248264
 32
0.0
 13
27.83524697829866
 23
36.38387115248264
 33
0.0
  0
MTEXT
  5
7AA
330
221
100
AcDbEntity
  8
DIM
 62
     0
100
AcDbMText
 10
27.83524697829866
 20
33.76687115248265
 30
0.0
 40
0.375
 41
0.0
 71
     5
 72
     1
  1
\A1;A
  7
TXT
 73
     1
 44
1.0
  0
POINT
  5
7AB
330
221
100
AcDbEntity
  8
DEFPOINTS
 62
     0
100
AcDbPoint
 10
23.17183134378394
 20
31.14987115248264
 30
0.0
  0
POINT
  5
7AC
330
221
100
AcDbEntity
  8
DEFPOINTS
 62
     0
100
AcDbPoint
 10
23.17183134378394
 20
36.38387115248264
 30
0.0
  0
POINT
  5
7AD
330
221
100
AcDbEntity
  8
DEFPOINTS
 62
     0
100
AcDbPoint
 10
27.83524697829866
 20
36.38387115248264
 30
0.0
  0
ENDBLK
  5
22D
330
221
100
AcDbEntity
  8
0
100
AcDbBlockEnd
  0
BLOCK
  5
23A
330
22F
100
AcDbEntity
  8
0
100
AcDbBlockBegin
  2
*D6
 70
     1
 10
0.0
 20
0.0
 30
0.0
  3
*D6
  1

  0
LINE
  5
77C
330
22F
100
AcDbEntity
  8
DIM
 62
     0
370
    -2
100
AcDbLine
 10
23.06983134378394
 20
34.89987115248264
 30
0.0
 11
26.45592845868854
 21
34.89987115248264
 31
0.0
  0
LINE
  5
77D
330
22F
100
AcDbEntity
  8
DIM
 62
     0
370
    -2
100
AcDbLine
 10
23.06983134378394
 20
32.63387115248264
 30
0.0
 11
26.45592845868854
 21
32.63387115248264
 31
0.0
  0
LINE
  5
77E
330
22F
100
AcDbEntity
  8
DIM
 62
     0
370
    -2
100
AcDbLine
 10
26.17692845868854
 20
35.43987115248264
 30
0.0
 11
26.17692845868854
 21
35.97987115248264
 31
0.0
  0
LINE
  5
77F
330
22F
100
AcDbEntity
  8
DIM
 62
     0
370
    -2
100
AcDbLine
 10
26.17692845868854
 20
32.09387115248265
 30
0.0
 11
26.17692845868854
 21
31.55387115248265
 31
0.0
  0
SOLID
  5
780
330
22F
100
AcDbEntity
  8
DIM
 62
     0
100
AcDbTrace
 10
26.08692845868854
 20
35.43987115248264
 30
0.0
 11
26.26692845868854
 21
35.43987115248264
 31
0.0
 12
26.17692845868854
 22
34.89987115248264
 32
0.0
 13
26.17692845868854
 23
34.89987115248264
 33
0.0
  0
SOLID
  5
781
330
22F
100
AcDbEntity
  8
DIM
 62
     0
100
AcDbTrace
 10
26.08692845868854
 20
32.09387115248265
 30
0.0
 11
26.26692845868854
 21
32.09387115248265
 31
0.0
 12
26.17692845868854
 22
32.63387115248264
 32
0.0
 13
26.17692845868854
 23
32.63387115248264
 33
0.0
  0
MTEXT
  5
782
330
22F
100
AcDbEntity
  8
DIM
 62
     0
100
AcDbMText
 10
26.17692845868854
 20
33.76687115248265
 30
0.0
 40
0.375
 41
0.0
 71
     5
 72
     1
  1
\A1;B
  7
TXT
 73
     1
 44
1.0
  0
POINT
  5
783
330
22F
100
AcDbEntity
  8
DEFPOINTS
 62
     0
100
AcDbPoint
 10
22.88083134378394
 20
34.89987115248264
 30
0.0
  0
POINT
  5
784
330
22F
100
AcDbEntity
  8
DEFPOINTS
 62
     0
100
AcDbPoint
 10
22.88083134378394
 20
32.63387115248264
 30
0.0
  0
POINT
  5
785
330
22F
100
AcDbEntity
  8
DEFPOINTS
 62
     0
100
AcDbPoint
 10
26.17692845868854
 20
32.63387115248264
 30
0.0
  0
ENDBLK
  5
23B
330
22F
100
AcDbEntity
  8
0
100
AcDbBlockEnd
  0
BLOCK
  5
24F
330
244
100
AcDbEntity
  8
0
100
AcDbBlockBegin
  2
*D7
 70
     1
 10
0.0
 20
0.0
 30
0.0
  3
*D7
  1

  0
LINE
  5
5FE
330
244
100
AcDbEntity
  8
DIM
 62
     0
370
    -2
100
AcDbLine
 10
23.17183134378394
 20
41.62217815248264
 30
0.0
 11
23.17183134378394
 21
42.51317815248265
 31
0.0
  0
LINE
  5
5FF
330
244
100
AcDbEntity
  8
DIM
 62
     0
370
    -2
100
AcDbLine
 10
4.17183134378394
 20
41.62217815248264
 30
0.0
 11
4.17183134378394
 21
42.51317815248265
 31
0.0
  0
LINE
  5
600
330
244
100
AcDbEntity
  8
DIM
 62
     0
370
    -2
100
AcDbLine
 10
22.63183134378393
 20
42.23417815248264
 30
0.0
 11
15.34808134378394
 21
42.23417815248264
 31
0.0
  0
LINE
  5
601
330
244
100
AcDbEntity
  8
DIM
 62
     0
370
    -2
100
AcDbLine
 10
4.71183134378394
 20
42.23417815248264
 30
0.0
 11
11.99558134378394
 21
42.23417815248264
 31
0.0
  0
SOLID
  5
602
330
244
100
AcDbEntity
  8
DIM
 62
     0
100
AcDbTrace
 10
22.63183134378393
 20
42.32417815248265
 30
0.0
 11
22.63183134378393
 21
42.14417815248264
 31
0.0
 12
23.17183134378394
 22
42.23417815248264
 32
0.0
 13
23.17183134378394
 23
42.23417815248264
 33
0.0
  0
SOLID
  5
603
330
244
100
AcDbEntity
  8
DIM
 62
     0
100
AcDbTrace
 10
4.71183134378394
 20
42.32417815248265
 30
0.0
 11
4.71183134378394
 21
42.14417815248264
 31
0.0
 12
4.17183134378394
 22
42.23417815248264
 32
0.0
 13
4.17183134378394
 23
42.23417815248264
 33
0.0
  0
MTEXT
  5
604
330
244
100
AcDbEntity
  8
DIM
 62
     0
100
AcDbMText
 10
13.67183134378394
 20
42.23417815248264
 30
0.0
 40
0.375
 41
0.0
 71
     5
 72
     1
  1
\A1;19.00 [482.6]
  7
TXT
 73
     1
 44
1.0
  0
POINT
  5
605
330
244
100
AcDbEntity
  8
DEFPOINTS
 62
     0
100
AcDbPoint
 10
23.17183134378394
 20
41.43317815248265
 30
0.0
  0
POINT
  5
606
330
244
100
AcDbEntity
  8
DEFPOINTS
 62
     0
100
AcDbPoint
 10
4.17183134378394
 20
41.43317815248265
 30
0.0
  0
POINT
  5
607
330
244
100
AcDbEntity
  8
DEFPOINTS
 62
     0
100
AcDbPoint
 10
4.17183134378394
 20
42.23417815248264
 30
0.0
  0
ENDBLK
  5
250
330
244
100
AcDbEntity
  8
0
100
AcDbBlockEnd
  0
BLOCK
  5
25D
330
252
100
AcDbEntity
  8
0
100
AcDbBlockBegin
  2
*D8
 70
     1
 10
0.0
 20
0.0
 30
0.0
  3
*D8
  1

  0
LINE
  5
7B8
330
252
100
AcDbEntity
  8
DIM
 62
     0
370
    -2
100
AcDbLine
 10
23.06983134378394
 20
41.19917815248265
 30
0.0
 11
26.45592845868855
 21
41.19917815248265
 31
0.0
  0
LINE
  5
7B9
330
252
100
AcDbEntity
  8
DIM
 62
     0
370
    -2
100
AcDbLine
 10
23.06983134378394
 20
39.93317815248264
 30
0.0
 11
26.45592845868854
 21
39.93317815248264
 31
0.0
  0
LINE
  5
7BA
330
252
100
AcDbEntity
  8
DIM
 62
     0
370
    -2
100
AcDbLine
 10
26.17692845868855
 20
41.73917815248265
 30
0.0
 11
26.17692845868855
 21
42.27917815248265
 31
0.0
  0
LINE
  5
7BB
330
252
100
AcDbEntity
  8
DIM
 62
     0
370
    -2
100
AcDbLine
 10
26.17692845868854
 20
39.39317815248264
 30
0.0
 11
26.17692845868854
 21
38.85317815248265
 31
0.0
  0
SOLID
  5
7BC
330
252
100
AcDbEntity
  8
DIM
 62
     0
100
AcDbTrace
 10
26.08692845868855
 20
41.73917815248265
 30
0.0
 11
26.26692845868855
 21
41.73917815248265
 31
0.0
 12
26.17692845868855
 22
41.19917815248265
 32
0.0
 13
26.17692845868855
 23
41.19917815248265
 33
0.0
  0
SOLID
  5
7BD
330
252
100
AcDbEntity
  8
DIM
 62
     0
100
AcDbTrace
 10
26.08692845868854
 20
39.39317815248264
 30
0.0
 11
26.26692845868854
 21
39.39317815248264
 31
0.0
 12
26.17692845868854
 22
39.93317815248264
 32
0.0
 13
26.17692845868854
 23
39.93317815248264
 33
0.0
  0
MTEXT
  5
7BE
330
252
100
AcDbEntity
  8
DIM
 62
     0
100
AcDbMText
 10
26.17692845868854
 20
40.56617815248265
 30
0.0
 40
0.375
 41
0.0
 71
     5
 72
     1
  1
\A1;B
  7
TXT
 73
     1
 44
1.0
  0
POINT
  5
7BF
330
252
100
AcDbEntity
  8
DEFPOINTS
 62
     0
100
AcDbPoint
 10
22.88083134378394
 20
41.19917815248265
 30
0.0
  0
POINT
  5
7C0
330
252
100
AcDbEntity
  8
DEFPOINTS
 62
     0
100
AcDbPoint
 10
22.88083134378394
 20
39.93317815248264
 30
0.0
  0
POINT
  5
7C1
330
252
100
AcDbEntity
  8
DEFPOINTS
 62
     0
100
AcDbPoint
 10
26.17692845868854
 20
39.93317815248264
 30
0.0
  0
ENDBLK
  5
25E
330
252
100
AcDbEntity
  8
0
100
AcDbBlockEnd
  0
BLOCK
  5
26B
330
260
100
AcDbEntity
  8
0
100
AcDbBlockBegin
  2
*D9
 70
     1
 10
0.0
 20
0.0
 30
0.0
  3
*D9
  1

  0
LINE
  5
7AE
330
260
100
AcDbEntity
  8
DIM
 62
     0
370
    -2
100
AcDbLine
 10
23.36083134378394
 20
41.43317815248265
 30
0.0
 11
28.11424697829867
 21
41.43317815248265
 31
0.0
  0
LINE
  5
7AF
330
260
100
AcDbEntity
  8
DIM
 62
     0
370
    -2
100
AcDbLine
 10
23.36083134378394
 20
39.69917815248265
 30
0.0
 11
28.11424697829866
 21
39.69917815248265
 31
0.0
  0
LINE
  5
7B0
330
260
100
AcDbEntity
  8
DIM
 62
     0
370
    -2
100
AcDbLine
 10
27.83524697829866
 20
41.97317815248264
 30
0.0
 11
27.83524697829866
 21
42.51317815248264
 31
0.0
  0
LINE
  5
7B1
330
260
100
AcDbEntity
  8
DIM
 62
     0
370
    -2
100
AcDbLine
 10
27.83524697829866
 20
39.15917815248265
 30
0.0
 11
27.83524697829866
 21
38.61917815248265
 31
0.0
  0
SOLID
  5
7B2
330
260
100
AcDbEntity
  8
DIM
 62
     0
100
AcDbTrace
 10
27.74524697829866
 20
41.97317815248264
 30
0.0
 11
27.92524697829867
 21
41.97317815248264
 31
0.0
 12
27.83524697829866
 22
41.43317815248265
 32
0.0
 13
27.83524697829866
 23
41.43317815248265
 33
0.0
  0
SOLID
  5
7B3
330
260
100
AcDbEntity
  8
DIM
 62
     0
100
AcDbTrace
 10
27.74524697829866
 20
39.15917815248265
 30
0.0
 11
27.92524697829866
 21
39.15917815248265
 31
0.0
 12
27.83524697829866
 22
39.69917815248265
 32
0.0
 13
27.83524697829866
 23
39.69917815248265
 33
0.0
  0
MTEXT
  5
7B4
330
260
100
AcDbEntity
  8
DIM
 62
     0
100
AcDbMText
 10
27.83524697829866
 20
40.56617815248265
 30
0.0
 40
0.375
 41
0.0
 71
     5
 72
     1
  1
\A1;A
  7
TXT
 73
     1
 44
1.0
  0
POINT
  5
7B5
330
260
100
AcDbEntity
  8
DEFPOINTS
 62
     0
100
AcDbPoint
 10
23.17183134378394
 20
41.43317815248265
 30
0.0
  0
POINT
  5
7B6
330
260
100
AcDbEntity
  8
DEFPOINTS
 62
     0
100
AcDbPoint
 10
23.17183134378394
 20
39.69917815248265
 30
0.0
  0
POINT
  5
7B7
330
260
100
AcDbEntity
  8
DEFPOINTS
 62
     0
100
AcDbPoint
 10
27.83524697829866
 20
39.69917815248265
 30
0.0
  0
ENDBLK
  5
26C
330
260
100
AcDbEntity
  8
0
100
AcDbBlockEnd
  0
BLOCK
  5
279
330
26E
100
AcDbEntity
  8
0
100
AcDbBlockBegin
  2
*D10
 70
     1
 10
0.0
 20
0.0
 30
0.0
  3
*D10
  1

  0
LINE
  5
7C2
330
26E
100
AcDbEntity
  8
DIM
 62
     0
370
    -2
100
AcDbLine
 10
23.06983134378394
 20
39.93317815248264
 30
0.0
 11
24.88263987904378
 21
39.93317815248264
 31
0.0
  0
LINE
  5
7C3
330
26E
100
AcDbEntity
  8
DIM
 62
     0
370
    -2
100
AcDbLine
 10
23.36083134378394
 20
39.69917815248265
 30
0.0
 11
24.88263987904378
 21
39.69917815248265
 31
0.0
  0
LINE
  5
7C4
330
26E
100
AcDbEntity
  8
DIM
 62
     0
370
    -2
100
AcDbLine
 10
24.60363987904379
 20
40.47317815248264
 30
0.0
 11
24.60363987904379
 21
41.01317815248264
 31
0.0
  0
LINE
  5
7C5
330
26E
100
AcDbEntity
  8
DIM
 62
     0
370
    -2
100
AcDbLine
 10
24.60363987904378
 20
39.15917815248265
 30
0.0
 11
24.60363987904378
 21
38.61917815248265
 31
0.0
  0
LINE
  5
7C6
330
26E
100
AcDbEntity
  8
DIM
 62
     0
370
    -2
100
AcDbLine
 10
24.60363987904378
 20
38.61917815248265
 30
0.0
 11
24.06363987904378
 21
38.61917815248265
 31
0.0
  0
SOLID
  5
7C7
330
26E
100
AcDbEntity
  8
DIM
 62
     0
100
AcDbTrace
 10
24.51363987904379
 20
40.47317815248264
 30
0.0
 11
24.69363987904379
 21
40.47317815248264
 31
0.0
 12
24.60363987904378
 22
39.93317815248264
 32
0.0
 13
24.60363987904378
 23
39.93317815248264
 33
0.0
  0
SOLID
  5
7C8
330
26E
100
AcDbEntity
  8
DIM
 62
     0
100
AcDbTrace
 10
24.51363987904378
 20
39.15917815248265
 30
0.0
 11
24.69363987904378
 21
39.15917815248265
 31
0.0
 12
24.60363987904378
 22
39.69917815248265
 32
0.0
 13
24.60363987904378
 23
39.69917815248265
 33
0.0
  0
MTEXT
  5
7C9
330
26E
100
AcDbEntity
  8
DIM
 62
     0
100
AcDbMText
 10
22.73895237904378
 20
38.61917815248266
 30
0.0
 40
0.375
 41
0.0
 71
     5
 72
     1
  1
\A1;0.23 [5.9]
  7
TXT
 73
     1
 44
1.0
  0
POINT
  5
7CA
330
26E
100
AcDbEntity
  8
DEFPOINTS
 62
     0
100
AcDbPoint
 10
22.88083134378394
 20
39.93317815248264
 30
0.0
  0
POINT
  5
7CB
330
26E
100
AcDbEntity
  8
DEFPOINTS
 62
     0
100
AcDbPoint
 10
23.17183134378394
 20
39.69917815248265
 30
0.0
  0
POINT
  5
7CC
330
26E
100
AcDbEntity
  8
DEFPOINTS
 62
     0
100
AcDbPoint
 10
24.60363987904378
 20
39.69917815248265
 30
0.0
  0
ENDBLK
  5
27A
330
26E
100
AcDbEntity
  8
0
100
AcDbBlockEnd
  0
BLOCK
  5
28A
330
27F
100
AcDbEntity
  8
0
100
AcDbBlockBegin
  2
*D11
 70
     1
 10
0.0
 20
0.0
 30
0.0
  3
*D11
  1

  0
LINE
  5
79A
330
27F
100
AcDbEntity
  8
DIM
 62
     0
370
    -2
100
AcDbLine
 10
23.36083134378394
 20
17.44148915248264
 30
0.0
 11
28.11424697829865
 21
17.44148915248264
 31
0.0
  0
LINE
  5
79B
330
27F
100
AcDbEntity
  8
DIM
 62
     0
370
    -2
100
AcDbLine
 10
23.36083134378394
 20
27.92548915248264
 30
0.0
 11
28.11424697829866
 21
27.92548915248264
 31
0.0
  0
LINE
  5
79C
330
27F
100
AcDbEntity
  8
DIM
 62
     0
370
    -2
100
AcDbLine
 10
27.83524697829866
 20
17.98148915248264
 30
0.0
 11
27.83524697829866
 21
22.22598915248264
 31
0.0
  0
LINE
  5
79D
330
27F
100
AcDbEntity
  8
DIM
 62
     0
370
    -2
100
AcDbLine
 10
27.83524697829866
 20
27.38548915248264
 30
0.0
 11
27.83524697829866
 21
23.14098915248264
 31
0.0
  0
SOLID
  5
79E
330
27F
100
AcDbEntity
  8
DIM
 62
     0
100
AcDbTrace
 10
27.74524697829866
 20
17.98148915248264
 30
0.0
 11
27.92524697829866
 21
17.98148915248264
 31
0.0
 12
27.83524697829866
 22
17.44148915248264
 32
0.0
 13
27.83524697829866
 23
17.44148915248264
 33
0.0
  0
SOLID
  5
79F
330
27F
100
AcDbEntity
  8
DIM
 62
     0
100
AcDbTrace
 10
27.74524697829866
 20
27.38548915248264
 30
0.0
 11
27.92524697829866
 21
27.38548915248264
 31
0.0
 12
27.83524697829866
 22
27.92548915248264
 32
0.0
 13
27.83524697829866
 23
27.92548915248264
 33
0.0
  0
MTEXT
  5
7A0
330
27F
100
AcDbEntity
  8
DIM
 62
     0
100
AcDbMText
 10
27.83524697829865
 20
22.68348915248265
 30
0.0
 40
0.375
 41
0.0
 71
     5
 72
     1
  1
\A1;A
  7
TXT
 73
     1
 44
1.0
  0
POINT
  5
7A1
330
27F
100
AcDbEntity
  8
DEFPOINTS
 62
     0
100
AcDbPoint
 10
23.17183134378394
 20
17.44148915248264
 30
0.0
  0
POINT
  5
7A2
330
27F
100
AcDbEntity
  8
DEFPOINTS
 62
     0
100
AcDbPoint
 10
23.17183134378394
 20
27.92548915248264
 30
0.0
  0
POINT
  5
7A3
330
27F
100
AcDbEntity
  8
DEFPOINTS
 62
     0
100
AcDbPoint
 10
27.83524697829866
 20
27.92548915248264
 30
0.0
  0
ENDBLK
  5
28B
330
27F
100
AcDbEntity
  8
0
100
AcDbBlockEnd
  0
BLOCK
  5
299
330
28E
100
AcDbEntity
  8
0
100
AcDbBlockBegin
  2
*D12
 70
     1
 10
0.0
 20
0.0
 30
0.0
  3
*D12
  1

  0
LINE
  5
772
330
28E
100
AcDbEntity
  8
DIM
 62
     0
370
    -2
100
AcDbLine
 10
23.06983134378394
 20
21.17548915248264
 30
0.0
 11
26.45592845868854
 21
21.17548915248264
 31
0.0
  0
LINE
  5
773
330
28E
100
AcDbEntity
  8
DIM
 62
     0
370
    -2
100
AcDbLine
 10
23.06983134378394
 20
18.92548915248264
 30
0.0
 11
26.45592845868854
 21
18.92548915248264
 31
0.0
  0
LINE
  5
774
330
28E
100
AcDbEntity
  8
DIM
 62
     0
370
    -2
100
AcDbLine
 10
26.17692845868854
 20
20.63548915248264
 30
0.0
 11
26.17692845868854
 21
20.50798915248264
 31
0.0
  0
LINE
  5
775
330
28E
100
AcDbEntity
  8
DIM
 62
     0
370
    -2
100
AcDbLine
 10
26.17692845868854
 20
19.46548915248264
 30
0.0
 11
26.17692845868854
 21
19.59298915248264
 31
0.0
  0
SOLID
  5
776
330
28E
100
AcDbEntity
  8
DIM
 62
     0
100
AcDbTrace
 10
26.08692845868854
 20
20.63548915248264
 30
0.0
 11
26.26692845868854
 21
20.63548915248264
 31
0.0
 12
26.17692845868854
 22
21.17548915248264
 32
0.0
 13
26.17692845868854
 23
21.17548915248264
 33
0.0
  0
SOLID
  5
777
330
28E
100
AcDbEntity
  8
DIM
 62
     0
100
AcDbTrace
 10
26.08692845868854
 20
19.46548915248264
 30
0.0
 11
26.26692845868854
 21
19.46548915248264
 31
0.0
 12
26.17692845868854
 22
18.92548915248264
 32
0.0
 13
26.17692845868854
 23
18.92548915248264
 33
0.0
  0
MTEXT
  5
778
330
28E
100
AcDbEntity
  8
DIM
 62
     0
100
AcDbMText
 10
26.17692845868854
 20
20.05048915248265
 30
0.0
 40
0.375
 41
0.0
 71
     5
 72
     1
  1
\A1;B
  7
TXT
 73
     1
 44
1.0
  0
POINT
  5
779
330
28E
100
AcDbEntity
  8
DEFPOINTS
 62
     0
100
AcDbPoint
 10
22.88083134378394
 20
21.17548915248264
 30
0.0
  0
POINT
  5
77A
330
28E
100
AcDbEntity
  8
DEFPOINTS
 62
     0
100
AcDbPoint
 10
22.88083134378394
 20
18.92548915248264
 30
0.0
  0
POINT
  5
77B
330
28E
100
AcDbEntity
  8
DEFPOINTS
 62
     0
100
AcDbPoint
 10
26.17692845868854
 20
18.92548915248264
 30
0.0
  0
ENDBLK
  5
29A
330
28E
100
AcDbEntity
  8
0
100
AcDbBlockEnd
  0
BLOCK
  5
2A7
330
29C
100
AcDbEntity
  8
0
100
AcDbBlockBegin
  2
*D13
 70
     1
 10
0.0
 20
0.0
 30
0.0
  3
*D13
  1

  0
LINE
  5
6FA
330
29C
100
AcDbEntity
  8
DIM
 62
     0
370
    -2
100
AcDbLine
 10
23.06983134378394
 20
18.92548915248264
 30
0.0
 11
24.88263987904378
 21
18.92548915248264
 31
0.0
  0
LINE
  5
6FB
330
29C
100
AcDbEntity
  8
DIM
 62
     0
370
    -2
100
AcDbLine
 10
23.36083134378394
 20
17.44148915248264
 30
0.0
 11
24.88263987904378
 21
17.44148915248264
 31
0.0
  0
LINE
  5
6FC
330
29C
100
AcDbEntity
  8
DIM
 62
     0
370
    -2
100
AcDbLine
 10
24.60363987904378
 20
19.46548915248264
 30
0.0
 11
24.60363987904378
 21
20.00548915248264
 31
0.0
  0
LINE
  5
6FD
330
29C
100
AcDbEntity
  8
DIM
 62
     0
370
    -2
100
AcDbLine
 10
24.60363987904378
 20
16.90148915248264
 30
0.0
 11
24.60363987904378
 21
16.36148915248264
 31
0.0
  0
SOLID
  5
6FE
330
29C
100
AcDbEntity
  8
DIM
 62
     0
100
AcDbTrace
 10
24.51363987904378
 20
19.46548915248264
 30
0.0
 11
24.69363987904378
 21
19.46548915248264
 31
0.0
 12
24.60363987904378
 22
18.92548915248264
 32
0.0
 13
24.60363987904378
 23
18.92548915248264
 33
0.0
  0
SOLID
  5
6FF
330
29C
100
AcDbEntity
  8
DIM
 62
     0
100
AcDbTrace
 10
24.51363987904378
 20
16.90148915248264
 30
0.0
 11
24.69363987904378
 21
16.90148915248264
 31
0.0
 12
24.60363987904378
 22
17.44148915248264
 32
0.0
 13
24.60363987904378
 23
17.44148915248264
 33
0.0
  0
MTEXT
  5
700
330
29C
100
AcDbEntity
  8
DIM
 62
     0
100
AcDbMText
 10
24.60363987904377
 20
18.18348915248265
 30
0.0
 40
0.375
 41
0.0
 71
     5
 72
     1
  1
\A1;1.48 [37.7]
  7
TXT
 73
     1
 44
1.0
  0
POINT
  5
701
330
29C
100
AcDbEntity
  8
DEFPOINTS
 62
     0
100
AcDbPoint
 10
22.88083134378394
 20
18.92548915248264
 30
0.0
  0
POINT
  5
702
330
29C
100
AcDbEntity
  8
DEFPOINTS
 62
     0
100
AcDbPoint
 10
23.17183134378394
 20
17.44148915248264
 30
0.0
  0
POINT
  5
703
330
29C
100
AcDbEntity
  8
DEFPOINTS
 62
     0
100
AcDbPoint
 10
24.60363987904378
 20
17.44148915248264
 30
0.0
  0
ENDBLK
  5
2A8
330
29C
100
AcDbEntity
  8
0
100
AcDbBlockEnd
  0
BLOCK
  5
2B5
330
2AA
100
AcDbEntity
  8
0
100
AcDbBlockBegin
  2
*D14
 70
     1
 10
0.0
 20
0.0
 30
0.0
  3
*D14
  1

  0
LINE
  5
790
330
2AA
100
AcDbEntity
  8
DIM
 62
     0
370
    -2
100
AcDbLine
 10
23.06983134378394
 20
24.19148915248265
 30
0.0
 11
26.45592845868854
 21
24.19148915248264
 31
0.0
  0
LINE
  5
791
330
2AA
100
AcDbEntity
  8
DIM
 62
     0
370
    -2
100
AcDbLine
 10
23.06983134378394
 20
26.44148915248265
 30
0.0
 11
26.45592845868854
 21
26.44148915248264
 31
0.0
  0
LINE
  5
792
330
2AA
100
AcDbEntity
  8
DIM
 62
     0
370
    -2
100
AcDbLine
 10
26.17692845868854
 20
24.73148915248264
 30
0.0
 11
26.17692845868854
 21
24.85898915248264
 31
0.0
  0
LINE
  5
793
330
2AA
100
AcDbEntity
  8
DIM
 62
     0
370
    -2
100
AcDbLine
 10
26.17692845868854
 20
25.90148915248264
 30
0.0
 11
26.17692845868854
 21
25.77398915248264
 31
0.0
  0
SOLID
  5
794
330
2AA
100
AcDbEntity
  8
DIM
 62
     0
100
AcDbTrace
 10
26.08692845868854
 20
24.73148915248264
 30
0.0
 11
26.26692845868854
 21
24.73148915248264
 31
0.0
 12
26.17692845868854
 22
24.19148915248264
 32
0.0
 13
26.17692845868854
 23
24.19148915248264
 33
0.0
  0
SOLID
  5
795
330
2AA
100
AcDbEntity
  8
DIM
 62
     0
100
AcDbTrace
 10
26.08692845868854
 20
25.90148915248264
 30
0.0
 11
26.26692845868854
 21
25.90148915248264
 31
0.0
 12
26.17692845868854
 22
26.44148915248264
 32
0.0
 13
26.17692845868854
 23
26.44148915248264
 33
0.0
  0
MTEXT
  5
796
330
2AA
100
AcDbEntity
  8
DIM
 62
     0
100
AcDbMText
 10
26.17692845868853
 20
25.31648915248265
 30
0.0
 40
0.375
 41
0.0
 71
     5
 72
     1
  1
\A1;B
  7
TXT
 73
     1
 44
1.0
  0
POINT
  5
797
330
2AA
100
AcDbEntity
  8
DEFPOINTS
 62
     0
100
AcDbPoint
 10
22.88083134378394
 20
24.19148915248265
 30
0.0
  0
POINT
  5
798
330
2AA
100
AcDbEntity
  8
DEFPOINTS
 62
     0
100
AcDbPoint
 10
22.88083134378394
 20
26.44148915248265
 30
0.0
  0
POINT
  5
799
330
2AA
100
AcDbEntity
  8
DEFPOINTS
 62
     0
100
AcDbPoint
 10
26.17692845868854
 20
26.44148915248264
 30
0.0
  0
ENDBLK
  5
2B6
330
2AA
100
AcDbEntity
  8
0
100
AcDbBlockEnd
  0
BLOCK
  5
2C3
330
2B8
100
AcDbEntity
  8
0
100
AcDbBlockBegin
  2
*D15
 70
     1
 10
0.0
 20
0.0
 30
0.0
  3
*D15
  1

  0
LINE
  5
768
330
2B8
100
AcDbEntity
  8
DIM
 62
     0
370
    -2
100
AcDbLine
 10
23.06983134378394
 20
24.19148915248265
 30
0.0
 11
26.45592845868855
 21
24.19148915248264
 31
0.0
  0
LINE
  5
769
330
2B8
100
AcDbEntity
  8
DIM
 62
     0
370
    -2
100
AcDbLine
 10
23.06983134378394
 20
21.17548915248264
 30
0.0
 11
26.45592845868854
 21
21.17548915248264
 31
0.0
  0
LINE
  5
76A
330
2B8
100
AcDbEntity
  8
DIM
 62
     0
370
    -2
100
AcDbLine
 10
26.17692845868854
 20
23.65148915248264
 30
0.0
 11
26.17692845868854
 21
23.14098915248264
 31
0.0
  0
LINE
  5
76B
330
2B8
100
AcDbEntity
  8
DIM
 62
     0
370
    -2
100
AcDbLine
 10
26.17692845868854
 20
21.71548915248264
 30
0.0
 11
26.17692845868854
 21
22.22598915248264
 31
0.0
  0
SOLID
  5
76C
330
2B8
100
AcDbEntity
  8
DIM
 62
     0
100
AcDbTrace
 10
26.08692845868854
 20
23.65148915248264
 30
0.0
 11
26.26692845868854
 21
23.65148915248264
 31
0.0
 12
26.17692845868855
 22
24.19148915248264
 32
0.0
 13
26.17692845868855
 23
24.19148915248264
 33
0.0
  0
SOLID
  5
76D
330
2B8
100
AcDbEntity
  8
DIM
 62
     0
100
AcDbTrace
 10
26.08692845868854
 20
21.71548915248264
 30
0.0
 11
26.26692845868854
 21
21.71548915248264
 31
0.0
 12
26.17692845868854
 22
21.17548915248264
 32
0.0
 13
26.17692845868854
 23
21.17548915248264
 33
0.0
  0
MTEXT
  5
76E
330
2B8
100
AcDbEntity
  8
DIM
 62
     0
100
AcDbMText
 10
26.17692845868854
 20
22.68348915248265
 30
0.0
 40
0.375
 41
0.0
 71
     5
 72
     1
  1
\A1;C
  7
TXT
 73
     1
 44
1.0
  0
POINT
  5
76F
330
2B8
100
AcDbEntity
  8
DEFPOINTS
 62
     0
100
AcDbPoint
 10
22.88083134378394
 20
24.19148915248265
 30
0.0
  0
POINT
  5
770
330
2B8
100
AcDbEntity
  8
DEFPOINTS
 62
     0
100
AcDbPoint
 10
22.88083134378394
 20
21.17548915248264
 30
0.0
  0
POINT
  5
771
330
2B8
100
AcDbEntity
  8
DEFPOINTS
 62
     0
100
AcDbPoint
 10
26.17692845868854
 20
21.17548915248264
 30
0.0
  0
ENDBLK
  5
2C4
330
2B8
100
AcDbEntity
  8
0
100
AcDbBlockEnd
  0
BLOCK
  5
2D1
330
2C6
100
AcDbEntity
  8
0
100
AcDbBlockBegin
  2
*D16
 70
     1
 10
0.0
 20
0.0
 30
0.0
  3
*D16
  1

  0
LINE
  5
61D
330
2C6
100
AcDbEntity
  8
DIM
 62
     0
370
    -2
100
AcDbLine
 10
23.17183134378394
 20
36.57287115248264
 30
0.0
 11
23.17183134378394
 21
37.46387115248265
 31
0.0
  0
LINE
  5
61E
330
2C6
100
AcDbEntity
  8
DIM
 62
     0
370
    -2
100
AcDbLine
 10
4.17183134378394
 20
36.57287115248264
 30
0.0
 11
4.17183134378394
 21
37.46387115248265
 31
0.0
  0
LINE
  5
61F
330
2C6
100
AcDbEntity
  8
DIM
 62
     0
370
    -2
100
AcDbLine
 10
22.63183134378393
 20
37.18487115248265
 30
0.0
 11
15.34808134378394
 21
37.18487115248265
 31
0.0
  0
LINE
  5
620
330
2C6
100
AcDbEntity
  8
DIM
 62
     0
370
    -2
100
AcDbLine
 10
4.71183134378394
 20
37.18487115248265
 30
0.0
 11
11.99558134378394
 21
37.18487115248265
 31
0.0
  0
SOLID
  5
621
330
2C6
100
AcDbEntity
  8
DIM
 62
     0
100
AcDbTrace
 10
22.63183134378393
 20
37.27487115248265
 30
0.0
 11
22.63183134378393
 21
37.09487115248264
 31
0.0
 12
23.17183134378394
 22
37.18487115248265
 32
0.0
 13
23.17183134378394
 23
37.18487115248265
 33
0.0
  0
SOLID
  5
622
330
2C6
100
AcDbEntity
  8
DIM
 62
     0
100
AcDbTrace
 10
4.71183134378394
 20
37.27487115248265
 30
0.0
 11
4.71183134378394
 21
37.09487115248264
 31
0.0
 12
4.17183134378394
 22
37.18487115248265
 32
0.0
 13
4.17183134378394
 23
37.18487115248265
 33
0.0
  0
MTEXT
  5
623
330
2C6
100
AcDbEntity
  8
DIM
 62
     0
100
AcDbMText
 10
13.67183134378394
 20
37.18487115248265
 30
0.0
 40
0.375
 41
0.0
 71
     5
 72
     1
  1
\A1;19.00 [482.6]
  7
TXT
 73
     1
 44
1.0
  0
POINT
  5
624
330
2C6
100
AcDbEntity
  8
DEFPOINTS
 62
     0
100
AcDbPoint
 10
23.17183134378394
 20
36.38387115248264
 30
0.0
  0
POINT
  5
625
330
2C6
100
AcDbEntity
  8
DEFPOINTS
 62
     0
100
AcDbPoint
 10
4.17183134378394
 20
36.38387115248264
 30
0.0
  0
POINT
  5
626
330
2C6
100
AcDbEntity
  8
DEFPOINTS
 62
     0
100
AcDbPoint
 10
4.17183134378394
 20
37.18487115248265
 30
0.0
  0
ENDBLK
  5
2D2
330
2C6
100
AcDbEntity
  8
0
100
AcDbBlockEnd
  0
BLOCK
  5
2DF
330
2D4
100
AcDbEntity
  8
0
100
AcDbBlockBegin
  2
*D17
 70
     1
 10
0.0
 20
0.0
 30
0.0
  3
*D17
  1

  0
LINE
  5
627
330
2D4
100
AcDbEntity
  8
DIM
 62
     0
370
    -2
100
AcDbLine
 10
23.17183134378394
 20
28.11448915248265
 30
0.0
 11
23.17183134378394
 21
29.00548915248264
 31
0.0
  0
LINE
  5
628
330
2D4
100
AcDbEntity
  8
DIM
 62
     0
370
    -2
100
AcDbLine
 10
4.17183134378394
 20
28.11448915248265
 30
0.0
 11
4.17183134378394
 21
29.00548915248264
 31
0.0
  0
LINE
  5
629
330
2D4
100
AcDbEntity
  8
DIM
 62
     0
370
    -2
100
AcDbLine
 10
22.63183134378393
 20
28.72648915248264
 30
0.0
 11
15.34808134378394
 21
28.72648915248264
 31
0.0
  0
LINE
  5
62A
330
2D4
100
AcDbEntity
  8
DIM
 62
     0
370
    -2
100
AcDbLine
 10
4.71183134378394
 20
28.72648915248264
 30
0.0
 11
11.99558134378394
 21
28.72648915248264
 31
0.0
  0
SOLID
  5
62B
330
2D4
100
AcDbEntity
  8
DIM
 62
     0
100
AcDbTrace
 10
22.63183134378393
 20
28.81648915248264
 30
0.0
 11
22.63183134378393
 21
28.63648915248264
 31
0.0
 12
23.17183134378394
 22
28.72648915248264
 32
0.0
 13
23.17183134378394
 23
28.72648915248264
 33
0.0
  0
SOLID
  5
62C
330
2D4
100
AcDbEntity
  8
DIM
 62
     0
100
AcDbTrace
 10
4.71183134378394
 20
28.81648915248264
 30
0.0
 11
4.71183134378394
 21
28.63648915248264
 31
0.0
 12
4.17183134378394
 22
28.72648915248264
 32
0.0
 13
4.17183134378394
 23
28.72648915248264
 33
0.0
  0
MTEXT
  5
62D
330
2D4
100
AcDbEntity
  8
DIM
 62
     0
100
AcDbMText
 10
13.67183134378394
 20
28.72648915248264
 30
0.0
 40
0.375
 41
0.0
 71
     5
 72
     1
  1
\A1;19.00 [482.6]
  7
TXT
 73
     1
 44
1.0
  0
POINT
  5
62E
330
2D4
100
AcDbEntity
  8
DEFPOINTS
 62
     0
100
AcDbPoint
 10
23.17183134378394
 20
27.92548915248264
 30
0.0
  0
POINT
  5
62F
330
2D4
100
AcDbEntity
  8
DEFPOINTS
 62
     0
100
AcDbPoint
 10
4.17183134378394
 20
27.92548915248264
 30
0.0
  0
POINT
  5
630
330
2D4
100
AcDbEntity
  8
DEFPOINTS
 62
     0
100
AcDbPoint
 10
4.17183134378394
 20
28.72648915248264
 30
0.0
  0
ENDBLK
  5
2E0
330
2D4
100
AcDbEntity
  8
0
100
AcDbBlockEnd
  0
ENDSEC
  0
SECTION
  2
ENTITIES
  0
LINE
  5
126
330
1E
100
AcDbEntity
  8
TITLE
100
AcDbLine
 10
30.174
 20
0.8100000000000001
 30
0.0
 11
0.186
 21
0.8100000000000001
 31
0.0
  0
LINE
  5
127
330
1E
100
AcDbEntity
  8
TITLE
100
AcDbLine
 10
30.174
 20
1.434
 30
0.0
 11
0.186
 21
1.434
 31
0.0
  0
LINE
  5
128
330
1E
100
AcDbEntity
  8
TITLE
100
AcDbLine
 10
30.174
 20
2.058
 30
0.0
 11
0.186
 21
2.058
 31
0.0
  0
LINE
  5
129
330
1E
100
AcDbEntity
  8
TITLE
100
AcDbLine
 10
30.174
 20
2.681999999999999
 30
0.0
 11
0.186
 21
2.681999999999999
 31
0.0
  0
LINE
  5
12A
330
1E
100
AcDbEntity
  8
TITLE
100
AcDbLine
 10
30.174
 20
3.306
 30
0.0
 11
0.186
 21
3.306
 31
0.0
  0
LINE
  5
12B
330
1E
100
AcDbEntity
  8
TITLE
100
AcDbLine
 10
30.174
 20
3.93
 30
0.0
 11
0.186
 21
3.93
 31
0.0
  0
LINE
  5
12C
330
1E
100
AcDbEntity
  8
TITLE
100
AcDbLine
 10
30.174
 20
4.553999999999999
 30
0.0
 11
0.186
 21
4.553999999999999
 31
0.0
  0
LINE
  5
12D
330
1E
100
AcDbEntity
  8
TITLE
100
AcDbLine
 10
30.174
 20
5.177999999999999
 30
0.0
 11
0.186
 21
5.177999999999999
 31
0.0
  0
LINE
  5
12E
330
1E
100
AcDbEntity
  8
TITLE
100
AcDbLine
 10
30.174
 20
5.802
 30
0.0
 11
0.186
 21
5.802
 31
0.0
  0
LINE
  5
12F
330
1E
100
AcDbEntity
  8
TITLE
100
AcDbLine
 10
30.174
 20
6.426
 30
0.0
 11
0.186
 21
6.426
 31
0.0
  0
LINE
  5
130
330
1E
100
AcDbEntity
  8
TITLE
100
AcDbLine
 10
30.174
 20
7.049999999999999
 30
0.0
 11
0.186
 21
7.049999999999999
 31
0.0
  0
LINE
  5
131
330
1E
100
AcDbEntity
  8
TITLE
100
AcDbLine
 10
30.174
 20
7.673999999999999
 30
0.0
 11
0.186
 21
7.673999999999999
 31
0.0
  0
LINE
  5
132
330
1E
100
AcDbEntity
  8
TITLE
100
AcDbLine
 10
30.174
 20
8.298
 30
0.0
 11
0.186
 21
8.298
 31
0.0
  0
TEXT
  5
139
330
1E
100
AcDbEntity
  8
TEXT
100
AcDbText
 10
1.628565889421111
 20
7.7985
 30
0.0
 40
0.375
  1
PART NO.
 41
0.75
  7
TXT
 72
     4
 11
2.612940889421111
 21
7.986
 31
0.0
100
AcDbText
  0
TEXT
  5
13B
330
1E
100
AcDbEntity
  8
TEXT
100
AcDbText
 10
12.1461365854678
 20
7.7985
 30
0.0
 40
0.375
  1
TYPE
 41
0.75
  7
TXT
 72
     4
 11
12.6617615854678
 21
7.986
 31
0.0
100
AcDbText
  0
TEXT
  5
13C
330
1E
100
AcDbEntity
  8
TEXT
100
AcDbText
 10
17.64345800171989
 20
7.7985
 30
0.0
 40
0.375
  1
A
 41
0.75
  7
TXT
 72
     4
 11
17.73720800171989
 21
7.986
 31
0.0
100
AcDbText
  0
TEXT
  5
13D
330
1E
100
AcDbEntity
  8
TEXT
100
AcDbText
 10
22.5030552675143
 20
7.7985
 30
0.0
 40
0.375
  1
B
 41
0.75
  7
TXT
 72
     4
 11
22.5968052675143
 21
7.986
 31
0.0
100
AcDbText
  0
TEXT
  5
13E
330
1E
100
AcDbEntity
  8
TEXT
100
AcDbText
 10
27.65045146755118
 20
7.7985
 30
0.0
 40
0.375
  1
C
 41
0.75
  7
TXT
 72
     4
 11
27.74420146755117
 21
7.986
 31
0.0
100
AcDbText
  0
TEXT
  5
13F
330
1E
100
AcDbEntity
  8
TEXT
100
AcDbText
 10
1.746974150457615
 20
7.1735
 30
0.0
 40
0.375
  1
PA-1131
 41
0.75
  7
TXT
 72
     4
 11
2.543849150457615
 21
7.361
 31
0.0
100
AcDbText
  0
TEXT
  5
140
330
1E
100
AcDbEntity
  8
TEXT
100
AcDbText
 10
1.700099150457615
 20
6.5485
 30
0.0
 40
0.375
  1
PA-1132
 41
0.75
  7
TXT
 72
     4
 11
2.543849150457615
 21
6.736
 31
0.0
100
AcDbText
  0
TEXT
  5
141
330
1E
100
AcDbEntity
  8
TEXT
100
AcDbText
 10
1.700099150457615
 20
5.9235
 30
0.0
 40
0.375
  1
PA-1133
 41
0.75
  7
TXT
 72
     4
 11
2.543849150457615
 21
6.111
 31
0.0
100
AcDbText
  0
TEXT
  5
142
330
1E
100
AcDbEntity
  8
TEXT
100
AcDbText
 10
1.700099150457615
 20
5.2985
 30
0.0
 40
0.375
  1
PA-1134
 41
0.75
  7
TXT
 72
     4
 11
2.543849150457615
 21
5.486
 31
0.0
100
AcDbText
  0
TEXT
  5
143
330
1E
100
AcDbEntity
  8
TEXT
100
AcDbText
 10
1.700099150457615
 20
4.6735
 30
0.0
 40
0.375
  1
PA-1135
 41
0.75
  7
TXT
 72
     4
 11
2.543849150457615
 21
4.861
 31
0.0
100
AcDbText
  0
TEXT
  5
144
330
1E
100
AcDbEntity
  8
TEXT
100
AcDbText
 10
1.700099150457615
 20
4.0485
 30
0.0
 40
0.375
  1
PA-1136
 41
0.75
  7
TXT
 72
     4
 11
2.543849150457615
 21
4.236
 31
0.0
100
AcDbText
  0
TEXT
  5
145
330
1E
100
AcDbEntity
  8
TEXT
100
AcDbText
 10
1.700099150457615
 20
3.4235
 30
0.0
 40
0.375
  1
PA-1137
 41
0.75
  7
TXT
 72
     4
 11
2.543849150457615
 21
3.611
 31
0.0
100
AcDbText
  0
TEXT
  5
146
330
1E
100
AcDbEntity
  8
TEXT
100
AcDbText
 10
1.700099150457615
 20
2.7985
 30
0.0
 40
0.375
  1
PA-1138
 41
0.75
  7
TXT
 72
     4
 11
2.543849150457615
 21
2.986
 31
0.0
100
AcDbText
  0
TEXT
  5
147
330
1E
100
AcDbEntity
  8
TEXT
100
AcDbText
 10
1.700099150457615
 20
2.173499999999999
 30
0.0
 40
0.375
  1
PA-1139
 41
0.75
  7
TXT
 72
     4
 11
2.543849150457615
 21
2.360999999999999
 31
0.0
100
AcDbText
  0
TEXT
  5
148
330
1E
100
AcDbEntity
  8
TEXT
100
AcDbText
 10
1.723536650457615
 20
1.548499999999999
 30
0.0
 40
0.375
  1
PA-1140
 41
0.75
  7
TXT
 72
     4
 11
2.543849150457615
 21
1.735999999999999
 31
0.0
100
AcDbText
  0
TEXT
  5
149
330
1E
100
AcDbEntity
  8
TEXT
100
AcDbText
 10
1.746974150457615
 20
0.9234999999999997
 30
0.0
 40
0.375
  1
PA-1141
 41
0.75
  7
TXT
 72
     4
 11
2.543849150457615
 21
1.110999999999999
 31
0.0
100
AcDbText
  0
TEXT
  5
14A
330
1E
100
AcDbEntity
  8
TEXT
100
AcDbText
 10
1.700099150457615
 20
0.2985
 30
0.0
 40
0.375
  1
PA-1142
 41
0.75
  7
TXT
 72
     4
 11
2.543849150457615
 21
0.486
 31
0.0
100
AcDbText
  0
TEXT
  5
163
330
1E
100
AcDbEntity
  8
TEXT
100
AcDbText
 10
12.5680115854678
 20
7.1735
 30
0.0
 40
0.375
  1
A
 41
0.75
  7
TXT
 72
     4
 11
12.6617615854678
 21
7.361
 31
0.0
100
AcDbText
  0
TEXT
  5
164
330
1E
100
AcDbEntity
  8
TEXT
100
AcDbText
 10
12.5680115854678
 20
6.5485
 30
0.0
 40
0.375
  1
A
 41
0.75
  7
TXT
 72
     4
 11
12.6617615854678
 21
6.736
 31
0.0
100
AcDbText
  0
TEXT
  5
165
330
1E
100
AcDbEntity
  8
TEXT
100
AcDbText
 10
12.5680115854678
 20
5.9235
 30
0.0
 40
0.375
  1
B
 41
0.75
  7
TXT
 72
     4
 11
12.6617615854678
 21
6.111
 31
0.0
100
AcDbText
  0
TEXT
  5
166
330
1E
100
AcDbEntity
  8
TEXT
100
AcDbText
 10
12.5680115854678
 20
5.2985
 30
0.0
 40
0.375
  1
B
 41
0.75
  7
TXT
 72
     4
 11
12.6617615854678
 21
5.486
 31
0.0
100
AcDbText
  0
TEXT
  5
167
330
1E
100
AcDbEntity
  8
TEXT
100
AcDbText
 10
12.5680115854678
 20
4.6735
 30
0.0
 40
0.375
  1
B
 41
0.75
  7
TXT
 72
     4
 11
12.6617615854678
 21
4.861
 31
0.0
100
AcDbText
  0
TEXT
  5
168
330
1E
100
AcDbEntity
  8
TEXT
100
AcDbText
 10
12.5680115854678
 20
4.0485
 30
0.0
 40
0.375
  1
C
 41
0.75
  7
TXT
 72
     4
 11
12.6617615854678
 21
4.236
 31
0.0
100
AcDbText
  0
TEXT
  5
169
330
1E
100
AcDbEntity
  8
TEXT
100
AcDbText
 10
12.5680115854678
 20
3.4235
 30
0.0
 40
0.375
  1
C
 41
0.75
  7
TXT
 72
     4
 11
12.6617615854678
 21
3.611
 31
0.0
100
AcDbText
  0
TEXT
  5
16A
330
1E
100
AcDbEntity
  8
TEXT
100
AcDbText
 10
12.5680115854678
 20
2.7985
 30
0.0
 40
0.375
  1
C
 41
0.75
  7
TXT
 72
     4
 11
12.6617615854678
 21
2.986
 31
0.0
100
AcDbText
  0
TEXT
  5
16B
330
1E
100
AcDbEntity
  8
TEXT
100
AcDbText
 10
12.5680115854678
 20
2.173499999999999
 30
0.0
 40
0.375
  1
C
 41
0.75
  7
TXT
 72
     4
 11
12.6617615854678
 21
2.360999999999999
 31
0.0
100
AcDbText
  0
TEXT
  5
16C
330
1E
100
AcDbEntity
  8
TEXT
100
AcDbText
 10
12.5680115854678
 20
1.548499999999999
 30
0.0
 40
0.375
  1
C
 41
0.75
  7
TXT
 72
     4
 11
12.6617615854678
 21
1.735999999999999
 31
0.0
100
AcDbText
  0
TEXT
  5
16D
330
1E
100
AcDbEntity
  8
TEXT
100
AcDbText
 10
12.5680115854678
 20
0.9234999999999997
 30
0.0
 40
0.375
  1
C
 41
0.75
  7
TXT
 72
     4
 11
12.6617615854678
 21
1.110999999999999
 31
0.0
100
AcDbText
  0
TEXT
  5
16E
330
1E
100
AcDbEntity
  8
TEXT
100
AcDbText
 10
12.5680115854678
 20
0.2984999999999998
 30
0.0
 40
0.375
  1
C
 41
0.75
  7
TXT
 72
     4
 11
12.6617615854678
 21
0.4859999999999998
 31
0.0
100
AcDbText
  0
TEXT
  5
187
330
1E
100
AcDbEntity
  8
TEXT
100
AcDbText
 10
27.65045146755118
 20
7.1735
 30
0.0
 40
0.375
  1
-
 41
0.75
  7
TXT
 72
     4
 11
27.74420146755117
 21
7.361
 31
0.0
100
AcDbText
  0
TEXT
  5
188
330
1E
100
AcDbEntity
  8
TEXT
100
AcDbText
 10
27.65045146755118
 20
6.5485
 30
0.0
 40
0.375
  1
-
 41
0.75
  7
TXT
 72
     4
 11
27.74420146755117
 21
6.736
 31
0.0
100
AcDbText
  0
TEXT
  5
189
330
1E
100
AcDbEntity
  8
TEXT
100
AcDbText
 10
27.65045146755118
 20
5.9235
 30
0.0
 40
0.375
  1
-
 41
0.75
  7
TXT
 72
     4
 11
27.74420146755117
 21
6.111
 31
0.0
100
AcDbText
  0
TEXT
  5
18A
330
1E
100
AcDbEntity
  8
TEXT
100
AcDbText
 10
27.65045146755118
 20
5.2985
 30
0.0
 40
0.375
  1
-
 41
0.75
  7
TXT
 72
     4
 11
27.74420146755117
 21
5.486
 31
0.0
100
AcDbText
  0
TEXT
  5
18B
330
1E
100
AcDbEntity
  8
TEXT
100
AcDbText
 10
27.65045146755118
 20
4.6735
 30
0.0
 40
0.375
  1
-
 41
0.75
  7
TXT
 72
     4
 11
27.74420146755117
 21
4.861
 31
0.0
100
AcDbText
  0
TEXT
  5
195
330
1E
100
AcDbEntity
  8
TEXT
100
AcDbText
 10
5.361266180349834
 20
45.453
 30
0.0
 40
0.468
  1
RELAY RACK PANELS
 41
0.75
  7
TXT
 72
     4
 11
8.286266180349834
 21
45.68699999999999
 31
0.0
100
AcDbText
  0
INSERT
  5
1D7
330
1E
100
AcDbEntity
  8
TITLE
100
AcDbBlockReference
  2
HB
 10
0.0
 20
0.0
 30
0.0
 41
3.0
 42
3.0
 43
3.0
  0
LINE
  5
1D8
330
1E
100
AcDbEntity
  8
OBJECT
100
AcDbLine
 10
18.60567628447881
 20
12.86154921803541
 30
0.0
 11
22.77641928447881
 21
12.86154921803541
 31
0.0
  0
LINE
  5
1D9
330
1E
100
AcDbEntity
  8
OBJECT
100
AcDbLine
 10
18.60567628447881
 20
10.28150621803541
 30
0.0
 11
18.60567628447881
 21
12.86154921803541
 31
0.0
  0
DIMENSION
  5
1DA
330
1E
100
AcDbEntity
  8
DIM
100
AcDbDimension
  2
*D1
 10
20.76167628447881
 20
14.62658121803541
 30
0.0
 11
23.26011378447881
 21
14.62658121803541
 31
0.0
 70
    32
  1
<>
 71
     5
 42
0.5390000000000006
  3
23NSTD4
100
AcDbAlignedDimension
 13
18.60567628447881
 23
12.86154921803541
 33
0.0
 14
20.76167628447881
 24
11.92554921803541
 34
0.0
100
AcDbRotatedDimension
  0
DIMENSION
  5
1E8
330
1E
100
AcDbEntity
  8
DIM
100
AcDbDimension
  2
*D2
 10
20.76167628447881
 20
13.78358121803541
 30
0.0
 11
23.18980128447881
 21
13.78358121803541
 31
0.0
 70
    32
  1
<>
 71
     5
 42
0.4060000000000006
  3
23NSTD4
100
AcDbAlignedDimension
 13
19.13767628447881
 23
11.92554921803541
 33
0.0
 14
20.76167628447881
 24
11.92554921803541
 34
0.0
100
AcDbRotatedDimension
  0
DIMENSION
  5
1F6
330
1E
100
AcDbEntity
  8
DIM
100
AcDbDimension
  2
*D3
 10
17.42945428447881
 20
11.36954921803541
 30
0.0
 11
17.42945428447881
 21
11.92554921803541
 31
0.0
 70
    32
  1
<>
 71
     5
 42
0.2779999999999987
  3
23NSTD4I
100
AcDbAlignedDimension
 13
19.69367728447881
 23
12.48154921803541
 33
0.0
 14
19.69367628447881
 24
11.36954921803541
 34
0.0
 50
90.0
100
AcDbRotatedDimension
  0
TEXT
  5
204
330
1E
100
AcDbEntity
  8
TEXT
100
AcDbText
 10
18.43401228447881
 20
9.476314218035419
 30
0.0
 40
0.375
  1
NOTCH DETAIL
 41
0.75
  7
TXT
100
AcDbText
  0
TEXT
  5
205
330
1E
100
AcDbEntity
  8
TEXT
100
AcDbText
 10
12.68276884378394
 20
38.61917815248265
 30
0.0
 40
0.375
  1
%%uTYPE "A"
 41
0.75
  7
TXT
 72
     1
 11
13.67183134378394
 21
38.61917815248265
 31
0.0
100
AcDbText
  0
TEXT
  5
207
330
1E
100
AcDbEntity
  8
TEXT
100
AcDbText
 10
3.300532999999999
 20
13.14137044329109
 30
0.0
 40
0.375
  1
MATERIAL: 0.13 [3.2] THK. ALUMINUM
 41
0.75
  7
TXT
100
AcDbText
  0
TEXT
  5
208
330
1E
100
AcDbEntity
  8
TEXT
100
AcDbText
 10
3.300532999999999
 20
12.51537044329109
 30
0.0
 40
0.375
  1
FINISH: METALLIC GRAY
 41
0.75
  7
TXT
100
AcDbText
  0
TEXT
  5
209
330
1E
100
AcDbEntity
  8
TEXT
100
AcDbText
 10
5.140064999999999
 20
11.89037044329109
 30
0.0
 40
0.375
  1
WHITE TEXTURE
 41
0.75
  7
TXT
100
AcDbText
  0
TEXT
  5
20E
330
1E
100
AcDbEntity
  8
TEXT
100
AcDbText
 10
17.11401003764644
 20
45.45076267780841
 30
0.0
 40
0.468
  1
PA-1131 THRU PA-1142
 41
0.75
  7
TXT
 72
     4
 11
20.27301003764644
 21
45.68476267780842
 31
0.0
100
AcDbText
  0
LINE
  5
20F
330
1E
100
AcDbEntity
  8
OBJECT
100
AcDbLine
 10
23.17183134378394
 20
31.14987115248264
 30
0.0
 11
4.171831343783942
 21
31.14987115248264
 31
0.0
  0
LINE
  5
210
330
1E
100
AcDbEntity
  8
OBJECT
100
AcDbLine
 10
4.171831343783942
 20
36.38387115248264
 30
0.0
 11
23.17183134378394
 21
36.38387115248264
 31
0.0
  0
LINE
  5
211
330
1E
100
AcDbEntity
  8
OBJECT
100
AcDbLine
 10
4.171831343783942
 20
31.14987115248264
 30
0.0
 11
4.171831343783942
 21
36.38387115248264
 31
0.0
  0
DIMENSION
  5
212
330
1E
100
AcDbEntity
  8
DIM
100
AcDbDimension
  2
*D4
 10
24.60363987904378
 20
31.14987115248264
 30
0.0
 11
24.60363987904378
 21
31.89187115248265
 31
0.0
 70
    32
 71
     5
 42
1.484000000000005
  3
23NSTDI
100
AcDbAlignedDimension
 13
22.88083134378394
 23
32.63387115248264
 33
0.0
 14
23.17183134378394
 24
31.14987115248264
 34
0.0
 50
90.0
100
AcDbRotatedDimension
  0
DIMENSION
  5
220
330
1E
100
AcDbEntity
  8
DIM
100
AcDbDimension
  2
*D5
 10
27.83524697829866
 20
36.38387115248264
 30
0.0
 11
27.83524697829866
 21
33.76687115248265
 31
0.0
 70
    32
  1
A
 71
     5
 42
5.234000000000005
  3
23NSTD
100
AcDbAlignedDimension
 13
23.17183134378394
 23
31.14987115248264
 33
0.0
 14
23.17183134378394
 24
36.38387115248264
 34
0.0
 50
90.0
100
AcDbRotatedDimension
  0
DIMENSION
  5
22E
330
1E
100
AcDbEntity
  8
DIM
100
AcDbDimension
  2
*D6
 10
26.17692845868854
 20
32.63387115248264
 30
0.0
 11
26.17692845868854
 21
33.76687115248265
 31
0.0
 70
    32
  1
B
 71
     5
 42
2.265999999999998
  3
23NSTDI
100
AcDbAlignedDimension
 13
22.88083134378394
 23
34.89987115248264
 33
0.0
 14
22.88083134378394
 24
32.63387115248264
 34
0.0
 50
90.0
100
AcDbRotatedDimension
  0
LINE
  5
23C
330
1E
100
AcDbEntity
  8
OBJECT
100
AcDbLine
 10
23.17183134378394
 20
36.38387115248264
 30
0.0
 11
23.17183134378394
 21
31.14987115248264
 31
0.0
  0
LINE
  5
23D
330
1E
100
AcDbEntity
  8
CENTER
100
AcDbLine
 10
4.462831343783939
 20
41.19917815248265
 30
0.0
 11
4.552831343783942
 21
41.19917815248265
 31
0.0
  0
LINE
  5
23E
330
1E
100
AcDbEntity
  8
CENTER
100
AcDbLine
 10
4.507831343783941
 20
41.15417815248265
 30
0.0
 11
4.507831343783941
 21
41.24417815248264
 31
0.0
  0
LINE
  5
23F
330
1E
100
AcDbEntity
  8
OBJECT
100
AcDbLine
 10
4.171831343783942
 20
39.69917815248265
 30
0.0
 11
23.17183134378394
 21
39.69917815248265
 31
0.0
  0
LINE
  5
240
330
1E
100
AcDbEntity
  8
OBJECT
100
AcDbLine
 10
4.171831343783942
 20
41.43317815248265
 30
0.0
 11
23.17183134378394
 21
41.43317815248265
 31
0.0
  0
LINE
  5
241
330
1E
100
AcDbEntity
  8
OBJECT
100
AcDbLine
 10
4.171831343783942
 20
39.69917815248265
 30
0.0
 11
4.171831343783942
 21
41.43317815248265
 31
0.0
  0
LINE
  5
242
330
1E
100
AcDbEntity
  8
OBJECT
100
AcDbLine
 10
23.17183134378394
 20
39.69917815248265
 30
0.0
 11
23.17183134378394
 21
41.43317815248265
 31
0.0
  0
DIMENSION
  5
243
330
1E
100
AcDbEntity
  8
DIM
100
AcDbDimension
  2
*D7
 10
4.17183134378394
 20
42.23417815248264
 30
0.0
 11
13.67183134378394
 21
42.23417815248264
 31
0.0
 70
    32
 71
     5
 42
19.0
  3
23NSTD
100
AcDbAlignedDimension
 13
23.17183134378394
 23
41.43317815248265
 33
0.0
 14
4.17183134378394
 24
41.43317815248265
 34
0.0
 50
180.0
100
AcDbRotatedDimension
  0
DIMENSION
  5
251
330
1E
100
AcDbEntity
  8
DIM
100
AcDbDimension
  2
*D8
 10
26.17692845868854
 20
39.93317815248264
 30
0.0
 11
26.17692845868854
 21
40.56617815248265
 31
0.0
 70
    32
  1
B
 71
     5
 42
1.266000000000005
  3
23NSTDI
100
AcDbAlignedDimension
 13
22.88083134378394
 23
41.19917815248265
 33
0.0
 14
22.88083134378394
 24
39.93317815248264
 34
0.0
 50
90.0
100
AcDbRotatedDimension
  0
DIMENSION
  5
25F
330
1E
100
AcDbEntity
  8
DIM
100
AcDbDimension
  2
*D9
 10
27.83524697829866
 20
39.69917815248265
 30
0.0
 11
27.83524697829866
 21
40.56617815248265
 31
0.0
 70
    32
  1
A
 71
     5
 42
1.733999999999994
  3
23NSTDI
100
AcDbAlignedDimension
 13
23.17183134378394
 23
41.43317815248265
 33
0.0
 14
23.17183134378394
 24
39.69917815248265
 34
0.0
 50
90.0
100
AcDbRotatedDimension
  0
DIMENSION
  5
26D
330
1E
100
AcDbEntity
  8
DIM
100
AcDbDimension
  2
*D10
 10
24.60363987904378
 20
39.69917815248265
 30
0.0
 11
22.73895237904378
 21
38.61917815248266
 31
0.0
 70
    32
 71
     5
 42
0.2339999999999947
  3
23NSTD
100
AcDbAlignedDimension
 13
22.88083134378394
 23
39.93317815248264
 33
0.0
 14
23.17183134378394
 24
39.69917815248265
 34
0.0
 50
90.0
100
AcDbRotatedDimension
  0
LINE
  5
27B
330
1E
100
AcDbEntity
  8
OBJECT
100
AcDbLine
 10
4.171831343783942
 20
27.92548915248264
 30
0.0
 11
23.17183134378394
 21
27.92548915248264
 31
0.0
  0
LINE
  5
27C
330
1E
100
AcDbEntity
  8
OBJECT
100
AcDbLine
 10
23.17183134378394
 20
17.44148915248264
 30
0.0
 11
4.171831343783942
 21
17.44148915248264
 31
0.0
  0
LINE
  5
27D
330
1E
100
AcDbEntity
  8
OBJECT
100
AcDbLine
 10
4.171831343783942
 20
17.44148915248264
 30
0.0
 11
4.171831343783942
 21
27.92548915248264
 31
0.0
  0
DIMENSION
  5
27E
330
1E
100
AcDbEntity
  8
DIM
100
AcDbDimension
  2
*D11
 10
27.83524697829866
 20
27.92548915248264
 30
0.0
 11
27.83524697829865
 21
22.68348915248265
 31
0.0
 70
    32
  1
A
 71
     5
 42
10.48399999999999
  3
23NSTD
100
AcDbAlignedDimension
 13
23.17183134378394
 23
17.44148915248264
 33
0.0
 14
23.17183134378394
 24
27.92548915248264
 34
0.0
 50
90.0
100
AcDbRotatedDimension
  0
LINE
  5
28C
330
1E
100
AcDbEntity
  8
OBJECT
100
AcDbLine
 10
23.17183134378394
 20
27.92548915248264
 30
0.0
 11
23.17183134378394
 21
17.44148915248264
 31
0.0
  0
DIMENSION
  5
28D
330
1E
100
AcDbEntity
  8
DIM
100
AcDbDimension
  2
*D12
 10
26.17692845868854
 20
18.92548915248264
 30
0.0
 11
26.17692845868854
 21
20.05048915248265
 31
0.0
 70
   160
  1
B
 71
     5
 42
2.25
  3
23NSTDI
100
AcDbAlignedDimension
 13
22.88083134378394
 23
21.17548915248264
 33
0.0
 14
22.88083134378394
 24
18.92548915248264
 34
0.0
 50
90.0
100
AcDbRotatedDimension
  0
DIMENSION
  5
29B
330
1E
100
AcDbEntity
  8
DIM
100
AcDbDimension
  2
*D13
 10
24.60363987904378
 20
17.44148915248264
 30
0.0
 11
24.60363987904377
 21
18.18348915248265
 31
0.0
 70
    32
 71
     5
 42
1.483999999999998
  3
23NSTDI
100
AcDbAlignedDimension
 13
22.88083134378394
 23
18.92548915248264
 33
0.0
 14
23.17183134378394
 24
17.44148915248264
 34
0.0
 50
90.0
100
AcDbRotatedDimension
  0
DIMENSION
  5
2A9
330
1E
100
AcDbEntity
  8
DIM
100
AcDbDimension
  2
*D14
 10
26.17692845868854
 20
26.44148915248264
 30
0.0
 11
26.17692845868853
 21
25.31648915248265
 31
0.0
 70
   160
  1
B
 71
     5
 42
2.25
  3
23NSTDI
100
AcDbAlignedDimension
 13
22.88083134378394
 23
24.19148915248265
 33
0.0
 14
22.88083134378394
 24
26.44148915248265
 34
0.0
 50
90.0
100
AcDbRotatedDimension
  0
DIMENSION
  5
2B7
330
1E
100
AcDbEntity
  8
DIM
100
AcDbDimension
  2
*D15
 10
26.17692845868854
 20
21.17548915248264
 30
0.0
 11
26.17692845868854
 21
22.68348915248265
 31
0.0
 70
    32
  1
C
 71
     5
 42
3.016000000000001
  3
23NSTDI
100
AcDbAlignedDimension
 13
22.88083134378394
 23
24.19148915248265
 33
0.0
 14
22.88083134378394
 24
21.17548915248264
 34
0.0
 50
90.0
100
AcDbRotatedDimension
  0
DIMENSION
  5
2C5
330
1E
100
AcDbEntity
  8
DIM
100
AcDbDimension
  2
*D16
 10
4.17183134378394
 20
37.18487115248265
 30
0.0
 11
13.67183134378394
 21
37.18487115248265
 31
0.0
 70
    32
 71
     5
 42
19.0
  3
23NSTD
100
AcDbAlignedDimension
 13
23.17183134378394
 23
36.38387115248264
 33
0.0
 14
4.17183134378394
 24
36.38387115248264
 34
0.0
 50
180.0
100
AcDbRotatedDimension
  0
DIMENSION
  5
2D3
330
1E
100
AcDbEntity
  8
DIM
100
AcDbDimension
  2
*D17
 10
4.17183134378394
 20
28.72648915248264
 30
0.0
 11
13.67183134378394
 21
28.72648915248264
 31
0.0
 70
    32
 71
     5
 42
19.0
  3
23NSTD
100
AcDbAlignedDimension
 13
23.17183134378394
 23
27.92548915248264
 33
0.0
 14
4.17183134378394
 24
27.92548915248264
 34
0.0
 50
180.0
100
AcDbRotatedDimension
  0
TEXT
  5
2E1
330
1E
100
AcDbEntity
  8
TEXT
100
AcDbText
 10
12.68276884378394
 20
30.06987115248264
 30
0.0
 40
0.375
  1
%%uTYPE "B"
 41
0.75
  7
TXT
 72
     1
 11
13.67183134378394
 21
30.06987115248264
 31
0.0
100
AcDbText
  0
TEXT
  5
2E2
330
1E
100
AcDbEntity
  8
TEXT
100
AcDbText
 10
12.68276884378394
 20
16.36148915248264
 30
0.0
 40
0.375
  1
%%uTYPE "C"
 41
0.75
  7
TXT
 72
     1
 11
13.67183134378394
 21
16.36148915248264
 31
0.0
100
AcDbText
  0
LWPOLYLINE
  5
2E4
330
1E
100
AcDbEntity
  8
OBJECT
100
AcDbPolyline
 90
        4
 70
     1
 43
0.0
 10
4.57183134378394
 20
41.33817815248264
 10
4.44383134378394
 20
41.33817815248264
 42
1.0
 10
4.44383134378394
 20
41.06017815248264
 10
4.57183134378394
 20
41.06017815248264
 42
1.0
  0
LWPOLYLINE
  5
2EA
330
1E
100
AcDbEntity
  8
OBJECT
100
AcDbPolyline
 90
        4
 70
     1
 43
0.0
 10
4.57183134378394
 20
39.79417815248265
 10
4.44383134378394
 20
39.79417815248265
 42
-1.0
 10
4.44383134378394
 20
40.07217815248265
 10
4.57183134378394
 20
40.07217815248265
 42
-1.0
  0
LINE
  5
2F0
330
1E
100
AcDbEntity
  8
CENTER
100
AcDbLine
 10
4.507831343783941
 20
39.97817815248264
 30
0.0
 11
4.507831343783941
 21
39.88817815248265
 31
0.0
  0
LINE
  5
2F1
330
1E
100
AcDbEntity
  8
CENTER
100
AcDbLine
 10
4.462831343783939
 20
39.93317815248264
 30
0.0
 11
4.552831343783942
 21
39.93317815248264
 31
0.0
  0
LWPOLYLINE
  5
2F2
330
1E
100
AcDbEntity
  8
OBJECT
100
AcDbPolyline
 90
        4
 70
     1
 43
0.0
 10
22.77183134378394
 20
39.79417815248265
 10
22.89983134378394
 20
39.79417815248265
 42
1.0
 10
22.89983134378394
 20
40.07217815248265
 10
22.77183134378394
 20
40.07217815248265
 42
1.0
  0
LINE
  5
2F8
330
1E
100
AcDbEntity
  8
CENTER
100
AcDbLine
 10
22.88083134378394
 20
39.93317815248264
 30
0.0
 11
22.79083134378394
 21
39.93317815248264
 31
0.0
  0
LINE
  5
2F9
330
1E
100
AcDbEntity
  8
CENTER
100
AcDbLine
 10
22.83583134378394
 20
39.97817815248264
 30
0.0
 11
22.83583134378394
 21
39.88817815248265
 31
0.0
  0
LWPOLYLINE
  5
2FA
330
1E
100
AcDbEntity
  8
OBJECT
100
AcDbPolyline
 90
        4
 70
     1
 43
0.0
 10
22.77183134378394
 20
41.33817815248264
 10
22.89983134378394
 20
41.33817815248264
 42
-1.0
 10
22.89983134378394
 20
41.06017815248264
 10
22.77183134378394
 20
41.06017815248264
 42
-1.0
  0
LINE
  5
300
330
1E
100
AcDbEntity
  8
CENTER
100
AcDbLine
 10
22.83583134378394
 20
41.15417815248265
 30
0.0
 11
22.83583134378394
 21
41.24417815248264
 31
0.0
  0
LINE
  5
301
330
1E
100
AcDbEntity
  8
CENTER
100
AcDbLine
 10
22.88083134378394
 20
41.19917815248265
 30
0.0
 11
22.79083134378394
 21
41.19917815248265
 31
0.0
  0
LWPOLYLINE
  5
302
330
1E
100
AcDbEntity
  8
OBJECT
100
AcDbPolyline
 90
        4
 70
     1
 43
0.0
 10
4.57183134378394
 20
34.76087115248265
 10
4.44383134378394
 20
34.76087115248265
 42
-1.0
 10
4.44383134378394
 20
35.03887115248264
 10
4.57183134378394
 20
35.03887115248264
 42
-1.0
  0
LINE
  5
308
330
1E
100
AcDbEntity
  8
CENTER
100
AcDbLine
 10
4.462831343783939
 20
34.89987115248264
 30
0.0
 11
4.552831343783942
 21
34.89987115248264
 31
0.0
  0
LINE
  5
309
330
1E
100
AcDbEntity
  8
CENTER
100
AcDbLine
 10
4.507831343783941
 20
34.94487115248265
 30
0.0
 11
4.507831343783941
 21
34.85487115248265
 31
0.0
  0
LWPOLYLINE
  5
30A
330
1E
100
AcDbEntity
  8
OBJECT
100
AcDbPolyline
 90
        4
 70
     1
 43
0.0
 10
4.57183134378394
 20
32.49487115248264
 10
4.44383134378394
 20
32.49487115248264
 42
-1.0
 10
4.44383134378394
 20
32.77287115248265
 10
4.57183134378394
 20
32.77287115248265
 42
-1.0
  0
LINE
  5
310
330
1E
100
AcDbEntity
  8
CENTER
100
AcDbLine
 10
4.462831343783939
 20
32.63387115248264
 30
0.0
 11
4.552831343783942
 21
32.63387115248264
 31
0.0
  0
LINE
  5
311
330
1E
100
AcDbEntity
  8
CENTER
100
AcDbLine
 10
4.507831343783941
 20
32.67887115248265
 30
0.0
 11
4.507831343783941
 21
32.58887115248264
 31
0.0
  0
LWPOLYLINE
  5
312
330
1E
100
AcDbEntity
  8
OBJECT
100
AcDbPolyline
 90
        4
 70
     1
 43
0.0
 10
22.77183134378394
 20
32.49487115248264
 10
22.89983134378394
 20
32.49487115248264
 42
1.0
 10
22.89983134378394
 20
32.77287115248265
 10
22.77183134378394
 20
32.77287115248265
 42
1.0
  0
LINE
  5
318
330
1E
100
AcDbEntity
  8
CENTER
100
AcDbLine
 10
22.83583134378394
 20
32.67887115248265
 30
0.0
 11
22.83583134378394
 21
32.58887115248264
 31
0.0
  0
LINE
  5
319
330
1E
100
AcDbEntity
  8
CENTER
100
AcDbLine
 10
22.88083134378394
 20
32.63387115248264
 30
0.0
 11
22.79083134378394
 21
32.63387115248264
 31
0.0
  0
LWPOLYLINE
  5
31A
330
1E
100
AcDbEntity
  8
OBJECT
100
AcDbPolyline
 90
        4
 70
     1
 43
0.0
 10
22.77183134378394
 20
34.76087115248265
 10
22.89983134378394
 20
34.76087115248265
 42
1.0
 10
22.89983134378394
 20
35.03887115248264
 10
22.77183134378394
 20
35.03887115248264
 42
1.0
  0
LINE
  5
320
330
1E
100
AcDbEntity
  8
CENTER
100
AcDbLine
 10
22.83583134378394
 20
34.94487115248265
 30
0.0
 11
22.83583134378394
 21
34.85487115248265
 31
0.0
  0
LINE
  5
321
330
1E
100
AcDbEntity
  8
CENTER
100
AcDbLine
 10
22.88083134378394
 20
34.89987115248264
 30
0.0
 11
22.79083134378394
 21
34.89987115248264
 31
0.0
  0
LWPOLYLINE
  5
322
330
1E
100
AcDbEntity
  8
OBJECT
100
AcDbPolyline
 90
        4
 70
     1
 43
0.0
 10
4.57183134378394
 20
26.30248915248264
 10
4.44383134378394
 20
26.30248915248264
 42
-1.0
 10
4.44383134378394
 20
26.58048915248265
 10
4.57183134378394
 20
26.58048915248265
 42
-1.0
  0
LINE
  5
328
330
1E
100
AcDbEntity
  8
CENTER
100
AcDbLine
 10
4.507831343783941
 20
26.48648915248264
 30
0.0
 11
4.507831343783941
 21
26.39648915248264
 31
0.0
  0
LINE
  5
329
330
1E
100
AcDbEntity
  8
CENTER
100
AcDbLine
 10
4.462831343783939
 20
26.44148915248265
 30
0.0
 11
4.552831343783942
 21
26.44148915248265
 31
0.0
  0
LWPOLYLINE
  5
32A
330
1E
100
AcDbEntity
  8
OBJECT
100
AcDbPolyline
 90
        4
 70
     1
 43
0.0
 10
4.57183134378394
 20
24.05248915248265
 10
4.44383134378394
 20
24.05248915248265
 42
-1.0
 10
4.44383134378394
 20
24.33048915248265
 10
4.57183134378394
 20
24.33048915248265
 42
-1.0
  0
LINE
  5
330
330
1E
100
AcDbEntity
  8
CENTER
100
AcDbLine
 10
4.462831343783939
 20
24.19148915248265
 30
0.0
 11
4.552831343783942
 21
24.19148915248265
 31
0.0
  0
LINE
  5
331
330
1E
100
AcDbEntity
  8
CENTER
100
AcDbLine
 10
4.507831343783941
 20
24.23648915248264
 30
0.0
 11
4.507831343783941
 21
24.14648915248264
 31
0.0
  0
LWPOLYLINE
  5
332
330
1E
100
AcDbEntity
  8
OBJECT
100
AcDbPolyline
 90
        4
 70
     1
 43
0.0
 10
4.57183134378394
 20
21.03648915248264
 10
4.44383134378394
 20
21.03648915248264
 42
-1.0
 10
4.44383134378394
 20
21.31448915248264
 10
4.57183134378394
 20
21.31448915248264
 42
-1.0
  0
LWPOLYLINE
  5
338
330
1E
100
AcDbEntity
  8
OBJECT
100
AcDbPolyline
 90
        4
 70
     1
 43
0.0
 10
4.57183134378394
 20
18.78648915248264
 10
4.44383134378394
 20
18.78648915248264
 42
-1.0
 10
4.44383134378394
 20
19.06448915248264
 10
4.57183134378394
 20
19.06448915248264
 42
-1.0
  0
LINE
  5
33E
330
1E
100
AcDbEntity
  8
CENTER
100
AcDbLine
 10
4.507831343783941
 20
18.97048915248264
 30
0.0
 11
4.507831343783941
 21
18.88048915248264
 31
0.0
  0
LINE
  5
33F
330
1E
100
AcDbEntity
  8
CENTER
100
AcDbLine
 10
4.462831343783939
 20
18.92548915248264
 30
0.0
 11
4.552831343783942
 21
18.92548915248264
 31
0.0
  0
LINE
  5
340
330
1E
100
AcDbEntity
  8
CENTER
100
AcDbLine
 10
4.462831343783939
 20
21.17548915248264
 30
0.0
 11
4.552831343783942
 21
21.17548915248264
 31
0.0
  0
LINE
  5
341
330
1E
100
AcDbEntity
  8
CENTER
100
AcDbLine
 10
4.507831343783941
 20
21.22048915248265
 30
0.0
 11
4.507831343783941
 21
21.13048915248264
 31
0.0
  0
LWPOLYLINE
  5
342
330
1E
100
AcDbEntity
  8
OBJECT
100
AcDbPolyline
 90
        4
 70
     1
 43
0.0
 10
22.77183134378394
 20
18.78648915248264
 10
22.89983134378394
 20
18.78648915248264
 42
1.0
 10
22.89983134378394
 20
19.06448915248264
 10
22.77183134378394
 20
19.06448915248264
 42
1.0
  0
LINE
  5
348
330
1E
100
AcDbEntity
  8
CENTER
100
AcDbLine
 10
22.88083134378394
 20
18.92548915248264
 30
0.0
 11
22.79083134378394
 21
18.92548915248264
 31
0.0
  0
LINE
  5
349
330
1E
100
AcDbEntity
  8
CENTER
100
AcDbLine
 10
22.83583134378394
 20
18.97048915248264
 30
0.0
 11
22.83583134378394
 21
18.88048915248264
 31
0.0
  0
LWPOLYLINE
  5
34A
330
1E
100
AcDbEntity
  8
OBJECT
100
AcDbPolyline
 90
        4
 70
     1
 43
0.0
 10
22.77183134378394
 20
21.03648915248264
 10
22.89983134378394
 20
21.03648915248264
 42
1.0
 10
22.89983134378394
 20
21.31448915248264
 10
22.77183134378394
 20
21.31448915248264
 42
1.0
  0
LINE
  5
350
330
1E
100
AcDbEntity
  8
CENTER
100
AcDbLine
 10
22.83583134378394
 20
21.22048915248265
 30
0.0
 11
22.83583134378394
 21
21.13048915248264
 31
0.0
  0
LINE
  5
351
330
1E
100
AcDbEntity
  8
CENTER
100
AcDbLine
 10
22.88083134378394
 20
21.17548915248264
 30
0.0
 11
22.79083134378394
 21
21.17548915248264
 31
0.0
  0
LWPOLYLINE
  5
352
330
1E
100
AcDbEntity
  8
OBJECT
100
AcDbPolyline
 90
        4
 70
     1
 43
0.0
 10
22.77183134378394
 20
26.30248915248264
 10
22.89983134378394
 20
26.30248915248264
 42
1.0
 10
22.89983134378394
 20
26.58048915248265
 10
22.77183134378394
 20
26.58048915248265
 42
1.0
  0
LWPOLYLINE
  5
358
330
1E
100
AcDbEntity
  8
OBJECT
100
AcDbPolyline
 90
        4
 70
     1
 43
0.0
 10
22.77183134378394
 20
24.05248915248265
 10
22.89983134378394
 20
24.05248915248265
 42
1.0
 10
22.89983134378394
 20
24.33048915248265
 10
22.77183134378394
 20
24.33048915248265
 42
1.0
  0
LINE
  5
35E
330
1E
100
AcDbEntity
  8
CENTER
100
AcDbLine
 10
22.83583134378394
 20
24.23648915248264
 30
0.0
 11
22.83583134378394
 21
24.14648915248264
 31
0.0
  0
LINE
  5
35F
330
1E
100
AcDbEntity
  8
CENTER
100
AcDbLine
 10
22.88083134378394
 20
24.19148915248265
 30
0.0
 11
22.79083134378394
 21
24.19148915248265
 31
0.0
  0
LINE
  5
360
330
1E
100
AcDbEntity
  8
CENTER
100
AcDbLine
 10
22.88083134378394
 20
26.44148915248265
 30
0.0
 11
22.79083134378394
 21
26.44148915248265
 31
0.0
  0
LINE
  5
361
330
1E
100
AcDbEntity
  8
CENTER
100
AcDbLine
 10
22.83583134378394
 20
26.48648915248264
 30
0.0
 11
22.83583134378394
 21
26.39648915248264
 31
0.0
  0
LWPOLYLINE
  5
362
330
1E
100
AcDbEntity
  8
OBJECT
100
AcDbPolyline
 90
        4
 70
     1
 43
0.0
 10
20.20567728447881
 20
12.48154921803541
 10
19.69367728447881
 20
12.48154921803541
 42
1.0
 10
19.69367628447881
 20
11.36954921803541
 10
20.20567628447881
 20
11.36954921803541
 42
1.0
  0
LINE
  5
368
330
1E
100
AcDbEntity
  8
CENTER
100
AcDbLine
 10
19.94967628447881
 20
11.74554921803541
 30
0.0
 11
19.94967628447881
 21
12.10554921803541
 31
0.0
  0
LINE
  5
369
330
1E
100
AcDbEntity
  8
CENTER
100
AcDbLine
 10
19.76967628447881
 20
11.92554921803541
 30
0.0
 11
20.12967628447881
 21
11.92554921803541
 31
0.0
  0
LWPOLYLINE
  5
36A
330
1E
100
AcDbEntity
  8
OBJECT
100
AcDbPolyline
 90
       31
 70
     0
 43
0.0
 10
22.77641928447881
 20
12.86154921803541
 10
22.54211228447881
 20
12.59902221803541
 10
22.3597222844788
 20
12.37055721803541
 10
22.22096428447881
 20
12.17368421803541
 10
22.11755228447881
 20
12.00593621803541
 10
22.04120328447881
 20
11.86484321803541
 10
21.98363228447881
 20
11.74793821803541
 10
21.93655428447881
 20
11.65275321803542
 10
21.89168428447881
 20
11.57681821803541
 10
21.84229928447881
 20
11.51752621803541
 10
21.78792328447881
 20
11.47170621803541
 10
21.72964228447881
 20
11.43604621803541
 10
21.66853828447881
 20
11.40723621803541
 10
21.60569928447881
 20
11.38196321803541
 10
21.54220928447881
 20
11.35691721803542
 10
21.47915328447881
 20
11.32878721803541
 10
21.41761628447881
 20
11.29426121803541
 10
21.35832628447881
 20
11.25098021803541
 10
21.30058428447881
 20
11.20038821803541
 10
21.24333428447881
 20
11.14488221803541
 10
21.18552028447881
 20
11.08685921803542
 10
21.12608528447881
 20
11.02871521803541
 10
21.06397428447881
 20
10.97284621803541
 10
20.99813028447881
 20
10.92165021803541
 10
20.92749828447881
 20
10.87752221803541
 10
20.85144528447881
 20
10.84209421803541
 10
20.77103328447881
 20
10.81394321803541
 10
20.68775028447881
 20
10.79088021803541
 10
20.60308128447881
 20
10.77071621803541
 10
20.51851328447881
 20
10.75126321803541
 10
18.60567628447881
 20
10.28150621803541
  0
LINE
  5
455
330
1E
100
AcDbEntity
  8
OBJECT
100
AcDbLine
 10
0.186
 20
8.298
 30
0.0
 11
0.186
 21
0.1860000000000035
 31
0.0
  0
LINE
  5
456
330
1E
100
AcDbEntity
  8
OBJECT
100
AcDbLine
 10
5.183999999999999
 20
8.298
 30
0.0
 11
5.183999999999999
 21
0.1860000000000035
 31
0.0
  0
LINE
  5
457
330
1E
100
AcDbEntity
  8
OBJECT
100
AcDbLine
 10
10.18199999999999
 20
8.298
 30
0.0
 11
10.18199999999999
 21
0.1860000000000035
 31
0.0
  0
LINE
  5
458
330
1E
100
AcDbEntity
  8
OBJECT
100
AcDbLine
 10
15.17999999999999
 20
8.298
 30
0.0
 11
15.17999999999999
 21
0.1860000000000035
 31
0.0
  0
LINE
  5
459
330
1E
100
AcDbEntity
  8
OBJECT
100
AcDbLine
 10
20.17799999999999
 20
8.298
 30
0.0
 11
20.17799999999999
 21
0.1860000000000035
 31
0.0
  0
LINE
  5
45A
330
1E
100
AcDbEntity
  8
OBJECT
100
AcDbLine
 10
25.17599999999999
 20
8.298
 30
0.0
 11
25.17599999999999
 21
0.1860000000000035
 31
0.0
  0
TEXT
  5
45C
330
1E
100
AcDbEntity
  8
TEXT
100
AcDbText
 10
7.33563658546781
 20
0.2984999999999998
 30
0.0
 40
0.375
  1
12U
 41
0.75
  7
TXT
 72
     4
 11
7.66376158546781
 21
0.4859999999999998
 31
0.0
100
AcDbText
  0
TEXT
  5
45D
330
1E
100
AcDbEntity
  8
TEXT
100
AcDbText
 10
7.38251158546781
 20
0.9234999999999997
 30
0.0
 40
0.375
  1
11U
 41
0.75
  7
TXT
 72
     4
 11
7.66376158546781
 21
1.110999999999999
 31
0.0
100
AcDbText
  0
TEXT
  5
45E
330
1E
100
AcDbEntity
  8
TEXT
100
AcDbText
 10
6.53876158546781
 20
7.7985
 30
0.0
 40
0.375
  1
E.I.A. UNIT
 41
0.75
  7
TXT
 72
     4
 11
7.66376158546781
 21
7.986
 31
0.0
100
AcDbText
  0
TEXT
  5
45F
330
1E
100
AcDbEntity
  8
TEXT
100
AcDbText
 10
7.42938658546781
 20
2.173499999999999
 30
0.0
 40
0.375
  1
9U
 41
0.75
  7
TXT
 72
     4
 11
7.66376158546781
 21
2.360999999999999
 31
0.0
100
AcDbText
  0
TEXT
  5
460
330
1E
100
AcDbEntity
  8
TEXT
100
AcDbText
 10
7.35907408546781
 20
1.548499999999999
 30
0.0
 40
0.375
  1
10U
 41
0.75
  7
TXT
 72
     4
 11
7.66376158546781
 21
1.735999999999999
 31
0.0
100
AcDbText
  0
TEXT
  5
461
330
1E
100
AcDbEntity
  8
TEXT
100
AcDbText
 10
7.42938658546781
 20
2.7985
 30
0.0
 40
0.375
  1
8U
 41
0.75
  7
TXT
 72
     4
 11
7.66376158546781
 21
2.986
 31
0.0
100
AcDbText
  0
TEXT
  5
462
330
1E
100
AcDbEntity
  8
TEXT
100
AcDbText
 10
7.42938658546781
 20
4.0485
 30
0.0
 40
0.375
  1
6U
 41
0.75
  7
TXT
 72
     4
 11
7.66376158546781
 21
4.236
 31
0.0
100
AcDbText
  0
TEXT
  5
463
330
1E
100
AcDbEntity
  8
TEXT
100
AcDbText
 10
7.42938658546781
 20
3.4235
 30
0.0
 40
0.375
  1
7U
 41
0.75
  7
TXT
 72
     4
 11
7.66376158546781
 21
3.611
 31
0.0
100
AcDbText
  0
TEXT
  5
464
330
1E
100
AcDbEntity
  8
TEXT
100
AcDbText
 10
7.42938658546781
 20
4.6735
 30
0.0
 40
0.375
  1
5U
 41
0.75
  7
TXT
 72
     4
 11
7.66376158546781
 21
4.861
 31
0.0
100
AcDbText
  0
TEXT
  5
465
330
1E
100
AcDbEntity
  8
TEXT
100
AcDbText
 10
7.42938658546781
 20
6.5485
 30
0.0
 40
0.375
  1
2U
 41
0.75
  7
TXT
 72
     4
 11
7.66376158546781
 21
6.736
 31
0.0
100
AcDbText
  0
TEXT
  5
466
330
1E
100
AcDbEntity
  8
TEXT
100
AcDbText
 10
7.42938658546781
 20
5.9235
 30
0.0
 40
0.375
  1
3U
 41
0.75
  7
TXT
 72
     4
 11
7.66376158546781
 21
6.111
 31
0.0
100
AcDbText
  0
TEXT
  5
467
330
1E
100
AcDbEntity
  8
TEXT
100
AcDbText
 10
7.42938658546781
 20
5.2985
 30
0.0
 40
0.375
  1
4U
 41
0.75
  7
TXT
 72
     4
 11
7.66376158546781
 21
5.486
 31
0.0
100
AcDbText
  0
TEXT
  5
468
330
1E
100
AcDbEntity
  8
TEXT
100
AcDbText
 10
7.47626158546781
 20
7.1735
 30
0.0
 40
0.375
  1
1U
 41
0.75
  7
TXT
 72
     4
 11
7.66376158546781
 21
7.361
 31
0.0
100
AcDbText
  0
TEXT
  5
51A
330
1E
100
AcDbEntity
  8
TEXT
100
AcDbText
 10
27.73986457837125
 20
45.45076267780841
 30
0.0
 40
0.468
  1
7-8-13
 41
0.75
  7
TXT
 72
     4
 11
28.67586457837125
 21
45.68476267780842
 31
0.0
100
AcDbText
  0
TEXT
  5
BFA
330
1E
100
AcDbEntity
  8
TEXT
100
AcDbText
 10
16.32165604075754
 20
0.2985000000000006
 30
0.0
 40
0.375
  1
20.97 [532.6]
 41
0.75
  7
TXT
 72
     4
 11
17.79821854075754
 21
0.4860000000000007
 31
0.0
100
AcDbText
  0
TEXT
  5
BFB
330
1E
100
AcDbEntity
  8
TEXT
100
AcDbText
 10
16.39196854075754
 20
0.9235000000000006
 30
0.0
 40
0.375
  1
19.22 [488.1]
 41
0.75
  7
TXT
 72
     4
 11
17.79821854075754
 21
1.111
 31
0.0
100
AcDbText
  0
TEXT
  5
BFC
330
1E
100
AcDbEntity
  8
TEXT
100
AcDbText
 10
16.34509354075754
 20
1.5485
 30
0.0
 40
0.375
  1
17.47 [443.7]
 41
0.75
  7
TXT
 72
     4
 11
17.79821854075754
 21
1.736
 31
0.0
100
AcDbText
  0
TEXT
  5
BFD
330
1E
100
AcDbEntity
  8
TEXT
100
AcDbText
 10
16.34509354075754
 20
2.1735
 30
0.0
 40
0.375
  1
15.72 [399.2]
 41
0.75
  7
TXT
 72
     4
 11
17.79821854075754
 21
2.361
 31
0.0
100
AcDbText
  0
TEXT
  5
BFE
330
1E
100
AcDbEntity
  8
TEXT
100
AcDbText
 10
16.34509354075754
 20
2.7985
 30
0.0
 40
0.375
  1
13.97 [354.8]
 41
0.75
  7
TXT
 72
     4
 11
17.79821854075754
 21
2.986
 31
0.0
100
AcDbText
  0
TEXT
  5
BFF
330
1E
100
AcDbEntity
  8
TEXT
100
AcDbText
 10
16.41540604075754
 20
3.4235
 30
0.0
 40
0.375
  1
12.22 [310.3]
 41
0.75
  7
TXT
 72
     4
 11
17.79821854075754
 21
3.611
 31
0.0
100
AcDbText
  0
TEXT
  5
C00
330
1E
100
AcDbEntity
  8
TEXT
100
AcDbText
 10
16.36853104075754
 20
4.0485
 30
0.0
 40
0.375
  1
10.47 [265.9]
 41
0.75
  7
TXT
 72
     4
 11
17.79821854075754
 21
4.236
 31
0.0
100
AcDbText
  0
TEXT
  5
C01
330
1E
100
AcDbEntity
  8
TEXT
100
AcDbText
 10
16.48571854075754
 20
4.6735
 30
0.0
 40
0.375
  1
8.72 [221.4]
 41
0.75
  7
TXT
 72
     4
 11
17.79821854075754
 21
4.861
 31
0.0
100
AcDbText
  0
TEXT
  5
C02
330
1E
100
AcDbEntity
  8
TEXT
100
AcDbText
 10
16.50915604075754
 20
5.2985
 30
0.0
 40
0.375
  1
6.97 [177.0]
 41
0.75
  7
TXT
 72
     4
 11
17.79821854075754
 21
5.486
 31
0.0
100
AcDbText
  0
TEXT
  5
C03
330
1E
100
AcDbEntity
  8
TEXT
100
AcDbText
 10
16.48571854075754
 20
5.9235
 30
0.0
 40
0.375
  1
5.22 [132.5]
 41
0.75
  7
TXT
 72
     4
 11
17.79821854075754
 21
6.111
 31
0.0
100
AcDbText
  0
TEXT
  5
C04
330
1E
100
AcDbEntity
  8
TEXT
100
AcDbText
 10
16.62634354075754
 20
6.5485
 30
0.0
 40
0.375
  1
3.47 [88.1]
 41
0.75
  7
TXT
 72
     4
 11
17.79821854075754
 21
6.736
 31
0.0
100
AcDbText
  0
TEXT
  5
C05
330
1E
100
AcDbEntity
  8
TEXT
100
AcDbText
 10
16.62634354075754
 20
7.1735
 30
0.0
 40
0.375
  1
1.72 [43.6]
 41
0.75
  7
TXT
 72
     4
 11
17.79821854075754
 21
7.361
 31
0.0
100
AcDbText
  0
TEXT
  5
C06
330
1E
100
AcDbEntity
  8
TEXT
100
AcDbText
 10
21.4902195154693
 20
4.047499999999999
 30
0.0
 40
0.375
  1
2.25 [57.2]
 41
0.75
  7
TXT
 72
     4
 11
22.7089695154693
 21
4.234999999999999
 31
0.0
100
AcDbText
  0
TEXT
  5
C07
330
1E
100
AcDbEntity
  8
TEXT
100
AcDbText
 10
21.4433445154693
 20
4.6675
 30
0.0
 40
0.375
  1
5.75 [146.1]
 41
0.75
  7
TXT
 72
     4
 11
22.7089695154693
 21
4.855
 31
0.0
100
AcDbText
  0
TEXT
  5
C08
330
1E
100
AcDbEntity
  8
TEXT
100
AcDbText
 10
21.4902195154693
 20
5.919499999999999
 30
0.0
 40
0.375
  1
2.25 [57.2]
 41
0.75
  7
TXT
 72
     4
 11
22.7089695154693
 21
6.106999999999999
 31
0.0
100
AcDbText
  0
TEXT
  5
C09
330
1E
100
AcDbEntity
  8
TEXT
100
AcDbText
 10
21.5370945154693
 20
6.544499999999999
 30
0.0
 40
0.375
  1
3.00 [76.2]
 41
0.75
  7
TXT
 72
     4
 11
22.7089695154693
 21
6.731999999999999
 31
0.0
100
AcDbText
  0
TEXT
  5
C0A
330
1E
100
AcDbEntity
  8
TEXT
100
AcDbText
 10
21.49633837504801
 20
2.796499999999998
 30
0.0
 40
0.375
  1
4.00 [101.6]
 41
0.75
  7
TXT
 72
     4
 11
22.69165087504801
 21
2.983999999999998
 31
0.0
100
AcDbText
  0
TEXT
  5
C0B
330
1E
100
AcDbEntity
  8
TEXT
100
AcDbText
 10
21.49633837504801
 20
2.172499999999999
 30
0.0
 40
0.375
  1
4.00 [101.6]
 41
0.75
  7
TXT
 72
     4
 11
22.69165087504801
 21
2.359999999999999
 31
0.0
100
AcDbText
  0
TEXT
  5
C0C
330
1E
100
AcDbEntity
  8
TEXT
100
AcDbText
 10
21.37915087504801
 20
0.9224999999999994
 30
0.0
 40
0.375
  1
5.25 [133.4]
 41
0.75
  7
TXT
 72
     4
 11
22.69165087504801
 21
1.109999999999999
 31
0.0
100
AcDbText
  0
TEXT
  5
C0D
330
1E
100
AcDbEntity
  8
TEXT
100
AcDbText
 10
21.37915087504801
 20
0.2985000000000006
 30
0.0
 40
0.375
  1
5.25 [133.4]
 41
0.75
  7
TXT
 72
     4
 11
22.69165087504801
 21
0.4860000000000007
 31
0.0
100
AcDbText
  0
TEXT
  5
C0E
330
1E
100
AcDbEntity
  8
TEXT
100
AcDbText
 10
21.49633837504801
 20
1.5485
 30
0.0
 40
0.375
  1
4.00 [101.6]
 41
0.75
  7
TXT
 72
     4
 11
22.69165087504801
 21
1.736
 31
0.0
100
AcDbText
  0
TEXT
  5
C0F
330
1E
100
AcDbEntity
  8
TEXT
100
AcDbText
 10
21.49633837504801
 20
3.4235
 30
0.0
 40
0.375
  1
3.50 [88.9]
 41
0.75
  7
TXT
 72
     4
 11
22.69165087504801
 21
3.611
 31
0.0
100
AcDbText
  0
TEXT
  5
C10
330
1E
100
AcDbEntity
  8
TEXT
100
AcDbText
 10
21.49633837504801
 20
5.2985
 30
0.0
 40
0.375
  1
4.00 [101.6]
 41
0.75
  7
TXT
 72
     4
 11
22.69165087504801
 21
5.486
 31
0.0
100
AcDbText
  0
TEXT
  5
C11
330
1E
100
AcDbEntity
  8
TEXT
100
AcDbText
 10
22.19946337504801
 20
7.1735
 30
0.0
 40
0.375
  1
1.250
 41
0.75
  7
TXT
 72
     4
 11
22.69165087504801
 21
7.361
 31
0.0
100
AcDbText
  0
TEXT
  5
C12
330
1E
100
AcDbEntity
  8
TEXT
100
AcDbText
 10
26.44134451546931
 20
0.2985000000000006
 30
0.0
 40
0.375
  1
7.50 [190.5]
 41
0.75
  7
TXT
 72
     4
 11
27.70696951546931
 21
0.4860000000000007
 31
0.0
100
AcDbText
  0
TEXT
  5
C13
330
1E
100
AcDbEntity
  8
TEXT
100
AcDbText
 10
26.44134451546931
 20
0.9235000000000006
 30
0.0
 40
0.375
  1
5.75 [146.1]
 41
0.75
  7
TXT
 72
     4
 11
27.70696951546931
 21
1.111
 31
0.0
100
AcDbText
  0
TEXT
  5
C14
330
1E
100
AcDbEntity
  8
TEXT
100
AcDbText
 10
26.46478201546931
 20
1.5485
 30
0.0
 40
0.375
  1
6.50 [165.1]
 41
0.75
  7
TXT
 72
     4
 11
27.70696951546931
 21
1.736
 31
0.0
100
AcDbText
  0
TEXT
  5
C15
330
1E
100
AcDbEntity
  8
TEXT
100
AcDbText
 10
26.41790701546931
 20
2.1735
 30
0.0
 40
0.375
  1
4.75 [120.7]
 41
0.75
  7
TXT
 72
     4
 11
27.70696951546931
 21
2.361
 31
0.0
100
AcDbText
  0
TEXT
  5
C16
330
1E
100
AcDbEntity
  8
TEXT
100
AcDbText
 10
26.53509451546931
 20
2.7985
 30
0.0
 40
0.375
  1
3.00 [76.2]
 41
0.75
  7
TXT
 72
     4
 11
27.70696951546931
 21
2.986
 31
0.0
100
AcDbText
  0
TEXT
  5
C17
330
1E
100
AcDbEntity
  8
TEXT
100
AcDbText
 10
26.48821951546931
 20
3.4235
 30
0.0
 40
0.375
  1
2.25 [57.2]
 41
0.75
  7
TXT
 72
     4
 11
27.70696951546931
 21
3.611
 31
0.0
100
AcDbText
  0
TEXT
  5
C18
330
1E
100
AcDbEntity
  8
TEXT
100
AcDbText
 10
26.53509451546931
 20
4.0485
 30
0.0
 40
0.375
  1
3.00 [76.2]
 41
0.75
  7
TXT
 72
     4
 11
27.70696951546931
 21
4.236
 31
0.0
100
AcDbText
  0
INSERT
  5
C54
330
1E
100
AcDbEntity
  8
OBJECT
100
AcDbBlockReference
  2
HB
 10
0.0
 20
0.0
 30
0.0
 41
3.0
 42
3.0
 43
3.0
  0
ENDSEC
  0
SECTION
  2
OBJECTS
  0
DICTIONARY
  5
C
330
0
100
AcDbDictionary
281
     1
  3
ACAD_GROUP
350
D
  3
ACAD_LAYOUT
350
19
  3
ACAD_MLINESTYLE
350
16
  3
ACAD_PLOTSETTINGS
350
18
  3
ACAD_PLOTSTYLENAME
350
E
  0
DICTIONARY
  5
D
102
{ACAD_REACTORS
330
C
102
}
330
C
100
AcDbDictionary
281
     1
  0
DICTIONARY
  5
19
102
{ACAD_REACTORS
330
C
102
}
330
C
100
AcDbDictionary
281
     1
  3
Layout1
350
1D
  3
Model
350
21
  0
DICTIONARY
  5
16
102
{ACAD_REACTORS
330
C
102
}
330
C
100
AcDbDictionary
281
     1
  3
Standard
350
17
  0
DICTIONARY
  5
18
102
{ACAD_REACTORS
330
C
102
}
330
C
100
AcDbDictionary
281
     1
  0
ACDBDICTIONARYWDFLT
  5
E
102
{ACAD_REACTORS
330
C
102
}
330
C
100
AcDbDictionary
281
     1
  3
Normal
350
F
100
AcDbDictionaryWithDefault
340
F
  0
LAYOUT
  5
1D
102
{ACAD_REACTORS
330
19
102
}
330
19
100
AcDbPlotSettings
  1

  2
None
  4

  6

 40
0.0
 41
0.0
 42
0.0
 43
0.0
 44
0.0
 45
0.0
 46
0.0
 47
0.0
 48
0.0
 49
0.0
140
0.0
141
0.0
142
1.0
143
1.0
 70
   688
 72
     0
 73
     0
 74
     5
  7
monochrome.ctb
 75
    16
147
1.0
148
0.0
149
0.0
100
AcDbLayout
  1
Layout1
 70
     1
 71
     1
 10
0.0
 20
0.0
 11
12.0
 21
9.0
 12
0.0
 22
0.0
 32
0.0
 14
1.000000000000000E+20
 24
1.000000000000000E+20
 34
1.000000000000000E+20
 15
-1.000000000000000E+20
 25
-1.000000000000000E+20
 35
-1.000000000000000E+20
146
0.0
 13
0.0
 23
0.0
 33
0.0
 16
1.0
 26
0.0
 36
0.0
 17
0.0
 27
1.0
 37
0.0
 76
     0
330
1A
  0
LAYOUT
  5
21
102
{ACAD_REACTORS
330
19
102
}
330
19
100
AcDbPlotSettings
  1

  2
RICOH Aficio MP 7001 PCL 5e
  4
Letter
  6

 40
3.174999952316284
 41
3.174999952316284
 42
3.175003051757812
 43
3.17498779296875
 44
215.9000091552734
 45
279.3999938964843
 46
15.74799999999999
 47
0.0
 48
0.0
 49
0.0
140
0.0
141
0.0
142
1.0
143
4.32610933907871
 70
 11956
 72
     0
 73
     0
 74
     1
  7
monochrome.ctb
 75
     0
147
0.2311545829336251
148
0.0443550288125692
149
0.0720853230074937
100
AcDbLayout
  1
Model
 70
     1
 71
     0
 10
0.0
 20
0.0
 11
12.0
 21
9.0
 12
0.0
 22
0.0
 32
0.0
 14
0.0
 24
0.0
 34
0.0
 15
0.0
 25
0.0
 35
0.0
146
0.0
 13
0.0
 23
0.0
 33
0.0
 16
1.0
 26
0.0
 36
0.0
 17
0.0
 27
1.0
 37
0.0
 76
     0
330
1E
  0
MLINESTYLE
  5
17
102
{ACAD_REACTORS
330
16
102
}
330
16
100
AcDbMlineStyle
  2
STANDARD
 70
     0
  3

 62
   256
 51
90.0
 52
90.0
 71
     2
 49
0.5
 62
   256
  6
BYLAYER
 49
-0.5
 62
   256
  6
BYLAYER
  0
ACDBPLACEHOLDER
  5
F
102
{ACAD_REACTORS
330
E
102
}
330
E
  0
ENDSEC
  0
EOF
