  0
SECTION
  2
HEADER
  9
$ACADVER
  1
AC1009
  9
$INSBASE
 10
0.0
 20
0.0
 30
0.0
  9
$EXTMIN
 10
0.0
 20
0.0
 30
0.0
  9
$EXTMAX
 10
60.72
 20
93.0
 30
0.0
  9
$LIMMIN
 10
0.0
 20
0.0
  9
$LIMMAX
 10
75.0
 20
50.0
  9
$ORTHOMODE
 70
     1
  9
$REGENMODE
 70
     1
  9
$FILLMODE
 70
     1
  9
$QTEXTMODE
 70
     0
  9
$MIRRTEXT
 70
     0
  9
$DRAGMODE
 70
     2
  9
$LTSCALE
 40
2.0
  9
$OSMODE
 70
     0
  9
$ATTMODE
 70
     1
  9
$TEXTSIZE
 40
0.75
  9
$TRACEWID
 40
0.05
  9
$TEXTSTYLE
  7
TXT
  9
$CLAYER
  8
OBJECT
  9
$CELTYPE
  6
BYLAYER
  9
$CECOLOR
 62
   256
  9
$DIMSCALE
 40
5.0
  9
$DIMASZ
 40
0.18
  9
$DIMEXO
 40
0.063
  9
$DIMDLI
 40
0.281
  9
$DIMRND
 40
0.0
  9
$DIMDLE
 40
0.0
  9
$DIMEXE
 40
0.093
  9
$DIMTP
 40
0.0
  9
$DIMTM
 40
0.0
  9
$DIMTXT
 40
0.125
  9
$DIMCEN
 40
0.09
  9
$DIMTSZ
 40
0.0
  9
$DIMTOL
 70
     0
  9
$DIMLIM
 70
     0
  9
$DIMTIH
 70
     1
  9
$DIMTOH
 70
     1
  9
$DIMSE1
 70
     0
  9
$DIMSE2
 70
     0
  9
$DIMTAD
 70
     0
  9
$DIMZIN
 70
     0
  9
$DIMBLK
  1

  9
$DIMASO
 70
     1
  9
$DIMSHO
 70
     1
  9
$DIMPOST
  1

  9
$DIMAPOST
  1

  9
$DIMALT
 70
     0
  9
$DIMALTD
 70
     2
  9
$DIMALTF
 40
25.4
  9
$DIMLFAC
 40
1.0
  9
$DIMTOFL
 70
     0
  9
$DIMTVP
 40
0.0
  9
$DIMTIX
 70
     0
  9
$DIMSOXD
 70
     0
  9
$DIMSAH
 70
     0
  9
$DIMBLK1
  1

  9
$DIMBLK2
  1

  9
$DIMSTYLE
  2
23NSTD
  9
$DIMCLRD
 70
     0
  9
$DIMCLRE
 70
     0
  9
$DIMCLRT
 70
     0
  9
$DIMTFAC
 40
1.0
  9
$DIMGAP
 40
0.09
  9
$LUNITS
 70
     2
  9
$LUPREC
 70
     3
  9
$SKETCHINC
 40
0.1
  9
$FILLETRAD
 40
0.0
  9
$AUNITS
 70
     0
  9
$AUPREC
 70
     0
  9
$MENU
  1
acad
  9
$ELEVATION
 40
0.0
  9
$PELEVATION
 40
0.0
  9
$THICKNESS
 40
0.0
  9
$LIMCHECK
 70
     0
  9
$BLIPMODE
 70
     1
  9
$CHAMFERA
 40
0.0
  9
$CHAMFERB
 40
0.0
  9
$SKPOLY
 70
     0
  9
$TDCREATE
 40
2451032.371482523
  9
$TDUPDATE
 40
2451347.306586574
  9
$TDINDWG
 40
0.0890039352
  9
$TDUSRTIMER
 40
0.0890039352
  9
$USRTIMER
 70
     1
  9
$ANGBASE
 50
0.0
  9
$ANGDIR
 70
     0
  9
$PDMODE
 70
     0
  9
$PDSIZE
 40
0.0
  9
$PLINEWID
 40
0.0
  9
$COORDS
 70
     0
  9
$SPLFRAME
 70
     0
  9
$SPLINETYPE
 70
     6
  9
$SPLINESEGS
 70
     8
  9
$ATTDIA
 70
     0
  9
$ATTREQ
 70
     1
  9
$HANDLING
 70
     0
  9
$HANDSEED
  5
0
  9
$SURFTAB1
 70
     6
  9
$SURFTAB2
 70
     6
  9
$SURFTYPE
 70
     6
  9
$SURFU
 70
     6
  9
$SURFV
 70
     6
  9
$UCSNAME
  2

  9
$UCSORG
 10
0.0
 20
0.0
 30
0.0
  9
$UCSXDIR
 10
1.0
 20
0.0
 30
0.0
  9
$UCSYDIR
 10
0.0
 20
1.0
 30
0.0
  9
$PUCSNAME
  2

  9
$PUCSORG
 10
0.0
 20
0.0
 30
0.0
  9
$PUCSXDIR
 10
1.0
 20
0.0
 30
0.0
  9
$PUCSYDIR
 10
0.0
 20
1.0
 30
0.0
  9
$USERI1
 70
     0
  9
$USERI2
 70
     0
  9
$USERI3
 70
     0
  9
$USERI4
 70
     0
  9
$USERI5
 70
     0
  9
$USERR1
 40
0.0
  9
$USERR2
 40
0.0
  9
$USERR3
 40
0.0
  9
$USERR4
 40
0.0
  9
$USERR5
 40
0.0
  9
$WORLDVIEW
 70
     1
  9
$SHADEDGE
 70
     3
  9
$SHADEDIF
 70
    70
  9
$TILEMODE
 70
     1
  9
$MAXACTVP
 70
    16
  9
$PINSBASE
 10
0.0
 20
0.0
 30
0.0
  9
$PLIMCHECK
 70
     0
  9
$PEXTMIN
 10
1.000000E+20
 20
1.000000E+20
 30
1.000000E+20
  9
$PEXTMAX
 10
-1.000000E+20
 20
-1.000000E+20
 30
-1.000000E+20
  9
$PLIMMIN
 10
0.0
 20
0.0
  9
$PLIMMAX
 10
12.0
 20
9.0
  9
$UNITMODE
 70
     0
  9
$VISRETAIN
 70
     0
  9
$PLINEGEN
 70
     0
  9
$PSLTSCALE
 70
     1
  9
$TREEDEPTH
 70
  3020
  9
$DWGCODEPAGE
  3
ascii
  0
ENDSEC
  0
SECTION
  2
TABLES
  0
TABLE
  2
VPORT
 70
     2
  0
VPORT
  2
*ACTIVE
 70
     0
 10
0.0
 20
0.0
 11
1.0
 21
1.0
 12
63.348787
 22
46.5
 13
0.0
 23
0.0
 14
1.0
 24
1.0
 15
0.0
 25
0.0
 16
0.0
 26
0.0
 36
1.0
 17
0.0
 27
0.0
 37
0.0
 40
93.0
 41
1.36234
 42
50.0
 43
0.0
 44
0.0
 50
0.0
 51
0.0
 71
     0
 72
   100
 73
     1
 74
     0
 75
     0
 76
     0
 77
     0
 78
     0
  0
ENDTAB
  0
TABLE
  2
LTYPE
 70
     4
  0
LTYPE
  2
CONTINUOUS
 70
    64
  3
Solid line
 72
    65
 73
     0
 40
0.0
  0
LTYPE
  2
HIDDEN
 70
    64
  3
_ _ _ _ _ _ _ _ _ _ _ _ _ _ _ _ _ _ _ _ _ _ _
 72
    65
 73
     2
 40
0.375
 49
0.25
 49
-0.125
  0
LTYPE
  2
PHANTOM
 70
    64
  3
_____ _ _ _____ _ _ _____ _ _ _____ _ _ ____
 72
    65
 73
     6
 40
2.5
 49
1.25
 49
-0.25
 49
0.25
 49
-0.25
 49
0.25
 49
-0.25
  0
LTYPE
  2
CENTER
 70
    64
  3
____ _ ____ _ ____ _ ____ _ ____ _ ____ _ ____
 72
    65
 73
     4
 40
2.0
 49
1.25
 49
-0.25
 49
0.25
 49
-0.25
  0
ENDTAB
  0
TABLE
  2
LAYER
 70
     9
  0
LAYER
  2
0
 70
    64
 62
     7
  6
CONTINUOUS
  0
LAYER
  2
OBJECT
 70
    64
 62
     7
  6
CONTINUOUS
  0
LAYER
  2
DIM
 70
    64
 62
     7
  6
CONTINUOUS
  0
LAYER
  2
HIDDEN
 70
    64
 62
     7
  6
HIDDEN
  0
LAYER
  2
BEND
 70
    64
 62
     7
  6
PHANTOM
  0
LAYER
  2
TEXT
 70
    64
 62
     7
  6
CONTINUOUS
  0
LAYER
  2
TITLE
 70
    64
 62
     7
  6
CONTINUOUS
  0
LAYER
  2
CENTER
 70
    64
 62
     7
  6
CENTER
  0
LAYER
  2
DEFPOINTS
 70
    64
 62
     7
  6
CONTINUOUS
  0
ENDTAB
  0
TABLE
  2
STYLE
 70
     2
  0
STYLE
  2
STANDARD
 70
     0
 40
0.0
 41
1.0
 50
0.0
 71
     0
 42
0.2
  3
txt
  4

  0
STYLE
  2
TXT
 70
    64
 40
0.0
 41
0.75
 50
0.0
 71
     0
 42
0.75
  3
TXT.shx
  4

  0
ENDTAB
  0
TABLE
  2
VIEW
 70
     0
  0
ENDTAB
  0
TABLE
  2
UCS
 70
     0
  0
ENDTAB
  0
TABLE
  2
APPID
 70
     1
  0
APPID
  2
ACAD
 70
    64
  0
ENDTAB
  0
TABLE
  2
DIMSTYLE
 70
     2
  0
DIMSTYLE
  2
23NSTD
 70
    64
  3

  4

  5

  6

  7

 40
5.0
 41
0.18
 42
0.063
 43
0.281
 44
0.093
 45
0.0
 46
0.0
 47
0.0
 48
0.0
140
0.125
141
0.09
142
0.0
143
25.4
144
1.0
145
0.0
146
1.0
147
0.09
 71
     0
 72
     0
 73
     1
 74
     1
 75
     0
 76
     0
 77
     0
 78
     0
170
     0
171
     2
172
     0
173
     0
174
     0
175
     0
176
     0
177
     0
178
     0
  0
DIMSTYLE
  2
23NSTDI
 70
    64
  3

  4

  5

  6

  7

 40
5.0
 41
0.18
 42
0.063
 43
0.281
 44
0.093
 45
0.0
 46
0.0
 47
0.0
 48
0.0
140
0.125
141
0.09
142
0.0
143
25.4
144
1.0
145
0.0
146
1.0
147
0.09
 71
     0
 72
     0
 73
     1
 74
     1
 75
     0
 76
     0
 77
     0
 78
     0
170
     0
171
     2
172
     0
173
     0
174
     1
175
     0
176
     0
177
     0
178
     0
  0
ENDTAB
  0
ENDSEC
  0
SECTION
  2
BLOCKS
  0
BLOCK
  8
0
  2
HB
 70
    64
 10
0.0
 20
0.0
 30
0.0
  3
HB
  0
TEXT
  8
TEXT
 10
0.207833
 20
15.060079
 30
0.0
 40
0.125
  1
NAME
  7
TXT
 72
     1
 11
0.437
 21
15.060079
 31
0.0
  0
TEXT
  8
TEXT
 10
0.207833
 20
15.268413
 30
0.0
 40
0.125
  1
PART
  7
TXT
 72
     1
 11
0.437
 21
15.268413
 31
0.0
  0
TEXT
  8
TEXT
 10
5.372
 20
15.060079
 30
0.0
 40
0.125
  1
No.
  7
TXT
 72
     1
 11
5.497
 21
15.060079
 31
0.0
  0
TEXT
  8
TEXT
 10
5.267833
 20
15.268413
 30
0.0
 40
0.125
  1
PART
  7
TXT
 72
     1
 11
5.497
 21
15.268413
 31
0.0
  0
LINE
  8
TITLE
 10
5.872
 20
15.438
 30
0.0
 11
5.872
 21
15.02
 31
0.0
  0
LINE
  8
TITLE
 10
5.122
 20
15.438
 30
0.0
 11
5.122
 21
15.02
 31
0.0
  0
LINE
  8
TITLE
 10
5.06
 20
15.438
 30
0.0
 11
5.06
 21
15.02
 31
0.0
  0
LINE
  8
TITLE
 10
0.812
 20
15.02
 30
0.0
 11
0.812
 21
15.438
 31
0.0
  0
LINE
  8
TITLE
 10
0.062
 20
15.02
 30
0.0
 11
10.058
 21
15.02
 31
0.0
  0
LINE
  8
TITLE
 10
10.058
 20
0.062
 30
0.0
 11
0.062
 21
0.062
 31
0.0
  0
LINE
  8
TITLE
 10
10.058
 20
15.438
 30
0.0
 11
10.058
 21
0.062
 31
0.0
  0
LINE
  8
TITLE
 10
0.062
 20
15.438
 30
0.0
 11
10.058
 21
15.438
 31
0.0
  0
LINE
  8
TITLE
 10
0.062
 20
0.062
 30
0.0
 11
0.062
 21
15.438
 31
0.0
  0
LINE
  8
TITLE
 10
0.0
 20
0.0
 30
0.0
 11
0.0
 21
15.5
 31
0.0
  0
LINE
  8
TITLE
 10
10.12
 20
0.0
 30
0.0
 11
0.0
 21
0.0
 31
0.0
  0
LINE
  8
TITLE
 10
10.12
 20
15.5
 30
0.0
 11
10.12
 21
0.0
 31
0.0
  0
LINE
  8
TITLE
 10
0.0
 20
15.5
 30
0.0
 11
10.12
 21
15.5
 31
0.0
  0
ENDBLK
  8
0
  0
BLOCK
  8
0
  2
*D1
 70
    65
 10
0.0
 20
0.0
 30
0.0
  3
*D
  0
LINE
  8
0
  6
BYBLOCK
 62
     0
 10
4.374315
 20
48.08575
 30
0.0
 11
2.386175
 21
48.08575
 31
0.0
  0
LINE
  8
0
  6
BYBLOCK
 62
     0
 10
4.374315
 20
47.10175
 30
0.0
 11
2.386175
 21
47.10175
 31
0.0
  0
LINE
  8
0
  6
BYBLOCK
 62
     0
 10
2.851175
 20
48.98575
 30
0.0
 11
2.851175
 21
49.88575
 31
0.0
  0
LINE
  8
0
  6
BYBLOCK
 62
     0
 10
2.851175
 20
46.20175
 30
0.0
 11
2.851175
 21
45.30175
 31
0.0
  0
SOLID
  8
0
  6
BYBLOCK
 62
     0
 10
2.701175
 20
48.98575
 30
0.0
 11
3.001175
 21
48.98575
 31
0.0
 12
2.851175
 22
48.08575
 32
0.0
 13
2.851175
 23
48.08575
 33
0.0
  0
SOLID
  8
0
  6
BYBLOCK
 62
     0
 10
2.701175
 20
46.20175
 30
0.0
 11
3.001175
 21
46.20175
 31
0.0
 12
2.851175
 22
47.10175
 32
0.0
 13
2.851175
 23
47.10175
 33
0.0
  0
TEXT
  8
0
  6
BYBLOCK
 62
     0
 10
1.952738
 20
47.28125
 30
0.0
 40
0.625
  1
0.984
 41
0.75
  7
TXT
 72
     1
 11
2.851175
 21
47.59375
 31
0.0
 73
     2
  0
POINT
  8
DEFPOINTS
  6
BYBLOCK
 62
     0
 10
4.689315
 20
48.08575
 30
0.0
  0
POINT
  8
DEFPOINTS
  6
BYBLOCK
 62
     0
 10
4.689315
 20
47.10175
 30
0.0
  0
POINT
  8
DEFPOINTS
  6
BYBLOCK
 62
     0
 10
2.851175
 20
47.10175
 30
0.0
  0
ENDBLK
  8
0
  0
BLOCK
  8
0
  2
*D2
 70
    65
 10
0.0
 20
0.0
 30
0.0
  3
*D
  0
LINE
  8
0
  6
BYBLOCK
 62
     0
 10
35.085618
 20
58.956821
 30
0.0
 11
32.650553
 21
58.956821
 31
0.0
  0
LINE
  8
0
  6
BYBLOCK
 62
     0
 10
35.085618
 20
78.956821
 30
0.0
 11
32.650553
 21
78.956821
 31
0.0
  0
LINE
  8
0
  6
BYBLOCK
 62
     0
 10
33.115553
 20
59.856821
 30
0.0
 11
33.115553
 21
68.194321
 31
0.0
  0
LINE
  8
0
  6
BYBLOCK
 62
     0
 10
33.115553
 20
78.056821
 30
0.0
 11
33.115553
 21
69.719321
 31
0.0
  0
SOLID
  8
0
  6
BYBLOCK
 62
     0
 10
32.965553
 20
59.856821
 30
0.0
 11
33.265553
 21
59.856821
 31
0.0
 12
33.115553
 22
58.956821
 32
0.0
 13
33.115553
 23
58.956821
 33
0.0
  0
SOLID
  8
0
  6
BYBLOCK
 62
     0
 10
32.965553
 20
78.056821
 30
0.0
 11
33.265553
 21
78.056821
 31
0.0
 12
33.115553
 22
78.956821
 32
0.0
 13
33.115553
 23
78.956821
 33
0.0
  0
TEXT
  8
0
  6
BYBLOCK
 62
     0
 10
32.959303
 20
68.644321
 30
0.0
 40
0.625
  1
C
 41
0.75
  7
TXT
 72
     1
 11
33.115553
 21
68.956821
 31
0.0
 73
     2
  0
POINT
  8
DEFPOINTS
  6
BYBLOCK
 62
     0
 10
35.400618
 20
58.956821
 30
0.0
  0
POINT
  8
DEFPOINTS
  6
BYBLOCK
 62
     0
 10
35.400618
 20
78.956821
 30
0.0
  0
POINT
  8
DEFPOINTS
  6
BYBLOCK
 62
     0
 10
33.115553
 20
78.956821
 30
0.0
  0
ENDBLK
  8
0
  0
BLOCK
  8
0
  2
*D3
 70
    65
 10
0.0
 20
0.0
 30
0.0
  3
*D
  0
LINE
  8
0
  6
BYBLOCK
 62
     0
 10
34.605618
 20
52.08575
 30
0.0
 11
32.650553
 21
52.08575
 31
0.0
  0
LINE
  8
0
  6
BYBLOCK
 62
     0
 10
34.605618
 20
47.33575
 30
0.0
 11
32.650553
 21
47.33575
 31
0.0
  0
LINE
  8
0
  6
BYBLOCK
 62
     0
 10
33.115553
 20
51.18575
 30
0.0
 11
33.115553
 21
50.47325
 31
0.0
  0
LINE
  8
0
  6
BYBLOCK
 62
     0
 10
33.115553
 20
48.23575
 30
0.0
 11
33.115553
 21
48.94825
 31
0.0
  0
SOLID
  8
0
  6
BYBLOCK
 62
     0
 10
32.965553
 20
51.18575
 30
0.0
 11
33.265553
 21
51.18575
 31
0.0
 12
33.115553
 22
52.08575
 32
0.0
 13
33.115553
 23
52.08575
 33
0.0
  0
SOLID
  8
0
  6
BYBLOCK
 62
     0
 10
32.965553
 20
48.23575
 30
0.0
 11
33.265553
 21
48.23575
 31
0.0
 12
33.115553
 22
47.33575
 32
0.0
 13
33.115553
 23
47.33575
 33
0.0
  0
TEXT
  8
0
  6
BYBLOCK
 62
     0
 10
32.217116
 20
49.39825
 30
0.0
 40
0.625
  1
4.750
 41
0.75
  7
TXT
 72
     1
 11
33.115553
 21
49.71075
 31
0.0
 73
     2
  0
POINT
  8
DEFPOINTS
  6
BYBLOCK
 62
     0
 10
34.920618
 20
52.08575
 30
0.0
  0
POINT
  8
DEFPOINTS
  6
BYBLOCK
 62
     0
 10
34.920618
 20
47.33575
 30
0.0
  0
POINT
  8
DEFPOINTS
  6
BYBLOCK
 62
     0
 10
33.115553
 20
47.33575
 30
0.0
  0
ENDBLK
  8
0
  0
BLOCK
  8
0
  2
*D4
 70
    65
 10
0.0
 20
0.0
 30
0.0
  3
*D
  0
LINE
  8
0
  6
BYBLOCK
 62
     0
 10
34.366618
 20
47.10175
 30
0.0
 11
30.00375
 21
47.10175
 31
0.0
  0
LINE
  8
0
  6
BYBLOCK
 62
     0
 10
34.366618
 20
52.31975
 30
0.0
 11
30.00375
 21
52.31975
 31
0.0
  0
LINE
  8
0
  6
BYBLOCK
 62
     0
 10
30.46875
 20
48.00175
 30
0.0
 11
30.46875
 21
48.94825
 31
0.0
  0
LINE
  8
0
  6
BYBLOCK
 62
     0
 10
30.46875
 20
51.41975
 30
0.0
 11
30.46875
 21
50.47325
 31
0.0
  0
SOLID
  8
0
  6
BYBLOCK
 62
     0
 10
30.31875
 20
48.00175
 30
0.0
 11
30.61875
 21
48.00175
 31
0.0
 12
30.46875
 22
47.10175
 32
0.0
 13
30.46875
 23
47.10175
 33
0.0
  0
SOLID
  8
0
  6
BYBLOCK
 62
     0
 10
30.31875
 20
51.41975
 30
0.0
 11
30.61875
 21
51.41975
 31
0.0
 12
30.46875
 22
52.31975
 32
0.0
 13
30.46875
 23
52.31975
 33
0.0
  0
TEXT
  8
0
  6
BYBLOCK
 62
     0
 10
29.609375
 20
49.39825
 30
0.0
 40
0.625
  1
5.218
 41
0.75
  7
TXT
 72
     1
 11
30.46875
 21
49.71075
 31
0.0
 73
     2
  0
POINT
  8
DEFPOINTS
  6
BYBLOCK
 62
     0
 10
34.681618
 20
47.10175
 30
0.0
  0
POINT
  8
DEFPOINTS
  6
BYBLOCK
 62
     0
 10
34.681618
 20
52.31975
 30
0.0
  0
POINT
  8
DEFPOINTS
  6
BYBLOCK
 62
     0
 10
30.46875
 20
52.31975
 30
0.0
  0
ENDBLK
  8
0
  0
BLOCK
  8
0
  2
*D5
 70
    65
 10
0.0
 20
0.0
 30
0.0
  3
*D
  0
LINE
  8
0
  6
BYBLOCK
 62
     0
 10
34.605618
 20
47.33575
 30
0.0
 11
32.650553
 21
47.33575
 31
0.0
  0
LINE
  8
0
  6
BYBLOCK
 62
     0
 10
34.366618
 20
47.10175
 30
0.0
 11
32.650553
 21
47.10175
 31
0.0
  0
LINE
  8
0
  6
BYBLOCK
 62
     0
 10
33.115553
 20
48.23575
 30
0.0
 11
33.115553
 21
49.13575
 31
0.0
  0
LINE
  8
0
  6
BYBLOCK
 62
     0
 10
33.115553
 20
46.20175
 30
0.0
 11
33.115553
 21
45.30175
 31
0.0
  0
LINE
  8
0
  6
BYBLOCK
 62
     0
 10
33.115553
 20
45.30175
 30
0.0
 11
32.215553
 21
45.30175
 31
0.0
  0
SOLID
  8
0
  6
BYBLOCK
 62
     0
 10
32.965553
 20
48.23575
 30
0.0
 11
33.265553
 21
48.23575
 31
0.0
 12
33.115553
 22
47.33575
 32
0.0
 13
33.115553
 23
47.33575
 33
0.0
  0
SOLID
  8
0
  6
BYBLOCK
 62
     0
 10
32.965553
 20
46.20175
 30
0.0
 11
33.265553
 21
46.20175
 31
0.0
 12
33.115553
 22
47.10175
 32
0.0
 13
33.115553
 23
47.10175
 33
0.0
  0
TEXT
  8
0
  6
BYBLOCK
 62
     0
 10
29.968678
 20
44.98925
 30
0.0
 40
0.625
  1
0.234
 41
0.75
  7
TXT
 72
     1
 11
30.867116
 21
45.30175
 31
0.0
 73
     2
  0
POINT
  8
DEFPOINTS
  6
BYBLOCK
 62
     0
 10
34.920618
 20
47.33575
 30
0.0
  0
POINT
  8
DEFPOINTS
  6
BYBLOCK
 62
     0
 10
34.681618
 20
47.10175
 30
0.0
  0
POINT
  8
DEFPOINTS
  6
BYBLOCK
 62
     0
 10
33.115553
 20
47.10175
 30
0.0
  0
ENDBLK
  8
0
  0
BLOCK
  8
0
  2
*D6
 70
    65
 10
0.0
 20
0.0
 30
0.0
  3
*D
  0
LINE
  8
0
  6
BYBLOCK
 62
     0
 10
35.400618
 20
58.641821
 30
0.0
 11
35.400618
 21
56.582345
 31
0.0
  0
LINE
  8
0
  6
BYBLOCK
 62
     0
 10
52.962618
 20
58.641821
 30
0.0
 11
52.962618
 21
56.582345
 31
0.0
  0
LINE
  8
0
  6
BYBLOCK
 62
     0
 10
36.300618
 20
57.047345
 30
0.0
 11
43.575368
 21
57.047345
 31
0.0
  0
LINE
  8
0
  6
BYBLOCK
 62
     0
 10
52.062618
 20
57.047345
 30
0.0
 11
44.787868
 21
57.047345
 31
0.0
  0
SOLID
  8
0
  6
BYBLOCK
 62
     0
 10
36.300618
 20
57.197345
 30
0.0
 11
36.300618
 21
56.897345
 31
0.0
 12
35.400618
 22
57.047345
 32
0.0
 13
35.400618
 23
57.047345
 33
0.0
  0
SOLID
  8
0
  6
BYBLOCK
 62
     0
 10
52.062618
 20
57.197345
 30
0.0
 11
52.062618
 21
56.897345
 31
0.0
 12
52.962618
 22
57.047345
 32
0.0
 13
52.962618
 23
57.047345
 33
0.0
  0
TEXT
  8
0
  6
BYBLOCK
 62
     0
 10
44.025368
 20
56.734845
 30
0.0
 40
0.625
  1
B
 41
0.75
  7
TXT
 72
     1
 11
44.181618
 21
57.047345
 31
0.0
 73
     2
  0
POINT
  8
DEFPOINTS
  6
BYBLOCK
 62
     0
 10
35.400618
 20
58.956821
 30
0.0
  0
POINT
  8
DEFPOINTS
  6
BYBLOCK
 62
     0
 10
52.962618
 20
58.956821
 30
0.0
  0
POINT
  8
DEFPOINTS
  6
BYBLOCK
 62
     0
 10
52.962618
 20
57.047345
 30
0.0
  0
ENDBLK
  8
0
  0
BLOCK
  8
0
  2
*D7
 70
    65
 10
0.0
 20
0.0
 30
0.0
  3
*D
  0
LINE
  8
0
  6
BYBLOCK
 62
     0
 10
34.681618
 20
60.641821
 30
0.0
 11
34.681618
 21
54.929073
 31
0.0
  0
LINE
  8
0
  6
BYBLOCK
 62
     0
 10
53.681618
 20
60.641821
 30
0.0
 11
53.681618
 21
54.929073
 31
0.0
  0
LINE
  8
0
  6
BYBLOCK
 62
     0
 10
35.581618
 20
55.394073
 30
0.0
 11
43.575368
 21
55.394073
 31
0.0
  0
LINE
  8
0
  6
BYBLOCK
 62
     0
 10
52.781618
 20
55.394073
 30
0.0
 11
44.787868
 21
55.394073
 31
0.0
  0
SOLID
  8
0
  6
BYBLOCK
 62
     0
 10
35.581618
 20
55.544073
 30
0.0
 11
35.581618
 21
55.244073
 31
0.0
 12
34.681618
 22
55.394073
 32
0.0
 13
34.681618
 23
55.394073
 33
0.0
  0
SOLID
  8
0
  6
BYBLOCK
 62
     0
 10
52.781618
 20
55.544073
 30
0.0
 11
52.781618
 21
55.244073
 31
0.0
 12
53.681618
 22
55.394073
 32
0.0
 13
53.681618
 23
55.394073
 33
0.0
  0
TEXT
  8
0
  6
BYBLOCK
 62
     0
 10
44.025368
 20
55.081573
 30
0.0
 40
0.625
  1
A
 41
0.75
  7
TXT
 72
     1
 11
44.181618
 21
55.394073
 31
0.0
 73
     2
  0
POINT
  8
DEFPOINTS
  6
BYBLOCK
 62
     0
 10
34.681618
 20
60.956821
 30
0.0
  0
POINT
  8
DEFPOINTS
  6
BYBLOCK
 62
     0
 10
53.681618
 20
60.956821
 30
0.0
  0
POINT
  8
DEFPOINTS
  6
BYBLOCK
 62
     0
 10
53.681618
 20
55.394073
 30
0.0
  0
ENDBLK
  8
0
  0
BLOCK
  8
0
  2
*D8
 70
    65
 10
0.0
 20
0.0
 30
0.0
  3
*D
  0
LINE
  8
0
  6
BYBLOCK
 62
     0
 10
5.689315
 20
47.27075
 30
0.0
 11
5.689315
 21
44.508145
 31
0.0
  0
LINE
  8
0
  6
BYBLOCK
 62
     0
 10
23.689315
 20
47.27075
 30
0.0
 11
23.689315
 21
44.508145
 31
0.0
  0
LINE
  8
0
  6
BYBLOCK
 62
     0
 10
6.589315
 20
44.973145
 30
0.0
 11
9.590877
 21
44.973145
 31
0.0
  0
LINE
  8
0
  6
BYBLOCK
 62
     0
 10
22.789315
 20
44.973145
 30
0.0
 11
19.787752
 21
44.973145
 31
0.0
  0
SOLID
  8
0
  6
BYBLOCK
 62
     0
 10
6.589315
 20
45.123145
 30
0.0
 11
6.589315
 21
44.823145
 31
0.0
 12
5.689315
 22
44.973145
 32
0.0
 13
5.689315
 23
44.973145
 33
0.0
  0
SOLID
  8
0
  6
BYBLOCK
 62
     0
 10
22.789315
 20
45.123145
 30
0.0
 11
22.789315
 21
44.823145
 31
0.0
 12
23.689315
 22
44.973145
 32
0.0
 13
23.689315
 23
44.973145
 33
0.0
  0
TEXT
  8
0
  6
BYBLOCK
 62
     0
 10
10.040877
 20
44.660645
 30
0.0
 40
0.625
  1
(D) SPACES @ 2.000 = E
 41
0.75
  7
TXT
 72
     1
 11
14.689315
 21
44.973145
 31
0.0
 73
     2
  0
POINT
  8
DEFPOINTS
  6
BYBLOCK
 62
     0
 10
5.689315
 20
47.58575
 30
0.0
  0
POINT
  8
DEFPOINTS
  6
BYBLOCK
 62
     0
 10
23.689315
 20
47.58575
 30
0.0
  0
POINT
  8
DEFPOINTS
  6
BYBLOCK
 62
     0
 10
23.689315
 20
44.973145
 30
0.0
  0
ENDBLK
  8
0
  0
BLOCK
  8
0
  2
*D9
 70
    65
 10
0.0
 20
0.0
 30
0.0
  3
*D
  0
LINE
  8
0
  6
BYBLOCK
 62
     0
 10
23.689315
 20
47.27075
 30
0.0
 11
23.689315
 21
44.508145
 31
0.0
  0
LINE
  8
0
  6
BYBLOCK
 62
     0
 10
24.689315
 20
46.78675
 30
0.0
 11
24.689315
 21
44.508145
 31
0.0
  0
LINE
  8
0
  6
BYBLOCK
 62
     0
 10
22.789315
 20
44.973145
 30
0.0
 11
21.889315
 21
44.973145
 31
0.0
  0
LINE
  8
0
  6
BYBLOCK
 62
     0
 10
25.589315
 20
44.973145
 30
0.0
 11
26.489315
 21
44.973145
 31
0.0
  0
SOLID
  8
0
  6
BYBLOCK
 62
     0
 10
22.789315
 20
45.123145
 30
0.0
 11
22.789315
 21
44.823145
 31
0.0
 12
23.689315
 22
44.973145
 32
0.0
 13
23.689315
 23
44.973145
 33
0.0
  0
SOLID
  8
0
  6
BYBLOCK
 62
     0
 10
25.589315
 20
45.123145
 30
0.0
 11
25.589315
 21
44.823145
 31
0.0
 12
24.689315
 22
44.973145
 32
0.0
 13
24.689315
 23
44.973145
 33
0.0
  0
TEXT
  8
0
  6
BYBLOCK
 62
     0
 10
26.939315
 20
44.660645
 30
0.0
 40
0.625
  1
1.000
 41
0.75
  7
TXT
 72
     1
 11
27.681502
 21
44.973145
 31
0.0
 73
     2
  0
POINT
  8
DEFPOINTS
  6
BYBLOCK
 62
     0
 10
23.689315
 20
47.58575
 30
0.0
  0
POINT
  8
DEFPOINTS
  6
BYBLOCK
 62
     0
 10
24.689315
 20
47.10175
 30
0.0
  0
POINT
  8
DEFPOINTS
  6
BYBLOCK
 62
     0
 10
24.689315
 20
44.973145
 30
0.0
  0
ENDBLK
  8
0
  0
BLOCK
  8
0
  2
*D10
 70
    65
 10
0.0
 20
0.0
 30
0.0
  3
*D
  0
LINE
  8
0
  6
BYBLOCK
 62
     0
 10
22.689315
 20
52.63475
 30
0.0
 11
22.689315
 21
57.396911
 31
0.0
  0
LINE
  8
0
  6
BYBLOCK
 62
     0
 10
12.689315
 20
48.40075
 30
0.0
 11
12.689315
 21
57.396911
 31
0.0
  0
LINE
  8
0
  6
BYBLOCK
 62
     0
 10
21.789315
 20
56.931911
 30
0.0
 11
19.076815
 21
56.931911
 31
0.0
  0
LINE
  8
0
  6
BYBLOCK
 62
     0
 10
13.589315
 20
56.931911
 30
0.0
 11
16.301815
 21
56.931911
 31
0.0
  0
SOLID
  8
0
  6
BYBLOCK
 62
     0
 10
21.789315
 20
57.081911
 30
0.0
 11
21.789315
 21
56.781911
 31
0.0
 12
22.689315
 22
56.931911
 32
0.0
 13
22.689315
 23
56.931911
 33
0.0
  0
SOLID
  8
0
  6
BYBLOCK
 62
     0
 10
13.589315
 20
57.081911
 30
0.0
 11
13.589315
 21
56.781911
 31
0.0
 12
12.689315
 22
56.931911
 32
0.0
 13
12.689315
 23
56.931911
 33
0.0
  0
TEXT
  8
0
  6
BYBLOCK
 62
     0
 10
16.751815
 20
56.619411
 30
0.0
 40
0.625
  1
10.000
 41
0.75
  7
TXT
 72
     1
 11
17.689315
 21
56.931911
 31
0.0
 73
     2
  0
POINT
  8
DEFPOINTS
  6
BYBLOCK
 62
     0
 10
22.689315
 20
52.31975
 30
0.0
  0
POINT
  8
DEFPOINTS
  6
BYBLOCK
 62
     0
 10
12.689315
 20
48.08575
 30
0.0
  0
POINT
  8
DEFPOINTS
  6
BYBLOCK
 62
     0
 10
12.689315
 20
56.931911
 30
0.0
  0
ENDBLK
  8
0
  0
BLOCK
  8
0
  2
*D11
 70
    65
 10
0.0
 20
0.0
 30
0.0
  3
*D
  0
LINE
  8
0
  6
BYBLOCK
 62
     0
 10
13.689315
 20
47.90075
 30
0.0
 11
13.689315
 21
54.094697
 31
0.0
  0
LINE
  8
0
  6
BYBLOCK
 62
     0
 10
17.689315
 20
47.90075
 30
0.0
 11
17.689315
 21
54.094697
 31
0.0
  0
LINE
  8
0
  6
BYBLOCK
 62
     0
 10
12.789315
 20
53.629697
 30
0.0
 11
11.889315
 21
53.629697
 31
0.0
  0
LINE
  8
0
  6
BYBLOCK
 62
     0
 10
18.589315
 20
53.629697
 30
0.0
 11
19.489315
 21
53.629697
 31
0.0
  0
SOLID
  8
0
  6
BYBLOCK
 62
     0
 10
12.789315
 20
53.779697
 30
0.0
 11
12.789315
 21
53.479697
 31
0.0
 12
13.689315
 22
53.629697
 32
0.0
 13
13.689315
 23
53.629697
 33
0.0
  0
SOLID
  8
0
  6
BYBLOCK
 62
     0
 10
18.589315
 20
53.779697
 30
0.0
 11
18.589315
 21
53.479697
 31
0.0
 12
17.689315
 22
53.629697
 32
0.0
 13
17.689315
 23
53.629697
 33
0.0
  0
TEXT
  8
0
  6
BYBLOCK
 62
     0
 10
14.869002
 20
53.317197
 30
0.0
 40
0.625
  1
4.000
 41
0.75
  7
TXT
 72
     1
 11
15.689315
 21
53.629697
 31
0.0
 73
     2
  0
POINT
  8
DEFPOINTS
  6
BYBLOCK
 62
     0
 10
13.689315
 20
47.58575
 30
0.0
  0
POINT
  8
DEFPOINTS
  6
BYBLOCK
 62
     0
 10
17.689315
 20
47.58575
 30
0.0
  0
POINT
  8
DEFPOINTS
  6
BYBLOCK
 62
     0
 10
17.689315
 20
53.629697
 30
0.0
  0
ENDBLK
  8
0
  0
BLOCK
  8
0
  2
*D12
 70
    65
 10
0.0
 20
0.0
 30
0.0
  3
*D
  0
LINE
  8
0
  6
BYBLOCK
 62
     0
 10
21.689315
 20
47.90075
 30
0.0
 11
21.689315
 21
54.783533
 31
0.0
  0
LINE
  8
0
  6
BYBLOCK
 62
     0
 10
22.689315
 20
52.63475
 30
0.0
 11
22.689315
 21
54.783533
 31
0.0
  0
LINE
  8
0
  6
BYBLOCK
 62
     0
 10
20.789315
 20
54.318533
 30
0.0
 11
19.889315
 21
54.318533
 31
0.0
  0
LINE
  8
0
  6
BYBLOCK
 62
     0
 10
23.589315
 20
54.318533
 30
0.0
 11
24.489315
 21
54.318533
 31
0.0
  0
SOLID
  8
0
  6
BYBLOCK
 62
     0
 10
20.789315
 20
54.468533
 30
0.0
 11
20.789315
 21
54.168533
 31
0.0
 12
21.689315
 22
54.318533
 32
0.0
 13
21.689315
 23
54.318533
 33
0.0
  0
SOLID
  8
0
  6
BYBLOCK
 62
     0
 10
23.589315
 20
54.468533
 30
0.0
 11
23.589315
 21
54.168533
 31
0.0
 12
22.689315
 22
54.318533
 32
0.0
 13
22.689315
 23
54.318533
 33
0.0
  0
TEXT
  8
0
  6
BYBLOCK
 62
     0
 10
24.939315
 20
54.006033
 30
0.0
 40
0.625
  1
1.000
 41
0.75
  7
TXT
 72
     1
 11
25.681502
 21
54.318533
 31
0.0
 73
     2
  0
POINT
  8
DEFPOINTS
  6
BYBLOCK
 62
     0
 10
21.689315
 20
47.58575
 30
0.0
  0
POINT
  8
DEFPOINTS
  6
BYBLOCK
 62
     0
 10
22.689315
 20
52.31975
 30
0.0
  0
POINT
  8
DEFPOINTS
  6
BYBLOCK
 62
     0
 10
22.689315
 20
54.318533
 30
0.0
  0
ENDBLK
  8
0
  0
BLOCK
  8
0
  2
*D13
 70
    65
 10
0.0
 20
0.0
 30
0.0
  3
*D
  0
LINE
  8
0
  6
BYBLOCK
 62
     0
 10
17.689315
 20
47.90075
 30
0.0
 11
17.689315
 21
55.986832
 31
0.0
  0
LINE
  8
0
  6
BYBLOCK
 62
     0
 10
21.689315
 20
47.90075
 30
0.0
 11
21.689315
 21
55.986832
 31
0.0
  0
LINE
  8
0
  6
BYBLOCK
 62
     0
 10
16.789315
 20
55.521832
 30
0.0
 11
15.889315
 21
55.521832
 31
0.0
  0
LINE
  8
0
  6
BYBLOCK
 62
     0
 10
22.589315
 20
55.521832
 30
0.0
 11
23.489315
 21
55.521832
 31
0.0
  0
SOLID
  8
0
  6
BYBLOCK
 62
     0
 10
16.789315
 20
55.671832
 30
0.0
 11
16.789315
 21
55.371832
 31
0.0
 12
17.689315
 22
55.521832
 32
0.0
 13
17.689315
 23
55.521832
 33
0.0
  0
SOLID
  8
0
  6
BYBLOCK
 62
     0
 10
22.589315
 20
55.671832
 30
0.0
 11
22.589315
 21
55.371832
 31
0.0
 12
21.689315
 22
55.521832
 32
0.0
 13
21.689315
 23
55.521832
 33
0.0
  0
TEXT
  8
0
  6
BYBLOCK
 62
     0
 10
18.869002
 20
55.209332
 30
0.0
 40
0.625
  1
4.000
 41
0.75
  7
TXT
 72
     1
 11
19.689315
 21
55.521832
 31
0.0
 73
     2
  0
POINT
  8
DEFPOINTS
  6
BYBLOCK
 62
     0
 10
17.689315
 20
47.58575
 30
0.0
  0
POINT
  8
DEFPOINTS
  6
BYBLOCK
 62
     0
 10
21.689315
 20
47.58575
 30
0.0
  0
POINT
  8
DEFPOINTS
  6
BYBLOCK
 62
     0
 10
21.689315
 20
55.521832
 30
0.0
  0
ENDBLK
  8
0
  0
ENDSEC
  0
SECTION
  2
ENTITIES
  0
LINE
  8
OBJECT
 10
5.725885
 20
28.708993
 30
0.0
 11
25.725885
 21
28.708993
 31
0.0
  0
LINE
  8
OBJECT
 10
25.725885
 20
28.708993
 30
0.0
 11
25.725885
 21
29.692993
 31
0.0
  0
LINE
  8
OBJECT
 10
25.725885
 20
29.692993
 30
0.0
 11
23.725885
 21
29.692993
 31
0.0
  0
LINE
  8
OBJECT
 10
5.725885
 20
29.692993
 30
0.0
 11
5.725885
 21
28.708993
 31
0.0
  0
LINE
  8
OBJECT
 10
5.787885
 20
29.630993
 30
0.0
 11
5.787885
 21
28.708993
 31
0.0
  0
LINE
  8
HIDDEN
 10
25.663885
 20
29.630993
 30
0.0
 11
5.787885
 21
29.630993
 31
0.0
  0
LINE
  8
OBJECT
 10
25.663885
 20
28.708993
 30
0.0
 11
25.663885
 21
29.630993
 31
0.0
  0
LINE
  8
OBJECT
 10
5.819885
 20
29.692993
 30
0.0
 11
5.819885
 21
28.708993
 31
0.0
  0
LINE
  8
OBJECT
 10
25.631885
 20
28.708993
 30
0.0
 11
25.631885
 21
29.692993
 31
0.0
  0
CIRCLE
  8
OBJECT
 10
24.725885
 20
29.192993
 30
0.0
 40
0.094
  0
ARC
  8
HIDDEN
 10
20.725885
 20
29.192993
 30
0.0
 40
0.094
 50
114.70182
 51
233.530578
  0
ARC
  8
HIDDEN
 10
16.725885
 20
29.192993
 30
0.0
 40
0.094
 50
26.089064
 51
164.796576
  0
CIRCLE
  8
OBJECT
 10
12.725885
 20
29.192993
 30
0.0
 40
0.094
  0
LINE
  8
OBJECT
 10
13.725885
 20
29.692993
 30
0.0
 11
13.725885
 21
28.708993
 31
0.0
  0
LINE
  8
OBJECT
 10
23.725885
 20
33.926993
 30
0.0
 11
20.725885
 21
33.926993
 31
0.0
  0
LINE
  8
OBJECT
 10
20.725885
 20
33.926993
 30
0.0
 11
13.725885
 21
29.692993
 31
0.0
  0
CIRCLE
  8
OBJECT
 10
14.725885
 20
29.192993
 30
0.0
 40
0.16
  0
CIRCLE
  8
OBJECT
 10
18.725885
 20
29.192993
 30
0.0
 40
0.16
  0
CIRCLE
  8
OBJECT
 10
22.725885
 20
29.192993
 30
0.0
 40
0.16
  0
LINE
  8
OBJECT
 10
37.344188
 20
54.50696
 30
0.0
 11
37.266188
 21
54.50696
 31
0.0
  0
LINE
  8
OBJECT
 10
37.266188
 20
54.50696
 30
0.0
 11
37.266188
 21
44.58496
 31
0.0
  0
LINE
  8
OBJECT
 10
37.344188
 20
62.50696
 30
0.0
 11
37.344188
 21
42.50696
 31
0.0
  0
LINE
  8
OBJECT
 10
36.625188
 20
44.50696
 30
0.0
 11
37.344188
 21
44.50696
 31
0.0
  0
LINE
  8
OBJECT
 10
36.625188
 20
44.58496
 30
0.0
 11
36.625188
 21
44.50696
 31
0.0
  0
LINE
  8
OBJECT
 10
36.625188
 20
44.58496
 30
0.0
 11
37.266188
 21
44.58496
 31
0.0
  0
LINE
  8
OBJECT
 10
23.725885
 20
33.926993
 30
0.0
 11
23.725885
 21
28.708993
 31
0.0
  0
LINE
  8
OBJECT
 10
23.647885
 20
33.926993
 30
0.0
 11
23.647885
 21
28.708993
 31
0.0
  0
LINE
  8
HIDDEN
 10
37.266188
 20
28.708993
 30
0.0
 11
37.266188
 21
33.926993
 31
0.0
  0
LINE
  8
OBJECT
 10
37.344188
 20
28.708993
 30
0.0
 11
37.344188
 21
33.926993
 31
0.0
  0
LINE
  8
OBJECT
 10
36.625188
 20
28.708993
 30
0.0
 11
36.625188
 21
33.926993
 31
0.0
  0
LINE
  8
OBJECT
 10
37.344188
 20
28.708993
 30
0.0
 11
36.625188
 21
28.708993
 31
0.0
  0
ARC
  8
OBJECT
 10
37.032188
 20
28.942993
 30
0.0
 40
0.1405
 50
270.000019
 51
90.000019
  0
LINE
  8
CENTER
 10
36.954188
 20
28.852993
 30
0.0
 11
36.954188
 21
29.032993
 31
0.0
  0
ARC
  8
OBJECT
 10
36.876188
 20
28.942993
 30
0.0
 40
0.1405
 50
90.000019
 51
270.000019
  0
LINE
  8
CENTER
 10
37.044188
 20
28.942993
 30
0.0
 11
36.864188
 21
28.942993
 31
0.0
  0
LINE
  8
OBJECT
 10
37.032188
 20
28.802493
 30
0.0
 11
36.876188
 21
28.802493
 31
0.0
  0
LINE
  8
OBJECT
 10
37.032188
 20
29.083493
 30
0.0
 11
36.876188
 21
29.083493
 31
0.0
  0
LINE
  8
OBJECT
 10
36.625188
 20
33.926993
 30
0.0
 11
37.344188
 21
33.926993
 31
0.0
  0
ARC
  8
OBJECT
 10
37.032188
 20
33.692993
 30
0.0
 40
0.1405
 50
269.999981
 51
89.999981
  0
LINE
  8
CENTER
 10
36.954188
 20
33.782993
 30
0.0
 11
36.954188
 21
33.602993
 31
0.0
  0
ARC
  8
OBJECT
 10
36.876188
 20
33.692993
 30
0.0
 40
0.1405
 50
89.999981
 51
269.999981
  0
LINE
  8
OBJECT
 10
37.032188
 20
33.552493
 30
0.0
 11
36.876188
 21
33.552493
 31
0.0
  0
LINE
  8
OBJECT
 10
37.032188
 20
33.833493
 30
0.0
 11
36.876188
 21
33.833493
 31
0.0
  0
LINE
  8
CENTER
 10
37.044188
 20
33.692993
 30
0.0
 11
36.864188
 21
33.692993
 31
0.0
  0
LINE
  8
OBJECT
 10
37.344188
 20
28.708993
 30
0.0
 11
54.906188
 21
28.708993
 31
0.0
  0
LINE
  8
OBJECT
 10
37.344188
 20
29.692993
 30
0.0
 11
54.906188
 21
29.692993
 31
0.0
  0
LINE
  8
HIDDEN
 10
37.406188
 20
28.708993
 30
0.0
 11
37.406188
 21
29.630993
 31
0.0
  0
LINE
  8
HIDDEN
 10
37.406188
 20
29.630993
 30
0.0
 11
54.844188
 21
29.630993
 31
0.0
  0
LINE
  8
OBJECT
 10
54.984188
 20
54.50696
 30
0.0
 11
54.984188
 21
44.58496
 31
0.0
  0
LINE
  8
OBJECT
 10
54.906188
 20
62.50696
 30
0.0
 11
54.906188
 21
42.50696
 31
0.0
  0
LINE
  8
HIDDEN
 10
54.984188
 20
28.708993
 30
0.0
 11
54.984188
 21
33.926993
 31
0.0
  0
LINE
  8
OBJECT
 10
54.906188
 20
28.708993
 30
0.0
 11
54.906188
 21
33.926993
 31
0.0
  0
LINE
  8
OBJECT
 10
55.625188
 20
28.708993
 30
0.0
 11
55.625188
 21
33.926993
 31
0.0
  0
LINE
  8
HIDDEN
 10
54.844188
 20
28.708993
 30
0.0
 11
54.844188
 21
29.630993
 31
0.0
  0
LINE
  8
CENTER
 10
55.206188
 20
28.942993
 30
0.0
 11
55.386188
 21
28.942993
 31
0.0
  0
LINE
  8
OBJECT
 10
55.218188
 20
28.802493
 30
0.0
 11
55.374188
 21
28.802493
 31
0.0
  0
LINE
  8
OBJECT
 10
55.218188
 20
29.083493
 30
0.0
 11
55.374188
 21
29.083493
 31
0.0
  0
LINE
  8
OBJECT
 10
54.906188
 20
28.708993
 30
0.0
 11
55.625188
 21
28.708993
 31
0.0
  0
LINE
  8
CENTER
 10
55.296188
 20
28.852993
 30
0.0
 11
55.296188
 21
29.032993
 31
0.0
  0
ARC
  8
OBJECT
 10
55.374188
 20
28.942993
 30
0.0
 40
0.1405
 50
269.999981
 51
89.999981
  0
ARC
  8
OBJECT
 10
55.218188
 20
28.942993
 30
0.0
 40
0.1405
 50
89.999981
 51
269.999981
  0
LINE
  8
OBJECT
 10
55.218188
 20
33.552493
 30
0.0
 11
55.374188
 21
33.552493
 31
0.0
  0
LINE
  8
OBJECT
 10
55.218188
 20
33.833493
 30
0.0
 11
55.374188
 21
33.833493
 31
0.0
  0
LINE
  8
CENTER
 10
55.206188
 20
33.692993
 30
0.0
 11
55.386188
 21
33.692993
 31
0.0
  0
LINE
  8
OBJECT
 10
55.625188
 20
33.926993
 30
0.0
 11
54.906188
 21
33.926993
 31
0.0
  0
LINE
  8
CENTER
 10
55.296188
 20
33.782993
 30
0.0
 11
55.296188
 21
33.602993
 31
0.0
  0
ARC
  8
OBJECT
 10
55.374188
 20
33.692993
 30
0.0
 40
0.1405
 50
270.000019
 51
90.000019
  0
ARC
  8
OBJECT
 10
55.218188
 20
33.692993
 30
0.0
 40
0.1405
 50
90.000019
 51
270.000019
  0
LINE
  8
OBJECT
 10
55.625188
 20
44.58496
 30
0.0
 11
54.984188
 21
44.58496
 31
0.0
  0
LINE
  8
OBJECT
 10
55.625188
 20
44.50696
 30
0.0
 11
54.906188
 21
44.50696
 31
0.0
  0
LINE
  8
OBJECT
 10
55.625188
 20
44.58496
 30
0.0
 11
55.625188
 21
44.50696
 31
0.0
  0
LINE
  8
OBJECT
 10
54.906188
 20
54.50696
 30
0.0
 11
54.984188
 21
54.50696
 31
0.0
  0
LINE
  8
OBJECT
 10
13.725885
 20
29.692993
 30
0.0
 11
5.725885
 21
29.692993
 31
0.0
  0
LINE
  8
HIDDEN
 10
23.647885
 20
29.692993
 30
0.0
 11
13.876595
 21
29.692993
 31
0.0
  0
LINE
  8
OBJECT
 10
37.344188
 20
42.50696
 30
0.0
 11
54.906188
 21
42.50696
 31
0.0
  0
LINE
  8
OBJECT
 10
37.344188
 20
62.50696
 30
0.0
 11
54.906188
 21
62.50696
 31
0.0
  0
LINE
  8
HIDDEN
 10
37.406188
 20
62.44496
 30
0.0
 11
37.406188
 21
42.56896
 31
0.0
  0
LINE
  8
HIDDEN
 10
37.406188
 20
42.56896
 30
0.0
 11
54.844188
 21
42.56896
 31
0.0
  0
LINE
  8
HIDDEN
 10
37.406188
 20
62.44496
 30
0.0
 11
54.844188
 21
62.44496
 31
0.0
  0
LINE
  8
HIDDEN
 10
54.844188
 20
62.44496
 30
0.0
 11
54.844188
 21
42.56896
 31
0.0
  0
LINE
  8
OBJECT
 10
14.662245
 20
29.129353
 30
0.0
 11
14.789525
 21
29.256632
 31
0.0
  0
LINE
  8
OBJECT
 10
14.789525
 20
29.129353
 30
0.0
 11
14.662245
 21
29.256632
 31
0.0
  0
LINE
  8
OBJECT
 10
18.789525
 20
29.129353
 30
0.0
 11
18.662245
 21
29.256632
 31
0.0
  0
LINE
  8
OBJECT
 10
18.662245
 20
29.129353
 30
0.0
 11
18.789525
 21
29.256632
 31
0.0
  0
LINE
  8
OBJECT
 10
22.662245
 20
29.129353
 30
0.0
 11
22.789525
 21
29.256632
 31
0.0
  0
LINE
  8
OBJECT
 10
22.789525
 20
29.129353
 30
0.0
 11
22.662245
 21
29.256632
 31
0.0
  0
DIMENSION
  8
DIM
  2
*D6
 10
54.906188
 20
40.597485
 30
0.0
 11
46.125188
 21
40.597485
 31
0.0
 12
1.943569
 22
-16.449861
 32
0.0
  1
B
 13
37.344188
 23
42.50696
 33
0.0
 14
54.906188
 24
42.50696
 34
0.0
  3
23NSTD
  0
DIMENSION
  8
DIM
  2
*D7
 10
55.625188
 20
38.944212
 30
0.0
 11
46.125188
 21
38.944212
 31
0.0
 12
1.943569
 22
-16.449861
 32
0.0
  1
A
 13
36.625188
 23
44.50696
 33
0.0
 14
55.625188
 24
44.50696
 34
0.0
  3
23NSTD
  0
DIMENSION
  8
DIM
  2
*D3
 10
35.059122
 20
28.942993
 30
0.0
 11
35.059122
 21
31.317993
 31
0.0
 12
1.943569
 22
-18.392758
 32
0.0
 13
36.864188
 23
33.692993
 33
0.0
 14
36.864188
 24
28.942993
 34
0.0
 50
90.0
  3
23NSTD
  0
DIMENSION
  8
DIM
  2
*D5
 10
35.059122
 20
28.708993
 30
0.0
 11
32.810685
 21
26.908993
 31
0.0
 12
1.943569
 22
-18.392758
 32
0.0
 13
36.864188
 23
28.942993
 33
0.0
 14
36.625188
 24
28.708993
 34
0.0
 50
90.0
  3
23NSTD
  0
DIMENSION
  8
DIM
  2
*D4
 10
32.412319
 20
33.926993
 30
0.0
 11
32.412319
 21
31.317993
 31
0.0
 12
1.943569
 22
-18.392758
 32
0.0
 13
36.625188
 23
28.708993
 33
0.0
 14
36.625188
 24
33.926993
 34
0.0
 50
90.0
  3
23NSTD
  0
DIMENSION
  8
DIM
  2
*D8
 10
24.725885
 20
26.580387
 30
0.0
 11
15.725885
 21
26.580387
 31
0.0
 12
1.03657
 22
-18.392758
 32
0.0
  1
(D) SPACES @ 2.000 = E
 13
6.725885
 23
29.192993
 33
0.0
 14
24.725885
 24
29.192993
 34
0.0
  3
23NSTD
  0
DIMENSION
  8
DIM
  2
*D9
 10
25.725885
 20
26.580387
 30
0.0
 11
28.718072
 21
26.580387
 31
0.0
 12
1.03657
 22
-18.392758
 32
0.0
 13
24.725885
 23
29.192993
 33
0.0
 14
25.725885
 24
28.708993
 34
0.0
  3
23NSTD
  0
DIMENSION
  8
DIM
  2
*D1
 10
3.887745
 20
28.708993
 30
0.0
 11
3.887745
 21
29.200993
 31
0.0
 12
1.03657
 22
-18.392758
 32
0.0
 13
5.725885
 23
29.692993
 33
0.0
 14
5.725885
 24
28.708993
 34
0.0
 50
90.0
  3
23NSTDI
  0
DIMENSION
  8
DIM
  2
*D11
 10
18.725885
 20
35.23694
 30
0.0
 11
16.725885
 21
35.23694
 31
0.0
 12
1.03657
 22
-18.392758
 32
0.0
 13
14.725885
 23
29.192993
 33
0.0
 14
18.725885
 24
29.192993
 34
0.0
  3
23NSTDI
  0
DIMENSION
  8
DIM
  2
*D13
 10
22.725885
 20
37.129074
 30
0.0
 11
20.725885
 21
37.129074
 31
0.0
 12
1.03657
 22
-18.392758
 32
0.0
 13
18.725885
 23
29.192993
 33
0.0
 14
22.725885
 24
29.192993
 34
0.0
  3
23NSTDI
  0
DIMENSION
  8
DIM
  2
*D12
 10
23.725885
 20
35.925776
 30
0.0
 11
26.718072
 21
35.925776
 31
0.0
 12
1.03657
 22
-18.392758
 32
0.0
 13
22.725885
 23
29.192993
 33
0.0
 14
23.725885
 24
33.926993
 34
0.0
  3
23NSTD
  0
DIMENSION
  8
DIM
  2
*D10
 10
13.725885
 20
38.539153
 30
0.0
 11
18.725885
 21
38.539153
 31
0.0
 12
1.03657
 22
-18.392758
 32
0.0
 13
23.725885
 23
33.926993
 33
0.0
 14
13.725885
 24
29.692993
 34
0.0
  3
23NSTD
  0
DIMENSION
  8
DIM
  2
*D2
 10
35.059122
 20
62.50696
 30
0.0
 11
35.059122
 21
52.50696
 31
0.0
 12
1.943569
 22
-16.449861
 32
0.0
  1
C
 13
37.344188
 23
42.50696
 33
0.0
 14
37.344188
 24
62.50696
 34
0.0
 50
90.0
  3
23NSTD
  0
CIRCLE
  8
OBJECT
 10
10.725885
 20
29.192993
 30
0.0
 40
0.094
  0
CIRCLE
  8
OBJECT
 10
8.725885
 20
29.192993
 30
0.0
 40
0.094
  0
CIRCLE
  8
OBJECT
 10
6.725885
 20
29.192993
 30
0.0
 40
0.094
  0
INSERT
  8
OBJECT
  2
HB
 10
0.0
 20
0.0
 30
0.0
 41
6.0
 42
6.0
 43
6.0
  0
ARC
  8
HIDDEN
 10
20.725885
 20
29.192993
 30
0.0
 40
0.094
 50
294.865063
 51
63.798006
  0
ARC
  8
HIDDEN
 10
16.725885
 20
29.192993
 30
0.0
 40
0.094
 50
215.895915
 51
336.496522
  0
LINE
  8
TITLE
 10
0.372
 20
1.62
 30
0.0
 11
60.348
 21
1.62
 31
0.0
  0
LINE
  8
TITLE
 10
0.372
 20
2.868
 30
0.0
 11
60.348
 21
2.868
 31
0.0
  0
LINE
  8
TITLE
 10
0.372
 20
4.116
 30
0.0
 11
60.348
 21
4.116
 31
0.0
  0
LINE
  8
TITLE
 10
0.372
 20
5.364
 30
0.0
 11
60.348
 21
5.364
 31
0.0
  0
LINE
  8
TITLE
 10
0.372
 20
6.612
 30
0.0
 11
60.348
 21
6.612
 31
0.0
  0
LINE
  8
OBJECT
 10
31.190887
 20
68.505237
 30
0.0
 11
31.190887
 21
67.584237
 31
0.0
  0
LINE
  8
OBJECT
 10
31.217301
 20
67.599487
 30
0.0
 11
31.217301
 21
68.520487
 31
0.0
  0
LINE
  8
OBJECT
 10
31.136328
 20
68.536737
 30
0.0
 11
31.136328
 21
67.552737
 31
0.0
  0
LINE
  8
OBJECT
 10
31.217301
 20
67.599487
 30
0.0
 11
32.867945
 21
68.552487
 31
0.0
  0
LINE
  8
OBJECT
 10
31.136328
 20
67.552737
 30
0.0
 11
15.92719
 21
76.333737
 31
0.0
  0
LINE
  8
OBJECT
 10
31.190887
 20
67.614737
 30
0.0
 11
31.217301
 21
67.599487
 31
0.0
  0
LINE
  8
OBJECT
 10
31.190887
 20
67.584237
 30
0.0
 11
31.136328
 21
67.552737
 31
0.0
  0
LINE
  8
OBJECT
 10
31.136328
 20
68.536737
 30
0.0
 11
32.867945
 21
69.536487
 31
0.0
  0
LINE
  8
OBJECT
 10
44.992734
 20
76.536737
 30
0.0
 11
29.783596
 21
85.317737
 31
0.0
  0
LINE
  8
OBJECT
 10
15.92719
 20
77.317737
 30
0.0
 11
29.783596
 21
85.317737
 31
0.0
  0
LINE
  8
OBJECT
 10
31.136328
 20
68.536737
 30
0.0
 11
15.92719
 21
77.317737
 31
0.0
  0
LINE
  8
OBJECT
 10
15.92719
 20
77.317737
 30
0.0
 11
15.92719
 21
76.333737
 31
0.0
  0
LINE
  8
OBJECT
 10
31.190887
 20
68.505237
 30
0.0
 11
31.217301
 21
68.520487
 31
0.0
  0
POLYLINE
  8
OBJECT
 66
     1
 10
0.0
 20
0.0
 30
0.0
  0
VERTEX
  8
OBJECT
 10
31.920514
 20
68.489487
 30
0.0
 42
0.072341
 70
     2
 50
30.0
  0
VERTEX
  8
OBJECT
 10
31.950243
 20
68.512945
 30
0.0
 42
0.058752
 50
30.0
  0
VERTEX
  8
OBJECT
 10
31.978077
 20
68.550253
 30
0.0
 42
0.058752
  0
VERTEX
  8
OBJECT
 10
31.99647
 20
68.593011
 30
0.0
 42
0.072341
  0
VERTEX
  8
OBJECT
 10
32.00192
 20
68.630487
 30
0.0
 42
0.106617
 70
     2
 50
90.0
  0
SEQEND
  8
OBJECT
  0
POLYLINE
  8
OBJECT
 66
     1
 10
0.0
 20
0.0
 30
0.0
 70
     1
  0
VERTEX
  8
OBJECT
 10
31.944357
 20
68.569721
 30
0.0
 42
0.058752
  0
VERTEX
  8
OBJECT
 10
31.925964
 20
68.526962
 30
0.0
 42
0.072341
  0
VERTEX
  8
OBJECT
 10
31.920514
 20
68.489487
 30
0.0
 42
0.106617
 70
     2
 50
270.0
  0
VERTEX
  8
OBJECT
 10
31.927982
 20
68.454862
 30
0.0
 42
0.156851
 50
270.0
  0
VERTEX
  8
OBJECT
 10
31.944357
 20
68.436785
 30
0.0
 42
0.156851
  0
VERTEX
  8
OBJECT
 10
31.9682
 20
68.431642
 30
0.0
 42
0.106617
  0
VERTEX
  8
OBJECT
 10
32.00192
 20
68.442487
 30
0.0
 42
0.072341
 70
     2
 50
30.0
  0
VERTEX
  8
OBJECT
 10
32.03165
 20
68.465945
 30
0.0
 42
0.058752
 50
30.0
  0
VERTEX
  8
OBJECT
 10
32.059483
 20
68.503253
 30
0.0
 42
0.058752
  0
VERTEX
  8
OBJECT
 10
32.077876
 20
68.546011
 30
0.0
 42
0.072341
  0
VERTEX
  8
OBJECT
 10
32.083326
 20
68.583487
 30
0.0
 42
0.106617
 70
     2
 50
90.0
  0
VERTEX
  8
OBJECT
 10
32.075858
 20
68.618111
 30
0.0
 42
0.156851
 50
90.0
  0
VERTEX
  8
OBJECT
 10
32.059483
 20
68.636189
 30
0.0
 42
0.156851
  0
VERTEX
  8
OBJECT
 10
32.03564
 20
68.641332
 30
0.0
 42
0.106617
  0
VERTEX
  8
OBJECT
 10
32.00192
 20
68.630487
 30
0.0
 42
0.072341
 70
     2
 50
210.0
  0
VERTEX
  8
OBJECT
 10
31.972191
 20
68.607029
 30
0.0
 42
0.058752
 50
210.0
  0
SEQEND
  8
OBJECT
  0
POLYLINE
  8
OBJECT
 66
     1
 10
0.0
 20
0.0
 30
0.0
 70
     1
  0
VERTEX
  8
OBJECT
 10
42.336662
 20
74.569721
 30
0.0
 42
0.058752
  0
VERTEX
  8
OBJECT
 10
42.318269
 20
74.526962
 30
0.0
 42
0.072341
  0
VERTEX
  8
OBJECT
 10
42.312819
 20
74.489487
 30
0.0
 42
0.106617
 70
     2
 50
270.0
  0
VERTEX
  8
OBJECT
 10
42.320287
 20
74.454862
 30
0.0
 42
0.156851
 50
270.0
  0
VERTEX
  8
OBJECT
 10
42.336662
 20
74.436785
 30
0.0
 42
0.156851
  0
VERTEX
  8
OBJECT
 10
42.360505
 20
74.431642
 30
0.0
 42
0.106617
  0
VERTEX
  8
OBJECT
 10
42.394225
 20
74.442487
 30
0.0
 42
0.072341
 70
     2
 50
30.0
  0
VERTEX
  8
OBJECT
 10
42.423954
 20
74.465945
 30
0.0
 42
0.058752
 50
30.0
  0
VERTEX
  8
OBJECT
 10
42.451788
 20
74.503253
 30
0.0
 42
0.058752
  0
VERTEX
  8
OBJECT
 10
42.470181
 20
74.546011
 30
0.0
 42
0.072341
  0
VERTEX
  8
OBJECT
 10
42.475631
 20
74.583487
 30
0.0
 42
0.106617
 70
     2
 50
90.0
  0
VERTEX
  8
OBJECT
 10
42.468163
 20
74.618111
 30
0.0
 42
0.156851
 50
90.0
  0
VERTEX
  8
OBJECT
 10
42.451788
 20
74.636189
 30
0.0
 42
0.156851
  0
VERTEX
  8
OBJECT
 10
42.427945
 20
74.641332
 30
0.0
 42
0.106617
  0
VERTEX
  8
OBJECT
 10
42.394225
 20
74.630487
 30
0.0
 42
0.072341
 70
     2
 50
210.0
  0
VERTEX
  8
OBJECT
 10
42.364495
 20
74.607029
 30
0.0
 42
0.058752
 50
210.0
  0
SEQEND
  8
OBJECT
  0
POLYLINE
  8
OBJECT
 66
     1
 10
0.0
 20
0.0
 30
0.0
  0
VERTEX
  8
OBJECT
 10
42.312819
 20
74.489487
 30
0.0
 42
0.072341
 70
     2
 50
30.0
  0
VERTEX
  8
OBJECT
 10
42.342548
 20
74.512945
 30
0.0
 42
0.058752
 50
30.0
  0
VERTEX
  8
OBJECT
 10
42.370382
 20
74.550253
 30
0.0
 42
0.058752
  0
VERTEX
  8
OBJECT
 10
42.388774
 20
74.593011
 30
0.0
 42
0.072341
  0
VERTEX
  8
OBJECT
 10
42.394225
 20
74.630487
 30
0.0
 42
0.106617
 70
     2
 50
90.0
  0
SEQEND
  8
OBJECT
  0
LINE
  8
OBJECT
 10
44.992734
 20
76.536737
 30
0.0
 11
44.992734
 21
75.552737
 31
0.0
  0
LINE
  8
OBJECT
 10
44.911761
 20
75.505987
 30
0.0
 11
44.911761
 21
76.426987
 31
0.0
  0
LINE
  8
OBJECT
 10
44.938175
 20
76.442237
 30
0.0
 11
44.938175
 21
75.521237
 31
0.0
  0
LINE
  8
OBJECT
 10
44.938175
 20
75.521237
 30
0.0
 11
44.911761
 21
75.536487
 31
0.0
  0
LINE
  8
OBJECT
 10
44.992734
 20
75.552737
 30
0.0
 11
44.938175
 21
75.521237
 31
0.0
  0
LINE
  8
OBJECT
 10
44.911761
 20
76.426987
 30
0.0
 11
44.938175
 21
76.442237
 31
0.0
  0
LINE
  8
OBJECT
 10
26.170105
 20
83.366343
 30
0.0
 11
20.323921
 21
84.074191
 31
0.0
  0
LINE
  8
OBJECT
 10
26.237655
 20
83.327343
 30
0.0
 11
20.391471
 21
84.035191
 31
0.0
  0
LINE
  8
OBJECT
 10
17.321057
 20
82.449987
 30
0.0
 11
17.456157
 21
82.371987
 31
0.0
  0
POLYLINE
  8
OBJECT
 66
     1
 10
0.0
 20
0.0
 30
0.0
  0
VERTEX
  8
OBJECT
 10
17.167469
 20
82.501813
 30
0.0
 42
0.058752
  0
VERTEX
  8
OBJECT
 10
17.209071
 20
82.446049
 30
0.0
 42
0.072341
  0
VERTEX
  8
OBJECT
 10
17.253507
 20
82.410987
 30
0.0
 42
0.106617
 70
     2
 50
330.0
  0
SEQEND
  8
OBJECT
  0
POLYLINE
  8
OBJECT
 66
     1
 10
0.0
 20
0.0
 30
0.0
  0
VERTEX
  8
OBJECT
 10
17.388607
 20
82.332987
 30
0.0
 42
0.106617
 70
     2
 50
330.0
  0
VERTEX
  8
OBJECT
 10
17.439008
 20
82.316777
 30
0.0
 42
0.156851
 50
330.0
  0
VERTEX
  8
OBJECT
 10
17.474646
 20
82.324464
 30
0.0
 42
0.156851
  0
VERTEX
  8
OBJECT
 10
17.499122
 20
82.351484
 30
0.0
 42
0.106617
  0
VERTEX
  8
OBJECT
 10
17.510284
 20
82.403237
 30
0.0
 42
0.072341
 70
     2
 50
90.0
  0
VERTEX
  8
OBJECT
 10
17.502137
 20
82.459251
 30
0.0
 42
0.058752
 50
90.0
  0
VERTEX
  8
OBJECT
 10
17.474646
 20
82.523161
 30
0.0
 42
0.058752
  0
VERTEX
  8
OBJECT
 10
17.433044
 20
82.578924
 30
0.0
 42
0.072341
  0
VERTEX
  8
OBJECT
 10
17.388607
 20
82.613987
 30
0.0
 42
0.106617
 70
     2
 50
150.0
  0
SEQEND
  8
OBJECT
  0
LINE
  8
OBJECT
 10
17.658807
 20
82.551487
 30
0.0
 11
17.658807
 21
78.317487
 31
0.0
  0
LINE
  8
OBJECT
 10
17.037001
 20
82.910487
 30
0.0
 11
17.037001
 21
77.958487
 31
0.0
  0
LINE
  8
OBJECT
 10
17.253507
 20
82.410987
 30
0.0
 11
17.388607
 21
82.332987
 31
0.0
  0
POLYLINE
  8
OBJECT
 66
     1
 10
0.0
 20
0.0
 30
0.0
  0
VERTEX
  8
OBJECT
 10
17.456157
 20
82.371987
 30
0.0
 42
0.09582
 70
     2
 50
330.0
  0
VERTEX
  8
OBJECT
 10
17.501229
 20
82.35642
 30
0.0
 42
0.156851
 50
330.0
  0
SEQEND
  8
OBJECT
  0
LINE
  8
OBJECT
 10
17.658807
 20
82.551487
 30
0.0
 11
20.121313
 21
83.973215
 31
0.0
  0
LINE
  8
OBJECT
 10
17.658807
 20
82.629487
 30
0.0
 11
20.053763
 21
84.012215
 31
0.0
  0
LINE
  8
OBJECT
 10
17.253507
 20
82.691987
 30
0.0
 11
17.388607
 21
82.613987
 31
0.0
  0
LINE
  8
OBJECT
 10
17.037001
 20
82.910487
 30
0.0
 11
17.658807
 21
82.551487
 31
0.0
  0
LINE
  8
OBJECT
 10
17.104551
 20
82.949487
 30
0.0
 11
17.658807
 21
82.629487
 31
0.0
  0
POLYLINE
  8
OBJECT
 66
     1
 10
0.0
 20
0.0
 30
0.0
  0
VERTEX
  8
OBJECT
 10
17.208436
 20
82.707553
 30
0.0
 42
0.09582
  0
VERTEX
  8
OBJECT
 10
17.199381
 20
82.660737
 30
0.0
 42
0.072341
 70
     2
 50
270.0
  0
VERTEX
  8
OBJECT
 10
17.207528
 20
82.604723
 30
0.0
 42
0.058752
 50
270.0
  0
VERTEX
  8
OBJECT
 10
17.235019
 20
82.540813
 30
0.0
 42
0.058752
  0
SEQEND
  8
OBJECT
  0
POLYLINE
  8
OBJECT
 66
     1
 10
0.0
 20
0.0
 30
0.0
  0
VERTEX
  8
OBJECT
 10
17.235019
 20
82.540813
 30
0.0
 42
0.058752
  0
VERTEX
  8
OBJECT
 10
17.276621
 20
82.485049
 30
0.0
 42
0.072341
  0
VERTEX
  8
OBJECT
 10
17.321057
 20
82.449987
 30
0.0
 42
0.106617
 70
     2
 50
330.0
  0
SEQEND
  8
OBJECT
  0
POLYLINE
  8
OBJECT
 66
     1
 10
0.0
 20
0.0
 30
0.0
  0
VERTEX
  8
OBJECT
 10
17.253507
 20
82.691987
 30
0.0
 42
0.106617
 70
     2
 50
150.0
  0
VERTEX
  8
OBJECT
 10
17.203107
 20
82.708196
 30
0.0
 42
0.156851
 50
150.0
  0
VERTEX
  8
OBJECT
 10
17.167469
 20
82.70051
 30
0.0
 42
0.156851
  0
VERTEX
  8
OBJECT
 10
17.142993
 20
82.673489
 30
0.0
 42
0.106617
  0
VERTEX
  8
OBJECT
 10
17.131831
 20
82.621737
 30
0.0
 42
0.072341
 70
     2
 50
270.0
  0
VERTEX
  8
OBJECT
 10
17.139978
 20
82.565723
 30
0.0
 42
0.058752
 50
270.0
  0
VERTEX
  8
OBJECT
 10
17.167469
 20
82.501813
 30
0.0
 42
0.058752
  0
SEQEND
  8
OBJECT
  0
LINE
  8
OBJECT
 10
17.104551
 20
82.949487
 30
0.0
 11
17.037001
 21
82.910487
 31
0.0
  0
LINE
  8
OBJECT
 10
20.323921
 20
84.074191
 30
0.0
 11
20.053763
 21
84.012215
 31
0.0
  0
LINE
  8
OBJECT
 10
20.391471
 20
84.035191
 30
0.0
 11
20.121313
 21
83.973215
 31
0.0
  0
LINE
  8
OBJECT
 10
20.053763
 20
84.012215
 30
0.0
 11
20.121313
 21
83.973215
 31
0.0
  0
LINE
  8
OBJECT
 10
20.323921
 20
84.074191
 30
0.0
 11
20.391471
 21
84.035191
 31
0.0
  0
LINE
  8
OBJECT
 10
26.170105
 20
83.366343
 30
0.0
 11
26.237655
 21
83.327343
 31
0.0
  0
LINE
  8
OBJECT
 10
26.237655
 20
83.327343
 30
0.0
 11
26.268197
 21
83.28812
 31
0.0
  0
LINE
  8
OBJECT
 10
33.557302
 20
68.872487
 30
0.0
 11
41.59575
 21
73.513487
 31
0.0
  0
LINE
  8
OBJECT
 10
41.514343
 20
74.507343
 30
0.0
 11
35.668159
 21
75.215191
 31
0.0
  0
LINE
  8
OBJECT
 10
41.446793
 20
74.546343
 30
0.0
 11
35.600609
 21
75.254191
 31
0.0
  0
LINE
  8
OBJECT
 10
33.557302
 20
73.450487
 30
0.0
 11
33.557302
 21
68.232487
 31
0.0
  0
LINE
  8
OBJECT
 10
32.867945
 20
73.770487
 30
0.0
 11
32.867945
 21
68.552487
 31
0.0
  0
LINE
  8
OBJECT
 10
33.489752
 20
73.411487
 30
0.0
 11
33.489752
 21
68.193487
 31
0.0
  0
LINE
  8
OBJECT
 10
32.867945
 20
68.552487
 30
0.0
 11
33.489752
 21
68.193487
 31
0.0
  0
LINE
  8
OBJECT
 10
33.557302
 20
68.232487
 30
0.0
 11
33.489752
 21
68.193487
 31
0.0
  0
LINE
  8
OBJECT
 10
33.119657
 20
68.619813
 30
0.0
 11
33.259822
 21
68.700737
 31
0.0
  0
POLYLINE
  8
OBJECT
 66
     1
 10
0.0
 20
0.0
 30
0.0
  0
VERTEX
  8
OBJECT
 10
33.119657
 20
68.619813
 30
0.0
 42
0.058752
  0
VERTEX
  8
OBJECT
 10
33.161259
 20
68.564049
 30
0.0
 42
0.072341
  0
VERTEX
  8
OBJECT
 10
33.205695
 20
68.528987
 30
0.0
 42
0.106617
 70
     2
 50
330.0
  0
SEQEND
  8
OBJECT
  0
POLYLINE
  8
OBJECT
 66
     1
 10
0.0
 20
0.0
 30
0.0
  0
VERTEX
  8
OBJECT
 10
33.273245
 20
68.411987
 30
0.0
 42
0.106617
 70
     2
 50
330.0
  0
VERTEX
  8
OBJECT
 10
33.323645
 20
68.395777
 30
0.0
 42
0.156851
 50
330.0
  0
VERTEX
  8
OBJECT
 10
33.359284
 20
68.403464
 30
0.0
 42
0.156851
  0
VERTEX
  8
OBJECT
 10
33.38376
 20
68.430484
 30
0.0
 42
0.106617
  0
VERTEX
  8
OBJECT
 10
33.394922
 20
68.482237
 30
0.0
 42
0.072341
 70
     2
 50
90.0
  0
VERTEX
  8
OBJECT
 10
33.386775
 20
68.538251
 30
0.0
 42
0.058752
 50
90.0
  0
VERTEX
  8
OBJECT
 10
33.359284
 20
68.602161
 30
0.0
 42
0.058752
  0
VERTEX
  8
OBJECT
 10
33.317682
 20
68.657924
 30
0.0
 42
0.072341
  0
VERTEX
  8
OBJECT
 10
33.273245
 20
68.692987
 30
0.0
 42
0.106617
 70
     2
 50
150.0
  0
SEQEND
  8
OBJECT
  0
LINE
  8
OBJECT
 10
33.138145
 20
68.489987
 30
0.0
 11
33.273245
 21
68.411987
 31
0.0
  0
LINE
  8
OBJECT
 10
33.205695
 20
68.528987
 30
0.0
 11
33.340795
 21
68.450987
 31
0.0
  0
POLYLINE
  8
OBJECT
 66
     1
 10
0.0
 20
0.0
 30
0.0
  0
VERTEX
  8
OBJECT
 10
33.052107
 20
68.580813
 30
0.0
 42
0.058752
  0
VERTEX
  8
OBJECT
 10
33.093709
 20
68.525049
 30
0.0
 42
0.072341
  0
VERTEX
  8
OBJECT
 10
33.138145
 20
68.489987
 30
0.0
 42
0.106617
 70
     2
 50
330.0
  0
SEQEND
  8
OBJECT
  0
POLYLINE
  8
OBJECT
 66
     1
 10
0.0
 20
0.0
 30
0.0
  0
VERTEX
  8
OBJECT
 10
33.340795
 20
68.450987
 30
0.0
 42
0.09582
 70
     2
 50
330.0
  0
VERTEX
  8
OBJECT
 10
33.385867
 20
68.43542
 30
0.0
 42
0.156851
 50
330.0
  0
SEQEND
  8
OBJECT
  0
LINE
  8
OBJECT
 10
33.138145
 20
68.770987
 30
0.0
 11
33.273245
 21
68.692987
 31
0.0
  0
POLYLINE
  8
OBJECT
 66
     1
 10
0.0
 20
0.0
 30
0.0
  0
VERTEX
  8
OBJECT
 10
33.093074
 20
68.786553
 30
0.0
 42
0.09582
  0
VERTEX
  8
OBJECT
 10
33.084019
 20
68.739737
 30
0.0
 42
0.072341
 70
     2
 50
270.0
  0
VERTEX
  8
OBJECT
 10
33.092166
 20
68.683723
 30
0.0
 42
0.058752
 50
270.0
  0
VERTEX
  8
OBJECT
 10
33.119657
 20
68.619813
 30
0.0
 42
0.058752
  0
SEQEND
  8
OBJECT
  0
POLYLINE
  8
OBJECT
 66
     1
 10
0.0
 20
0.0
 30
0.0
  0
VERTEX
  8
OBJECT
 10
33.138145
 20
68.770987
 30
0.0
 42
0.106617
 70
     2
 50
150.0
  0
VERTEX
  8
OBJECT
 10
33.087745
 20
68.787196
 30
0.0
 42
0.156851
 50
150.0
  0
VERTEX
  8
OBJECT
 10
33.052107
 20
68.77951
 30
0.0
 42
0.156851
  0
VERTEX
  8
OBJECT
 10
33.027631
 20
68.752489
 30
0.0
 42
0.106617
  0
VERTEX
  8
OBJECT
 10
33.016469
 20
68.700737
 30
0.0
 42
0.072341
 70
     2
 50
270.0
  0
VERTEX
  8
OBJECT
 10
33.024616
 20
68.644723
 30
0.0
 42
0.058752
 50
270.0
  0
VERTEX
  8
OBJECT
 10
33.052107
 20
68.580813
 30
0.0
 42
0.058752
  0
SEQEND
  8
OBJECT
  0
POLYLINE
  8
OBJECT
 66
     1
 10
0.0
 20
0.0
 30
0.0
  0
VERTEX
  8
OBJECT
 10
33.663005
 20
69.422123
 30
0.0
 42
0.022971
 50
270.0
  0
VERTEX
  8
OBJECT
 10
33.66661
 20
69.419814
 30
0.0
 42
0.156851
  0
VERTEX
  8
OBJECT
 10
33.694512
 20
69.413796
 30
0.0
 42
0.106617
  0
VERTEX
  8
OBJECT
 10
33.733971
 20
69.426487
 30
0.0
 42
0.072341
 70
     2
 50
30.0
  0
VERTEX
  8
OBJECT
 10
33.768761
 20
69.453938
 30
0.0
 42
0.058752
 50
30.0
  0
VERTEX
  8
OBJECT
 10
33.801332
 20
69.497596
 30
0.0
 42
0.058752
  0
VERTEX
  8
OBJECT
 10
33.822855
 20
69.547632
 30
0.0
 42
0.072341
  0
VERTEX
  8
OBJECT
 10
33.829234
 20
69.591487
 30
0.0
 42
0.106617
 70
     2
 50
90.0
  0
VERTEX
  8
OBJECT
 10
33.820495
 20
69.632005
 30
0.0
 42
0.156851
 50
90.0
  0
VERTEX
  8
OBJECT
 10
33.801332
 20
69.653159
 30
0.0
 42
0.022971
  0
VERTEX
  8
OBJECT
 10
33.79753
 20
69.655127
 30
0.0
 42
0.106617
  0
SEQEND
  8
OBJECT
  0
POLYLINE
  8
OBJECT
 66
     1
 10
0.0
 20
0.0
 30
0.0
 70
     1
  0
VERTEX
  8
OBJECT
 10
33.703541
 20
69.554055
 30
0.0
 42
0.058752
  0
VERTEX
  8
OBJECT
 10
33.672234
 20
69.481275
 30
0.0
 42
0.072341
  0
VERTEX
  8
OBJECT
 10
33.662957
 20
69.417487
 30
0.0
 42
0.106617
 70
     2
 50
270.0
  0
VERTEX
  8
OBJECT
 10
33.675668
 20
69.358552
 30
0.0
 42
0.156851
 50
270.0
  0
VERTEX
  8
OBJECT
 10
33.703541
 20
69.327781
 30
0.0
 42
0.156851
  0
VERTEX
  8
OBJECT
 10
33.744126
 20
69.319028
 30
0.0
 42
0.106617
  0
VERTEX
  8
OBJECT
 10
33.801521
 20
69.337487
 30
0.0
 42
0.072341
 70
     2
 50
30.0
  0
VERTEX
  8
OBJECT
 10
33.852124
 20
69.377416
 30
0.0
 42
0.058752
 50
30.0
  0
VERTEX
  8
OBJECT
 10
33.8995
 20
69.440918
 30
0.0
 42
0.058752
  0
VERTEX
  8
OBJECT
 10
33.930807
 20
69.513699
 30
0.0
 42
0.072341
  0
VERTEX
  8
OBJECT
 10
33.940085
 20
69.577487
 30
0.0
 42
0.106617
 70
     2
 50
90.0
  0
VERTEX
  8
OBJECT
 10
33.927373
 20
69.636422
 30
0.0
 42
0.156851
 50
90.0
  0
VERTEX
  8
OBJECT
 10
33.8995
 20
69.667192
 30
0.0
 42
0.156851
  0
VERTEX
  8
OBJECT
 10
33.858916
 20
69.675946
 30
0.0
 42
0.106617
  0
VERTEX
  8
OBJECT
 10
33.801521
 20
69.657487
 30
0.0
 42
0.072341
 70
     2
 50
210.0
  0
VERTEX
  8
OBJECT
 10
33.750917
 20
69.617558
 30
0.0
 42
0.058752
 50
210.0
  0
SEQEND
  8
OBJECT
  0
POLYLINE
  8
OBJECT
 66
     1
 10
0.0
 20
0.0
 30
0.0
  0
VERTEX
  8
OBJECT
 10
37.127106
 20
71.422123
 30
0.0
 42
0.022971
 50
270.0
  0
VERTEX
  8
OBJECT
 10
37.130712
 20
71.419814
 30
0.0
 42
0.156851
  0
VERTEX
  8
OBJECT
 10
37.158613
 20
71.413796
 30
0.0
 42
0.106617
  0
VERTEX
  8
OBJECT
 10
37.198073
 20
71.426487
 30
0.0
 42
0.072341
 70
     2
 50
30.0
  0
VERTEX
  8
OBJECT
 10
37.232862
 20
71.453938
 30
0.0
 42
0.058752
 50
30.0
  0
VERTEX
  8
OBJECT
 10
37.265433
 20
71.497596
 30
0.0
 42
0.058752
  0
VERTEX
  8
OBJECT
 10
37.286957
 20
71.547632
 30
0.0
 42
0.072341
  0
VERTEX
  8
OBJECT
 10
37.293335
 20
71.591487
 30
0.0
 42
0.106617
 70
     2
 50
90.0
  0
VERTEX
  8
OBJECT
 10
37.284596
 20
71.632005
 30
0.0
 42
0.156851
 50
90.0
  0
VERTEX
  8
OBJECT
 10
37.265433
 20
71.653159
 30
0.0
 42
0.022971
  0
VERTEX
  8
OBJECT
 10
37.261632
 20
71.655127
 30
0.0
 42
0.106617
  0
SEQEND
  8
OBJECT
  0
POLYLINE
  8
OBJECT
 66
     1
 10
0.0
 20
0.0
 30
0.0
 70
     1
  0
VERTEX
  8
OBJECT
 10
37.167643
 20
71.554055
 30
0.0
 42
0.058752
  0
VERTEX
  8
OBJECT
 10
37.136336
 20
71.481275
 30
0.0
 42
0.072341
  0
VERTEX
  8
OBJECT
 10
37.127058
 20
71.417487
 30
0.0
 42
0.106617
 70
     2
 50
270.0
  0
VERTEX
  8
OBJECT
 10
37.13977
 20
71.358552
 30
0.0
 42
0.156851
 50
270.0
  0
VERTEX
  8
OBJECT
 10
37.167643
 20
71.327781
 30
0.0
 42
0.156851
  0
VERTEX
  8
OBJECT
 10
37.208227
 20
71.319028
 30
0.0
 42
0.106617
  0
VERTEX
  8
OBJECT
 10
37.265622
 20
71.337487
 30
0.0
 42
0.072341
 70
     2
 50
30.0
  0
VERTEX
  8
OBJECT
 10
37.316226
 20
71.377416
 30
0.0
 42
0.058752
 50
30.0
  0
VERTEX
  8
OBJECT
 10
37.363602
 20
71.440918
 30
0.0
 42
0.058752
  0
VERTEX
  8
OBJECT
 10
37.394909
 20
71.513699
 30
0.0
 42
0.072341
  0
VERTEX
  8
OBJECT
 10
37.404187
 20
71.577487
 30
0.0
 42
0.106617
 70
     2
 50
90.0
  0
VERTEX
  8
OBJECT
 10
37.391475
 20
71.636422
 30
0.0
 42
0.156851
 50
90.0
  0
VERTEX
  8
OBJECT
 10
37.363602
 20
71.667192
 30
0.0
 42
0.156851
  0
VERTEX
  8
OBJECT
 10
37.323018
 20
71.675946
 30
0.0
 42
0.106617
  0
VERTEX
  8
OBJECT
 10
37.265622
 20
71.657487
 30
0.0
 42
0.072341
 70
     2
 50
210.0
  0
VERTEX
  8
OBJECT
 10
37.215019
 20
71.617558
 30
0.0
 42
0.058752
 50
210.0
  0
SEQEND
  8
OBJECT
  0
LINE
  8
OBJECT
 10
32.867945
 20
73.770487
 30
0.0
 11
35.330451
 21
75.192215
 31
0.0
  0
LINE
  8
OBJECT
 10
33.003045
 20
73.770487
 30
0.0
 11
35.398001
 21
75.153215
 31
0.0
  0
LINE
  8
OBJECT
 10
33.003045
 20
73.770487
 30
0.0
 11
33.557302
 21
73.450487
 31
0.0
  0
LINE
  8
OBJECT
 10
32.867945
 20
73.770487
 30
0.0
 11
33.489752
 21
73.411487
 31
0.0
  0
LINE
  8
OBJECT
 10
33.205695
 20
73.278987
 30
0.0
 11
33.340795
 21
73.200987
 31
0.0
  0
POLYLINE
  8
OBJECT
 66
     1
 10
0.0
 20
0.0
 30
0.0
  0
VERTEX
  8
OBJECT
 10
33.052107
 20
73.330813
 30
0.0
 42
0.058752
  0
VERTEX
  8
OBJECT
 10
33.093709
 20
73.275049
 30
0.0
 42
0.072341
  0
VERTEX
  8
OBJECT
 10
33.138145
 20
73.239987
 30
0.0
 42
0.106617
 70
     2
 50
330.0
  0
SEQEND
  8
OBJECT
  0
POLYLINE
  8
OBJECT
 66
     1
 10
0.0
 20
0.0
 30
0.0
  0
VERTEX
  8
OBJECT
 10
33.273245
 20
73.161987
 30
0.0
 42
0.106617
 70
     2
 50
330.0
  0
VERTEX
  8
OBJECT
 10
33.323645
 20
73.145777
 30
0.0
 42
0.156851
 50
330.0
  0
VERTEX
  8
OBJECT
 10
33.359284
 20
73.153464
 30
0.0
 42
0.156851
  0
VERTEX
  8
OBJECT
 10
33.38376
 20
73.180484
 30
0.0
 42
0.106617
  0
VERTEX
  8
OBJECT
 10
33.394922
 20
73.232237
 30
0.0
 42
0.072341
 70
     2
 50
90.0
  0
VERTEX
  8
OBJECT
 10
33.386775
 20
73.288251
 30
0.0
 42
0.058752
 50
90.0
  0
VERTEX
  8
OBJECT
 10
33.359284
 20
73.352161
 30
0.0
 42
0.058752
  0
VERTEX
  8
OBJECT
 10
33.317682
 20
73.407924
 30
0.0
 42
0.072341
  0
VERTEX
  8
OBJECT
 10
33.273245
 20
73.442987
 30
0.0
 42
0.106617
 70
     2
 50
150.0
  0
SEQEND
  8
OBJECT
  0
LINE
  8
OBJECT
 10
33.138145
 20
73.239987
 30
0.0
 11
33.273245
 21
73.161987
 31
0.0
  0
POLYLINE
  8
OBJECT
 66
     1
 10
0.0
 20
0.0
 30
0.0
  0
VERTEX
  8
OBJECT
 10
33.340795
 20
73.200987
 30
0.0
 42
0.09582
 70
     2
 50
330.0
  0
VERTEX
  8
OBJECT
 10
33.385867
 20
73.18542
 30
0.0
 42
0.156851
 50
330.0
  0
SEQEND
  8
OBJECT
  0
LINE
  8
OBJECT
 10
33.138145
 20
73.520987
 30
0.0
 11
33.273245
 21
73.442987
 31
0.0
  0
POLYLINE
  8
OBJECT
 66
     1
 10
0.0
 20
0.0
 30
0.0
  0
VERTEX
  8
OBJECT
 10
33.093074
 20
73.536553
 30
0.0
 42
0.09582
  0
VERTEX
  8
OBJECT
 10
33.084019
 20
73.489737
 30
0.0
 42
0.072341
 70
     2
 50
270.0
  0
VERTEX
  8
OBJECT
 10
33.092166
 20
73.433723
 30
0.0
 42
0.058752
 50
270.0
  0
VERTEX
  8
OBJECT
 10
33.119657
 20
73.369813
 30
0.0
 42
0.058752
  0
SEQEND
  8
OBJECT
  0
POLYLINE
  8
OBJECT
 66
     1
 10
0.0
 20
0.0
 30
0.0
  0
VERTEX
  8
OBJECT
 10
33.119657
 20
73.369813
 30
0.0
 42
0.058752
  0
VERTEX
  8
OBJECT
 10
33.161259
 20
73.314049
 30
0.0
 42
0.072341
  0
VERTEX
  8
OBJECT
 10
33.205695
 20
73.278987
 30
0.0
 42
0.106617
 70
     2
 50
330.0
  0
SEQEND
  8
OBJECT
  0
POLYLINE
  8
OBJECT
 66
     1
 10
0.0
 20
0.0
 30
0.0
  0
VERTEX
  8
OBJECT
 10
33.138145
 20
73.520987
 30
0.0
 42
0.106617
 70
     2
 50
150.0
  0
VERTEX
  8
OBJECT
 10
33.087745
 20
73.537196
 30
0.0
 42
0.156851
 50
150.0
  0
VERTEX
  8
OBJECT
 10
33.052107
 20
73.52951
 30
0.0
 42
0.156851
  0
VERTEX
  8
OBJECT
 10
33.027631
 20
73.502489
 30
0.0
 42
0.106617
  0
VERTEX
  8
OBJECT
 10
33.016469
 20
73.450737
 30
0.0
 42
0.072341
 70
     2
 50
270.0
  0
VERTEX
  8
OBJECT
 10
33.024616
 20
73.394723
 30
0.0
 42
0.058752
 50
270.0
  0
VERTEX
  8
OBJECT
 10
33.052107
 20
73.330813
 30
0.0
 42
0.058752
  0
SEQEND
  8
OBJECT
  0
LINE
  8
OBJECT
 10
33.489752
 20
73.411487
 30
0.0
 11
33.557302
 21
73.450487
 31
0.0
  0
LINE
  8
OBJECT
 10
35.330451
 20
75.192215
 30
0.0
 11
35.398001
 21
75.153215
 31
0.0
  0
LINE
  8
OBJECT
 10
35.600609
 20
75.254191
 30
0.0
 11
35.330451
 21
75.192215
 31
0.0
  0
LINE
  8
OBJECT
 10
35.600609
 20
75.254191
 30
0.0
 11
35.668159
 21
75.215191
 31
0.0
  0
LINE
  8
OBJECT
 10
35.668159
 20
75.215191
 30
0.0
 11
35.398001
 21
75.153215
 31
0.0
  0
LINE
  8
OBJECT
 10
41.514343
 20
74.507343
 30
0.0
 11
41.59575
 21
74.4028
 31
0.0
  0
POLYLINE
  8
OBJECT
 66
     1
 10
0.0
 20
0.0
 30
0.0
  0
VERTEX
  8
OBJECT
 10
40.591208
 20
73.422123
 30
0.0
 42
0.022971
 50
270.0
  0
VERTEX
  8
OBJECT
 10
40.594813
 20
73.419814
 30
0.0
 42
0.156851
  0
VERTEX
  8
OBJECT
 10
40.622715
 20
73.413796
 30
0.0
 42
0.106617
  0
VERTEX
  8
OBJECT
 10
40.662174
 20
73.426487
 30
0.0
 42
0.072341
 70
     2
 50
30.0
  0
VERTEX
  8
OBJECT
 10
40.696964
 20
73.453938
 30
0.0
 42
0.058752
 50
30.0
  0
VERTEX
  8
OBJECT
 10
40.729535
 20
73.497596
 30
0.0
 42
0.058752
  0
VERTEX
  8
OBJECT
 10
40.751059
 20
73.547632
 30
0.0
 42
0.072341
  0
VERTEX
  8
OBJECT
 10
40.757437
 20
73.591487
 30
0.0
 42
0.106617
 70
     2
 50
90.0
  0
VERTEX
  8
OBJECT
 10
40.748698
 20
73.632005
 30
0.0
 42
0.156851
 50
90.0
  0
VERTEX
  8
OBJECT
 10
40.729535
 20
73.653159
 30
0.0
 42
0.022971
  0
VERTEX
  8
OBJECT
 10
40.725733
 20
73.655127
 30
0.0
 42
0.106617
  0
SEQEND
  8
OBJECT
  0
POLYLINE
  8
OBJECT
 66
     1
 10
0.0
 20
0.0
 30
0.0
 70
     1
  0
VERTEX
  8
OBJECT
 10
40.631745
 20
73.554055
 30
0.0
 42
0.058752
  0
VERTEX
  8
OBJECT
 10
40.600438
 20
73.481275
 30
0.0
 42
0.072341
  0
VERTEX
  8
OBJECT
 10
40.59116
 20
73.417487
 30
0.0
 42
0.106617
 70
     2
 50
270.0
  0
VERTEX
  8
OBJECT
 10
40.603872
 20
73.358552
 30
0.0
 42
0.156851
 50
270.0
  0
VERTEX
  8
OBJECT
 10
40.631745
 20
73.327781
 30
0.0
 42
0.156851
  0
VERTEX
  8
OBJECT
 10
40.672329
 20
73.319028
 30
0.0
 42
0.106617
  0
VERTEX
  8
OBJECT
 10
40.729724
 20
73.337487
 30
0.0
 42
0.072341
 70
     2
 50
30.0
  0
VERTEX
  8
OBJECT
 10
40.780328
 20
73.377416
 30
0.0
 42
0.058752
 50
30.0
  0
VERTEX
  8
OBJECT
 10
40.827704
 20
73.440918
 30
0.0
 42
0.058752
  0
VERTEX
  8
OBJECT
 10
40.859011
 20
73.513699
 30
0.0
 42
0.072341
  0
VERTEX
  8
OBJECT
 10
40.868288
 20
73.577487
 30
0.0
 42
0.106617
 70
     2
 50
90.0
  0
VERTEX
  8
OBJECT
 10
40.855577
 20
73.636422
 30
0.0
 42
0.156851
 50
90.0
  0
VERTEX
  8
OBJECT
 10
40.827704
 20
73.667192
 30
0.0
 42
0.156851
  0
VERTEX
  8
OBJECT
 10
40.787119
 20
73.675946
 30
0.0
 42
0.106617
  0
VERTEX
  8
OBJECT
 10
40.729724
 20
73.657487
 30
0.0
 42
0.072341
 70
     2
 50
210.0
  0
VERTEX
  8
OBJECT
 10
40.679121
 20
73.617558
 30
0.0
 42
0.058752
 50
210.0
  0
SEQEND
  8
OBJECT
  0
LINE
  8
OBJECT
 10
41.59575
 20
73.513487
 30
0.0
 11
41.59575
 21
74.4028
 31
0.0
  0
LINE
  8
OBJECT
 10
41.446793
 20
74.546343
 30
0.0
 11
41.514343
 21
74.507343
 31
0.0
  0
LINE
  8
OBJECT
 10
41.496032
 20
74.517915
 30
0.0
 11
44.992734
 21
76.536737
 31
0.0
  0
LINE
  8
OBJECT
 10
41.59575
 20
73.591487
 30
0.0
 11
44.911761
 21
75.505987
 31
0.0
  0
TEXT
  8
TEXT
 10
3.392711
 20
5.64339
 30
0.0
 40
0.75
  1
PART NO.
 41
0.75
  7
TXT
 72
     1
 11
5.361461
 21
5.64339
 31
0.0
  0
TEXT
  8
TEXT
 10
3.580211
 20
1.89739
 30
0.0
 40
0.75
  1
SA-1378
 41
0.75
  7
TXT
 72
     1
 11
5.361461
 21
1.89739
 31
0.0
  0
TEXT
  8
TEXT
 10
3.580211
 20
0.64739
 30
0.0
 40
0.75
  1
SA-1379
 41
0.75
  7
TXT
 72
     1
 11
5.361461
 21
0.64739
 31
0.0
  0
TEXT
  8
TEXT
 10
3.580211
 20
4.38939
 30
0.0
 40
0.75
  1
SA-1278
 41
0.75
  7
TXT
 72
     1
 11
5.361461
 21
4.38939
 31
0.0
  0
TEXT
  8
TEXT
 10
3.580211
 20
3.13939
 30
0.0
 40
0.75
  1
SA-1279
 41
0.75
  7
TXT
 72
     1
 11
5.361461
 21
3.13939
 31
0.0
  0
LINE
  8
TITLE
 10
10.368
 20
6.612
 30
0.0
 11
10.368
 21
0.372
 31
0.0
  0
LINE
  8
TITLE
 10
20.364
 20
6.612
 30
0.0
 11
20.364
 21
0.372
 31
0.0
  0
LINE
  8
TITLE
 10
30.36
 20
6.612
 30
0.0
 11
30.36
 21
0.372
 31
0.0
  0
LINE
  8
TITLE
 10
40.356
 20
6.612
 30
0.0
 11
40.356
 21
0.372
 31
0.0
  0
LINE
  8
TITLE
 10
50.352
 20
6.612
 30
0.0
 11
50.352
 21
0.372
 31
0.0
  0
TEXT
  8
TEXT
 10
14.091836
 20
0.64739
 30
0.0
 40
0.75
  1
23.000
 41
0.75
  7
TXT
 72
     1
 11
15.357461
 21
0.64739
 31
0.0
  0
TEXT
  8
TEXT
 10
14.091836
 20
1.89739
 30
0.0
 40
0.75
  1
23.000
 41
0.75
  7
TXT
 72
     1
 11
15.357461
 21
1.89739
 31
0.0
  0
TEXT
  8
TEXT
 10
15.169961
 20
5.64339
 30
0.0
 40
0.75
  1
A
 41
0.75
  7
TXT
 72
     1
 11
15.357461
 21
5.64339
 31
0.0
  0
TEXT
  8
TEXT
 10
14.185586
 20
3.13939
 30
0.0
 40
0.75
  1
19.000
 41
0.75
  7
TXT
 72
     1
 11
15.357461
 21
3.13939
 31
0.0
  0
TEXT
  8
TEXT
 10
14.185586
 20
4.38939
 30
0.0
 40
0.75
  1
19.000
 41
0.75
  7
TXT
 72
     1
 11
15.357461
 21
4.38939
 31
0.0
  0
TEXT
  8
TEXT
 10
24.040961
 20
0.64739
 30
0.0
 40
0.75
  1
21.562
 41
0.75
  7
TXT
 72
     1
 11
25.353461
 21
0.64739
 31
0.0
  0
TEXT
  8
TEXT
 10
24.040961
 20
1.89739
 30
0.0
 40
0.75
  1
21.562
 41
0.75
  7
TXT
 72
     1
 11
25.353461
 21
1.89739
 31
0.0
  0
TEXT
  8
TEXT
 10
25.165961
 20
5.64339
 30
0.0
 40
0.75
  1
B
 41
0.75
  7
TXT
 72
     1
 11
25.353461
 21
5.64339
 31
0.0
  0
TEXT
  8
TEXT
 10
24.040961
 20
3.13939
 30
0.0
 40
0.75
  1
17.562
 41
0.75
  7
TXT
 72
     1
 11
25.353461
 21
3.13939
 31
0.0
  0
TEXT
  8
TEXT
 10
24.040961
 20
4.38939
 30
0.0
 40
0.75
  1
17.562
 41
0.75
  7
TXT
 72
     1
 11
25.353461
 21
4.38939
 31
0.0
  0
TEXT
  8
TEXT
 10
34.130711
 20
0.64739
 30
0.0
 40
0.75
  1
20.000
 41
0.75
  7
TXT
 72
     1
 11
35.349461
 21
0.64739
 31
0.0
  0
TEXT
  8
TEXT
 10
34.177586
 20
1.89739
 30
0.0
 40
0.75
  1
16.000
 41
0.75
  7
TXT
 72
     1
 11
35.349461
 21
1.89739
 31
0.0
  0
TEXT
  8
TEXT
 10
35.161961
 20
5.64339
 30
0.0
 40
0.75
  1
C
 41
0.75
  7
TXT
 72
     1
 11
35.349461
 21
5.64339
 31
0.0
  0
TEXT
  8
TEXT
 10
34.130711
 20
3.13939
 30
0.0
 40
0.75
  1
20.000
 41
0.75
  7
TXT
 72
     1
 11
35.349461
 21
3.13939
 31
0.0
  0
TEXT
  8
TEXT
 10
34.177586
 20
4.38939
 30
0.0
 40
0.75
  1
16.000
 41
0.75
  7
TXT
 72
     1
 11
35.349461
 21
4.38939
 31
0.0
  0
TEXT
  8
TEXT
 10
43.564211
 20
0.64739
 30
0.0
 40
0.75
  1
QTY. (9)
 41
0.75
  7
TXT
 72
     1
 11
45.345461
 21
0.64739
 31
0.0
  0
TEXT
  8
TEXT
 10
43.564211
 20
1.89739
 30
0.0
 40
0.75
  1
QTY. (6)
 41
0.75
  7
TXT
 72
     1
 11
45.345461
 21
1.89739
 31
0.0
  0
TEXT
  8
TEXT
 10
45.157961
 20
5.64339
 30
0.0
 40
0.75
  1
D
 41
0.75
  7
TXT
 72
     1
 11
45.345461
 21
5.64339
 31
0.0
  0
TEXT
  8
TEXT
 10
43.564211
 20
3.13939
 30
0.0
 40
0.75
  1
QTY. (9)
 41
0.75
  7
TXT
 72
     1
 11
45.345461
 21
3.13939
 31
0.0
  0
TEXT
  8
TEXT
 10
43.564211
 20
4.38939
 30
0.0
 40
0.75
  1
QTY. (6)
 41
0.75
  7
TXT
 72
     1
 11
45.345461
 21
4.38939
 31
0.0
  0
TEXT
  8
TEXT
 10
54.169586
 20
0.64739
 30
0.0
 40
0.75
  1
18.000
 41
0.75
  7
TXT
 72
     1
 11
55.341461
 21
0.64739
 31
0.0
  0
TEXT
  8
TEXT
 10
54.169586
 20
1.89739
 30
0.0
 40
0.75
  1
12.000
 41
0.75
  7
TXT
 72
     1
 11
55.341461
 21
1.89739
 31
0.0
  0
TEXT
  8
TEXT
 10
55.153961
 20
5.64339
 30
0.0
 40
0.75
  1
E
 41
0.75
  7
TXT
 72
     1
 11
55.341461
 21
5.64339
 31
0.0
  0
TEXT
  8
TEXT
 10
54.169586
 20
3.13939
 30
0.0
 40
0.75
  1
18.000
 41
0.75
  7
TXT
 72
     1
 11
55.341461
 21
3.13939
 31
0.0
  0
TEXT
  8
TEXT
 10
54.169586
 20
4.38939
 30
0.0
 40
0.75
  1
12.000
 41
0.75
  7
TXT
 72
     1
 11
55.341461
 21
4.38939
 31
0.0
  0
TEXT
  8
TEXT
 10
3.643802
 20
19.722201
 30
0.0
 40
0.75
  1
MATERIAL: SHELF
 41
0.75
  7
TXT
  0
TEXT
  8
TEXT
 10
8.636225
 20
18.472201
 30
0.0
 40
0.75
  1
MOUNTING BRACKETS
 41
0.75
  7
TXT
  0
TEXT
  8
TEXT
 10
3.643802
 20
16.014018
 30
0.0
 40
0.75
  1
FINISH: METALLIC GRAY
 41
0.75
  7
TXT
  0
TEXT
  8
TEXT
 10
7.41856
 20
14.764018
 30
0.0
 40
0.75
  1
BLACK TEXTURE
 41
0.75
  7
TXT
  0
TEXT
  8
TEXT
 10
21.135383
 20
19.697557
 30
0.0
 40
0.75
  1
16 GA. STEEL
 41
0.75
  7
TXT
 72
     2
 11
27.135383
 21
19.697557
 31
0.0
  0
TEXT
  8
TEXT
 10
21.135383
 20
18.447557
 30
0.0
 40
0.75
  1
14 GA. STEEL
 41
0.75
  7
TXT
 72
     2
 11
27.135383
 21
18.447557
 31
0.0
  0
LINE
  8
TEXT
 10
11.763491
 20
19.697557
 30
0.0
 11
20.75246
 21
19.697557
 31
0.0
  0
LINE
  8
TEXT
 10
18.033108
 20
18.451618
 30
0.0
 11
20.75246
 21
18.451618
 31
0.0
  0
POLYLINE
  8
DIM
 66
     1
 10
0.0
 20
0.0
 30
0.0
 41
0.3375
  0
VERTEX
  8
DIM
 10
38.936174
 20
79.982591
 30
0.0
  0
VERTEX
  8
DIM
 10
39.627671
 20
80.558639
 30
0.0
 41
0.0
  0
VERTEX
  8
DIM
 10
42.823313
 20
83.220752
 30
0.0
 41
0.0
  0
VERTEX
  8
DIM
 10
43.723313
 20
83.220752
 30
0.0
 41
0.0
  0
SEQEND
  8
DIM
  0
TEXT
  8
DIM
 10
44.173313
 20
82.908252
 30
0.0
 40
0.625
  1
SHELF
 41
0.75
  7
TXT
 11
44.173313
 21
83.220752
 31
0.0
 73
     2
  0
POLYLINE
  8
DIM
 66
     1
 10
0.0
 20
0.0
 30
0.0
 41
0.3375
  0
VERTEX
  8
DIM
 10
35.308177
 20
71.433844
 30
0.0
  0
VERTEX
  8
DIM
 10
35.966233
 20
70.819871
 30
0.0
 41
0.0
  0
VERTEX
  8
DIM
 10
39.195316
 20
67.807103
 30
0.0
 41
0.0
  0
VERTEX
  8
DIM
 10
40.095316
 20
67.807103
 30
0.0
 41
0.0
  0
SEQEND
  8
DIM
  0
TEXT
  8
DIM
 10
40.545316
 20
67.494603
 30
0.0
 40
0.625
  1
MOUNTING BRACKET
 41
0.75
  7
TXT
 11
40.545316
 21
67.807103
 31
0.0
 73
     2
  0
TEXT
  8
TEXT
 10
10.628424
 20
90.88031
 30
0.0
 40
1.125
  1
RELAY RACK SHELF
 41
0.75
  7
TXT
 72
     1
 11
17.237799
 21
90.88031
 31
0.0
  0
TEXT
  8
TEXT
 10
37.371842
 20
90.88031
 30
0.0
 40
1.125
  1
SA-1278, 79  &  SA-1378, 79
 41
0.75
  7
TXT
 72
     1
 11
47.778092
 21
90.88031
 31
0.0
  0
TEXT
  8
TEXT
 10
3.643802
 20
12.299768
 30
0.0
 40
0.75
  1
NOTE: MOUNTING BRACKETS ARE ADJUSTABLE
 41
0.75
  7
TXT
  0
TEXT
  8
TEXT
 10
3.643802
 20
10.047631
 30
0.0
 40
0.75
  1
LOAD RATING:  150 LBS. MAX.
 41
0.75
  7
TXT
  0
ENDSEC
  0
EOF
