  0
SECTION
  2
HEADER
  9
$ACADVER
  1
AC1015
  9
$ACADMAINTVER
 70
     6
  9
$DWGCODEPAGE
  3
ANSI_1252
  9
$INSBASE
 10
0.0
 20
0.0
 30
0.0
  9
$EXTMIN
 10
-0.0066220112999531
 20
-0.6690873980184336
 30
-17.56406658467242
  9
$EXTMAX
 10
108.5066230218156
 20
70.84310451285119
 30
0.0010720746255544
  9
$LIMMIN
 10
0.0
 20
0.0
  9
$LIMMAX
 10
92.24999999999999
 20
72.0
  9
$ORTHOMODE
 70
     0
  9
$REGENMODE
 70
     1
  9
$FILLMODE
 70
     1
  9
$QTEXTMODE
 70
     0
  9
$MIRRTEXT
 70
     0
  9
$LTSCALE
 40
4.0
  9
$ATTMODE
 70
     1
  9
$TEXTSIZE
 40
0.5625
  9
$TRACEWID
 40
0.05
  9
$TEXTSTYLE
  7
TXT
  9
$CLAYER
  8
OBJECT
  9
$CELTYPE
  6
ByLayer
  9
$CECOLOR
 62
   256
  9
$CELTSCALE
 40
1.0
  9
$DISPSILH
 70
     0
  9
$DIMSCALE
 40
7.0
  9
$DIMASZ
 40
0.18
  9
$DIMEXO
 40
0.063
  9
$DIMDLI
 40
0.281
  9
$DIMRND
 40
0.0
  9
$DIMDLE
 40
0.0
  9
$DIMEXE
 40
0.093
  9
$DIMTP
 40
0.0
  9
$DIMTM
 40
0.0
  9
$DIMTXT
 40
0.125
  9
$DIMCEN
 40
0.09
  9
$DIMTSZ
 40
0.0
  9
$DIMTOL
 70
     0
  9
$DIMLIM
 70
     0
  9
$DIMTIH
 70
     1
  9
$DIMTOH
 70
     1
  9
$DIMSE1
 70
     0
  9
$DIMSE2
 70
     0
  9
$DIMTAD
 70
     0
  9
$DIMZIN
 70
     0
  9
$DIMBLK
  1

  9
$DIMASO
 70
     1
  9
$DIMSHO
 70
     1
  9
$DIMPOST
  1

  9
$DIMAPOST
  1

  9
$DIMALT
 70
     0
  9
$DIMALTD
 70
     2
  9
$DIMALTF
 40
25.4
  9
$DIMLFAC
 40
1.0
  9
$DIMTOFL
 70
     0
  9
$DIMTVP
 40
0.0
  9
$DIMTIX
 70
     1
  9
$DIMSOXD
 70
     0
  9
$DIMSAH
 70
     0
  9
$DIMBLK1
  1

  9
$DIMBLK2
  1

  9
$DIMSTYLE
  2
23NSTDI
  9
$DIMCLRD
 70
     0
  9
$DIMCLRE
 70
     0
  9
$DIMCLRT
 70
     0
  9
$DIMTFAC
 40
1.0
  9
$DIMGAP
 40
0.09
  9
$DIMJUST
 70
     0
  9
$DIMSD1
 70
     0
  9
$DIMSD2
 70
     0
  9
$DIMTOLJ
 70
     1
  9
$DIMTZIN
 70
     0
  9
$DIMALTZ
 70
     0
  9
$DIMALTTZ
 70
     0
  9
$DIMUPT
 70
     0
  9
$DIMDEC
 70
     3
  9
$DIMTDEC
 70
     3
  9
$DIMALTU
 70
     2
  9
$DIMALTTD
 70
     2
  9
$DIMTXSTY
  7
STANDARD
  9
$DIMAUNIT
 70
     0
  9
$DIMADEC
 70
     0
  9
$DIMALTRND
 40
0.0
  9
$DIMAZIN
 70
     0
  9
$DIMDSEP
 70
    46
  9
$DIMATFIT
 70
     3
  9
$DIMFRAC
 70
     0
  9
$DIMLDRBLK
  1

  9
$DIMLUNIT
 70
     2
  9
$DIMLWD
 70
    -2
  9
$DIMLWE
 70
    -2
  9
$DIMTMOVE
 70
     2
  9
$LUNITS
 70
     2
  9
$LUPREC
 70
     3
  9
$SKETCHINC
 40
0.1
  9
$FILLETRAD
 40
0.0
  9
$AUNITS
 70
     0
  9
$AUPREC
 70
     0
  9
$MENU
  1
acad
  9
$ELEVATION
 40
0.0
  9
$PELEVATION
 40
0.0
  9
$THICKNESS
 40
0.0
  9
$LIMCHECK
 70
     0
  9
$CHAMFERA
 40
0.25
  9
$CHAMFERB
 40
0.25
  9
$CHAMFERC
 40
0.0
  9
$CHAMFERD
 40
0.0
  9
$SKPOLY
 70
     0
  9
$TDCREATE
 40
2451334.419661690
  9
$TDUCREATE
 40
2451334.627995023
  9
$TDUPDATE
 40
2452969.536789456
  9
$TDUUPDATE
 40
2452969.745122789
  9
$TDINDWG
 40
0.0544539468
  9
$TDUSRTIMER
 40
0.0544539468
  9
$USRTIMER
 70
     1
  9
$ANGBASE
 50
0.0
  9
$ANGDIR
 70
     0
  9
$PDMODE
 70
     0
  9
$PDSIZE
 40
0.0
  9
$PLINEWID
 40
0.0
  9
$SPLFRAME
 70
     0
  9
$SPLINETYPE
 70
     6
  9
$SPLINESEGS
 70
     8
  9
$HANDSEED
  5
4AC
  9
$SURFTAB1
 70
     6
  9
$SURFTAB2
 70
     6
  9
$SURFTYPE
 70
     6
  9
$SURFU
 70
     6
  9
$SURFV
 70
     6
  9
$UCSBASE
  2

  9
$UCSNAME
  2

  9
$UCSORG
 10
0.0
 20
0.0
 30
0.0
  9
$UCSXDIR
 10
1.0
 20
0.0
 30
0.0
  9
$UCSYDIR
 10
0.0
 20
1.0
 30
0.0
  9
$UCSORTHOREF
  2

  9
$UCSORTHOVIEW
 70
     0
  9
$UCSORGTOP
 10
0.0
 20
0.0
 30
0.0
  9
$UCSORGBOTTOM
 10
0.0
 20
0.0
 30
0.0
  9
$UCSORGLEFT
 10
0.0
 20
0.0
 30
0.0
  9
$UCSORGRIGHT
 10
0.0
 20
0.0
 30
0.0
  9
$UCSORGFRONT
 10
0.0
 20
0.0
 30
0.0
  9
$UCSORGBACK
 10
0.0
 20
0.0
 30
0.0
  9
$PUCSBASE
  2

  9
$PUCSNAME
  2

  9
$PUCSORG
 10
0.0
 20
0.0
 30
0.0
  9
$PUCSXDIR
 10
1.0
 20
0.0
 30
0.0
  9
$PUCSYDIR
 10
0.0
 20
1.0
 30
0.0
  9
$PUCSORTHOREF
  2

  9
$PUCSORTHOVIEW
 70
     0
  9
$PUCSORGTOP
 10
0.0
 20
0.0
 30
0.0
  9
$PUCSORGBOTTOM
 10
0.0
 20
0.0
 30
0.0
  9
$PUCSORGLEFT
 10
0.0
 20
0.0
 30
0.0
  9
$PUCSORGRIGHT
 10
0.0
 20
0.0
 30
0.0
  9
$PUCSORGFRONT
 10
0.0
 20
0.0
 30
0.0
  9
$PUCSORGBACK
 10
0.0
 20
0.0
 30
0.0
  9
$USERI1
 70
     0
  9
$USERI2
 70
     0
  9
$USERI3
 70
     0
  9
$USERI4
 70
     0
  9
$USERI5
 70
     0
  9
$USERR1
 40
0.0
  9
$USERR2
 40
0.0
  9
$USERR3
 40
0.0
  9
$USERR4
 40
0.0
  9
$USERR5
 40
0.0
  9
$WORLDVIEW
 70
     1
  9
$SHADEDGE
 70
     3
  9
$SHADEDIF
 70
    70
  9
$TILEMODE
 70
     1
  9
$MAXACTVP
 70
    16
  9
$PINSBASE
 10
0.0
 20
0.0
 30
0.0
  9
$PLIMCHECK
 70
     0
  9
$PEXTMIN
 10
1.000000000000000E+20
 20
1.000000000000000E+20
 30
1.000000000000000E+20
  9
$PEXTMAX
 10
-1.000000000000000E+20
 20
-1.000000000000000E+20
 30
-1.000000000000000E+20
  9
$PLIMMIN
 10
0.0
 20
0.0
  9
$PLIMMAX
 10
12.0
 20
9.0
  9
$UNITMODE
 70
     0
  9
$VISRETAIN
 70
     0
  9
$PLINEGEN
 70
     0
  9
$PSLTSCALE
 70
     0
  9
$TREEDEPTH
 70
  3020
  9
$CMLSTYLE
  2
Standard
  9
$CMLJUST
 70
     0
  9
$CMLSCALE
 40
1.0
  9
$PROXYGRAPHICS
 70
     1
  9
$MEASUREMENT
 70
     0
  9
$CELWEIGHT
370
    -1
  9
$ENDCAPS
280
     0
  9
$JOINSTYLE
280
     0
  9
$LWDISPLAY
290
     0
  9
$INSUNITS
 70
     0
  9
$HYPERLINKBASE
  1

  9
$STYLESHEET
  1
monochrome.ctb
  9
$XEDIT
290
     1
  9
$CEPSNTYPE
380
     0
  9
$PSTYLEMODE
290
     1
  9
$FINGERPRINTGUID
  2
{A4358F9D-9ABA-11D4-81CD-00C04F604D1B}
  9
$VERSIONGUID
  2
{03C9F9F5-ED9D-477E-9C3D-A62F352EB327}
  9
$EXTNAMES
290
     1
  9
$PSVPSCALE
 40
0.0
  9
$OLESTARTUP
290
     0
  0
ENDSEC
  0
SECTION
  2
CLASSES
  0
CLASS
  1
ACDBDICTIONARYWDFLT
  2
AcDbDictionaryWithDefault
  3
AutoCAD 2000
 90
        0
280
     0
281
     0
  0
CLASS
  1
ACDBPLACEHOLDER
  2
AcDbPlaceHolder
  3
AutoCAD 2000
 90
        0
280
     0
281
     0
  0
CLASS
  1
LAYOUT
  2
AcDbLayout
  3
AutoCAD 2000
 90
        0
280
     0
281
     0
  0
ENDSEC
  0
SECTION
  2
TABLES
  0
TABLE
  2
VPORT
  5
8
330
0
100
AcDbSymbolTable
 70
     3
  0
VPORT
  5
4AB
330
8
100
AcDbSymbolTableRecord
100
AcDbViewportTableRecord
  2
*Active
 70
     0
 10
0.0
 20
0.0
 11
1.0
 21
1.0
 12
54.25000050525785
 22
35.08700855741639
 13
0.0
 23
0.0
 14
1.0
 24
1.0
 15
1.0
 25
1.0
 16
0.0
 26
0.0
 36
1.0
 17
0.0
 27
0.0
 37
0.0
 40
72.23697763969602
 41
1.802030456852791
 42
50.0
 43
0.0
 44
0.0
 50
0.0
 51
0.0
 71
     0
 72
  5000
 73
     1
 74
     0
 75
     0
 76
     0
 77
     0
 78
     0
281
     0
 65
     1
110
0.0
120
0.0
130
0.0
111
1.0
121
0.0
131
0.0
112
0.0
122
1.0
132
0.0
 79
     0
146
0.0
  0
ENDTAB
  0
TABLE
  2
LTYPE
  5
5
330
0
100
AcDbSymbolTable
 70
     7
  0
LTYPE
  5
13
330
5
100
AcDbSymbolTableRecord
100
AcDbLinetypeTableRecord
  2
ByBlock
 70
     0
  3

 72
    65
 73
     0
 40
0.0
  0
LTYPE
  5
14
330
5
100
AcDbSymbolTableRecord
100
AcDbLinetypeTableRecord
  2
ByLayer
 70
     0
  3

 72
    65
 73
     0
 40
0.0
  0
LTYPE
  5
15
330
5
100
AcDbSymbolTableRecord
100
AcDbLinetypeTableRecord
  2
CONTINUOUS
 70
     0
  3
Solid line
 72
    65
 73
     0
 40
0.0
  0
LTYPE
  5
3A
330
5
100
AcDbSymbolTableRecord
100
AcDbLinetypeTableRecord
  2
CENTER
 70
     0
  3
____ _ ____ _ ____ _ ____ _ ____ _ ____ _ ____ 
 72
    65
 73
     4
 40
2.0
 49
1.25
 74
     0
 49
-0.25
 74
     0
 49
0.25
 74
     0
 49
-0.25
 74
     0
  0
LTYPE
  5
3B
330
5
100
AcDbSymbolTableRecord
100
AcDbLinetypeTableRecord
  2
PHANTOM
 70
     0
  3
______  __  __  ______  __  __  ______  __  __ 
 72
    65
 73
     6
 40
2.5
 49
1.25
 74
     0
 49
-0.25
 74
     0
 49
0.25
 74
     0
 49
-0.25
 74
     0
 49
0.25
 74
     0
 49
-0.25
 74
     0
  0
LTYPE
  5
3C
330
5
100
AcDbSymbolTableRecord
100
AcDbLinetypeTableRecord
  2
HIDDEN
 70
     0
  3
__ __ __ __ __ __ __ __ __ __ __ __ __ __ __ __
 72
    65
 73
     2
 40
0.375
 49
0.25
 74
     0
 49
-0.125
 74
     0
  0
LTYPE
  5
3D
330
5
100
AcDbSymbolTableRecord
100
AcDbLinetypeTableRecord
  2
HIDDEN2
 70
     0
  3
_ _ _ _ _ _ _ _ _ _ _ _ _ _ _ _ _ _ _ _ _ _ _ _
 72
    65
 73
     2
 40
0.1875
 49
0.125
 74
     0
 49
-0.0625
 74
     0
  0
LTYPE
  5
3E
330
5
100
AcDbSymbolTableRecord
100
AcDbLinetypeTableRecord
  2
CENTER2
 70
     0
  3
___ _ ___ _ ___ _ ___ _ ___ _ ___ _ ___ _ ___ _
 72
    65
 73
     4
 40
1.125
 49
0.75
 74
     0
 49
-0.125
 74
     0
 49
0.125
 74
     0
 49
-0.125
 74
     0
  0
LTYPE
  5
3F
330
5
100
AcDbSymbolTableRecord
100
AcDbLinetypeTableRecord
  2
PHANTOM2
 70
     0
  3
___ _ _ ___ _ _ ___ _ _ ___ _ _ ___ _ _ ___ _ _
 72
    65
 73
     6
 40
1.25
 49
0.625
 74
     0
 49
-0.125
 74
     0
 49
0.125
 74
     0
 49
-0.125
 74
     0
 49
0.125
 74
     0
 49
-0.125
 74
     0
  0
ENDTAB
  0
TABLE
  2
LAYER
  5
2
330
0
100
AcDbSymbolTable
 70
    16
  0
LAYER
  5
10
330
2
100
AcDbSymbolTableRecord
100
AcDbLayerTableRecord
  2
0
 70
     0
 62
     7
  6
CONTINUOUS
370
    -3
390
F
  0
LAYER
  5
44
330
2
100
AcDbSymbolTableRecord
100
AcDbLayerTableRecord
  2
TEXT
 70
     0
 62
     1
  6
CONTINUOUS
370
    -3
390
F
  0
LAYER
  5
45
330
2
100
AcDbSymbolTableRecord
100
AcDbLayerTableRecord
  2
TITLE
 70
     0
 62
     8
  6
CONTINUOUS
370
    -3
390
F
  0
LAYER
  5
46
330
2
100
AcDbSymbolTableRecord
100
AcDbLayerTableRecord
  2
DIM
 70
     0
 62
     2
  6
CONTINUOUS
370
    -3
390
F
  0
LAYER
  5
47
330
2
100
AcDbSymbolTableRecord
100
AcDbLayerTableRecord
  2
CENTER
 70
     0
 62
     3
  6
CENTER
370
    -3
390
F
  0
LAYER
  5
48
330
2
100
AcDbSymbolTableRecord
100
AcDbLayerTableRecord
  2
OBJECT
 70
     0
 62
     7
  6
CONTINUOUS
370
    -3
390
F
  0
LAYER
  5
49
330
2
100
AcDbSymbolTableRecord
100
AcDbLayerTableRecord
  2
BEND
 70
     0
 62
     4
  6
PHANTOM
370
    -3
390
F
  0
LAYER
  5
4A
330
2
100
AcDbSymbolTableRecord
100
AcDbLayerTableRecord
  2
HIDDEN
 70
     0
 62
     6
  6
HIDDEN2
370
    -3
390
F
  0
LAYER
  5
4B
330
2
100
AcDbSymbolTableRecord
100
AcDbLayerTableRecord
  2
DEFPOINTS
 70
     0
 62
     7
  6
CONTINUOUS
290
     0
370
    -3
390
F
  0
LAYER
  5
4C
330
2
100
AcDbSymbolTableRecord
100
AcDbLayerTableRecord
  2
HINGE
 70
     0
 62
    41
  6
CONTINUOUS
370
    -3
390
F
  0
LAYER
  5
4D
330
2
100
AcDbSymbolTableRecord
100
AcDbLayerTableRecord
  2
HINGE-HID
 70
     0
 62
    21
  6
HIDDEN2
370
    -3
390
F
  0
LAYER
  5
4E
330
2
100
AcDbSymbolTableRecord
100
AcDbLayerTableRecord
  2
KEY
 70
     0
 62
   131
  6
CONTINUOUS
370
    -3
390
F
  0
LAYER
  5
4F
330
2
100
AcDbSymbolTableRecord
100
AcDbLayerTableRecord
  2
KEY-HID
 70
     0
 62
   141
  6
HIDDEN2
370
    -3
390
F
  0
LAYER
  5
50
330
2
100
AcDbSymbolTableRecord
100
AcDbLayerTableRecord
  2
MON
 70
     0
 62
    61
  6
CONTINUOUS
370
    -3
390
F
  0
LAYER
  5
51
330
2
100
AcDbSymbolTableRecord
100
AcDbLayerTableRecord
  2
MON-HID
 70
     0
 62
    91
  6
HIDDEN2
370
    -3
390
F
  0
LAYER
  5
52
330
2
100
AcDbSymbolTableRecord
100
AcDbLayerTableRecord
  2
BRACKET
 70
     0
 62
   254
  6
CONTINUOUS
370
    -3
390
F
  0
ENDTAB
  0
TABLE
  2
STYLE
  5
3
330
0
100
AcDbSymbolTable
 70
     2
  0
STYLE
  5
11
330
3
100
AcDbSymbolTableRecord
100
AcDbTextStyleTableRecord
  2
STANDARD
 70
     0
 40
0.0
 41
1.0
 50
0.0
 71
     0
 42
0.18
  3
txt
  4

  0
STYLE
  5
39
330
3
100
AcDbSymbolTableRecord
100
AcDbTextStyleTableRecord
  2
TXT
 70
     0
 40
0.0
 41
0.75
 50
0.0
 71
     0
 42
0.5625
  3
txt
  4

  0
ENDTAB
  0
TABLE
  2
VIEW
  5
6
330
0
100
AcDbSymbolTable
 70
     0
  0
ENDTAB
  0
TABLE
  2
UCS
  5
7
330
0
100
AcDbSymbolTable
 70
     0
  0
ENDTAB
  0
TABLE
  2
APPID
  5
9
330
0
100
AcDbSymbolTable
 70
     1
  0
APPID
  5
12
330
9
100
AcDbSymbolTableRecord
100
AcDbRegAppTableRecord
  2
ACAD
 70
     0
  0
ENDTAB
  0
TABLE
  2
DIMSTYLE
  5
A
330
0
100
AcDbSymbolTable
 70
     2
100
AcDbDimStyleTable
 71
     0
  0
DIMSTYLE
105
42
102
{ACAD_REACTORS
330
196
330
197
330
1FD
330
216
330
217
330
23F
330
25B
330
2B5
330
373
330
374
330
375
330
376
330
377
102
}
330
A
100
AcDbSymbolTableRecord
100
AcDbDimStyleTableRecord
  2
23NSTD
 70
     0
 40
7.0
 42
0.063
 43
0.281
 44
0.093
140
0.125
271
     3
272
     3
279
     2
340
11
  0
DIMSTYLE
105
43
102
{ACAD_REACTORS
330
198
330
199
330
19A
330
1A2
330
1A3
330
214
330
215
330
2B9
330
2EB
330
2ED
102
}
330
A
100
AcDbSymbolTableRecord
100
AcDbDimStyleTableRecord
  2
23NSTDI
 70
     0
 40
7.0
 42
0.063
 43
0.281
 44
0.093
140
0.125
174
     1
271
     3
272
     3
279
     2
340
11
  0
ENDTAB
  0
TABLE
  2
BLOCK_RECORD
  5
1
330
0
100
AcDbSymbolTable
 70
    23
  0
BLOCK_RECORD
  5
1E
330
1
100
AcDbSymbolTableRecord
100
AcDbBlockTableRecord
  2
*Model_Space
340
21
  0
BLOCK_RECORD
  5
1A
330
1
100
AcDbSymbolTableRecord
100
AcDbBlockTableRecord
  2
*Paper_Space
340
1D
  0
BLOCK_RECORD
  5
22
330
1
100
AcDbSymbolTableRecord
100
AcDbBlockTableRecord
  2
*D0
340
0
  0
BLOCK_RECORD
  5
23
330
1
100
AcDbSymbolTableRecord
100
AcDbBlockTableRecord
  2
*D1
340
0
  0
BLOCK_RECORD
  5
24
330
1
100
AcDbSymbolTableRecord
100
AcDbBlockTableRecord
  2
*D2
340
0
  0
BLOCK_RECORD
  5
25
330
1
100
AcDbSymbolTableRecord
100
AcDbBlockTableRecord
  2
*D3
340
0
  0
BLOCK_RECORD
  5
26
330
1
100
AcDbSymbolTableRecord
100
AcDbBlockTableRecord
  2
*D4
340
0
  0
BLOCK_RECORD
  5
27
330
1
100
AcDbSymbolTableRecord
100
AcDbBlockTableRecord
  2
*D5
340
0
  0
BLOCK_RECORD
  5
28
330
1
100
AcDbSymbolTableRecord
100
AcDbBlockTableRecord
  2
*D6
340
0
  0
BLOCK_RECORD
  5
29
330
1
100
AcDbSymbolTableRecord
100
AcDbBlockTableRecord
  2
*D7
340
0
  0
BLOCK_RECORD
  5
2A
330
1
100
AcDbSymbolTableRecord
100
AcDbBlockTableRecord
  2
*D8
340
0
  0
BLOCK_RECORD
  5
2B
330
1
100
AcDbSymbolTableRecord
100
AcDbBlockTableRecord
  2
*D9
340
0
  0
BLOCK_RECORD
  5
2C
330
1
100
AcDbSymbolTableRecord
100
AcDbBlockTableRecord
  2
*D10
340
0
  0
BLOCK_RECORD
  5
2D
330
1
100
AcDbSymbolTableRecord
100
AcDbBlockTableRecord
  2
*D11
340
0
  0
BLOCK_RECORD
  5
2E
330
1
100
AcDbSymbolTableRecord
100
AcDbBlockTableRecord
  2
*D12
340
0
  0
BLOCK_RECORD
  5
2F
330
1
100
AcDbSymbolTableRecord
100
AcDbBlockTableRecord
  2
*D13
340
0
  0
BLOCK_RECORD
  5
30
330
1
100
AcDbSymbolTableRecord
100
AcDbBlockTableRecord
  2
*D14
340
0
  0
BLOCK_RECORD
  5
31
330
1
100
AcDbSymbolTableRecord
100
AcDbBlockTableRecord
  2
*D15
340
0
  0
BLOCK_RECORD
  5
32
330
1
100
AcDbSymbolTableRecord
100
AcDbBlockTableRecord
  2
*D16
340
0
  0
BLOCK_RECORD
  5
33
330
1
100
AcDbSymbolTableRecord
100
AcDbBlockTableRecord
  2
*D17
340
0
  0
BLOCK_RECORD
  5
34
330
1
100
AcDbSymbolTableRecord
100
AcDbBlockTableRecord
  2
*D18
340
0
  0
BLOCK_RECORD
  5
35
330
1
100
AcDbSymbolTableRecord
100
AcDbBlockTableRecord
  2
*D19
340
0
  0
BLOCK_RECORD
  5
36
330
1
100
AcDbSymbolTableRecord
100
AcDbBlockTableRecord
  2
*D20
340
0
  0
BLOCK_RECORD
  5
37
330
1
100
AcDbSymbolTableRecord
100
AcDbBlockTableRecord
  2
*D21
340
0
  0
BLOCK_RECORD
  5
38
330
1
100
AcDbSymbolTableRecord
100
AcDbBlockTableRecord
  2
*D22
340
0
  0
ENDTAB
  0
ENDSEC
  0
SECTION
  2
BLOCKS
  0
BLOCK
  5
55
330
1E
100
AcDbEntity
  8
0
100
AcDbBlockBegin
  2
*Model_Space
 70
     0
 10
0.0
 20
0.0
 30
0.0
  3
*Model_Space
  1

  0
ENDBLK
  5
56
330
1E
100
AcDbEntity
  8
0
100
AcDbBlockEnd
  0
BLOCK
  5
53
330
1A
100
AcDbEntity
 67
     1
  8
0
100
AcDbBlockBegin
  2
*Paper_Space
 70
     0
 10
0.0
 20
0.0
 30
0.0
  3
*Paper_Space
  1

  0
ENDBLK
  5
54
330
1A
100
AcDbEntity
 67
     1
  8
0
100
AcDbBlockEnd
  0
BLOCK
  5
57
330
22
100
AcDbEntity
  8
0
100
AcDbBlockBegin
  2
*D0
 70
     1
 10
0.0
 20
0.0
 30
0.0
  3
*D0
  1

  0
ARC
  5
58
330
22
100
AcDbEntity
  8
0
  6
ByBlock
 62
     0
100
AcDbCircle
 10
72.52780613660298
 20
62.34642199022244
 30
0.0
 40
7.283438037532773
100
AcDbArc
 50
144.9242979171364
 51
148.0452845904868
  0
ARC
  5
59
330
22
100
AcDbEntity
  8
0
  6
ByBlock
 62
     0
100
AcDbCircle
 10
72.52780613660298
 20
62.34642199022244
 30
0.0
 40
7.283438037532773
100
AcDbArc
 50
166.3424638120771
 51
170.0757020828614
  0
SOLID
  5
5A
330
22
100
AcDbEntity
  8
0
  6
ByBlock
 62
     0
100
AcDbTrace
 10
66.40630772919059
 20
66.66700132070284
 30
0.0
 11
66.72786797556833
 21
66.39681803485878
 31
0.0
 12
67.37763770991162
 22
67.49659041691401
 32
0.0
 13
67.37763770991162
 23
67.49659041691401
 33
0.0
  0
SOLID
  5
5B
330
22
100
AcDbEntity
  8
0
  6
ByBlock
 62
     0
100
AcDbTrace
 10
65.56256802281925
 20
63.5835350846994
 30
0.0
 11
65.14414215846194
 21
63.61986408188953
 31
0.0
 12
65.2443680990702
 22
62.34642199022254
 32
0.0
 13
65.2443680990702
 23
62.34642199022254
 33
0.0
  0
TEXT
  5
5C
330
22
100
AcDbEntity
  8
0
  6
ByBlock
 62
     0
100
AcDbText
 10
65.03316180741233
 20
64.69617305784407
 30
0.0
 40
0.875
  1
45%%d
 41
0.75
  7
TXT
 72
     1
 11
65.79878680741233
 21
65.13367305784406
 31
0.0
100
AcDbText
 73
     2
  0
POINT
  5
5E
330
22
100
AcDbEntity
  8
DEFPOINTS
  6
ByBlock
 62
     0
100
AcDbPoint
 10
65.38379224279935
 20
63.76470797397887
 30
-0.0000000000000266
  0
POINT
  5
5F
330
22
100
AcDbEntity
  8
DEFPOINTS
  6
ByBlock
 62
     0
100
AcDbPoint
 10
72.02780613660299
 20
62.84642199022245
 30
-4.390664891206662
  0
POINT
  5
60
330
22
100
AcDbEntity
  8
DEFPOINTS
  6
ByBlock
 62
     0
100
AcDbPoint
 10
72.02780613660299
 20
62.34642199022245
 30
-4.390664891206662
  0
POINT
  5
61
330
22
100
AcDbEntity
  8
DEFPOINTS
  6
ByBlock
 62
     0
100
AcDbPoint
 10
54.09089956511427
 20
62.34642199022245
 30
-4.390664891206662
  0
POINT
  5
62
330
22
100
AcDbEntity
  8
DEFPOINTS
  6
ByBlock
 62
     0
100
AcDbPoint
 10
56.80980613660297
 20
78.06442199022246
 30
-4.390664891206662
  0
ENDBLK
  5
63
330
22
100
AcDbEntity
  8
0
100
AcDbBlockEnd
  0
BLOCK
  5
64
330
23
100
AcDbEntity
  8
0
100
AcDbBlockBegin
  2
*D1
 70
     1
 10
0.0
 20
0.0
 30
0.0
  3
*D1
  1

  0
LINE
  5
65
330
23
100
AcDbEntity
  8
0
  6
ByBlock
 62
     0
100
AcDbLine
 10
150.3299030713995
 20
49.26423828280047
 30
0.0
 11
150.3299030713995
 21
48.77073828280049
 31
0.0
  0
LINE
  5
66
330
23
100
AcDbEntity
  8
0
  6
ByBlock
 62
     0
100
AcDbLine
 10
168.2044030713995
 20
49.26423828280047
 30
0.0
 11
168.2044030713995
 21
48.77073828280049
 31
0.0
  0
LINE
  5
67
330
23
100
AcDbEntity
  8
0
  6
ByBlock
 62
     0
100
AcDbLine
 10
151.5899030713995
 20
49.42173828280049
 30
0.0
 11
155.0277780713995
 21
49.42173828280049
 31
0.0
  0
LINE
  5
68
330
23
100
AcDbEntity
  8
0
  6
ByBlock
 62
     0
100
AcDbLine
 10
166.9444030713995
 20
49.42173828280049
 30
0.0
 11
163.5065280713995
 21
49.42173828280049
 31
0.0
  0
SOLID
  5
69
330
23
100
AcDbEntity
  8
0
  6
ByBlock
 62
     0
100
AcDbTrace
 10
151.5899030713995
 20
49.63173828280049
 30
0.0
 11
151.5899030713995
 21
49.21173828280049
 31
0.0
 12
150.3299030713995
 22
49.42173828280049
 32
0.0
 13
150.3299030713995
 23
49.42173828280049
 33
0.0
  0
SOLID
  5
6A
330
23
100
AcDbEntity
  8
0
  6
ByBlock
 62
     0
100
AcDbTrace
 10
166.9444030713995
 20
49.63173828280049
 30
0.0
 11
166.9444030713995
 21
49.21173828280049
 31
0.0
 12
168.2044030713995
 22
49.42173828280049
 32
0.0
 13
168.2044030713995
 23
49.42173828280049
 33
0.0
  0
TEXT
  5
6B
330
23
100
AcDbEntity
  8
0
  6
ByBlock
 62
     0
100
AcDbText
 10
158.6109030713995
 20
48.98423828280049
 30
0.0
 40
0.875
  1
 INSIDE
 41
0.75
  7
TXT
 72
     1
 11
160.9077780713995
 21
49.42173828280049
 31
0.0
100
AcDbText
 73
     2
  0
TEXT
  5
6C
330
23
100
AcDbEntity
  8
0
  6
ByBlock
 62
     0
100
AcDbText
 10
155.6577780713995
 20
48.98423828280049
 30
0.0
 40
0.875
  1
17.875
 41
0.75
  7
TXT
 72
     1
 11
157.1890280713995
 21
49.42173828280049
 31
0.0
100
AcDbText
 73
     2
  0
POINT
  5
6D
330
23
100
AcDbEntity
  8
DEFPOINTS
  6
ByBlock
 62
     0
100
AcDbPoint
 10
150.3299030713995
 20
49.70523828280048
 30
-4.390664891206663
  0
POINT
  5
6E
330
23
100
AcDbEntity
  8
DEFPOINTS
  6
ByBlock
 62
     0
100
AcDbPoint
 10
168.2044030713995
 20
49.70523828280048
 30
-4.390664891206662
  0
POINT
  5
6F
330
23
100
AcDbEntity
  8
DEFPOINTS
  6
ByBlock
 62
     0
100
AcDbPoint
 10
168.2044030713995
 20
49.42173828280049
 30
0.0
  0
ENDBLK
  5
70
330
23
100
AcDbEntity
  8
0
100
AcDbBlockEnd
  0
BLOCK
  5
71
330
24
100
AcDbEntity
  8
0
100
AcDbBlockBegin
  2
*D2
 70
     1
 10
0.0
 20
0.0
 30
0.0
  3
*D2
  1

  0
LINE
  5
72
330
24
100
AcDbEntity
  8
0
  6
ByBlock
 62
     0
100
AcDbLine
 10
138.0644030713995
 20
46.63928506914482
 30
0.0
 11
138.0644030713995
 21
46.14578506914481
 31
0.0
  0
LINE
  5
73
330
24
100
AcDbEntity
  8
0
  6
ByBlock
 62
     0
100
AcDbLine
 10
150.2204030713995
 20
46.63928506914482
 30
0.0
 11
150.2204030713995
 21
46.14578506914481
 31
0.0
  0
LINE
  5
74
330
24
100
AcDbEntity
  8
0
  6
ByBlock
 62
     0
100
AcDbLine
 10
139.3244030713995
 20
46.79678506914481
 30
0.0
 11
140.0124030713995
 21
46.79678506914481
 31
0.0
  0
LINE
  5
75
330
24
100
AcDbEntity
  8
0
  6
ByBlock
 62
     0
100
AcDbLine
 10
148.9604030713995
 20
46.79678506914481
 30
0.0
 11
148.2724030713995
 21
46.79678506914481
 31
0.0
  0
SOLID
  5
76
330
24
100
AcDbEntity
  8
0
  6
ByBlock
 62
     0
100
AcDbTrace
 10
139.3244030713995
 20
47.00678506914481
 30
0.0
 11
139.3244030713995
 21
46.58678506914482
 31
0.0
 12
138.0644030713995
 22
46.79678506914481
 32
0.0
 13
138.0644030713995
 23
46.79678506914481
 33
0.0
  0
SOLID
  5
77
330
24
100
AcDbEntity
  8
0
  6
ByBlock
 62
     0
100
AcDbTrace
 10
148.9604030713995
 20
47.00678506914481
 30
0.0
 11
148.9604030713995
 21
46.58678506914482
 31
0.0
 12
150.2204030713995
 22
46.79678506914481
 32
0.0
 13
150.2204030713995
 23
46.79678506914481
 33
0.0
  0
TEXT
  5
78
330
24
100
AcDbEntity
  8
0
  6
ByBlock
 62
     0
100
AcDbText
 10
143.3767780713995
 20
46.35928506914481
 30
0.0
 40
0.875
  1
 INSIDE
 41
0.75
  7
TXT
 72
     1
 11
145.6736530713995
 21
46.79678506914481
 31
0.0
100
AcDbText
 73
     2
  0
TEXT
  5
79
330
24
100
AcDbEntity
  8
0
  6
ByBlock
 62
     0
100
AcDbText
 10
140.6424030713995
 20
46.35928506914481
 30
0.0
 40
0.875
  1
12.156
 41
0.75
  7
TXT
 72
     1
 11
142.0642780713995
 21
46.79678506914481
 31
0.0
100
AcDbText
 73
     2
  0
POINT
  5
7A
330
24
100
AcDbEntity
  8
DEFPOINTS
  6
ByBlock
 62
     0
100
AcDbPoint
 10
138.0644030713995
 20
47.08028506914482
 30
0.9094460518357703
  0
POINT
  5
7B
330
24
100
AcDbEntity
  8
DEFPOINTS
  6
ByBlock
 62
     0
100
AcDbPoint
 10
150.2204030713995
 20
47.08028506914482
 30
0.0
  0
POINT
  5
7C
330
24
100
AcDbEntity
  8
DEFPOINTS
  6
ByBlock
 62
     0
100
AcDbPoint
 10
150.2204030713995
 20
46.79678506914481
 30
0.0
  0
ENDBLK
  5
7D
330
24
100
AcDbEntity
  8
0
100
AcDbBlockEnd
  0
BLOCK
  5
7E
330
25
100
AcDbEntity
  8
0
100
AcDbBlockBegin
  2
*D3
 70
     1
 10
0.0
 20
0.0
 30
0.0
  3
*D3
  1

  0
LINE
  5
7F
330
25
100
AcDbEntity
  8
0
  6
ByBlock
 62
     0
100
AcDbLine
 10
167.7639030713995
 20
53.52119610517968
 30
0.0
 11
164.0057707769049
 21
53.52119610517968
 31
0.0
  0
LINE
  5
80
330
25
100
AcDbEntity
  8
0
  6
ByBlock
 62
     0
100
AcDbLine
 10
167.7639030713995
 20
36.02119610517968
 30
0.0
 11
164.0057707769049
 21
36.02119610517968
 31
0.0
  0
LINE
  5
81
330
25
100
AcDbEntity
  8
0
  6
ByBlock
 62
     0
100
AcDbLine
 10
164.6567707769049
 20
52.26119610517969
 30
0.0
 11
164.6567707769049
 21
45.83869610517968
 31
0.0
  0
LINE
  5
82
330
25
100
AcDbEntity
  8
0
  6
ByBlock
 62
     0
100
AcDbLine
 10
164.6567707769049
 20
37.28119610517968
 30
0.0
 11
164.6567707769049
 21
43.70369610517967
 31
0.0
  0
SOLID
  5
83
330
25
100
AcDbEntity
  8
0
  6
ByBlock
 62
     0
100
AcDbTrace
 10
164.4467707769049
 20
52.26119610517969
 30
0.0
 11
164.8667707769049
 21
52.26119610517969
 31
0.0
 12
164.6567707769049
 22
53.52119610517968
 32
0.0
 13
164.6567707769049
 23
53.52119610517968
 33
0.0
  0
SOLID
  5
84
330
25
100
AcDbEntity
  8
0
  6
ByBlock
 62
     0
100
AcDbTrace
 10
164.4467707769049
 20
37.28119610517968
 30
0.0
 11
164.8667707769049
 21
37.28119610517968
 31
0.0
 12
164.6567707769049
 22
36.02119610517968
 32
0.0
 13
164.6567707769049
 23
36.02119610517968
 33
0.0
  0
TEXT
  5
85
330
25
100
AcDbEntity
  8
0
  6
ByBlock
 62
     0
100
AcDbText
 10
163.8911457769049
 20
44.33369610517968
 30
0.0
 40
0.875
  1
 INSIDE
 41
0.75
  7
TXT
 72
     1
 11
166.1880207769049
 21
44.77119610517968
 31
0.0
100
AcDbText
 73
     2
  0
TEXT
  5
86
330
25
100
AcDbEntity
  8
0
  6
ByBlock
 62
     0
100
AcDbText
 10
161.1567707769049
 20
44.33369610517968
 30
0.0
 40
0.875
  1
17.500
 41
0.75
  7
TXT
 72
     1
 11
162.5786457769049
 21
44.77119610517968
 31
0.0
100
AcDbText
 73
     2
  0
POINT
  5
87
330
25
100
AcDbEntity
  8
DEFPOINTS
  6
ByBlock
 62
     0
100
AcDbPoint
 10
168.2049030713995
 20
53.52119610517968
 30
-4.390664891206662
  0
POINT
  5
88
330
25
100
AcDbEntity
  8
DEFPOINTS
  6
ByBlock
 62
     0
100
AcDbPoint
 10
168.2049030713995
 20
36.02119610517968
 30
-4.390664891206662
  0
POINT
  5
89
330
25
100
AcDbEntity
  8
DEFPOINTS
  6
ByBlock
 62
     0
100
AcDbPoint
 10
164.6567707769049
 20
36.02119610517968
 30
0.0
  0
ENDBLK
  5
8A
330
25
100
AcDbEntity
  8
0
100
AcDbBlockEnd
  0
BLOCK
  5
8B
330
26
100
AcDbEntity
  8
0
100
AcDbBlockBegin
  2
*D4
 70
     1
 10
0.0
 20
0.0
 30
0.0
  3
*D4
  1

  0
LINE
  5
8C
330
26
100
AcDbEntity
  8
0
  6
ByBlock
 62
     0
100
AcDbLine
 10
139.3924030713995
 20
30.00299138668502
 30
0.0
 11
139.3924030713995
 21
27.50549583230612
 31
0.0
  0
LINE
  5
8D
330
26
100
AcDbEntity
  8
0
  6
ByBlock
 62
     0
100
AcDbLine
 10
138.0174030713995
 20
38.00299138668504
 30
0.0
 11
138.0174030713995
 21
27.50549583230612
 31
0.0
  0
LINE
  5
8E
330
26
100
AcDbEntity
  8
0
  6
ByBlock
 62
     0
100
AcDbLine
 10
140.6524030713995
 20
28.15649583230612
 30
0.0
 11
141.9124030713996
 21
28.15649583230612
 31
0.0
  0
LINE
  5
8F
330
26
100
AcDbEntity
  8
0
  6
ByBlock
 62
     0
100
AcDbLine
 10
136.7574030713995
 20
28.15649583230612
 30
0.0
 11
135.4974030713995
 21
28.15649583230612
 31
0.0
  0
SOLID
  5
90
330
26
100
AcDbEntity
  8
0
  6
ByBlock
 62
     0
100
AcDbTrace
 10
140.6524030713995
 20
28.36649583230612
 30
0.0
 11
140.6524030713995
 21
27.94649583230612
 31
0.0
 12
139.3924030713995
 22
28.15649583230612
 32
0.0
 13
139.3924030713995
 23
28.15649583230612
 33
0.0
  0
SOLID
  5
91
330
26
100
AcDbEntity
  8
0
  6
ByBlock
 62
     0
100
AcDbTrace
 10
136.7574030713995
 20
28.36649583230612
 30
0.0
 11
136.7574030713995
 21
27.94649583230612
 31
0.0
 12
138.0174030713995
 22
28.15649583230612
 32
0.0
 13
138.0174030713995
 23
28.15649583230612
 33
0.0
  0
TEXT
  5
92
330
26
100
AcDbEntity
  8
0
  6
ByBlock
 62
     0
100
AcDbText
 10
132.4611530713995
 20
27.71899583230612
 30
0.0
 40
0.875
  1
1.375
 41
0.75
  7
TXT
 72
     1
 11
133.6642780713995
 21
28.15649583230612
 31
0.0
100
AcDbText
 73
     2
  0
POINT
  5
93
330
26
100
AcDbEntity
  8
DEFPOINTS
  6
ByBlock
 62
     0
100
AcDbPoint
 10
139.3924030713995
 20
30.44399138668502
 30
-4.390664891206657
  0
POINT
  5
94
330
26
100
AcDbEntity
  8
DEFPOINTS
  6
ByBlock
 62
     0
100
AcDbPoint
 10
138.0174030713995
 20
38.44399138668505
 30
-4.390664891206661
  0
POINT
  5
95
330
26
100
AcDbEntity
  8
DEFPOINTS
  6
ByBlock
 62
     0
100
AcDbPoint
 10
138.0174030713995
 20
28.15649583230612
 30
0.0
  0
ENDBLK
  5
96
330
26
100
AcDbEntity
  8
0
100
AcDbBlockEnd
  0
BLOCK
  5
97
330
27
100
AcDbEntity
  8
0
100
AcDbBlockBegin
  2
*D5
 70
     1
 10
0.0
 20
0.0
 30
0.0
  3
*D5
  1

  0
LINE
  5
98
330
27
100
AcDbEntity
  8
0
  6
ByBlock
 62
     0
100
AcDbLine
 10
139.3924030713995
 20
30.00299138668502
 30
0.0
 11
139.3924030713995
 21
27.50549583230612
 31
0.0
  0
LINE
  5
99
330
27
100
AcDbEntity
  8
0
  6
ByBlock
 62
     0
100
AcDbLine
 10
147.3924030713996
 20
30.00299138668502
 30
0.0
 11
147.3924030713996
 21
27.50549583230612
 31
0.0
  0
LINE
  5
9A
330
27
100
AcDbEntity
  8
0
  6
ByBlock
 62
     0
100
AcDbLine
 10
140.6524030713995
 20
28.15649583230612
 30
0.0
 11
141.6139655713996
 21
28.15649583230612
 31
0.0
  0
LINE
  5
9B
330
27
100
AcDbEntity
  8
0
  6
ByBlock
 62
     0
100
AcDbLine
 10
146.1324030713996
 20
28.15649583230612
 30
0.0
 11
145.1708405713995
 21
28.15649583230612
 31
0.0
  0
SOLID
  5
9C
330
27
100
AcDbEntity
  8
0
  6
ByBlock
 62
     0
100
AcDbTrace
 10
140.6524030713995
 20
28.36649583230612
 30
0.0
 11
140.6524030713995
 21
27.94649583230612
 31
0.0
 12
139.3924030713995
 22
28.15649583230612
 32
0.0
 13
139.3924030713995
 23
28.15649583230612
 33
0.0
  0
SOLID
  5
9D
330
27
100
AcDbEntity
  8
0
  6
ByBlock
 62
     0
100
AcDbTrace
 10
146.1324030713996
 20
28.36649583230612
 30
0.0
 11
146.1324030713996
 21
27.94649583230612
 31
0.0
 12
147.3924030713996
 22
28.15649583230612
 32
0.0
 13
147.3924030713996
 23
28.15649583230612
 33
0.0
  0
TEXT
  5
9E
330
27
100
AcDbEntity
  8
0
  6
ByBlock
 62
     0
100
AcDbText
 10
142.2439655713995
 20
27.71899583230612
 30
0.0
 40
0.875
  1
8.000
 41
0.75
  7
TXT
 72
     1
 11
143.3924030713995
 21
28.15649583230612
 31
0.0
100
AcDbText
 73
     2
  0
POINT
  5
9F
330
27
100
AcDbEntity
  8
DEFPOINTS
  6
ByBlock
 62
     0
100
AcDbPoint
 10
139.3924030713995
 20
30.44399138668502
 30
-4.390664891206657
  0
POINT
  5
A0
330
27
100
AcDbEntity
  8
DEFPOINTS
  6
ByBlock
 62
     0
100
AcDbPoint
 10
147.3924030713996
 20
30.44399138668502
 30
-4.390664891206657
  0
POINT
  5
A1
330
27
100
AcDbEntity
  8
DEFPOINTS
  6
ByBlock
 62
     0
100
AcDbPoint
 10
147.3924030713996
 20
28.15649583230612
 30
0.0
  0
ENDBLK
  5
A2
330
27
100
AcDbEntity
  8
0
100
AcDbBlockEnd
  0
BLOCK
  5
A3
330
28
100
AcDbEntity
  8
0
100
AcDbBlockBegin
  2
*D6
 70
     1
 10
0.0
 20
0.0
 30
0.0
  3
*D6
  1

  0
LINE
  5
A4
330
28
100
AcDbEntity
  8
0
  6
ByBlock
 62
     0
100
AcDbLine
 10
137.5764030713995
 20
38.44399138668505
 30
0.0
 11
134.5852959300775
 21
38.44399138668505
 31
0.0
  0
LINE
  5
A5
330
28
100
AcDbEntity
  8
0
  6
ByBlock
 62
     0
100
AcDbLine
 10
138.9514030713995
 20
30.44399138668502
 30
0.0
 11
134.5852959300775
 21
30.44399138668502
 31
0.0
  0
LINE
  5
A6
330
28
100
AcDbEntity
  8
0
  6
ByBlock
 62
     0
100
AcDbLine
 10
135.2362959300775
 20
37.18399138668505
 30
0.0
 11
135.2362959300775
 21
35.51149138668503
 31
0.0
  0
LINE
  5
A7
330
28
100
AcDbEntity
  8
0
  6
ByBlock
 62
     0
100
AcDbLine
 10
135.2362959300775
 20
31.70399138668502
 30
0.0
 11
135.2362959300775
 21
33.37649138668503
 31
0.0
  0
SOLID
  5
A8
330
28
100
AcDbEntity
  8
0
  6
ByBlock
 62
     0
100
AcDbTrace
 10
135.0262959300775
 20
37.18399138668505
 30
0.0
 11
135.4462959300775
 21
37.18399138668505
 31
0.0
 12
135.2362959300775
 22
38.44399138668505
 32
0.0
 13
135.2362959300775
 23
38.44399138668505
 33
0.0
  0
SOLID
  5
A9
330
28
100
AcDbEntity
  8
0
  6
ByBlock
 62
     0
100
AcDbTrace
 10
135.0262959300775
 20
31.70399138668502
 30
0.0
 11
135.4462959300775
 21
31.70399138668502
 31
0.0
 12
135.2362959300775
 22
30.44399138668502
 32
0.0
 13
135.2362959300775
 23
30.44399138668502
 33
0.0
  0
TEXT
  5
AA
330
28
100
AcDbEntity
  8
0
  6
ByBlock
 62
     0
100
AcDbText
 10
134.0878584300775
 20
34.00649138668503
 30
0.0
 40
0.875
  1
8.000
 41
0.75
  7
TXT
 72
     1
 11
135.2362959300775
 21
34.44399138668503
 31
0.0
100
AcDbText
 73
     2
  0
POINT
  5
AB
330
28
100
AcDbEntity
  8
DEFPOINTS
  6
ByBlock
 62
     0
100
AcDbPoint
 10
138.0174030713995
 20
38.44399138668505
 30
-4.390664891206661
  0
POINT
  5
AC
330
28
100
AcDbEntity
  8
DEFPOINTS
  6
ByBlock
 62
     0
100
AcDbPoint
 10
139.3924030713995
 20
30.44399138668502
 30
-4.390664891206657
  0
POINT
  5
AD
330
28
100
AcDbEntity
  8
DEFPOINTS
  6
ByBlock
 62
     0
100
AcDbPoint
 10
135.2362959300775
 20
30.44399138668502
 30
0.0
  0
ENDBLK
  5
AE
330
28
100
AcDbEntity
  8
0
100
AcDbBlockEnd
  0
BLOCK
  5
AF
330
29
100
AcDbEntity
  8
0
100
AcDbBlockBegin
  2
*D7
 70
     1
 10
0.0
 20
0.0
 30
0.0
  3
*D7
  1

  0
LINE
  5
B0
330
29
100
AcDbEntity
  8
0
  6
ByBlock
 62
     0
100
AcDbLine
 10
168.7084030713995
 20
56.75649138668507
 30
0.0
 11
171.905530623485
 21
56.75649138668507
 31
0.0
  0
LINE
  5
B1
330
29
100
AcDbEntity
  8
0
  6
ByBlock
 62
     0
100
AcDbLine
 10
168.7084030713995
 20
39.13149138668508
 30
0.0
 11
171.905530623485
 21
39.13149138668508
 31
0.0
  0
LINE
  5
B2
330
29
100
AcDbEntity
  8
0
  6
ByBlock
 62
     0
100
AcDbLine
 10
171.254530623485
 20
55.49649138668508
 30
0.0
 11
171.254530623485
 21
49.01149138668507
 31
0.0
  0
LINE
  5
B3
330
29
100
AcDbEntity
  8
0
  6
ByBlock
 62
     0
100
AcDbLine
 10
171.254530623485
 20
40.39149138668507
 30
0.0
 11
171.254530623485
 21
46.87649138668507
 31
0.0
  0
SOLID
  5
B4
330
29
100
AcDbEntity
  8
0
  6
ByBlock
 62
     0
100
AcDbTrace
 10
171.044530623485
 20
55.49649138668508
 30
0.0
 11
171.464530623485
 21
55.49649138668508
 31
0.0
 12
171.254530623485
 22
56.75649138668507
 32
0.0
 13
171.254530623485
 23
56.75649138668507
 33
0.0
  0
SOLID
  5
B5
330
29
100
AcDbEntity
  8
0
  6
ByBlock
 62
     0
100
AcDbTrace
 10
171.044530623485
 20
40.39149138668507
 30
0.0
 11
171.464530623485
 21
40.39149138668507
 31
0.0
 12
171.254530623485
 22
39.13149138668508
 32
0.0
 13
171.254530623485
 23
39.13149138668508
 33
0.0
  0
TEXT
  5
B6
330
29
100
AcDbEntity
  8
0
  6
ByBlock
 62
     0
100
AcDbText
 10
169.723280623485
 20
47.50649138668507
 30
0.0
 40
0.875
  1
17.625
 41
0.75
  7
TXT
 72
     1
 11
171.254530623485
 21
47.94399138668508
 31
0.0
100
AcDbText
 73
     2
  0
POINT
  5
B7
330
29
100
AcDbEntity
  8
DEFPOINTS
  6
ByBlock
 62
     0
100
AcDbPoint
 10
168.2674030713995
 20
56.75649138668507
 30
-4.390664891206662
  0
POINT
  5
B8
330
29
100
AcDbEntity
  8
DEFPOINTS
  6
ByBlock
 62
     0
100
AcDbPoint
 10
168.2674030713995
 20
39.13149138668508
 30
-4.390664891206662
  0
POINT
  5
B9
330
29
100
AcDbEntity
  8
DEFPOINTS
  6
ByBlock
 62
     0
100
AcDbPoint
 10
171.254530623485
 20
39.13149138668508
 30
0.0
  0
ENDBLK
  5
BA
330
29
100
AcDbEntity
  8
0
100
AcDbBlockEnd
  0
BLOCK
  5
BB
330
2A
100
AcDbEntity
  8
0
100
AcDbBlockBegin
  2
*D8
 70
     1
 10
0.0
 20
0.0
 30
0.0
  3
*D8
  1

  0
LINE
  5
BC
330
2A
100
AcDbEntity
  8
0
  6
ByBlock
 62
     0
100
AcDbLine
 10
138.0174030713995
 20
57.88499138668505
 30
0.0
 11
138.0174030713995
 21
59.93991850522604
 31
0.0
  0
LINE
  5
BD
330
2A
100
AcDbEntity
  8
0
  6
ByBlock
 62
     0
100
AcDbLine
 10
150.2674030713995
 20
57.88499138668505
 30
0.0
 11
150.2674030713995
 21
59.93991850522604
 31
0.0
  0
LINE
  5
BE
330
2A
100
AcDbEntity
  8
0
  6
ByBlock
 62
     0
100
AcDbLine
 10
139.2774030713995
 20
59.28891850522604
 30
0.0
 11
142.0358405713995
 21
59.28891850522604
 31
0.0
  0
LINE
  5
BF
330
2A
100
AcDbEntity
  8
0
  6
ByBlock
 62
     0
100
AcDbLine
 10
149.0074030713995
 20
59.28891850522604
 30
0.0
 11
146.2489655713995
 21
59.28891850522604
 31
0.0
  0
SOLID
  5
C0
330
2A
100
AcDbEntity
  8
0
  6
ByBlock
 62
     0
100
AcDbTrace
 10
139.2774030713995
 20
59.49891850522604
 30
0.0
 11
139.2774030713995
 21
59.07891850522604
 31
0.0
 12
138.0174030713995
 22
59.28891850522604
 32
0.0
 13
138.0174030713995
 23
59.28891850522604
 33
0.0
  0
SOLID
  5
C1
330
2A
100
AcDbEntity
  8
0
  6
ByBlock
 62
     0
100
AcDbTrace
 10
149.0074030713995
 20
59.49891850522604
 30
0.0
 11
149.0074030713995
 21
59.07891850522604
 31
0.0
 12
150.2674030713995
 22
59.28891850522604
 32
0.0
 13
150.2674030713995
 23
59.28891850522604
 33
0.0
  0
TEXT
  5
C2
330
2A
100
AcDbEntity
  8
0
  6
ByBlock
 62
     0
100
AcDbText
 10
142.6658405713995
 20
58.85141850522604
 30
0.0
 40
0.875
  1
12.250
 41
0.75
  7
TXT
 72
     1
 11
144.1424030713995
 21
59.28891850522604
 31
0.0
100
AcDbText
 73
     2
  0
POINT
  5
C3
330
2A
100
AcDbEntity
  8
DEFPOINTS
  6
ByBlock
 62
     0
100
AcDbPoint
 10
138.0174030713995
 20
57.44399138668505
 30
-4.390664891206661
  0
POINT
  5
C4
330
2A
100
AcDbEntity
  8
DEFPOINTS
  6
ByBlock
 62
     0
100
AcDbPoint
 10
150.2674030713995
 20
57.44399138668505
 30
-4.390664891206661
  0
POINT
  5
C5
330
2A
100
AcDbEntity
  8
DEFPOINTS
  6
ByBlock
 62
     0
100
AcDbPoint
 10
150.2674030713995
 20
59.28891850522604
 30
0.0
  0
ENDBLK
  5
C6
330
2A
100
AcDbEntity
  8
0
100
AcDbBlockEnd
  0
BLOCK
  5
C7
330
2B
100
AcDbEntity
  8
0
100
AcDbBlockBegin
  2
*D9
 70
     1
 10
0.0
 20
0.0
 30
0.0
  3
*D9
  1

  0
LINE
  5
C8
330
2B
100
AcDbEntity
  8
0
  6
ByBlock
 62
     0
100
AcDbLine
 10
150.2674030713995
 20
57.88499138668505
 30
0.0
 11
150.2674030713995
 21
59.93991850522604
 31
0.0
  0
LINE
  5
C9
330
2B
100
AcDbEntity
  8
0
  6
ByBlock
 62
     0
100
AcDbLine
 10
168.2674030713995
 20
57.19749138668502
 30
0.0
 11
168.2674030713995
 21
59.93991850522604
 31
0.0
  0
LINE
  5
CA
330
2B
100
AcDbEntity
  8
0
  6
ByBlock
 62
     0
100
AcDbLine
 10
151.5274030713995
 20
59.28891850522604
 30
0.0
 11
157.2702155713995
 21
59.28891850522604
 31
0.0
  0
LINE
  5
CB
330
2B
100
AcDbEntity
  8
0
  6
ByBlock
 62
     0
100
AcDbLine
 10
167.0074030713995
 20
59.28891850522604
 30
0.0
 11
161.2645905713995
 21
59.28891850522604
 31
0.0
  0
SOLID
  5
CC
330
2B
100
AcDbEntity
  8
0
  6
ByBlock
 62
     0
100
AcDbTrace
 10
151.5274030713995
 20
59.49891850522604
 30
0.0
 11
151.5274030713995
 21
59.07891850522604
 31
0.0
 12
150.2674030713995
 22
59.28891850522604
 32
0.0
 13
150.2674030713995
 23
59.28891850522604
 33
0.0
  0
SOLID
  5
CD
330
2B
100
AcDbEntity
  8
0
  6
ByBlock
 62
     0
100
AcDbTrace
 10
167.0074030713995
 20
59.49891850522604
 30
0.0
 11
167.0074030713995
 21
59.07891850522604
 31
0.0
 12
168.2674030713995
 22
59.28891850522604
 32
0.0
 13
168.2674030713995
 23
59.28891850522604
 33
0.0
  0
TEXT
  5
CE
330
2B
100
AcDbEntity
  8
0
  6
ByBlock
 62
     0
100
AcDbText
 10
157.9002155713995
 20
58.85141850522604
 30
0.0
 40
0.875
  1
18.000
 41
0.75
  7
TXT
 72
     1
 11
159.2674030713995
 21
59.28891850522604
 31
0.0
100
AcDbText
 73
     2
  0
POINT
  5
CF
330
2B
100
AcDbEntity
  8
DEFPOINTS
  6
ByBlock
 62
     0
100
AcDbPoint
 10
150.2674030713995
 20
57.44399138668505
 30
-4.390664891206661
  0
POINT
  5
D0
330
2B
100
AcDbEntity
  8
DEFPOINTS
  6
ByBlock
 62
     0
100
AcDbPoint
 10
168.2674030713995
 20
56.75649138668502
 30
-4.390664891206662
  0
POINT
  5
D1
330
2B
100
AcDbEntity
  8
DEFPOINTS
  6
ByBlock
 62
     0
100
AcDbPoint
 10
168.2674030713995
 20
59.28891850522604
 30
0.0
  0
ENDBLK
  5
D2
330
2B
100
AcDbEntity
  8
0
100
AcDbBlockEnd
  0
BLOCK
  5
D3
330
2C
100
AcDbEntity
  8
0
100
AcDbBlockBegin
  2
*D10
 70
     1
 10
0.0
 20
0.0
 30
0.0
  3
*D10
  1

  0
LINE
  5
D4
330
2C
100
AcDbEntity
  8
0
  6
ByBlock
 62
     0
100
AcDbLine
 10
138.0174030713995
 20
57.88499138668505
 30
0.0
 11
138.0174030713995
 21
61.89993455992347
 31
0.0
  0
LINE
  5
D5
330
2C
100
AcDbEntity
  8
0
  6
ByBlock
 62
     0
100
AcDbLine
 10
168.2674030713995
 20
57.19749138668502
 30
0.0
 11
168.2674030713995
 21
61.89993455992347
 31
0.0
  0
LINE
  5
D6
330
2C
100
AcDbEntity
  8
0
  6
ByBlock
 62
     0
100
AcDbLine
 10
139.2774030713995
 20
61.24893455992346
 30
0.0
 11
150.9811530713995
 21
61.24893455992346
 31
0.0
  0
LINE
  5
D7
330
2C
100
AcDbEntity
  8
0
  6
ByBlock
 62
     0
100
AcDbLine
 10
167.0074030713995
 20
61.24893455992346
 30
0.0
 11
155.3036530713995
 21
61.24893455992346
 31
0.0
  0
SOLID
  5
D8
330
2C
100
AcDbEntity
  8
0
  6
ByBlock
 62
     0
100
AcDbTrace
 10
139.2774030713995
 20
61.45893455992347
 30
0.0
 11
139.2774030713995
 21
61.03893455992346
 31
0.0
 12
138.0174030713995
 22
61.24893455992346
 32
0.0
 13
138.0174030713995
 23
61.24893455992346
 33
0.0
  0
SOLID
  5
D9
330
2C
100
AcDbEntity
  8
0
  6
ByBlock
 62
     0
100
AcDbTrace
 10
167.0074030713995
 20
61.45893455992347
 30
0.0
 11
167.0074030713995
 21
61.03893455992346
 31
0.0
 12
168.2674030713995
 22
61.24893455992346
 32
0.0
 13
168.2674030713995
 23
61.24893455992346
 33
0.0
  0
TEXT
  5
DA
330
2C
100
AcDbEntity
  8
0
  6
ByBlock
 62
     0
100
AcDbText
 10
151.6111530713995
 20
60.81143455992346
 30
0.0
 40
0.875
  1
30.250
 41
0.75
  7
TXT
 72
     1
 11
153.1424030713995
 21
61.24893455992346
 31
0.0
100
AcDbText
 73
     2
  0
POINT
  5
DB
330
2C
100
AcDbEntity
  8
DEFPOINTS
  6
ByBlock
 62
     0
100
AcDbPoint
 10
138.0174030713995
 20
57.44399138668505
 30
-4.390664891206661
  0
POINT
  5
DC
330
2C
100
AcDbEntity
  8
DEFPOINTS
  6
ByBlock
 62
     0
100
AcDbPoint
 10
168.2674030713995
 20
56.75649138668502
 30
-4.390664891206662
  0
POINT
  5
DD
330
2C
100
AcDbEntity
  8
DEFPOINTS
  6
ByBlock
 62
     0
100
AcDbPoint
 10
168.2674030713995
 20
61.24893455992346
 30
0.0
  0
ENDBLK
  5
DE
330
2C
100
AcDbEntity
  8
0
100
AcDbBlockEnd
  0
BLOCK
  5
DF
330
2D
100
AcDbEntity
  8
0
100
AcDbBlockBegin
  2
*D11
 70
     1
 10
0.0
 20
0.0
 30
0.0
  3
*D11
  1

  0
LINE
  5
E0
330
2D
100
AcDbEntity
  8
0
  6
ByBlock
 62
     0
100
AcDbLine
 10
168.7084030713995
 20
7.099074974230315
 30
0.0
 11
171.905530623485
 21
7.099074974230315
 31
0.0
  0
LINE
  5
E1
330
2D
100
AcDbEntity
  8
0
  6
ByBlock
 62
     0
100
AcDbLine
 10
168.7084030713995
 20
7.599074974230315
 30
0.0
 11
171.905530623485
 21
7.599074974230315
 31
0.0
  0
LINE
  5
E2
330
2D
100
AcDbEntity
  8
0
  6
ByBlock
 62
     0
100
AcDbLine
 10
171.254530623485
 20
5.839074974230316
 30
0.0
 11
171.254530623485
 21
4.579074974230316
 31
0.0
  0
LINE
  5
E3
330
2D
100
AcDbEntity
  8
0
  6
ByBlock
 62
     0
100
AcDbLine
 10
171.254530623485
 20
8.859074974230315
 30
0.0
 11
171.254530623485
 21
10.11907497423031
 31
0.0
  0
LINE
  5
E4
330
2D
100
AcDbEntity
  8
0
  6
ByBlock
 62
     0
100
AcDbLine
 10
171.254530623485
 20
10.11907497423031
 30
0.0
 11
172.514530623485
 21
10.11907497423031
 31
0.0
  0
SOLID
  5
E5
330
2D
100
AcDbEntity
  8
0
  6
ByBlock
 62
     0
100
AcDbTrace
 10
171.044530623485
 20
5.839074974230316
 30
0.0
 11
171.464530623485
 21
5.839074974230316
 31
0.0
 12
171.254530623485
 22
7.099074974230315
 32
0.0
 13
171.254530623485
 23
7.099074974230315
 33
0.0
  0
SOLID
  5
E6
330
2D
100
AcDbEntity
  8
0
  6
ByBlock
 62
     0
100
AcDbTrace
 10
171.044530623485
 20
8.859074974230315
 30
0.0
 11
171.464530623485
 21
8.859074974230315
 31
0.0
 12
171.254530623485
 22
7.599074974230315
 32
0.0
 13
171.254530623485
 23
7.599074974230315
 33
0.0
  0
TEXT
  5
E7
330
2D
100
AcDbEntity
  8
0
  6
ByBlock
 62
     0
100
AcDbText
 10
173.144530623485
 20
9.681574974230315
 30
0.0
 40
0.875
  1
0.500
 41
0.75
  7
TXT
 72
     1
 11
174.292968123485
 21
10.11907497423031
 31
0.0
100
AcDbText
 73
     2
  0
POINT
  5
E8
330
2D
100
AcDbEntity
  8
DEFPOINTS
  6
ByBlock
 62
     0
100
AcDbPoint
 10
168.2674030713995
 20
7.099074974230315
 30
-4.390664891206662
  0
POINT
  5
E9
330
2D
100
AcDbEntity
  8
DEFPOINTS
  6
ByBlock
 62
     0
100
AcDbPoint
 10
168.2674030713995
 20
7.599074974230315
 30
-4.390664891206662
  0
POINT
  5
EA
330
2D
100
AcDbEntity
  8
DEFPOINTS
  6
ByBlock
 62
     0
100
AcDbPoint
 10
171.254530623485
 20
7.599074974230315
 30
0.0
  0
ENDBLK
  5
EB
330
2D
100
AcDbEntity
  8
0
100
AcDbBlockEnd
  0
BLOCK
  5
EC
330
2E
100
AcDbEntity
  8
0
100
AcDbBlockBegin
  2
*D12
 70
     1
 10
0.0
 20
0.0
 30
0.0
  3
*D12
  1

  0
LINE
  5
ED
330
2E
100
AcDbEntity
  8
0
  6
ByBlock
 62
     0
100
AcDbLine
 10
157.9032552888843
 20
7.021389352064582
 30
0.0
 11
154.9121481475623
 21
7.021389352064582
 31
0.0
  0
LINE
  5
EE
330
2E
100
AcDbEntity
  8
0
  6
ByBlock
 62
     0
100
AcDbLine
 10
157.9037552888842
 20
6.271389352064611
 30
0.0
 11
154.9121481475623
 21
6.271389352064611
 31
0.0
  0
LINE
  5
EF
330
2E
100
AcDbEntity
  8
0
  6
ByBlock
 62
     0
100
AcDbLine
 10
155.5631481475623
 20
8.281389352064582
 30
0.0
 11
155.5631481475623
 21
9.541389352064582
 31
0.0
  0
LINE
  5
F0
330
2E
100
AcDbEntity
  8
0
  6
ByBlock
 62
     0
100
AcDbLine
 10
155.5631481475623
 20
5.011389352064611
 30
0.0
 11
155.5631481475623
 21
3.751389352064611
 31
0.0
  0
LINE
  5
F1
330
2E
100
AcDbEntity
  8
0
  6
ByBlock
 62
     0
100
AcDbLine
 10
155.5631481475623
 20
3.751389352064611
 30
0.0
 11
154.3031481475623
 21
3.751389352064611
 31
0.0
  0
SOLID
  5
F2
330
2E
100
AcDbEntity
  8
0
  6
ByBlock
 62
     0
100
AcDbTrace
 10
155.3531481475623
 20
8.281389352064582
 30
0.0
 11
155.7731481475623
 21
8.281389352064582
 31
0.0
 12
155.5631481475623
 22
7.021389352064582
 32
0.0
 13
155.5631481475623
 23
7.021389352064582
 33
0.0
  0
SOLID
  5
F3
330
2E
100
AcDbEntity
  8
0
  6
ByBlock
 62
     0
100
AcDbTrace
 10
155.3531481475623
 20
5.011389352064611
 30
0.0
 11
155.7731481475623
 21
5.011389352064611
 31
0.0
 12
155.5631481475623
 22
6.271389352064611
 32
0.0
 13
155.5631481475623
 23
6.271389352064611
 33
0.0
  0
TEXT
  5
F4
330
2E
100
AcDbEntity
  8
0
  6
ByBlock
 62
     0
100
AcDbText
 10
151.2668981475623
 20
3.313889352064611
 30
0.0
 40
0.875
  1
0.750
 41
0.75
  7
TXT
 72
     1
 11
152.4700231475623
 21
3.751389352064611
 31
0.0
100
AcDbText
 73
     2
  0
POINT
  5
F5
330
2E
100
AcDbEntity
  8
DEFPOINTS
  6
ByBlock
 62
     0
100
AcDbPoint
 10
158.3442552888843
 20
7.021389352064582
 30
-4.390664891206663
  0
POINT
  5
F6
330
2E
100
AcDbEntity
  8
DEFPOINTS
  6
ByBlock
 62
     0
100
AcDbPoint
 10
158.3447552888842
 20
6.271389352064611
 30
-4.390664891206663
  0
POINT
  5
F7
330
2E
100
AcDbEntity
  8
DEFPOINTS
  6
ByBlock
 62
     0
100
AcDbPoint
 10
155.5631481475623
 20
6.271389352064611
 30
0.0
  0
ENDBLK
  5
F8
330
2E
100
AcDbEntity
  8
0
100
AcDbBlockEnd
  0
BLOCK
  5
F9
330
2F
100
AcDbEntity
  8
0
100
AcDbBlockBegin
  2
*D13
 70
     1
 10
0.0
 20
0.0
 30
0.0
  3
*D13
  1

  0
LINE
  5
FA
330
2F
100
AcDbEntity
  8
0
  6
ByBlock
 62
     0
100
AcDbLine
 10
157.9032552888843
 20
6.271389352064597
 30
0.0
 11
150.2529968743809
 21
6.271389352064597
 31
0.0
  0
LINE
  5
FB
330
2F
100
AcDbEntity
  8
0
  6
ByBlock
 62
     0
100
AcDbLine
 10
158.4032552888842
 20
7.521389352064597
 30
0.0
 11
150.2529968743809
 21
7.521389352064597
 31
0.0
  0
LINE
  5
FC
330
2F
100
AcDbEntity
  8
0
  6
ByBlock
 62
     0
100
AcDbLine
 10
150.903996874381
 20
5.011389352064597
 30
0.0
 11
150.903996874381
 21
3.751389352064597
 31
0.0
  0
LINE
  5
FD
330
2F
100
AcDbEntity
  8
0
  6
ByBlock
 62
     0
100
AcDbLine
 10
150.903996874381
 20
8.781389352064596
 30
0.0
 11
150.903996874381
 21
10.04138935206459
 31
0.0
  0
SOLID
  5
FE
330
2F
100
AcDbEntity
  8
0
  6
ByBlock
 62
     0
100
AcDbTrace
 10
150.6939968743809
 20
5.011389352064597
 30
0.0
 11
151.113996874381
 21
5.011389352064597
 31
0.0
 12
150.903996874381
 22
6.271389352064597
 32
0.0
 13
150.903996874381
 23
6.271389352064597
 33
0.0
  0
SOLID
  5
FF
330
2F
100
AcDbEntity
  8
0
  6
ByBlock
 62
     0
100
AcDbTrace
 10
150.6939968743809
 20
8.781389352064596
 30
0.0
 11
151.113996874381
 21
8.781389352064596
 31
0.0
 12
150.903996874381
 22
7.521389352064597
 32
0.0
 13
150.903996874381
 23
7.521389352064597
 33
0.0
  0
TEXT
  5
100
330
2F
100
AcDbEntity
  8
0
  6
ByBlock
 62
     0
100
AcDbText
 10
149.7555593743809
 20
6.458889352064597
 30
0.0
 40
0.875
  1
1.250
 41
0.75
  7
TXT
 72
     1
 11
150.903996874381
 21
6.896389352064597
 31
0.0
100
AcDbText
 73
     2
  0
POINT
  5
101
330
2F
100
AcDbEntity
  8
DEFPOINTS
  6
ByBlock
 62
     0
100
AcDbPoint
 10
158.3442552888843
 20
6.271389352064597
 30
-4.390664891206663
  0
POINT
  5
102
330
2F
100
AcDbEntity
  8
DEFPOINTS
  6
ByBlock
 62
     0
100
AcDbPoint
 10
158.8442552888843
 20
7.521389352064597
 30
-4.390664891206663
  0
POINT
  5
103
330
2F
100
AcDbEntity
  8
DEFPOINTS
  6
ByBlock
 62
     0
100
AcDbPoint
 10
150.903996874381
 20
7.521389352064597
 30
0.0
  0
ENDBLK
  5
104
330
2F
100
AcDbEntity
  8
0
100
AcDbBlockEnd
  0
BLOCK
  5
105
330
30
100
AcDbEntity
  8
0
100
AcDbBlockBegin
  2
*D14
 70
     1
 10
0.0
 20
0.0
 30
0.0
  3
*D14
  1

  0
LINE
  5
106
330
30
100
AcDbEntity
  8
0
  6
ByBlock
 62
     0
100
AcDbLine
 10
157.9037552888842
 20
6.271389352064611
 30
0.0
 11
146.8557635398379
 21
6.271389352064611
 31
0.0
  0
LINE
  5
107
330
30
100
AcDbEntity
  8
0
  6
ByBlock
 62
     0
100
AcDbLine
 10
169.1532552888843
 20
9.271389352064597
 30
0.0
 11
146.8557635398379
 21
9.271389352064597
 31
0.0
  0
LINE
  5
108
330
30
100
AcDbEntity
  8
0
  6
ByBlock
 62
     0
100
AcDbLine
 10
147.5067635398379
 20
5.011389352064611
 30
0.0
 11
147.5067635398379
 21
3.751389352064611
 31
0.0
  0
LINE
  5
109
330
30
100
AcDbEntity
  8
0
  6
ByBlock
 62
     0
100
AcDbLine
 10
147.5067635398379
 20
10.53138935206459
 30
0.0
 11
147.5067635398379
 21
11.79138935206459
 31
0.0
  0
SOLID
  5
10A
330
30
100
AcDbEntity
  8
0
  6
ByBlock
 62
     0
100
AcDbTrace
 10
147.2967635398379
 20
5.011389352064611
 30
0.0
 11
147.7167635398379
 21
5.011389352064611
 31
0.0
 12
147.5067635398379
 22
6.271389352064611
 32
0.0
 13
147.5067635398379
 23
6.271389352064611
 33
0.0
  0
SOLID
  5
10B
330
30
100
AcDbEntity
  8
0
  6
ByBlock
 62
     0
100
AcDbTrace
 10
147.2967635398379
 20
10.53138935206459
 30
0.0
 11
147.7167635398379
 21
10.53138935206459
 31
0.0
 12
147.5067635398379
 22
9.271389352064597
 32
0.0
 13
147.5067635398379
 23
9.271389352064597
 33
0.0
  0
TEXT
  5
10C
330
30
100
AcDbEntity
  8
0
  6
ByBlock
 62
     0
100
AcDbText
 10
146.3583260398379
 20
7.333889352064604
 30
0.0
 40
0.875
  1
3.000
 41
0.75
  7
TXT
 72
     1
 11
147.5067635398379
 21
7.771389352064604
 31
0.0
100
AcDbText
 73
     2
  0
POINT
  5
10D
330
30
100
AcDbEntity
  8
DEFPOINTS
  6
ByBlock
 62
     0
100
AcDbPoint
 10
158.3447552888842
 20
6.271389352064611
 30
-4.390664891206664
  0
POINT
  5
10E
330
30
100
AcDbEntity
  8
DEFPOINTS
  6
ByBlock
 62
     0
100
AcDbPoint
 10
169.5942552888843
 20
9.271389352064597
 30
-4.390664891206663
  0
POINT
  5
10F
330
30
100
AcDbEntity
  8
DEFPOINTS
  6
ByBlock
 62
     0
100
AcDbPoint
 10
147.5067635398379
 20
9.271389352064597
 30
-0.0000000000000009
  0
ENDBLK
  5
110
330
30
100
AcDbEntity
  8
0
100
AcDbBlockEnd
  0
BLOCK
  5
111
330
31
100
AcDbEntity
  8
0
100
AcDbBlockBegin
  2
*D15
 70
     1
 10
0.0
 20
0.0
 30
0.0
  3
*D15
  1

  0
LINE
  5
112
330
31
100
AcDbEntity
  8
0
  6
ByBlock
 62
     0
100
AcDbLine
 10
160.3442552888843
 20
7.962389352064596
 30
0.0
 11
160.3442552888843
 21
13.03042335235766
 31
0.0
  0
LINE
  5
113
330
31
100
AcDbEntity
  8
0
  6
ByBlock
 62
     0
100
AcDbLine
 10
158.3442552888843
 20
7.462389352064582
 30
0.0
 11
158.3442552888843
 21
13.03042335235766
 31
0.0
  0
LINE
  5
114
330
31
100
AcDbEntity
  8
0
  6
ByBlock
 62
     0
100
AcDbLine
 10
161.6042552888843
 20
12.37942335235767
 30
0.0
 11
162.8642552888843
 21
12.37942335235767
 31
0.0
  0
LINE
  5
115
330
31
100
AcDbEntity
  8
0
  6
ByBlock
 62
     0
100
AcDbLine
 10
157.0842552888843
 20
12.37942335235767
 30
0.0
 11
155.8242552888843
 21
12.37942335235767
 31
0.0
  0
SOLID
  5
116
330
31
100
AcDbEntity
  8
0
  6
ByBlock
 62
     0
100
AcDbTrace
 10
161.6042552888843
 20
12.58942335235767
 30
0.0
 11
161.6042552888843
 21
12.16942335235766
 31
0.0
 12
160.3442552888843
 22
12.37942335235767
 32
0.0
 13
160.3442552888843
 23
12.37942335235767
 33
0.0
  0
SOLID
  5
117
330
31
100
AcDbEntity
  8
0
  6
ByBlock
 62
     0
100
AcDbTrace
 10
157.0842552888843
 20
12.58942335235767
 30
0.0
 11
157.0842552888843
 21
12.16942335235766
 31
0.0
 12
158.3442552888843
 22
12.37942335235767
 32
0.0
 13
158.3442552888843
 23
12.37942335235767
 33
0.0
  0
TEXT
  5
118
330
31
100
AcDbEntity
  8
0
  6
ByBlock
 62
     0
100
AcDbText
 10
152.8973802888843
 20
11.94192335235767
 30
0.0
 40
0.875
  1
2.000
 41
0.75
  7
TXT
 72
     1
 11
154.0458177888843
 21
12.37942335235767
 31
0.0
100
AcDbText
 73
     2
  0
POINT
  5
119
330
31
100
AcDbEntity
  8
DEFPOINTS
  6
ByBlock
 62
     0
100
AcDbPoint
 10
160.3442552888843
 20
7.521389352064597
 30
-4.390664891206663
  0
POINT
  5
11A
330
31
100
AcDbEntity
  8
DEFPOINTS
  6
ByBlock
 62
     0
100
AcDbPoint
 10
158.3442552888843
 20
7.021389352064582
 30
-4.390664891206663
  0
POINT
  5
11B
330
31
100
AcDbEntity
  8
DEFPOINTS
  6
ByBlock
 62
     0
100
AcDbPoint
 10
158.3442552888843
 20
12.37942335235767
 30
0.0
  0
ENDBLK
  5
11C
330
31
100
AcDbEntity
  8
0
100
AcDbBlockEnd
  0
BLOCK
  5
11D
330
32
100
AcDbEntity
  8
0
100
AcDbBlockBegin
  2
*D16
 70
     1
 10
0.0
 20
0.0
 30
0.0
  3
*D16
  1

  0
LINE
  5
11E
330
32
100
AcDbEntity
  8
0
  6
ByBlock
 62
     0
100
AcDbLine
 10
128.6175723388661
 20
6.896389352064582
 30
0.0
 11
131.9800839945171
 21
6.896389352064582
 31
0.0
  0
LINE
  5
11F
330
32
100
AcDbEntity
  8
0
  6
ByBlock
 62
     0
100
AcDbLine
 10
128.6175723388661
 20
6.271389352064582
 30
0.0
 11
131.9800839945171
 21
6.271389352064582
 31
0.0
  0
LINE
  5
120
330
32
100
AcDbEntity
  8
0
  6
ByBlock
 62
     0
100
AcDbLine
 10
131.3290839945171
 20
8.156389352064582
 30
0.0
 11
131.3290839945171
 21
9.416389352064582
 31
0.0
  0
LINE
  5
121
330
32
100
AcDbEntity
  8
0
  6
ByBlock
 62
     0
100
AcDbLine
 10
131.3290839945171
 20
5.011389352064583
 30
0.0
 11
131.3290839945171
 21
3.751389352064582
 31
0.0
  0
LINE
  5
122
330
32
100
AcDbEntity
  8
0
  6
ByBlock
 62
     0
100
AcDbLine
 10
131.3290839945171
 20
3.751389352064582
 30
0.0
 11
130.0690839945171
 21
3.751389352064582
 31
0.0
  0
SOLID
  5
123
330
32
100
AcDbEntity
  8
0
  6
ByBlock
 62
     0
100
AcDbTrace
 10
131.1190839945171
 20
8.156389352064582
 30
0.0
 11
131.5390839945171
 21
8.156389352064582
 31
0.0
 12
131.3290839945171
 22
6.896389352064582
 32
0.0
 13
131.3290839945171
 23
6.896389352064582
 33
0.0
  0
SOLID
  5
124
330
32
100
AcDbEntity
  8
0
  6
ByBlock
 62
     0
100
AcDbTrace
 10
131.1190839945171
 20
5.011389352064583
 30
0.0
 11
131.5390839945171
 21
5.011389352064583
 31
0.0
 12
131.3290839945171
 22
6.271389352064582
 32
0.0
 13
131.3290839945171
 23
6.271389352064582
 33
0.0
  0
TEXT
  5
125
330
32
100
AcDbEntity
  8
0
  6
ByBlock
 62
     0
100
AcDbText
 10
126.9234589945171
 20
3.313889352064582
 30
0.0
 40
0.875
  1
0.625
 41
0.75
  7
TXT
 72
     1
 11
128.1812714945171
 21
3.751389352064582
 31
0.0
100
AcDbText
 73
     2
  0
POINT
  5
126
330
32
100
AcDbEntity
  8
DEFPOINTS
  6
ByBlock
 62
     0
100
AcDbPoint
 10
128.1765723388661
 20
6.896389352064582
 30
-4.390664891206661
  0
POINT
  5
127
330
32
100
AcDbEntity
  8
DEFPOINTS
  6
ByBlock
 62
     0
100
AcDbPoint
 10
128.1765723388661
 20
6.271389352064582
 30
-4.390664891206661
  0
POINT
  5
128
330
32
100
AcDbEntity
  8
DEFPOINTS
  6
ByBlock
 62
     0
100
AcDbPoint
 10
131.3290839945171
 20
6.271389352064582
 30
0.0
  0
ENDBLK
  5
129
330
32
100
AcDbEntity
  8
0
100
AcDbBlockEnd
  0
BLOCK
  5
12A
330
33
100
AcDbEntity
  8
0
100
AcDbBlockBegin
  2
*D17
 70
     1
 10
0.0
 20
0.0
 30
0.0
  3
*D17
  1

  0
LINE
  5
12B
330
33
100
AcDbEntity
  8
0
  6
ByBlock
 62
     0
100
AcDbLine
 10
112.8795503700322
 20
6.271389352064582
 30
0.0
 11
109.6575469325287
 21
6.271389352064582
 31
0.0
  0
LINE
  5
12C
330
33
100
AcDbEntity
  8
0
  6
ByBlock
 62
     0
100
AcDbLine
 10
112.8795503700323
 20
21.98938935206458
 30
0.0
 11
109.6575469325287
 21
21.98938935206458
 31
0.0
  0
LINE
  5
12D
330
33
100
AcDbEntity
  8
0
  6
ByBlock
 62
     0
100
AcDbLine
 10
110.3085469325286
 20
7.531389352064582
 30
0.0
 11
110.3085469325286
 21
13.06288935206458
 31
0.0
  0
LINE
  5
12E
330
33
100
AcDbEntity
  8
0
  6
ByBlock
 62
     0
100
AcDbLine
 10
110.3085469325286
 20
20.72938935206458
 30
0.0
 11
110.3085469325286
 21
15.19788935206458
 31
0.0
  0
SOLID
  5
12F
330
33
100
AcDbEntity
  8
0
  6
ByBlock
 62
     0
100
AcDbTrace
 10
110.0985469325287
 20
7.531389352064582
 30
0.0
 11
110.5185469325286
 21
7.531389352064582
 31
0.0
 12
110.3085469325286
 22
6.271389352064582
 32
0.0
 13
110.3085469325286
 23
6.271389352064582
 33
0.0
  0
SOLID
  5
130
330
33
100
AcDbEntity
  8
0
  6
ByBlock
 62
     0
100
AcDbTrace
 10
110.0985469325287
 20
20.72938935206458
 30
0.0
 11
110.5185469325286
 21
20.72938935206458
 31
0.0
 12
110.3085469325286
 22
21.98938935206458
 32
0.0
 13
110.3085469325286
 23
21.98938935206458
 33
0.0
  0
TEXT
  5
131
330
33
100
AcDbEntity
  8
0
  6
ByBlock
 62
     0
100
AcDbText
 10
108.8866719325286
 20
13.69288935206458
 30
0.0
 40
0.875
  1
15.718
 41
0.75
  7
TXT
 72
     1
 11
110.3085469325286
 21
14.13038935206458
 31
0.0
100
AcDbText
 73
     2
  0
POINT
  5
132
330
33
100
AcDbEntity
  8
DEFPOINTS
  6
ByBlock
 62
     0
100
AcDbPoint
 10
113.3205503700323
 20
6.271389352064582
 30
-4.390664891206661
  0
POINT
  5
133
330
33
100
AcDbEntity
  8
DEFPOINTS
  6
ByBlock
 62
     0
100
AcDbPoint
 10
113.3205503700323
 20
21.98938935206458
 30
-4.390664891206663
  0
POINT
  5
134
330
33
100
AcDbEntity
  8
DEFPOINTS
  6
ByBlock
 62
     0
100
AcDbPoint
 10
110.3085469325286
 20
21.98938935206458
 30
0.0
  0
ENDBLK
  5
135
330
33
100
AcDbEntity
  8
0
100
AcDbBlockEnd
  0
BLOCK
  5
136
330
34
100
AcDbEntity
  8
0
100
AcDbBlockBegin
  2
*D18
 70
     1
 10
0.0
 20
0.0
 30
0.0
  3
*D18
  1

  0
LINE
  5
137
330
34
100
AcDbEntity
  8
0
  6
ByBlock
 62
     0
100
AcDbLine
 10
113.6485503700322
 20
21.30638935206458
 30
0.0
 11
113.6485503700322
 21
24.98609474144326
 31
0.0
  0
LINE
  5
138
330
34
100
AcDbEntity
  8
0
  6
ByBlock
 62
     0
100
AcDbLine
 10
131.9925503700323
 20
21.30638935206458
 30
0.0
 11
131.9925503700323
 21
24.98609474144326
 31
0.0
  0
LINE
  5
139
330
34
100
AcDbEntity
  8
0
  6
ByBlock
 62
     0
100
AcDbLine
 10
114.9085503700323
 20
24.33509474144326
 30
0.0
 11
120.6593003700323
 21
24.33509474144326
 31
0.0
  0
LINE
  5
13A
330
34
100
AcDbEntity
  8
0
  6
ByBlock
 62
     0
100
AcDbLine
 10
130.7325503700323
 20
24.33509474144326
 30
0.0
 11
124.9818003700323
 21
24.33509474144326
 31
0.0
  0
SOLID
  5
13B
330
34
100
AcDbEntity
  8
0
  6
ByBlock
 62
     0
100
AcDbTrace
 10
114.9085503700323
 20
24.54509474144327
 30
0.0
 11
114.9085503700323
 21
24.12509474144326
 31
0.0
 12
113.6485503700322
 22
24.33509474144326
 32
0.0
 13
113.6485503700322
 23
24.33509474144326
 33
0.0
  0
SOLID
  5
13C
330
34
100
AcDbEntity
  8
0
  6
ByBlock
 62
     0
100
AcDbTrace
 10
130.7325503700323
 20
24.54509474144327
 30
0.0
 11
130.7325503700323
 21
24.12509474144326
 31
0.0
 12
131.9925503700323
 22
24.33509474144326
 32
0.0
 13
131.9925503700323
 23
24.33509474144326
 33
0.0
  0
TEXT
  5
13D
330
34
100
AcDbEntity
  8
0
  6
ByBlock
 62
     0
100
AcDbText
 10
121.2893003700323
 20
23.89759474144326
 30
0.0
 40
0.875
  1
18.344
 41
0.75
  7
TXT
 72
     1
 11
122.8205503700322
 21
24.33509474144326
 31
0.0
100
AcDbText
 73
     2
  0
POINT
  5
13E
330
34
100
AcDbEntity
  8
DEFPOINTS
  6
ByBlock
 62
     0
100
AcDbPoint
 10
113.6485503700322
 20
20.86538935206458
 30
-4.390664891206661
  0
POINT
  5
13F
330
34
100
AcDbEntity
  8
DEFPOINTS
  6
ByBlock
 62
     0
100
AcDbPoint
 10
131.9925503700323
 20
20.86538935206458
 30
-4.390664891206661
  0
POINT
  5
140
330
34
100
AcDbEntity
  8
DEFPOINTS
  6
ByBlock
 62
     0
100
AcDbPoint
 10
131.9925503700323
 20
24.33509474144326
 30
0.0
  0
ENDBLK
  5
141
330
34
100
AcDbEntity
  8
0
100
AcDbBlockEnd
  0
BLOCK
  5
142
330
35
100
AcDbEntity
  8
0
100
AcDbBlockBegin
  2
*D19
 70
     1
 10
0.0
 20
0.0
 30
0.0
  3
*D19
  1

  0
LINE
  5
143
330
35
100
AcDbEntity
  8
0
  6
ByBlock
 62
     0
100
AcDbLine
 10
113.3205503700323
 20
22.43038935206458
 30
0.0
 11
113.3205503700323
 21
27.31806386071063
 31
0.0
  0
LINE
  5
144
330
35
100
AcDbEntity
  8
0
  6
ByBlock
 62
     0
100
AcDbLine
 10
132.3205503700322
 20
22.43038935206458
 30
0.0
 11
132.3205503700322
 21
27.31806386071063
 31
0.0
  0
LINE
  5
145
330
35
100
AcDbEntity
  8
0
  6
ByBlock
 62
     0
100
AcDbLine
 10
114.5805503700322
 20
26.66706386071063
 30
0.0
 11
120.8233628700323
 21
26.66706386071063
 31
0.0
  0
LINE
  5
146
330
35
100
AcDbEntity
  8
0
  6
ByBlock
 62
     0
100
AcDbLine
 10
131.0605503700323
 20
26.66706386071063
 30
0.0
 11
124.8177378700322
 21
26.66706386071063
 31
0.0
  0
SOLID
  5
147
330
35
100
AcDbEntity
  8
0
  6
ByBlock
 62
     0
100
AcDbTrace
 10
114.5805503700322
 20
26.87706386071063
 30
0.0
 11
114.5805503700322
 21
26.45706386071063
 31
0.0
 12
113.3205503700323
 22
26.66706386071063
 32
0.0
 13
113.3205503700323
 23
26.66706386071063
 33
0.0
  0
SOLID
  5
148
330
35
100
AcDbEntity
  8
0
  6
ByBlock
 62
     0
100
AcDbTrace
 10
131.0605503700323
 20
26.87706386071063
 30
0.0
 11
131.0605503700323
 21
26.45706386071063
 31
0.0
 12
132.3205503700322
 22
26.66706386071063
 32
0.0
 13
132.3205503700322
 23
26.66706386071063
 33
0.0
  0
TEXT
  5
149
330
35
100
AcDbEntity
  8
0
  6
ByBlock
 62
     0
100
AcDbText
 10
121.4533628700322
 20
26.22956386071063
 30
0.0
 40
0.875
  1
19.000
 41
0.75
  7
TXT
 72
     1
 11
122.8205503700322
 21
26.66706386071063
 31
0.0
100
AcDbText
 73
     2
  0
POINT
  5
14A
330
35
100
AcDbEntity
  8
DEFPOINTS
  6
ByBlock
 62
     0
100
AcDbPoint
 10
113.3205503700323
 20
21.98938935206458
 30
-4.390664891206661
  0
POINT
  5
14B
330
35
100
AcDbEntity
  8
DEFPOINTS
  6
ByBlock
 62
     0
100
AcDbPoint
 10
132.3205503700322
 20
21.98938935206458
 30
-4.390664891206663
  0
POINT
  5
14C
330
35
100
AcDbEntity
  8
DEFPOINTS
  6
ByBlock
 62
     0
100
AcDbPoint
 10
132.3205503700322
 20
26.66706386071063
 30
0.0
  0
ENDBLK
  5
14D
330
35
100
AcDbEntity
  8
0
100
AcDbBlockEnd
  0
BLOCK
  5
14E
330
36
100
AcDbEntity
  8
0
100
AcDbBlockBegin
  2
*D20
 70
     1
 10
0.0
 20
0.0
 30
0.0
  3
*D20
  1

  0
LINE
  5
14F
330
36
100
AcDbEntity
  8
0
  6
ByBlock
 62
     0
100
AcDbLine
 10
132.7935503700323
 20
16.50538935206459
 30
0.0
 11
136.2223182718425
 21
16.50538935206459
 31
0.0
  0
LINE
  5
150
330
36
100
AcDbEntity
  8
0
  6
ByBlock
 62
     0
100
AcDbLine
 10
132.7935503700323
 20
11.75538935206459
 30
0.0
 11
136.2223182718425
 21
11.75538935206459
 31
0.0
  0
LINE
  5
151
330
36
100
AcDbEntity
  8
0
  6
ByBlock
 62
     0
100
AcDbLine
 10
135.5713182718425
 20
17.76538935206459
 30
0.0
 11
135.5713182718425
 21
19.02538935206458
 31
0.0
  0
LINE
  5
152
330
36
100
AcDbEntity
  8
0
  6
ByBlock
 62
     0
100
AcDbLine
 10
135.5713182718425
 20
10.49538935206459
 30
0.0
 11
135.5713182718425
 21
9.235389352064592
 31
0.0
  0
SOLID
  5
153
330
36
100
AcDbEntity
  8
0
  6
ByBlock
 62
     0
100
AcDbTrace
 10
135.3613182718425
 20
17.76538935206459
 30
0.0
 11
135.7813182718425
 21
17.76538935206459
 31
0.0
 12
135.5713182718425
 22
16.50538935206459
 32
0.0
 13
135.5713182718425
 23
16.50538935206459
 33
0.0
  0
SOLID
  5
154
330
36
100
AcDbEntity
  8
0
  6
ByBlock
 62
     0
100
AcDbTrace
 10
135.3613182718425
 20
10.49538935206459
 30
0.0
 11
135.7813182718425
 21
10.49538935206459
 31
0.0
 12
135.5713182718425
 22
11.75538935206459
 32
0.0
 13
135.5713182718425
 23
11.75538935206459
 33
0.0
  0
TEXT
  5
155
330
36
100
AcDbEntity
  8
0
  6
ByBlock
 62
     0
100
AcDbText
 10
134.3135057718425
 20
13.69288935206459
 30
0.0
 40
0.875
  1
4.750
 41
0.75
  7
TXT
 72
     1
 11
135.5713182718425
 21
14.13038935206459
 31
0.0
100
AcDbText
 73
     2
  0
POINT
  5
156
330
36
100
AcDbEntity
  8
DEFPOINTS
  6
ByBlock
 62
     0
100
AcDbPoint
 10
132.3525503700323
 20
16.50538935206459
 30
-4.390664891206661
  0
POINT
  5
157
330
36
100
AcDbEntity
  8
DEFPOINTS
  6
ByBlock
 62
     0
100
AcDbPoint
 10
132.3525503700323
 20
11.75538935206459
 30
-4.390664891206661
  0
POINT
  5
158
330
36
100
AcDbEntity
  8
DEFPOINTS
  6
ByBlock
 62
     0
100
AcDbPoint
 10
135.5713182718425
 20
11.75538935206459
 30
0.0
  0
ENDBLK
  5
159
330
36
100
AcDbEntity
  8
0
100
AcDbBlockEnd
  0
BLOCK
  5
15A
330
37
100
AcDbEntity
  8
0
100
AcDbBlockBegin
  2
*D21
 70
     1
 10
0.0
 20
0.0
 30
0.0
  3
*D21
  1

  0
LINE
  5
15B
330
37
100
AcDbEntity
  8
0
  6
ByBlock
 62
     0
100
AcDbLine
 10
132.7935503700323
 20
16.50538935206459
 30
0.0
 11
139.7682141217562
 21
16.50538935206459
 31
0.0
  0
LINE
  5
15C
330
37
100
AcDbEntity
  8
0
  6
ByBlock
 62
     0
100
AcDbLine
 10
132.7935503700323
 20
20.50538935206458
 30
0.0
 11
139.7682141217562
 21
20.50538935206458
 31
0.0
  0
LINE
  5
15D
330
37
100
AcDbEntity
  8
0
  6
ByBlock
 62
     0
100
AcDbLine
 10
139.1172141217562
 20
15.24538935206459
 30
0.0
 11
139.1172141217562
 21
13.98538935206459
 31
0.0
  0
LINE
  5
15E
330
37
100
AcDbEntity
  8
0
  6
ByBlock
 62
     0
100
AcDbLine
 10
139.1172141217562
 20
21.76538935206459
 30
0.0
 11
139.1172141217562
 21
23.02538935206459
 31
0.0
  0
SOLID
  5
15F
330
37
100
AcDbEntity
  8
0
  6
ByBlock
 62
     0
100
AcDbTrace
 10
138.9072141217562
 20
15.24538935206459
 30
0.0
 11
139.3272141217562
 21
15.24538935206459
 31
0.0
 12
139.1172141217562
 22
16.50538935206459
 32
0.0
 13
139.1172141217562
 23
16.50538935206459
 33
0.0
  0
SOLID
  5
160
330
37
100
AcDbEntity
  8
0
  6
ByBlock
 62
     0
100
AcDbTrace
 10
138.9072141217562
 20
21.76538935206459
 30
0.0
 11
139.3272141217562
 21
21.76538935206459
 31
0.0
 12
139.1172141217562
 22
20.50538935206458
 32
0.0
 13
139.1172141217562
 23
20.50538935206458
 33
0.0
  0
TEXT
  5
161
330
37
100
AcDbEntity
  8
0
  6
ByBlock
 62
     0
100
AcDbText
 10
137.9687766217562
 20
18.06788935206459
 30
0.0
 40
0.875
  1
4.000
 41
0.75
  7
TXT
 72
     1
 11
139.1172141217562
 21
18.50538935206459
 31
0.0
100
AcDbText
 73
     2
  0
POINT
  5
162
330
37
100
AcDbEntity
  8
DEFPOINTS
  6
ByBlock
 62
     0
100
AcDbPoint
 10
132.3525503700323
 20
16.50538935206459
 30
-4.390664891206661
  0
POINT
  5
163
330
37
100
AcDbEntity
  8
DEFPOINTS
  6
ByBlock
 62
     0
100
AcDbPoint
 10
132.3525503700323
 20
20.50538935206458
 30
-4.390664891206661
  0
POINT
  5
164
330
37
100
AcDbEntity
  8
DEFPOINTS
  6
ByBlock
 62
     0
100
AcDbPoint
 10
139.1172141217562
 20
20.50538935206458
 30
0.0
  0
ENDBLK
  5
165
330
37
100
AcDbEntity
  8
0
100
AcDbBlockEnd
  0
BLOCK
  5
166
330
38
100
AcDbEntity
  8
0
100
AcDbBlockBegin
  2
*D22
 70
     1
 10
0.0
 20
0.0
 30
0.0
  3
*D22
  1

  0
LINE
  5
167
330
38
100
AcDbEntity
  8
0
  6
ByBlock
 62
     0
100
AcDbLine
 10
132.7935503700323
 20
20.50538935206458
 30
0.0
 11
144.1240620256832
 21
20.50538935206458
 31
0.0
  0
LINE
  5
168
330
38
100
AcDbEntity
  8
0
  6
ByBlock
 62
     0
100
AcDbLine
 10
132.7615503700322
 20
21.98938935206458
 30
0.0
 11
144.1240620256832
 21
21.98938935206458
 31
0.0
  0
LINE
  5
169
330
38
100
AcDbEntity
  8
0
  6
ByBlock
 62
     0
100
AcDbLine
 10
143.4730620256832
 20
19.24538935206459
 30
0.0
 11
143.4730620256832
 21
17.98538935206459
 31
0.0
  0
LINE
  5
16A
330
38
100
AcDbEntity
  8
0
  6
ByBlock
 62
     0
100
AcDbLine
 10
143.4730620256832
 20
23.24938935206458
 30
0.0
 11
143.4730620256832
 21
24.50938935206458
 31
0.0
  0
SOLID
  5
16B
330
38
100
AcDbEntity
  8
0
  6
ByBlock
 62
     0
100
AcDbTrace
 10
143.2630620256832
 20
19.24538935206459
 30
0.0
 11
143.6830620256832
 21
19.24538935206459
 31
0.0
 12
143.4730620256832
 22
20.50538935206458
 32
0.0
 13
143.4730620256832
 23
20.50538935206458
 33
0.0
  0
SOLID
  5
16C
330
38
100
AcDbEntity
  8
0
  6
ByBlock
 62
     0
100
AcDbTrace
 10
143.2630620256832
 20
23.24938935206458
 30
0.0
 11
143.6830620256832
 21
23.24938935206458
 31
0.0
 12
143.4730620256832
 22
21.98938935206458
 32
0.0
 13
143.4730620256832
 23
21.98938935206458
 33
0.0
  0
TEXT
  5
16D
330
38
100
AcDbEntity
  8
0
  6
ByBlock
 62
     0
100
AcDbText
 10
142.2699370256832
 20
20.80988935206459
 30
0.0
 40
0.875
  1
1.484
 41
0.75
  7
TXT
 72
     1
 11
143.4730620256832
 21
21.24738935206458
 31
0.0
100
AcDbText
 73
     2
  0
POINT
  5
16E
330
38
100
AcDbEntity
  8
DEFPOINTS
  6
ByBlock
 62
     0
100
AcDbPoint
 10
132.3525503700323
 20
20.50538935206458
 30
-4.390664891206661
  0
POINT
  5
16F
330
38
100
AcDbEntity
  8
DEFPOINTS
  6
ByBlock
 62
     0
100
AcDbPoint
 10
132.3205503700322
 20
21.98938935206458
 30
-4.390664891206663
  0
POINT
  5
170
330
38
100
AcDbEntity
  8
DEFPOINTS
  6
ByBlock
 62
     0
100
AcDbPoint
 10
143.4730620256832
 20
21.98938935206458
 30
0.0
  0
ENDBLK
  5
171
330
38
100
AcDbEntity
  8
0
100
AcDbBlockEnd
  0
ENDSEC
  0
SECTION
  2
ENTITIES
  0
LINE
  5
172
330
1E
100
AcDbEntity
  8
MON
100
AcDbLine
 10
74.40805805624151
 20
61.29771472642851
 30
-4.390664891206665
 11
74.40805805624151
 21
60.61021472642852
 31
-4.390664891206665
  0
LINE
  5
173
330
1E
100
AcDbEntity
  8
MON
100
AcDbLine
 10
74.34505805624147
 20
42.29771472642851
 30
-4.390664891206665
 11
74.34505805624147
 21
43.04771472642851
 31
-4.390664891206665
  0
LINE
  5
174
330
1E
100
AcDbEntity
  8
MON
100
AcDbLine
 10
74.40805805624151
 20
42.29771472642851
 30
-4.390664891206664
 11
74.34505805624147
 21
42.29771472642851
 31
-4.390664891206664
  0
LINE
  5
175
330
1E
100
AcDbEntity
  8
MON
100
AcDbLine
 10
77.12705805624151
 20
42.98521472642852
 30
-4.390664891206664
 11
77.12705805624151
 21
43.0482147264285
 31
-4.390664891206664
  0
LINE
  5
176
330
1E
100
AcDbEntity
  8
MON
100
AcDbLine
 10
77.12705805624151
 20
60.54721472642849
 30
-4.390664891206664
 11
77.12705805624151
 21
60.61021472642852
 31
-4.390664891206664
  0
LINE
  5
177
330
1E
100
AcDbEntity
  8
MON
100
AcDbLine
 10
74.34505805624147
 20
61.29771472642851
 30
-4.390664891206664
 11
74.40805805624146
 21
61.29771472642851
 31
-4.390664891206664
  0
LINE
  5
178
330
1E
100
AcDbEntity
  8
MON
100
AcDbLine
 10
92.34505805624147
 20
42.98521472642852
 30
-4.390664891206665
 11
74.40805805624151
 21
42.98521472642852
 31
-4.390664891206665
  0
LINE
  5
179
330
1E
100
AcDbEntity
  8
MON
100
AcDbLine
 10
92.34505805624147
 20
60.61021472642852
 30
-4.390664891206665
 11
92.34505805624147
 21
42.98521472642852
 31
-4.390664891206665
  0
LINE
  5
17A
330
1E
100
AcDbEntity
  8
MON
100
AcDbLine
 10
74.40805805624151
 20
60.61021472642852
 30
-4.390664891206665
 11
92.34505805624147
 21
60.61021472642852
 31
-4.390664891206665
  0
LINE
  5
17B
330
1E
100
AcDbEntity
  8
KEY
100
AcDbLine
 10
64.09505805624147
 20
42.37571472642849
 30
-4.390664891206664
 11
64.09505805624147
 21
61.21971472642848
 31
-4.390664891206664
  0
LINE
  5
17C
330
1E
100
AcDbEntity
  8
KEY
100
AcDbLine
 10
62.0950580562415
 20
61.29771472642851
 30
-4.390664891206664
 11
74.34505805624147
 21
61.29771472642851
 31
-4.390664891206664
  0
LINE
  5
17D
330
1E
100
AcDbEntity
  8
KEY
100
AcDbLine
 10
62.09505805624147
 20
42.37571472642849
 30
-4.390664891206664
 11
62.0950580562415
 21
61.21971472642848
 31
-4.390664891206664
  0
LINE
  5
17E
330
1E
100
AcDbEntity
  8
KEY
100
AcDbLine
 10
74.34505805624147
 20
42.29771472642851
 30
-4.390664891206664
 11
62.09505805624147
 21
42.29771472642851
 31
-4.390664891206664
  0
LINE
  5
17F
330
1E
100
AcDbEntity
  8
KEY
100
AcDbLine
 10
74.34505805624147
 20
61.29771472642851
 30
-4.390664891206664
 11
74.34505805624147
 21
59.79771472642852
 31
-4.390664891206664
  0
LINE
  5
180
330
1E
100
AcDbEntity
  8
MON
100
AcDbLine
 10
74.40805805624151
 20
42.8367147264285
 30
-4.390664891206665
 11
74.34525971223493
 21
42.8367147264285
 31
-4.390664891206665
  0
LINE
  5
181
330
1E
100
AcDbEntity
  8
MON
100
AcDbLine
 10
74.34525971223493
 20
42.43071472642849
 30
-4.390664891206665
 11
74.40805805624151
 21
42.43071472642849
 31
-4.390664891206665
  0
LINE
  5
182
330
1E
100
AcDbEntity
  8
MON
100
AcDbLine
 10
74.34525971223493
 20
61.1647147264285
 30
-4.390664891206665
 11
74.34505805624147
 21
61.1647147264285
 31
-4.390664891206665
  0
LINE
  5
183
330
1E
100
AcDbEntity
  8
MON
100
AcDbLine
 10
74.40805805624151
 20
61.1647147264285
 30
-4.390664891206665
 11
74.34525971223493
 21
61.1647147264285
 31
-4.390664891206665
  0
LINE
  5
184
330
1E
100
AcDbEntity
  8
MON
100
AcDbLine
 10
74.34525971223493
 20
60.7587147264285
 30
-4.390664891206665
 11
74.40805805624151
 21
60.7587147264285
 31
-4.390664891206665
  0
LINE
  5
185
330
1E
100
AcDbEntity
  8
MON
100
AcDbLine
 10
74.34505805624147
 20
60.7587147264285
 30
-4.390664891206665
 11
74.34525971223493
 21
60.7587147264285
 31
-4.390664891206665
  0
TEXT
  5
186
330
1E
100
AcDbEntity
  8
TEXT
100
AcDbText
 10
5.117993529093383
 20
63.35798572954218
 30
0.0
 40
0.8742229126874999
  1
%%UMATERIAL:
 41
0.75
  7
TXT
100
AcDbText
  0
TEXT
  5
187
330
1E
100
AcDbEntity
  8
TEXT
100
AcDbText
 10
5.793860345212588
 20
58.95257418070185
 30
0.0
 40
0.8742229126874999
  1
MONITOR SHELF
 41
0.75
  7
TXT
100
AcDbText
  0
TEXT
  5
188
330
1E
100
AcDbEntity
  8
TEXT
100
AcDbText
 10
5.117993529093383
 20
53.1657121981562
 30
0.0
 40
0.8742229126874999
  1
%%UFINISH:
 41
0.75
  7
TXT
100
AcDbText
  0
TEXT
  5
189
330
1E
100
AcDbEntity
  8
TEXT
100
AcDbText
 10
5.793860345212588
 20
51.7086740103437
 30
0.0
 40
0.8742229126874999
  1
MONITOR SHELF, KEYBOARD SHELF,
 41
0.75
  7
TXT
100
AcDbText
  0
TEXT
  5
18A
330
1E
100
AcDbEntity
  8
TEXT
100
AcDbText
 10
29.16061813351126
 20
50.22226517424374
 30
0.0
 40
0.8742229126874999
  1
BLACK TEXTURE
 41
0.75
  7
TXT
100
AcDbText
  0
TEXT
  5
18B
330
1E
100
AcDbEntity
  8
TEXT
100
AcDbText
 10
29.16061777522294
 20
57.48708037935105
 30
0.0
 40
0.8742229126874999
  1
16 GA. STEEL W/0.120 DIA. PIN
 41
0.75
  7
TXT
100
AcDbText
  0
LINE
  5
18C
330
1E
100
AcDbEntity
  8
TEXT
100
AcDbLine
 10
9.079238648178336
 20
57.48708037935105
 30
0.0
 11
28.63184085576932
 21
57.48708037935105
 31
0.0
  0
LINE
  5
18D
330
1E
100
AcDbEntity
  8
KEY
100
AcDbLine
 10
73.72005805624147
 20
61.25071472642849
 30
-4.390664891206664
 11
73.72005805624147
 21
61.20371472642849
 31
-4.390664891206664
  0
LINE
  5
18E
330
1E
100
AcDbEntity
  8
KEY
100
AcDbLine
 10
73.34505805624153
 20
61.20371472642849
 30
-4.390664891206664
 11
74.34505805624147
 21
61.20371472642849
 31
-4.390664891206664
  0
LINE
  5
18F
330
1E
100
AcDbEntity
  8
KEY
100
AcDbLine
 10
74.34505805624147
 20
42.39171472642848
 30
-4.390664891206664
 11
73.34505805624147
 21
42.3917147264285
 31
-4.390664891206664
  0
LINE
  5
190
330
1E
100
AcDbEntity
  8
KEY
100
AcDbLine
 10
73.72005805624147
 20
42.3917147264285
 30
-4.390664891206664
 11
73.72005805624147
 21
42.34471472642848
 31
-4.390664891206664
  0
LINE
  5
191
330
1E
100
AcDbEntity
  8
MON
100
AcDbLine
 10
74.40805805624151
 20
42.98521472642852
 30
-4.390664891206665
 11
74.40805805624151
 21
42.29771472642851
 31
-4.390664891206665
  0
LINE
  5
192
330
1E
100
AcDbEntity
  8
KEY
100
AcDbLine
 10
64.09505805624147
 20
42.37571472642849
 30
-4.390664891206664
 11
62.09505805624147
 21
42.37571472642849
 31
-4.390664891206664
  0
LINE
  5
193
330
1E
100
AcDbEntity
  8
KEY
100
AcDbLine
 10
64.09505805624147
 20
61.21971472642848
 30
-4.390664891206664
 11
62.0950580562415
 21
61.21971472642848
 31
-4.390664891206664
  0
LINE
  5
194
330
1E
100
AcDbEntity
  8
MON-HID
100
AcDbLine
 10
74.40805805624151
 20
60.5002147264285
 30
-4.390664891206665
 11
74.40805805624151
 21
43.09421472642852
 31
-4.390664891206665
  0
LINE
  5
195
330
1E
100
AcDbEntity
  8
MON
100
AcDbLine
 10
74.34505805624147
 20
60.54771472642851
 30
-4.390664891206665
 11
74.34505805624147
 21
61.29771472642851
 31
-4.390664891206665
  0
DIMENSION
  5
196
330
1E
100
AcDbEntity
  8
DIM
100
AcDbDimension
  2
*D10
 10
92.34505805624147
 20
65.10265789966689
 30
-0.0000000000000027
 11
77.22005805624147
 21
65.10265789966689
 31
-0.0000000000000027
 12
-75.92234501515806
 22
3.853723339743439
 32
-0.0000000000000027
 71
     5
 42
-1.0
  3
23NSTD
100
AcDbAlignedDimension
 13
62.09505805624147
 23
61.29771472642849
 33
-4.390664891206664
 14
92.34505805624147
 24
60.61021472642845
 34
-4.390664891206665
 50
180.0
100
AcDbRotatedDimension
  0
DIMENSION
  5
197
330
1E
100
AcDbEntity
  8
DIM
100
AcDbDimension
  2
*D7
 10
95.33218560832693
 20
42.98521472642852
 30
-0.0000000000000027
 11
95.33218560832693
 21
51.79771472642851
 31
-0.0000000000000027
 12
-75.92234501515806
 22
3.853723339743439
 32
-0.0000000000000027
  1
<>
 71
     5
 42
-1.0
  3
23NSTD
100
AcDbAlignedDimension
 13
92.34505805624147
 23
60.61021472642852
 33
-4.390664891206665
 14
92.34505805624147
 24
42.98521472642852
 34
-4.390664891206665
 50
270.0
100
AcDbRotatedDimension
  0
DIMENSION
  5
198
330
1E
100
AcDbEntity
  8
DIM
100
AcDbDimension
  2
*D2
 10
74.2980580562415
 20
53.82330369039365
 30
-5.300110943042433
 11
68.2200580562415
 21
53.82330369039365
 31
-5.300110943042433
 12
-75.92234501515806
 22
7.026518621248833
 32
-5.300110943042433
  1
<> INSIDE
 71
     5
 42
-1.0
  3
23NSTDI
100
AcDbAlignedDimension
 13
62.1420580562415
 23
54.10680369039365
 33
-4.390664891206663
 14
74.2980580562415
 24
54.10680369039365
 34
-5.300110943042433
100
AcDbRotatedDimension
  0
DIMENSION
  5
199
330
1E
100
AcDbEntity
  8
DIM
100
AcDbDimension
  2
*D1
 10
92.28205805624147
 20
56.44825690404932
 30
-0.0000000000000027
 11
83.34480805624147
 21
56.44825690404932
 31
-0.0000000000000027
 12
-75.92234501515806
 22
7.026518621248833
 32
-0.0000000000000027
  1
<> INSIDE
 71
     5
 42
-1.0
  3
23NSTDI
100
AcDbAlignedDimension
 13
74.40755805624147
 23
56.73175690404931
 33
-4.390664891206665
 14
92.28205805624147
 24
56.73175690404931
 34
-4.390664891206665
100
AcDbRotatedDimension
  0
DIMENSION
  5
19A
330
1E
100
AcDbEntity
  8
DIM
100
AcDbDimension
  2
*D3
 10
88.02390763415289
 20
43.04771472642851
 30
-0.0000000000000027
 11
88.02390763415289
 21
51.79771472642851
 31
-0.0000000000000027
 12
-76.63286314275207
 22
7.026518621248833
 32
-0.0000000000000027
  1
<> INSIDE
 71
     5
 42
-1.0
  3
23NSTDI
100
AcDbAlignedDimension
 13
91.57203992864745
 23
60.54771472642851
 33
-4.390664891206665
 14
91.57203992864745
 24
43.04771472642851
 34
-4.390664891206665
 50
270.0
100
AcDbRotatedDimension
  0
LINE
  5
19B
330
1E
100
AcDbEntity
  8
KEY-HID
100
AcDbLine
 10
63.59505805624148
 20
42.37571472642849
 30
-4.390664891206662
 11
63.59505805624148
 21
61.21971472642851
 31
-4.390664891206662
  0
TEXT
  5
19C
330
1E
100
AcDbEntity
  8
TEXT
100
AcDbText
 10
74.88823837534567
 20
28.80590833286076
 30
-0.0000000000000027
 40
0.875
  1
%%UTOP VIEW
 41
0.75
  7
TXT
 72
     1
 11
77.52417587534566
 21
28.80590833286076
 31
-0.0000000000000027
100
AcDbText
  0
TEXT
  5
19D
330
1E
100
AcDbEntity
  8
TEXT
100
AcDbText
 10
23.27966563738944
 20
5.341677002057607
 30
-0.0000000000000027
 40
0.875
  1
%%UFRONT VIEW
 41
0.75
  7
TXT
 72
     1
 11
26.57185313738944
 21
5.341677002057607
 31
-0.0000000000000027
100
AcDbText
  0
TEXT
  5
19E
330
1E
100
AcDbEntity
  8
TEXT
100
AcDbText
 10
72.87617100705417
 20
5.167375746328601
 30
-0.0000000000000027
 40
0.875
  1
%%URIGHT SIDE VIEW
 41
0.75
  7
TXT
 72
     1
 11
77.59023350705416
 21
5.167375746328601
 31
-0.0000000000000027
100
AcDbText
  0
LINE
  5
19F
330
1E
100
AcDbEntity
  8
TEXT
100
AcDbLine
 10
14.90797168061687
 20
61.89016066709086
 30
0.0
 11
28.63184085576932
 21
61.89016066709086
 31
0.0
  0
TEXT
  5
1A0
330
1E
100
AcDbEntity
  8
TEXT
100
AcDbText
 10
29.16061777522294
 20
61.89016066709086
 30
0.0
 40
0.8742229126874999
  1
18 GA. STEEL
 41
0.75
  7
TXT
100
AcDbText
  0
TEXT
  5
1A1
330
1E
100
AcDbEntity
  8
TEXT
100
AcDbText
 10
5.793860345212588
 20
61.90094754172968
 30
0.0
 40
0.8742229126874999
  1
STRIKE BRACKET
 41
0.75
  7
TXT
100
AcDbText
  0
DIMENSION
  5
1A2
330
1E
100
AcDbEntity
  8
DIM
100
AcDbDimension
  2
*D9
 10
92.34505805624147
 20
63.14264184496948
 30
-0.0000000000000027
 11
83.34505805624147
 21
63.14264184496948
 31
-0.0000000000000027
 12
-75.92234501515806
 22
3.853723339743439
 32
-0.0000000000000027
  1
<>
 71
     5
 42
-1.0
  3
23NSTDI
100
AcDbAlignedDimension
 13
74.34505805624147
 23
61.29771472642849
 33
-4.390664891206664
 14
92.34505805624147
 24
60.61021472642845
 34
-4.390664891206665
 50
180.0
100
AcDbRotatedDimension
  0
DIMENSION
  5
1A3
330
1E
100
AcDbEntity
  8
DIM
100
AcDbDimension
  2
*D8
 10
74.34505805624147
 20
63.14264184496948
 30
-0.0000000000000027
 11
68.22005805624147
 21
63.14264184496948
 31
-0.0000000000000027
 12
-75.92234501515806
 22
3.853723339743439
 32
-0.0000000000000027
  1
<>
 71
     5
 42
-1.0
  3
23NSTDI
100
AcDbAlignedDimension
 13
62.09505805624147
 23
61.29771472642849
 33
-4.390664891206664
 14
74.34505805624147
 24
61.29771472642849
 34
-4.390664891206664
 50
180.0
100
AcDbRotatedDimension
  0
LINE
  5
1A4
330
1E
100
AcDbEntity
  8
KEY
100
AcDbLine
 10
62.59505805624151
 20
42.37571472642849
 30
-4.390664891206662
 11
62.59505805624151
 21
61.21971472642851
 31
-4.390664891206662
  0
LINE
  5
1A5
330
1E
100
AcDbEntity
  8
KEY-HID
100
AcDbLine
 10
62.62115351067102
 20
42.37571472642849
 30
-4.390664891206664
 11
62.62115351067102
 21
61.21971472642851
 31
-4.390664891206664
  0
LINE
  5
1A6
330
1E
100
AcDbEntity
  8
HINGE
100
AcDbLine
 10
74.46805805624151
 20
43.79770227530405
 30
-4.390664891206663
 11
74.46805805624151
 21
59.79772632341214
 31
-4.390664891206663
  0
LINE
  5
1A7
330
1E
100
AcDbEntity
  8
HINGE
100
AcDbLine
 10
74.22205805624153
 20
43.79771780345588
 30
-4.390664891206663
 11
74.22205805624148
 21
59.79771164940109
 31
-4.390664891206663
  0
LINE
  5
1A8
330
1E
100
AcDbEntity
  8
HINGE
100
AcDbLine
 10
73.34505805624147
 20
43.79771780345588
 30
-4.390664891206663
 11
73.34505805624147
 21
59.79771164940109
 31
-4.390664891206663
  0
LINE
  5
1A9
330
1E
100
AcDbEntity
  8
HINGE
100
AcDbLine
 10
75.34505805624147
 20
59.79771164940109
 30
-4.390664891206661
 11
73.34505805624147
 21
59.79771164940109
 31
-4.390664891206661
  0
LINE
  5
1AA
330
1E
100
AcDbEntity
  8
HINGE
100
AcDbLine
 10
74.46805805624151
 20
59.29771164940109
 30
-4.390664891206663
 11
74.22205805624148
 21
59.29769786599609
 31
-4.39066489120666
  0
LINE
  5
1AB
330
1E
100
AcDbEntity
  8
HINGE
100
AcDbLine
 10
74.46805805624151
 20
58.29771164940108
 30
-4.390664891206663
 11
74.22205805624148
 21
58.29769786599612
 31
-4.39066489120666
  0
LINE
  5
1AC
330
1E
100
AcDbEntity
  8
HINGE
100
AcDbLine
 10
74.46805805624151
 20
58.79771164940109
 30
-4.390664891206663
 11
74.22205805624148
 21
58.79769786599609
 31
-4.39066489120666
  0
LINE
  5
1AD
330
1E
100
AcDbEntity
  8
HINGE
100
AcDbLine
 10
74.46805805624151
 20
57.29771164940109
 30
-4.390664891206663
 11
74.22205805624148
 21
57.29769786599611
 31
-4.39066489120666
  0
LINE
  5
1AE
330
1E
100
AcDbEntity
  8
HINGE
100
AcDbLine
 10
74.46805805624151
 20
57.79771164940108
 30
-4.390664891206663
 11
74.22205805624148
 21
57.79769786599611
 31
-4.39066489120666
  0
LINE
  5
1AF
330
1E
100
AcDbEntity
  8
HINGE
100
AcDbLine
 10
74.46805805624151
 20
56.29771164940109
 30
-4.390664891206663
 11
74.22205805624148
 21
56.29769786599609
 31
-4.390664891206659
  0
LINE
  5
1B0
330
1E
100
AcDbEntity
  8
HINGE
100
AcDbLine
 10
74.46805805624151
 20
56.79771164940109
 30
-4.390664891206663
 11
74.22205805624148
 21
56.7976978659961
 31
-4.39066489120666
  0
LINE
  5
1B1
330
1E
100
AcDbEntity
  8
HINGE
100
AcDbLine
 10
74.46805805624151
 20
55.29771164940108
 30
-4.390664891206663
 11
74.22205805624148
 21
55.29769786599611
 31
-4.39066489120666
  0
LINE
  5
1B2
330
1E
100
AcDbEntity
  8
HINGE
100
AcDbLine
 10
74.46805805624151
 20
55.79771164940108
 30
-4.390664891206663
 11
74.22205805624148
 21
55.7976978659961
 31
-4.39066489120666
  0
LINE
  5
1B3
330
1E
100
AcDbEntity
  8
HINGE
100
AcDbLine
 10
74.46805805624151
 20
54.79771164940109
 30
-4.390664891206663
 11
74.22205805624148
 21
54.79769786599611
 31
-4.39066489120666
  0
LINE
  5
1B4
330
1E
100
AcDbEntity
  8
HINGE
100
AcDbLine
 10
74.46805805624151
 20
53.79771164940109
 30
-4.390664891206663
 11
74.22205805624148
 21
53.7976978659961
 31
-4.39066489120666
  0
LINE
  5
1B5
330
1E
100
AcDbEntity
  8
HINGE
100
AcDbLine
 10
74.46805805624151
 20
54.29771164940109
 30
-4.390664891206663
 11
74.22205805624148
 21
54.2976978659961
 31
-4.39066489120666
  0
LINE
  5
1B6
330
1E
100
AcDbEntity
  8
HINGE
100
AcDbLine
 10
74.46805805624151
 20
52.79771164940108
 30
-4.390664891206663
 11
74.22205805624148
 21
52.79769786599611
 31
-4.39066489120666
  0
LINE
  5
1B7
330
1E
100
AcDbEntity
  8
HINGE
100
AcDbLine
 10
74.46805805624151
 20
53.29771164940108
 30
-4.390664891206663
 11
74.22205805624148
 21
53.2976978659961
 31
-4.39066489120666
  0
LINE
  5
1B8
330
1E
100
AcDbEntity
  8
HINGE
100
AcDbLine
 10
74.46805805624151
 20
51.79771164940109
 30
-4.390664891206663
 11
74.22205805624148
 21
51.7976978659961
 31
-4.39066489120666
  0
LINE
  5
1B9
330
1E
100
AcDbEntity
  8
HINGE
100
AcDbLine
 10
74.46805805624151
 20
52.29771164940109
 30
-4.390664891206663
 11
74.22205805624148
 21
52.29769786599611
 31
-4.39066489120666
  0
LINE
  5
1BA
330
1E
100
AcDbEntity
  8
HINGE
100
AcDbLine
 10
74.46805805624151
 20
50.79771164940108
 30
-4.390664891206663
 11
74.22205805624148
 21
50.79769786599609
 31
-4.39066489120666
  0
LINE
  5
1BB
330
1E
100
AcDbEntity
  8
HINGE
100
AcDbLine
 10
74.46805805624151
 20
51.29771164940109
 30
-4.390664891206663
 11
74.22205805624148
 21
51.2976978659961
 31
-4.39066489120666
  0
LINE
  5
1BC
330
1E
100
AcDbEntity
  8
HINGE
100
AcDbLine
 10
74.46805805624151
 20
50.29771164940108
 30
-4.390664891206663
 11
74.22205805624148
 21
50.29769786599609
 31
-4.39066489120666
  0
LINE
  5
1BD
330
1E
100
AcDbEntity
  8
HINGE
100
AcDbLine
 10
74.46805805624151
 20
49.29771164940109
 30
-4.390664891206663
 11
74.22205805624148
 21
49.29769786599609
 31
-4.39066489120666
  0
LINE
  5
1BE
330
1E
100
AcDbEntity
  8
HINGE
100
AcDbLine
 10
74.46805805624151
 20
49.79771164940109
 30
-4.390664891206663
 11
74.22205805624148
 21
49.79769786599609
 31
-4.39066489120666
  0
LINE
  5
1BF
330
1E
100
AcDbEntity
  8
HINGE
100
AcDbLine
 10
74.46805805624151
 20
48.29771164940108
 30
-4.390664891206663
 11
74.22205805624148
 21
48.29769786599609
 31
-4.39066489120666
  0
LINE
  5
1C0
330
1E
100
AcDbEntity
  8
HINGE
100
AcDbLine
 10
74.46805805624151
 20
48.79771164940109
 30
-4.390664891206663
 11
74.22205805624148
 21
48.79769786599609
 31
-4.39066489120666
  0
LINE
  5
1C1
330
1E
100
AcDbEntity
  8
HINGE
100
AcDbLine
 10
74.46805805624151
 20
47.29771164940109
 30
-4.390664891206663
 11
74.22205805624148
 21
47.29769786599609
 31
-4.39066489120666
  0
LINE
  5
1C2
330
1E
100
AcDbEntity
  8
HINGE
100
AcDbLine
 10
74.46805805624151
 20
47.79771164940108
 30
-4.390664891206663
 11
74.22205805624148
 21
47.79769786599609
 31
-4.39066489120666
  0
LINE
  5
1C3
330
1E
100
AcDbEntity
  8
HINGE
100
AcDbLine
 10
74.46805805624151
 20
46.29771164940108
 30
-4.390664891206663
 11
74.22205805624148
 21
46.29769786599609
 31
-4.39066489120666
  0
LINE
  5
1C4
330
1E
100
AcDbEntity
  8
HINGE
100
AcDbLine
 10
74.46805805624151
 20
46.79771164940109
 30
-4.390664891206663
 11
74.22205805624148
 21
46.79769786599609
 31
-4.39066489120666
  0
LINE
  5
1C5
330
1E
100
AcDbEntity
  8
HINGE
100
AcDbLine
 10
74.46805805624151
 20
45.79771164940108
 30
-4.390664891206663
 11
74.22205805624148
 21
45.79769786599609
 31
-4.39066489120666
  0
LINE
  5
1C6
330
1E
100
AcDbEntity
  8
HINGE
100
AcDbLine
 10
74.46805805624151
 20
44.79771164940109
 30
-4.390664891206663
 11
74.22205805624148
 21
44.79769786599609
 31
-4.39066489120666
  0
LINE
  5
1C7
330
1E
100
AcDbEntity
  8
HINGE
100
AcDbLine
 10
74.46805805624151
 20
45.29771164940108
 30
-4.390664891206663
 11
74.22205805624148
 21
45.29769786599609
 31
-4.39066489120666
  0
LINE
  5
1C8
330
1E
100
AcDbEntity
  8
HINGE
100
AcDbLine
 10
74.46805805624151
 20
44.29771164940109
 30
-4.390664891206663
 11
74.22205805624148
 21
44.29769786599609
 31
-4.39066489120666
  0
LINE
  5
1C9
330
1E
100
AcDbEntity
  8
HINGE
100
AcDbLine
 10
75.34505805624147
 20
43.79771780345588
 30
-4.390664891206663
 11
73.34505805624147
 21
43.79771780345588
 31
-4.390664891206661
  0
LINE
  5
1CA
330
1E
100
AcDbEntity
  8
HINGE
100
AcDbLine
 10
75.34505805624147
 20
43.79771780345588
 30
-4.390664891206663
 11
75.34505805624147
 21
59.79771164940109
 31
-4.390664891206663
  0
LINE
  5
1CB
330
1E
100
AcDbEntity
  8
MON
100
AcDbLine
 10
75.34505805624147
 20
43.09421472642852
 30
-4.390664891206665
 11
75.34505805624147
 21
43.79721472642852
 31
-4.390664891206665
  0
LINE
  5
1CC
330
1E
100
AcDbEntity
  8
MON
100
AcDbLine
 10
74.34505805624147
 20
60.5002147264285
 30
-4.390664891206665
 11
75.34505805624147
 21
60.5002147264285
 31
-4.390664891206665
  0
LINE
  5
1CD
330
1E
100
AcDbEntity
  8
MON
100
AcDbLine
 10
74.34505805624147
 20
43.09421472642852
 30
-4.390664891206665
 11
75.34505805624147
 21
43.09421472642852
 31
-4.390664891206665
  0
LINE
  5
1CE
330
1E
100
AcDbEntity
  8
MON
100
AcDbLine
 10
74.34505805624147
 20
43.09421472642852
 30
-4.390664891206665
 11
74.34505805624147
 21
43.79721472642852
 31
-4.390664891206665
  0
LINE
  5
1CF
330
1E
100
AcDbEntity
  8
MON-HID
100
AcDbLine
 10
75.28205805624148
 20
43.09421472642852
 30
-4.390664891206665
 11
75.28205805624148
 21
60.5002147264285
 31
-4.390664891206665
  0
LINE
  5
1D0
330
1E
100
AcDbEntity
  8
KEY
100
AcDbLine
 10
62.0950580562415
 20
61.25071472642849
 30
-4.390664891206664
 11
74.34505805624147
 21
61.25071472642849
 31
-4.390664891206664
  0
LINE
  5
1D1
330
1E
100
AcDbEntity
  8
KEY
100
AcDbLine
 10
74.34505805624147
 20
42.34471472642851
 30
-4.390664891206664
 11
62.09505805624147
 21
42.34471472642851
 31
-4.390664891206664
  0
LINE
  5
1D2
330
1E
100
AcDbEntity
  8
KEY-HID
100
AcDbLine
 10
74.2980580562415
 20
61.20371472642849
 30
-4.419810582725043
 11
74.2980580562415
 21
42.39171472642848
 31
-8.781329782413326
  0
LINE
  5
1D3
330
1E
100
AcDbEntity
  8
KEY
100
AcDbLine
 10
73.34505805624153
 20
61.20371472642849
 30
-4.390664891206664
 11
73.34505805624153
 21
59.79771472642852
 31
-4.390664891206664
  0
LINE
  5
1D4
330
1E
100
AcDbEntity
  8
KEY-HID
100
AcDbLine
 10
73.3920580562415
 20
61.20371472642849
 30
-4.390664891206664
 11
73.3920580562415
 21
42.3917147264285
 31
-4.390664891206664
  0
LINE
  5
1D5
330
1E
100
AcDbEntity
  8
KEY-HID
100
AcDbLine
 10
73.34505805624153
 20
61.20371472642849
 30
-4.390664891206664
 11
73.34505805624153
 21
61.20371472642849
 31
-4.390664891206664
  0
LINE
  5
1D6
330
1E
100
AcDbEntity
  8
KEY
100
AcDbLine
 10
73.34505805624147
 20
43.79771472642849
 30
-4.390664891206664
 11
73.34505805624147
 21
42.3917147264285
 31
-4.390664891206664
  0
LINE
  5
1D7
330
1E
100
AcDbEntity
  8
MON
100
AcDbLine
 10
75.34505805624147
 20
59.79721472642853
 30
-4.390664891206665
 11
75.34505805624147
 21
60.5002147264285
 31
-4.390664891206665
  0
LINE
  5
1D8
330
1E
100
AcDbEntity
  8
KEY-HID
100
AcDbLine
 10
62.1420580562415
 20
42.37571472642849
 30
-4.390664891206664
 11
62.1420580562415
 21
61.21971472642848
 31
-4.390664891206664
  0
LINE
  5
1D9
330
1E
100
AcDbEntity
  8
KEY-HID
100
AcDbLine
 10
64.0480580562415
 20
42.37571472642849
 30
-4.390664891206664
 11
64.0480580562415
 21
61.21971472642848
 31
-4.390664891206664
  0
LINE
  5
1DA
330
1E
100
AcDbEntity
  8
KEY
100
AcDbLine
 10
62.0950580562415
 20
61.25071472642849
 30
-4.390664891206664
 11
62.0950580562415
 21
61.29771472642851
 31
-4.390664891206664
  0
ARC
  5
1DB
330
1E
100
AcDbEntity
  8
KEY
100
AcDbCircle
 10
62.0950580562415
 20
61.21971472642848
 30
-4.390664891206664
 40
0.0625
100
AcDbArc
 50
0.0
 51
29.73571310756048
  0
ARC
  5
1DC
330
1E
100
AcDbEntity
  8
KEY
100
AcDbCircle
 10
62.0950580562415
 20
42.37571472642849
 30
-4.390664891206664
 40
0.0625
100
AcDbArc
 50
330.2642868924472
 51
0.0
  0
LINE
  5
1DD
330
1E
100
AcDbEntity
  8
KEY
100
AcDbLine
 10
62.0950580562415
 20
42.34471472642848
 30
-4.390664891206664
 11
62.0950580562415
 21
42.29771472642848
 31
-4.390664891206664
  0
LINE
  5
1DE
330
1E
100
AcDbEntity
  8
MON
100
AcDbLine
 10
74.34505805624147
 20
59.79721472642853
 30
-4.390664891206665
 11
74.34505805624147
 21
60.5002147264285
 31
-4.390664891206665
  0
LINE
  5
1DF
330
1E
100
AcDbEntity
  8
KEY-HID
100
AcDbLine
 10
74.34505805624147
 20
59.75071472642852
 30
-4.390664891206664
 11
74.34505805624147
 21
43.84471472642851
 31
-4.390664891206664
  0
LINE
  5
1E0
330
1E
100
AcDbEntity
  8
KEY
100
AcDbLine
 10
74.34505805624147
 20
43.79771472642851
 30
-4.390664891206664
 11
74.34505805624147
 21
42.29771472642851
 31
-4.390664891206664
  0
LINE
  5
1E1
330
1E
100
AcDbEntity
  8
MON-HID
100
AcDbLine
 10
74.34505805624147
 20
43.84421472642852
 30
-4.390664891206665
 11
74.34505805624147
 21
59.75021472642853
 31
-4.390664891206665
  0
TEXT
  5
1E2
330
1E
100
AcDbEntity
  8
TEXT
100
AcDbText
 10
29.16061777522294
 20
58.94178730606306
 30
0.0
 40
0.8742229126874999
  1
16 GA. STEEL
 41
0.75
  7
TXT
100
AcDbText
  0
LINE
  5
1E3
330
1E
100
AcDbEntity
  8
TEXT
100
AcDbLine
 10
14.078586120482
 20
58.94178730606303
 30
0.0
 11
28.63184085576932
 21
58.94178730606303
 31
0.0
  0
TEXT
  5
1E4
330
1E
100
AcDbEntity
  8
TEXT
100
AcDbText
 10
5.793860345212588
 20
57.49786725398984
 30
0.0
 40
0.8742229126874999
  1
HINGE
 41
0.75
  7
TXT
100
AcDbText
  0
LINE
  5
1E5
330
1E
100
AcDbEntity
  8
BRACKET
100
AcDbLine
 10
74.14125955150016
 20
59.54721472642847
 30
-0.0000000000000036
 11
74.36722398480842
 21
59.5472147264285
 31
-4.776692344360956
  0
LINE
  5
1E6
330
1E
100
AcDbEntity
  8
BRACKET
100
AcDbLine
 10
74.21626987748695
 20
60.1927147264285
 30
-4.390664891206663
 11
74.21626987748695
 21
59.90171472642847
 31
-4.390664891206663
  0
LINE
  5
1E7
330
1E
100
AcDbEntity
  8
BRACKET
100
AcDbLine
 10
74.26179230681364
 20
60.1927147264285
 30
-4.390664891206663
 11
74.26179230681364
 21
59.90171472642847
 31
-4.390664891206663
  0
LINE
  5
1E8
330
1E
100
AcDbEntity
  8
BRACKET
100
AcDbLine
 10
74.21626987748695
 20
59.90171472642847
 30
-4.390664891206665
 11
74.26179230681364
 21
59.90171472642847
 31
-4.390664891206665
  0
LINE
  5
1E9
330
1E
100
AcDbEntity
  8
BRACKET
100
AcDbLine
 10
74.21626987748695
 20
60.1927147264285
 30
-4.390664891206665
 11
74.26179230681364
 21
60.1927147264285
 31
-4.390664891206665
  0
LINE
  5
1EA
330
1E
100
AcDbEntity
  8
BRACKET
100
AcDbLine
 10
74.14125955150016
 20
60.54721472642849
 30
-0.0000000000000018
 11
74.14125955150016
 21
59.54721472642847
 31
-0.0000000000000018
  0
LINE
  5
1EB
330
1E
100
AcDbEntity
  8
BRACKET
100
AcDbLine
 10
74.33680263280044
 20
60.54721472642849
 30
-0.0000000000000027
 11
74.33680263280044
 21
59.5472147264285
 31
-0.0000000000000027
  0
LINE
  5
1EC
330
1E
100
AcDbEntity
  8
BRACKET
100
AcDbLine
 10
74.36722398480842
 20
60.54721472642849
 30
-0.0000000000000027
 11
74.36722398480842
 21
59.5472147264285
 31
-0.0000000000000027
  0
LINE
  5
1ED
330
1E
100
AcDbEntity
  8
BRACKET
100
AcDbLine
 10
74.14125955150016
 20
60.54721472642849
 30
-0.0000000000000036
 11
75.30493666526556
 21
60.54721472642849
 31
-4.390664891206665
  0
LINE
  5
1EE
330
1E
100
AcDbEntity
  8
BRACKET
100
AcDbLine
 10
74.36722398480842
 20
60.5162147264285
 30
-8.78132978241333
 11
75.30493666526556
 21
60.5162147264285
 31
-8.78132978241333
  0
LINE
  5
1EF
330
1E
100
AcDbEntity
  8
BRACKET
100
AcDbLine
 10
75.30493666526556
 20
60.54721472642849
 30
-4.390664891206663
 11
75.30493666526556
 21
60.5162147264285
 31
-4.390664891206663
  0
TEXT
  5
1F0
330
1E
100
AcDbEntity
  8
DIM
100
AcDbText
 10
54.28380235236186
 20
85.32980450759884
 30
0.0
 40
1.0
  1

100
AcDbText
  0
TEXT
  5
1F1
330
1E
100
AcDbEntity
  8
DIM
100
AcDbText
 10
54.03380235236184
 20
74.95505952956837
 30
0.0
 40
1.0
  1

100
AcDbText
  0
TEXT
  5
1F2
330
1E
100
AcDbEntity
  8
DIM
100
AcDbText
 10
54.20046901902852
 20
68.67072196840455
 30
0.0
 40
1.0
  1

100
AcDbText
  0
TEXT
  5
1F3
330
1E
100
AcDbEntity
  8
DIM
100
AcDbText
 10
36.32214943502784
 20
70.07532007607803
 30
0.0
 40
1.0
  1

100
AcDbText
  0
TEXT
  5
1F4
330
1E
100
AcDbEntity
  8
DIM
100
AcDbText
 10
70.36464868204936
 20
70.07532007607803
 30
0.0
 40
1.0
  1

100
AcDbText
  0
TEXT
  5
1F5
330
1E
100
AcDbEntity
  8
DIM
100
AcDbText
 10
120.8857409606022
 20
68.60792467418774
 30
0.0
 40
1.0
  1

100
AcDbText
  0
TEXT
  5
1F6
330
1E
100
AcDbEntity
  8
DIM
100
AcDbText
 10
110.1374213766015
 20
82.33032007607803
 30
0.0
 40
1.0
  1

100
AcDbText
  0
TEXT
  5
1F7
330
1E
100
AcDbEntity
  8
DIM
100
AcDbText
 10
112.394859008601
 20
85.61536074343987
 30
0.0
 40
1.0
  1

100
AcDbText
  0
TEXT
  5
1F8
330
1E
100
AcDbEntity
  8
TEXT
100
AcDbText
 10
5.793860345212588
 20
60.44624061501767
 30
0.0
 40
0.8742229126874999
  1
KEYBOARD SHELF & MOUSE PAD
 41
0.75
  7
TXT
100
AcDbText
  0
TEXT
  5
1F9
330
1E
100
AcDbEntity
  8
TEXT
100
AcDbText
 10
29.16061777522294
 20
60.43545374037885
 30
0.0
 40
0.8742229126874999
  1
18 GA. STEEL
 41
0.75
  7
TXT
100
AcDbText
  0
LINE
  5
1FA
330
1E
100
AcDbEntity
  8
MON-HID
100
AcDbLine
 10
74.40805805624146
 20
9.280721083473988
 30
-4.390664891206665
 11
92.28205805624147
 21
9.280721083473988
 31
-4.390664891206665
  0
LINE
  5
1FB
330
1E
100
AcDbEntity
  8
MON
100
AcDbLine
 10
92.34505805624147
 20
9.217721083473985
 30
-4.390664891206665
 11
74.34505805624147
 21
9.217721083473985
 31
-4.390664891206665
  0
LINE
  5
1FC
330
1E
100
AcDbEntity
  8
MON
100
AcDbLine
 10
92.34505805624147
 20
9.717721083473985
 30
-4.390664891206665
 11
77.12705805624145
 21
24.93572108347397
 31
-4.390664891206665
  0
DIMENSION
  5
1FD
330
1E
100
AcDbEntity
  8
DIM
100
AcDbDimension
  2
*D0
 10
77.12705805624145
 20
24.93572108347397
 30
-4.390664891206665
 11
86.11603872705078
 21
12.00497215109558
 31
-0.0000000000000027
 12
20.31725191963847
 22
-53.12870090674846
 32
-0.0000000000000027
 70
     2
 71
     5
 42
-1.0
  3
23NSTD
100
AcDb2LineAngularDimension
 13
92.34505805624147
 23
9.217721083473971
 33
-4.390664891206665
 14
74.40815148475272
 24
9.217721083473971
 34
-4.390664891206665
 15
92.34505805624147
 25
9.717721083473971
 35
-4.390664891206665
 16
85.70104416243779
 26
10.63600706723039
 36
-0.0000000000000027
  0
LWPOLYLINE
  5
1FE
330
1E
100
AcDbEntity
  8
KEY
100
AcDbPolyline
 90
        7
 70
     1
 43
0.0
 38
-4.390664891206665
 10
74.34505805624147
 20
9.217721083473985
 10
74.34505805624147
 20
12.21772108347398
 10
73.34505805624147
 20
12.21772108347398
 10
64.09505805624147
 20
10.46772108347398
 10
62.59505805624147
 20
10.46772108347398
 10
62.09505805624147
 20
9.967721083473957
 10
62.09505805624147
 20
9.217721083473985
  0
LWPOLYLINE
  5
207
330
1E
100
AcDbEntity
  8
KEY-HID
100
AcDbPolyline
 90
       11
 70
     0
 43
0.0
 38
-4.390664891206665
 10
74.34505805624147
 20
12.21772108347398
 10
73.34505805624147
 20
12.21772108347398
 10
73.34505805624147
 20
11.71772108347398
 10
73.39205805624144
 20
11.71772108347398
 10
73.39205805624144
 20
12.17072108347398
 10
74.29805805624145
 20
12.17072108347398
 10
74.29805805624145
 20
9.264721083473983
 10
62.14205805624144
 20
9.264721083473983
 10
62.14205805624147
 20
9.948253046042463
 10
62.61452609367299
 20
10.420721083474
 10
64.03205805624145
 20
10.42072108347397
  0
DIMENSION
  5
214
330
1E
100
AcDbEntity
  8
DIM
100
AcDbDimension
  2
*D14
 10
51.25756630719514
 20
12.21772108347398
 30
-0.0000000000000027
 11
51.25756630719514
 21
10.71772108347399
 31
-0.0000000000000018
 12
-96.24919723264284
 22
2.946331731409387
 32
-0.0000000000000018
  1
<>
 71
     5
 42
-1.0
  3
23NSTDI
100
AcDbAlignedDimension
 13
62.09555805624146
 23
9.217721083474
 33
-4.390664891206665
 14
73.34505805624147
 24
12.21772108347398
 34
-4.390664891206665
 50
90.0
100
AcDbRotatedDimension
  0
DIMENSION
  5
215
330
1E
100
AcDbEntity
  8
DIM
100
AcDbDimension
  2
*D13
 10
54.65479964173816
 20
10.46772108347398
 30
-0.0000000000000027
 11
54.65479964173816
 21
9.842721083473985
 31
-0.0000000000000027
 12
-96.24919723264284
 22
2.946331731409387
 32
-0.0000000000000027
  1
<>
 71
     5
 42
-1.0
  3
23NSTDI
100
AcDbAlignedDimension
 13
62.09505805624147
 23
9.217721083473985
 33
-4.390664891206665
 14
62.59505805624147
 24
10.46772108347398
 34
-4.390664891206665
 50
90.0
100
AcDbRotatedDimension
  0
DIMENSION
  5
216
330
1E
100
AcDbEntity
  8
DIM
100
AcDbDimension
  2
*D15
 10
62.09505805624147
 20
15.32575508376705
 30
-0.0000000000000027
 11
57.79662055624147
 21
15.32575508376705
 31
-0.0000000000000027
 12
-96.24919723264284
 22
2.946331731409387
 32
-0.0000000000000027
  1
<>
 71
     5
 42
-1.0
  3
23NSTD
100
AcDbAlignedDimension
 13
64.09505805624147
 23
10.46772108347398
 33
-4.390664891206665
 14
62.09505805624147
 24
9.967721083473971
 34
-4.390664891206665
100
AcDbRotatedDimension
  0
DIMENSION
  5
217
330
1E
100
AcDbEntity
  8
DIM
100
AcDbDimension
  2
*D12
 10
59.31395091491951
 20
9.217721083474
 30
-0.0000000000000027
 11
56.22082591491952
 21
6.697721083473997
 31
-0.0000000000000027
 12
-96.24919723264284
 22
2.946331731409387
 32
-0.0000000000000027
  1
<>
 71
     5
 42
-1.0
  3
23NSTD
100
AcDbAlignedDimension
 13
62.09505805624147
 23
9.967721083473971
 33
-4.390664891206665
 14
62.09555805624146
 24
9.217721083474
 34
-4.390664891206665
 50
90.0
100
AcDbRotatedDimension
  0
LINE
  5
218
330
1E
100
AcDbEntity
  8
KEY-HID
100
AcDbLine
 10
62.76705805624144
 20
10.420721083474
 30
-4.390664891206665
 11
62.76705805624144
 21
10.46772108347398
 31
-4.390664891206665
  0
LWPOLYLINE
  5
219
330
1E
100
AcDbEntity
  8
KEY-HID
100
AcDbPolyline
 90
        4
 70
     0
 43
0.0
 38
-4.390664891206665
 10
64.09505805624147
 20
10.46772108347398
 10
64.09505805624147
 20
10.37372108347397
 10
63.59505805624149
 20
10.37372108347397
 10
63.59505805624149
 20
10.42072108347397
  0
LINE
  5
21F
330
1E
100
AcDbEntity
  8
KEY-HID
100
AcDbLine
 10
63.42305805624146
 20
10.42072108347398
 30
-4.390664891206665
 11
63.42305805624146
 21
10.46772108347398
 31
-4.390664891206665
  0
LINE
  5
220
330
1E
100
AcDbEntity
  8
MON
100
AcDbLine
 10
74.34505805624147
 20
9.217721083473985
 30
-0.0000000000000027
 11
74.34505805624147
 21
24.93572108347397
 31
-0.0000000000000027
  0
LINE
  5
221
330
1E
100
AcDbEntity
  8
MON
100
AcDbLine
 10
74.40805805624146
 20
9.217721083473985
 30
-0.0000000000000027
 11
74.4080580562414
 21
24.93572108347397
 31
-0.0000000000000027
  0
LWPOLYLINE
  5
222
330
1E
100
AcDbEntity
  8
HINGE
100
AcDbPolyline
 90
        6
 70
     1
 43
0.0
 38
-4.390664891206665
 10
74.34505805624147
 20
12.27772108347398
 10
73.34505805624147
 20
12.27772108347398
 10
73.34505805624147
 20
12.21772108347398
 10
74.34505805624147
 20
12.21772108347398
 42
3.680383246611203
 10
74.23768487523242
 20
12.28072108347398
 10
74.29006203670025
 20
12.3099893761569
 42
-3.680383246611364
  0
LWPOLYLINE
  5
22A
330
1E
100
AcDbEntity
  8
KEY-HID
100
AcDbPolyline
 90
        4
 70
     0
 43
0.0
 38
-4.390664891206665
 10
74.29805805624145
 20
9.436721083473994
 10
73.72005805624141
 20
9.436721083473994
 10
73.72005805624147
 20
11.99272108347399
 10
74.29805805624145
 20
11.99272108347399
  0
LWPOLYLINE
  5
230
330
1E
100
AcDbEntity
  8
HINGE-HID
100
AcDbPolyline
 90
        4
 70
     0
 43
0.0
 38
-4.390664891206665
 10
74.45238931916143
 20
12.277721083474
 10
75.34505805624144
 20
12.277721083474
 10
75.34505805624144
 20
12.217721083474
 10
74.34505805624144
 20
12.217721083474
  0
LINE
  5
236
330
1E
100
AcDbEntity
  8
MON-HID
100
AcDbLine
 10
74.40805805624146
 20
12.15472108347402
 30
-4.390664891206665
 11
75.28205805624148
 21
12.15472108347401
 31
-4.390664891206665
  0
LINE
  5
237
330
1E
100
AcDbEntity
  8
MON-HID
100
AcDbLine
 10
74.34505805624147
 20
12.21772108347402
 30
-4.390664891206665
 11
75.34505805624147
 21
12.217721083474
 31
-4.390664891206665
  0
CIRCLE
  5
238
330
1E
100
AcDbEntity
  8
HINGE
100
AcDbCircle
 10
74.34505805624147
 20
12.34072108347397
 30
-4.390664891206665
 40
0.06
  0
LINE
  5
239
330
1E
100
AcDbEntity
  8
MON-HID
100
AcDbLine
 10
75.28205805624148
 20
11.71772108347399
 30
-4.390664891206665
 11
75.28205805624148
 21
12.15472108347401
 31
-4.390664891206665
  0
LINE
  5
23A
330
1E
100
AcDbEntity
  8
MON-HID
100
AcDbLine
 10
75.28205805624148
 20
11.71772108347399
 30
-4.390664891206665
 11
75.34505805624147
 21
11.71772108347399
 31
-4.390664891206665
  0
LINE
  5
23B
330
1E
100
AcDbEntity
  8
MON-HID
100
AcDbLine
 10
75.34505805624147
 20
11.71772108347399
 30
-4.390664891206665
 11
75.34505805624147
 21
12.217721083474
 31
-4.390664891206665
  0
LINE
  5
23C
330
1E
100
AcDbEntity
  8
MON
100
AcDbLine
 10
74.34505805624147
 20
24.93572108347397
 30
-4.390664891206665
 11
77.12705805624145
 21
24.93572108347397
 31
-4.390664891206665
  0
CIRCLE
  5
23D
330
1E
100
AcDbEntity
  8
HIDDEN
100
AcDbCircle
 10
75.01669568144902
 20
23.97057348243806
 30
-4.390664891206665
 40
0.094
  0
CIRCLE
  5
23E
330
1E
100
AcDbEntity
  8
MON
100
AcDbCircle
 10
75.01662851504065
 20
23.97057348243806
 30
-4.390664891206665
 40
0.08
  0
DIMENSION
  5
23F
330
1E
100
AcDbEntity
  8
DIM
100
AcDbDimension
  2
*D11
 10
95.33218560832693
 20
9.717721083473971
 30
-0.0000000000000027
 11
98.37062310832692
 21
12.23772108347396
 31
-0.0000000000000027
 12
-75.92234501515807
 22
2.118646109243653
 32
-0.0000000000000027
  1
<>
 71
     5
 42
-1.0
  3
23NSTD
100
AcDbAlignedDimension
 13
92.34505805624147
 23
9.217721083473971
 33
-4.390664891206665
 14
92.34505805624147
 24
9.717721083473971
 34
-4.390664891206665
 50
90.0
100
AcDbRotatedDimension
  0
LINE
  5
240
330
1E
100
AcDbEntity
  8
MON-HID
100
AcDbLine
 10
92.28205805624147
 20
9.280721083473988
 30
-4.390664891206665
 11
92.28205805624147
 21
9.717721083473985
 31
-4.390664891206665
  0
LINE
  5
241
330
1E
100
AcDbEntity
  8
MON
100
AcDbLine
 10
92.34505805624147
 20
9.717721083473985
 30
-4.390664891206665
 11
92.34505805624147
 21
9.217721083473985
 31
-4.390664891206665
  0
LINE
  5
242
330
1E
100
AcDbEntity
  8
MON-HID
100
AcDbLine
 10
92.34505805624147
 20
9.717721083473985
 30
-4.390664891206665
 11
92.28205805624147
 21
9.717721083473985
 31
-4.390664891206665
  0
LWPOLYLINE
  5
243
330
1E
100
AcDbEntity
  8
KEY
  6
PHANTOM2
100
AcDbPolyline
 90
        7
 70
     1
 43
0.0
 38
-4.390664891206665
 10
71.24533642466563
 20
12.72131904292828
 10
74.2229748795896
 20
12.35571101271282
 10
74.34484422299473
 20
13.34825716435414
 10
73.73517988412001
 20
22.74258041799539
 10
73.91798389922775
 20
24.23139964545736
 10
73.48264549510964
 20
24.78860739298061
 10
72.73823588137867
 20
24.88000940053447
  0
LINE
  5
24C
330
1E
100
AcDbEntity
  8
KEY
100
AcDbLine
 10
17.16535313738948
 20
12.21772108347397
 30
-4.390664891206664
 11
35.97735313738946
 21
12.21772108347397
 31
-4.390664891206664
  0
LINE
  5
24D
330
1E
100
AcDbEntity
  8
MON-HID
100
AcDbLine
 10
17.88435313738947
 20
11.71772108347397
 30
-4.390664891206665
 11
35.27485313738945
 21
11.71772108347407
 31
-4.390664891206665
  0
LINE
  5
24E
330
1E
100
AcDbEntity
  8
KEY-HID
100
AcDbLine
 10
17.16535313738948
 20
12.17072108347396
 30
-4.390664891206664
 11
35.97735313738946
 21
12.17072108347397
 31
-4.390664891206664
  0
LINE
  5
24F
330
1E
100
AcDbEntity
  8
KEY
100
AcDbLine
 10
17.16535313738948
 20
11.71772108347397
 30
-4.390664891206664
 11
35.97735313738946
 21
11.71772108347397
 31
-4.390664891206664
  0
LINE
  5
250
330
1E
100
AcDbEntity
  8
KEY-HID
100
AcDbLine
 10
17.14935313738949
 20
10.37372108347397
 30
-4.390664891206664
 11
35.99335313738948
 21
10.37372108347397
 31
-4.390664891206664
  0
LINE
  5
251
330
1E
100
AcDbEntity
  8
MON-HID
100
AcDbLine
 10
35.27485313738945
 20
12.15472108347396
 30
-4.390664891206662
 11
17.86885313738944
 21
12.15472108347396
 31
-4.390664891206662
  0
LINE
  5
252
330
1E
100
AcDbEntity
  8
HINGE
100
AcDbLine
 10
34.57135351215502
 20
12.46372108347405
 30
-4.390664891206664
 11
18.5713681644753
 21
12.46372108347406
 31
-4.390664891206664
  0
LINE
  5
253
330
1E
100
AcDbEntity
  8
HINGE
100
AcDbLine
 10
18.57137077436741
 20
12.27722108347407
 30
-4.390664891206663
 11
34.57135090226291
 21
12.27722108347405
 31
-4.390664891206663
  0
LINE
  5
254
330
1E
100
AcDbEntity
  8
MON
100
AcDbLine
 10
17.86886853924084
 20
12.21772108347397
 30
-4.390664891206665
 11
35.27485313738945
 21
12.21772108347407
 31
-4.390664891206665
  0
LINE
  5
255
330
1E
100
AcDbEntity
  8
MON-HID
100
AcDbLine
 10
35.07085313738947
 20
9.717721083473971
 30
-4.390664891206665
 11
18.07185313738947
 21
9.717721083473971
 31
-4.390664891206665
  0
LINE
  5
256
330
1E
100
AcDbEntity
  8
MON-HID
100
AcDbLine
 10
17.82185313738947
 20
9.280721083473974
 30
-4.390664891206665
 11
35.32145313738946
 21
9.280721083473974
 31
-4.390664891206665
  0
LINE
  5
257
330
1E
100
AcDbEntity
  8
MON
100
AcDbLine
 10
35.38385313738945
 20
9.217721083473971
 30
-4.390664891206665
 11
17.75885313738945
 21
9.217721083473971
 31
-4.390664891206665
  0
LINE
  5
258
330
1E
100
AcDbEntity
  8
KEY-HID
100
AcDbLine
 10
17.14935313738949
 20
10.42072108347397
 30
-4.390664891206664
 11
35.99335313738948
 21
10.42072108347397
 31
-4.390664891206664
  0
LINE
  5
259
330
1E
100
AcDbEntity
  8
KEY-HID
100
AcDbLine
 10
17.14935313738947
 20
9.941625629044462
 30
-4.390664891206665
 11
35.99335313738948
 21
9.941625629044462
 31
-4.390664891206665
  0
LINE
  5
25A
330
1E
100
AcDbEntity
  8
KEY-HID
100
AcDbLine
 10
17.11835313738948
 20
9.264721083473968
 30
-4.390664891206665
 11
36.02435313738946
 21
9.264721083473975
 31
-4.390664891206665
  0
DIMENSION
  5
25B
330
1E
100
AcDbEntity
  8
DIM
100
AcDbDimension
  2
*D18
 10
35.74335313738948
 20
27.28142647285265
 30
-0.0000000000000027
 11
26.57135313738947
 21
27.28142647285265
 31
-0.0000000000000027
 12
-96.24919723264284
 22
2.946331731409387
 32
-0.0000000000000027
 71
     5
 42
-1.0
  3
23NSTD
100
AcDbAlignedDimension
 13
17.39935313738946
 23
23.81172108347397
 33
-4.390664891206664
 14
35.74335313738948
 24
23.81172108347397
 34
-4.390664891206664
100
AcDbRotatedDimension
  0
LINE
  5
25C
330
1E
100
AcDbEntity
  8
KEY
100
AcDbLine
 10
17.07135313738947
 20
9.217721083473971
 30
-4.390664891206664
 11
36.07135313738945
 21
9.217721083473971
 31
-4.390664891206664
  0
LINE
  5
25D
330
1E
100
AcDbEntity
  8
KEY
100
AcDbLine
 10
35.99335313738948
 20
9.967721083473943
 30
-4.390664891206665
 11
17.14935313738947
 21
9.967721083473943
 31
-4.390664891206665
  0
LINE
  5
25E
330
1E
100
AcDbEntity
  8
KEY
100
AcDbLine
 10
35.99335313738948
 20
10.46772108347396
 30
-4.390664891206665
 11
17.14935313738947
 21
10.46772108347396
 31
-4.390664891206665
  0
LINE
  5
25F
330
1E
100
AcDbEntity
  8
MON-HID
100
AcDbLine
 10
17.75885313738945
 20
9.217721083473971
 30
-4.390664891206665
 11
17.75885313738945
 21
24.93572108347397
 31
-4.390664891206665
  0
LINE
  5
260
330
1E
100
AcDbEntity
  8
MON
100
AcDbLine
 10
17.07135313738947
 20
9.327221083473968
 30
-4.390664891206664
 11
17.07135313738946
 21
24.93572108347397
 31
-4.390664891206664
  0
LINE
  5
261
330
1E
100
AcDbEntity
  8
MON
100
AcDbLine
 10
17.82185313738947
 20
12.21772108347397
 30
-4.390664891206665
 11
17.82185313738947
 21
24.93572108347397
 31
-4.390664891206665
  0
LINE
  5
262
330
1E
100
AcDbEntity
  8
MON-HID
100
AcDbLine
 10
17.82185313738947
 20
9.327221083473983
 30
-4.390664891206665
 11
17.07135313738947
 21
9.327221083473968
 31
-4.390664891206664
  0
LINE
  5
263
330
1E
100
AcDbEntity
  8
KEY
100
AcDbLine
 10
17.16535313738946
 20
9.436721083473965
 30
-4.390664891206665
 11
17.16535313738948
 21
11.99272108347397
 31
-4.390664891206665
  0
LINE
  5
264
330
1E
100
AcDbEntity
  8
KEY
100
AcDbLine
 10
17.14935313738947
 20
10.46772108347396
 30
-4.390664891206665
 11
17.14935313738947
 21
9.217721083473971
 31
-4.390664891206665
  0
LINE
  5
265
330
1E
100
AcDbEntity
  8
KEY
100
AcDbLine
 10
17.07135313738947
 20
9.217721083473971
 30
-4.390664891206664
 11
17.07135313738947
 21
12.21772108347397
 31
-4.390664891206664
  0
LINE
  5
266
330
1E
100
AcDbEntity
  8
KEY
100
AcDbLine
 10
17.11835313738948
 20
9.264721083473968
 30
-4.390664891206665
 11
17.11835313738948
 21
12.21772108347397
 31
-4.390664891206664
  0
LINE
  5
267
330
1E
100
AcDbEntity
  8
KEY
100
AcDbLine
 10
17.16535313738946
 20
9.436721083473965
 30
-4.390664891206665
 11
17.11835313738945
 21
9.436721083473965
 31
-4.390664891206665
  0
LINE
  5
268
330
1E
100
AcDbEntity
  8
KEY
100
AcDbLine
 10
17.11835313738948
 20
11.99272108347397
 30
-4.390664891206665
 11
17.16535313738948
 21
11.99272108347397
 31
-4.390664891206665
  0
LINE
  5
269
330
1E
100
AcDbEntity
  8
KEY
100
AcDbLine
 10
17.16535313738948
 20
11.71772108347397
 30
-4.390664891206665
 11
17.16535313738948
 21
12.21772108347397
 31
-4.390664891206665
  0
LINE
  5
26A
330
1E
100
AcDbEntity
  8
KEY
100
AcDbLine
 10
17.07135313738947
 20
12.21772108347397
 30
-4.390664891206664
 11
17.11835313738948
 21
12.21772108347397
 31
-4.390664891206664
  0
LINE
  5
26B
330
1E
100
AcDbEntity
  8
MON-HID
100
AcDbLine
 10
17.86886853924084
 20
12.21772108347397
 30
-4.390664891206662
 11
17.86886853924082
 21
9.217721083473971
 31
-4.390664891206662
  0
LINE
  5
26C
330
1E
100
AcDbEntity
  8
MON-HID
100
AcDbLine
 10
17.82185313738947
 20
12.21772108347397
 30
-4.390664891206665
 11
17.82185313738947
 21
9.280721083473974
 31
-4.390664891206665
  0
LINE
  5
26D
330
1E
100
AcDbEntity
  8
MON-HID
100
AcDbLine
 10
17.94685313738944
 20
9.592721083473943
 30
-4.390664891206665
 11
17.94685313738944
 21
9.217721083473971
 31
-4.390664891206665
  0
LINE
  5
26E
330
1E
100
AcDbEntity
  8
KEY
100
AcDbLine
 10
18.04785313738947
 20
10.42072108347397
 30
-4.390664891206664
 11
18.04785313738947
 21
10.46772108347396
 31
-4.390664891206664
  0
LINE
  5
26F
330
1E
100
AcDbEntity
  8
MON-HID
100
AcDbLine
 10
18.07185313738947
 20
9.717721083473971
 30
-4.390664891206665
 11
17.94685313738947
 21
9.592721083473971
 31
-4.390664891206665
  0
LINE
  5
270
330
1E
100
AcDbEntity
  8
KEY
100
AcDbLine
 10
18.57885313738948
 20
10.42072108347397
 30
-4.390664891206664
 11
18.57885313738948
 21
10.46772108347396
 31
-4.390664891206664
  0
LINE
  5
271
330
1E
100
AcDbEntity
  8
HINGE
100
AcDbLine
 10
18.5713716162681
 20
12.21772108347407
 30
-4.390664891206663
 11
18.5713681644753
 21
12.46372108347406
 31
-4.390664891206663
  0
LINE
  5
272
330
1E
100
AcDbEntity
  8
HINGE
100
AcDbLine
 10
19.0713716162681
 20
12.27722108347405
 30
-4.390664891206663
 11
19.07136816447531
 21
12.46372108347406
 31
-4.390664891206663
  0
LINE
  5
273
330
1E
100
AcDbEntity
  8
HINGE
100
AcDbLine
 10
19.5713716162681
 20
12.27722108347405
 30
-4.390664891206663
 11
19.57136816447531
 21
12.46372108347406
 31
-4.390664891206663
  0
LINE
  5
274
330
1E
100
AcDbEntity
  8
HINGE
100
AcDbLine
 10
20.0713716162681
 20
12.27722108347405
 30
-4.390664891206663
 11
20.0713681644753
 21
12.46372108347406
 31
-4.390664891206663
  0
LINE
  5
275
330
1E
100
AcDbEntity
  8
HINGE
100
AcDbLine
 10
20.5713716162681
 20
12.27722108347405
 30
-4.390664891206663
 11
20.57136816447531
 21
12.46372108347406
 31
-4.390664891206663
  0
LINE
  5
276
330
1E
100
AcDbEntity
  8
HINGE
100
AcDbLine
 10
21.0713716162681
 20
12.27722108347405
 30
-4.390664891206663
 11
21.07136816447531
 21
12.46372108347406
 31
-4.390664891206663
  0
LINE
  5
277
330
1E
100
AcDbEntity
  8
CENTER
100
AcDbLine
 10
17.03935313738944
 20
14.70172108347398
 30
-4.390664891206664
 11
17.75935313738944
 21
14.70172108347398
 31
-4.390664891206664
  0
LWPOLYLINE
  5
278
330
1E
100
AcDbEntity
  8
MON
100
AcDbPolyline
 90
        4
 70
     1
 43
0.0
 38
-4.390664891206664
 10
17.47735313738943
 20
14.56122108347397
 10
17.32135313738945
 20
14.56122108347397
 42
-1.0
 10
17.32135313738945
 20
14.84222108347399
 10
17.47735313738943
 20
14.84222108347399
 42
-1.0
  0
LINE
  5
27E
330
1E
100
AcDbEntity
  8
CENTER
100
AcDbLine
 10
17.39935313738946
 20
15.06172108347398
 30
-4.390664891206664
 11
17.39935313738946
 21
14.34172108347398
 31
-4.390664891206664
  0
LINE
  5
27F
330
1E
100
AcDbEntity
  8
HINGE
100
AcDbLine
 10
21.5713716162681
 20
12.27722108347405
 30
-4.390664891206663
 11
21.5713681644753
 21
12.46372108347406
 31
-4.390664891206663
  0
LINE
  5
280
330
1E
100
AcDbEntity
  8
HINGE
100
AcDbLine
 10
22.0713716162681
 20
12.27722108347405
 30
-4.390664891206663
 11
22.07136816447531
 21
12.46372108347406
 31
-4.390664891206663
  0
LINE
  5
281
330
1E
100
AcDbEntity
  8
HINGE
100
AcDbLine
 10
22.5713716162681
 20
12.27722108347405
 30
-4.390664891206663
 11
22.5713681644753
 21
12.46372108347406
 31
-4.390664891206663
  0
LINE
  5
282
330
1E
100
AcDbEntity
  8
HINGE
100
AcDbLine
 10
23.0713716162681
 20
12.27722108347405
 30
-4.390664891206663
 11
23.07136816447531
 21
12.46372108347406
 31
-4.390664891206663
  0
LINE
  5
283
330
1E
100
AcDbEntity
  8
HINGE
100
AcDbLine
 10
23.5713716162681
 20
12.27722108347405
 30
-4.390664891206663
 11
23.57136816447531
 21
12.46372108347406
 31
-4.390664891206663
  0
LINE
  5
284
330
1E
100
AcDbEntity
  8
HINGE
100
AcDbLine
 10
24.0713716162681
 20
12.27722108347405
 30
-4.390664891206663
 11
24.07136816447531
 21
12.46372108347406
 31
-4.390664891206663
  0
LINE
  5
285
330
1E
100
AcDbEntity
  8
HINGE
100
AcDbLine
 10
24.5713716162681
 20
12.27722108347405
 30
-4.390664891206663
 11
24.57136816447531
 21
12.46372108347406
 31
-4.390664891206663
  0
LINE
  5
286
330
1E
100
AcDbEntity
  8
HINGE
100
AcDbLine
 10
25.0713716162681
 20
12.27722108347405
 30
-4.390664891206663
 11
25.0713681644753
 21
12.46372108347406
 31
-4.390664891206663
  0
LINE
  5
287
330
1E
100
AcDbEntity
  8
HINGE
100
AcDbLine
 10
25.5713716162681
 20
12.27722108347405
 30
-4.390664891206663
 11
25.57136816447531
 21
12.46372108347406
 31
-4.390664891206663
  0
LINE
  5
288
330
1E
100
AcDbEntity
  8
HINGE
100
AcDbLine
 10
26.0713716162681
 20
12.27722108347405
 30
-4.390664891206663
 11
26.07136816447531
 21
12.46372108347406
 31
-4.390664891206663
  0
LINE
  5
289
330
1E
100
AcDbEntity
  8
HINGE
100
AcDbLine
 10
26.5713716162681
 20
12.27722108347405
 30
-4.390664891206663
 11
26.57136816447531
 21
12.46372108347406
 31
-4.390664891206663
  0
LINE
  5
28A
330
1E
100
AcDbEntity
  8
HINGE
100
AcDbLine
 10
27.0713716162681
 20
12.27722108347405
 30
-4.390664891206663
 11
27.07136816447531
 21
12.46372108347406
 31
-4.390664891206663
  0
LINE
  5
28B
330
1E
100
AcDbEntity
  8
HINGE
100
AcDbLine
 10
27.5713716162681
 20
12.27722108347405
 30
-4.390664891206663
 11
27.5713681644753
 21
12.46372108347406
 31
-4.390664891206663
  0
LINE
  5
28C
330
1E
100
AcDbEntity
  8
HINGE
100
AcDbLine
 10
28.0713716162681
 20
12.27722108347405
 30
-4.390664891206663
 11
28.07136816447531
 21
12.46372108347406
 31
-4.390664891206663
  0
LINE
  5
28D
330
1E
100
AcDbEntity
  8
HIDDEN
100
AcDbLine
 10
17.88190259135664
 20
23.30391386870708
 30
-13.17232978241333
 11
17.75885313738948
 21
23.30391386870708
 31
-13.17232978241333
  0
LINE
  5
28E
330
1E
100
AcDbEntity
  8
HIDDEN
100
AcDbLine
 10
17.88190259135664
 20
23.14841386870706
 30
-13.17232978241333
 11
17.75885313738948
 21
23.14841386870706
 31
-13.17232978241333
  0
LWPOLYLINE
  5
28F
330
1E
100
AcDbEntity
  8
BRACKET
100
AcDbPolyline
 90
        4
 70
     1
 43
0.0
 38
-4.390664891206665
 10
18.17635313738947
 20
23.86465348404152
 10
18.46735313738948
 20
23.86465348404152
 10
18.46735313738947
 20
23.5758225539139
 10
18.17635313738947
 20
23.5758225539139
  0
LWPOLYLINE
  5
295
330
1E
100
AcDbEntity
  8
BRACKET
100
AcDbPolyline
 90
        8
 70
     0
 43
0.0
 38
-4.390664891206665
 10
17.82185313738947
 20
23.09989667420187
 10
18.69685313738947
 20
23.09989667420187
 42
0.4142135623730951
 10
18.82185313738947
 20
23.22489667420188
 10
18.82185313738947
 20
24.21557936375352
 42
0.4142135623730951
 10
18.69685313738947
 20
24.34057936375352
 10
17.82185313738947
 20
24.34057936375352
 10
17.82185313738947
 20
22.94755999494545
 10
17.85285313738948
 20
22.94755999494545
  0
LINE
  5
29F
330
1E
100
AcDbEntity
  8
BRACKET
  6
HIDDEN2
100
AcDbLine
 10
17.85285313738948
 20
22.94755999494545
 30
-4.390664891206665
 11
17.85285313738948
 21
24.34057936375352
 31
-4.390664891206665
  0
LINE
  5
2A0
330
1E
100
AcDbEntity
  8
CENTER
100
AcDbLine
 10
17.39935313738946
 20
23.81172108347397
 30
-4.390664891206664
 11
17.39935313738946
 21
23.09172108347397
 31
-4.390664891206664
  0
LINE
  5
2A1
330
1E
100
AcDbEntity
  8
CENTER
100
AcDbLine
 10
17.03935313738944
 20
23.45172108347397
 30
-4.390664891206664
 11
17.75935313738944
 21
23.45172108347397
 31
-4.390664891206664
  0
LINE
  5
2A2
330
1E
100
AcDbEntity
  8
CENTER
100
AcDbLine
 10
17.03935313738944
 20
19.45172108347397
 30
-4.390664891206664
 11
17.75935313738944
 21
19.45172108347397
 31
-4.390664891206664
  0
LWPOLYLINE
  5
2A3
330
1E
100
AcDbEntity
  8
MON
100
AcDbPolyline
 90
        4
 70
     1
 43
0.0
 38
-4.390664891206664
 10
17.47735313738943
 20
19.31122108347397
 10
17.32135313738945
 20
19.31122108347397
 42
-1.0
 10
17.32135313738945
 20
19.59222108347399
 10
17.47735313738943
 20
19.59222108347399
 42
-1.0
  0
LINE
  5
2A9
330
1E
100
AcDbEntity
  8
CENTER
100
AcDbLine
 10
17.39935313738946
 20
19.81172108347397
 30
-4.390664891206664
 11
17.39935313738946
 21
19.09172108347397
 31
-4.390664891206664
  0
LWPOLYLINE
  5
2AA
330
1E
100
AcDbEntity
  8
MON
100
AcDbPolyline
 90
        4
 70
     1
 43
0.0
 38
-4.390664891206664
 10
17.47735313738943
 20
23.31122108347397
 10
17.32135313738945
 20
23.31122108347397
 42
-1.0
 10
17.32135313738945
 20
23.59222108347399
 10
17.47735313738943
 20
23.59222108347399
 42
-1.0
  0
LINE
  5
2B0
330
1E
100
AcDbEntity
  8
BRACKET
100
AcDbLine
 10
17.82185313738947
 20
23.13216386870707
 30
-0.0000000000000018
 11
17.85285313738948
 21
23.13216386870707
 31
-4.390664891206665
  0
LINE
  5
2B1
330
1E
100
AcDbEntity
  8
BRACKET
100
AcDbLine
 10
17.82185313738947
 20
23.32016386870706
 30
-0.0000000000000018
 11
17.85285313738948
 21
23.32016386870707
 31
-4.390664891206665
  0
LINE
  5
2B2
330
1E
100
AcDbEntity
  8
MON-HID
100
AcDbLine
 10
17.75890259135665
 20
23.30616386870708
 30
-4.390664891206665
 11
17.82185313738947
 21
23.30616386870708
 31
-0.0000000000000044
  0
LINE
  5
2B3
330
1E
100
AcDbEntity
  8
MON-HID
100
AcDbLine
 10
17.75890259135665
 20
23.14616386870707
 30
-4.390664891206665
 11
17.82185313738947
 21
23.14616386870707
 31
-0.0000000000000044
  0
LINE
  5
2B4
330
1E
100
AcDbEntity
  8
MON
100
AcDbLine
 10
17.07135313738946
 20
24.93572108347397
 30
-4.390664891206665
 11
17.82185313738947
 21
24.93572108347397
 31
-4.390664891206665
  0
DIMENSION
  5
2B5
330
1E
100
AcDbEntity
  8
DIM
100
AcDbDimension
  2
*D17
 10
14.05934969988586
 20
24.93572108347397
 30
-0.0000000000000027
 11
14.05934969988586
 21
17.07672108347397
 31
-0.0000000000000027
 12
-96.24919723264284
 22
2.946331731409387
 32
-0.0000000000000027
  1
<>
 71
     5
 42
-1.0
  3
23NSTD
100
AcDbAlignedDimension
 13
17.07135313738947
 23
9.217721083473971
 33
-4.390664891206664
 14
17.07135313738948
 24
24.93572108347397
 34
-4.390664891206665
 50
270.0
100
AcDbRotatedDimension
  0
LINE
  5
2B6
330
1E
100
AcDbEntity
  8
MON-HID
100
AcDbLine
 10
35.38385313738945
 20
24.93572108347397
 30
-4.390664891206665
 11
35.38385313738945
 21
9.217721083473971
 31
-4.390664891206665
  0
LINE
  5
2B7
330
1E
100
AcDbEntity
  8
MON
100
AcDbLine
 10
36.07135313738945
 20
9.327221083473954
 30
-4.390664891206664
 11
36.07135313738945
 21
24.93572108347397
 31
-4.390664891206665
  0
LINE
  5
2B8
330
1E
100
AcDbEntity
  8
MON
100
AcDbLine
 10
35.32145313738946
 20
24.93572108347397
 30
-4.390664891206665
 11
35.32145313738943
 21
12.21772108347407
 31
-4.390664891206665
  0
DIMENSION
  5
2B9
330
1E
100
AcDbEntity
  8
DIM
100
AcDbDimension
  2
*D20
 10
39.32212103919966
 20
14.70172108347398
 30
-0.0000000000000027
 11
39.32212103919966
 21
17.07672108347397
 31
-0.0000000000000027
 12
-96.24919723264284
 22
2.946331731409387
 32
-0.0000000000000027
  1
<>
 71
     5
 42
-1.0
  3
23NSTDI
100
AcDbAlignedDimension
 13
36.10335313738946
 23
19.45172108347397
 33
-4.390664891206664
 14
36.10335313738946
 24
14.70172108347398
 34
-4.390664891206664
 50
90.0
100
AcDbRotatedDimension
  0
LINE
  5
2BA
330
1E
100
AcDbEntity
  8
MON-HID
100
AcDbLine
 10
36.07135313738945
 20
9.327221083473954
 30
-4.390664891206665
 11
35.32145313738946
 21
9.327221083473954
 31
-4.390664891206665
  0
LWPOLYLINE
  5
2BB
330
1E
100
AcDbEntity
  8
MON
100
AcDbPolyline
 90
        4
 70
     1
 43
0.0
 38
-4.390664891206664
 10
35.66535313738948
 20
14.56122108347397
 10
35.82135313738946
 20
14.56122108347397
 42
1.0
 10
35.82135313738946
 20
14.84222108347399
 10
35.66535313738948
 20
14.84222108347399
 42
1.0
  0
LINE
  5
2C1
330
1E
100
AcDbEntity
  8
CENTER
100
AcDbLine
 10
36.10335313738946
 20
14.70172108347398
 30
-4.390664891206664
 11
35.38335313738947
 21
14.70172108347398
 31
-4.390664891206664
  0
LINE
  5
2C2
330
1E
100
AcDbEntity
  8
HINGE
100
AcDbLine
 10
28.5713716162681
 20
12.27722108347405
 30
-4.390664891206663
 11
28.5713681644753
 21
12.46372108347406
 31
-4.390664891206663
  0
LINE
  5
2C3
330
1E
100
AcDbEntity
  8
HINGE
100
AcDbLine
 10
29.0713716162681
 20
12.27722108347405
 30
-4.390664891206663
 11
29.07136816447531
 21
12.46372108347406
 31
-4.390664891206663
  0
LINE
  5
2C4
330
1E
100
AcDbEntity
  8
HINGE
100
AcDbLine
 10
29.5713716162681
 20
12.27722108347405
 30
-4.390664891206663
 11
29.57136816447531
 21
12.46372108347406
 31
-4.390664891206663
  0
LINE
  5
2C5
330
1E
100
AcDbEntity
  8
HINGE
100
AcDbLine
 10
30.0713716162681
 20
12.27722108347405
 30
-4.390664891206663
 11
30.0713681644753
 21
12.46372108347406
 31
-4.390664891206663
  0
LINE
  5
2C6
330
1E
100
AcDbEntity
  8
HINGE
100
AcDbLine
 10
30.5713716162681
 20
12.27722108347405
 30
-4.390664891206663
 11
30.57136816447531
 21
12.46372108347406
 31
-4.390664891206663
  0
LINE
  5
2C7
330
1E
100
AcDbEntity
  8
HINGE
100
AcDbLine
 10
31.0713716162681
 20
12.27722108347405
 30
-4.390664891206663
 11
31.07136816447531
 21
12.46372108347406
 31
-4.390664891206663
  0
LINE
  5
2C8
330
1E
100
AcDbEntity
  8
HINGE
100
AcDbLine
 10
31.5713716162681
 20
12.27722108347405
 30
-4.390664891206663
 11
31.57136816447531
 21
12.46372108347406
 31
-4.390664891206663
  0
LINE
  5
2C9
330
1E
100
AcDbEntity
  8
HINGE
100
AcDbLine
 10
32.0713716162681
 20
12.27722108347405
 30
-4.390664891206663
 11
32.07136816447531
 21
12.46372108347406
 31
-4.390664891206663
  0
LINE
  5
2CA
330
1E
100
AcDbEntity
  8
MON-HID
100
AcDbLine
 10
35.27485313738945
 20
12.21772108347395
 30
-4.390664891206662
 11
35.27485313738945
 21
9.217721083473971
 31
-4.390664891206662
  0
LINE
  5
2CB
330
1E
100
AcDbEntity
  8
MON-HID
100
AcDbLine
 10
35.32145313738943
 20
12.21772108347407
 30
-4.390664891206665
 11
35.32145313738946
 21
9.280721083473974
 31
-4.390664891206665
  0
LINE
  5
2CC
330
1E
100
AcDbEntity
  8
MON-HID
100
AcDbLine
 10
35.19585313738947
 20
9.592721083473971
 30
-4.390664891206665
 11
35.19585313738947
 21
9.217721083473971
 31
-4.390664891206665
  0
LINE
  5
2CD
330
1E
100
AcDbEntity
  8
HINGE
100
AcDbLine
 10
32.5713716162681
 20
12.27722108347405
 30
-4.390664891206663
 11
32.5713681644753
 21
12.46372108347406
 31
-4.390664891206663
  0
LINE
  5
2CE
330
1E
100
AcDbEntity
  8
HINGE
100
AcDbLine
 10
33.0713716162681
 20
12.27722108347405
 30
-4.390664891206663
 11
33.07136816447531
 21
12.46372108347406
 31
-4.390664891206663
  0
LINE
  5
2CF
330
1E
100
AcDbEntity
  8
HINGE
100
AcDbLine
 10
33.5713716162681
 20
12.27722108347405
 30
-4.390664891206663
 11
33.57136816447531
 21
12.46372108347406
 31
-4.390664891206663
  0
LINE
  5
2D0
330
1E
100
AcDbEntity
  8
MON-HID
100
AcDbLine
 10
35.07085313738947
 20
9.717721083473971
 30
-4.390664891206665
 11
35.19585313738947
 21
9.592721083473971
 31
-4.390664891206665
  0
LINE
  5
2D1
330
1E
100
AcDbEntity
  8
HINGE
100
AcDbLine
 10
34.57135006036223
 20
12.21772108347405
 30
-4.390664891206662
 11
34.57135351215502
 21
12.46372108347405
 31
-4.390664891206662
  0
LINE
  5
2D2
330
1E
100
AcDbEntity
  8
HINGE
100
AcDbLine
 10
34.0713716162681
 20
12.27722108347405
 30
-4.390664891206663
 11
34.07136816447531
 21
12.46372108347406
 31
-4.390664891206663
  0
LINE
  5
2D3
330
1E
100
AcDbEntity
  8
KEY
100
AcDbLine
 10
35.97735313738946
 20
9.436721083473965
 30
-4.390664891206666
 11
35.97735313738946
 21
11.99272108347396
 31
-4.390664891206666
  0
LINE
  5
2D4
330
1E
100
AcDbEntity
  8
KEY
100
AcDbLine
 10
35.99335313738948
 20
10.46772108347396
 30
-4.390664891206665
 11
35.99335313738948
 21
9.217721083473971
 31
-4.390664891206665
  0
LINE
  5
2D5
330
1E
100
AcDbEntity
  8
KEY
100
AcDbLine
 10
36.07135313738945
 20
9.217721083473971
 30
-4.390664891206665
 11
36.07135313738945
 21
12.21772108347397
 31
-4.390664891206665
  0
LINE
  5
2D6
330
1E
100
AcDbEntity
  8
KEY
100
AcDbLine
 10
36.02435313738949
 20
12.21772108347397
 30
-4.390664891206665
 11
36.02435313738946
 21
9.264721083473975
 31
-4.390664891206665
  0
LINE
  5
2D7
330
1E
100
AcDbEntity
  8
KEY
100
AcDbLine
 10
36.02435313738946
 20
9.436721083473965
 30
-4.390664891206666
 11
35.97735313738946
 21
9.436721083473965
 31
-4.390664891206666
  0
LINE
  5
2D8
330
1E
100
AcDbEntity
  8
KEY
100
AcDbLine
 10
36.02435313738949
 20
12.21772108347397
 30
-4.390664891206664
 11
36.07135313738945
 21
12.21772108347397
 31
-4.390664891206664
  0
LINE
  5
2D9
330
1E
100
AcDbEntity
  8
KEY
100
AcDbLine
 10
35.97735313738946
 20
11.99272108347396
 30
-4.390664891206666
 11
36.02435313738946
 21
11.99272108347396
 31
-4.390664891206666
  0
LINE
  5
2DA
330
1E
100
AcDbEntity
  8
KEY
100
AcDbLine
 10
35.97735313738946
 20
12.21772108347397
 30
-4.390664891206664
 11
35.97735313738946
 21
11.71772108347397
 31
-4.390664891206664
  0
LINE
  5
2DB
330
1E
100
AcDbEntity
  8
CENTER
100
AcDbLine
 10
35.74335313738948
 20
15.06172108347398
 30
-4.390664891206664
 11
35.74335313738948
 21
14.34172108347398
 31
-4.390664891206664
  0
LWPOLYLINE
  5
2DC
330
1E
100
AcDbEntity
  8
MON
100
AcDbPolyline
 90
        4
 70
     1
 43
0.0
 38
-4.390664891206664
 10
35.66535313738948
 20
23.31122108347397
 10
35.82135313738946
 20
23.31122108347397
 42
1.0
 10
35.82135313738946
 20
23.59222108347399
 10
35.66535313738948
 20
23.59222108347399
 42
1.0
  0
LINE
  5
2E2
330
1E
100
AcDbEntity
  8
CENTER
100
AcDbLine
 10
36.10335313738946
 20
23.45172108347397
 30
-4.390664891206664
 11
35.38335313738947
 21
23.45172108347397
 31
-4.390664891206664
  0
LWPOLYLINE
  5
2E3
330
1E
100
AcDbEntity
  8
MON
100
AcDbPolyline
 90
        4
 70
     1
 43
0.0
 38
-4.390664891206664
 10
35.66535313738948
 20
19.31122108347397
 10
35.82135313738946
 20
19.31122108347397
 42
1.0
 10
35.82135313738946
 20
19.59222108347399
 10
35.66535313738948
 20
19.59222108347399
 42
1.0
  0
LINE
  5
2E9
330
1E
100
AcDbEntity
  8
CENTER
100
AcDbLine
 10
36.10335313738946
 20
19.45172108347397
 30
-4.390664891206664
 11
35.38335313738947
 21
19.45172108347397
 31
-4.390664891206664
  0
LINE
  5
2EA
330
1E
100
AcDbEntity
  8
MON
100
AcDbLine
 10
35.32145313738946
 20
24.93572108347397
 30
-4.390664891206665
 11
36.07135313738945
 21
24.93572108347397
 31
-4.390664891206665
  0
DIMENSION
  5
2EB
330
1E
100
AcDbEntity
  8
DIM
100
AcDbDimension
  2
*D22
 10
47.22386479304044
 20
24.93572108347397
 30
-0.0000000000000027
 11
47.22386479304044
 21
24.19372108347397
 31
-0.0000000000000027
 12
-96.24919723264284
 22
2.946331731409387
 32
-0.0000000000000027
  1
<>
 71
     5
 42
-1.0
  3
23NSTDI
100
AcDbAlignedDimension
 13
36.10335313738946
 23
23.45172108347397
 33
-4.390664891206664
 14
36.07135313738945
 24
24.93572108347397
 34
-4.390664891206665
 50
90.0
100
AcDbRotatedDimension
  0
LINE
  5
2EC
330
1E
100
AcDbEntity
  8
CENTER
100
AcDbLine
 10
35.74335313738948
 20
23.81172108347397
 30
-4.390664891206664
 11
35.74335313738948
 21
23.09172108347397
 31
-4.390664891206664
  0
DIMENSION
  5
2ED
330
1E
100
AcDbEntity
  8
DIM
100
AcDbDimension
  2
*D21
 10
42.8680168891134
 20
23.45172108347397
 30
-0.0000000000000027
 11
42.8680168891134
 21
21.45172108347397
 31
-0.0000000000000027
 12
-96.24919723264284
 22
2.946331731409387
 32
-0.0000000000000027
  1
<>
 71
     5
 42
-1.0
  3
23NSTDI
100
AcDbAlignedDimension
 13
36.10335313738946
 23
19.45172108347397
 33
-4.390664891206664
 14
36.10335313738946
 24
23.45172108347397
 34
-4.390664891206664
 50
90.0
100
AcDbRotatedDimension
  0
LINE
  5
2EE
330
1E
100
AcDbEntity
  8
CENTER
100
AcDbLine
 10
35.74335313738948
 20
19.81172108347397
 30
-4.390664891206664
 11
35.74335313738948
 21
19.09172108347397
 31
-4.390664891206664
  0
LWPOLYLINE
  5
2EF
330
1E
100
AcDbEntity
  8
HIDDEN
100
AcDbPolyline
 90
        6
 70
     0
 43
0.0
 10
65.00105805624142
 20
9.842721083473985
 10
65.00105805624142
 20
10.295721083474
 42
-0.4142135623730951
 10
65.12605805624142
 20
10.420721083474
 10
65.81405805624143
 20
10.420721083474
 42
-0.4142135623730951
 10
65.93905805624143
 20
10.295721083474
 10
65.93905805624143
 20
9.842721083473985
  0
LWPOLYLINE
  5
2F7
330
1E
100
AcDbEntity
  8
HIDDEN
100
AcDbPolyline
 90
        4
 70
     0
 43
0.0
 10
71.42305805624144
 20
9.217721083473985
 10
71.42305805624144
 20
9.795721083473988
 10
63.51705805624145
 20
9.795721083474003
 10
63.51705805624145
 20
9.217721083473985
  0
LWPOLYLINE
  5
2FD
330
1E
100
AcDbEntity
  8
OBJECT
100
AcDbPolyline
 90
        5
 70
     0
 43
0.0
 10
71.47005805624147
 20
9.217721083473985
 10
71.47005805624147
 20
9.842721083473985
 10
63.47005805624148
 20
9.842721083473985
 10
63.47005805624148
 20
9.217721083473985
 10
71.47005805624147
 20
9.217721083473985
  0
LWPOLYLINE
  5
304
330
1E
100
AcDbEntity
  8
HIDDEN
100
AcDbPolyline
 90
        6
 70
     0
 43
0.0
 10
69.93905805624146
 20
9.842721083473985
 10
69.93905805624144
 20
10.295721083474
 42
0.4142135623730951
 10
69.81405805624143
 20
10.420721083474
 10
69.12605805624142
 20
10.420721083474
 42
0.4142135623730951
 10
69.00105805624142
 20
10.295721083474
 10
69.00105805624142
 20
9.842721083473985
  0
LWPOLYLINE
  5
30C
330
1E
100
AcDbEntity
  8
KEY
100
AcDbPolyline
 90
        5
 70
     0
 43
0.0
 10
68.97005805624147
 20
9.795721083473988
 10
69.97005805624147
 20
9.795721083473988
 10
69.97005805624147
 20
9.920721083473988
 10
68.97005805624147
 20
9.920721083473988
 10
68.97005805624147
 20
9.795721083473988
  0
LWPOLYLINE
  5
313
330
1E
100
AcDbEntity
  8
KEY
100
AcDbPolyline
 90
        5
 70
     0
 43
0.0
 10
64.97005805624147
 20
9.795721083473988
 10
65.97005805624147
 20
9.795721083473988
 10
65.97005805624147
 20
9.920721083473988
 10
64.97005805624147
 20
9.920721083473988
 10
64.97005805624147
 20
9.795721083473988
  0
LWPOLYLINE
  5
31A
330
1E
100
AcDbEntity
  8
KEY
100
AcDbPolyline
 90
        4
 70
     1
 43
0.0
 38
-4.390664891206663
 10
62.7670580562415
 20
59.79021472642849
 10
62.7670580562415
 20
60.30521472642851
 10
63.42305805624148
 20
60.30521472642851
 10
63.42305805624148
 20
59.79021472642849
  0
LWPOLYLINE
  5
320
330
1E
100
AcDbEntity
  8
HIDDEN
100
AcDbPolyline
 90
        4
 70
     0
 43
0.0
 38
-4.390664891206665
 10
74.38905805624139
 20
23.04012786719648
 10
75.14296287595417
 20
22.94755999494545
 10
75.29529955521062
 20
24.1882426844971
 10
74.38905805624139
 20
24.29951514902003
  0
LWPOLYLINE
  5
326
330
1E
100
AcDbEntity
  8
KEY-HID
100
AcDbPolyline
 90
        4
 70
     0
 43
0.0
 38
-4.390664891206665
 10
73.73517988412004
 20
22.7425804179954
 10
73.64188054586574
 20
22.75403613627548
 10
73.70281521756831
 20
23.25030921209613
 10
73.74946488669545
 20
23.24458135295609
  0
LWPOLYLINE
  5
32C
330
1E
100
AcDbEntity
  8
KEY-HID
100
AcDbPolyline
 90
       11
 70
     0
 43
0.0
 38
-4.390664891206665
 10
74.2229748795896
 20
12.35571101271284
 10
74.34484422299473
 20
13.34825716435416
 10
73.84857114717405
 20
13.40919183605674
 10
73.84284328803406
 20
13.36254216692959
 10
74.29246669472755
 20
13.30733535436706
 10
74.18205306960252
 20
12.40808854098002
 10
71.29771395293281
 20
12.76224085291538
 10
72.77915769136578
 20
24.82763187226729
 10
73.45759471033696
 20
24.74433028079263
 10
73.86896167316146
 20
24.21780457896472
 10
73.69620798362743
 20
22.81083868468884
  0
LINE
  5
339
330
1E
100
AcDbEntity
  8
KEY
100
AcDbLine
 10
73.625107180279
 20
24.52992409660229
 30
-4.390664891206665
 11
73.66214368569851
 21
24.55886018594261
 31
-4.390664891206665
  0
LINE
  5
33A
330
1E
100
AcDbEntity
  8
KEY
100
AcDbLine
 10
73.75702078598656
 20
23.30611921435785
 30
-4.390664891206665
 11
73.80367045511372
 21
23.3003913552178
 31
-4.390664891206665
  0
LINE
  5
33B
330
1E
100
AcDbEntity
  8
MON
100
AcDbLine
 10
92.28255805624147
 20
43.04771472642851
 30
-4.390664891206665
 11
74.34505805624147
 21
43.04771472642851
 31
-4.390664891206665
  0
LINE
  5
33C
330
1E
100
AcDbEntity
  8
MON
100
AcDbLine
 10
92.28255805624147
 20
60.54771472642851
 30
-4.390664891206665
 11
92.28255805624147
 21
43.04771472642851
 31
-4.390664891206665
  0
LINE
  5
33D
330
1E
100
AcDbEntity
  8
MON
100
AcDbLine
 10
74.34505805624147
 20
60.54771472642851
 30
-4.390664891206665
 11
92.28255805624147
 21
60.54771472642851
 31
-4.390664891206665
  0
LWPOLYLINE
  5
33E
330
1E
100
AcDbEntity
  8
HIDDEN
100
AcDbPolyline
 90
        4
 70
     0
 43
0.0
 38
-4.39066489120666
 10
71.4230580562415
 20
42.29771472642846
 10
71.4230580562415
 20
34.34471472642846
 10
63.51705805624153
 20
34.34471472642846
 10
63.51705805624153
 20
42.29771472642846
  0
LWPOLYLINE
  5
344
330
1E
100
AcDbEntity
  8
OBJECT
100
AcDbPolyline
 90
       12
 70
     1
 43
0.0
 38
-4.39066489120666
 10
63.47005805624153
 20
34.29771472642846
 10
71.47005805624153
 20
34.29771472642846
 10
71.47005805624153
 20
42.29771472642846
 10
69.93905805624152
 20
42.29771472642846
 10
69.93905805624152
 20
42.39171472642848
 10
69.00105805624153
 20
42.39171472642848
 10
69.00105805624153
 20
42.29771472642846
 10
65.93905805624152
 20
42.29771472642846
 10
65.93905805624152
 20
42.39171472642848
 10
65.00105805624153
 20
42.39171472642848
 10
65.00105805624153
 20
42.29771472642846
 10
63.47005805624153
 20
42.29771472642846
  0
LWPOLYLINE
  5
352
330
1E
100
AcDbEntity
  8
OBJECT
100
AcDbPolyline
 90
        5
 70
     0
 43
0.0
 38
-4.390664891206664
 10
36.07135313738945
 20
9.217721083473971
 10
36.07135313738945
 20
9.842721083473964
 10
44.07135313738948
 20
9.842721083473971
 10
44.07135313738948
 20
9.217721083473971
 10
36.07135313738945
 20
9.217721083473971
  0
LWPOLYLINE
  5
359
330
1E
100
AcDbEntity
  8
HIDDEN
100
AcDbPolyline
 90
       10
 70
     0
 43
0.0
 38
-4.390664891206664
 10
36.07135313738945
 20
9.842721083473964
 10
36.03935313738947
 20
9.842721083473964
 42
-0.4142135623730994
 10
36.02435313738949
 20
9.857721083473965
 10
36.02435313738949
 20
10.42072108347397
 10
35.97735313738949
 20
10.42072108347397
 10
35.97735313738946
 20
9.857721083473972
 42
0.4142135623731138
 10
36.03935313738947
 20
9.795721083473974
 10
36.07135313738945
 20
9.795721083473974
 10
44.02435313738946
 20
9.795721083473981
 10
44.02435313738946
 20
9.217721083473971
  0
LWPOLYLINE
  5
365
330
1E
100
AcDbEntity
  8
KEY
100
AcDbPolyline
 90
        5
 70
     0
 43
0.0
 10
72.96155319473754
 20
21.9559987340775
 10
72.83968385133241
 20
20.96345258243618
 10
72.96375212028758
 20
20.94821891451054
 10
73.08562146369272
 20
21.94076506615186
 10
72.96155319473754
 20
21.9559987340775
  0
LWPOLYLINE
  5
36C
330
1E
100
AcDbEntity
  8
KEY
100
AcDbPolyline
 90
        5
 70
     0
 43
0.0
 10
72.474075821117
 20
17.98581412751222
 10
72.35220647771183
 20
16.99326797587088
 10
72.476274746667
 20
16.97803430794524
 10
72.59814409007216
 20
17.97058045958656
 10
72.474075821117
 20
17.98581412751222
  0
DIMENSION
  5
373
330
1E
100
AcDbEntity
  8
DIM
100
AcDbDimension
  2
*D16
 10
47.22386479304044
 20
9.217721083473971
 30
-0.0000000000000027
 11
44.07605229304045
 21
6.697721083473969
 31
-0.0000000000000027
 12
-84.10521920147671
 22
2.946331731409387
 32
-0.0000000000000027
 71
     5
 42
-1.0
  3
23NSTD
100
AcDbAlignedDimension
 13
44.07135313738948
 23
9.842721083473971
 33
-4.390664891206664
 14
44.07135313738948
 24
9.217721083473971
 34
-4.390664891206664
 50
90.0
100
AcDbRotatedDimension
  0
DIMENSION
  5
374
330
1E
100
AcDbEntity
  8
DIM
100
AcDbDimension
  2
*D4
 10
62.0950580562415
 20
32.01021917204956
 30
-0.0000000000000027
 11
57.7419330562415
 21
32.01021917204956
 31
-0.0000000000000027
 12
-75.92234501515806
 22
3.853723339743439
 32
-0.0000000000000027
 71
     5
 42
-1.0
  3
23NSTD
100
AcDbAlignedDimension
 13
63.47005805624153
 23
34.29771472642846
 33
-4.39066489120666
 14
62.0950580562415
 24
42.29771472642848
 34
-4.390664891206664
100
AcDbRotatedDimension
  0
DIMENSION
  5
375
330
1E
100
AcDbEntity
  8
DIM
100
AcDbDimension
  2
*D5
 10
71.47005805624153
 20
32.01021917204956
 30
-0.0000000000000027
 11
67.47005805624152
 21
32.01021917204956
 31
-0.0000000000000027
 12
-75.92234501515806
 22
3.853723339743439
 32
-0.0000000000000027
 71
     5
 42
-1.0
  3
23NSTD
100
AcDbAlignedDimension
 13
63.47005805624153
 23
34.29771472642846
 33
-4.39066489120666
 14
71.47005805624153
 24
34.29771472642846
 34
-4.39066489120666
100
AcDbRotatedDimension
  0
DIMENSION
  5
376
330
1E
100
AcDbEntity
  8
DIM
100
AcDbDimension
  2
*D19
 10
36.07135313738945
 20
29.61339559212002
 30
-0.0000000000000027
 11
26.57135313738946
 21
29.61339559212002
 31
-0.0000000000000027
 12
-96.24919723264284
 22
2.946331731409387
 32
-0.0000000000000027
 71
     5
 42
-1.0
  3
23NSTD
100
AcDbAlignedDimension
 13
17.07135313738946
 23
24.93572108347397
 33
-4.390664891206664
 14
36.07135313738945
 24
24.93572108347397
 34
-4.390664891206665
100
AcDbRotatedDimension
  0
DIMENSION
  5
377
330
1E
100
AcDbEntity
  8
DIM
100
AcDbDimension
  2
*D6
 10
59.31395091491951
 20
34.29771472642846
 30
-0.0000000000000027
 11
59.31395091491951
 21
38.29771472642847
 31
-0.0000000000000027
 12
-75.92234501515806
 22
3.853723339743439
 32
-0.0000000000000027
 71
     5
 42
-1.0
  3
23NSTD
100
AcDbAlignedDimension
 13
62.0950580562415
 23
42.29771472642848
 33
-4.390664891206664
 14
63.47005805624153
 24
34.29771472642846
 34
-4.39066489120666
 50
90.0
100
AcDbRotatedDimension
  0
LINE
  5
378
330
1E
100
AcDbEntity
  8
TEXT
100
AcDbLine
 10
9.079238648178336
 20
48.74951377467707
 30
0.0
 11
28.63184085576932
 21
48.74951377467707
 31
0.0
  0
TEXT
  5
379
330
1E
100
AcDbEntity
  8
TEXT
100
AcDbText
 10
5.793860345212588
 20
48.76030064931589
 30
0.0
 40
0.8742229126874999
  1
HINGE
 41
0.75
  7
TXT
100
AcDbText
  0
TEXT
  5
37A
330
1E
100
AcDbEntity
  8
TEXT
100
AcDbText
 10
29.16061777522294
 20
48.74951377467707
 30
0.0
 40
0.8742229126874999
  1
SMOOTH BLACK
 41
0.75
  7
TXT
100
AcDbText
  0
TEXT
  5
37B
330
1E
100
AcDbEntity
  8
TEXT
100
AcDbText
 10
6.381361791701765
 20
50.2516358225312
 30
0.0
 40
0.8742229126874999
  1
STRIKE BRACKET & MOUSE PAD
 41
0.75
  7
TXT
100
AcDbText
  0
LWPOLYLINE
  5
37C
330
1E
100
AcDbEntity
  8
KEY
100
AcDbPolyline
 90
        4
 70
     1
 43
0.0
 38
-4.390664891206663
 10
62.7670580562415
 20
43.80521472642848
 10
62.7670580562415
 20
43.29021472642846
 10
63.42305805624148
 20
43.29021472642846
 10
63.42305805624148
 20
43.80521472642848
  0
LINE
  5
382
330
1E
100
AcDbEntity
  8
TEXT
100
AcDbLine
 10
23.49575742070846
 20
50.22226517424374
 30
0.0
 11
28.63184085576932
 21
50.22226517424374
 31
0.0
  0
LINE
  5
383
330
1E
100
AcDbEntity
  8
TEXT
100
AcDbLine
 10
23.04513633927198
 20
60.39649423277505
 30
0.0
 11
28.63184085576932
 21
60.39649423277505
 31
0.0
  0
CIRCLE
  5
384
330
1E
100
AcDbEntity
  8
OBJECT
100
AcDbCircle
 10
75.01662851504065
 20
23.97057348243806
 30
-4.390664891206665
 40
0.156
  0
CIRCLE
  5
385
330
1E
100
AcDbEntity
  8
HIDDEN
100
AcDbCircle
 10
74.92536084030348
 20
23.22616386870707
 30
-4.390664891206666
 40
0.094
  0
CIRCLE
  5
386
330
1E
100
AcDbEntity
  8
MON
100
AcDbCircle
 10
74.92529367389514
 20
23.22616386870707
 30
-4.390664891206665
 40
0.08
  0
CIRCLE
  5
387
330
1E
100
AcDbEntity
  8
OBJECT
100
AcDbCircle
 10
74.92529367389514
 20
23.22616386870707
 30
-4.390664891206665
 40
0.156
  0
CIRCLE
  5
388
330
1E
100
AcDbEntity
  8
HINGE-HID
100
AcDbCircle
 10
73.72012522264984
 20
44.14171164940108
 30
-4.390664891206662
 40
0.094
  0
CIRCLE
  5
389
330
1E
100
AcDbEntity
  8
KEY-HID
100
AcDbCircle
 10
73.72005805624147
 20
44.14171164940108
 30
-4.390664891206661
 40
0.08
  0
CIRCLE
  5
38A
330
1E
100
AcDbEntity
  8
OBJECT
100
AcDbCircle
 10
73.72005805624147
 20
44.14171164940108
 30
-4.390664891206661
 40
0.156
  0
CIRCLE
  5
38B
330
1E
100
AcDbEntity
  8
MON-HID
100
AcDbCircle
 10
74.97005805624147
 20
44.14171164940108
 30
-4.390664891206661
 40
0.08
  0
CIRCLE
  5
38C
330
1E
100
AcDbEntity
  8
HINGE-HID
100
AcDbCircle
 10
74.97012522264984
 20
44.14171164940108
 30
-4.390664891206662
 40
0.094
  0
CIRCLE
  5
38D
330
1E
100
AcDbEntity
  8
OBJECT
100
AcDbCircle
 10
74.97005805624147
 20
44.14171164940108
 30
-4.390664891206661
 40
0.156
  0
CIRCLE
  5
38E
330
1E
100
AcDbEntity
  8
KEY-HID
100
AcDbCircle
 10
73.72005805624147
 20
47.96971164940108
 30
-4.390664891206661
 40
0.08
  0
CIRCLE
  5
38F
330
1E
100
AcDbEntity
  8
HINGE-HID
100
AcDbCircle
 10
73.72012522264984
 20
47.96971164940108
 30
-4.390664891206662
 40
0.094
  0
CIRCLE
  5
390
330
1E
100
AcDbEntity
  8
OBJECT
100
AcDbCircle
 10
73.72005805624147
 20
47.96971164940108
 30
-4.390664891206661
 40
0.156
  0
CIRCLE
  5
391
330
1E
100
AcDbEntity
  8
MON-HID
100
AcDbCircle
 10
74.97005805624147
 20
47.96971164940108
 30
-4.390664891206661
 40
0.08
  0
CIRCLE
  5
392
330
1E
100
AcDbEntity
  8
OBJECT
100
AcDbCircle
 10
74.97005805624147
 20
47.96971164940108
 30
-4.390664891206661
 40
0.156
  0
CIRCLE
  5
393
330
1E
100
AcDbEntity
  8
HINGE-HID
100
AcDbCircle
 10
74.97012522264984
 20
47.96971164940108
 30
-4.390664891206662
 40
0.094
  0
CIRCLE
  5
394
330
1E
100
AcDbEntity
  8
KEY-HID
100
AcDbCircle
 10
73.72005805624147
 20
51.79771164940109
 30
-4.390664891206661
 40
0.08
  0
CIRCLE
  5
395
330
1E
100
AcDbEntity
  8
HINGE-HID
100
AcDbCircle
 10
73.72012522264984
 20
51.79771164940109
 30
-4.390664891206662
 40
0.094
  0
CIRCLE
  5
396
330
1E
100
AcDbEntity
  8
OBJECT
100
AcDbCircle
 10
73.72005805624147
 20
51.79771164940109
 30
-4.390664891206661
 40
0.156
  0
CIRCLE
  5
397
330
1E
100
AcDbEntity
  8
MON-HID
100
AcDbCircle
 10
74.97005805624147
 20
51.79771164940109
 30
-4.390664891206661
 40
0.08
  0
CIRCLE
  5
398
330
1E
100
AcDbEntity
  8
OBJECT
100
AcDbCircle
 10
74.97005805624147
 20
51.79771164940109
 30
-4.390664891206661
 40
0.156
  0
CIRCLE
  5
399
330
1E
100
AcDbEntity
  8
HINGE-HID
100
AcDbCircle
 10
74.97012522264984
 20
51.79771164940109
 30
-4.390664891206662
 40
0.094
  0
CIRCLE
  5
39A
330
1E
100
AcDbEntity
  8
KEY-HID
100
AcDbCircle
 10
73.72005805624147
 20
55.62571164940109
 30
-4.390664891206661
 40
0.08
  0
CIRCLE
  5
39B
330
1E
100
AcDbEntity
  8
HINGE-HID
100
AcDbCircle
 10
73.72012522264984
 20
55.62571164940109
 30
-4.390664891206662
 40
0.094
  0
CIRCLE
  5
39C
330
1E
100
AcDbEntity
  8
OBJECT
100
AcDbCircle
 10
73.72005805624147
 20
55.62571164940109
 30
-4.390664891206661
 40
0.156
  0
CIRCLE
  5
39D
330
1E
100
AcDbEntity
  8
MON-HID
100
AcDbCircle
 10
74.97005805624147
 20
55.62571164940109
 30
-4.390664891206661
 40
0.08
  0
CIRCLE
  5
39E
330
1E
100
AcDbEntity
  8
OBJECT
100
AcDbCircle
 10
74.97005805624147
 20
55.62571164940109
 30
-4.390664891206661
 40
0.156
  0
CIRCLE
  5
39F
330
1E
100
AcDbEntity
  8
HINGE-HID
100
AcDbCircle
 10
74.97012522264984
 20
55.62571164940109
 30
-4.390664891206662
 40
0.094
  0
CIRCLE
  5
3A0
330
1E
100
AcDbEntity
  8
KEY-HID
100
AcDbCircle
 10
73.72005805624147
 20
59.45371164940109
 30
-4.390664891206661
 40
0.08
  0
CIRCLE
  5
3A1
330
1E
100
AcDbEntity
  8
HINGE-HID
100
AcDbCircle
 10
73.72012522264984
 20
59.45371164940109
 30
-4.390664891206662
 40
0.094
  0
CIRCLE
  5
3A2
330
1E
100
AcDbEntity
  8
OBJECT
100
AcDbCircle
 10
73.72005805624147
 20
59.45371164940109
 30
-4.390664891206661
 40
0.156
  0
CIRCLE
  5
3A3
330
1E
100
AcDbEntity
  8
MON-HID
100
AcDbCircle
 10
74.97005805624147
 20
59.45371164940109
 30
-4.390664891206661
 40
0.08
  0
CIRCLE
  5
3A4
330
1E
100
AcDbEntity
  8
OBJECT
100
AcDbCircle
 10
74.97005805624147
 20
59.45371164940109
 30
-4.390664891206661
 40
0.156
  0
CIRCLE
  5
3A5
330
1E
100
AcDbEntity
  8
HINGE-HID
100
AcDbCircle
 10
74.97012522264984
 20
59.45371164940109
 30
-4.390664891206662
 40
0.094
  0
LINE
  5
3A6
330
1E
100
AcDbEntity
  8
BRACKET
100
AcDbLine
 10
17.82185313738947
 20
24.06457348243808
 30
-0.0000000000000018
 11
17.85285313738948
 21
24.06457348243808
 31
-4.390664891206665
  0
LINE
  5
3A7
330
1E
100
AcDbEntity
  8
BRACKET
100
AcDbLine
 10
17.82185313738947
 20
23.87657348243809
 30
-0.0000000000000018
 11
17.85285313738948
 21
23.87657348243809
 31
-4.390664891206665
  0
LINE
  5
3A8
330
1E
100
AcDbEntity
  8
HIDDEN
100
AcDbLine
 10
17.88190259135664
 20
24.0483234824381
 30
-13.17232978241333
 11
17.75885313738948
 21
24.0483234824381
 31
-13.17232978241333
  0
LINE
  5
3A9
330
1E
100
AcDbEntity
  8
MON-HID
100
AcDbLine
 10
17.75890259135665
 20
24.05057348243809
 30
-4.390664891206665
 11
17.82185313738947
 21
24.05057348243809
 31
-0.0000000000000044
  0
LINE
  5
3AA
330
1E
100
AcDbEntity
  8
HIDDEN
100
AcDbLine
 10
17.88190259135664
 20
23.89282348243808
 30
-13.17232978241333
 11
17.75885313738948
 21
23.89282348243808
 31
-13.17232978241333
  0
LINE
  5
3AB
330
1E
100
AcDbEntity
  8
MON-HID
100
AcDbLine
 10
17.75890259135665
 20
23.89057348243807
 30
-4.390664891206665
 11
17.82185313738947
 21
23.89057348243807
 31
-0.0000000000000044
  0
LWPOLYLINE
  5
3AC
330
1E
100
AcDbEntity
  8
HIDDEN
100
AcDbPolyline
 90
        4
 70
     0
 43
0.0
 38
-1.944951473846646
 10
17.75885313738945
 20
23.37416386870706
 42
0.9022512289990288
 10
17.74302124073182
 20
23.37579524688036
 42
0.2082992466076997
 10
17.74302124073182
 20
23.0765324905338
 42
0.9022512289990288
 10
17.75885313738945
 20
23.07816386870707
  0
LWPOLYLINE
  5
3B2
330
1E
100
AcDbEntity
  8
HIDDEN
100
AcDbPolyline
 90
        4
 70
     0
 43
0.0
 38
-1.944951473846646
 10
17.75885313738945
 20
23.82257348243809
 42
-0.9022512289990288
 10
17.74302124073182
 20
23.82094210426479
 42
-0.2082992466076997
 10
17.74302124073182
 20
24.12020486061136
 42
-0.9022512289990288
 10
17.75885313738945
 20
24.11857348243808
  0
LWPOLYLINE
  5
3B8
330
1E
100
AcDbEntity
  8
HIDDEN
100
AcDbPolyline
 90
        4
 70
     0
 43
0.0
 38
-1.944951473846646
 10
35.38385313738951
 20
23.37416386870706
 42
-0.9022512289990288
 10
35.39968503404714
 20
23.37579524688036
 42
-0.2082992466076997
 10
35.39968503404714
 20
23.0765324905338
 42
-0.9022512289990288
 10
35.38385313738951
 20
23.07816386870707
  0
LINE
  5
3BE
330
1E
100
AcDbEntity
  8
BRACKET
  6
HIDDEN2
100
AcDbLine
 10
35.28985313738946
 20
22.94755999494545
 30
-4.390664891206665
 11
35.28985313738946
 21
24.34057936375352
 31
-4.390664891206665
  0
LWPOLYLINE
  5
3BF
330
1E
100
AcDbEntity
  8
BRACKET
100
AcDbPolyline
 90
        8
 70
     0
 43
0.0
 38
-4.390664891206665
 10
35.32085313738947
 20
23.09989667420187
 10
34.44585313738947
 20
23.09989667420187
 42
-0.4142135623730951
 10
34.32085313738947
 20
23.22489667420188
 10
34.32085313738947
 20
24.21557936375352
 42
-0.4142135623730951
 10
34.44585313738947
 20
24.34057936375352
 10
35.32085313738947
 20
24.34057936375352
 10
35.32085313738947
 20
22.94755999494545
 10
35.28985313738946
 20
22.94755999494545
  0
LINE
  5
3C9
330
1E
100
AcDbEntity
  8
HIDDEN
100
AcDbLine
 10
35.2608036834223
 20
23.14841386870706
 30
-13.17232978241333
 11
35.38385313738945
 21
23.14841386870706
 31
-13.17232978241333
  0
LINE
  5
3CA
330
1E
100
AcDbEntity
  8
MON-HID
100
AcDbLine
 10
35.38380368342229
 20
23.14616386870707
 30
-4.390664891206665
 11
35.32085313738947
 21
23.14616386870707
 31
-0.0000000000000044
  0
LINE
  5
3CB
330
1E
100
AcDbEntity
  8
BRACKET
100
AcDbLine
 10
35.32085313738947
 20
23.13216386870707
 30
-0.0000000000000018
 11
35.28985313738946
 21
23.13216386870707
 31
-4.390664891206665
  0
LINE
  5
3CC
330
1E
100
AcDbEntity
  8
HIDDEN
100
AcDbLine
 10
35.2608036834223
 20
23.89282348243808
 30
-13.17232978241333
 11
35.38385313738945
 21
23.89282348243808
 31
-13.17232978241333
  0
LINE
  5
3CD
330
1E
100
AcDbEntity
  8
HIDDEN
100
AcDbLine
 10
35.2608036834223
 20
24.0483234824381
 30
-13.17232978241333
 11
35.38385313738945
 21
24.0483234824381
 31
-13.17232978241333
  0
LINE
  5
3CE
330
1E
100
AcDbEntity
  8
HIDDEN
100
AcDbLine
 10
35.2608036834223
 20
23.30391386870708
 30
-13.17232978241333
 11
35.38385313738945
 21
23.30391386870708
 31
-13.17232978241333
  0
LINE
  5
3CF
330
1E
100
AcDbEntity
  8
MON-HID
100
AcDbLine
 10
35.38380368342229
 20
23.89057348243807
 30
-4.390664891206665
 11
35.32085313738947
 21
23.89057348243807
 31
-0.0000000000000044
  0
LINE
  5
3D0
330
1E
100
AcDbEntity
  8
MON-HID
100
AcDbLine
 10
35.38380368342229
 20
24.05057348243809
 30
-4.390664891206665
 11
35.32085313738947
 21
24.05057348243809
 31
-0.0000000000000044
  0
LINE
  5
3D1
330
1E
100
AcDbEntity
  8
MON-HID
100
AcDbLine
 10
35.38380368342229
 20
23.30616386870708
 30
-4.390664891206665
 11
35.32085313738947
 21
23.30616386870708
 31
-0.0000000000000044
  0
LINE
  5
3D2
330
1E
100
AcDbEntity
  8
BRACKET
100
AcDbLine
 10
35.32085313738947
 20
23.87657348243809
 30
-0.0000000000000018
 11
35.28985313738946
 21
23.87657348243809
 31
-4.390664891206665
  0
LINE
  5
3D3
330
1E
100
AcDbEntity
  8
BRACKET
100
AcDbLine
 10
35.32085313738947
 20
24.06457348243808
 30
-0.0000000000000018
 11
35.28985313738946
 21
24.06457348243808
 31
-4.390664891206665
  0
LINE
  5
3D4
330
1E
100
AcDbEntity
  8
BRACKET
100
AcDbLine
 10
35.32085313738947
 20
23.32016386870706
 30
-0.0000000000000018
 11
35.28985313738946
 21
23.32016386870707
 31
-4.390664891206665
  0
LWPOLYLINE
  5
3D5
330
1E
100
AcDbEntity
  8
BRACKET
100
AcDbPolyline
 90
        4
 70
     1
 43
0.0
 38
-4.390664891206665
 10
34.96635313738949
 20
23.86465348404152
 10
34.67535313738947
 20
23.86465348404152
 10
34.6753531373895
 20
23.5758225539139
 10
34.96635313738949
 20
23.5758225539139
  0
LWPOLYLINE
  5
3DB
330
1E
100
AcDbEntity
  8
HIDDEN
100
AcDbPolyline
 90
        4
 70
     0
 43
0.0
 38
-1.944951473846646
 10
35.38385313738951
 20
23.82257348243809
 42
0.9022512289990288
 10
35.39968503404714
 20
23.82094210426479
 42
0.2082992466076997
 10
35.39968503404714
 20
24.12020486061136
 42
0.9022512289990288
 10
35.38385313738951
 20
24.11857348243808
  0
LWPOLYLINE
  5
3E1
330
1E
100
AcDbEntity
  8
OBJECT
100
AcDbPolyline
 90
        4
 70
     0
 43
0.0
 38
-4.39066489120666
 10
19.06136917725874
 20
12.27722108347408
 42
0.9022512289990288
 10
19.06300055543204
 20
12.2930529801317
 42
0.2082992466076997
 10
18.76373779908546
 20
12.2930529801317
 42
0.9022512289990288
 10
18.76536917725875
 20
12.27722108347408
  0
LINE
  5
3E7
330
1E
100
AcDbEntity
  8
HIDDEN
100
AcDbLine
 10
18.83561917725874
 20
12.15417162950688
 30
-15.61804319977334
 11
18.83561917725874
 21
12.27722108347404
 31
-15.61804319977334
  0
LINE
  5
3E8
330
1E
100
AcDbEntity
  8
KEY-HID
100
AcDbLine
 10
18.83336917725873
 20
12.17071372361304
 30
-6.836378308566678
 11
18.83336917725873
 21
12.21772108347397
 31
-3.557716286126471
  0
LINE
  5
3E9
330
1E
100
AcDbEntity
  8
HINGE-HID
100
AcDbLine
 10
18.81936917725875
 20
12.21772108347397
 30
-0.1876105857820702
 11
18.81936917725875
 21
12.27722108347408
 31
-8.61485448988575
  0
LINE
  5
3EA
330
1E
100
AcDbEntity
  8
HIDDEN
100
AcDbLine
 10
18.99111917725874
 20
12.15417162950688
 30
-15.61804319977334
 11
18.99111917725874
 21
12.27722108347404
 31
-15.61804319977334
  0
LINE
  5
3EB
330
1E
100
AcDbEntity
  8
KEY-HID
100
AcDbLine
 10
18.99336917725876
 20
12.17071372361304
 30
-6.836378308566678
 11
18.99336917725876
 21
12.21772108347397
 31
-3.557716286126471
  0
LINE
  5
3EC
330
1E
100
AcDbEntity
  8
HINGE-HID
100
AcDbLine
 10
19.00736917725873
 20
12.21772108347397
 30
-0.1876105857820702
 11
19.00736917725875
 21
12.27722108347408
 31
-8.61485448988575
  0
LINE
  5
3ED
330
1E
100
AcDbEntity
  8
HINGE-HID
100
AcDbLine
 10
22.83536917725873
 20
12.21772108347397
 30
-0.1876105857820702
 11
22.83536917725876
 21
12.27722108347408
 31
-8.61485448988575
  0
LINE
  5
3EE
330
1E
100
AcDbEntity
  8
HINGE-HID
100
AcDbLine
 10
22.64736917725874
 20
12.21772108347397
 30
-0.1876105857820702
 11
22.64736917725876
 21
12.27722108347408
 31
-8.61485448988575
  0
LINE
  5
3EF
330
1E
100
AcDbEntity
  8
KEY-HID
100
AcDbLine
 10
22.82136917725876
 20
12.17071372361304
 30
-6.836378308566678
 11
22.82136917725876
 21
12.21772108347397
 31
-3.557716286126471
  0
LINE
  5
3F0
330
1E
100
AcDbEntity
  8
KEY-HID
100
AcDbLine
 10
22.66136917725874
 20
12.17071372361304
 30
-6.836378308566678
 11
22.66136917725874
 21
12.21772108347397
 31
-3.557716286126471
  0
LINE
  5
3F1
330
1E
100
AcDbEntity
  8
HIDDEN
100
AcDbLine
 10
22.66361917725874
 20
12.15417162950688
 30
-15.61804319977334
 11
22.66361917725874
 21
12.27722108347404
 31
-15.61804319977334
  0
LINE
  5
3F2
330
1E
100
AcDbEntity
  8
HIDDEN
100
AcDbLine
 10
22.81911917725874
 20
12.15417162950688
 30
-15.61804319977334
 11
22.81911917725874
 21
12.27722108347404
 31
-15.61804319977334
  0
LWPOLYLINE
  5
3F3
330
1E
100
AcDbEntity
  8
OBJECT
100
AcDbPolyline
 90
        4
 70
     0
 43
0.0
 38
-4.39066489120666
 10
22.88936917725874
 20
12.27722108347408
 42
0.9022512289990288
 10
22.89100055543205
 20
12.2930529801317
 42
0.2082992466076997
 10
22.59173779908547
 20
12.2930529801317
 42
0.9022512289990288
 10
22.59336917725875
 20
12.27722108347408
  0
LINE
  5
3F9
330
1E
100
AcDbEntity
  8
HINGE-HID
100
AcDbLine
 10
26.66336917725872
 20
12.21772108347397
 30
-0.1876105857820702
 11
26.66336917725875
 21
12.27722108347408
 31
-8.61485448988575
  0
LINE
  5
3FA
330
1E
100
AcDbEntity
  8
HINGE-HID
100
AcDbLine
 10
26.47536917725874
 20
12.21772108347397
 30
-0.1876105857820702
 11
26.47536917725874
 21
12.27722108347408
 31
-8.61485448988575
  0
LINE
  5
3FB
330
1E
100
AcDbEntity
  8
KEY-HID
100
AcDbLine
 10
26.64936917725875
 20
12.17071372361304
 30
-6.836378308566678
 11
26.64936917725875
 21
12.21772108347397
 31
-3.557716286126471
  0
LINE
  5
3FC
330
1E
100
AcDbEntity
  8
KEY-HID
100
AcDbLine
 10
26.48936917725874
 20
12.17071372361304
 30
-6.836378308566678
 11
26.48936917725874
 21
12.21772108347397
 31
-3.557716286126471
  0
LINE
  5
3FD
330
1E
100
AcDbEntity
  8
HIDDEN
100
AcDbLine
 10
26.49161917725875
 20
12.15417162950688
 30
-15.61804319977334
 11
26.49161917725875
 21
12.27722108347404
 31
-15.61804319977334
  0
LINE
  5
3FE
330
1E
100
AcDbEntity
  8
HIDDEN
100
AcDbLine
 10
26.64711917725875
 20
12.15417162950688
 30
-15.61804319977334
 11
26.64711917725875
 21
12.27722108347404
 31
-15.61804319977334
  0
LWPOLYLINE
  5
3FF
330
1E
100
AcDbEntity
  8
OBJECT
100
AcDbPolyline
 90
        4
 70
     0
 43
0.0
 38
-4.39066489120666
 10
26.71736917725875
 20
12.27722108347408
 42
0.9022512289990288
 10
26.71900055543204
 20
12.2930529801317
 42
0.2082992466076997
 10
26.41973779908547
 20
12.2930529801317
 42
0.9022512289990288
 10
26.42136917725876
 20
12.27722108347408
  0
LINE
  5
405
330
1E
100
AcDbEntity
  8
HINGE-HID
100
AcDbLine
 10
30.49136917725872
 20
12.21772108347397
 30
-0.1876105857820702
 11
30.49136917725875
 21
12.27722108347408
 31
-8.61485448988575
  0
LINE
  5
406
330
1E
100
AcDbEntity
  8
HINGE-HID
100
AcDbLine
 10
30.30336917725875
 20
12.21772108347397
 30
-0.1876105857820702
 11
30.30336917725875
 21
12.27722108347408
 31
-8.61485448988575
  0
LINE
  5
407
330
1E
100
AcDbEntity
  8
KEY-HID
100
AcDbLine
 10
30.47736917725876
 20
12.17071372361304
 30
-6.836378308566678
 11
30.47736917725876
 21
12.21772108347397
 31
-3.557716286126471
  0
LINE
  5
408
330
1E
100
AcDbEntity
  8
KEY-HID
100
AcDbLine
 10
30.31736917725874
 20
12.17071372361304
 30
-6.836378308566678
 11
30.31736917725874
 21
12.21772108347397
 31
-3.557716286126471
  0
LINE
  5
409
330
1E
100
AcDbEntity
  8
HIDDEN
100
AcDbLine
 10
30.31961917725875
 20
12.15417162950688
 30
-15.61804319977334
 11
30.31961917725875
 21
12.27722108347404
 31
-15.61804319977334
  0
LINE
  5
40A
330
1E
100
AcDbEntity
  8
HIDDEN
100
AcDbLine
 10
30.47511917725874
 20
12.15417162950688
 30
-15.61804319977334
 11
30.47511917725874
 21
12.27722108347404
 31
-15.61804319977334
  0
LWPOLYLINE
  5
40B
330
1E
100
AcDbEntity
  8
OBJECT
100
AcDbPolyline
 90
        4
 70
     0
 43
0.0
 38
-4.39066489120666
 10
30.54536917725875
 20
12.27722108347408
 42
0.9022512289990288
 10
30.54700055543204
 20
12.2930529801317
 42
0.2082992466076997
 10
30.24773779908546
 20
12.2930529801317
 42
0.9022512289990288
 10
30.24936917725876
 20
12.27722108347408
  0
LINE
  5
411
330
1E
100
AcDbEntity
  8
HINGE-HID
100
AcDbLine
 10
34.31936917725872
 20
12.21772108347397
 30
-0.1876105857820702
 11
34.31936917725876
 21
12.27722108347408
 31
-8.61485448988575
  0
LINE
  5
412
330
1E
100
AcDbEntity
  8
HINGE-HID
100
AcDbLine
 10
34.13136917725874
 20
12.21772108347397
 30
-0.1876105857820702
 11
34.13136917725874
 21
12.27722108347408
 31
-8.61485448988575
  0
LINE
  5
413
330
1E
100
AcDbEntity
  8
KEY-HID
100
AcDbLine
 10
34.30536917725874
 20
12.17071372361304
 30
-6.836378308566678
 11
34.30536917725874
 21
12.21772108347397
 31
-3.557716286126471
  0
LINE
  5
414
330
1E
100
AcDbEntity
  8
KEY-HID
100
AcDbLine
 10
34.14536917725875
 20
12.17071372361304
 30
-6.836378308566678
 11
34.14536917725875
 21
12.21772108347397
 31
-3.557716286126471
  0
LINE
  5
415
330
1E
100
AcDbEntity
  8
HIDDEN
100
AcDbLine
 10
34.14761917725875
 20
12.15417162950688
 30
-15.61804319977334
 11
34.14761917725875
 21
12.27722108347404
 31
-15.61804319977334
  0
LINE
  5
416
330
1E
100
AcDbEntity
  8
HIDDEN
100
AcDbLine
 10
34.30311917725874
 20
12.15417162950688
 30
-15.61804319977334
 11
34.30311917725874
 21
12.27722108347404
 31
-15.61804319977334
  0
LWPOLYLINE
  5
417
330
1E
100
AcDbEntity
  8
OBJECT
100
AcDbPolyline
 90
        4
 70
     0
 43
0.0
 38
-4.39066489120666
 10
34.37336917725875
 20
12.27722108347408
 42
0.9022512289990288
 10
34.37500055543203
 20
12.2930529801317
 42
0.2082992466076997
 10
34.07573779908546
 20
12.2930529801317
 42
0.9022512289990288
 10
34.07736917725876
 20
12.27722108347408
  0
LINE
  5
41D
330
1E
100
AcDbEntity
  8
HIDDEN
100
AcDbLine
 10
74.08538579635984
 20
24.33680141410798
 30
-4.390664891206665
 11
73.93304911710342
 21
23.09611872455634
 31
-4.390664891206665
  0
LWPOLYLINE
  5
41E
330
1E
100
AcDbEntity
  8
OBJECT
100
AcDbPolyline
 90
        4
 70
     0
 43
0.0
 38
-4.390664891206665
 10
74.34505805624147
 20
24.30491766969975
 10
74.05461686565897
 20
24.34057936375354
 10
73.90228018640252
 20
23.09989667420189
 10
74.34505805624147
 20
23.0455303878762
  0
LINE
  5
424
330
1E
100
AcDbEntity
  8
HINGE-HID
100
AcDbLine
 10
74.87605805624148
 20
12.21772108347397
 30
-0.1876105857820747
 11
74.87605805624148
 21
12.27722108347408
 31
-8.614854489885754
  0
LINE
  5
425
330
1E
100
AcDbEntity
  8
HINGE-HID
100
AcDbLine
 10
75.06405805624144
 20
12.21772108347397
 30
-0.1876105857820747
 11
75.06405805624146
 21
12.27722108347408
 31
-8.614854489885754
  0
LINE
  5
426
330
1E
100
AcDbEntity
  8
HIDDEN
100
AcDbLine
 10
75.04780805624145
 20
12.15417162950688
 30
-15.61804319977334
 11
75.04780805624145
 21
12.27722108347404
 31
-15.61804319977334
  0
LINE
  5
427
330
1E
100
AcDbEntity
  8
HIDDEN
100
AcDbLine
 10
74.89230805624143
 20
12.15417162950688
 30
-15.61804319977334
 11
74.89230805624143
 21
12.27722108347404
 31
-15.61804319977334
  0
LINE
  5
428
330
1E
100
AcDbEntity
  8
MON-HID
100
AcDbLine
 10
74.89005805624145
 20
12.15472108347402
 30
-7.951830484938955
 11
74.89005805624145
 21
12.21772108347397
 31
-3.557716286126475
  0
LINE
  5
429
330
1E
100
AcDbEntity
  8
MON-HID
100
AcDbLine
 10
75.05005805624145
 20
12.15472108347401
 30
-7.951830484939203
 11
75.05005805624145
 21
12.21772108347397
 31
-3.557716286126475
  0
LWPOLYLINE
  5
42A
330
1E
100
AcDbEntity
  8
HIDDEN
100
AcDbPolyline
 90
        4
 70
     0
 43
0.0
 38
-4.390664891206665
 10
75.11805805624144
 20
12.27722108347408
 42
0.9022512289990288
 10
75.11968943441477
 20
12.2930529801317
 42
0.2082992466076997
 10
74.82042667806817
 20
12.2930529801317
 42
0.9022512289990288
 10
74.82205805624144
 20
12.27722108347408
  0
LINE
  5
430
330
1E
100
AcDbEntity
  8
HINGE-HID
100
AcDbLine
 10
73.62605805624148
 20
12.21772108347397
 30
-0.1876105857820747
 11
73.62605805624148
 21
12.27722108347408
 31
-8.614854489885754
  0
LINE
  5
431
330
1E
100
AcDbEntity
  8
HINGE-HID
100
AcDbLine
 10
73.81405805624146
 20
12.21772108347397
 30
-0.1876105857820747
 11
73.81405805624149
 21
12.27722108347408
 31
-8.614854489885754
  0
LINE
  5
432
330
1E
100
AcDbEntity
  8
HIDDEN
100
AcDbLine
 10
73.79780805624148
 20
12.15417162950688
 30
-15.61804319977334
 11
73.79780805624148
 21
12.27722108347404
 31
-15.61804319977334
  0
LINE
  5
433
330
1E
100
AcDbEntity
  8
HIDDEN
100
AcDbLine
 10
73.64230805624146
 20
12.15417162950688
 30
-15.61804319977334
 11
73.64230805624146
 21
12.27722108347404
 31
-15.61804319977334
  0
LINE
  5
434
330
1E
100
AcDbEntity
  8
KEY-HID
100
AcDbLine
 10
73.64005805624149
 20
12.17071372361304
 30
-6.836378308566683
 11
73.64005805624149
 21
12.21772108347397
 31
-3.557716286126475
  0
LINE
  5
435
330
1E
100
AcDbEntity
  8
KEY-HID
100
AcDbLine
 10
73.80005805624148
 20
12.17071372361304
 30
-6.836378308566683
 11
73.80005805624148
 21
12.21772108347397
 31
-3.557716286126475
  0
LWPOLYLINE
  5
436
330
1E
100
AcDbEntity
  8
OBJECT
100
AcDbPolyline
 90
        4
 70
     0
 43
0.0
 38
-4.390664891206665
 10
73.86805805624146
 20
12.27722108347408
 42
0.9022512289990288
 10
73.86968943441477
 20
12.2930529801317
 42
0.2082992466076997
 10
73.5704266780682
 20
12.2930529801317
 42
0.9022512289990288
 10
73.57205805624147
 20
12.27722108347408
  0
LINE
  5
43C
330
1E
100
AcDbEntity
  8
HIDDEN
100
AcDbLine
 10
74.93894568144904
 20
60.48766527246132
 30
-17.56299467361999
 11
74.93894568144904
 21
60.61071472642847
 31
-17.56299467361999
  0
LINE
  5
43D
330
1E
100
AcDbEntity
  8
HIDDEN
100
AcDbLine
 10
75.09444568144906
 20
60.48766527246132
 30
-17.56299467361999
 11
75.09444568144906
 21
60.61071472642847
 31
-17.56299467361999
  0
LINE
  5
43E
330
1E
100
AcDbEntity
  8
MON-HID
100
AcDbLine
 10
74.93669568144904
 20
60.61066527246131
 30
-8.781329782413322
 11
74.93669568144904
 21
60.54771472642848
 31
-4.390664891206664
  0
LINE
  5
43F
330
1E
100
AcDbEntity
  8
MON-HID
100
AcDbLine
 10
75.09669568144906
 20
60.61066527246131
 30
-8.781329782413322
 11
75.09669568144906
 21
60.54771472642848
 31
-4.390664891206664
  0
LINE
  5
440
330
1E
100
AcDbEntity
  8
BRACKET
100
AcDbLine
 10
74.92269568144902
 20
60.54771472642848
 30
-4.390664891206661
 11
74.92269568144902
 21
60.51671472642848
 31
-8.781329782413322
  0
LINE
  5
441
330
1E
100
AcDbEntity
  8
BRACKET
100
AcDbLine
 10
75.11069568144901
 20
60.54771472642848
 30
-4.390664891206661
 11
75.11069568144901
 21
60.51671472642848
 31
-8.781329782413322
  0
LWPOLYLINE
  5
442
330
1E
100
AcDbEntity
  8
OBJECT
100
AcDbPolyline
 90
        4
 70
     0
 43
0.0
 38
-6.335616365053305
 10
75.16469568144905
 20
60.61071472642851
 42
0.9022512289990288
 10
75.16632705962232
 20
60.62654662308613
 42
0.2082992466076997
 10
74.86706430327578
 20
60.62654662308613
 42
0.9022512289990288
 10
74.86869568144905
 20
60.61071472642851
  0
LINE
  5
448
330
1E
100
AcDbEntity
  8
BRACKET
100
AcDbLine
 10
75.01929367389519
 20
60.54771472642848
 30
-4.390664891206661
 11
75.01929367389519
 21
60.51671472642848
 31
-8.781329782413322
  0
LINE
  5
449
330
1E
100
AcDbEntity
  8
BRACKET
100
AcDbLine
 10
74.8312936738952
 20
60.54771472642848
 30
-4.390664891206661
 11
74.8312936738952
 21
60.51671472642848
 31
-8.781329782413322
  0
LINE
  5
44A
330
1E
100
AcDbEntity
  8
MON-HID
100
AcDbLine
 10
75.00529367389518
 20
60.61066527246131
 30
-8.781329782413322
 11
75.00529367389518
 21
60.54771472642848
 31
-4.390664891206664
  0
LINE
  5
44B
330
1E
100
AcDbEntity
  8
MON-HID
100
AcDbLine
 10
74.84529367389516
 20
60.61066527246131
 30
-8.781329782413322
 11
74.84529367389516
 21
60.54771472642848
 31
-4.390664891206664
  0
LINE
  5
44C
330
1E
100
AcDbEntity
  8
HIDDEN
100
AcDbLine
 10
75.00304367389517
 20
60.48766527246132
 30
-17.56299467361999
 11
75.00304367389517
 21
60.61071472642847
 31
-17.56299467361999
  0
LINE
  5
44D
330
1E
100
AcDbEntity
  8
HIDDEN
100
AcDbLine
 10
74.84754367389516
 20
60.48766527246132
 30
-17.56299467361999
 11
74.84754367389516
 21
60.61071472642847
 31
-17.56299467361999
  0
LWPOLYLINE
  5
44E
330
1E
100
AcDbEntity
  8
OBJECT
100
AcDbPolyline
 90
        4
 70
     0
 43
0.0
 38
-6.335616365053305
 10
75.07329367389516
 20
60.61071472642851
 42
0.9022512289990288
 10
75.07492505206849
 20
60.62654662308613
 42
0.2082992466076997
 10
74.7756622957219
 20
60.62654662308613
 42
0.9022512289990288
 10
74.77729367389517
 20
60.61071472642851
  0
LINE
  5
454
330
1E
100
AcDbEntity
  8
MON-HID
100
AcDbLine
 10
74.84529367389516
 20
42.98476418039566
 30
-8.781329782413322
 11
74.84529367389516
 21
43.04771472642848
 31
-4.390664891206664
  0
LINE
  5
455
330
1E
100
AcDbEntity
  8
MON-HID
100
AcDbLine
 10
75.00529367389518
 20
42.98476418039566
 30
-8.781329782413322
 11
75.00529367389518
 21
43.04771472642848
 31
-4.390664891206664
  0
LINE
  5
456
330
1E
100
AcDbEntity
  8
BRACKET
100
AcDbLine
 10
74.8312936738952
 20
43.04771472642848
 30
-4.390664891206661
 11
74.8312936738952
 21
43.07871472642849
 31
-8.781329782413322
  0
LINE
  5
457
330
1E
100
AcDbEntity
  8
BRACKET
100
AcDbLine
 10
75.01929367389519
 20
43.04771472642848
 30
-4.390664891206661
 11
75.01929367389519
 21
43.07871472642849
 31
-8.781329782413322
  0
LINE
  5
458
330
1E
100
AcDbEntity
  8
BRACKET
100
AcDbLine
 10
75.11069568144901
 20
43.04771472642848
 30
-4.390664891206661
 11
75.11069568144901
 21
43.07871472642849
 31
-8.781329782413322
  0
LINE
  5
459
330
1E
100
AcDbEntity
  8
BRACKET
100
AcDbLine
 10
74.92269568144902
 20
43.04771472642848
 30
-4.390664891206661
 11
74.92269568144902
 21
43.07871472642849
 31
-8.781329782413322
  0
LINE
  5
45A
330
1E
100
AcDbEntity
  8
MON-HID
100
AcDbLine
 10
75.09669568144906
 20
42.98476418039566
 30
-8.781329782413322
 11
75.09669568144906
 21
43.04771472642848
 31
-4.390664891206664
  0
LINE
  5
45B
330
1E
100
AcDbEntity
  8
MON-HID
100
AcDbLine
 10
74.93669568144904
 20
42.98476418039566
 30
-8.781329782413322
 11
74.93669568144904
 21
43.04771472642848
 31
-4.390664891206664
  0
LINE
  5
45C
330
1E
100
AcDbEntity
  8
HIDDEN
100
AcDbLine
 10
74.84754367389516
 20
43.10776418039565
 30
-17.56299467361999
 11
74.84754367389516
 21
42.9847147264285
 31
-17.56299467361999
  0
LINE
  5
45D
330
1E
100
AcDbEntity
  8
HIDDEN
100
AcDbLine
 10
75.00304367389517
 20
43.10776418039565
 30
-17.56299467361999
 11
75.00304367389517
 21
42.9847147264285
 31
-17.56299467361999
  0
LINE
  5
45E
330
1E
100
AcDbEntity
  8
HIDDEN
100
AcDbLine
 10
75.09444568144906
 20
43.10776418039565
 30
-17.56299467361999
 11
75.09444568144906
 21
42.9847147264285
 31
-17.56299467361999
  0
LINE
  5
45F
330
1E
100
AcDbEntity
  8
HIDDEN
100
AcDbLine
 10
74.93894568144904
 20
43.10776418039565
 30
-17.56299467361999
 11
74.93894568144904
 21
42.9847147264285
 31
-17.56299467361999
  0
LWPOLYLINE
  5
460
330
1E
100
AcDbEntity
  8
OBJECT
100
AcDbPolyline
 90
        4
 70
     0
 43
0.0
 38
-6.335616365053305
 10
75.07329367389516
 20
42.98471472642847
 42
-0.9022512289990288
 10
75.07492505206849
 20
42.96888282977084
 42
-0.2082992466076997
 10
74.7756622957219
 20
42.96888282977084
 42
-0.9022512289990288
 10
74.77729367389517
 20
42.98471472642847
  0
LWPOLYLINE
  5
466
330
1E
100
AcDbEntity
  8
OBJECT
100
AcDbPolyline
 90
        4
 70
     0
 43
0.0
 38
-6.335616365053305
 10
75.16469568144905
 20
42.98471472642847
 42
-0.9022512289990288
 10
75.16632705962232
 20
42.96888282977084
 42
-0.2082992466076997
 10
74.86706430327578
 20
42.96888282977084
 42
-0.9022512289990288
 10
74.86869568144905
 20
42.98471472642847
  0
LINE
  5
46C
330
1E
100
AcDbEntity
  8
BRACKET
100
AcDbLine
 10
75.30493666526556
 20
43.04821472642847
 30
-4.390664891206663
 11
75.30493666526556
 21
43.07921472642851
 31
-4.390664891206663
  0
LINE
  5
46D
330
1E
100
AcDbEntity
  8
BRACKET
100
AcDbLine
 10
74.36722398480842
 20
43.07921472642851
 30
-8.78132978241333
 11
75.30493666526556
 21
43.07921472642851
 31
-8.78132978241333
  0
LINE
  5
46E
330
1E
100
AcDbEntity
  8
BRACKET
100
AcDbLine
 10
74.26179230681364
 20
43.40271472642847
 30
-4.390664891206663
 11
74.26179230681364
 21
43.6937147264285
 31
-4.390664891206663
  0
LINE
  5
46F
330
1E
100
AcDbEntity
  8
BRACKET
100
AcDbLine
 10
74.21626987748695
 20
43.40271472642847
 30
-4.390664891206665
 11
74.26179230681364
 21
43.40271472642847
 31
-4.390664891206665
  0
LINE
  5
470
330
1E
100
AcDbEntity
  8
BRACKET
100
AcDbLine
 10
74.21626987748695
 20
43.6937147264285
 30
-4.390664891206665
 11
74.26179230681364
 21
43.6937147264285
 31
-4.390664891206665
  0
LINE
  5
471
330
1E
100
AcDbEntity
  8
BRACKET
100
AcDbLine
 10
74.21626987748695
 20
43.40271472642847
 30
-4.390664891206663
 11
74.21626987748695
 21
43.6937147264285
 31
-4.390664891206663
  0
LINE
  5
472
330
1E
100
AcDbEntity
  8
BRACKET
100
AcDbLine
 10
74.14125955150016
 20
44.0482147264285
 30
-0.0000000000000036
 11
74.36722398480842
 21
44.04821472642847
 31
-4.776692344360956
  0
LINE
  5
473
330
1E
100
AcDbEntity
  8
BRACKET
100
AcDbLine
 10
74.14125955150016
 20
43.0482147264285
 30
-0.0000000000000018
 11
74.14125955150016
 21
44.0482147264285
 31
-0.0000000000000018
  0
LINE
  5
474
330
1E
100
AcDbEntity
  8
BRACKET
100
AcDbLine
 10
74.14125955150016
 20
43.0482147264285
 30
-0.0000000000000036
 11
75.30493666526556
 21
43.04821472642847
 31
-4.390664891206665
  0
LINE
  5
475
330
1E
100
AcDbEntity
  8
BRACKET
100
AcDbLine
 10
74.33680263280044
 20
43.04821472642847
 30
-0.0000000000000027
 11
74.33680263280044
 21
44.04821472642847
 31
-0.0000000000000027
  0
LINE
  5
476
330
1E
100
AcDbEntity
  8
BRACKET
100
AcDbLine
 10
74.36722398480842
 20
43.04821472642847
 30
-0.0000000000000027
 11
74.36722398480842
 21
44.04821472642847
 31
-0.0000000000000027
  0
TEXT
  5
477
330
1E
100
AcDbEntity
  8
DIM
100
AcDbText
 10
162.2799267442874
 20
63.09779850590425
 30
0.0
 40
0.5
  1

100
AcDbText
  0
TEXT
  5
478
330
1E
100
AcDbEntity
  8
DIM
100
AcDbText
 10
144.8579267442874
 20
80.99449238226585
 30
0.0
 40
0.5
  1

100
AcDbText
  0
TEXT
  5
479
330
1E
100
AcDbEntity
  8
DIM
100
AcDbText
 10
177.927105979513
 20
75.51277919002278
 30
0.0
 40
0.5
  1

100
AcDbText
  0
TEXT
  5
47A
330
1E
100
AcDbEntity
  8
DIM
100
AcDbText
 10
180.4543843445371
 20
73.76929639544504
 30
0.0
 40
0.5
  1

100
AcDbText
  0
TEXT
  5
47B
330
1E
100
AcDbEntity
  8
DIM
100
AcDbText
 10
122.221361726414
 20
54.14412225571632
 30
0.0
 40
0.5
  1

100
AcDbText
  0
TEXT
  5
47C
330
1E
100
AcDbEntity
  8
DIM
100
AcDbText
 10
132.2804894601601
 20
58.06014252483265
 30
0.0
 40
0.5
  1

100
AcDbText
  0
TEXT
  5
47D
330
1E
100
AcDbEntity
  8
DIM
100
AcDbText
 10
161.5515441433109
 20
68.16637190122364
 30
0.0
 40
0.5
  1

100
AcDbText
  0
TEXT
  5
47E
330
1E
100
AcDbEntity
  8
DIM
100
AcDbText
 10
142.8015441433109
 20
68.16637190122364
 30
0.0
 40
0.5
  1

100
AcDbText
  0
TEXT
  5
47F
330
1E
100
AcDbEntity
  8
DIM
100
AcDbText
 10
158.3848774766443
 20
60.02268566896737
 30
0.0
 40
0.5
  1

100
AcDbText
  0
TEXT
  5
480
330
1E
100
AcDbEntity
  8
DIM
100
AcDbText
 10
389.4486787382387
 20
111.6158960016694
 30
0.0
 40
0.5
  1

100
AcDbText
  0
TEXT
  5
481
330
1E
100
AcDbEntity
  8
DIM
100
AcDbText
 10
372.0266787382387
 20
129.512589878031
 30
0.0
 40
0.5
  1

100
AcDbText
  0
TEXT
  5
482
330
1E
100
AcDbEntity
  8
DIM
100
AcDbText
 10
405.0958579734643
 20
124.0308766857879
 30
0.0
 40
0.5
  1

100
AcDbText
  0
TEXT
  5
483
330
1E
100
AcDbEntity
  8
DIM
100
AcDbText
 10
407.6231363384884
 20
122.2873938912102
 30
0.0
 40
0.5
  1

100
AcDbText
  0
TEXT
  5
484
330
1E
100
AcDbEntity
  8
DIM
100
AcDbText
 10
349.3901137203652
 20
102.6622197514814
 30
0.0
 40
0.5
  1

100
AcDbText
  0
TEXT
  5
485
330
1E
100
AcDbEntity
  8
DIM
100
AcDbText
 10
359.4492414541115
 20
106.5782400205978
 30
0.0
 40
0.5
  1

100
AcDbText
  0
TEXT
  5
486
330
1E
100
AcDbEntity
  8
DIM
100
AcDbText
 10
388.7202961372623
 20
116.6844693969887
 30
0.0
 40
0.5
  1

100
AcDbText
  0
TEXT
  5
487
330
1E
100
AcDbEntity
  8
DIM
100
AcDbText
 10
369.9702961372623
 20
116.6844693969887
 30
0.0
 40
0.5
  1

100
AcDbText
  0
TEXT
  5
488
330
1E
100
AcDbEntity
  8
DIM
100
AcDbText
 10
385.5536294705956
 20
108.5407831647325
 30
0.0
 40
0.5
  1

100
AcDbText
  0
TEXT
  5
489
330
1E
100
AcDbEntity
  8
DIM
100
AcDbText
 10
276.3261789509396
 20
101.8451710052224
 30
0.0
 40
0.875
  1

 41
0.75
  7
TXT
 72
     2
 11
276.3261789509396
 21
102.2826710052224
 31
0.0
100
AcDbText
 73
     2
  0
LINE
  5
48A
330
1E
100
AcDbEntity
  8
TITLE
100
AcDbLine
 10
108.066
 20
70.40600000000001
 30
0.0
 11
108.066
 21
0.4339999999999833
 31
0.0
  0
LINE
  5
48B
330
1E
100
AcDbEntity
  8
TITLE
100
AcDbLine
 10
0.4339999999999833
 20
70.40600000000001
 30
0.0
 11
108.066
 21
70.40600000000001
 31
0.0
  0
LINE
  5
48C
330
1E
100
AcDbEntity
  8
TITLE
100
AcDbLine
 10
0.4339999999999833
 20
0.4339999999999833
 30
0.0
 11
0.4339999999999833
 21
70.40600000000001
 31
0.0
  0
LINE
  5
48D
330
1E
100
AcDbEntity
  8
TITLE
100
AcDbLine
 10
108.066
 20
0.4339999999999833
 30
0.0
 11
0.4339999999999833
 21
0.4339999999999833
 31
0.0
  0
LINE
  5
48E
330
1E
100
AcDbEntity
  8
TITLE
100
AcDbLine
 10
108.4999999999999
 20
0.0
 30
0.0
 11
0.0
 21
0.0
 31
0.0
  0
LINE
  5
48F
330
1E
100
AcDbEntity
  8
TITLE
100
AcDbLine
 10
108.4999999999999
 20
70.83999999999997
 30
0.0
 11
108.4999999999999
 21
0.0
 31
0.0
  0
LINE
  5
490
330
1E
100
AcDbEntity
  8
TITLE
100
AcDbLine
 10
0.0
 20
70.83999999999997
 30
0.0
 11
108.4999999999999
 21
70.83999999999997
 31
0.0
  0
LINE
  5
491
330
1E
100
AcDbEntity
  8
TITLE
100
AcDbLine
 10
0.0
 20
0.0
 30
0.0
 11
0.0
 21
70.83999999999997
 31
0.0
  0
LINE
  5
492
330
1E
100
AcDbEntity
  8
TITLE
100
AcDbLine
 10
0.4339999999999833
 20
67.48000000000001
 30
0.0
 11
108.066
 21
67.48000000000001
 31
0.0
  0
LINE
  5
493
330
1E
100
AcDbEntity
  8
TITLE
100
AcDbLine
 10
54.033
 20
67.48000000000001
 30
0.0
 11
54.033
 21
70.40600000000001
 31
0.0
  0
LINE
  5
494
330
1E
100
AcDbEntity
  8
TITLE
100
AcDbLine
 10
54.46699999999999
 20
67.48000000000001
 30
0.0
 11
54.46699999999999
 21
70.40600000000001
 31
0.0
  0
TEXT
  5
495
330
1E
100
AcDbEntity
  8
TEXT
100
AcDbText
 10
56.30800135869815
 20
68.98626203586303
 30
0.0
 40
0.875
  1
PART
 41
0.75
  7
TXT
100
AcDbText
  0
TEXT
  5
496
330
1E
100
AcDbEntity
  8
TEXT
100
AcDbText
 10
56.7447291839586
 20
67.78987490208172
 30
0.0
 40
0.875
  1
NO.
 41
0.75
  7
TXT
100
AcDbText
  0
LINE
  5
497
330
1E
100
AcDbEntity
  8
TITLE
100
AcDbLine
 10
60.31915487946027
 20
67.48000000000001
 30
0.0
 11
60.31915487946027
 21
70.40600000000001
 31
0.0
  0
TEXT
  5
498
330
1E
100
AcDbEntity
  8
TEXT
100
AcDbText
 10
2.23322715116592
 20
67.78987490208172
 30
0.0
 40
0.875
  1
NAME
 41
0.75
  7
TXT
100
AcDbText
  0
TEXT
  5
499
330
1E
100
AcDbEntity
  8
TEXT
100
AcDbText
 10
2.275001358698119
 20
68.98626203586303
 30
0.0
 40
0.875
  1
PART
 41
0.75
  7
TXT
100
AcDbText
  0
LINE
  5
49A
330
1E
100
AcDbEntity
  8
TITLE
100
AcDbLine
 10
6.286154879460255
 20
67.48000000000001
 30
0.0
 11
6.286154879460255
 21
70.40600000000001
 31
0.0
  0
TEXT
  5
49B
330
1E
100
AcDbEntity
  8
TEXT
100
AcDbText
 10
11.61000199813296
 20
68.21982745008134
 30
0.0
 40
1.311999999999999
  1
MONITOR SHELF WITH FOLD-UP KEYBOARD
 41
0.75
  7
TXT
 72
     1
 11
28.50200199813295
 21
68.21982745008134
 31
0.0
100
AcDbText
  0
TEXT
  5
49C
330
1E
100
AcDbEntity
  8
TEXT
100
AcDbText
 10
82.07867223302438
 20
68.21982745008134
 30
0.0
 40
1.311999999999999
  1
SA-1746
 41
0.75
  7
TXT
 72
     1
 11
85.19467223302438
 21
68.21982745008134
 31
0.0
100
AcDbText
  0
LWPOLYLINE
  5
49D
330
1E
100
AcDbEntity
  8
DIM
100
AcDbPolyline
 90
        4
 70
     0
 10
71.51910986275796
 20
38.39487651335396
 40
0.0
 41
0.4725
 10
72.5501601584586
 20
37.67062842896876
 40
0.0
 41
0.0
 10
74.80240625275991
 20
36.14303433666289
 40
0.0
 41
0.0
 10
76.06240625275991
 20
36.14303433666289
 40
0.0
 41
0.0
  0
TEXT
  5
4A3
330
1E
100
AcDbEntity
  8
DIM
100
AcDbText
 10
76.69240625275991
 20
35.70553433666289
 30
0.0
 40
0.875
  1
DETACHABLE MOUSE PAD
 41
0.75
  7
TXT
 11
76.69240625275991
 21
36.14303433666289
 31
0.0
100
AcDbText
 73
     2
  0
TEXT
  5
4A9
330
1E
100
AcDbEntity
  8
TEXT
100
AcDbText
 10
102.9167550097623
 20
-0.6678501485986289
 30
0.0
 40
0.5310000000000001
  1
REVISED 11-25-3
 41
0.75
  7
TXT
 72
     2
 11
108.4922550097623
 21
-0.4023501485986288
 31
0.0
100
AcDbText
 73
     2
  0
ENDSEC
  0
SECTION
  2
OBJECTS
  0
DICTIONARY
  5
C
330
0
100
AcDbDictionary
281
     1
  3
ACAD_GROUP
350
D
  3
ACAD_LAYOUT
350
19
  3
ACAD_MLINESTYLE
350
16
  3
ACAD_PLOTSETTINGS
350
18
  3
ACAD_PLOTSTYLENAME
350
E
  0
DICTIONARY
  5
D
102
{ACAD_REACTORS
330
C
102
}
330
C
100
AcDbDictionary
281
     1
  0
DICTIONARY
  5
19
102
{ACAD_REACTORS
330
C
102
}
330
C
100
AcDbDictionary
281
     1
  3
Layout1
350
1D
  3
Model
350
21
  0
DICTIONARY
  5
16
102
{ACAD_REACTORS
330
C
102
}
330
C
100
AcDbDictionary
281
     1
  3
Standard
350
17
  0
DICTIONARY
  5
18
102
{ACAD_REACTORS
330
C
102
}
330
C
100
AcDbDictionary
281
     1
  0
ACDBDICTIONARYWDFLT
  5
E
102
{ACAD_REACTORS
330
C
102
}
330
C
100
AcDbDictionary
281
     1
  3
Normal
350
F
100
AcDbDictionaryWithDefault
340
F
  0
LAYOUT
  5
1D
102
{ACAD_REACTORS
330
19
102
}
330
19
100
AcDbPlotSettings
  1

  2
HP DesignJet 430 (D/A1) by HP
  4

  6

 40
0.0
 41
0.0
 42
0.0
 43
0.0
 44
0.0
 45
0.0
 46
0.0
 47
0.0
 48
0.0
 49
0.0
140
0.0
141
0.0
142
1.0
143
1.0
 70
   688
 72
     0
 73
     0
 74
     5
  7
monochrome.ctb
 75
    16
147
1.0
148
0.0
149
0.0
100
AcDbLayout
  1
Layout1
 70
     0
 71
     1
 10
0.0
 20
0.0
 11
12.0
 21
9.0
 12
0.0
 22
0.0
 32
0.0
 14
1.000000000000000E+20
 24
1.000000000000000E+20
 34
1.000000000000000E+20
 15
-1.000000000000000E+20
 25
-1.000000000000000E+20
 35
-1.000000000000000E+20
146
0.0
 13
0.0
 23
0.0
 33
0.0
 16
1.0
 26
0.0
 36
0.0
 17
0.0
 27
1.0
 37
0.0
 76
     0
330
1A
  0
LAYOUT
  5
21
102
{ACAD_REACTORS
330
19
102
}
330
19
100
AcDbPlotSettings
  1

  2
Acrobat PDFWriter
  4
Letter
  6

 40
7.143749713897705
 41
7.143756389617919
 42
7.14373779296875
 43
7.14373779296875
 44
215.8999938964843
 45
279.3999938964843
 46
14.224
 47
0.0
 48
0.0
 49
0.0
140
0.0
141
0.0
142
1.0
143
10.39584406529899
 70
 11956
 72
     0
 73
     1
 74
     1
  7
monochrome.ctb
 75
     0
147
0.0961922854670329
148
0.084096977073159
149
0.0558062889331609
100
AcDbLayout
  1
Model
 70
     1
 71
     0
 10
0.0
 20
0.0
 11
12.0
 21
9.0
 12
0.0
 22
0.0
 32
0.0
 14
0.0
 24
0.0
 34
0.0
 15
0.0
 25
0.0
 35
0.0
146
0.0
 13
0.0
 23
0.0
 33
0.0
 16
1.0
 26
0.0
 36
0.0
 17
0.0
 27
1.0
 37
0.0
 76
     0
330
1E
  0
MLINESTYLE
  5
17
102
{ACAD_REACTORS
330
16
102
}
330
16
100
AcDbMlineStyle
  2
STANDARD
 70
     0
  3

 62
   256
 51
90.0
 52
90.0
 71
     2
 49
0.5
 62
   256
  6
BYLAYER
 49
-0.5
 62
   256
  6
BYLAYER
  0
ACDBPLACEHOLDER
  5
F
102
{ACAD_REACTORS
330
E
102
}
330
E
  0
ENDSEC
  0
EOF
