  0
SECTION
  2
HEADER
  9
$ACADVER
  1
AC1009
  9
$INSBASE
 10
0.0
 20
0.0
 30
0.0
  9
$EXTMIN
 10
0.0
 20
0.0
 30
0.0
  9
$EXTMAX
 10
50.6
 20
77.5
 30
0.0
  9
$LIMMIN
 10
0.0
 20
0.0
  9
$LIMMAX
 10
50.6
 20
77.5
  9
$ORTHOMODE
 70
     1
  9
$REGENMODE
 70
     1
  9
$FILLMODE
 70
     1
  9
$QTEXTMODE
 70
     0
  9
$MIRRTEXT
 70
     0
  9
$DRAGMODE
 70
     2
  9
$LTSCALE
 40
2.5
  9
$OSMODE
 70
     1
  9
$ATTMODE
 70
     1
  9
$TEXTSIZE
 40
0.2
  9
$TRACEWID
 40
0.05
  9
$TEXTSTYLE
  7
TXT
  9
$CLAYER
  8
OBJECT
  9
$CELTYPE
  6
BYLAYER
  9
$CECOLOR
 62
   256
  9
$DIMSCALE
 40
5.0
  9
$DIMASZ
 40
0.18
  9
$DIMEXO
 40
0.063
  9
$DIMDLI
 40
0.281
  9
$DIMRND
 40
0.0
  9
$DIMDLE
 40
0.0
  9
$DIMEXE
 40
0.093
  9
$DIMTP
 40
0.0
  9
$DIMTM
 40
0.0
  9
$DIMTXT
 40
0.125
  9
$DIMCEN
 40
0.09
  9
$DIMTSZ
 40
0.0
  9
$DIMTOL
 70
     0
  9
$DIMLIM
 70
     0
  9
$DIMTIH
 70
     1
  9
$DIMTOH
 70
     1
  9
$DIMSE1
 70
     0
  9
$DIMSE2
 70
     0
  9
$DIMTAD
 70
     0
  9
$DIMZIN
 70
     0
  9
$DIMBLK
  1

  9
$DIMASO
 70
     1
  9
$DIMSHO
 70
     1
  9
$DIMPOST
  1

  9
$DIMAPOST
  1

  9
$DIMALT
 70
     0
  9
$DIMALTD
 70
     2
  9
$DIMALTF
 40
25.4
  9
$DIMLFAC
 40
1.0
  9
$DIMTOFL
 70
     0
  9
$DIMTVP
 40
0.0
  9
$DIMTIX
 70
     0
  9
$DIMSOXD
 70
     0
  9
$DIMSAH
 70
     0
  9
$DIMBLK1
  1

  9
$DIMBLK2
  1

  9
$DIMSTYLE
  2
23NSTD
  9
$DIMCLRD
 70
     0
  9
$DIMCLRE
 70
     0
  9
$DIMCLRT
 70
     0
  9
$DIMTFAC
 40
1.0
  9
$DIMGAP
 40
0.09
  9
$LUNITS
 70
     2
  9
$LUPREC
 70
     3
  9
$SKETCHINC
 40
0.1
  9
$FILLETRAD
 40
0.0
  9
$AUNITS
 70
     0
  9
$AUPREC
 70
     0
  9
$MENU
  1
acad
  9
$ELEVATION
 40
0.0
  9
$PELEVATION
 40
0.0
  9
$THICKNESS
 40
0.0
  9
$LIMCHECK
 70
     0
  9
$BLIPMODE
 70
     1
  9
$CHAMFERA
 40
0.0
  9
$CHAMFERB
 40
0.0
  9
$SKPOLY
 70
     0
  9
$TDCREATE
 40
2450526.614322569
  9
$TDUPDATE
 40
2451347.312210648
  9
$TDINDWG
 40
0.0778003472
  9
$TDUSRTIMER
 40
0.0778003472
  9
$USRTIMER
 70
     1
  9
$ANGBASE
 50
0.0
  9
$ANGDIR
 70
     0
  9
$PDMODE
 70
     0
  9
$PDSIZE
 40
0.0
  9
$PLINEWID
 40
0.0
  9
$COORDS
 70
     0
  9
$SPLFRAME
 70
     0
  9
$SPLINETYPE
 70
     6
  9
$SPLINESEGS
 70
     8
  9
$ATTDIA
 70
     0
  9
$ATTREQ
 70
     1
  9
$HANDLING
 70
     0
  9
$HANDSEED
  5
0
  9
$SURFTAB1
 70
     6
  9
$SURFTAB2
 70
     6
  9
$SURFTYPE
 70
     6
  9
$SURFU
 70
     6
  9
$SURFV
 70
     6
  9
$UCSNAME
  2

  9
$UCSORG
 10
0.0
 20
0.0
 30
0.0
  9
$UCSXDIR
 10
1.0
 20
0.0
 30
0.0
  9
$UCSYDIR
 10
0.0
 20
1.0
 30
0.0
  9
$PUCSNAME
  2

  9
$PUCSORG
 10
0.0
 20
0.0
 30
0.0
  9
$PUCSXDIR
 10
1.0
 20
0.0
 30
0.0
  9
$PUCSYDIR
 10
0.0
 20
1.0
 30
0.0
  9
$USERI1
 70
     0
  9
$USERI2
 70
     0
  9
$USERI3
 70
     0
  9
$USERI4
 70
     0
  9
$USERI5
 70
     0
  9
$USERR1
 40
0.0
  9
$USERR2
 40
0.0
  9
$USERR3
 40
0.0
  9
$USERR4
 40
0.0
  9
$USERR5
 40
0.0
  9
$WORLDVIEW
 70
     1
  9
$SHADEDGE
 70
     3
  9
$SHADEDIF
 70
    70
  9
$TILEMODE
 70
     1
  9
$MAXACTVP
 70
    16
  9
$PINSBASE
 10
0.0
 20
0.0
 30
0.0
  9
$PLIMCHECK
 70
     0
  9
$PEXTMIN
 10
1.000000E+20
 20
1.000000E+20
 30
1.000000E+20
  9
$PEXTMAX
 10
-1.000000E+20
 20
-1.000000E+20
 30
-1.000000E+20
  9
$PLIMMIN
 10
0.0
 20
0.0
  9
$PLIMMAX
 10
12.0
 20
9.0
  9
$UNITMODE
 70
     0
  9
$VISRETAIN
 70
     0
  9
$PLINEGEN
 70
     0
  9
$PSLTSCALE
 70
     1
  9
$TREEDEPTH
 70
  3020
  9
$DWGCODEPAGE
  3
ascii
  0
ENDSEC
  0
SECTION
  2
TABLES
  0
TABLE
  2
VPORT
 70
     2
  0
VPORT
  2
*ACTIVE
 70
     0
 10
0.0
 20
0.0
 11
1.0
 21
1.0
 12
52.790656
 22
38.75
 13
0.0
 23
0.0
 14
1.0
 24
1.0
 15
0.0
 25
0.0
 16
0.0
 26
0.0
 36
1.0
 17
0.0
 27
0.0
 37
0.0
 40
77.5
 41
1.36234
 42
50.0
 43
0.0
 44
0.0
 50
0.0
 51
0.0
 71
     0
 72
   100
 73
     1
 74
     0
 75
     0
 76
     0
 77
     0
 78
     0
  0
ENDTAB
  0
TABLE
  2
LTYPE
 70
     5
  0
LTYPE
  2
CONTINUOUS
 70
    64
  3
Solid line
 72
    65
 73
     0
 40
0.0
  0
LTYPE
  2
HIDDEN
 70
    64
  3
_ _ _ _ _ _ _ _ _ _ _ _ _ _ _ _ _ _ _ _ _ _ _
 72
    65
 73
     2
 40
0.375
 49
0.25
 49
-0.125
  0
LTYPE
  2
PHANTOM
 70
    64
  3
_____ _ _ _____ _ _ _____ _ _ _____ _ _ ____
 72
    65
 73
     6
 40
2.5
 49
1.25
 49
-0.25
 49
0.25
 49
-0.25
 49
0.25
 49
-0.25
  0
LTYPE
  2
CENTER
 70
    64
  3
____ _ ____ _ ____ _ ____ _ ____ _ ____ _ ____
 72
    65
 73
     4
 40
2.0
 49
1.25
 49
-0.25
 49
0.25
 49
-0.25
  0
LTYPE
  2
HIDDEN2
 70
    64
  3
_ _ _ _ _ _ _ _ _ _ _ _ _ _ _ _ _ _ _ _ _ _ _ _
 72
    65
 73
     2
 40
0.1875
 49
0.125
 49
-0.0625
  0
ENDTAB
  0
TABLE
  2
LAYER
 70
     9
  0
LAYER
  2
0
 70
    64
 62
     7
  6
CONTINUOUS
  0
LAYER
  2
OBJECT
 70
    64
 62
     7
  6
CONTINUOUS
  0
LAYER
  2
DIM
 70
    64
 62
     7
  6
CONTINUOUS
  0
LAYER
  2
HIDDEN
 70
    64
 62
     7
  6
HIDDEN
  0
LAYER
  2
BEND
 70
    64
 62
     7
  6
PHANTOM
  0
LAYER
  2
TEXT
 70
    64
 62
     7
  6
CONTINUOUS
  0
LAYER
  2
TITLE
 70
    64
 62
     7
  6
CONTINUOUS
  0
LAYER
  2
CENTER
 70
    64
 62
     7
  6
CENTER
  0
LAYER
  2
DEFPOINTS
 70
    64
 62
     7
  6
CONTINUOUS
  0
ENDTAB
  0
TABLE
  2
STYLE
 70
     2
  0
STYLE
  2
TXT
 70
    64
 40
0.0
 41
0.75
 50
0.0
 71
     0
 42
0.2
  3
TXT.shx
  4

  0
STYLE
  2
STANDARD
 70
     0
 40
0.0
 41
0.75
 50
0.0
 71
     0
 42
0.18
  3
TXT.shx
  4

  0
ENDTAB
  0
TABLE
  2
VIEW
 70
     0
  0
ENDTAB
  0
TABLE
  2
UCS
 70
     0
  0
ENDTAB
  0
TABLE
  2
APPID
 70
     1
  0
APPID
  2
ACAD
 70
    64
  0
ENDTAB
  0
TABLE
  2
DIMSTYLE
 70
     2
  0
DIMSTYLE
  2
23NSTD
 70
    64
  3

  4

  5

  6

  7

 40
5.0
 41
0.18
 42
0.063
 43
0.281
 44
0.093
 45
0.0
 46
0.0
 47
0.0
 48
0.0
140
0.125
141
0.09
142
0.0
143
25.4
144
1.0
145
0.0
146
1.0
147
0.09
 71
     0
 72
     0
 73
     1
 74
     1
 75
     0
 76
     0
 77
     0
 78
     0
170
     0
171
     2
172
     0
173
     0
174
     0
175
     0
176
     0
177
     0
178
     0
  0
DIMSTYLE
  2
23NSTDI
 70
    64
  3

  4

  5

  6

  7

 40
5.0
 41
0.18
 42
0.063
 43
0.281
 44
0.093
 45
0.0
 46
0.0
 47
0.0
 48
0.0
140
0.125
141
0.09
142
0.0
143
25.4
144
1.0
145
0.0
146
1.0
147
0.09
 71
     0
 72
     0
 73
     1
 74
     1
 75
     0
 76
     0
 77
     0
 78
     0
170
     0
171
     2
172
     0
173
     0
174
     1
175
     0
176
     0
177
     0
178
     0
  0
ENDTAB
  0
ENDSEC
  0
SECTION
  2
BLOCKS
  0
BLOCK
  8
0
  2
*D0
 70
    65
 10
0.0
 20
0.0
 30
0.0
  3
*D
  0
LINE
  8
0
  6
BYBLOCK
 62
     0
 10
49.066541
 20
69.289026
 30
0.0
 11
49.066541
 21
71.239026
 31
0.0
  0
LINE
  8
0
  6
BYBLOCK
 62
     0
 10
30.066541
 20
69.289026
 30
0.0
 11
30.066541
 21
71.239026
 31
0.0
  0
LINE
  8
0
  6
BYBLOCK
 62
     0
 10
48.166541
 20
70.774026
 30
0.0
 11
40.993104
 21
70.774026
 31
0.0
  0
LINE
  8
0
  6
BYBLOCK
 62
     0
 10
30.966541
 20
70.774026
 30
0.0
 11
38.139979
 21
70.774026
 31
0.0
  0
SOLID
  8
0
  6
BYBLOCK
 62
     0
 10
48.166541
 20
70.924026
 30
0.0
 11
48.166541
 21
70.624026
 31
0.0
 12
49.066541
 22
70.774026
 32
0.0
 13
49.066541
 23
70.774026
 33
0.0
  0
SOLID
  8
0
  6
BYBLOCK
 62
     0
 10
30.966541
 20
70.924026
 30
0.0
 11
30.966541
 21
70.624026
 31
0.0
 12
30.066541
 22
70.774026
 32
0.0
 13
30.066541
 23
70.774026
 33
0.0
  0
TEXT
  8
0
  6
BYBLOCK
 62
     0
 10
38.589979
 20
70.461526
 30
0.0
 40
0.625
  1
19.000
 41
0.75
 72
     1
 11
39.566541
 21
70.774026
 31
0.0
 73
     2
  0
POINT
  8
DEFPOINTS
  6
BYBLOCK
 62
     0
 10
49.066541
 20
68.974026
 30
0.0
  0
POINT
  8
DEFPOINTS
  6
BYBLOCK
 62
     0
 10
30.066541
 20
68.974026
 30
0.0
  0
POINT
  8
DEFPOINTS
  6
BYBLOCK
 62
     0
 10
30.066541
 20
70.774026
 30
0.0
  0
ENDBLK
  8
0
  0
BLOCK
  8
0
  2
*D1
 70
    65
 10
0.0
 20
0.0
 30
0.0
  3
*D
  0
LINE
  8
0
  6
BYBLOCK
 62
     0
 10
5.226304
 20
63.443026
 30
0.0
 11
3.338804
 21
63.443026
 31
0.0
  0
LINE
  8
0
  6
BYBLOCK
 62
     0
 10
5.226304
 20
68.661026
 30
0.0
 11
3.338804
 21
68.661026
 31
0.0
  0
LINE
  8
0
  6
BYBLOCK
 62
     0
 10
3.803804
 20
64.343026
 30
0.0
 11
3.803804
 21
65.289526
 31
0.0
  0
LINE
  8
0
  6
BYBLOCK
 62
     0
 10
3.803804
 20
67.761026
 30
0.0
 11
3.803804
 21
66.814526
 31
0.0
  0
SOLID
  8
0
  6
BYBLOCK
 62
     0
 10
3.653804
 20
64.343026
 30
0.0
 11
3.953804
 21
64.343026
 31
0.0
 12
3.803804
 22
63.443026
 32
0.0
 13
3.803804
 23
63.443026
 33
0.0
  0
SOLID
  8
0
  6
BYBLOCK
 62
     0
 10
3.653804
 20
67.761026
 30
0.0
 11
3.953804
 21
67.761026
 31
0.0
 12
3.803804
 22
68.661026
 32
0.0
 13
3.803804
 23
68.661026
 33
0.0
  0
TEXT
  8
0
  6
BYBLOCK
 62
     0
 10
2.944429
 20
65.739526
 30
0.0
 40
0.625
  1
5.218
 41
0.75
 72
     1
 11
3.803804
 21
66.052026
 31
0.0
 73
     2
  0
POINT
  8
DEFPOINTS
  6
BYBLOCK
 62
     0
 10
5.541304
 20
63.443026
 30
0.0
  0
POINT
  8
DEFPOINTS
  6
BYBLOCK
 62
     0
 10
5.541304
 20
68.661026
 30
0.0
  0
POINT
  8
DEFPOINTS
  6
BYBLOCK
 62
     0
 10
3.803804
 20
68.661026
 30
0.0
  0
ENDBLK
  8
0
  0
BLOCK
  8
0
  2
*D2
 70
    65
 10
0.0
 20
0.0
 30
0.0
  3
*D
  0
LINE
  8
0
  6
BYBLOCK
 62
     0
 10
8.481749
 20
68.599026
 30
0.0
 11
8.755749
 21
68.599026
 31
0.0
  0
LINE
  8
0
  6
BYBLOCK
 62
     0
 10
7.975749
 20
68.974026
 30
0.0
 11
7.825749
 21
68.974026
 31
0.0
  0
LINE
  8
0
  6
BYBLOCK
 62
     0
 10
8.290749
 20
67.699026
 30
0.0
 11
8.290749
 21
66.799026
 31
0.0
  0
LINE
  8
0
  6
BYBLOCK
 62
     0
 10
8.290749
 20
69.874026
 30
0.0
 11
8.290749
 21
70.774026
 31
0.0
  0
LINE
  8
0
  6
BYBLOCK
 62
     0
 10
8.290749
 20
70.774026
 30
0.0
 11
9.190749
 21
70.774026
 31
0.0
  0
SOLID
  8
0
  6
BYBLOCK
 62
     0
 10
8.140749
 20
67.699026
 30
0.0
 11
8.440749
 21
67.699026
 31
0.0
 12
8.290749
 22
68.599026
 32
0.0
 13
8.290749
 23
68.599026
 33
0.0
  0
SOLID
  8
0
  6
BYBLOCK
 62
     0
 10
8.140749
 20
69.874026
 30
0.0
 11
8.440749
 21
69.874026
 31
0.0
 12
8.290749
 22
68.974026
 32
0.0
 13
8.290749
 23
68.974026
 33
0.0
  0
TEXT
  8
0
  6
BYBLOCK
 62
     0
 10
9.640749
 20
70.461526
 30
0.0
 40
0.625
  1
0.375
 41
0.75
 72
     1
 11
10.539187
 21
70.774026
 31
0.0
 73
     2
  0
POINT
  8
DEFPOINTS
  6
BYBLOCK
 62
     0
 10
8.166749
 20
68.599026
 30
0.0
  0
POINT
  8
DEFPOINTS
  6
BYBLOCK
 62
     0
 10
8.290749
 20
68.974026
 30
0.0
  0
POINT
  8
DEFPOINTS
  6
BYBLOCK
 62
     0
 10
8.290749
 20
68.974026
 30
0.0
  0
ENDBLK
  8
0
  0
BLOCK
  8
0
  2
*D3
 70
    65
 10
0.0
 20
0.0
 30
0.0
  3
*D
  0
LINE
  8
0
  6
BYBLOCK
 62
     0
 10
9.791304
 20
64.929026
 30
0.0
 11
9.791304
 21
65.394026
 31
0.0
  0
LINE
  8
0
  6
BYBLOCK
 62
     0
 10
20.291304
 20
64.929026
 30
0.0
 11
20.291304
 21
65.394026
 31
0.0
  0
LINE
  8
0
  6
BYBLOCK
 62
     0
 10
10.691304
 20
64.929026
 30
0.0
 11
13.614741
 21
64.929026
 31
0.0
  0
LINE
  8
0
  6
BYBLOCK
 62
     0
 10
19.391304
 20
64.929026
 30
0.0
 11
16.467866
 21
64.929026
 31
0.0
  0
SOLID
  8
0
  6
BYBLOCK
 62
     0
 10
10.691304
 20
65.079026
 30
0.0
 11
10.691304
 21
64.779026
 31
0.0
 12
9.791304
 22
64.929026
 32
0.0
 13
9.791304
 23
64.929026
 33
0.0
  0
SOLID
  8
0
  6
BYBLOCK
 62
     0
 10
19.391304
 20
65.079026
 30
0.0
 11
19.391304
 21
64.779026
 31
0.0
 12
20.291304
 22
64.929026
 32
0.0
 13
20.291304
 23
64.929026
 33
0.0
  0
TEXT
  8
0
  6
BYBLOCK
 62
     0
 10
14.064741
 20
64.616526
 30
0.0
 40
0.625
  1
10.500
 41
0.75
 72
     1
 11
15.041304
 21
64.929026
 31
0.0
 73
     2
  0
POINT
  8
DEFPOINTS
  6
BYBLOCK
 62
     0
 10
9.791304
 20
64.614026
 30
0.0
  0
POINT
  8
DEFPOINTS
  6
BYBLOCK
 62
     0
 10
20.291304
 20
64.614026
 30
0.0
  0
POINT
  8
DEFPOINTS
  6
BYBLOCK
 62
     0
 10
20.291304
 20
64.929026
 30
0.0
  0
ENDBLK
  8
0
  0
BLOCK
  8
0
  2
*D4
 70
    65
 10
0.0
 20
0.0
 30
0.0
  3
*D
  0
LINE
  8
0
  6
BYBLOCK
 62
     0
 10
12.363265
 20
64.599026
 30
0.0
 11
12.828265
 21
64.599026
 31
0.0
  0
LINE
  8
0
  6
BYBLOCK
 62
     0
 10
12.363265
 20
68.599026
 30
0.0
 11
12.828265
 21
68.599026
 31
0.0
  0
LINE
  8
0
  6
BYBLOCK
 62
     0
 10
12.363265
 20
63.699026
 30
0.0
 11
12.363265
 21
62.799026
 31
0.0
  0
LINE
  8
0
  6
BYBLOCK
 62
     0
 10
12.363265
 20
69.499026
 30
0.0
 11
12.363265
 21
70.399026
 31
0.0
  0
SOLID
  8
0
  6
BYBLOCK
 62
     0
 10
12.213265
 20
63.699026
 30
0.0
 11
12.513265
 21
63.699026
 31
0.0
 12
12.363265
 22
64.599026
 32
0.0
 13
12.363265
 23
64.599026
 33
0.0
  0
SOLID
  8
0
  6
BYBLOCK
 62
     0
 10
12.213265
 20
69.499026
 30
0.0
 11
12.513265
 21
69.499026
 31
0.0
 12
12.363265
 22
68.599026
 32
0.0
 13
12.363265
 23
68.599026
 33
0.0
  0
TEXT
  8
0
  6
BYBLOCK
 62
     0
 10
11.542953
 20
66.286526
 30
0.0
 40
0.625
  1
4.000
 41
0.75
 72
     1
 11
12.363265
 21
66.599026
 31
0.0
 73
     2
  0
POINT
  8
DEFPOINTS
  6
BYBLOCK
 62
     0
 10
12.048265
 20
64.599026
 30
0.0
  0
POINT
  8
DEFPOINTS
  6
BYBLOCK
 62
     0
 10
12.048265
 20
68.599026
 30
0.0
  0
POINT
  8
DEFPOINTS
  6
BYBLOCK
 62
     0
 10
12.363265
 20
68.599026
 30
0.0
  0
ENDBLK
  8
0
  0
BLOCK
  8
0
  2
*D5
 70
    65
 10
0.0
 20
0.0
 30
0.0
  3
*D
  0
LINE
  8
0
  6
BYBLOCK
 62
     0
 10
24.746804
 20
64.927026
 30
0.0
 11
26.305692
 21
64.927026
 31
0.0
  0
LINE
  8
0
  6
BYBLOCK
 62
     0
 10
24.746804
 20
63.677026
 30
0.0
 11
26.305692
 21
63.677026
 31
0.0
  0
LINE
  8
0
  6
BYBLOCK
 62
     0
 10
25.840692
 20
65.827026
 30
0.0
 11
25.840692
 21
66.727026
 31
0.0
  0
LINE
  8
0
  6
BYBLOCK
 62
     0
 10
25.840692
 20
62.777026
 30
0.0
 11
25.840692
 21
61.877026
 31
0.0
  0
SOLID
  8
0
  6
BYBLOCK
 62
     0
 10
25.690692
 20
65.827026
 30
0.0
 11
25.990692
 21
65.827026
 31
0.0
 12
25.840692
 22
64.927026
 32
0.0
 13
25.840692
 23
64.927026
 33
0.0
  0
SOLID
  8
0
  6
BYBLOCK
 62
     0
 10
25.690692
 20
62.777026
 30
0.0
 11
25.990692
 21
62.777026
 31
0.0
 12
25.840692
 22
63.677026
 32
0.0
 13
25.840692
 23
63.677026
 33
0.0
  0
TEXT
  8
0
  6
BYBLOCK
 62
     0
 10
25.020379
 20
63.989526
 30
0.0
 40
0.625
  1
1.250
 41
0.75
 72
     1
 11
25.840692
 21
64.302026
 31
0.0
 73
     2
  0
POINT
  8
DEFPOINTS
  6
BYBLOCK
 62
     0
 10
24.431804
 20
64.927026
 30
0.0
  0
POINT
  8
DEFPOINTS
  6
BYBLOCK
 62
     0
 10
24.431804
 20
63.677026
 30
0.0
  0
POINT
  8
DEFPOINTS
  6
BYBLOCK
 62
     0
 10
25.840692
 20
63.677026
 30
0.0
  0
ENDBLK
  8
0
  0
BLOCK
  8
0
  2
*D6
 70
    65
 10
0.0
 20
0.0
 30
0.0
  3
*D
  0
LINE
  8
0
  6
BYBLOCK
 62
     0
 10
24.746804
 20
64.927026
 30
0.0
 11
28.650692
 21
64.927026
 31
0.0
  0
LINE
  8
0
  6
BYBLOCK
 62
     0
 10
24.746804
 20
67.177026
 30
0.0
 11
28.650692
 21
67.177026
 31
0.0
  0
LINE
  8
0
  6
BYBLOCK
 62
     0
 10
28.185692
 20
64.027026
 30
0.0
 11
28.185692
 21
63.127026
 31
0.0
  0
LINE
  8
0
  6
BYBLOCK
 62
     0
 10
28.185692
 20
68.077026
 30
0.0
 11
28.185692
 21
68.977026
 31
0.0
  0
SOLID
  8
0
  6
BYBLOCK
 62
     0
 10
28.035692
 20
64.027026
 30
0.0
 11
28.335692
 21
64.027026
 31
0.0
 12
28.185692
 22
64.927026
 32
0.0
 13
28.185692
 23
64.927026
 33
0.0
  0
SOLID
  8
0
  6
BYBLOCK
 62
     0
 10
28.035692
 20
68.077026
 30
0.0
 11
28.335692
 21
68.077026
 31
0.0
 12
28.185692
 22
67.177026
 32
0.0
 13
28.185692
 23
67.177026
 33
0.0
  0
TEXT
  8
0
  6
BYBLOCK
 62
     0
 10
27.287254
 20
65.739526
 30
0.0
 40
0.625
  1
2.250
 41
0.75
 72
     1
 11
28.185692
 21
66.052026
 31
0.0
 73
     2
  0
POINT
  8
DEFPOINTS
  6
BYBLOCK
 62
     0
 10
24.431804
 20
64.927026
 30
0.0
  0
POINT
  8
DEFPOINTS
  6
BYBLOCK
 62
     0
 10
24.431804
 20
67.177026
 30
0.0
  0
POINT
  8
DEFPOINTS
  6
BYBLOCK
 62
     0
 10
28.185692
 20
67.177026
 30
0.0
  0
ENDBLK
  8
0
  0
BLOCK
  8
0
  2
*D7
 70
    65
 10
0.0
 20
0.0
 30
0.0
  3
*D
  0
LINE
  8
0
  6
BYBLOCK
 62
     0
 10
24.746804
 20
67.177026
 30
0.0
 11
27.245692
 21
67.177026
 31
0.0
  0
LINE
  8
0
  6
BYBLOCK
 62
     0
 10
24.746804
 20
68.427026
 30
0.0
 11
27.245692
 21
68.427026
 31
0.0
  0
LINE
  8
0
  6
BYBLOCK
 62
     0
 10
26.780692
 20
66.277026
 30
0.0
 11
26.780692
 21
65.377026
 31
0.0
  0
LINE
  8
0
  6
BYBLOCK
 62
     0
 10
26.780692
 20
69.327026
 30
0.0
 11
26.780692
 21
70.227026
 31
0.0
  0
SOLID
  8
0
  6
BYBLOCK
 62
     0
 10
26.630692
 20
66.277026
 30
0.0
 11
26.930692
 21
66.277026
 31
0.0
 12
26.780692
 22
67.177026
 32
0.0
 13
26.780692
 23
67.177026
 33
0.0
  0
SOLID
  8
0
  6
BYBLOCK
 62
     0
 10
26.630692
 20
69.327026
 30
0.0
 11
26.930692
 21
69.327026
 31
0.0
 12
26.780692
 22
68.427026
 32
0.0
 13
26.780692
 23
68.427026
 33
0.0
  0
TEXT
  8
0
  6
BYBLOCK
 62
     0
 10
25.960379
 20
67.489526
 30
0.0
 40
0.625
  1
1.250
 41
0.75
 72
     1
 11
26.780692
 21
67.802026
 31
0.0
 73
     2
  0
POINT
  8
DEFPOINTS
  6
BYBLOCK
 62
     0
 10
24.431804
 20
67.177026
 30
0.0
  0
POINT
  8
DEFPOINTS
  6
BYBLOCK
 62
     0
 10
24.431804
 20
68.427026
 30
0.0
  0
POINT
  8
DEFPOINTS
  6
BYBLOCK
 62
     0
 10
26.780692
 20
68.427026
 30
0.0
  0
ENDBLK
  8
0
  0
BLOCK
  8
0
  2
*D8
 70
    65
 10
0.0
 20
0.0
 30
0.0
  3
*D
  0
LINE
  8
0
  6
BYBLOCK
 62
     0
 10
20.916304
 20
59.218615
 30
0.0
 11
20.916304
 21
60.828615
 31
0.0
  0
LINE
  8
0
  6
BYBLOCK
 62
     0
 10
9.166304
 20
59.218615
 30
0.0
 11
9.166304
 21
60.828615
 31
0.0
  0
LINE
  8
0
  6
BYBLOCK
 62
     0
 10
20.016304
 20
60.363615
 30
0.0
 11
16.467866
 21
60.363615
 31
0.0
  0
LINE
  8
0
  6
BYBLOCK
 62
     0
 10
10.066304
 20
60.363615
 30
0.0
 11
13.614741
 21
60.363615
 31
0.0
  0
SOLID
  8
0
  6
BYBLOCK
 62
     0
 10
20.016304
 20
60.513615
 30
0.0
 11
20.016304
 21
60.213615
 31
0.0
 12
20.916304
 22
60.363615
 32
0.0
 13
20.916304
 23
60.363615
 33
0.0
  0
SOLID
  8
0
  6
BYBLOCK
 62
     0
 10
10.066304
 20
60.513615
 30
0.0
 11
10.066304
 21
60.213615
 31
0.0
 12
9.166304
 22
60.363615
 32
0.0
 13
9.166304
 23
60.363615
 33
0.0
  0
TEXT
  8
0
  6
BYBLOCK
 62
     0
 10
14.064741
 20
60.051115
 30
0.0
 40
0.625
  1
11.750
 41
0.75
 72
     1
 11
15.041304
 21
60.363615
 31
0.0
 73
     2
  0
POINT
  8
DEFPOINTS
  6
BYBLOCK
 62
     0
 10
20.916304
 20
58.903615
 30
0.0
  0
POINT
  8
DEFPOINTS
  6
BYBLOCK
 62
     0
 10
9.166304
 20
58.903615
 30
0.0
  0
POINT
  8
DEFPOINTS
  6
BYBLOCK
 62
     0
 10
9.166304
 20
60.363615
 30
0.0
  0
ENDBLK
  8
0
  0
BLOCK
  8
0
  2
*D9
 70
    65
 10
0.0
 20
0.0
 30
0.0
  3
*D
  0
LINE
  8
0
  6
BYBLOCK
 62
     0
 10
23.853804
 20
59.249615
 30
0.0
 11
23.853804
 21
60.828615
 31
0.0
  0
LINE
  8
0
  6
BYBLOCK
 62
     0
 10
20.916304
 20
59.218615
 30
0.0
 11
20.916304
 21
60.828615
 31
0.0
  0
LINE
  8
0
  6
BYBLOCK
 62
     0
 10
24.753804
 20
60.363615
 30
0.0
 11
25.653804
 21
60.363615
 31
0.0
  0
LINE
  8
0
  6
BYBLOCK
 62
     0
 10
20.016304
 20
60.363615
 30
0.0
 11
19.116304
 21
60.363615
 31
0.0
  0
SOLID
  8
0
  6
BYBLOCK
 62
     0
 10
24.753804
 20
60.513615
 30
0.0
 11
24.753804
 21
60.213615
 31
0.0
 12
23.853804
 22
60.363615
 32
0.0
 13
23.853804
 23
60.363615
 33
0.0
  0
SOLID
  8
0
  6
BYBLOCK
 62
     0
 10
20.016304
 20
60.513615
 30
0.0
 11
20.016304
 21
60.213615
 31
0.0
 12
20.916304
 22
60.363615
 32
0.0
 13
20.916304
 23
60.363615
 33
0.0
  0
TEXT
  8
0
  6
BYBLOCK
 62
     0
 10
21.447554
 20
60.051115
 30
0.0
 40
0.625
  1
2.937
 41
0.75
 72
     1
 11
22.385054
 21
60.363615
 31
0.0
 73
     2
  0
POINT
  8
DEFPOINTS
  6
BYBLOCK
 62
     0
 10
23.853804
 20
58.934615
 30
0.0
  0
POINT
  8
DEFPOINTS
  6
BYBLOCK
 62
     0
 10
20.916304
 20
58.903615
 30
0.0
  0
POINT
  8
DEFPOINTS
  6
BYBLOCK
 62
     0
 10
20.916304
 20
60.363615
 30
0.0
  0
ENDBLK
  8
0
  0
BLOCK
  8
0
  2
*D10
 70
    65
 10
0.0
 20
0.0
 30
0.0
  3
*D
  0
LINE
  8
0
  6
BYBLOCK
 62
     0
 10
5.869304
 20
68.882526
 30
0.0
 11
5.869304
 21
72.179026
 31
0.0
  0
LINE
  8
0
  6
BYBLOCK
 62
     0
 10
24.213304
 20
68.882526
 30
0.0
 11
24.213304
 21
72.179026
 31
0.0
  0
LINE
  8
0
  6
BYBLOCK
 62
     0
 10
6.769304
 20
71.714026
 30
0.0
 11
13.497554
 21
71.714026
 31
0.0
  0
LINE
  8
0
  6
BYBLOCK
 62
     0
 10
23.313304
 20
71.714026
 30
0.0
 11
16.585054
 21
71.714026
 31
0.0
  0
SOLID
  8
0
  6
BYBLOCK
 62
     0
 10
6.769304
 20
71.864026
 30
0.0
 11
6.769304
 21
71.564026
 31
0.0
 12
5.869304
 22
71.714026
 32
0.0
 13
5.869304
 23
71.714026
 33
0.0
  0
SOLID
  8
0
  6
BYBLOCK
 62
     0
 10
23.313304
 20
71.864026
 30
0.0
 11
23.313304
 21
71.564026
 31
0.0
 12
24.213304
 22
71.714026
 32
0.0
 13
24.213304
 23
71.714026
 33
0.0
  0
TEXT
  8
0
  6
BYBLOCK
 62
     0
 10
13.947554
 20
71.401526
 30
0.0
 40
0.625
  1
18.344
 41
0.75
 72
     1
 11
15.041304
 21
71.714026
 31
0.0
 73
     2
  0
POINT
  8
DEFPOINTS
  6
BYBLOCK
 62
     0
 10
5.869304
 20
68.567526
 30
0.0
  0
POINT
  8
DEFPOINTS
  6
BYBLOCK
 62
     0
 10
24.213304
 20
68.567526
 30
0.0
  0
POINT
  8
DEFPOINTS
  6
BYBLOCK
 62
     0
 10
24.213304
 20
71.714026
 30
0.0
  0
ENDBLK
  8
0
  0
BLOCK
  8
0
  2
*D11
 70
    65
 10
0.0
 20
0.0
 30
0.0
  3
*D
  0
LINE
  8
0
  6
BYBLOCK
 62
     0
 10
24.213304
 20
68.882526
 30
0.0
 11
24.213304
 21
72.179026
 31
0.0
  0
LINE
  8
0
  6
BYBLOCK
 62
     0
 10
24.541304
 20
68.976026
 30
0.0
 11
24.541304
 21
72.179026
 31
0.0
  0
LINE
  8
0
  6
BYBLOCK
 62
     0
 10
23.313304
 20
71.714026
 30
0.0
 11
22.413304
 21
71.714026
 31
0.0
  0
LINE
  8
0
  6
BYBLOCK
 62
     0
 10
25.441304
 20
71.714026
 30
0.0
 11
26.341304
 21
71.714026
 31
0.0
  0
SOLID
  8
0
  6
BYBLOCK
 62
     0
 10
23.313304
 20
71.864026
 30
0.0
 11
23.313304
 21
71.564026
 31
0.0
 12
24.213304
 22
71.714026
 32
0.0
 13
24.213304
 23
71.714026
 33
0.0
  0
SOLID
  8
0
  6
BYBLOCK
 62
     0
 10
25.441304
 20
71.864026
 30
0.0
 11
25.441304
 21
71.564026
 31
0.0
 12
24.541304
 22
71.714026
 32
0.0
 13
24.541304
 23
71.714026
 33
0.0
  0
TEXT
  8
0
  6
BYBLOCK
 62
     0
 10
26.791304
 20
71.401526
 30
0.0
 40
0.625
  1
0.328
 41
0.75
 72
     1
 11
27.689741
 21
71.714026
 31
0.0
 73
     2
  0
POINT
  8
DEFPOINTS
  6
BYBLOCK
 62
     0
 10
24.213304
 20
68.567526
 30
0.0
  0
POINT
  8
DEFPOINTS
  6
BYBLOCK
 62
     0
 10
24.541304
 20
68.661026
 30
0.0
  0
POINT
  8
DEFPOINTS
  6
BYBLOCK
 62
     0
 10
24.541304
 20
71.714026
 30
0.0
  0
ENDBLK
  8
0
  0
BLOCK
  8
0
  2
*D12
 70
    65
 10
0.0
 20
0.0
 30
0.0
  3
*D
  0
LINE
  8
0
  6
BYBLOCK
 62
     0
 10
5.541304
 20
68.976026
 30
0.0
 11
5.541304
 21
73.584026
 31
0.0
  0
LINE
  8
0
  6
BYBLOCK
 62
     0
 10
24.541304
 20
68.976026
 30
0.0
 11
24.541304
 21
73.584026
 31
0.0
  0
LINE
  8
0
  6
BYBLOCK
 62
     0
 10
6.441304
 20
73.119026
 30
0.0
 11
13.614741
 21
73.119026
 31
0.0
  0
LINE
  8
0
  6
BYBLOCK
 62
     0
 10
23.641304
 20
73.119026
 30
0.0
 11
16.467866
 21
73.119026
 31
0.0
  0
SOLID
  8
0
  6
BYBLOCK
 62
     0
 10
6.441304
 20
73.269026
 30
0.0
 11
6.441304
 21
72.969026
 31
0.0
 12
5.541304
 22
73.119026
 32
0.0
 13
5.541304
 23
73.119026
 33
0.0
  0
SOLID
  8
0
  6
BYBLOCK
 62
     0
 10
23.641304
 20
73.269026
 30
0.0
 11
23.641304
 21
72.969026
 31
0.0
 12
24.541304
 22
73.119026
 32
0.0
 13
24.541304
 23
73.119026
 33
0.0
  0
TEXT
  8
0
  6
BYBLOCK
 62
     0
 10
14.064741
 20
72.806526
 30
0.0
 40
0.625
  1
19.000
 41
0.75
 72
     1
 11
15.041304
 21
73.119026
 31
0.0
 73
     2
  0
POINT
  8
DEFPOINTS
  6
BYBLOCK
 62
     0
 10
5.541304
 20
68.661026
 30
0.0
  0
POINT
  8
DEFPOINTS
  6
BYBLOCK
 62
     0
 10
24.541304
 20
68.661026
 30
0.0
  0
POINT
  8
DEFPOINTS
  6
BYBLOCK
 62
     0
 10
24.541304
 20
73.119026
 30
0.0
  0
ENDBLK
  8
0
  0
BLOCK
  8
0
  2
*D13
 70
    65
 10
0.0
 20
0.0
 30
0.0
  3
*D
  0
LINE
  8
0
  6
BYBLOCK
 62
     0
 10
23.853804
 20
59.249615
 30
0.0
 11
23.853804
 21
62.233615
 31
0.0
  0
LINE
  8
0
  6
BYBLOCK
 62
     0
 10
6.228804
 20
59.249615
 30
0.0
 11
6.228804
 21
62.233615
 31
0.0
  0
LINE
  8
0
  6
BYBLOCK
 62
     0
 10
22.953804
 20
61.768615
 30
0.0
 11
16.585054
 21
61.768615
 31
0.0
  0
LINE
  8
0
  6
BYBLOCK
 62
     0
 10
7.128804
 20
61.768615
 30
0.0
 11
13.497554
 21
61.768615
 31
0.0
  0
SOLID
  8
0
  6
BYBLOCK
 62
     0
 10
22.953804
 20
61.918615
 30
0.0
 11
22.953804
 21
61.618615
 31
0.0
 12
23.853804
 22
61.768615
 32
0.0
 13
23.853804
 23
61.768615
 33
0.0
  0
SOLID
  8
0
  6
BYBLOCK
 62
     0
 10
7.128804
 20
61.918615
 30
0.0
 11
7.128804
 21
61.618615
 31
0.0
 12
6.228804
 22
61.768615
 32
0.0
 13
6.228804
 23
61.768615
 33
0.0
  0
TEXT
  8
0
  6
BYBLOCK
 62
     0
 10
13.947554
 20
61.456115
 30
0.0
 40
0.625
  1
17.625
 41
0.75
 72
     1
 11
15.041304
 21
61.768615
 31
0.0
 73
     2
  0
POINT
  8
DEFPOINTS
  6
BYBLOCK
 62
     0
 10
23.853804
 20
58.934615
 30
0.0
  0
POINT
  8
DEFPOINTS
  6
BYBLOCK
 62
     0
 10
6.228804
 20
58.934615
 30
0.0
  0
POINT
  8
DEFPOINTS
  6
BYBLOCK
 62
     0
 10
6.228804
 20
61.768615
 30
0.0
  0
ENDBLK
  8
0
  0
BLOCK
  8
0
  2
*D14
 70
    65
 10
0.0
 20
0.0
 30
0.0
  3
*D
  0
LINE
  8
0
  6
BYBLOCK
 62
     0
 10
24.856304
 20
51.028615
 30
0.0
 11
26.278804
 21
51.028615
 31
0.0
  0
LINE
  8
0
  6
BYBLOCK
 62
     0
 10
24.856304
 20
48.028615
 30
0.0
 11
26.278804
 21
48.028615
 31
0.0
  0
LINE
  8
0
  6
BYBLOCK
 62
     0
 10
25.813804
 20
51.928615
 30
0.0
 11
25.813804
 21
52.828615
 31
0.0
  0
LINE
  8
0
  6
BYBLOCK
 62
     0
 10
25.813804
 20
47.128615
 30
0.0
 11
25.813804
 21
46.228615
 31
0.0
  0
SOLID
  8
0
  6
BYBLOCK
 62
     0
 10
25.663804
 20
51.928615
 30
0.0
 11
25.963804
 21
51.928615
 31
0.0
 12
25.813804
 22
51.028615
 32
0.0
 13
25.813804
 23
51.028615
 33
0.0
  0
SOLID
  8
0
  6
BYBLOCK
 62
     0
 10
25.663804
 20
47.128615
 30
0.0
 11
25.963804
 21
47.128615
 31
0.0
 12
25.813804
 22
48.028615
 32
0.0
 13
25.813804
 23
48.028615
 33
0.0
  0
TEXT
  8
0
  6
BYBLOCK
 62
     0
 10
24.993491
 20
49.216115
 30
0.0
 40
0.625
  1
3.000
 41
0.75
 72
     1
 11
25.813804
 21
49.528615
 31
0.0
 73
     2
  0
POINT
  8
DEFPOINTS
  6
BYBLOCK
 62
     0
 10
24.541304
 20
51.028615
 30
0.0
  0
POINT
  8
DEFPOINTS
  6
BYBLOCK
 62
     0
 10
24.541304
 20
48.028615
 30
0.0
  0
POINT
  8
DEFPOINTS
  6
BYBLOCK
 62
     0
 10
25.813804
 20
48.028615
 30
0.0
  0
ENDBLK
  8
0
  0
BLOCK
  8
0
  2
*D15
 70
    65
 10
0.0
 20
0.0
 30
0.0
  3
*D
  0
LINE
  8
0
  6
BYBLOCK
 62
     0
 10
7.76134
 20
58.903615
 30
0.0
 11
1.30884
 21
58.903615
 31
0.0
  0
LINE
  8
0
  6
BYBLOCK
 62
     0
 10
4.88484
 20
59.028615
 30
0.0
 11
1.30884
 21
59.028615
 31
0.0
  0
LINE
  8
0
  6
BYBLOCK
 62
     0
 10
1.77384
 20
58.003615
 30
0.0
 11
1.77384
 21
57.103615
 31
0.0
  0
LINE
  8
0
  6
BYBLOCK
 62
     0
 10
1.77384
 20
59.928615
 30
0.0
 11
1.77384
 21
60.828615
 31
0.0
  0
LINE
  8
0
  6
BYBLOCK
 62
     0
 10
1.77384
 20
60.828615
 30
0.0
 11
2.67384
 21
60.828615
 31
0.0
  0
SOLID
  8
0
  6
BYBLOCK
 62
     0
 10
1.62384
 20
58.003615
 30
0.0
 11
1.92384
 21
58.003615
 31
0.0
 12
1.77384
 22
58.903615
 32
0.0
 13
1.77384
 23
58.903615
 33
0.0
  0
SOLID
  8
0
  6
BYBLOCK
 62
     0
 10
1.62384
 20
59.928615
 30
0.0
 11
1.92384
 21
59.928615
 31
0.0
 12
1.77384
 22
59.028615
 32
0.0
 13
1.77384
 23
59.028615
 33
0.0
  0
TEXT
  8
0
  6
BYBLOCK
 62
     0
 10
3.12384
 20
60.516115
 30
0.0
 40
0.625
  1
0.125
 41
0.75
 72
     1
 11
3.944153
 21
60.828615
 31
0.0
 73
     2
  0
POINT
  8
DEFPOINTS
  6
BYBLOCK
 62
     0
 10
8.07634
 20
58.903615
 30
0.0
  0
POINT
  8
DEFPOINTS
  6
BYBLOCK
 62
     0
 10
5.19984
 20
59.028615
 30
0.0
  0
POINT
  8
DEFPOINTS
  6
BYBLOCK
 62
     0
 10
1.77384
 20
59.028615
 30
0.0
  0
ENDBLK
  8
0
  0
BLOCK
  8
0
  2
*D16
 70
    65
 10
0.0
 20
0.0
 30
0.0
  3
*D
  0
LINE
  8
0
  6
BYBLOCK
 62
     0
 10
7.76134
 20
58.903615
 30
0.0
 11
2.71384
 21
58.903615
 31
0.0
  0
LINE
  8
0
  6
BYBLOCK
 62
     0
 10
7.76134
 20
50.903615
 30
0.0
 11
2.71384
 21
50.903615
 31
0.0
  0
LINE
  8
0
  6
BYBLOCK
 62
     0
 10
3.17884
 20
58.003615
 30
0.0
 11
3.17884
 21
55.666115
 31
0.0
  0
LINE
  8
0
  6
BYBLOCK
 62
     0
 10
3.17884
 20
51.803615
 30
0.0
 11
3.17884
 21
54.141115
 31
0.0
  0
SOLID
  8
0
  6
BYBLOCK
 62
     0
 10
3.02884
 20
58.003615
 30
0.0
 11
3.32884
 21
58.003615
 31
0.0
 12
3.17884
 22
58.903615
 32
0.0
 13
3.17884
 23
58.903615
 33
0.0
  0
SOLID
  8
0
  6
BYBLOCK
 62
     0
 10
3.02884
 20
51.803615
 30
0.0
 11
3.32884
 21
51.803615
 31
0.0
 12
3.17884
 22
50.903615
 32
0.0
 13
3.17884
 23
50.903615
 33
0.0
  0
TEXT
  8
0
  6
BYBLOCK
 62
     0
 10
2.358528
 20
54.591115
 30
0.0
 40
0.625
  1
8.000
 41
0.75
 72
     1
 11
3.17884
 21
54.903615
 31
0.0
 73
     2
  0
POINT
  8
DEFPOINTS
  6
BYBLOCK
 62
     0
 10
8.07634
 20
58.903615
 30
0.0
  0
POINT
  8
DEFPOINTS
  6
BYBLOCK
 62
     0
 10
8.07634
 20
50.903615
 30
0.0
  0
POINT
  8
DEFPOINTS
  6
BYBLOCK
 62
     0
 10
3.17884
 20
50.903615
 30
0.0
  0
ENDBLK
  8
0
  0
BLOCK
  8
0
  2
*D17
 70
    65
 10
0.0
 20
0.0
 30
0.0
  3
*D
  0
LINE
  8
0
  6
BYBLOCK
 62
     0
 10
9.080113
 20
20.232933
 30
0.0
 11
2.032613
 21
20.232933
 31
0.0
  0
LINE
  8
0
  6
BYBLOCK
 62
     0
 10
9.080113
 20
12.232933
 30
0.0
 11
2.032613
 21
12.232933
 31
0.0
  0
LINE
  8
0
  6
BYBLOCK
 62
     0
 10
2.497613
 20
19.332933
 30
0.0
 11
2.497613
 21
16.995433
 31
0.0
  0
LINE
  8
0
  6
BYBLOCK
 62
     0
 10
2.497613
 20
13.132933
 30
0.0
 11
2.497613
 21
15.470433
 31
0.0
  0
SOLID
  8
0
  6
BYBLOCK
 62
     0
 10
2.347613
 20
19.332933
 30
0.0
 11
2.647613
 21
19.332933
 31
0.0
 12
2.497613
 22
20.232933
 32
0.0
 13
2.497613
 23
20.232933
 33
0.0
  0
SOLID
  8
0
  6
BYBLOCK
 62
     0
 10
2.347613
 20
13.132933
 30
0.0
 11
2.647613
 21
13.132933
 31
0.0
 12
2.497613
 22
12.232933
 32
0.0
 13
2.497613
 23
12.232933
 33
0.0
  0
TEXT
  8
0
  6
BYBLOCK
 62
     0
 10
1.6773
 20
15.920433
 30
0.0
 40
0.625
  1
8.000
 41
0.75
 72
     1
 11
2.497613
 21
16.232933
 31
0.0
 73
     2
  0
POINT
  8
DEFPOINTS
  6
BYBLOCK
 62
     0
 10
9.395113
 20
20.232933
 30
0.0
  0
POINT
  8
DEFPOINTS
  6
BYBLOCK
 62
     0
 10
9.395113
 20
12.232933
 30
0.0
  0
POINT
  8
DEFPOINTS
  6
BYBLOCK
 62
     0
 10
2.497613
 20
12.232933
 30
0.0
  0
ENDBLK
  8
0
  0
BLOCK
  8
0
  2
*D18
 70
    65
 10
0.0
 20
0.0
 30
0.0
  3
*D
  0
LINE
  8
0
  6
BYBLOCK
 62
     0
 10
9.080113
 20
20.232933
 30
0.0
 11
0.627613
 21
20.232933
 31
0.0
  0
LINE
  8
0
  6
BYBLOCK
 62
     0
 10
4.203613
 20
20.357933
 30
0.0
 11
0.627613
 21
20.357933
 31
0.0
  0
LINE
  8
0
  6
BYBLOCK
 62
     0
 10
1.092613
 20
19.332933
 30
0.0
 11
1.092613
 21
18.432933
 31
0.0
  0
LINE
  8
0
  6
BYBLOCK
 62
     0
 10
1.092613
 20
21.257933
 30
0.0
 11
1.092613
 21
22.157933
 31
0.0
  0
LINE
  8
0
  6
BYBLOCK
 62
     0
 10
1.092613
 20
22.157933
 30
0.0
 11
1.992613
 21
22.157933
 31
0.0
  0
SOLID
  8
0
  6
BYBLOCK
 62
     0
 10
0.942613
 20
19.332933
 30
0.0
 11
1.242613
 21
19.332933
 31
0.0
 12
1.092613
 22
20.232933
 32
0.0
 13
1.092613
 23
20.232933
 33
0.0
  0
SOLID
  8
0
  6
BYBLOCK
 62
     0
 10
0.942613
 20
21.257933
 30
0.0
 11
1.242613
 21
21.257933
 31
0.0
 12
1.092613
 22
20.357933
 32
0.0
 13
1.092613
 23
20.357933
 33
0.0
  0
TEXT
  8
0
  6
BYBLOCK
 62
     0
 10
2.442613
 20
21.845433
 30
0.0
 40
0.625
  1
0.125
 41
0.75
 72
     1
 11
3.262925
 21
22.157933
 31
0.0
 73
     2
  0
POINT
  8
DEFPOINTS
  6
BYBLOCK
 62
     0
 10
9.395113
 20
20.232933
 30
0.0
  0
POINT
  8
DEFPOINTS
  6
BYBLOCK
 62
     0
 10
4.518613
 20
20.357933
 30
0.0
  0
POINT
  8
DEFPOINTS
  6
BYBLOCK
 62
     0
 10
1.092613
 20
20.357933
 30
0.0
  0
ENDBLK
  8
0
  0
BLOCK
  8
0
  2
*D19
 70
    65
 10
0.0
 20
0.0
 30
0.0
  3
*D
  0
LINE
  8
0
  6
BYBLOCK
 62
     0
 10
26.082613
 20
20.578933
 30
0.0
 11
26.082613
 21
23.562933
 31
0.0
  0
LINE
  8
0
  6
BYBLOCK
 62
     0
 10
4.457613
 20
20.578933
 30
0.0
 11
4.457613
 21
23.562933
 31
0.0
  0
LINE
  8
0
  6
BYBLOCK
 62
     0
 10
25.182613
 20
23.097933
 30
0.0
 11
16.813863
 21
23.097933
 31
0.0
  0
LINE
  8
0
  6
BYBLOCK
 62
     0
 10
5.357613
 20
23.097933
 30
0.0
 11
13.726363
 21
23.097933
 31
0.0
  0
SOLID
  8
0
  6
BYBLOCK
 62
     0
 10
25.182613
 20
23.247933
 30
0.0
 11
25.182613
 21
22.947933
 31
0.0
 12
26.082613
 22
23.097933
 32
0.0
 13
26.082613
 23
23.097933
 33
0.0
  0
SOLID
  8
0
  6
BYBLOCK
 62
     0
 10
5.357613
 20
23.247933
 30
0.0
 11
5.357613
 21
22.947933
 31
0.0
 12
4.457613
 22
23.097933
 32
0.0
 13
4.457613
 23
23.097933
 33
0.0
  0
TEXT
  8
0
  6
BYBLOCK
 62
     0
 10
14.176363
 20
22.785433
 30
0.0
 40
0.625
  1
21.625
 41
0.75
 72
     1
 11
15.270113
 21
23.097933
 31
0.0
 73
     2
  0
POINT
  8
DEFPOINTS
  6
BYBLOCK
 62
     0
 10
26.082613
 20
20.263933
 30
0.0
  0
POINT
  8
DEFPOINTS
  6
BYBLOCK
 62
     0
 10
4.457613
 20
20.263933
 30
0.0
  0
POINT
  8
DEFPOINTS
  6
BYBLOCK
 62
     0
 10
4.457613
 20
23.097933
 30
0.0
  0
ENDBLK
  8
0
  0
BLOCK
  8
0
  2
*D20
 70
    65
 10
0.0
 20
0.0
 30
0.0
  3
*D
  0
LINE
  8
0
  6
BYBLOCK
 62
     0
 10
3.770113
 20
30.305344
 30
0.0
 11
3.770113
 21
34.913344
 31
0.0
  0
LINE
  8
0
  6
BYBLOCK
 62
     0
 10
26.770113
 20
30.305344
 30
0.0
 11
26.770113
 21
34.913344
 31
0.0
  0
LINE
  8
0
  6
BYBLOCK
 62
     0
 10
4.670113
 20
34.448344
 30
0.0
 11
13.765425
 21
34.448344
 31
0.0
  0
LINE
  8
0
  6
BYBLOCK
 62
     0
 10
25.870113
 20
34.448344
 30
0.0
 11
16.7748
 21
34.448344
 31
0.0
  0
SOLID
  8
0
  6
BYBLOCK
 62
     0
 10
4.670113
 20
34.598344
 30
0.0
 11
4.670113
 21
34.298344
 31
0.0
 12
3.770113
 22
34.448344
 32
0.0
 13
3.770113
 23
34.448344
 33
0.0
  0
SOLID
  8
0
  6
BYBLOCK
 62
     0
 10
25.870113
 20
34.598344
 30
0.0
 11
25.870113
 21
34.298344
 31
0.0
 12
26.770113
 22
34.448344
 32
0.0
 13
26.770113
 23
34.448344
 33
0.0
  0
TEXT
  8
0
  6
BYBLOCK
 62
     0
 10
14.215425
 20
34.135844
 30
0.0
 40
0.625
  1
23.000
 41
0.75
 72
     1
 11
15.270113
 21
34.448344
 31
0.0
 73
     2
  0
POINT
  8
DEFPOINTS
  6
BYBLOCK
 62
     0
 10
3.770113
 20
29.990344
 30
0.0
  0
POINT
  8
DEFPOINTS
  6
BYBLOCK
 62
     0
 10
26.770113
 20
29.990344
 30
0.0
  0
POINT
  8
DEFPOINTS
  6
BYBLOCK
 62
     0
 10
26.770113
 20
34.448344
 30
0.0
  0
ENDBLK
  8
0
  0
BLOCK
  8
0
  2
*D21
 70
    65
 10
0.0
 20
0.0
 30
0.0
  3
*D
  0
LINE
  8
0
  6
BYBLOCK
 62
     0
 10
4.098113
 20
30.211844
 30
0.0
 11
4.098113
 21
33.508344
 31
0.0
  0
LINE
  8
0
  6
BYBLOCK
 62
     0
 10
26.442113
 20
30.211844
 30
0.0
 11
26.442113
 21
33.508344
 31
0.0
  0
LINE
  8
0
  6
BYBLOCK
 62
     0
 10
4.998113
 20
33.043344
 30
0.0
 11
13.648238
 21
33.043344
 31
0.0
  0
LINE
  8
0
  6
BYBLOCK
 62
     0
 10
25.542113
 20
33.043344
 30
0.0
 11
16.891988
 21
33.043344
 31
0.0
  0
SOLID
  8
0
  6
BYBLOCK
 62
     0
 10
4.998113
 20
33.193344
 30
0.0
 11
4.998113
 21
32.893344
 31
0.0
 12
4.098113
 22
33.043344
 32
0.0
 13
4.098113
 23
33.043344
 33
0.0
  0
SOLID
  8
0
  6
BYBLOCK
 62
     0
 10
25.542113
 20
33.193344
 30
0.0
 11
25.542113
 21
32.893344
 31
0.0
 12
26.442113
 22
33.043344
 32
0.0
 13
26.442113
 23
33.043344
 33
0.0
  0
TEXT
  8
0
  6
BYBLOCK
 62
     0
 10
14.098238
 20
32.730844
 30
0.0
 40
0.625
  1
22.344
 41
0.75
 72
     1
 11
15.270113
 21
33.043344
 31
0.0
 73
     2
  0
POINT
  8
DEFPOINTS
  6
BYBLOCK
 62
     0
 10
4.098113
 20
29.896844
 30
0.0
  0
POINT
  8
DEFPOINTS
  6
BYBLOCK
 62
     0
 10
26.442113
 20
29.896844
 30
0.0
  0
POINT
  8
DEFPOINTS
  6
BYBLOCK
 62
     0
 10
26.442113
 20
33.043344
 30
0.0
  0
ENDBLK
  8
0
  0
BLOCK
  8
0
  2
*D22
 70
    65
 10
0.0
 20
0.0
 30
0.0
  3
*D
  0
LINE
  8
0
  6
BYBLOCK
 62
     0
 10
26.082613
 20
20.578933
 30
0.0
 11
26.082613
 21
22.157933
 31
0.0
  0
LINE
  8
0
  6
BYBLOCK
 62
     0
 10
21.145113
 20
20.547933
 30
0.0
 11
21.145113
 21
22.157933
 31
0.0
  0
LINE
  8
0
  6
BYBLOCK
 62
     0
 10
26.982613
 20
21.692933
 30
0.0
 11
27.882613
 21
21.692933
 31
0.0
  0
LINE
  8
0
  6
BYBLOCK
 62
     0
 10
20.245113
 20
21.692933
 30
0.0
 11
19.345113
 21
21.692933
 31
0.0
  0
SOLID
  8
0
  6
BYBLOCK
 62
     0
 10
26.982613
 20
21.842933
 30
0.0
 11
26.982613
 21
21.542933
 31
0.0
 12
26.082613
 22
21.692933
 32
0.0
 13
26.082613
 23
21.692933
 33
0.0
  0
SOLID
  8
0
  6
BYBLOCK
 62
     0
 10
20.245113
 20
21.842933
 30
0.0
 11
20.245113
 21
21.542933
 31
0.0
 12
21.145113
 22
21.692933
 32
0.0
 13
21.145113
 23
21.692933
 33
0.0
  0
TEXT
  8
0
  6
BYBLOCK
 62
     0
 10
22.676363
 20
21.380433
 30
0.0
 40
0.625
  1
4.937
 41
0.75
 72
     1
 11
23.613863
 21
21.692933
 31
0.0
 73
     2
  0
POINT
  8
DEFPOINTS
  6
BYBLOCK
 62
     0
 10
26.082613
 20
20.263933
 30
0.0
  0
POINT
  8
DEFPOINTS
  6
BYBLOCK
 62
     0
 10
21.145113
 20
20.232933
 30
0.0
  0
POINT
  8
DEFPOINTS
  6
BYBLOCK
 62
     0
 10
21.145113
 20
21.692933
 30
0.0
  0
ENDBLK
  8
0
  0
BLOCK
  8
0
  2
*D23
 70
    65
 10
0.0
 20
0.0
 30
0.0
  3
*D
  0
LINE
  8
0
  6
BYBLOCK
 62
     0
 10
26.442113
 20
30.211844
 30
0.0
 11
26.442113
 21
33.508344
 31
0.0
  0
LINE
  8
0
  6
BYBLOCK
 62
     0
 10
26.770113
 20
30.305344
 30
0.0
 11
26.770113
 21
33.508344
 31
0.0
  0
LINE
  8
0
  6
BYBLOCK
 62
     0
 10
25.542113
 20
33.043344
 30
0.0
 11
24.642113
 21
33.043344
 31
0.0
  0
LINE
  8
0
  6
BYBLOCK
 62
     0
 10
27.670113
 20
33.043344
 30
0.0
 11
28.570113
 21
33.043344
 31
0.0
  0
SOLID
  8
0
  6
BYBLOCK
 62
     0
 10
25.542113
 20
33.193344
 30
0.0
 11
25.542113
 21
32.893344
 31
0.0
 12
26.442113
 22
33.043344
 32
0.0
 13
26.442113
 23
33.043344
 33
0.0
  0
SOLID
  8
0
  6
BYBLOCK
 62
     0
 10
27.670113
 20
33.193344
 30
0.0
 11
27.670113
 21
32.893344
 31
0.0
 12
26.770113
 22
33.043344
 32
0.0
 13
26.770113
 23
33.043344
 33
0.0
  0
TEXT
  8
0
  6
BYBLOCK
 62
     0
 10
29.020113
 20
32.730844
 30
0.0
 40
0.625
  1
0.328
 41
0.75
 72
     1
 11
29.91855
 21
33.043344
 31
0.0
 73
     2
  0
POINT
  8
DEFPOINTS
  6
BYBLOCK
 62
     0
 10
26.442113
 20
29.896844
 30
0.0
  0
POINT
  8
DEFPOINTS
  6
BYBLOCK
 62
     0
 10
26.770113
 20
29.990344
 30
0.0
  0
POINT
  8
DEFPOINTS
  6
BYBLOCK
 62
     0
 10
26.770113
 20
33.043344
 30
0.0
  0
ENDBLK
  8
0
  0
BLOCK
  8
0
  2
*D24
 70
    65
 10
0.0
 20
0.0
 30
0.0
  3
*D
  0
LINE
  8
0
  6
BYBLOCK
 62
     0
 10
26.345613
 20
26.256344
 30
0.0
 11
23.704781
 21
26.256344
 31
0.0
  0
LINE
  8
0
  6
BYBLOCK
 62
     0
 10
26.345613
 20
28.506344
 30
0.0
 11
23.704781
 21
28.506344
 31
0.0
  0
LINE
  8
0
  6
BYBLOCK
 62
     0
 10
24.169781
 20
25.356344
 30
0.0
 11
24.169781
 21
24.456344
 31
0.0
  0
LINE
  8
0
  6
BYBLOCK
 62
     0
 10
24.169781
 20
29.406344
 30
0.0
 11
24.169781
 21
30.306344
 31
0.0
  0
SOLID
  8
0
  6
BYBLOCK
 62
     0
 10
24.019781
 20
25.356344
 30
0.0
 11
24.319781
 21
25.356344
 31
0.0
 12
24.169781
 22
26.256344
 32
0.0
 13
24.169781
 23
26.256344
 33
0.0
  0
SOLID
  8
0
  6
BYBLOCK
 62
     0
 10
24.019781
 20
29.406344
 30
0.0
 11
24.319781
 21
29.406344
 31
0.0
 12
24.169781
 22
28.506344
 32
0.0
 13
24.169781
 23
28.506344
 33
0.0
  0
TEXT
  8
0
  6
BYBLOCK
 62
     0
 10
23.271344
 20
27.068844
 30
0.0
 40
0.625
  1
2.250
 41
0.75
 72
     1
 11
24.169781
 21
27.381344
 31
0.0
 73
     2
  0
POINT
  8
DEFPOINTS
  6
BYBLOCK
 62
     0
 10
26.660613
 20
26.256344
 30
0.0
  0
POINT
  8
DEFPOINTS
  6
BYBLOCK
 62
     0
 10
26.660613
 20
28.506344
 30
0.0
  0
POINT
  8
DEFPOINTS
  6
BYBLOCK
 62
     0
 10
24.169781
 20
28.506344
 30
0.0
  0
ENDBLK
  8
0
  0
BLOCK
  8
0
  2
*D25
 70
    65
 10
0.0
 20
0.0
 30
0.0
  3
*D
  0
LINE
  8
0
  6
BYBLOCK
 62
     0
 10
49.883477
 20
30.618344
 30
0.0
 11
49.883477
 21
32.103344
 31
0.0
  0
LINE
  8
0
  6
BYBLOCK
 62
     0
 10
30.883477
 20
30.618344
 30
0.0
 11
30.883477
 21
32.103344
 31
0.0
  0
LINE
  8
0
  6
BYBLOCK
 62
     0
 10
48.983477
 20
31.638344
 30
0.0
 11
41.810039
 21
31.638344
 31
0.0
  0
LINE
  8
0
  6
BYBLOCK
 62
     0
 10
31.783477
 20
31.638344
 30
0.0
 11
38.956914
 21
31.638344
 31
0.0
  0
SOLID
  8
0
  6
BYBLOCK
 62
     0
 10
48.983477
 20
31.788344
 30
0.0
 11
48.983477
 21
31.488344
 31
0.0
 12
49.883477
 22
31.638344
 32
0.0
 13
49.883477
 23
31.638344
 33
0.0
  0
SOLID
  8
0
  6
BYBLOCK
 62
     0
 10
31.783477
 20
31.788344
 30
0.0
 11
31.783477
 21
31.488344
 31
0.0
 12
30.883477
 22
31.638344
 32
0.0
 13
30.883477
 23
31.638344
 33
0.0
  0
TEXT
  8
0
  6
BYBLOCK
 62
     0
 10
39.406914
 20
31.325844
 30
0.0
 40
0.625
  1
19.000
 41
0.75
 72
     1
 11
40.383477
 21
31.638344
 31
0.0
 73
     2
  0
POINT
  8
DEFPOINTS
  6
BYBLOCK
 62
     0
 10
49.883477
 20
30.303344
 30
0.0
  0
POINT
  8
DEFPOINTS
  6
BYBLOCK
 62
     0
 10
30.883477
 20
30.303344
 30
0.0
  0
POINT
  8
DEFPOINTS
  6
BYBLOCK
 62
     0
 10
30.883477
 20
31.638344
 30
0.0
  0
ENDBLK
  8
0
  0
BLOCK
  8
0
  2
*D26
 70
    65
 10
0.0
 20
0.0
 30
0.0
  3
*D
  0
LINE
  8
0
  6
BYBLOCK
 62
     0
 10
23.085113
 20
46.278615
 30
0.0
 11
26.842613
 21
46.278615
 31
0.0
  0
LINE
  8
0
  6
BYBLOCK
 62
     0
 10
23.085113
 20
52.778615
 30
0.0
 11
26.842613
 21
52.778615
 31
0.0
  0
LINE
  8
0
  6
BYBLOCK
 62
     0
 10
26.377613
 20
47.178615
 30
0.0
 11
26.377613
 21
48.766115
 31
0.0
  0
LINE
  8
0
  6
BYBLOCK
 62
     0
 10
26.377613
 20
51.878615
 30
0.0
 11
26.377613
 21
50.291115
 31
0.0
  0
SOLID
  8
0
  6
BYBLOCK
 62
     0
 10
26.227613
 20
47.178615
 30
0.0
 11
26.527613
 21
47.178615
 31
0.0
 12
26.377613
 22
46.278615
 32
0.0
 13
26.377613
 23
46.278615
 33
0.0
  0
SOLID
  8
0
  6
BYBLOCK
 62
     0
 10
26.227613
 20
51.878615
 30
0.0
 11
26.527613
 21
51.878615
 31
0.0
 12
26.377613
 22
52.778615
 32
0.0
 13
26.377613
 23
52.778615
 33
0.0
  0
TEXT
  8
0
  6
BYBLOCK
 62
     0
 10
25.518238
 20
49.216115
 30
0.0
 40
0.625
  1
6.500
 41
0.75
 72
     1
 11
26.377613
 21
49.528615
 31
0.0
 73
     2
  0
POINT
  8
DEFPOINTS
  6
BYBLOCK
 62
     0
 10
22.770113
 20
46.278615
 30
0.0
  0
POINT
  8
DEFPOINTS
  6
BYBLOCK
 62
     0
 10
22.770113
 20
52.778615
 30
0.0
  0
POINT
  8
DEFPOINTS
  6
BYBLOCK
 62
     0
 10
26.377613
 20
52.778615
 30
0.0
  0
ENDBLK
  8
0
  0
BLOCK
  8
0
  2
*D27
 70
    65
 10
0.0
 20
0.0
 30
0.0
  3
*D
  0
LINE
  8
0
  6
BYBLOCK
 62
     0
 10
23.085113
 20
53.153615
 30
0.0
 11
29.466422
 21
53.153615
 31
0.0
  0
LINE
  8
0
  6
BYBLOCK
 62
     0
 10
23.085113
 20
45.903615
 30
0.0
 11
29.466422
 21
45.903615
 31
0.0
  0
LINE
  8
0
  6
BYBLOCK
 62
     0
 10
29.001422
 20
52.253615
 30
0.0
 11
29.001422
 21
50.291115
 31
0.0
  0
LINE
  8
0
  6
BYBLOCK
 62
     0
 10
29.001422
 20
46.803615
 30
0.0
 11
29.001422
 21
48.766115
 31
0.0
  0
SOLID
  8
0
  6
BYBLOCK
 62
     0
 10
28.851422
 20
52.253615
 30
0.0
 11
29.151422
 21
52.253615
 31
0.0
 12
29.001422
 22
53.153615
 32
0.0
 13
29.001422
 23
53.153615
 33
0.0
  0
SOLID
  8
0
  6
BYBLOCK
 62
     0
 10
28.851422
 20
46.803615
 30
0.0
 11
29.151422
 21
46.803615
 31
0.0
 12
29.001422
 22
45.903615
 32
0.0
 13
29.001422
 23
45.903615
 33
0.0
  0
TEXT
  8
0
  6
BYBLOCK
 62
     0
 10
28.102985
 20
49.216115
 30
0.0
 40
0.625
  1
7.250
 41
0.75
 72
     1
 11
29.001422
 21
49.528615
 31
0.0
 73
     2
  0
POINT
  8
DEFPOINTS
  6
BYBLOCK
 62
     0
 10
22.770113
 20
53.153615
 30
0.0
  0
POINT
  8
DEFPOINTS
  6
BYBLOCK
 62
     0
 10
22.770113
 20
45.903615
 30
0.0
  0
POINT
  8
DEFPOINTS
  6
BYBLOCK
 62
     0
 10
29.001422
 20
45.903615
 30
0.0
  0
ENDBLK
  8
0
  0
ENDSEC
  0
SECTION
  2
ENTITIES
  0
LINE
  8
OBJECT
 10
3.770113
 20
68.661026
 30
0.0
 11
3.770113
 21
63.443026
 31
0.0
  0
LINE
  8
OBJECT
 10
4.457613
 20
63.443026
 30
0.0
 11
3.770113
 21
63.443026
 31
0.0
  0
LINE
  8
OBJECT
 10
4.457613
 20
68.661026
 30
0.0
 11
3.770113
 21
68.661026
 31
0.0
  0
LINE
  8
OBJECT
 10
4.395613
 20
68.661026
 30
0.0
 11
4.395613
 21
63.443026
 31
0.0
  0
LINE
  8
OBJECT
 10
22.144613
 20
68.661026
 30
0.0
 11
22.144613
 21
63.443026
 31
0.0
  0
LINE
  8
OBJECT
 10
22.770113
 20
68.661026
 30
0.0
 11
22.770113
 21
63.443026
 31
0.0
  0
LINE
  8
OBJECT
 10
22.082613
 20
68.661026
 30
0.0
 11
22.770113
 21
68.661026
 31
0.0
  0
LINE
  8
OBJECT
 10
22.082613
 20
63.443026
 30
0.0
 11
22.770113
 21
63.443026
 31
0.0
  0
LINE
  8
OBJECT
 10
4.265613
 20
64.086026
 30
0.0
 11
4.395613
 21
64.086026
 31
0.0
  0
LINE
  8
OBJECT
 10
4.265613
 20
64.194026
 30
0.0
 11
4.395613
 21
64.194026
 31
0.0
  0
LINE
  8
OBJECT
 10
4.265613
 20
64.410026
 30
0.0
 11
4.395613
 21
64.410026
 31
0.0
  0
LINE
  8
OBJECT
 10
4.265613
 20
64.518026
 30
0.0
 11
4.395613
 21
64.518026
 31
0.0
  0
LINE
  8
OBJECT
 10
4.265613
 20
64.086026
 30
0.0
 11
4.265613
 21
64.518026
 31
0.0
  0
LINE
  8
OBJECT
 10
4.144613
 20
64.207026
 30
0.0
 11
4.265613
 21
64.207026
 31
0.0
  0
LINE
  8
OBJECT
 10
4.144613
 20
64.397026
 30
0.0
 11
4.265613
 21
64.397026
 31
0.0
  0
LINE
  8
OBJECT
 10
4.144613
 20
64.397026
 30
0.0
 11
4.144613
 21
64.207026
 31
0.0
  0
ARC
  8
OBJECT
 10
4.366003
 20
64.302026
 30
0.0
 40
0.27161
 50
304.440759
 51
55.559241
  0
LINE
  8
OBJECT
 10
4.144613
 20
67.707026
 30
0.0
 11
4.265613
 21
67.707026
 31
0.0
  0
LINE
  8
OBJECT
 10
4.144613
 20
67.897026
 30
0.0
 11
4.265613
 21
67.897026
 31
0.0
  0
ARC
  8
OBJECT
 10
4.366003
 20
67.802026
 30
0.0
 40
0.27161
 50
304.440759
 51
55.559241
  0
LINE
  8
OBJECT
 10
4.265613
 20
67.586026
 30
0.0
 11
4.395613
 21
67.586026
 31
0.0
  0
LINE
  8
OBJECT
 10
4.265613
 20
67.694026
 30
0.0
 11
4.395613
 21
67.694026
 31
0.0
  0
LINE
  8
OBJECT
 10
4.265613
 20
67.910026
 30
0.0
 11
4.395613
 21
67.910026
 31
0.0
  0
LINE
  8
OBJECT
 10
4.265613
 20
68.018026
 30
0.0
 11
4.395613
 21
68.018026
 31
0.0
  0
LINE
  8
OBJECT
 10
4.265613
 20
68.018026
 30
0.0
 11
4.265613
 21
67.586026
 31
0.0
  0
LINE
  8
OBJECT
 10
4.144613
 20
67.707026
 30
0.0
 11
4.144613
 21
67.897026
 31
0.0
  0
LINE
  8
OBJECT
 10
22.395613
 20
64.397026
 30
0.0
 11
22.274613
 21
64.397026
 31
0.0
  0
LINE
  8
OBJECT
 10
22.395613
 20
64.207026
 30
0.0
 11
22.274613
 21
64.207026
 31
0.0
  0
ARC
  8
OBJECT
 10
22.174223
 20
64.302026
 30
0.0
 40
0.27161
 50
124.440759
 51
235.559241
  0
LINE
  8
OBJECT
 10
22.274613
 20
64.518026
 30
0.0
 11
22.144613
 21
64.518026
 31
0.0
  0
LINE
  8
OBJECT
 10
22.274613
 20
64.410026
 30
0.0
 11
22.144613
 21
64.410026
 31
0.0
  0
LINE
  8
OBJECT
 10
22.274613
 20
64.194026
 30
0.0
 11
22.144613
 21
64.194026
 31
0.0
  0
LINE
  8
OBJECT
 10
22.274613
 20
64.086026
 30
0.0
 11
22.144613
 21
64.086026
 31
0.0
  0
LINE
  8
OBJECT
 10
22.274613
 20
64.086026
 30
0.0
 11
22.274613
 21
64.518026
 31
0.0
  0
LINE
  8
OBJECT
 10
22.395613
 20
64.397026
 30
0.0
 11
22.395613
 21
64.207026
 31
0.0
  0
LINE
  8
OBJECT
 10
22.395613
 20
67.897026
 30
0.0
 11
22.274613
 21
67.897026
 31
0.0
  0
LINE
  8
OBJECT
 10
22.395613
 20
67.707026
 30
0.0
 11
22.274613
 21
67.707026
 31
0.0
  0
LINE
  8
OBJECT
 10
22.274613
 20
68.018026
 30
0.0
 11
22.274613
 21
67.586026
 31
0.0
  0
LINE
  8
OBJECT
 10
22.274613
 20
68.018026
 30
0.0
 11
22.144613
 21
68.018026
 31
0.0
  0
LINE
  8
OBJECT
 10
22.274613
 20
67.910026
 30
0.0
 11
22.144613
 21
67.910026
 31
0.0
  0
LINE
  8
OBJECT
 10
22.274613
 20
67.694026
 30
0.0
 11
22.144613
 21
67.694026
 31
0.0
  0
LINE
  8
OBJECT
 10
22.274613
 20
67.586026
 30
0.0
 11
22.144613
 21
67.586026
 31
0.0
  0
ARC
  8
OBJECT
 10
22.174223
 20
67.802026
 30
0.0
 40
0.27161
 50
124.440759
 51
235.559241
  0
LINE
  8
OBJECT
 10
22.395613
 20
67.707026
 30
0.0
 11
22.395613
 21
67.897026
 31
0.0
  0
DIMENSION
  8
DIM
  2
*D12
 10
22.770113
 20
73.119026
 30
0.0
 11
13.270113
 21
73.119026
 31
0.0
 12
-1.771191
 22
0.0
 32
0.0
  1
<>
 13
3.770113
 23
68.661026
 33
0.0
 14
22.770113
 24
68.661026
 34
0.0
  3
23NSTD
  0
DIMENSION
  8
DIM
  2
*D10
 10
22.442113
 20
71.714026
 30
0.0
 11
13.270113
 21
71.714026
 31
0.0
 12
-1.771191
 22
0.0
 32
0.0
  1
<>
 13
4.098113
 23
68.567526
 33
0.0
 14
22.442113
 24
68.567526
 34
0.0
  3
23NSTD
  0
DIMENSION
  8
DIM
  2
*D11
 10
22.770113
 20
71.714026
 30
0.0
 11
25.91855
 21
71.714026
 31
0.0
 12
-1.771191
 22
0.0
 32
0.0
  1
<>
 13
22.442113
 23
68.567526
 33
0.0
 14
22.770113
 24
68.661026
 34
0.0
  3
23NSTD
  0
LINE
  8
TITLE
 10
0.31
 20
36.429318
 30
0.0
 11
50.29
 21
36.429318
 31
0.0
  0
LINE
  8
TITLE
 10
0.31
 20
38.519318
 30
0.0
 11
50.29
 21
38.519318
 31
0.0
  0
LINE
  8
TITLE
 10
0.31
 20
38.829318
 30
0.0
 11
50.29
 21
38.829318
 31
0.0
  0
LINE
  8
TITLE
 10
4.06
 20
38.519318
 30
0.0
 11
4.06
 21
36.429318
 31
0.0
  0
LINE
  8
TITLE
 10
29.36
 20
38.519318
 30
0.0
 11
29.36
 21
36.429318
 31
0.0
  0
LINE
  8
TITLE
 10
25.61
 20
38.519318
 30
0.0
 11
25.61
 21
36.429318
 31
0.0
  0
LINE
  8
TITLE
 10
25.3
 20
38.519318
 30
0.0
 11
25.3
 21
36.429318
 31
0.0
  0
TEXT
  8
TEXT
 10
5.797967
 20
75.803497
 30
0.0
 40
0.75
  1
MONITOR SHELF ASSEMBLY - 19" P.S.
 41
0.75
 72
     1
 11
14.329217
 21
75.803497
 31
0.0
  0
TEXT
  8
TEXT
 10
37.687116
 20
75.803497
 30
0.0
 40
0.75
  1
SA-1796
 41
0.75
 72
     1
 11
39.468366
 21
75.803497
 31
0.0
  0
TEXT
  8
TEXT
 10
26.357248
 20
37.645658
 30
0.0
 40
0.625
  1
PART
 72
     1
 11
27.503081
 21
37.645658
 31
0.0
  0
TEXT
  8
TEXT
 10
26.878081
 20
36.603991
 30
0.0
 40
0.625
  1
No.
 72
     1
 11
27.503081
 21
36.603991
 31
0.0
  0
TEXT
  8
TEXT
 10
1.057248
 20
36.603991
 30
0.0
 40
0.625
  1
NAME
 72
     1
 11
2.203081
 21
36.603991
 31
0.0
  0
TEXT
  8
TEXT
 10
1.057248
 20
37.645658
 30
0.0
 40
0.625
  1
PART
 72
     1
 11
2.203081
 21
37.645658
 31
0.0
  0
LINE
  8
OBJECT
 10
43.848541
 20
63.443026
 30
0.0
 11
35.284541
 21
63.443026
 31
0.0
  0
LINE
  8
OBJECT
 10
48.972541
 20
68.567026
 30
0.0
 11
43.848541
 21
63.443026
 31
0.0
  0
LINE
  8
OBJECT
 10
30.160541
 20
68.567026
 30
0.0
 11
35.284541
 21
63.443026
 31
0.0
  0
LINE
  8
OBJECT
 10
48.972541
 20
68.567026
 30
0.0
 11
48.972541
 21
68.661026
 31
0.0
  0
LINE
  8
OBJECT
 10
30.160541
 20
68.567026
 30
0.0
 11
30.160541
 21
68.661026
 31
0.0
  0
LINE
  8
OBJECT
 10
49.004541
 20
68.661026
 30
0.0
 11
30.128541
 21
68.661026
 31
0.0
  0
LINE
  8
HIDDEN
 10
48.972541
 20
68.599026
 30
0.0
 11
30.160541
 21
68.599026
 31
0.0
  0
LINE
  8
OBJECT
 10
30.066541
 20
68.974026
 30
0.0
 11
30.066541
 21
68.599026
 31
0.0
  0
LINE
  8
OBJECT
 10
30.128541
 20
68.974026
 30
0.0
 11
30.128541
 21
68.661026
 31
0.0
  0
LINE
  8
OBJECT
 10
30.128541
 20
68.974026
 30
0.0
 11
30.066541
 21
68.974026
 31
0.0
  0
LINE
  8
OBJECT
 10
49.066541
 20
68.974026
 30
0.0
 11
49.066541
 21
68.599026
 31
0.0
  0
LINE
  8
OBJECT
 10
49.004541
 20
68.974026
 30
0.0
 11
49.004541
 21
68.661026
 31
0.0
  0
LINE
  8
OBJECT
 10
49.066541
 20
68.974026
 30
0.0
 11
49.004541
 21
68.974026
 31
0.0
  0
LINE
  8
HIDDEN
 10
22.021613
 20
68.661026
 30
0.0
 11
4.518613
 21
68.661026
 31
0.0
  0
LINE
  8
OBJECT
 10
22.020613
 20
68.599026
 30
0.0
 11
4.519613
 21
68.599026
 31
0.0
  0
LINE
  8
OBJECT
 10
4.457613
 20
68.661026
 30
0.0
 11
4.457613
 21
63.443026
 31
0.0
  0
LINE
  8
OBJECT
 10
4.519613
 20
68.599026
 30
0.0
 11
4.519613
 21
63.443026
 31
0.0
  0
LINE
  8
OBJECT
 10
4.457613
 20
63.443026
 30
0.0
 11
4.519613
 21
63.443026
 31
0.0
  0
LINE
  8
OBJECT
 10
22.082613
 20
68.661026
 30
0.0
 11
22.082613
 21
63.443026
 31
0.0
  0
LINE
  8
OBJECT
 10
22.020613
 20
68.599026
 30
0.0
 11
22.020613
 21
63.443026
 31
0.0
  0
LINE
  8
OBJECT
 10
22.020613
 20
63.443026
 30
0.0
 11
22.082613
 21
63.443026
 31
0.0
  0
LINE
  8
OBJECT
 10
21.896613
 20
68.974026
 30
0.0
 11
4.643613
 21
68.974026
 31
0.0
  0
LINE
  8
OBJECT
 10
4.643613
 20
68.974026
 30
0.0
 11
4.518613
 21
68.849026
 31
0.0
  0
LINE
  8
OBJECT
 10
4.518613
 20
68.849026
 30
0.0
 11
4.518613
 21
68.599026
 31
0.0
  0
LINE
  8
OBJECT
 10
21.896613
 20
68.974026
 30
0.0
 11
22.021613
 21
68.849026
 31
0.0
  0
LINE
  8
OBJECT
 10
22.021613
 20
68.849026
 30
0.0
 11
22.021613
 21
68.599026
 31
0.0
  0
LINE
  8
OBJECT
 10
4.518613
 20
68.661026
 30
0.0
 11
4.457613
 21
68.661026
 31
0.0
  0
LINE
  8
OBJECT
 10
22.021613
 20
68.661026
 30
0.0
 11
22.082613
 21
68.661026
 31
0.0
  0
LINE
  8
OBJECT
 10
30.160541
 20
68.599026
 30
0.0
 11
30.066541
 21
68.599026
 31
0.0
  0
LINE
  8
OBJECT
 10
49.066541
 20
68.599026
 30
0.0
 11
48.972541
 21
68.599026
 31
0.0
  0
POLYLINE
  8
OBJECT
 66
     1
 10
0.0
 20
0.0
 30
0.0
 70
     1
  0
VERTEX
  8
OBJECT
 10
7.395113
 20
68.599026
 30
0.0
  0
VERTEX
  8
OBJECT
 10
7.395113
 20
68.552026
 30
0.0
  0
VERTEX
  8
OBJECT
 10
7.958113
 20
68.552026
 30
0.0
 42
-0.414214
  0
VERTEX
  8
OBJECT
 10
7.973113
 20
68.537026
 30
0.0
  0
VERTEX
  8
OBJECT
 10
7.973113
 20
64.614026
 30
0.0
 42
0.414214
  0
VERTEX
  8
OBJECT
 10
8.035113
 20
64.552026
 30
0.0
  0
VERTEX
  8
OBJECT
 10
18.505113
 20
64.552026
 30
0.0
 42
0.414214
  0
VERTEX
  8
OBJECT
 10
18.567113
 20
64.614026
 30
0.0
  0
VERTEX
  8
OBJECT
 10
18.567113
 20
68.537026
 30
0.0
 42
-0.414214
  0
VERTEX
  8
OBJECT
 10
18.582113
 20
68.552026
 30
0.0
  0
VERTEX
  8
OBJECT
 10
19.145113
 20
68.552026
 30
0.0
  0
VERTEX
  8
OBJECT
 10
19.145113
 20
68.599026
 30
0.0
  0
VERTEX
  8
OBJECT
 10
18.582113
 20
68.599026
 30
0.0
 42
0.414214
  0
VERTEX
  8
OBJECT
 10
18.520113
 20
68.537026
 30
0.0
  0
VERTEX
  8
OBJECT
 10
18.520113
 20
64.614026
 30
0.0
 42
-0.414214
  0
VERTEX
  8
OBJECT
 10
18.505113
 20
64.599026
 30
0.0
  0
VERTEX
  8
OBJECT
 10
8.035113
 20
64.599026
 30
0.0
 42
-0.414214
  0
VERTEX
  8
OBJECT
 10
8.020113
 20
64.614026
 30
0.0
  0
VERTEX
  8
OBJECT
 10
8.020113
 20
68.537026
 30
0.0
 42
0.414214
  0
VERTEX
  8
OBJECT
 10
7.958113
 20
68.599026
 30
0.0
  0
SEQEND
  8
OBJECT
  0
LINE
  8
OBJECT
 10
22.082613
 20
40.122615
 30
0.0
 11
22.082613
 21
58.934615
 31
0.0
  0
LINE
  8
OBJECT
 10
22.020613
 20
40.122615
 30
0.0
 11
22.020613
 21
58.934615
 31
0.0
  0
LINE
  8
OBJECT
 10
18.567113
 20
50.903615
 30
0.0
 11
18.567113
 21
58.903615
 31
0.0
  0
LINE
  8
OBJECT
 10
7.973113
 20
50.903615
 30
0.0
 11
7.973113
 21
58.903615
 31
0.0
  0
LINE
  8
OBJECT
 10
4.457613
 20
40.122615
 30
0.0
 11
4.457613
 21
58.934615
 31
0.0
  0
LINE
  8
OBJECT
 10
4.519613
 20
40.122615
 30
0.0
 11
4.519613
 21
58.934615
 31
0.0
  0
LINE
  8
OBJECT
 10
19.145113
 20
50.903615
 30
0.0
 11
19.145113
 21
58.903615
 31
0.0
  0
LINE
  8
OBJECT
 10
7.395113
 20
50.903615
 30
0.0
 11
7.395113
 21
58.903615
 31
0.0
  0
LINE
  8
HIDDEN
 10
8.020113
 20
50.903615
 30
0.0
 11
8.020113
 21
58.903615
 31
0.0
  0
LINE
  8
HIDDEN
 10
18.520113
 20
50.903615
 30
0.0
 11
18.520113
 21
58.903615
 31
0.0
  0
LINE
  8
OBJECT
 10
22.082613
 20
58.934615
 30
0.0
 11
22.020613
 21
58.934615
 31
0.0
  0
LINE
  8
OBJECT
 10
22.082613
 20
40.122615
 30
0.0
 11
22.020613
 21
40.122615
 31
0.0
  0
LINE
  8
HIDDEN
 10
22.021613
 20
40.090615
 30
0.0
 11
4.518613
 21
40.090615
 31
0.0
  0
LINE
  8
OBJECT
 10
22.021613
 20
40.028615
 30
0.0
 11
4.518613
 21
40.028615
 31
0.0
  0
LINE
  8
HIDDEN
 10
22.082613
 20
47.794115
 30
0.0
 11
22.020613
 21
47.794115
 31
0.0
  0
LINE
  8
HIDDEN
 10
22.082613
 20
47.513115
 30
0.0
 11
22.020613
 21
47.513115
 31
0.0
  0
LINE
  8
OBJECT
 10
22.082613
 20
47.935615
 30
0.0
 11
22.020613
 21
47.935615
 31
0.0
  0
LINE
  8
HIDDEN
 10
22.020613
 20
45.388115
 30
0.0
 11
22.082613
 21
45.388115
 31
0.0
  0
LINE
  8
HIDDEN
 10
22.020613
 20
45.669115
 30
0.0
 11
22.082613
 21
45.669115
 31
0.0
  0
LINE
  8
OBJECT
 10
4.519613
 20
58.934615
 30
0.0
 11
4.457613
 21
58.934615
 31
0.0
  0
LINE
  8
OBJECT
 10
4.519613
 20
40.122615
 30
0.0
 11
4.457613
 21
40.122615
 31
0.0
  0
LINE
  8
OBJECT
 10
22.021613
 20
40.028615
 30
0.0
 11
22.021613
 21
40.122615
 31
0.0
  0
LINE
  8
OBJECT
 10
4.518613
 20
40.028615
 30
0.0
 11
4.518613
 21
40.122615
 31
0.0
  0
LINE
  8
HIDDEN
 10
22.021613
 20
58.966615
 30
0.0
 11
4.518613
 21
58.966615
 31
0.0
  0
LINE
  8
OBJECT
 10
22.021613
 20
59.028615
 30
0.0
 11
4.518613
 21
59.028615
 31
0.0
  0
LINE
  8
OBJECT
 10
4.518613
 20
59.028615
 30
0.0
 11
4.518613
 21
58.934615
 31
0.0
  0
LINE
  8
OBJECT
 10
4.519613
 20
58.934615
 30
0.0
 11
4.457613
 21
58.934615
 31
0.0
  0
LINE
  8
OBJECT
 10
22.021613
 20
59.028615
 30
0.0
 11
22.021613
 21
58.934615
 31
0.0
  0
LINE
  8
HIDDEN
 10
21.896613
 20
40.028615
 30
0.0
 11
21.896613
 21
40.090615
 31
0.0
  0
LINE
  8
HIDDEN
 10
4.643613
 20
40.028615
 30
0.0
 11
4.643613
 21
40.090615
 31
0.0
  0
LINE
  8
HIDDEN
 10
4.643613
 20
58.966615
 30
0.0
 11
4.643613
 21
59.028615
 31
0.0
  0
LINE
  8
HIDDEN
 10
21.896613
 20
58.966615
 30
0.0
 11
21.896613
 21
59.028615
 31
0.0
  0
LINE
  8
OBJECT
 10
19.145113
 20
50.903615
 30
0.0
 11
7.395113
 21
50.903615
 31
0.0
  0
LINE
  8
HIDDEN
 10
38.191541
 20
64.552026
 30
0.0
 11
38.191541
 21
68.599026
 31
0.0
  0
LINE
  8
OBJECT
 10
34.175541
 20
64.552026
 30
0.0
 11
30.191541
 21
64.552026
 31
0.0
  0
LINE
  8
HIDDEN
 10
38.191541
 20
64.599026
 30
0.0
 11
30.191541
 21
64.599026
 31
0.0
  0
LINE
  8
HIDDEN
 10
38.191541
 20
68.552026
 30
0.0
 11
30.191541
 21
68.552026
 31
0.0
  0
LINE
  8
OBJECT
 10
30.191541
 20
64.552026
 30
0.0
 11
30.191541
 21
68.536026
 31
0.0
  0
LINE
  8
HIDDEN
 10
30.191541
 20
68.599026
 30
0.0
 11
30.191541
 21
68.536026
 31
0.0
  0
LINE
  8
OBJECT
 10
19.145113
 20
58.903615
 30
0.0
 11
7.395113
 21
58.903615
 31
0.0
  0
LINE
  8
HIDDEN
 10
34.175541
 20
64.552026
 30
0.0
 11
38.191541
 21
64.552026
 31
0.0
  0
DIMENSION
  8
DIM
  2
*D15
 10
1.092613
 20
59.028615
 30
0.0
 11
3.262925
 21
60.828615
 31
0.0
 12
-0.681227
 22
0.0
 32
0.0
  1
<>
 13
7.395113
 23
58.903615
 33
0.0
 14
4.518613
 24
59.028615
 34
0.0
 50
270.0
  3
23NSTD
  0
DIMENSION
  8
DIM
  2
*D9
 10
19.145113
 20
60.363615
 30
0.0
 11
20.613863
 21
60.363615
 31
0.0
 12
-1.771191
 22
0.0
 32
0.0
  1
<>
 13
22.082613
 23
58.934615
 33
0.0
 14
19.145113
 24
58.903615
 34
0.0
  3
23NSTDI
  0
DIMENSION
  8
DIM
  2
*D8
 10
7.395113
 20
60.363615
 30
0.0
 11
13.270113
 21
60.363615
 31
0.0
 12
-1.771191
 22
0.0
 32
0.0
  1
<>
 13
19.145113
 23
58.903615
 33
0.0
 14
7.395113
 24
58.903615
 34
0.0
  3
23NSTD
  0
DIMENSION
  8
DIM
  2
*D13
 10
4.457613
 20
61.768615
 30
0.0
 11
13.270113
 21
61.768615
 31
0.0
 12
-1.771191
 22
0.0
 32
0.0
  1
<>
 13
22.082613
 23
58.934615
 33
0.0
 14
4.457613
 24
58.934615
 34
0.0
  3
23NSTD
  0
DIMENSION
  8
DIM
  2
*D16
 10
2.497613
 20
50.903615
 30
0.0
 11
2.497613
 21
54.903615
 31
0.0
 12
-0.681227
 22
0.0
 32
0.0
  1
<>
 13
7.395113
 23
58.903615
 33
0.0
 14
7.395113
 24
50.903615
 34
0.0
 50
270.0
  3
23NSTD
  0
CIRCLE
  8
OBJECT
 10
37.691541
 20
64.302026
 30
0.0
 40
0.095
  0
POLYLINE
  8
OBJECT
 66
     1
 10
0.0
 20
0.0
 30
0.0
 70
     1
  0
VERTEX
  8
OBJECT
 10
37.878603
 20
64.410026
 30
0.0
  0
VERTEX
  8
OBJECT
 10
37.691541
 20
64.518026
 30
0.0
  0
VERTEX
  8
OBJECT
 10
37.50448
 20
64.410026
 30
0.0
  0
VERTEX
  8
OBJECT
 10
37.50448
 20
64.194026
 30
0.0
  0
VERTEX
  8
OBJECT
 10
37.691541
 20
64.086026
 30
0.0
  0
VERTEX
  8
OBJECT
 10
37.878603
 20
64.194026
 30
0.0
  0
SEQEND
  8
OBJECT
  0
CIRCLE
  8
OBJECT
 10
37.691541
 20
67.802026
 30
0.0
 40
0.095
  0
POLYLINE
  8
OBJECT
 66
     1
 10
0.0
 20
0.0
 30
0.0
 70
     1
  0
VERTEX
  8
OBJECT
 10
37.878603
 20
67.910026
 30
0.0
  0
VERTEX
  8
OBJECT
 10
37.691541
 20
68.018026
 30
0.0
  0
VERTEX
  8
OBJECT
 10
37.50448
 20
67.910026
 30
0.0
  0
VERTEX
  8
OBJECT
 10
37.50448
 20
67.694026
 30
0.0
  0
VERTEX
  8
OBJECT
 10
37.691541
 20
67.586026
 30
0.0
  0
VERTEX
  8
OBJECT
 10
37.878603
 20
67.694026
 30
0.0
  0
SEQEND
  8
OBJECT
  0
LINE
  8
OBJECT
 10
37.441541
 20
68.661026
 30
0.0
 11
37.441541
 21
63.443026
 31
0.0
  0
LINE
  8
OBJECT
 10
41.128541
 20
68.661026
 30
0.0
 11
41.128541
 21
63.443026
 31
0.0
  0
LINE
  8
OBJECT
 10
41.691541
 20
68.661026
 30
0.0
 11
41.691541
 21
63.443026
 31
0.0
  0
LINE
  8
OBJECT
 10
41.066541
 20
68.661026
 30
0.0
 11
41.066541
 21
63.443026
 31
0.0
  0
LINE
  8
OBJECT
 10
38.066541
 20
68.661026
 30
0.0
 11
38.066541
 21
63.443026
 31
0.0
  0
LINE
  8
OBJECT
 10
38.004541
 20
68.661026
 30
0.0
 11
38.004541
 21
63.443026
 31
0.0
  0
CIRCLE
  8
OBJECT
 10
41.441541
 20
64.302026
 30
0.0
 40
0.095
  0
POLYLINE
  8
OBJECT
 66
     1
 10
0.0
 20
0.0
 30
0.0
 70
     1
  0
VERTEX
  8
OBJECT
 10
41.25448
 20
64.410026
 30
0.0
  0
VERTEX
  8
OBJECT
 10
41.441541
 20
64.518026
 30
0.0
  0
VERTEX
  8
OBJECT
 10
41.628603
 20
64.410026
 30
0.0
  0
VERTEX
  8
OBJECT
 10
41.628603
 20
64.194026
 30
0.0
  0
VERTEX
  8
OBJECT
 10
41.441541
 20
64.086026
 30
0.0
  0
VERTEX
  8
OBJECT
 10
41.25448
 20
64.194026
 30
0.0
  0
SEQEND
  8
OBJECT
  0
CIRCLE
  8
OBJECT
 10
41.441541
 20
67.802026
 30
0.0
 40
0.095
  0
POLYLINE
  8
OBJECT
 66
     1
 10
0.0
 20
0.0
 30
0.0
 70
     1
  0
VERTEX
  8
OBJECT
 10
41.25448
 20
67.910026
 30
0.0
  0
VERTEX
  8
OBJECT
 10
41.441541
 20
68.018026
 30
0.0
  0
VERTEX
  8
OBJECT
 10
41.628603
 20
67.910026
 30
0.0
  0
VERTEX
  8
OBJECT
 10
41.628603
 20
67.694026
 30
0.0
  0
VERTEX
  8
OBJECT
 10
41.441541
 20
67.586026
 30
0.0
  0
VERTEX
  8
OBJECT
 10
41.25448
 20
67.694026
 30
0.0
  0
SEQEND
  8
OBJECT
  0
DIMENSION
  8
DIM
  2
*D27
 10
29.001422
 20
45.903615
 30
0.0
 11
29.001422
 21
49.528615
 31
0.0
  1
<>
 13
22.770113
 23
53.153615
 33
0.0
 14
22.770113
 24
45.903615
 34
0.0
 50
90.0
  3
23NSTD
  0
DIMENSION
  8
DIM
  2
*D14
 10
24.042613
 20
48.028615
 30
0.0
 11
24.042613
 21
49.528615
 31
0.0
 12
-1.771191
 22
0.0
 32
0.0
  1
<>
 13
22.770113
 23
51.028615
 33
0.0
 14
22.770113
 24
48.028615
 34
0.0
 50
90.0
  3
23NSTDI
  0
LINE
  8
OBJECT
 10
22.395613
 20
47.748615
 30
0.0
 11
22.274613
 21
47.748615
 31
0.0
  0
LINE
  8
OBJECT
 10
22.395613
 20
47.558615
 30
0.0
 11
22.274613
 21
47.558615
 31
0.0
  0
LINE
  8
OBJECT
 10
22.395613
 20
47.558615
 30
0.0
 11
22.395613
 21
47.748615
 31
0.0
  0
LINE
  8
OBJECT
 10
22.274613
 20
47.545615
 30
0.0
 11
22.144613
 21
47.545615
 31
0.0
  0
LINE
  8
OBJECT
 10
22.274613
 20
47.437615
 30
0.0
 11
22.144613
 21
47.437615
 31
0.0
  0
LINE
  8
OBJECT
 10
22.274613
 20
47.869615
 30
0.0
 11
22.144613
 21
47.869615
 31
0.0
  0
LINE
  8
OBJECT
 10
22.274613
 20
47.761615
 30
0.0
 11
22.144613
 21
47.761615
 31
0.0
  0
LINE
  8
OBJECT
 10
22.274613
 20
47.869615
 30
0.0
 11
22.274613
 21
47.437615
 31
0.0
  0
ARC
  8
OBJECT
 10
22.174223
 20
47.653615
 30
0.0
 40
0.27161
 50
124.440759
 51
235.559241
  0
DIMENSION
  8
DIM
  2
*D2
 10
6.519558
 20
68.974026
 30
0.0
 11
8.767996
 21
70.774026
 31
0.0
 12
-1.771191
 22
0.0
 32
0.0
  1
<>
 13
6.395558
 23
68.599026
 33
0.0
 14
6.519558
 24
68.974026
 34
0.0
 50
90.0
  3
23NSTD
  0
DIMENSION
  8
DIM
  2
*D0
 10
30.066541
 20
70.774026
 30
0.0
 11
39.566541
 21
70.774026
 31
0.0
  1
<>
 13
49.066541
 23
68.974026
 33
0.0
 14
30.066541
 24
68.974026
 34
0.0
  3
23NSTD
  0
DIMENSION
  8
DIM
  2
*D7
 10
25.009501
 20
68.427026
 30
0.0
 11
25.009501
 21
67.802026
 31
0.0
 12
-1.771191
 22
0.0
 32
0.0
  1
<>
 13
22.660613
 23
67.177026
 33
0.0
 14
22.660613
 24
68.427026
 34
0.0
 50
90.0
  3
23NSTDI
  0
DIMENSION
  8
DIM
  2
*D6
 10
26.414501
 20
67.177026
 30
0.0
 11
26.414501
 21
66.052026
 31
0.0
 12
-1.771191
 22
0.0
 32
0.0
  1
<>
 13
22.660613
 23
64.927026
 33
0.0
 14
22.660613
 24
67.177026
 34
0.0
 50
90.0
  3
23NSTDI
  0
DIMENSION
  8
DIM
  2
*D5
 10
24.069501
 20
63.677026
 30
0.0
 11
24.069501
 21
64.302026
 31
0.0
 12
-1.771191
 22
0.0
 32
0.0
  1
<>
 13
22.660613
 23
64.927026
 33
0.0
 14
22.660613
 24
63.677026
 34
0.0
 50
90.0
  3
23NSTDI
  0
DIMENSION
  8
DIM
  2
*D1
 10
2.032613
 20
68.661026
 30
0.0
 11
2.032613
 21
66.052026
 31
0.0
 12
-1.771191
 22
0.0
 32
0.0
  1
<>
 13
3.770113
 23
63.443026
 33
0.0
 14
3.770113
 24
68.661026
 34
0.0
 50
90.0
  3
23NSTD
  0
TEXT
  8
TEXT
 10
32.642513
 20
55.522143
 30
0.0
 40
0.625
  1
%%UMATERIAL:
 41
0.75
  0
TEXT
  8
TEXT
 10
33.151876
 20
54.480476
 30
0.0
 40
0.625
  1
SHELF &
 41
0.75
  0
TEXT
  8
TEXT
 10
33.151876
 20
52.397143
 30
0.0
 40
0.625
  1
SWITCH BOX BRACKET
 41
0.75
  0
TEXT
  8
TEXT
 10
44.232198
 20
52.397143
 30
0.0
 40
0.625
  1
18 GA. STEEL
 41
0.75
  0
TEXT
  8
TEXT
 10
32.642513
 20
50.31381
 30
0.0
 40
0.625
  1
%%UFINISH:
 41
0.75
  0
TEXT
  8
TEXT
 10
33.151876
 20
49.272143
 30
0.0
 40
0.625
  1
METALLIC GRAY
 41
0.75
  0
TEXT
  8
TEXT
 10
33.151876
 20
48.230476
 30
0.0
 40
0.625
  1
BLACK TEXTURE
 41
0.75
  0
TEXT
  8
TEXT
 10
33.151876
 20
46.147143
 30
0.0
 40
0.625
  1
UNIT SHIPPED UNASSEMBLED
 41
0.75
  0
TEXT
  8
TEXT
 10
37.687116
 20
37.132815
 30
0.0
 40
0.75
  1
SA-1798
 41
0.75
 72
     1
 11
39.468366
 21
37.132815
 31
0.0
  0
TEXT
  8
TEXT
 10
5.704217
 20
37.132815
 30
0.0
 40
0.75
  1
MONITOR SHELF ASSEMBLY - 23" P.S.
 41
0.75
 72
     1
 11
14.329217
 21
37.132815
 31
0.0
  0
LINE
  8
TEXT
 10
43.932572
 20
52.397143
 30
0.0
 11
41.731221
 21
52.397143
 31
0.0
  0
TEXT
  8
TEXT
 10
1.039167
 20
75.300396
 30
0.0
 40
0.625
  1
NAME
 72
     1
 11
2.185
 21
75.300396
 31
0.0
  0
TEXT
  8
TEXT
 10
1.039167
 20
76.342063
 30
0.0
 40
0.625
  1
PART
 72
     1
 11
2.185
 21
76.342063
 31
0.0
  0
TEXT
  8
TEXT
 10
26.86
 20
75.300396
 30
0.0
 40
0.625
  1
No.
 72
     1
 11
27.485
 21
75.300396
 31
0.0
  0
TEXT
  8
TEXT
 10
26.339167
 20
76.342063
 30
0.0
 40
0.625
  1
PART
 72
     1
 11
27.485
 21
76.342063
 31
0.0
  0
LINE
  8
TITLE
 10
29.36
 20
77.19
 30
0.0
 11
29.36
 21
75.1
 31
0.0
  0
LINE
  8
TITLE
 10
25.61
 20
77.19
 30
0.0
 11
25.61
 21
75.1
 31
0.0
  0
LINE
  8
TITLE
 10
25.3
 20
77.19
 30
0.0
 11
25.3
 21
75.1
 31
0.0
  0
LINE
  8
TITLE
 10
4.06
 20
75.1
 30
0.0
 11
4.06
 21
77.19
 31
0.0
  0
LINE
  8
TITLE
 10
0.31
 20
75.1
 30
0.0
 11
50.29
 21
75.1
 31
0.0
  0
LINE
  8
TITLE
 10
50.29
 20
0.31
 30
0.0
 11
0.31
 21
0.31
 31
0.0
  0
LINE
  8
TITLE
 10
50.29
 20
77.19
 30
0.0
 11
50.29
 21
0.31
 31
0.0
  0
LINE
  8
TITLE
 10
0.31
 20
77.19
 30
0.0
 11
50.29
 21
77.19
 31
0.0
  0
LINE
  8
TITLE
 10
0.31
 20
0.31
 30
0.0
 11
0.31
 21
77.19
 31
0.0
  0
LINE
  8
TITLE
 10
0.0
 20
0.0
 30
0.0
 11
0.0
 21
77.5
 31
0.0
  0
LINE
  8
TITLE
 10
50.6
 20
0.0
 30
0.0
 11
0.0
 21
0.0
 31
0.0
  0
LINE
  8
TITLE
 10
50.6
 20
77.5
 30
0.0
 11
50.6
 21
0.0
 31
0.0
  0
LINE
  8
TITLE
 10
0.0
 20
77.5
 30
0.0
 11
50.6
 21
77.5
 31
0.0
  0
POLYLINE
  8
OBJECT
 66
     1
 10
0.0
 20
0.0
 30
0.0
 70
     1
  0
VERTEX
  8
OBJECT
 10
4.020113
 20
68.567526
 30
0.0
 42
1.0
  0
VERTEX
  8
OBJECT
 10
4.020113
 20
68.286526
 30
0.0
  0
VERTEX
  8
OBJECT
 10
4.176113
 20
68.286526
 30
0.0
 42
1.0
  0
VERTEX
  8
OBJECT
 10
4.176113
 20
68.567526
 30
0.0
  0
SEQEND
  8
OBJECT
  0
POLYLINE
  8
OBJECT
 66
     1
 10
0.0
 20
0.0
 30
0.0
 70
     1
  0
VERTEX
  8
OBJECT
 10
4.020113
 20
67.317526
 30
0.0
 42
1.0
  0
VERTEX
  8
OBJECT
 10
4.020113
 20
67.036526
 30
0.0
  0
VERTEX
  8
OBJECT
 10
4.176113
 20
67.036526
 30
0.0
 42
1.0
  0
VERTEX
  8
OBJECT
 10
4.176113
 20
67.317526
 30
0.0
  0
SEQEND
  8
OBJECT
  0
POLYLINE
  8
OBJECT
 66
     1
 10
0.0
 20
0.0
 30
0.0
 70
     1
  0
VERTEX
  8
OBJECT
 10
4.020113
 20
63.536526
 30
0.0
 42
-1.0
  0
VERTEX
  8
OBJECT
 10
4.020113
 20
63.817526
 30
0.0
  0
VERTEX
  8
OBJECT
 10
4.176113
 20
63.817526
 30
0.0
 42
-1.0
  0
VERTEX
  8
OBJECT
 10
4.176113
 20
63.536526
 30
0.0
  0
SEQEND
  8
OBJECT
  0
POLYLINE
  8
OBJECT
 66
     1
 10
0.0
 20
0.0
 30
0.0
 70
     1
  0
VERTEX
  8
OBJECT
 10
4.020113
 20
64.786526
 30
0.0
 42
-1.0
  0
VERTEX
  8
OBJECT
 10
4.020113
 20
65.067526
 30
0.0
  0
VERTEX
  8
OBJECT
 10
4.176113
 20
65.067526
 30
0.0
 42
-1.0
  0
VERTEX
  8
OBJECT
 10
4.176113
 20
64.786526
 30
0.0
  0
SEQEND
  8
OBJECT
  0
POLYLINE
  8
OBJECT
 66
     1
 10
0.0
 20
0.0
 30
0.0
 70
     1
  0
VERTEX
  8
OBJECT
 10
22.520113
 20
68.567526
 30
0.0
 42
-1.0
  0
VERTEX
  8
OBJECT
 10
22.520113
 20
68.286526
 30
0.0
  0
VERTEX
  8
OBJECT
 10
22.364113
 20
68.286526
 30
0.0
 42
-1.0
  0
VERTEX
  8
OBJECT
 10
22.364113
 20
68.567526
 30
0.0
  0
SEQEND
  8
OBJECT
  0
POLYLINE
  8
OBJECT
 66
     1
 10
0.0
 20
0.0
 30
0.0
 70
     1
  0
VERTEX
  8
OBJECT
 10
22.520113
 20
67.317526
 30
0.0
 42
-1.0
  0
VERTEX
  8
OBJECT
 10
22.520113
 20
67.036526
 30
0.0
  0
VERTEX
  8
OBJECT
 10
22.364113
 20
67.036526
 30
0.0
 42
-1.0
  0
VERTEX
  8
OBJECT
 10
22.364113
 20
67.317526
 30
0.0
  0
SEQEND
  8
OBJECT
  0
POLYLINE
  8
OBJECT
 66
     1
 10
0.0
 20
0.0
 30
0.0
 70
     1
  0
VERTEX
  8
OBJECT
 10
22.520113
 20
64.786526
 30
0.0
 42
1.0
  0
VERTEX
  8
OBJECT
 10
22.520113
 20
65.067526
 30
0.0
  0
VERTEX
  8
OBJECT
 10
22.364113
 20
65.067526
 30
0.0
 42
1.0
  0
VERTEX
  8
OBJECT
 10
22.364113
 20
64.786526
 30
0.0
  0
SEQEND
  8
OBJECT
  0
POLYLINE
  8
OBJECT
 66
     1
 10
0.0
 20
0.0
 30
0.0
 70
     1
  0
VERTEX
  8
OBJECT
 10
22.520113
 20
63.536526
 30
0.0
 42
1.0
  0
VERTEX
  8
OBJECT
 10
22.520113
 20
63.817526
 30
0.0
  0
VERTEX
  8
OBJECT
 10
22.364113
 20
63.817526
 30
0.0
 42
1.0
  0
VERTEX
  8
OBJECT
 10
22.364113
 20
63.536526
 30
0.0
  0
SEQEND
  8
OBJECT
  0
DIMENSION
  8
DIM
  2
*D3
 10
18.520113
 20
65.596579
 30
0.0
 11
13.270113
 21
65.596579
 31
0.0
 12
-1.771191
 22
0.667553
 32
0.0
 13
8.020113
 23
65.281579
 33
0.0
 14
18.520113
 24
65.281579
 34
0.0
  3
23NSTD
  0
DIMENSION
  8
DIM
  2
*D4
 10
11.005485
 20
68.599026
 30
0.0
 11
11.005485
 21
66.599026
 31
0.0
 12
-1.35778
 22
0.0
 32
0.0
 13
10.690485
 23
64.599026
 33
0.0
 14
10.690485
 24
68.599026
 34
0.0
 50
90.0
  3
23NSTDI
  0
DIMENSION
  8
DIM
  2
*D19
 10
4.457613
 20
23.097933
 30
0.0
 11
15.270113
 21
23.097933
 31
0.0
  1
<>
 13
26.082613
 23
20.263933
 33
0.0
 14
4.457613
 24
20.263933
 34
0.0
  3
23NSTD
  0
DIMENSION
  8
DIM
  2
*D20
 10
26.770113
 20
34.448344
 30
0.0
 11
15.270113
 21
34.448344
 31
0.0
  1
<>
 13
3.770113
 23
29.990344
 33
0.0
 14
26.770113
 24
29.990344
 34
0.0
  3
23NSTD
  0
DIMENSION
  8
DIM
  2
*D21
 10
26.442113
 20
33.043344
 30
0.0
 11
15.270113
 21
33.043344
 31
0.0
  1
<>
 13
4.098113
 23
29.896844
 33
0.0
 14
26.442113
 24
29.896844
 34
0.0
  3
23NSTD
  0
DIMENSION
  8
DIM
  2
*D8
 10
9.395113
 20
21.692933
 30
0.0
 11
13.270113
 21
21.692933
 31
0.0
 12
0.228809
 22
-38.670682
 32
0.0
  1
<>
 13
21.145113
 23
20.232933
 33
0.0
 14
9.395113
 24
20.232933
 34
0.0
  3
23NSTD
  0
DIMENSION
  8
DIM
  2
*D3
 10
20.520113
 20
26.925896
 30
0.0
 11
13.270113
 21
26.925896
 31
0.0
 12
0.228809
 22
-38.00313
 32
0.0
 13
10.020113
 23
26.610896
 33
0.0
 14
20.520113
 24
26.610896
 34
0.0
  3
23NSTD
  0
POLYLINE
  8
OBJECT
 66
     1
 10
0.0
 20
0.0
 30
0.0
 70
     1
  0
VERTEX
  8
OBJECT
 10
9.395113
 20
29.928344
 30
0.0
  0
VERTEX
  8
OBJECT
 10
9.395113
 20
29.881344
 30
0.0
  0
VERTEX
  8
OBJECT
 10
9.958113
 20
29.881344
 30
0.0
 42
-0.414214
  0
VERTEX
  8
OBJECT
 10
9.973113
 20
29.866344
 30
0.0
  0
VERTEX
  8
OBJECT
 10
9.973113
 20
25.943344
 30
0.0
 42
0.414214
  0
VERTEX
  8
OBJECT
 10
10.035113
 20
25.881344
 30
0.0
  0
VERTEX
  8
OBJECT
 10
20.505113
 20
25.881344
 30
0.0
 42
0.414214
  0
VERTEX
  8
OBJECT
 10
20.567113
 20
25.943344
 30
0.0
  0
VERTEX
  8
OBJECT
 10
20.567113
 20
29.866344
 30
0.0
 42
-0.414214
  0
VERTEX
  8
OBJECT
 10
20.582113
 20
29.881344
 30
0.0
  0
VERTEX
  8
OBJECT
 10
21.145113
 20
29.881344
 30
0.0
  0
VERTEX
  8
OBJECT
 10
21.145113
 20
29.928344
 30
0.0
  0
VERTEX
  8
OBJECT
 10
20.582113
 20
29.928344
 30
0.0
 42
0.414214
  0
VERTEX
  8
OBJECT
 10
20.520113
 20
29.866344
 30
0.0
  0
VERTEX
  8
OBJECT
 10
20.520113
 20
25.943344
 30
0.0
 42
-0.414214
  0
VERTEX
  8
OBJECT
 10
20.505113
 20
25.928344
 30
0.0
  0
VERTEX
  8
OBJECT
 10
10.035113
 20
25.928344
 30
0.0
 42
-0.414214
  0
VERTEX
  8
OBJECT
 10
10.020113
 20
25.943344
 30
0.0
  0
VERTEX
  8
OBJECT
 10
10.020113
 20
29.866344
 30
0.0
 42
0.414214
  0
VERTEX
  8
OBJECT
 10
9.958113
 20
29.928344
 30
0.0
  0
SEQEND
  8
OBJECT
  0
LINE
  8
OBJECT
 10
21.145113
 20
12.232933
 30
0.0
 11
9.395113
 21
12.232933
 31
0.0
  0
LINE
  8
OBJECT
 10
21.145113
 20
20.232933
 30
0.0
 11
9.395113
 21
20.232933
 31
0.0
  0
LINE
  8
OBJECT
 10
26.021613
 20
20.357933
 30
0.0
 11
4.518613
 21
20.357933
 31
0.0
  0
LINE
  8
HIDDEN
 10
26.021613
 20
20.295933
 30
0.0
 11
4.518613
 21
20.295933
 31
0.0
  0
LINE
  8
OBJECT
 10
25.896613
 20
30.303344
 30
0.0
 11
4.643613
 21
30.303344
 31
0.0
  0
LINE
  8
OBJECT
 10
26.020613
 20
29.928344
 30
0.0
 11
4.519613
 21
29.928344
 31
0.0
  0
LINE
  8
HIDDEN
 10
26.021613
 20
29.990344
 30
0.0
 11
4.518613
 21
29.990344
 31
0.0
  0
DIMENSION
  8
DIM
  2
*D4
 10
13.005485
 20
29.928344
 30
0.0
 11
11.005485
 21
27.928344
 31
0.0
 12
0.64222
 22
-38.670682
 32
0.0
 13
12.690485
 23
25.928344
 33
0.0
 14
12.690485
 24
29.928344
 34
0.0
 50
90.0
  3
23NSTDI
  0
DIMENSION
  8
DIM
  2
*D17
 10
2.497613
 20
12.232933
 30
0.0
 11
2.497613
 21
16.232933
 31
0.0
  1
<>
 13
9.395113
 23
20.232933
 33
0.0
 14
9.395113
 24
12.232933
 34
0.0
 50
270.0
  3
23NSTD
  0
DIMENSION
  8
DIM
  2
*D18
 10
1.092613
 20
20.357933
 30
0.0
 11
3.262925
 21
22.157933
 31
0.0
  1
<>
 13
9.395113
 23
20.232933
 33
0.0
 14
4.518613
 24
20.357933
 34
0.0
 50
270.0
  3
23NSTD
  0
LINE
  8
HIDDEN
 10
10.020113
 20
12.232933
 30
0.0
 11
10.020113
 21
20.232933
 31
0.0
  0
LINE
  8
OBJECT
 10
9.973113
 20
12.232933
 30
0.0
 11
9.973113
 21
20.232933
 31
0.0
  0
LINE
  8
OBJECT
 10
9.395113
 20
12.232933
 30
0.0
 11
9.395113
 21
20.232933
 31
0.0
  0
LINE
  8
OBJECT
 10
4.519613
 20
20.263933
 30
0.0
 11
4.457613
 21
20.263933
 31
0.0
  0
LINE
  8
OBJECT
 10
4.518613
 20
20.357933
 30
0.0
 11
4.518613
 21
20.263933
 31
0.0
  0
LINE
  8
OBJECT
 10
4.519613
 20
20.263933
 30
0.0
 11
4.457613
 21
20.263933
 31
0.0
  0
LINE
  8
HIDDEN
 10
4.643613
 20
20.295933
 30
0.0
 11
4.643613
 21
20.357933
 31
0.0
  0
DIMENSION
  8
DIM
  2
*D1
 10
2.032613
 20
29.990344
 30
0.0
 11
2.032613
 21
27.381344
 31
0.0
 12
-1.771191
 22
-38.670682
 32
0.0
  1
<>
 13
3.770113
 23
24.772344
 33
0.0
 14
3.770113
 24
29.990344
 34
0.0
 50
90.0
  3
23NSTD
  0
DIMENSION
  8
DIM
  2
*D2
 10
6.519558
 20
30.303344
 30
0.0
 11
8.767996
 21
32.103344
 31
0.0
 12
-1.771191
 22
-38.670682
 32
0.0
  1
<>
 13
6.395558
 23
29.928344
 33
0.0
 14
6.519558
 24
30.303344
 34
0.0
 50
90.0
  3
23NSTD
  0
LINE
  8
OBJECT
 10
3.770113
 20
29.990344
 30
0.0
 11
3.770113
 21
24.772344
 31
0.0
  0
LINE
  8
OBJECT
 10
4.519613
 20
29.928344
 30
0.0
 11
4.519613
 21
24.772344
 31
0.0
  0
LINE
  8
OBJECT
 10
4.457613
 20
29.990344
 30
0.0
 11
4.457613
 21
24.772344
 31
0.0
  0
LINE
  8
OBJECT
 10
4.395613
 20
29.990344
 30
0.0
 11
4.395613
 21
24.772344
 31
0.0
  0
LINE
  8
OBJECT
 10
4.457613
 20
24.772344
 30
0.0
 11
3.770113
 21
24.772344
 31
0.0
  0
LINE
  8
OBJECT
 10
4.265613
 20
25.415344
 30
0.0
 11
4.265613
 21
25.847344
 31
0.0
  0
ARC
  8
OBJECT
 10
4.366003
 20
25.631344
 30
0.0
 40
0.27161
 50
304.440759
 51
55.559241
  0
LINE
  8
OBJECT
 10
4.144613
 20
25.726344
 30
0.0
 11
4.265613
 21
25.726344
 31
0.0
  0
LINE
  8
OBJECT
 10
4.144613
 20
25.536344
 30
0.0
 11
4.265613
 21
25.536344
 31
0.0
  0
POLYLINE
  8
OBJECT
 66
     1
 10
0.0
 20
0.0
 30
0.0
 70
     1
  0
VERTEX
  8
OBJECT
 10
4.020113
 20
24.865844
 30
0.0
 42
-1.0
  0
VERTEX
  8
OBJECT
 10
4.020113
 20
25.146844
 30
0.0
  0
VERTEX
  8
OBJECT
 10
4.176113
 20
25.146844
 30
0.0
 42
-1.0
  0
VERTEX
  8
OBJECT
 10
4.176113
 20
24.865844
 30
0.0
  0
SEQEND
  8
OBJECT
  0
LINE
  8
OBJECT
 10
4.144613
 20
25.726344
 30
0.0
 11
4.144613
 21
25.536344
 31
0.0
  0
LINE
  8
OBJECT
 10
4.457613
 20
24.772344
 30
0.0
 11
4.519613
 21
24.772344
 31
0.0
  0
LINE
  8
OBJECT
 10
4.265613
 20
25.739344
 30
0.0
 11
4.395613
 21
25.739344
 31
0.0
  0
LINE
  8
OBJECT
 10
4.265613
 20
25.523344
 30
0.0
 11
4.395613
 21
25.523344
 31
0.0
  0
LINE
  8
OBJECT
 10
4.265613
 20
25.415344
 30
0.0
 11
4.395613
 21
25.415344
 31
0.0
  0
POLYLINE
  8
OBJECT
 66
     1
 10
0.0
 20
0.0
 30
0.0
 70
     1
  0
VERTEX
  8
OBJECT
 10
4.020113
 20
26.115844
 30
0.0
 42
-1.0
  0
VERTEX
  8
OBJECT
 10
4.020113
 20
26.396844
 30
0.0
  0
VERTEX
  8
OBJECT
 10
4.176113
 20
26.396844
 30
0.0
 42
-1.0
  0
VERTEX
  8
OBJECT
 10
4.176113
 20
26.115844
 30
0.0
  0
SEQEND
  8
OBJECT
  0
LINE
  8
OBJECT
 10
4.265613
 20
25.847344
 30
0.0
 11
4.395613
 21
25.847344
 31
0.0
  0
LINE
  8
OBJECT
 10
4.457613
 20
29.990344
 30
0.0
 11
3.770113
 21
29.990344
 31
0.0
  0
POLYLINE
  8
OBJECT
 66
     1
 10
0.0
 20
0.0
 30
0.0
 70
     1
  0
VERTEX
  8
OBJECT
 10
4.020113
 20
28.646844
 30
0.0
 42
1.0
  0
VERTEX
  8
OBJECT
 10
4.020113
 20
28.365844
 30
0.0
  0
VERTEX
  8
OBJECT
 10
4.176113
 20
28.365844
 30
0.0
 42
1.0
  0
VERTEX
  8
OBJECT
 10
4.176113
 20
28.646844
 30
0.0
  0
SEQEND
  8
OBJECT
  0
LINE
  8
OBJECT
 10
4.643613
 20
30.303344
 30
0.0
 11
4.518613
 21
30.178344
 31
0.0
  0
ARC
  8
OBJECT
 10
4.366003
 20
29.131344
 30
0.0
 40
0.27161
 50
304.440759
 51
55.559241
  0
LINE
  8
OBJECT
 10
4.144613
 20
29.226344
 30
0.0
 11
4.265613
 21
29.226344
 31
0.0
  0
LINE
  8
OBJECT
 10
4.144613
 20
29.036344
 30
0.0
 11
4.265613
 21
29.036344
 31
0.0
  0
POLYLINE
  8
OBJECT
 66
     1
 10
0.0
 20
0.0
 30
0.0
 70
     1
  0
VERTEX
  8
OBJECT
 10
4.020113
 20
29.896844
 30
0.0
 42
1.0
  0
VERTEX
  8
OBJECT
 10
4.020113
 20
29.615844
 30
0.0
  0
VERTEX
  8
OBJECT
 10
4.176113
 20
29.615844
 30
0.0
 42
1.0
  0
VERTEX
  8
OBJECT
 10
4.176113
 20
29.896844
 30
0.0
  0
SEQEND
  8
OBJECT
  0
LINE
  8
OBJECT
 10
4.144613
 20
29.036344
 30
0.0
 11
4.144613
 21
29.226344
 31
0.0
  0
LINE
  8
OBJECT
 10
4.518613
 20
29.990344
 30
0.0
 11
4.457613
 21
29.990344
 31
0.0
  0
LINE
  8
OBJECT
 10
4.518613
 20
30.178344
 30
0.0
 11
4.518613
 21
29.928344
 31
0.0
  0
LINE
  8
OBJECT
 10
4.265613
 20
29.347344
 30
0.0
 11
4.265613
 21
28.915344
 31
0.0
  0
LINE
  8
OBJECT
 10
4.265613
 20
29.347344
 30
0.0
 11
4.395613
 21
29.347344
 31
0.0
  0
LINE
  8
OBJECT
 10
4.265613
 20
29.239344
 30
0.0
 11
4.395613
 21
29.239344
 31
0.0
  0
LINE
  8
OBJECT
 10
4.265613
 20
29.023344
 30
0.0
 11
4.395613
 21
29.023344
 31
0.0
  0
LINE
  8
OBJECT
 10
4.265613
 20
28.915344
 30
0.0
 11
4.395613
 21
28.915344
 31
0.0
  0
DIMENSION
  8
DIM
  2
*D5
 10
28.069501
 20
25.006344
 30
0.0
 11
24.069501
 21
25.631344
 31
0.0
 12
2.228809
 22
-38.670682
 32
0.0
  1
<>
 13
26.660613
 23
26.256344
 33
0.0
 14
26.660613
 24
25.006344
 34
0.0
 50
90.0
  3
23NSTDI
  0
DIMENSION
  8
DIM
  2
*D22
 10
21.145113
 20
21.692933
 30
0.0
 11
23.613863
 21
21.692933
 31
0.0
  1
<>
 13
26.082613
 23
20.263933
 33
0.0
 14
21.145113
 24
20.232933
 34
0.0
  3
23NSTDI
  0
LINE
  8
HIDDEN
 10
20.520113
 20
12.232933
 30
0.0
 11
20.520113
 21
20.232933
 31
0.0
  0
LINE
  8
OBJECT
 10
21.145113
 20
12.232933
 30
0.0
 11
21.145113
 21
20.232933
 31
0.0
  0
LINE
  8
OBJECT
 10
20.567113
 20
12.232933
 30
0.0
 11
20.567113
 21
20.232933
 31
0.0
  0
LINE
  8
HIDDEN
 10
25.896613
 20
20.295933
 30
0.0
 11
25.896613
 21
20.357933
 31
0.0
  0
LINE
  8
OBJECT
 10
26.021613
 20
20.357933
 30
0.0
 11
26.021613
 21
20.263933
 31
0.0
  0
LINE
  8
OBJECT
 10
26.082613
 20
20.263933
 30
0.0
 11
26.020613
 21
20.263933
 31
0.0
  0
DIMENSION
  8
DIM
  2
*D23
 10
26.770113
 20
33.043344
 30
0.0
 11
29.91855
 21
33.043344
 31
0.0
  1
<>
 13
26.442113
 23
29.896844
 33
0.0
 14
26.770113
 24
29.990344
 34
0.0
  3
23NSTD
  0
DIMENSION
  8
DIM
  2
*D7
 10
29.009501
 20
29.756344
 30
0.0
 11
25.009501
 21
29.131344
 31
0.0
 12
2.228809
 22
-38.670682
 32
0.0
  1
<>
 13
26.660613
 23
28.506344
 33
0.0
 14
26.660613
 24
29.756344
 34
0.0
 50
90.0
  3
23NSTDI
  0
DIMENSION
  8
DIM
  2
*D24
 10
24.169781
 20
28.506344
 30
0.0
 11
24.169781
 21
27.381344
 31
0.0
  1
<>
 13
26.660613
 23
26.256344
 33
0.0
 14
26.660613
 24
28.506344
 34
0.0
 50
90.0
  3
23NSTDI
  0
LINE
  8
OBJECT
 10
26.770113
 20
29.990344
 30
0.0
 11
26.770113
 21
24.772344
 31
0.0
  0
LINE
  8
OBJECT
 10
26.020613
 20
29.928344
 30
0.0
 11
26.020613
 21
24.772344
 31
0.0
  0
LINE
  8
OBJECT
 10
26.082613
 20
29.990344
 30
0.0
 11
26.082613
 21
24.772344
 31
0.0
  0
LINE
  8
OBJECT
 10
26.144613
 20
29.990344
 30
0.0
 11
26.144613
 21
24.772344
 31
0.0
  0
LINE
  8
OBJECT
 10
26.274613
 20
25.415344
 30
0.0
 11
26.274613
 21
25.847344
 31
0.0
  0
ARC
  8
OBJECT
 10
26.174223
 20
25.631344
 30
0.0
 40
0.27161
 50
124.440759
 51
235.559241
  0
LINE
  8
OBJECT
 10
26.082613
 20
24.772344
 30
0.0
 11
26.770113
 21
24.772344
 31
0.0
  0
LINE
  8
OBJECT
 10
26.020613
 20
24.772344
 30
0.0
 11
26.082613
 21
24.772344
 31
0.0
  0
POLYLINE
  8
OBJECT
 66
     1
 10
0.0
 20
0.0
 30
0.0
 70
     1
  0
VERTEX
  8
OBJECT
 10
26.520113
 20
24.865844
 30
0.0
 42
1.0
  0
VERTEX
  8
OBJECT
 10
26.520113
 20
25.146844
 30
0.0
  0
VERTEX
  8
OBJECT
 10
26.364113
 20
25.146844
 30
0.0
 42
1.0
  0
VERTEX
  8
OBJECT
 10
26.364113
 20
24.865844
 30
0.0
  0
SEQEND
  8
OBJECT
  0
LINE
  8
OBJECT
 10
26.395613
 20
25.726344
 30
0.0
 11
26.395613
 21
25.536344
 31
0.0
  0
LINE
  8
OBJECT
 10
26.395613
 20
25.536344
 30
0.0
 11
26.274613
 21
25.536344
 31
0.0
  0
LINE
  8
OBJECT
 10
26.395613
 20
25.726344
 30
0.0
 11
26.274613
 21
25.726344
 31
0.0
  0
LINE
  8
OBJECT
 10
26.274613
 20
25.415344
 30
0.0
 11
26.144613
 21
25.415344
 31
0.0
  0
LINE
  8
OBJECT
 10
26.274613
 20
25.523344
 30
0.0
 11
26.144613
 21
25.523344
 31
0.0
  0
LINE
  8
OBJECT
 10
26.274613
 20
25.739344
 30
0.0
 11
26.144613
 21
25.739344
 31
0.0
  0
POLYLINE
  8
OBJECT
 66
     1
 10
0.0
 20
0.0
 30
0.0
 70
     1
  0
VERTEX
  8
OBJECT
 10
26.520113
 20
26.115844
 30
0.0
 42
1.0
  0
VERTEX
  8
OBJECT
 10
26.520113
 20
26.396844
 30
0.0
  0
VERTEX
  8
OBJECT
 10
26.364113
 20
26.396844
 30
0.0
 42
1.0
  0
VERTEX
  8
OBJECT
 10
26.364113
 20
26.115844
 30
0.0
  0
SEQEND
  8
OBJECT
  0
LINE
  8
OBJECT
 10
26.274613
 20
25.847344
 30
0.0
 11
26.144613
 21
25.847344
 31
0.0
  0
POLYLINE
  8
OBJECT
 66
     1
 10
0.0
 20
0.0
 30
0.0
 70
     1
  0
VERTEX
  8
OBJECT
 10
26.520113
 20
28.646844
 30
0.0
 42
-1.0
  0
VERTEX
  8
OBJECT
 10
26.520113
 20
28.365844
 30
0.0
  0
VERTEX
  8
OBJECT
 10
26.364113
 20
28.365844
 30
0.0
 42
-1.0
  0
VERTEX
  8
OBJECT
 10
26.364113
 20
28.646844
 30
0.0
  0
SEQEND
  8
OBJECT
  0
LINE
  8
OBJECT
 10
26.082613
 20
29.990344
 30
0.0
 11
26.770113
 21
29.990344
 31
0.0
  0
LINE
  8
OBJECT
 10
26.021613
 20
29.990344
 30
0.0
 11
26.082613
 21
29.990344
 31
0.0
  0
LINE
  8
OBJECT
 10
26.021613
 20
30.178344
 30
0.0
 11
26.021613
 21
29.928344
 31
0.0
  0
LINE
  8
OBJECT
 10
25.896613
 20
30.303344
 30
0.0
 11
26.021613
 21
30.178344
 31
0.0
  0
ARC
  8
OBJECT
 10
26.174223
 20
29.131344
 30
0.0
 40
0.27161
 50
124.440759
 51
235.559241
  0
POLYLINE
  8
OBJECT
 66
     1
 10
0.0
 20
0.0
 30
0.0
 70
     1
  0
VERTEX
  8
OBJECT
 10
26.520113
 20
29.896844
 30
0.0
 42
-1.0
  0
VERTEX
  8
OBJECT
 10
26.520113
 20
29.615844
 30
0.0
  0
VERTEX
  8
OBJECT
 10
26.364113
 20
29.615844
 30
0.0
 42
-1.0
  0
VERTEX
  8
OBJECT
 10
26.364113
 20
29.896844
 30
0.0
  0
SEQEND
  8
OBJECT
  0
LINE
  8
OBJECT
 10
26.395613
 20
29.036344
 30
0.0
 11
26.395613
 21
29.226344
 31
0.0
  0
LINE
  8
OBJECT
 10
26.274613
 20
29.347344
 30
0.0
 11
26.274613
 21
28.915344
 31
0.0
  0
LINE
  8
OBJECT
 10
26.395613
 20
29.036344
 30
0.0
 11
26.274613
 21
29.036344
 31
0.0
  0
LINE
  8
OBJECT
 10
26.395613
 20
29.226344
 30
0.0
 11
26.274613
 21
29.226344
 31
0.0
  0
LINE
  8
OBJECT
 10
26.274613
 20
28.915344
 30
0.0
 11
26.144613
 21
28.915344
 31
0.0
  0
LINE
  8
OBJECT
 10
26.274613
 20
29.023344
 30
0.0
 11
26.144613
 21
29.023344
 31
0.0
  0
LINE
  8
OBJECT
 10
26.274613
 20
29.239344
 30
0.0
 11
26.144613
 21
29.239344
 31
0.0
  0
LINE
  8
OBJECT
 10
26.274613
 20
29.347344
 30
0.0
 11
26.144613
 21
29.347344
 31
0.0
  0
LINE
  8
OBJECT
 10
26.021613
 20
1.357933
 30
0.0
 11
4.518613
 21
1.357933
 31
0.0
  0
LINE
  8
HIDDEN
 10
26.021613
 20
1.419933
 30
0.0
 11
4.518613
 21
1.419933
 31
0.0
  0
LINE
  8
OBJECT
 10
4.519613
 20
1.451933
 30
0.0
 11
4.519613
 21
20.263933
 31
0.0
  0
LINE
  8
OBJECT
 10
4.457613
 20
1.451933
 30
0.0
 11
4.457613
 21
20.263933
 31
0.0
  0
LINE
  8
OBJECT
 10
4.518613
 20
1.357933
 30
0.0
 11
4.518613
 21
1.451933
 31
0.0
  0
LINE
  8
OBJECT
 10
4.519613
 20
1.451933
 30
0.0
 11
4.457613
 21
1.451933
 31
0.0
  0
LINE
  8
HIDDEN
 10
4.643613
 20
1.357933
 30
0.0
 11
4.643613
 21
1.419933
 31
0.0
  0
LINE
  8
OBJECT
 10
26.020613
 20
1.451933
 30
0.0
 11
26.020613
 21
20.263933
 31
0.0
  0
LINE
  8
OBJECT
 10
26.082613
 20
1.451933
 30
0.0
 11
26.082613
 21
20.263933
 31
0.0
  0
LINE
  8
HIDDEN
 10
25.896613
 20
1.357933
 30
0.0
 11
25.896613
 21
1.419933
 31
0.0
  0
LINE
  8
OBJECT
 10
26.021613
 20
1.357933
 30
0.0
 11
26.021613
 21
1.451933
 31
0.0
  0
LINE
  8
OBJECT
 10
26.082613
 20
1.451933
 30
0.0
 11
26.020613
 21
1.451933
 31
0.0
  0
LINE
  8
HIDDEN
 10
34.726301
 20
25.881344
 30
0.0
 11
38.742301
 21
25.881344
 31
0.0
  0
LINE
  8
HIDDEN
 10
38.742301
 20
25.928344
 30
0.0
 11
30.742301
 21
25.928344
 31
0.0
  0
DIMENSION
  8
DIM
  2
*D25
 10
30.617301
 20
31.638344
 30
0.0
 11
40.117301
 21
31.638344
 31
0.0
 12
-0.266176
 22
0.0
 32
0.0
  1
<>
 13
49.617301
 23
30.303344
 33
0.0
 14
30.617301
 24
30.303344
 34
0.0
  3
23NSTD
  0
LINE
  8
HIDDEN
 10
38.742301
 20
29.881344
 30
0.0
 11
30.742301
 21
29.881344
 31
0.0
  0
LINE
  8
HIDDEN
 10
49.523301
 20
29.928344
 30
0.0
 11
30.711301
 21
29.928344
 31
0.0
  0
LINE
  8
OBJECT
 10
49.555301
 20
29.990344
 30
0.0
 11
30.679301
 21
29.990344
 31
0.0
  0
LINE
  8
OBJECT
 10
44.399301
 20
24.772344
 30
0.0
 11
35.835301
 21
24.772344
 31
0.0
  0
LINE
  8
OBJECT
 10
34.726301
 20
25.881344
 30
0.0
 11
30.742301
 21
25.881344
 31
0.0
  0
LINE
  8
OBJECT
 10
30.711301
 20
29.896344
 30
0.0
 11
35.835301
 21
24.772344
 31
0.0
  0
LINE
  8
OBJECT
 10
30.742301
 20
25.881344
 30
0.0
 11
30.742301
 21
29.865344
 31
0.0
  0
LINE
  8
OBJECT
 10
30.711301
 20
29.928344
 30
0.0
 11
30.617301
 21
29.928344
 31
0.0
  0
LINE
  8
OBJECT
 10
30.679301
 20
30.303344
 30
0.0
 11
30.617301
 21
30.303344
 31
0.0
  0
LINE
  8
OBJECT
 10
30.679301
 20
30.303344
 30
0.0
 11
30.679301
 21
29.990344
 31
0.0
  0
LINE
  8
OBJECT
 10
30.617301
 20
30.303344
 30
0.0
 11
30.617301
 21
29.928344
 31
0.0
  0
LINE
  8
OBJECT
 10
30.711301
 20
29.896344
 30
0.0
 11
30.711301
 21
29.990344
 31
0.0
  0
LINE
  8
HIDDEN
 10
30.742301
 20
29.928344
 30
0.0
 11
30.742301
 21
29.865344
 31
0.0
  0
LINE
  8
OBJECT
 10
37.992301
 20
29.990344
 30
0.0
 11
37.992301
 21
24.772344
 31
0.0
  0
LINE
  8
HIDDEN
 10
38.742301
 20
25.881344
 30
0.0
 11
38.742301
 21
29.928344
 31
0.0
  0
LINE
  8
OBJECT
 10
38.555301
 20
29.990344
 30
0.0
 11
38.555301
 21
24.772344
 31
0.0
  0
LINE
  8
OBJECT
 10
38.617301
 20
29.990344
 30
0.0
 11
38.617301
 21
24.772344
 31
0.0
  0
POLYLINE
  8
OBJECT
 66
     1
 10
0.0
 20
0.0
 30
0.0
 70
     1
  0
VERTEX
  8
OBJECT
 10
38.429362
 20
25.739344
 30
0.0
  0
VERTEX
  8
OBJECT
 10
38.242301
 20
25.847344
 30
0.0
  0
VERTEX
  8
OBJECT
 10
38.055239
 20
25.739344
 30
0.0
  0
VERTEX
  8
OBJECT
 10
38.055239
 20
25.523344
 30
0.0
  0
VERTEX
  8
OBJECT
 10
38.242301
 20
25.415344
 30
0.0
  0
VERTEX
  8
OBJECT
 10
38.429362
 20
25.523344
 30
0.0
  0
SEQEND
  8
OBJECT
  0
CIRCLE
  8
OBJECT
 10
38.242301
 20
25.631344
 30
0.0
 40
0.095
  0
POLYLINE
  8
OBJECT
 66
     1
 10
0.0
 20
0.0
 30
0.0
 70
     1
  0
VERTEX
  8
OBJECT
 10
38.429362
 20
29.239344
 30
0.0
  0
VERTEX
  8
OBJECT
 10
38.242301
 20
29.347344
 30
0.0
  0
VERTEX
  8
OBJECT
 10
38.055239
 20
29.239344
 30
0.0
  0
VERTEX
  8
OBJECT
 10
38.055239
 20
29.023344
 30
0.0
  0
VERTEX
  8
OBJECT
 10
38.242301
 20
28.915344
 30
0.0
  0
VERTEX
  8
OBJECT
 10
38.429362
 20
29.023344
 30
0.0
  0
SEQEND
  8
OBJECT
  0
CIRCLE
  8
OBJECT
 10
38.242301
 20
29.131344
 30
0.0
 40
0.095
  0
LINE
  8
OBJECT
 10
41.617301
 20
29.990344
 30
0.0
 11
41.617301
 21
24.772344
 31
0.0
  0
LINE
  8
OBJECT
 10
42.242301
 20
29.990344
 30
0.0
 11
42.242301
 21
24.772344
 31
0.0
  0
LINE
  8
OBJECT
 10
41.679301
 20
29.990344
 30
0.0
 11
41.679301
 21
24.772344
 31
0.0
  0
POLYLINE
  8
OBJECT
 66
     1
 10
0.0
 20
0.0
 30
0.0
 70
     1
  0
VERTEX
  8
OBJECT
 10
41.805239
 20
25.739344
 30
0.0
  0
VERTEX
  8
OBJECT
 10
41.992301
 20
25.847344
 30
0.0
  0
VERTEX
  8
OBJECT
 10
42.179362
 20
25.739344
 30
0.0
  0
VERTEX
  8
OBJECT
 10
42.179362
 20
25.523344
 30
0.0
  0
VERTEX
  8
OBJECT
 10
41.992301
 20
25.415344
 30
0.0
  0
VERTEX
  8
OBJECT
 10
41.805239
 20
25.523344
 30
0.0
  0
SEQEND
  8
OBJECT
  0
CIRCLE
  8
OBJECT
 10
41.992301
 20
25.631344
 30
0.0
 40
0.095
  0
POLYLINE
  8
OBJECT
 66
     1
 10
0.0
 20
0.0
 30
0.0
 70
     1
  0
VERTEX
  8
OBJECT
 10
41.805239
 20
29.239344
 30
0.0
  0
VERTEX
  8
OBJECT
 10
41.992301
 20
29.347344
 30
0.0
  0
VERTEX
  8
OBJECT
 10
42.179362
 20
29.239344
 30
0.0
  0
VERTEX
  8
OBJECT
 10
42.179362
 20
29.023344
 30
0.0
  0
VERTEX
  8
OBJECT
 10
41.992301
 20
28.915344
 30
0.0
  0
VERTEX
  8
OBJECT
 10
41.805239
 20
29.023344
 30
0.0
  0
SEQEND
  8
OBJECT
  0
CIRCLE
  8
OBJECT
 10
41.992301
 20
29.131344
 30
0.0
 40
0.095
  0
LINE
  8
OBJECT
 10
49.523301
 20
29.896344
 30
0.0
 11
44.399301
 21
24.772344
 31
0.0
  0
LINE
  8
OBJECT
 10
49.617301
 20
29.928344
 30
0.0
 11
49.523301
 21
29.928344
 31
0.0
  0
LINE
  8
OBJECT
 10
49.617301
 20
30.303344
 30
0.0
 11
49.555301
 21
30.303344
 31
0.0
  0
LINE
  8
OBJECT
 10
49.555301
 20
30.303344
 30
0.0
 11
49.555301
 21
29.990344
 31
0.0
  0
LINE
  8
OBJECT
 10
49.617301
 20
30.303344
 30
0.0
 11
49.617301
 21
29.928344
 31
0.0
  0
LINE
  8
OBJECT
 10
49.523301
 20
29.896344
 30
0.0
 11
49.523301
 21
29.990344
 31
0.0
  0
TEXT
  8
TEXT
 10
33.47435
 20
53.43881
 30
0.0
 40
0.625
  1
MOUNTING BRACKETS
 41
0.75
  0
TEXT
  8
TEXT
 10
44.232198
 20
53.43881
 30
0.0
 40
0.625
  1
16 GA. STEEL
 41
0.75
  0
LINE
  8
TEXT
 10
43.932572
 20
53.43881
 30
0.0
 11
41.456563
 21
53.43881
 31
0.0
  0
TEXT
  8
TEXT
 10
37.094529
 20
14.064838
 30
0.0
 40
0.625
  1
METALLIC GRAY
 41
0.75
  0
TEXT
  8
TEXT
 10
33.151876
 20
17.189838
 30
0.0
 40
0.625
  1
SWITCH BOX BRACKET
 41
0.75
  0
TEXT
  8
TEXT
 10
37.094529
 20
13.023172
 30
0.0
 40
0.625
  1
BLACK TEXTURE
 41
0.75
  0
TEXT
  8
TEXT
 10
37.094529
 20
10.939838
 30
0.0
 40
0.625
  1
UNIT SHIPPED UNASSEMBLED
 41
0.75
  0
TEXT
  8
TEXT
 10
33.47435
 20
18.231505
 30
0.0
 40
0.625
  1
MOUNTING BRACKETS
 41
0.75
  0
TEXT
  8
TEXT
 10
36.585166
 20
15.106505
 30
0.0
 40
0.625
  1
%%UFINISH:
 41
0.75
  0
TEXT
  8
TEXT
 10
32.642513
 20
20.314838
 30
0.0
 40
0.625
  1
%%UMATERIAL:
 41
0.75
  0
TEXT
  8
TEXT
 10
33.151876
 20
19.273172
 30
0.0
 40
0.625
  1
SHELF &
 41
0.75
  0
TEXT
  8
TEXT
 10
44.232198
 20
17.189838
 30
0.0
 40
0.625
  1
18 GA. STEEL
 41
0.75
  0
TEXT
  8
TEXT
 10
44.232198
 20
18.231505
 30
0.0
 40
0.625
  1
16 GA. STEEL
 41
0.75
  0
LINE
  8
TEXT
 10
43.932572
 20
17.189838
 30
0.0
 11
41.731221
 21
17.189838
 31
0.0
  0
LINE
  8
TEXT
 10
43.932572
 20
18.231505
 30
0.0
 11
41.456563
 21
18.231505
 31
0.0
  0
POLYLINE
  8
HIDDEN
  6
HIDDEN2
 66
     1
 10
0.0
 20
0.0
 30
0.0
  0
VERTEX
  8
HIDDEN
  6
HIDDEN2
 10
22.082613
 20
45.903615
 30
0.0
  0
VERTEX
  8
HIDDEN
  6
HIDDEN2
 10
22.770113
 20
45.903615
 30
0.0
  0
VERTEX
  8
HIDDEN
  6
HIDDEN2
 10
22.770113
 20
45.841615
 30
0.0
  0
VERTEX
  8
HIDDEN
  6
HIDDEN2
 10
22.144613
 20
45.841615
 30
0.0
  0
VERTEX
  8
HIDDEN
  6
HIDDEN2
 10
22.144613
 20
45.278615
 30
0.0
  0
VERTEX
  8
HIDDEN
  6
HIDDEN2
 10
22.082613
 20
45.278615
 30
0.0
  0
SEQEND
  8
HIDDEN
  6
HIDDEN2
  0
POLYLINE
  8
OBJECT
 66
     1
 10
0.0
 20
0.0
 30
0.0
  0
VERTEX
  8
OBJECT
 10
22.082613
 20
48.028615
 30
0.0
  0
VERTEX
  8
OBJECT
 10
22.770113
 20
48.028615
 30
0.0
  0
VERTEX
  8
OBJECT
 10
22.770113
 20
47.966615
 30
0.0
  0
VERTEX
  8
OBJECT
 10
22.144613
 20
47.966615
 30
0.0
  0
VERTEX
  8
OBJECT
 10
22.144613
 20
47.403615
 30
0.0
  0
VERTEX
  8
OBJECT
 10
22.082613
 20
47.403615
 30
0.0
  0
SEQEND
  8
OBJECT
  0
POLYLINE
  8
HIDDEN
  6
HIDDEN2
 66
     1
 10
0.0
 20
0.0
 30
0.0
  0
VERTEX
  8
HIDDEN
  6
HIDDEN2
 10
22.082613
 20
46.278615
 30
0.0
  0
VERTEX
  8
HIDDEN
  6
HIDDEN2
 10
22.770113
 20
46.278615
 30
0.0
  0
VERTEX
  8
HIDDEN
  6
HIDDEN2
 10
22.770113
 20
46.216615
 30
0.0
  0
VERTEX
  8
HIDDEN
  6
HIDDEN2
 10
22.144613
 20
46.216615
 30
0.0
  0
VERTEX
  8
HIDDEN
  6
HIDDEN2
 10
22.144613
 20
45.653615
 30
0.0
  0
VERTEX
  8
HIDDEN
  6
HIDDEN2
 10
22.082613
 20
45.653615
 30
0.0
  0
SEQEND
  8
HIDDEN
  6
HIDDEN2
  0
LINE
  8
HIDDEN
 10
22.020613
 20
46.044115
 30
0.0
 11
22.082613
 21
46.044115
 31
0.0
  0
LINE
  8
HIDDEN
 10
22.020613
 20
45.763115
 30
0.0
 11
22.082613
 21
45.763115
 31
0.0
  0
POLYLINE
  8
OBJECT
 66
     1
 10
0.0
 20
0.0
 30
0.0
  0
VERTEX
  8
OBJECT
 10
22.082613
 20
51.028615
 30
0.0
  0
VERTEX
  8
OBJECT
 10
22.770113
 20
51.028615
 30
0.0
  0
VERTEX
  8
OBJECT
 10
22.770113
 20
51.090615
 30
0.0
  0
VERTEX
  8
OBJECT
 10
22.144613
 20
51.090615
 30
0.0
  0
VERTEX
  8
OBJECT
 10
22.144613
 20
51.653615
 30
0.0
  0
VERTEX
  8
OBJECT
 10
22.082613
 20
51.653615
 30
0.0
  0
SEQEND
  8
OBJECT
  0
ARC
  8
OBJECT
 10
22.174223
 20
51.403615
 30
0.0
 40
0.27161
 50
124.440759
 51
235.559241
  0
LINE
  8
OBJECT
 10
22.274613
 20
51.187615
 30
0.0
 11
22.274613
 21
51.619615
 31
0.0
  0
POLYLINE
  8
HIDDEN
  6
HIDDEN2
 66
     1
 10
0.0
 20
0.0
 30
0.0
  0
VERTEX
  8
HIDDEN
  6
HIDDEN2
 10
22.082613
 20
52.778615
 30
0.0
  0
VERTEX
  8
HIDDEN
  6
HIDDEN2
 10
22.770113
 20
52.778615
 30
0.0
  0
VERTEX
  8
HIDDEN
  6
HIDDEN2
 10
22.770113
 20
52.840615
 30
0.0
  0
VERTEX
  8
HIDDEN
  6
HIDDEN2
 10
22.144613
 20
52.840615
 30
0.0
  0
VERTEX
  8
HIDDEN
  6
HIDDEN2
 10
22.144613
 20
53.403615
 30
0.0
  0
VERTEX
  8
HIDDEN
  6
HIDDEN2
 10
22.082613
 20
53.403615
 30
0.0
  0
SEQEND
  8
HIDDEN
  6
HIDDEN2
  0
POLYLINE
  8
HIDDEN
  6
HIDDEN2
 66
     1
 10
0.0
 20
0.0
 30
0.0
  0
VERTEX
  8
HIDDEN
  6
HIDDEN2
 10
22.082613
 20
53.153615
 30
0.0
  0
VERTEX
  8
HIDDEN
  6
HIDDEN2
 10
22.770113
 20
53.153615
 30
0.0
  0
VERTEX
  8
HIDDEN
  6
HIDDEN2
 10
22.770113
 20
53.215615
 30
0.0
  0
VERTEX
  8
HIDDEN
  6
HIDDEN2
 10
22.144613
 20
53.215615
 30
0.0
  0
VERTEX
  8
HIDDEN
  6
HIDDEN2
 10
22.144613
 20
53.778615
 30
0.0
  0
VERTEX
  8
HIDDEN
  6
HIDDEN2
 10
22.082613
 20
53.778615
 30
0.0
  0
SEQEND
  8
HIDDEN
  6
HIDDEN2
  0
LINE
  8
OBJECT
 10
22.395613
 20
51.498615
 30
0.0
 11
22.274613
 21
51.498615
 31
0.0
  0
LINE
  8
OBJECT
 10
22.395613
 20
51.308615
 30
0.0
 11
22.274613
 21
51.308615
 31
0.0
  0
LINE
  8
HIDDEN
 10
22.020613
 20
53.294115
 30
0.0
 11
22.082613
 21
53.294115
 31
0.0
  0
LINE
  8
HIDDEN
 10
22.020613
 20
53.013115
 30
0.0
 11
22.082613
 21
53.013115
 31
0.0
  0
LINE
  8
HIDDEN
 10
22.020613
 20
53.388115
 30
0.0
 11
22.082613
 21
53.388115
 31
0.0
  0
LINE
  8
HIDDEN
 10
22.020613
 20
53.669115
 30
0.0
 11
22.082613
 21
53.669115
 31
0.0
  0
LINE
  8
OBJECT
 10
22.274613
 20
51.295615
 30
0.0
 11
22.144613
 21
51.295615
 31
0.0
  0
LINE
  8
OBJECT
 10
22.274613
 20
51.619615
 30
0.0
 11
22.144613
 21
51.619615
 31
0.0
  0
LINE
  8
OBJECT
 10
22.274613
 20
51.511615
 30
0.0
 11
22.144613
 21
51.511615
 31
0.0
  0
LINE
  8
HIDDEN
 10
22.082613
 20
51.544115
 30
0.0
 11
22.020613
 21
51.544115
 31
0.0
  0
LINE
  8
HIDDEN
 10
22.082613
 20
51.263115
 30
0.0
 11
22.020613
 21
51.263115
 31
0.0
  0
LINE
  8
OBJECT
 10
22.395613
 20
51.498615
 30
0.0
 11
22.395613
 21
51.308615
 31
0.0
  0
LINE
  8
OBJECT
 10
22.274613
 20
51.187615
 30
0.0
 11
22.144613
 21
51.187615
 31
0.0
  0
LINE
  8
OBJECT
 10
22.082613
 20
51.121615
 30
0.0
 11
22.020613
 21
51.121615
 31
0.0
  0
DIMENSION
  8
DIM
  2
*D26
 10
26.377613
 20
52.778615
 30
0.0
 11
26.377613
 21
49.528615
 31
0.0
 13
22.770113
 23
46.278615
 33
0.0
 14
22.770113
 24
52.778615
 34
0.0
 50
90.0
  3
23NSTD
  0
POLYLINE
  8
OBJECT
 66
     1
 10
0.0
 20
0.0
 30
0.0
  0
VERTEX
  8
OBJECT
 10
4.457613
 20
48.028615
 30
0.0
  0
VERTEX
  8
OBJECT
 10
3.770113
 20
48.028615
 30
0.0
  0
VERTEX
  8
OBJECT
 10
3.770113
 20
47.966615
 30
0.0
  0
VERTEX
  8
OBJECT
 10
4.395613
 20
47.966615
 30
0.0
  0
VERTEX
  8
OBJECT
 10
4.395613
 20
47.403615
 30
0.0
  0
VERTEX
  8
OBJECT
 10
4.457613
 20
47.403615
 30
0.0
  0
SEQEND
  8
OBJECT
  0
ARC
  8
OBJECT
 10
4.366003
 20
47.653615
 30
0.0
 40
0.27161
 50
304.440759
 51
55.559241
  0
LINE
  8
OBJECT
 10
4.265613
 20
47.869615
 30
0.0
 11
4.265613
 21
47.437615
 31
0.0
  0
LINE
  8
OBJECT
 10
4.144613
 20
47.558615
 30
0.0
 11
4.265613
 21
47.558615
 31
0.0
  0
LINE
  8
OBJECT
 10
4.144613
 20
47.748615
 30
0.0
 11
4.265613
 21
47.748615
 31
0.0
  0
LINE
  8
HIDDEN
 10
4.519613
 20
45.763115
 30
0.0
 11
4.457613
 21
45.763115
 31
0.0
  0
LINE
  8
HIDDEN
 10
4.519613
 20
46.044115
 30
0.0
 11
4.457613
 21
46.044115
 31
0.0
  0
LINE
  8
HIDDEN
 10
4.519613
 20
45.669115
 30
0.0
 11
4.457613
 21
45.669115
 31
0.0
  0
LINE
  8
HIDDEN
 10
4.519613
 20
45.388115
 30
0.0
 11
4.457613
 21
45.388115
 31
0.0
  0
LINE
  8
OBJECT
 10
4.265613
 20
47.761615
 30
0.0
 11
4.395613
 21
47.761615
 31
0.0
  0
LINE
  8
OBJECT
 10
4.265613
 20
47.437615
 30
0.0
 11
4.395613
 21
47.437615
 31
0.0
  0
LINE
  8
OBJECT
 10
4.265613
 20
47.545615
 30
0.0
 11
4.395613
 21
47.545615
 31
0.0
  0
LINE
  8
HIDDEN
 10
4.457613
 20
47.513115
 30
0.0
 11
4.519613
 21
47.513115
 31
0.0
  0
LINE
  8
HIDDEN
 10
4.457613
 20
47.794115
 30
0.0
 11
4.519613
 21
47.794115
 31
0.0
  0
LINE
  8
OBJECT
 10
4.144613
 20
47.558615
 30
0.0
 11
4.144613
 21
47.748615
 31
0.0
  0
LINE
  8
OBJECT
 10
4.265613
 20
47.869615
 30
0.0
 11
4.395613
 21
47.869615
 31
0.0
  0
LINE
  8
OBJECT
 10
4.457613
 20
47.935615
 30
0.0
 11
4.519613
 21
47.935615
 31
0.0
  0
LINE
  8
OBJECT
 10
4.144613
 20
51.308615
 30
0.0
 11
4.265613
 21
51.308615
 31
0.0
  0
LINE
  8
OBJECT
 10
4.144613
 20
51.498615
 30
0.0
 11
4.265613
 21
51.498615
 31
0.0
  0
POLYLINE
  8
OBJECT
 66
     1
 10
0.0
 20
0.0
 30
0.0
  0
VERTEX
  8
OBJECT
 10
4.457613
 20
51.028615
 30
0.0
  0
VERTEX
  8
OBJECT
 10
3.770113
 20
51.028615
 30
0.0
  0
VERTEX
  8
OBJECT
 10
3.770113
 20
51.090615
 30
0.0
  0
VERTEX
  8
OBJECT
 10
4.395613
 20
51.090615
 30
0.0
  0
VERTEX
  8
OBJECT
 10
4.395613
 20
51.653615
 30
0.0
  0
VERTEX
  8
OBJECT
 10
4.457613
 20
51.653615
 30
0.0
  0
SEQEND
  8
OBJECT
  0
LINE
  8
OBJECT
 10
4.457613
 20
51.121615
 30
0.0
 11
4.519613
 21
51.121615
 31
0.0
  0
LINE
  8
OBJECT
 10
4.265613
 20
51.187615
 30
0.0
 11
4.395613
 21
51.187615
 31
0.0
  0
LINE
  8
HIDDEN
 10
4.457613
 20
51.263115
 30
0.0
 11
4.519613
 21
51.263115
 31
0.0
  0
LINE
  8
HIDDEN
 10
4.457613
 20
51.544115
 30
0.0
 11
4.519613
 21
51.544115
 31
0.0
  0
LINE
  8
OBJECT
 10
4.265613
 20
51.511615
 30
0.0
 11
4.395613
 21
51.511615
 31
0.0
  0
LINE
  8
OBJECT
 10
4.265613
 20
51.619615
 30
0.0
 11
4.395613
 21
51.619615
 31
0.0
  0
LINE
  8
OBJECT
 10
4.265613
 20
51.295615
 30
0.0
 11
4.395613
 21
51.295615
 31
0.0
  0
LINE
  8
OBJECT
 10
4.265613
 20
51.187615
 30
0.0
 11
4.265613
 21
51.619615
 31
0.0
  0
ARC
  8
OBJECT
 10
4.366003
 20
51.403615
 30
0.0
 40
0.27161
 50
304.440759
 51
55.559241
  0
LINE
  8
HIDDEN
 10
4.519613
 20
53.669115
 30
0.0
 11
4.457613
 21
53.669115
 31
0.0
  0
LINE
  8
HIDDEN
 10
4.519613
 20
53.388115
 30
0.0
 11
4.457613
 21
53.388115
 31
0.0
  0
LINE
  8
HIDDEN
 10
4.519613
 20
53.013115
 30
0.0
 11
4.457613
 21
53.013115
 31
0.0
  0
LINE
  8
HIDDEN
 10
4.519613
 20
53.294115
 30
0.0
 11
4.457613
 21
53.294115
 31
0.0
  0
LINE
  8
OBJECT
 10
4.144613
 20
51.498615
 30
0.0
 11
4.144613
 21
51.308615
 31
0.0
  0
LINE
  8
OBJECT
 10
4.265613
 20
9.198933
 30
0.0
 11
4.265613
 21
8.766933
 31
0.0
  0
ARC
  8
OBJECT
 10
4.366003
 20
8.982933
 30
0.0
 40
0.27161
 50
304.440759
 51
55.559241
  0
POLYLINE
  8
OBJECT
 66
     1
 10
0.0
 20
0.0
 30
0.0
  0
VERTEX
  8
OBJECT
 10
4.457613
 20
9.357933
 30
0.0
  0
VERTEX
  8
OBJECT
 10
3.770113
 20
9.357933
 30
0.0
  0
VERTEX
  8
OBJECT
 10
3.770113
 20
9.295933
 30
0.0
  0
VERTEX
  8
OBJECT
 10
4.395613
 20
9.295933
 30
0.0
  0
VERTEX
  8
OBJECT
 10
4.395613
 20
8.732933
 30
0.0
  0
VERTEX
  8
OBJECT
 10
4.457613
 20
8.732933
 30
0.0
  0
SEQEND
  8
OBJECT
  0
LINE
  8
HIDDEN
 10
4.519613
 20
6.717433
 30
0.0
 11
4.457613
 21
6.717433
 31
0.0
  0
LINE
  8
HIDDEN
 10
4.519613
 20
6.998433
 30
0.0
 11
4.457613
 21
6.998433
 31
0.0
  0
LINE
  8
HIDDEN
 10
4.519613
 20
7.373433
 30
0.0
 11
4.457613
 21
7.373433
 31
0.0
  0
LINE
  8
HIDDEN
 10
4.519613
 20
7.092433
 30
0.0
 11
4.457613
 21
7.092433
 31
0.0
  0
LINE
  8
OBJECT
 10
4.144613
 20
8.887933
 30
0.0
 11
4.144613
 21
9.077933
 31
0.0
  0
LINE
  8
HIDDEN
 10
4.457613
 20
9.123433
 30
0.0
 11
4.519613
 21
9.123433
 31
0.0
  0
LINE
  8
HIDDEN
 10
4.457613
 20
8.842433
 30
0.0
 11
4.519613
 21
8.842433
 31
0.0
  0
LINE
  8
OBJECT
 10
4.265613
 20
8.874933
 30
0.0
 11
4.395613
 21
8.874933
 31
0.0
  0
LINE
  8
OBJECT
 10
4.265613
 20
8.766933
 30
0.0
 11
4.395613
 21
8.766933
 31
0.0
  0
LINE
  8
OBJECT
 10
4.265613
 20
9.090933
 30
0.0
 11
4.395613
 21
9.090933
 31
0.0
  0
LINE
  8
OBJECT
 10
4.144613
 20
9.077933
 30
0.0
 11
4.265613
 21
9.077933
 31
0.0
  0
LINE
  8
OBJECT
 10
4.144613
 20
8.887933
 30
0.0
 11
4.265613
 21
8.887933
 31
0.0
  0
LINE
  8
OBJECT
 10
4.457613
 20
9.264933
 30
0.0
 11
4.519613
 21
9.264933
 31
0.0
  0
LINE
  8
OBJECT
 10
4.265613
 20
9.198933
 30
0.0
 11
4.395613
 21
9.198933
 31
0.0
  0
ARC
  8
OBJECT
 10
4.366003
 20
12.732933
 30
0.0
 40
0.27161
 50
304.440759
 51
55.559241
  0
POLYLINE
  8
OBJECT
 66
     1
 10
0.0
 20
0.0
 30
0.0
  0
VERTEX
  8
OBJECT
 10
4.457613
 20
12.357933
 30
0.0
  0
VERTEX
  8
OBJECT
 10
3.770113
 20
12.357933
 30
0.0
  0
VERTEX
  8
OBJECT
 10
3.770113
 20
12.419933
 30
0.0
  0
VERTEX
  8
OBJECT
 10
4.395613
 20
12.419933
 30
0.0
  0
VERTEX
  8
OBJECT
 10
4.395613
 20
12.982933
 30
0.0
  0
VERTEX
  8
OBJECT
 10
4.457613
 20
12.982933
 30
0.0
  0
SEQEND
  8
OBJECT
  0
LINE
  8
OBJECT
 10
4.144613
 20
12.827933
 30
0.0
 11
4.144613
 21
12.637933
 31
0.0
  0
LINE
  8
OBJECT
 10
4.265613
 20
12.516933
 30
0.0
 11
4.265613
 21
12.948933
 31
0.0
  0
LINE
  8
OBJECT
 10
4.265613
 20
12.624933
 30
0.0
 11
4.395613
 21
12.624933
 31
0.0
  0
LINE
  8
OBJECT
 10
4.265613
 20
12.948933
 30
0.0
 11
4.395613
 21
12.948933
 31
0.0
  0
LINE
  8
OBJECT
 10
4.265613
 20
12.840933
 30
0.0
 11
4.395613
 21
12.840933
 31
0.0
  0
LINE
  8
HIDDEN
 10
4.457613
 20
12.873433
 30
0.0
 11
4.519613
 21
12.873433
 31
0.0
  0
LINE
  8
HIDDEN
 10
4.457613
 20
12.592433
 30
0.0
 11
4.519613
 21
12.592433
 31
0.0
  0
LINE
  8
OBJECT
 10
4.265613
 20
12.516933
 30
0.0
 11
4.395613
 21
12.516933
 31
0.0
  0
LINE
  8
OBJECT
 10
4.457613
 20
12.450933
 30
0.0
 11
4.519613
 21
12.450933
 31
0.0
  0
LINE
  8
OBJECT
 10
4.144613
 20
12.827933
 30
0.0
 11
4.265613
 21
12.827933
 31
0.0
  0
LINE
  8
OBJECT
 10
4.144613
 20
12.637933
 30
0.0
 11
4.265613
 21
12.637933
 31
0.0
  0
LINE
  8
HIDDEN
 10
4.519613
 20
14.623433
 30
0.0
 11
4.457613
 21
14.623433
 31
0.0
  0
LINE
  8
HIDDEN
 10
4.519613
 20
14.342433
 30
0.0
 11
4.457613
 21
14.342433
 31
0.0
  0
LINE
  8
HIDDEN
 10
4.519613
 20
14.717433
 30
0.0
 11
4.457613
 21
14.717433
 31
0.0
  0
LINE
  8
HIDDEN
 10
4.519613
 20
14.998433
 30
0.0
 11
4.457613
 21
14.998433
 31
0.0
  0
DIMENSION
  8
DIM
  2
*D27
 10
33.001422
 20
7.232933
 30
0.0
 11
33.001422
 21
10.857933
 31
0.0
 12
4.0
 22
-38.670682
 32
0.0
  1
<>
 13
26.770113
 23
14.482933
 33
0.0
 14
26.770113
 24
7.232933
 34
0.0
 50
90.0
  3
23NSTD
  0
DIMENSION
  8
DIM
  2
*D26
 10
30.377613
 20
14.107933
 30
0.0
 11
30.377613
 21
10.857933
 31
0.0
 12
4.0
 22
-38.670682
 32
0.0
 13
26.770113
 23
7.607933
 33
0.0
 14
26.770113
 24
14.107933
 34
0.0
 50
90.0
  3
23NSTD
  0
DIMENSION
  8
DIM
  2
*D14
 10
28.042613
 20
9.357933
 30
0.0
 11
28.042613
 21
10.857933
 31
0.0
 12
2.228809
 22
-38.670682
 32
0.0
  1
<>
 13
26.770113
 23
12.357933
 33
0.0
 14
26.770113
 24
9.357933
 34
0.0
 50
90.0
  3
23NSTDI
  0
POLYLINE
  8
OBJECT
 66
     1
 10
0.0
 20
0.0
 30
0.0
  0
VERTEX
  8
OBJECT
 10
26.082613
 20
9.357933
 30
0.0
  0
VERTEX
  8
OBJECT
 10
26.770113
 20
9.357933
 30
0.0
  0
VERTEX
  8
OBJECT
 10
26.770113
 20
9.295933
 30
0.0
  0
VERTEX
  8
OBJECT
 10
26.144613
 20
9.295933
 30
0.0
  0
VERTEX
  8
OBJECT
 10
26.144613
 20
8.732933
 30
0.0
  0
VERTEX
  8
OBJECT
 10
26.082613
 20
8.732933
 30
0.0
  0
SEQEND
  8
OBJECT
  0
ARC
  8
OBJECT
 10
26.174223
 20
8.982933
 30
0.0
 40
0.27161
 50
124.440759
 51
235.559241
  0
LINE
  8
OBJECT
 10
26.274613
 20
9.198933
 30
0.0
 11
26.274613
 21
8.766933
 31
0.0
  0
POLYLINE
  8
HIDDEN
  6
HIDDEN2
 66
     1
 10
0.0
 20
0.0
 30
0.0
  0
VERTEX
  8
HIDDEN
  6
HIDDEN2
 10
26.082613
 20
7.607933
 30
0.0
  0
VERTEX
  8
HIDDEN
  6
HIDDEN2
 10
26.770113
 20
7.607933
 30
0.0
  0
VERTEX
  8
HIDDEN
  6
HIDDEN2
 10
26.770113
 20
7.545933
 30
0.0
  0
VERTEX
  8
HIDDEN
  6
HIDDEN2
 10
26.144613
 20
7.545933
 30
0.0
  0
VERTEX
  8
HIDDEN
  6
HIDDEN2
 10
26.144613
 20
6.982933
 30
0.0
  0
VERTEX
  8
HIDDEN
  6
HIDDEN2
 10
26.082613
 20
6.982933
 30
0.0
  0
SEQEND
  8
HIDDEN
  6
HIDDEN2
  0
POLYLINE
  8
HIDDEN
  6
HIDDEN2
 66
     1
 10
0.0
 20
0.0
 30
0.0
  0
VERTEX
  8
HIDDEN
  6
HIDDEN2
 10
26.082613
 20
7.232933
 30
0.0
  0
VERTEX
  8
HIDDEN
  6
HIDDEN2
 10
26.770113
 20
7.232933
 30
0.0
  0
VERTEX
  8
HIDDEN
  6
HIDDEN2
 10
26.770113
 20
7.170933
 30
0.0
  0
VERTEX
  8
HIDDEN
  6
HIDDEN2
 10
26.144613
 20
7.170933
 30
0.0
  0
VERTEX
  8
HIDDEN
  6
HIDDEN2
 10
26.144613
 20
6.607933
 30
0.0
  0
VERTEX
  8
HIDDEN
  6
HIDDEN2
 10
26.082613
 20
6.607933
 30
0.0
  0
SEQEND
  8
HIDDEN
  6
HIDDEN2
  0
LINE
  8
OBJECT
 10
26.395613
 20
8.887933
 30
0.0
 11
26.274613
 21
8.887933
 31
0.0
  0
LINE
  8
OBJECT
 10
26.395613
 20
9.077933
 30
0.0
 11
26.274613
 21
9.077933
 31
0.0
  0
LINE
  8
HIDDEN
 10
26.020613
 20
7.092433
 30
0.0
 11
26.082613
 21
7.092433
 31
0.0
  0
LINE
  8
HIDDEN
 10
26.020613
 20
7.373433
 30
0.0
 11
26.082613
 21
7.373433
 31
0.0
  0
LINE
  8
HIDDEN
 10
26.020613
 20
6.998433
 30
0.0
 11
26.082613
 21
6.998433
 31
0.0
  0
LINE
  8
HIDDEN
 10
26.020613
 20
6.717433
 30
0.0
 11
26.082613
 21
6.717433
 31
0.0
  0
LINE
  8
OBJECT
 10
26.274613
 20
9.090933
 30
0.0
 11
26.144613
 21
9.090933
 31
0.0
  0
LINE
  8
OBJECT
 10
26.274613
 20
8.766933
 30
0.0
 11
26.144613
 21
8.766933
 31
0.0
  0
LINE
  8
OBJECT
 10
26.274613
 20
8.874933
 30
0.0
 11
26.144613
 21
8.874933
 31
0.0
  0
LINE
  8
HIDDEN
 10
26.082613
 20
8.842433
 30
0.0
 11
26.020613
 21
8.842433
 31
0.0
  0
LINE
  8
HIDDEN
 10
26.082613
 20
9.123433
 30
0.0
 11
26.020613
 21
9.123433
 31
0.0
  0
LINE
  8
OBJECT
 10
26.395613
 20
8.887933
 30
0.0
 11
26.395613
 21
9.077933
 31
0.0
  0
LINE
  8
OBJECT
 10
26.274613
 20
9.198933
 30
0.0
 11
26.144613
 21
9.198933
 31
0.0
  0
LINE
  8
OBJECT
 10
26.082613
 20
9.264933
 30
0.0
 11
26.020613
 21
9.264933
 31
0.0
  0
LINE
  8
OBJECT
 10
26.395613
 20
12.637933
 30
0.0
 11
26.274613
 21
12.637933
 31
0.0
  0
LINE
  8
OBJECT
 10
26.395613
 20
12.827933
 30
0.0
 11
26.274613
 21
12.827933
 31
0.0
  0
POLYLINE
  8
HIDDEN
  6
HIDDEN2
 66
     1
 10
0.0
 20
0.0
 30
0.0
  0
VERTEX
  8
HIDDEN
  6
HIDDEN2
 10
26.082613
 20
14.482933
 30
0.0
  0
VERTEX
  8
HIDDEN
  6
HIDDEN2
 10
26.770113
 20
14.482933
 30
0.0
  0
VERTEX
  8
HIDDEN
  6
HIDDEN2
 10
26.770113
 20
14.544933
 30
0.0
  0
VERTEX
  8
HIDDEN
  6
HIDDEN2
 10
26.144613
 20
14.544933
 30
0.0
  0
VERTEX
  8
HIDDEN
  6
HIDDEN2
 10
26.144613
 20
15.107933
 30
0.0
  0
VERTEX
  8
HIDDEN
  6
HIDDEN2
 10
26.082613
 20
15.107933
 30
0.0
  0
SEQEND
  8
HIDDEN
  6
HIDDEN2
  0
POLYLINE
  8
HIDDEN
  6
HIDDEN2
 66
     1
 10
0.0
 20
0.0
 30
0.0
  0
VERTEX
  8
HIDDEN
  6
HIDDEN2
 10
26.082613
 20
14.107933
 30
0.0
  0
VERTEX
  8
HIDDEN
  6
HIDDEN2
 10
26.770113
 20
14.107933
 30
0.0
  0
VERTEX
  8
HIDDEN
  6
HIDDEN2
 10
26.770113
 20
14.169933
 30
0.0
  0
VERTEX
  8
HIDDEN
  6
HIDDEN2
 10
26.144613
 20
14.169933
 30
0.0
  0
VERTEX
  8
HIDDEN
  6
HIDDEN2
 10
26.144613
 20
14.732933
 30
0.0
  0
VERTEX
  8
HIDDEN
  6
HIDDEN2
 10
26.082613
 20
14.732933
 30
0.0
  0
SEQEND
  8
HIDDEN
  6
HIDDEN2
  0
POLYLINE
  8
OBJECT
 66
     1
 10
0.0
 20
0.0
 30
0.0
  0
VERTEX
  8
OBJECT
 10
26.082613
 20
12.357933
 30
0.0
  0
VERTEX
  8
OBJECT
 10
26.770113
 20
12.357933
 30
0.0
  0
VERTEX
  8
OBJECT
 10
26.770113
 20
12.419933
 30
0.0
  0
VERTEX
  8
OBJECT
 10
26.144613
 20
12.419933
 30
0.0
  0
VERTEX
  8
OBJECT
 10
26.144613
 20
12.982933
 30
0.0
  0
VERTEX
  8
OBJECT
 10
26.082613
 20
12.982933
 30
0.0
  0
SEQEND
  8
OBJECT
  0
LINE
  8
OBJECT
 10
26.082613
 20
12.450933
 30
0.0
 11
26.020613
 21
12.450933
 31
0.0
  0
LINE
  8
OBJECT
 10
26.274613
 20
12.516933
 30
0.0
 11
26.144613
 21
12.516933
 31
0.0
  0
LINE
  8
HIDDEN
 10
26.082613
 20
12.592433
 30
0.0
 11
26.020613
 21
12.592433
 31
0.0
  0
LINE
  8
HIDDEN
 10
26.082613
 20
12.873433
 30
0.0
 11
26.020613
 21
12.873433
 31
0.0
  0
LINE
  8
OBJECT
 10
26.274613
 20
12.840933
 30
0.0
 11
26.144613
 21
12.840933
 31
0.0
  0
LINE
  8
OBJECT
 10
26.274613
 20
12.948933
 30
0.0
 11
26.144613
 21
12.948933
 31
0.0
  0
LINE
  8
OBJECT
 10
26.274613
 20
12.624933
 30
0.0
 11
26.144613
 21
12.624933
 31
0.0
  0
LINE
  8
OBJECT
 10
26.274613
 20
12.516933
 30
0.0
 11
26.274613
 21
12.948933
 31
0.0
  0
ARC
  8
OBJECT
 10
26.174223
 20
12.732933
 30
0.0
 40
0.27161
 50
124.440759
 51
235.559241
  0
LINE
  8
HIDDEN
 10
26.020613
 20
14.998433
 30
0.0
 11
26.082613
 21
14.998433
 31
0.0
  0
LINE
  8
HIDDEN
 10
26.020613
 20
14.717433
 30
0.0
 11
26.082613
 21
14.717433
 31
0.0
  0
LINE
  8
HIDDEN
 10
26.020613
 20
14.342433
 30
0.0
 11
26.082613
 21
14.342433
 31
0.0
  0
LINE
  8
HIDDEN
 10
26.020613
 20
14.623433
 30
0.0
 11
26.082613
 21
14.623433
 31
0.0
  0
LINE
  8
OBJECT
 10
26.395613
 20
12.827933
 30
0.0
 11
26.395613
 21
12.637933
 31
0.0
  0
POLYLINE
  8
OBJECT
 66
     1
 10
0.0
 20
0.0
 30
0.0
 70
     1
  0
VERTEX
  8
OBJECT
 10
35.457041
 20
67.942526
 30
0.0
 42
1.0
  0
VERTEX
  8
OBJECT
 10
35.457041
 20
67.661526
 30
0.0
  0
VERTEX
  8
OBJECT
 10
36.051041
 20
67.661526
 30
0.0
 42
1.0
  0
VERTEX
  8
OBJECT
 10
36.051041
 20
67.942526
 30
0.0
  0
SEQEND
  8
OBJECT
  0
POLYLINE
  8
OBJECT
 66
     1
 10
0.0
 20
0.0
 30
0.0
 70
     1
  0
VERTEX
  8
OBJECT
 10
35.457041
 20
64.442526
 30
0.0
 42
1.0
  0
VERTEX
  8
OBJECT
 10
35.457041
 20
64.161526
 30
0.0
  0
VERTEX
  8
OBJECT
 10
36.051041
 20
64.161526
 30
0.0
 42
1.0
  0
VERTEX
  8
OBJECT
 10
36.051041
 20
64.442526
 30
0.0
  0
SEQEND
  8
OBJECT
  0
POLYLINE
  8
OBJECT
 66
     1
 10
0.0
 20
0.0
 30
0.0
 70
     1
  0
VERTEX
  8
OBJECT
 10
43.082041
 20
64.442526
 30
0.0
 42
1.0
  0
VERTEX
  8
OBJECT
 10
43.082041
 20
64.161526
 30
0.0
  0
VERTEX
  8
OBJECT
 10
43.676041
 20
64.161526
 30
0.0
 42
1.0
  0
VERTEX
  8
OBJECT
 10
43.676041
 20
64.442526
 30
0.0
  0
SEQEND
  8
OBJECT
  0
POLYLINE
  8
OBJECT
 66
     1
 10
0.0
 20
0.0
 30
0.0
 70
     1
  0
VERTEX
  8
OBJECT
 10
43.082041
 20
67.942526
 30
0.0
 42
1.0
  0
VERTEX
  8
OBJECT
 10
43.082041
 20
67.661526
 30
0.0
  0
VERTEX
  8
OBJECT
 10
43.676041
 20
67.661526
 30
0.0
 42
1.0
  0
VERTEX
  8
OBJECT
 10
43.676041
 20
67.942526
 30
0.0
  0
SEQEND
  8
OBJECT
  0
POLYLINE
  8
OBJECT
 66
     1
 10
0.0
 20
0.0
 30
0.0
 70
     1
  0
VERTEX
  8
OBJECT
 10
36.007801
 20
29.271844
 30
0.0
 42
1.0
  0
VERTEX
  8
OBJECT
 10
36.007801
 20
28.990844
 30
0.0
  0
VERTEX
  8
OBJECT
 10
36.601801
 20
28.990844
 30
0.0
 42
1.0
  0
VERTEX
  8
OBJECT
 10
36.601801
 20
29.271844
 30
0.0
  0
SEQEND
  8
OBJECT
  0
POLYLINE
  8
OBJECT
 66
     1
 10
0.0
 20
0.0
 30
0.0
 70
     1
  0
VERTEX
  8
OBJECT
 10
36.007801
 20
25.771844
 30
0.0
 42
1.0
  0
VERTEX
  8
OBJECT
 10
36.007801
 20
25.490844
 30
0.0
  0
VERTEX
  8
OBJECT
 10
36.601801
 20
25.490844
 30
0.0
 42
1.0
  0
VERTEX
  8
OBJECT
 10
36.601801
 20
25.771844
 30
0.0
  0
SEQEND
  8
OBJECT
  0
POLYLINE
  8
OBJECT
 66
     1
 10
0.0
 20
0.0
 30
0.0
 70
     1
  0
VERTEX
  8
OBJECT
 10
43.632801
 20
25.771844
 30
0.0
 42
1.0
  0
VERTEX
  8
OBJECT
 10
43.632801
 20
25.490844
 30
0.0
  0
VERTEX
  8
OBJECT
 10
44.226801
 20
25.490844
 30
0.0
 42
1.0
  0
VERTEX
  8
OBJECT
 10
44.226801
 20
25.771844
 30
0.0
  0
SEQEND
  8
OBJECT
  0
POLYLINE
  8
OBJECT
 66
     1
 10
0.0
 20
0.0
 30
0.0
 70
     1
  0
VERTEX
  8
OBJECT
 10
43.632801
 20
29.271844
 30
0.0
 42
1.0
  0
VERTEX
  8
OBJECT
 10
43.632801
 20
28.990844
 30
0.0
  0
VERTEX
  8
OBJECT
 10
44.226801
 20
28.990844
 30
0.0
 42
1.0
  0
VERTEX
  8
OBJECT
 10
44.226801
 20
29.271844
 30
0.0
  0
SEQEND
  8
OBJECT
  0
TEXT
  8
TEXT
 10
33.151876
 20
44.250684
 30
0.0
 40
0.625
  1
LOAD RATING:  200 LBS. MAX.
 41
0.75
  0
TEXT
  8
TEXT
 10
37.094529
 20
9.043379
 30
0.0
 40
0.625
  1
LOAD RATING:  200 LBS. MAX.
 41
0.75
  0
ENDSEC
  0
EOF
