  0
SECTION
  2
HEADER
  9
$ACADVER
  1
AC1009
  9
$INSBASE
 10
0.0
 20
0.0
 30
0.0
  9
$EXTMIN
 10
0.0
 20
0.0
 30
0.0
  9
$EXTMAX
 10
80.96
 20
124.0
 30
0.0
  9
$LIMMIN
 10
0.0
 20
0.0
  9
$LIMMAX
 10
80.96
 20
124.0
  9
$ORTHOMODE
 70
     1
  9
$REGENMODE
 70
     1
  9
$FILLMODE
 70
     1
  9
$QTEXTMODE
 70
     0
  9
$MIRRTEXT
 70
     0
  9
$DRAGMODE
 70
     2
  9
$LTSCALE
 40
3.0
  9
$OSMODE
 70
     5
  9
$ATTMODE
 70
     1
  9
$TEXTSIZE
 40
2.0
  9
$TRACEWID
 40
0.05
  9
$TEXTSTYLE
  7
TXT
  9
$CLAYER
  8
OBJECT
  9
$CELTYPE
  6
BYLAYER
  9
$CECOLOR
 62
   256
  9
$DIMSCALE
 40
8.0
  9
$DIMASZ
 40
0.18
  9
$DIMEXO
 40
0.063
  9
$DIMDLI
 40
0.25
  9
$DIMRND
 40
0.0
  9
$DIMDLE
 40
0.0
  9
$DIMEXE
 40
0.093
  9
$DIMTP
 40
0.0
  9
$DIMTM
 40
0.0
  9
$DIMTXT
 40
0.125
  9
$DIMCEN
 40
0.09
  9
$DIMTSZ
 40
0.0
  9
$DIMTOL
 70
     0
  9
$DIMLIM
 70
     0
  9
$DIMTIH
 70
     1
  9
$DIMTOH
 70
     1
  9
$DIMSE1
 70
     0
  9
$DIMSE2
 70
     0
  9
$DIMTAD
 70
     0
  9
$DIMZIN
 70
     0
  9
$DIMBLK
  1

  9
$DIMASO
 70
     1
  9
$DIMSHO
 70
     1
  9
$DIMPOST
  1

  9
$DIMAPOST
  1

  9
$DIMALT
 70
     0
  9
$DIMALTD
 70
     2
  9
$DIMALTF
 40
25.4
  9
$DIMLFAC
 40
1.0
  9
$DIMTOFL
 70
     0
  9
$DIMTVP
 40
0.0
  9
$DIMTIX
 70
     0
  9
$DIMSOXD
 70
     0
  9
$DIMSAH
 70
     0
  9
$DIMBLK1
  1

  9
$DIMBLK2
  1

  9
$DIMSTYLE
  2
23NSTD
  9
$DIMCLRD
 70
     0
  9
$DIMCLRE
 70
     0
  9
$DIMCLRT
 70
     0
  9
$DIMTFAC
 40
1.0
  9
$DIMGAP
 40
0.09
  9
$LUNITS
 70
     2
  9
$LUPREC
 70
     3
  9
$SKETCHINC
 40
0.1
  9
$FILLETRAD
 40
0.0
  9
$AUNITS
 70
     0
  9
$AUPREC
 70
     0
  9
$MENU
  1
acad
  9
$ELEVATION
 40
0.0
  9
$PELEVATION
 40
0.0
  9
$THICKNESS
 40
0.0
  9
$LIMCHECK
 70
     0
  9
$BLIPMODE
 70
     1
  9
$CHAMFERA
 40
0.0
  9
$CHAMFERB
 40
0.0
  9
$SKPOLY
 70
     0
  9
$TDCREATE
 40
2451032.566652430
  9
$TDUPDATE
 40
2451347.313891551
  9
$TDINDWG
 40
0.0083888889
  9
$TDUSRTIMER
 40
0.0083888889
  9
$USRTIMER
 70
     1
  9
$ANGBASE
 50
0.0
  9
$ANGDIR
 70
     0
  9
$PDMODE
 70
     0
  9
$PDSIZE
 40
0.0
  9
$PLINEWID
 40
0.0
  9
$COORDS
 70
     0
  9
$SPLFRAME
 70
     0
  9
$SPLINETYPE
 70
     6
  9
$SPLINESEGS
 70
     8
  9
$ATTDIA
 70
     0
  9
$ATTREQ
 70
     1
  9
$HANDLING
 70
     0
  9
$HANDSEED
  5
0
  9
$SURFTAB1
 70
     6
  9
$SURFTAB2
 70
     6
  9
$SURFTYPE
 70
     6
  9
$SURFU
 70
     6
  9
$SURFV
 70
     6
  9
$UCSNAME
  2

  9
$UCSORG
 10
0.0
 20
0.0
 30
0.0
  9
$UCSXDIR
 10
1.0
 20
0.0
 30
0.0
  9
$UCSYDIR
 10
0.0
 20
1.0
 30
0.0
  9
$PUCSNAME
  2

  9
$PUCSORG
 10
0.0
 20
0.0
 30
0.0
  9
$PUCSXDIR
 10
1.0
 20
0.0
 30
0.0
  9
$PUCSYDIR
 10
0.0
 20
1.0
 30
0.0
  9
$USERI1
 70
     0
  9
$USERI2
 70
     0
  9
$USERI3
 70
     0
  9
$USERI4
 70
     0
  9
$USERI5
 70
     0
  9
$USERR1
 40
0.0
  9
$USERR2
 40
0.0
  9
$USERR3
 40
0.0
  9
$USERR4
 40
0.0
  9
$USERR5
 40
0.0
  9
$WORLDVIEW
 70
     1
  9
$SHADEDGE
 70
     3
  9
$SHADEDIF
 70
    70
  9
$TILEMODE
 70
     1
  9
$MAXACTVP
 70
    16
  9
$PINSBASE
 10
0.0
 20
0.0
 30
0.0
  9
$PLIMCHECK
 70
     0
  9
$PEXTMIN
 10
1.000000E+20
 20
1.000000E+20
 30
1.000000E+20
  9
$PEXTMAX
 10
-1.000000E+20
 20
-1.000000E+20
 30
-1.000000E+20
  9
$PLIMMIN
 10
0.0
 20
0.0
  9
$PLIMMAX
 10
12.0
 20
9.0
  9
$UNITMODE
 70
     0
  9
$VISRETAIN
 70
     0
  9
$PLINEGEN
 70
     0
  9
$PSLTSCALE
 70
     0
  9
$TREEDEPTH
 70
  3020
  9
$DWGCODEPAGE
  3
undefined
  0
ENDSEC
  0
SECTION
  2
TABLES
  0
TABLE
  2
VPORT
 70
     2
  0
VPORT
  2
*ACTIVE
 70
     0
 10
0.0
 20
0.0
 11
1.0
 21
1.0
 12
84.46505
 22
62.0
 13
0.0
 23
0.0
 14
1.0
 24
1.0
 15
2.0
 25
2.0
 16
0.0
 26
0.0
 36
1.0
 17
0.0
 27
0.0
 37
0.0
 40
124.0
 41
1.36234
 42
50.0
 43
0.0
 44
0.0
 50
0.0
 51
0.0
 71
     0
 72
   100
 73
     1
 74
     0
 75
     0
 76
     0
 77
     0
 78
     0
  0
ENDTAB
  0
TABLE
  2
LTYPE
 70
     5
  0
LTYPE
  2
CONTINUOUS
 70
    64
  3
Solid line
 72
    65
 73
     0
 40
0.0
  0
LTYPE
  2
HIDDEN
 70
    64
  3
_ _ _ _ _ _ _ _ _ _ _ _ _ _ _ _ _ _ _ _ _ _ _
 72
    65
 73
     2
 40
0.375
 49
0.25
 49
-0.125
  0
LTYPE
  2
CENTER
 70
    64
  3
____ _ ____ _ ____ _ ____ _ ____ _ ____ _ ____
 72
    65
 73
     4
 40
2.0
 49
1.25
 49
-0.25
 49
0.25
 49
-0.25
  0
LTYPE
  2
PHANTOM
 70
    64
  3
_____ _ _ _____ _ _ _____ _ _ _____ _ _ ____
 72
    65
 73
     6
 40
2.5
 49
1.25
 49
-0.25
 49
0.25
 49
-0.25
 49
0.25
 49
-0.25
  0
LTYPE
  2
HIDDEN2
 70
    64
  3
_ _ _ _ _ _ _ _ _ _ _ _ _ _ _ _ _ _ _ _ _ _ _ _
 72
    65
 73
     2
 40
0.1875
 49
0.125
 49
-0.0625
  0
ENDTAB
  0
TABLE
  2
LAYER
 70
    13
  0
LAYER
  2
0
 70
    64
 62
     7
  6
CONTINUOUS
  0
LAYER
  2
OBJECT
 70
    64
 62
     7
  6
CONTINUOUS
  0
LAYER
  2
DIM
 70
    64
 62
     7
  6
CONTINUOUS
  0
LAYER
  2
HIDDEN
 70
    64
 62
     7
  6
HIDDEN
  0
LAYER
  2
TEXT
 70
    64
 62
     7
  6
CONTINUOUS
  0
LAYER
  2
TITLE
 70
    64
 62
     7
  6
CONTINUOUS
  0
LAYER
  2
CENTER
 70
    64
 62
     7
  6
CENTER
  0
LAYER
  2
DEFPOINTS
 70
    64
 62
     7
  6
CONTINUOUS
  0
LAYER
  2
PMR
 70
    64
 62
     7
  6
CONTINUOUS
  0
LAYER
  2
BEND
 70
    64
 62
     7
  6
PHANTOM
  0
LAYER
  2
HANDLE
 70
    64
 62
     7
  6
CONTINUOUS
  0
LAYER
  2
SHELF
 70
    64
 62
     7
  6
CONTINUOUS
  0
LAYER
  2
SLIDE-SHELF
 70
    64
 62
     7
  6
CONTINUOUS
  0
ENDTAB
  0
TABLE
  2
STYLE
 70
     1
  0
STYLE
  2
TXT
 70
    64
 40
0.0
 41
0.75
 50
0.0
 71
     0
 42
2.0
  3
TXT.shx
  4

  0
ENDTAB
  0
TABLE
  2
VIEW
 70
     0
  0
ENDTAB
  0
TABLE
  2
UCS
 70
     0
  0
ENDTAB
  0
TABLE
  2
APPID
 70
     1
  0
APPID
  2
ACAD
 70
    64
  0
ENDTAB
  0
TABLE
  2
DIMSTYLE
 70
     2
  0
DIMSTYLE
  2
23NSTD
 70
    64
  3

  4

  5

  6

  7

 40
8.0
 41
0.18
 42
0.063
 43
0.25
 44
0.093
 45
0.0
 46
0.0
 47
0.0
 48
0.0
140
0.125
141
0.09
142
0.0
143
25.4
144
1.0
145
0.0
146
1.0
147
0.09
 71
     0
 72
     0
 73
     1
 74
     1
 75
     0
 76
     0
 77
     0
 78
     0
170
     0
171
     2
172
     0
173
     0
174
     0
175
     0
176
     0
177
     0
178
     0
  0
DIMSTYLE
  2
23NSTDI
 70
    64
  3

  4

  5

  6

  7

 40
8.0
 41
0.18
 42
0.063
 43
0.25
 44
0.093
 45
0.0
 46
0.0
 47
0.0
 48
0.0
140
0.125
141
0.09
142
0.0
143
25.4
144
1.0
145
0.0
146
1.0
147
0.09
 71
     0
 72
     0
 73
     1
 74
     1
 75
     0
 76
     0
 77
     0
 78
     0
170
     0
171
     2
172
     0
173
     0
174
     1
175
     0
176
     0
177
     0
178
     0
  0
ENDTAB
  0
ENDSEC
  0
SECTION
  2
BLOCKS
  0
BLOCK
  8
0
  2
*D0
 70
    65
 10
0.0
 20
0.0
 30
0.0
  3
*D
  0
LINE
  8
0
  6
BYBLOCK
 62
     0
 10
240.581514
 20
51.402115
 30
0.0
 11
240.581514
 21
51.894115
 31
0.0
  0
LINE
  8
0
  6
BYBLOCK
 62
     0
 10
220.581514
 20
51.402115
 30
0.0
 11
220.581514
 21
51.894115
 31
0.0
  0
LINE
  8
0
  6
BYBLOCK
 62
     0
 10
239.141514
 20
51.150115
 30
0.0
 11
237.926514
 21
51.150115
 31
0.0
  0
LINE
  8
0
  6
BYBLOCK
 62
     0
 10
222.021514
 20
51.150115
 30
0.0
 11
223.236514
 21
51.150115
 31
0.0
  0
SOLID
  8
0
  6
BYBLOCK
 62
     0
 10
239.141514
 20
51.390115
 30
0.0
 11
239.141514
 21
50.910115
 31
0.0
 12
240.581514
 22
51.150115
 32
0.0
 13
240.581514
 23
51.150115
 33
0.0
  0
SOLID
  8
0
  6
BYBLOCK
 62
     0
 10
222.021514
 20
51.390115
 30
0.0
 11
222.021514
 21
50.910115
 31
0.0
 12
220.581514
 22
51.150115
 32
0.0
 13
220.581514
 23
51.150115
 33
0.0
  0
TEXT
  8
0
  6
BYBLOCK
 62
     0
 10
227.456514
 20
50.650115
 30
0.0
 40
1.0
  1
 SLIDING SHELF
 41
0.75
 72
     1
 11
232.331514
 21
51.150115
 31
0.0
 73
     2
  0
TEXT
  8
0
  6
BYBLOCK
 62
     0
 10
223.956514
 20
50.650115
 30
0.0
 40
1.0
  1
20.000
 41
0.75
 72
     1
 11
225.581514
 21
51.150115
 31
0.0
 73
     2
  0
POINT
  8
DEFPOINTS
  6
BYBLOCK
 62
     0
 10
240.581514
 20
50.898115
 30
0.0
  0
POINT
  8
DEFPOINTS
  6
BYBLOCK
 62
     0
 10
220.581514
 20
50.898115
 30
0.0
  0
POINT
  8
DEFPOINTS
  6
BYBLOCK
 62
     0
 10
220.581514
 20
51.150115
 30
0.0
  0
ENDBLK
  8
0
  0
BLOCK
  8
0
  2
*D1
 70
    65
 10
0.0
 20
0.0
 30
0.0
  3
*D
  0
LINE
  8
0
  6
BYBLOCK
 62
     0
 10
5.517732
 20
19.864181
 30
0.0
 11
5.517732
 21
17.053181
 31
0.0
  0
LINE
  8
0
  6
BYBLOCK
 62
     0
 10
23.423732
 20
19.864181
 30
0.0
 11
23.423732
 21
17.053181
 31
0.0
  0
LINE
  8
0
  6
BYBLOCK
 62
     0
 10
6.957732
 20
17.797181
 30
0.0
 11
12.063232
 21
17.797181
 31
0.0
  0
LINE
  8
0
  6
BYBLOCK
 62
     0
 10
21.983732
 20
17.797181
 30
0.0
 11
16.878232
 21
17.797181
 31
0.0
  0
SOLID
  8
0
  6
BYBLOCK
 62
     0
 10
6.957732
 20
18.037181
 30
0.0
 11
6.957732
 21
17.557181
 31
0.0
 12
5.517732
 22
17.797181
 32
0.0
 13
5.517732
 23
17.797181
 33
0.0
  0
SOLID
  8
0
  6
BYBLOCK
 62
     0
 10
21.983732
 20
18.037181
 30
0.0
 11
21.983732
 21
17.557181
 31
0.0
 12
23.423732
 22
17.797181
 32
0.0
 13
23.423732
 23
17.797181
 33
0.0
  0
TEXT
  8
0
  6
BYBLOCK
 62
     0
 10
12.783232
 20
17.297181
 30
0.0
 40
1.0
  1
17.906
 41
0.75
 72
     1
 11
14.470732
 21
17.797181
 31
0.0
 73
     2
  0
POINT
  8
DEFPOINTS
  6
BYBLOCK
 62
     0
 10
5.517732
 20
20.368181
 30
0.0
  0
POINT
  8
DEFPOINTS
  6
BYBLOCK
 62
     0
 10
23.423732
 20
20.368181
 30
0.0
  0
POINT
  8
DEFPOINTS
  6
BYBLOCK
 62
     0
 10
23.423732
 20
17.797181
 30
0.0
  0
ENDBLK
  8
0
  0
BLOCK
  8
0
  2
*D2
 70
    65
 10
0.0
 20
0.0
 30
0.0
  3
*D
  0
LINE
  8
0
  6
BYBLOCK
 62
     0
 10
13.970732
 20
22.989181
 30
0.0
 11
13.970732
 21
25.119437
 31
0.0
  0
LINE
  8
0
  6
BYBLOCK
 62
     0
 10
14.970732
 20
22.989181
 30
0.0
 11
14.970732
 21
25.119437
 31
0.0
  0
LINE
  8
0
  6
BYBLOCK
 62
     0
 10
12.530732
 20
24.375437
 30
0.0
 11
11.090732
 21
24.375437
 31
0.0
  0
LINE
  8
0
  6
BYBLOCK
 62
     0
 10
16.410732
 20
24.375437
 30
0.0
 11
17.850732
 21
24.375437
 31
0.0
  0
SOLID
  8
0
  6
BYBLOCK
 62
     0
 10
12.530732
 20
24.615437
 30
0.0
 11
12.530732
 21
24.135437
 31
0.0
 12
13.970732
 22
24.375437
 32
0.0
 13
13.970732
 23
24.375437
 33
0.0
  0
SOLID
  8
0
  6
BYBLOCK
 62
     0
 10
16.410732
 20
24.615437
 30
0.0
 11
16.410732
 21
24.135437
 31
0.0
 12
14.970732
 22
24.375437
 32
0.0
 13
14.970732
 23
24.375437
 33
0.0
  0
TEXT
  8
0
  6
BYBLOCK
 62
     0
 10
18.570732
 20
23.875437
 30
0.0
 40
1.0
  1
1.000
 41
0.75
 72
     1
 11
19.758232
 21
24.375437
 31
0.0
 73
     2
  0
POINT
  8
DEFPOINTS
  6
BYBLOCK
 62
     0
 10
13.970732
 20
22.485181
 30
0.0
  0
POINT
  8
DEFPOINTS
  6
BYBLOCK
 62
     0
 10
14.970732
 20
22.485181
 30
0.0
  0
POINT
  8
DEFPOINTS
  6
BYBLOCK
 62
     0
 10
14.970732
 20
24.375437
 30
0.0
  0
ENDBLK
  8
0
  0
BLOCK
  8
0
  2
*D3
 70
    65
 10
0.0
 20
0.0
 30
0.0
  3
*D
  0
LINE
  8
0
  6
BYBLOCK
 62
     0
 10
5.642732
 20
22.989181
 30
0.0
 11
5.642732
 21
27.119437
 31
0.0
  0
LINE
  8
0
  6
BYBLOCK
 62
     0
 10
13.970732
 20
22.989181
 30
0.0
 11
13.970732
 21
27.119437
 31
0.0
  0
LINE
  8
0
  6
BYBLOCK
 62
     0
 10
4.202732
 20
26.375437
 30
0.0
 11
2.762732
 21
26.375437
 31
0.0
  0
LINE
  8
0
  6
BYBLOCK
 62
     0
 10
15.410732
 20
26.375437
 30
0.0
 11
16.850732
 21
26.375437
 31
0.0
  0
SOLID
  8
0
  6
BYBLOCK
 62
     0
 10
4.202732
 20
26.615437
 30
0.0
 11
4.202732
 21
26.135437
 31
0.0
 12
5.642732
 22
26.375437
 32
0.0
 13
5.642732
 23
26.375437
 33
0.0
  0
SOLID
  8
0
  6
BYBLOCK
 62
     0
 10
15.410732
 20
26.615437
 30
0.0
 11
15.410732
 21
26.135437
 31
0.0
 12
13.970732
 22
26.375437
 32
0.0
 13
13.970732
 23
26.375437
 33
0.0
  0
TEXT
  8
0
  6
BYBLOCK
 62
     0
 10
8.306732
 20
25.875437
 30
0.0
 40
1.0
  1
8.328
 41
0.75
 72
     1
 11
9.806732
 21
26.375437
 31
0.0
 73
     2
  0
POINT
  8
DEFPOINTS
  6
BYBLOCK
 62
     0
 10
5.642732
 20
22.485181
 30
0.0
  0
POINT
  8
DEFPOINTS
  6
BYBLOCK
 62
     0
 10
13.970732
 20
22.485181
 30
0.0
  0
POINT
  8
DEFPOINTS
  6
BYBLOCK
 62
     0
 10
13.970732
 20
26.375437
 30
0.0
  0
ENDBLK
  8
0
  0
BLOCK
  8
0
  2
*D4
 70
    65
 10
0.0
 20
0.0
 30
0.0
  3
*D
  0
LINE
  8
0
  6
BYBLOCK
 62
     0
 10
32.188287
 20
20.2391
 30
0.0
 11
32.188287
 21
16.780595
 31
0.0
  0
LINE
  8
0
  6
BYBLOCK
 62
     0
 10
47.188287
 20
20.044181
 30
0.0
 11
47.188287
 21
16.780595
 31
0.0
  0
LINE
  8
0
  6
BYBLOCK
 62
     0
 10
30.748287
 20
17.524595
 30
0.0
 11
29.308287
 21
17.524595
 31
0.0
  0
LINE
  8
0
  6
BYBLOCK
 62
     0
 10
48.628287
 20
17.524595
 30
0.0
 11
50.068287
 21
17.524595
 31
0.0
  0
SOLID
  8
0
  6
BYBLOCK
 62
     0
 10
30.748287
 20
17.764595
 30
0.0
 11
30.748287
 21
17.284595
 31
0.0
 12
32.188287
 22
17.524595
 32
0.0
 13
32.188287
 23
17.524595
 33
0.0
  0
SOLID
  8
0
  6
BYBLOCK
 62
     0
 10
48.628287
 20
17.764595
 30
0.0
 11
48.628287
 21
17.284595
 31
0.0
 12
47.188287
 22
17.524595
 32
0.0
 13
47.188287
 23
17.524595
 33
0.0
  0
TEXT
  8
0
  6
BYBLOCK
 62
     0
 10
36.625787
 20
17.024595
 30
0.0
 40
1.0
  1
 SLIDE TRAVEL
 41
0.75
 72
     1
 11
41.375787
 21
17.524595
 31
0.0
 73
     2
  0
TEXT
  8
0
  6
BYBLOCK
 62
     0
 10
33.250787
 20
17.024595
 30
0.0
 40
1.0
  1
15.000
 41
0.75
 72
     1
 11
34.813287
 21
17.524595
 31
0.0
 73
     2
  0
POINT
  8
DEFPOINTS
  6
BYBLOCK
 62
     0
 10
32.188287
 20
20.7431
 30
0.0
  0
POINT
  8
DEFPOINTS
  6
BYBLOCK
 62
     0
 10
47.188287
 20
20.548181
 30
0.0
  0
POINT
  8
DEFPOINTS
  6
BYBLOCK
 62
     0
 10
47.188287
 20
17.524595
 30
0.0
  0
ENDBLK
  8
0
  0
BLOCK
  8
0
  2
*D5
 70
    65
 10
0.0
 20
0.0
 30
0.0
  3
*D
  0
LINE
  8
0
  6
BYBLOCK
 62
     0
 10
67.188287
 20
20.044181
 30
0.0
 11
67.188287
 21
16.780595
 31
0.0
  0
LINE
  8
0
  6
BYBLOCK
 62
     0
 10
47.188287
 20
20.044181
 30
0.0
 11
47.188287
 21
16.780595
 31
0.0
  0
LINE
  8
0
  6
BYBLOCK
 62
     0
 10
65.748287
 20
17.524595
 30
0.0
 11
61.658287
 21
17.524595
 31
0.0
  0
LINE
  8
0
  6
BYBLOCK
 62
     0
 10
48.628287
 20
17.524595
 30
0.0
 11
52.718287
 21
17.524595
 31
0.0
  0
SOLID
  8
0
  6
BYBLOCK
 62
     0
 10
65.748287
 20
17.764595
 30
0.0
 11
65.748287
 21
17.284595
 31
0.0
 12
67.188287
 22
17.524595
 32
0.0
 13
67.188287
 23
17.524595
 33
0.0
  0
SOLID
  8
0
  6
BYBLOCK
 62
     0
 10
48.628287
 20
17.764595
 30
0.0
 11
48.628287
 21
17.284595
 31
0.0
 12
47.188287
 22
17.524595
 32
0.0
 13
47.188287
 23
17.524595
 33
0.0
  0
TEXT
  8
0
  6
BYBLOCK
 62
     0
 10
56.938287
 20
17.024595
 30
0.0
 40
1.0
  1
 SLIDE
 41
0.75
 72
     1
 11
58.938287
 21
17.524595
 31
0.0
 73
     2
  0
TEXT
  8
0
  6
BYBLOCK
 62
     0
 10
53.438287
 20
17.024595
 30
0.0
 40
1.0
  1
20.000
 41
0.75
 72
     1
 11
55.063287
 21
17.524595
 31
0.0
 73
     2
  0
POINT
  8
DEFPOINTS
  6
BYBLOCK
 62
     0
 10
67.188287
 20
20.548181
 30
0.0
  0
POINT
  8
DEFPOINTS
  6
BYBLOCK
 62
     0
 10
47.188287
 20
20.548181
 30
0.0
  0
POINT
  8
DEFPOINTS
  6
BYBLOCK
 62
     0
 10
47.188287
 20
17.524595
 30
0.0
  0
ENDBLK
  8
0
  0
BLOCK
  8
0
  2
*D6
 70
    65
 10
0.0
 20
0.0
 30
0.0
  3
*D
  0
LINE
  8
0
  6
BYBLOCK
 62
     0
 10
31.434287
 20
20.548181
 30
0.0
 11
28.330287
 21
20.548181
 31
0.0
  0
LINE
  8
0
  6
BYBLOCK
 62
     0
 10
31.512287
 20
22.548181
 30
0.0
 11
28.330287
 21
22.548181
 31
0.0
  0
LINE
  8
0
  6
BYBLOCK
 62
     0
 10
29.074287
 20
19.108181
 30
0.0
 11
29.074287
 21
17.668181
 31
0.0
  0
LINE
  8
0
  6
BYBLOCK
 62
     0
 10
29.074287
 20
23.988181
 30
0.0
 11
29.074287
 21
25.428181
 31
0.0
  0
SOLID
  8
0
  6
BYBLOCK
 62
     0
 10
28.834287
 20
19.108181
 30
0.0
 11
29.314287
 21
19.108181
 31
0.0
 12
29.074287
 22
20.548181
 32
0.0
 13
29.074287
 23
20.548181
 33
0.0
  0
SOLID
  8
0
  6
BYBLOCK
 62
     0
 10
28.834287
 20
23.988181
 30
0.0
 11
29.314287
 21
23.988181
 31
0.0
 12
29.074287
 22
22.548181
 32
0.0
 13
29.074287
 23
22.548181
 33
0.0
  0
TEXT
  8
0
  6
BYBLOCK
 62
     0
 10
27.761787
 20
21.048181
 30
0.0
 40
1.0
  1
2.000
 41
0.75
 72
     1
 11
29.074287
 21
21.548181
 31
0.0
 73
     2
  0
POINT
  8
DEFPOINTS
  6
BYBLOCK
 62
     0
 10
31.938287
 20
20.548181
 30
0.0
  0
POINT
  8
DEFPOINTS
  6
BYBLOCK
 62
     0
 10
32.016287
 20
22.548181
 30
0.0
  0
POINT
  8
DEFPOINTS
  6
BYBLOCK
 62
     0
 10
29.074287
 20
22.548181
 30
0.0
  0
ENDBLK
  8
0
  0
BLOCK
  8
0
  2
*D7
 70
    65
 10
0.0
 20
0.0
 30
0.0
  3
*D
  0
LINE
  8
0
  6
BYBLOCK
 62
     0
 10
31.938287
 20
35.926897
 30
0.0
 11
31.938287
 21
37.982505
 31
0.0
  0
LINE
  8
0
  6
BYBLOCK
 62
     0
 10
46.860287
 20
35.926897
 30
0.0
 11
46.860287
 21
37.982505
 31
0.0
  0
LINE
  8
0
  6
BYBLOCK
 62
     0
 10
33.378287
 20
37.238505
 30
0.0
 11
36.929287
 21
37.238505
 31
0.0
  0
LINE
  8
0
  6
BYBLOCK
 62
     0
 10
45.420287
 20
37.238505
 30
0.0
 11
41.869287
 21
37.238505
 31
0.0
  0
SOLID
  8
0
  6
BYBLOCK
 62
     0
 10
33.378287
 20
37.478505
 30
0.0
 11
33.378287
 21
36.998505
 31
0.0
 12
31.938287
 22
37.238505
 32
0.0
 13
31.938287
 23
37.238505
 33
0.0
  0
SOLID
  8
0
  6
BYBLOCK
 62
     0
 10
45.420287
 20
37.478505
 30
0.0
 11
45.420287
 21
36.998505
 31
0.0
 12
46.860287
 22
37.238505
 32
0.0
 13
46.860287
 23
37.238505
 33
0.0
  0
TEXT
  8
0
  6
BYBLOCK
 62
     0
 10
37.649287
 20
36.738505
 30
0.0
 40
1.0
  1
14.922
 41
0.75
 72
     1
 11
39.399287
 21
37.238505
 31
0.0
 73
     2
  0
POINT
  8
DEFPOINTS
  6
BYBLOCK
 62
     0
 10
31.938287
 20
35.422897
 30
0.0
  0
POINT
  8
DEFPOINTS
  6
BYBLOCK
 62
     0
 10
46.860287
 20
35.422897
 30
0.0
  0
POINT
  8
DEFPOINTS
  6
BYBLOCK
 62
     0
 10
46.860287
 20
37.238505
 30
0.0
  0
ENDBLK
  8
0
  0
BLOCK
  8
0
  2
*D8
 70
    65
 10
0.0
 20
0.0
 30
0.0
  3
*D
  0
LINE
  8
0
  6
BYBLOCK
 62
     0
 10
70.037287
 20
22.618181
 30
0.0
 11
73.141287
 21
22.618181
 31
0.0
  0
LINE
  8
0
  6
BYBLOCK
 62
     0
 10
70.037287
 20
20.368181
 30
0.0
 11
73.141287
 21
20.368181
 31
0.0
  0
LINE
  8
0
  6
BYBLOCK
 62
     0
 10
72.397287
 20
24.058181
 30
0.0
 11
72.397287
 21
25.498181
 31
0.0
  0
LINE
  8
0
  6
BYBLOCK
 62
     0
 10
72.397287
 20
18.928181
 30
0.0
 11
72.397287
 21
17.488181
 31
0.0
  0
SOLID
  8
0
  6
BYBLOCK
 62
     0
 10
72.157287
 20
24.058181
 30
0.0
 11
72.637287
 21
24.058181
 31
0.0
 12
72.397287
 22
22.618181
 32
0.0
 13
72.397287
 23
22.618181
 33
0.0
  0
SOLID
  8
0
  6
BYBLOCK
 62
     0
 10
72.157287
 20
18.928181
 30
0.0
 11
72.637287
 21
18.928181
 31
0.0
 12
72.397287
 22
20.368181
 32
0.0
 13
72.397287
 23
20.368181
 33
0.0
  0
TEXT
  8
0
  6
BYBLOCK
 62
     0
 10
70.959787
 20
20.993181
 30
0.0
 40
1.0
  1
2.250
 41
0.75
 72
     1
 11
72.397287
 21
21.493181
 31
0.0
 73
     2
  0
POINT
  8
DEFPOINTS
  6
BYBLOCK
 62
     0
 10
69.533287
 20
22.618181
 30
0.0
  0
POINT
  8
DEFPOINTS
  6
BYBLOCK
 62
     0
 10
69.533287
 20
20.368181
 30
0.0
  0
POINT
  8
DEFPOINTS
  6
BYBLOCK
 62
     0
 10
72.397287
 20
20.368181
 30
0.0
  0
ENDBLK
  8
0
  0
BLOCK
  8
0
  2
*D9
 70
    65
 10
0.0
 20
0.0
 30
0.0
  3
*D
  0
LINE
  8
0
  6
BYBLOCK
 62
     0
 10
70.037287
 20
52.862867
 30
0.0
 11
72.157466
 21
52.862867
 31
0.0
  0
LINE
  8
0
  6
BYBLOCK
 62
     0
 10
70.114787
 20
53.627866
 30
0.0
 11
72.157466
 21
53.627866
 31
0.0
  0
LINE
  8
0
  6
BYBLOCK
 62
     0
 10
71.413466
 20
51.422867
 30
0.0
 11
71.413466
 21
49.982867
 31
0.0
  0
LINE
  8
0
  6
BYBLOCK
 62
     0
 10
71.413466
 20
55.067866
 30
0.0
 11
71.413466
 21
56.507866
 31
0.0
  0
LINE
  8
0
  6
BYBLOCK
 62
     0
 10
71.413466
 20
56.507866
 30
0.0
 11
72.853466
 21
56.507866
 31
0.0
  0
SOLID
  8
0
  6
BYBLOCK
 62
     0
 10
71.173466
 20
51.422867
 30
0.0
 11
71.653466
 21
51.422867
 31
0.0
 12
71.413466
 22
52.862867
 32
0.0
 13
71.413466
 23
52.862867
 33
0.0
  0
SOLID
  8
0
  6
BYBLOCK
 62
     0
 10
71.173466
 20
55.067866
 30
0.0
 11
71.653466
 21
55.067866
 31
0.0
 12
71.413466
 22
53.627866
 32
0.0
 13
71.413466
 23
53.627866
 33
0.0
  0
TEXT
  8
0
  6
BYBLOCK
 62
     0
 10
73.573466
 20
56.007866
 30
0.0
 40
1.0
  1
0.765
 41
0.75
 72
     1
 11
75.010966
 21
56.507866
 31
0.0
 73
     2
  0
POINT
  8
DEFPOINTS
  6
BYBLOCK
 62
     0
 10
69.533287
 20
52.862867
 30
0.0
  0
POINT
  8
DEFPOINTS
  6
BYBLOCK
 62
     0
 10
69.610787
 20
53.627866
 30
0.0
  0
POINT
  8
DEFPOINTS
  6
BYBLOCK
 62
     0
 10
71.413466
 20
53.627866
 30
0.0
  0
ENDBLK
  8
0
  0
BLOCK
  8
0
  2
*D10
 70
    65
 10
0.0
 20
0.0
 30
0.0
  3
*D
  0
LINE
  8
0
  6
BYBLOCK
 62
     0
 10
49.657489
 20
109.927093
 30
0.0
 11
49.657489
 21
112.063815
 31
0.0
  0
LINE
  8
0
  6
BYBLOCK
 62
     0
 10
49.282489
 20
109.927093
 30
0.0
 11
49.282489
 21
112.063815
 31
0.0
  0
LINE
  8
0
  6
BYBLOCK
 62
     0
 10
51.097489
 20
111.319815
 30
0.0
 11
52.537489
 21
111.319815
 31
0.0
  0
LINE
  8
0
  6
BYBLOCK
 62
     0
 10
47.842489
 20
111.319815
 30
0.0
 11
46.402489
 21
111.319815
 31
0.0
  0
SOLID
  8
0
  6
BYBLOCK
 62
     0
 10
51.097489
 20
111.559815
 30
0.0
 11
51.097489
 21
111.079815
 31
0.0
 12
49.657489
 22
111.319815
 32
0.0
 13
49.657489
 23
111.319815
 33
0.0
  0
SOLID
  8
0
  6
BYBLOCK
 62
     0
 10
47.842489
 20
111.559815
 30
0.0
 11
47.842489
 21
111.079815
 31
0.0
 12
49.282489
 22
111.319815
 32
0.0
 13
49.282489
 23
111.319815
 33
0.0
  0
TEXT
  8
0
  6
BYBLOCK
 62
     0
 10
42.807489
 20
110.819815
 30
0.0
 40
1.0
  1
0.375
 41
0.75
 72
     1
 11
44.244989
 21
111.319815
 31
0.0
 73
     2
  0
POINT
  8
DEFPOINTS
  6
BYBLOCK
 62
     0
 10
49.657489
 20
109.423093
 30
0.0
  0
POINT
  8
DEFPOINTS
  6
BYBLOCK
 62
     0
 10
49.282489
 20
109.423093
 30
0.0
  0
POINT
  8
DEFPOINTS
  6
BYBLOCK
 62
     0
 10
49.282489
 20
111.319815
 30
0.0
  0
ENDBLK
  8
0
  0
BLOCK
  8
0
  2
*D11
 70
    65
 10
0.0
 20
0.0
 30
0.0
  3
*D
  0
LINE
  8
0
  6
BYBLOCK
 62
     0
 10
49.282489
 20
109.927093
 30
0.0
 11
49.282489
 21
114.063815
 31
0.0
  0
LINE
  8
0
  6
BYBLOCK
 62
     0
 10
72.032489
 20
109.927093
 30
0.0
 11
72.032489
 21
114.063815
 31
0.0
  0
LINE
  8
0
  6
BYBLOCK
 62
     0
 10
50.722489
 20
113.319815
 30
0.0
 11
58.124989
 21
113.319815
 31
0.0
  0
LINE
  8
0
  6
BYBLOCK
 62
     0
 10
70.592489
 20
113.319815
 30
0.0
 11
63.189989
 21
113.319815
 31
0.0
  0
SOLID
  8
0
  6
BYBLOCK
 62
     0
 10
50.722489
 20
113.559815
 30
0.0
 11
50.722489
 21
113.079815
 31
0.0
 12
49.282489
 22
113.319815
 32
0.0
 13
49.282489
 23
113.319815
 33
0.0
  0
SOLID
  8
0
  6
BYBLOCK
 62
     0
 10
70.592489
 20
113.559815
 30
0.0
 11
70.592489
 21
113.079815
 31
0.0
 12
72.032489
 22
113.319815
 32
0.0
 13
72.032489
 23
113.319815
 33
0.0
  0
TEXT
  8
0
  6
BYBLOCK
 62
     0
 10
58.844989
 20
112.819815
 30
0.0
 40
1.0
  1
22.750
 41
0.75
 72
     1
 11
60.657489
 21
113.319815
 31
0.0
 73
     2
  0
POINT
  8
DEFPOINTS
  6
BYBLOCK
 62
     0
 10
49.282489
 20
109.423093
 30
0.0
  0
POINT
  8
DEFPOINTS
  6
BYBLOCK
 62
     0
 10
72.032489
 20
109.423093
 30
0.0
  0
POINT
  8
DEFPOINTS
  6
BYBLOCK
 62
     0
 10
72.032489
 20
113.319815
 30
0.0
  0
ENDBLK
  8
0
  0
ENDSEC
  0
SECTION
  2
ENTITIES
  0
TEXT
  8
DIM
 10
67.947406
 20
108.685211
 30
0.0
 40
1.25
  1

  0
TEXT
  8
DIM
 10
69.009906
 20
104.591452
 30
0.0
 40
1.0
  1

  0
TEXT
  8
OBJECT
 10
69.86665
 20
155.28811
 30
0.0
 40
1.25
  1

  0
TEXT
  8
TEXT
 10
9.2725
 20
121.208
 30
0.0
 40
1.249714
  1
DUAL SLIDING SHELF (19" WIDE P.S.)
 41
0.75
 72
     1
 11
23.488
 21
121.208
 31
0.0
  0
TEXT
  8
TEXT
 10
60.595714
 20
121.208
 30
0.0
 40
1.249714
  1
SH-2397
 41
0.75
 72
     1
 11
63.72
 21
121.208
 31
0.0
  0
TEXT
  8
DIM
 10
221.381413
 20
120.925461
 30
0.0
 40
1.25
  1

  0
TEXT
  8
DIM
 10
222.443913
 20
116.831703
 30
0.0
 40
1.0
  1

  0
TEXT
  8
OBJECT
 10
223.300657
 20
167.52836
 30
0.0
 40
1.25
  1

  0
TEXT
  8
DIM
 10
-32.554051
 20
108.835018
 30
0.0
 40
1.25
  1

  0
TEXT
  8
DIM
 10
-31.491551
 20
104.74126
 30
0.0
 40
1.0
  1

  0
TEXT
  8
OBJECT
 10
-30.634808
 20
155.437917
 30
0.0
 40
1.25
  1

  0
TEXT
  8
DIM
 10
213.445949
 20
108.835018
 30
0.0
 40
1.25
  1

  0
TEXT
  8
DIM
 10
214.508449
 20
104.74126
 30
0.0
 40
1.0
  1

  0
TEXT
  8
OBJECT
 10
215.365192
 20
155.437917
 30
0.0
 40
1.25
  1

  0
TEXT
  8
DIM
 10
418.445949
 20
108.835018
 30
0.0
 40
1.25
  1

  0
TEXT
  8
DIM
 10
419.508449
 20
104.74126
 30
0.0
 40
1.0
  1

  0
TEXT
  8
OBJECT
 10
420.365192
 20
155.437917
 30
0.0
 40
1.25
  1

  0
TEXT
  8
DIM
 10
623.445949
 20
108.835018
 30
0.0
 40
1.25
  1

  0
TEXT
  8
DIM
 10
624.508449
 20
104.74126
 30
0.0
 40
1.0
  1

  0
TEXT
  8
DIM
 10
787.445949
 20
108.835018
 30
0.0
 40
1.25
  1

  0
TEXT
  8
DIM
 10
788.508449
 20
104.74126
 30
0.0
 40
1.0
  1

  0
TEXT
  8
OBJECT
 10
789.365192
 20
155.437917
 30
0.0
 40
1.25
  1

  0
TEXT
  8
DIM
 10
787.445949
 20
108.835018
 30
0.0
 40
1.25
  1

  0
TEXT
  8
DIM
 10
788.508449
 20
104.74126
 30
0.0
 40
1.0
  1

  0
TEXT
  8
OBJECT
 10
789.365192
 20
155.437917
 30
0.0
 40
1.25
  1

  0
TEXT
  8
DIM
 10
805.413326
 20
293.759395
 30
0.0
 40
0.72
  1

  0
TEXT
  8
DIM
 10
741.877449
 20
270.884129
 30
0.0
 40
0.72
  1

  0
TEXT
  8
DIM
 10
892.78977
 20
221.762391
 30
0.0
 40
0.72
  1

  0
TEXT
  8
DIM
 10
829.253894
 20
198.887126
 30
0.0
 40
0.72
  1

  0
TEXT
  8
DIM
 10
795.443126
 20
307.374357
 30
0.0
 40
0.72
  1

  0
TEXT
  8
DIM
 10
731.90725
 20
284.499092
 30
0.0
 40
0.72
  1

  0
TEXT
  8
DIM
 10
731.90725
 20
324.499092
 30
0.0
 40
0.72
  1

  0
TEXT
  8
DIM
 10
793.40725
 20
324.499092
 30
0.0
 40
0.72
  1

  0
TEXT
  8
DIM
 10
418.445949
 20
108.835018
 30
0.0
 40
1.25
  1

  0
TEXT
  8
DIM
 10
419.508449
 20
104.74126
 30
0.0
 40
1.0
  1

  0
TEXT
  8
OBJECT
 10
420.365192
 20
155.437917
 30
0.0
 40
1.25
  1

  0
TEXT
  8
DIM
 10
623.445949
 20
108.835018
 30
0.0
 40
1.25
  1

  0
TEXT
  8
DIM
 10
624.508449
 20
104.74126
 30
0.0
 40
1.0
  1

  0
TEXT
  8
DIM
 10
787.445949
 20
108.835018
 30
0.0
 40
1.25
  1

  0
TEXT
  8
DIM
 10
788.508449
 20
104.74126
 30
0.0
 40
1.0
  1

  0
TEXT
  8
OBJECT
 10
789.365192
 20
155.437917
 30
0.0
 40
1.25
  1

  0
TEXT
  8
DIM
 10
787.445949
 20
108.835018
 30
0.0
 40
1.25
  1

  0
TEXT
  8
DIM
 10
788.508449
 20
104.74126
 30
0.0
 40
1.0
  1

  0
TEXT
  8
OBJECT
 10
789.365192
 20
155.437917
 30
0.0
 40
1.25
  1

  0
TEXT
  8
DIM
 10
805.413326
 20
293.759395
 30
0.0
 40
0.72
  1

  0
TEXT
  8
DIM
 10
741.877449
 20
270.884129
 30
0.0
 40
0.72
  1

  0
TEXT
  8
DIM
 10
892.78977
 20
221.762391
 30
0.0
 40
0.72
  1

  0
TEXT
  8
DIM
 10
829.253894
 20
198.887126
 30
0.0
 40
0.72
  1

  0
TEXT
  8
DIM
 10
795.443126
 20
307.374357
 30
0.0
 40
0.72
  1

  0
TEXT
  8
DIM
 10
731.90725
 20
284.499092
 30
0.0
 40
0.72
  1

  0
TEXT
  8
DIM
 10
731.90725
 20
324.499092
 30
0.0
 40
0.72
  1

  0
TEXT
  8
DIM
 10
793.40725
 20
324.499092
 30
0.0
 40
0.72
  1

  0
TEXT
  8
DIM
 10
397.945949
 20
108.835018
 30
0.0
 40
1.25
  1

  0
TEXT
  8
DIM
 10
399.008449
 20
104.74126
 30
0.0
 40
1.0
  1

  0
TEXT
  8
DIM
 10
561.945949
 20
108.835018
 30
0.0
 40
1.25
  1

  0
TEXT
  8
DIM
 10
563.008449
 20
104.74126
 30
0.0
 40
1.0
  1

  0
TEXT
  8
OBJECT
 10
563.865192
 20
155.437917
 30
0.0
 40
1.25
  1

  0
TEXT
  8
DIM
 10
561.945949
 20
108.835018
 30
0.0
 40
1.25
  1

  0
TEXT
  8
DIM
 10
563.008449
 20
104.74126
 30
0.0
 40
1.0
  1

  0
TEXT
  8
OBJECT
 10
563.865192
 20
155.437917
 30
0.0
 40
1.25
  1

  0
TEXT
  8
DIM
 10
579.913326
 20
293.759395
 30
0.0
 40
0.72
  1

  0
TEXT
  8
DIM
 10
516.377449
 20
270.884129
 30
0.0
 40
0.72
  1

  0
TEXT
  8
DIM
 10
667.28977
 20
221.762391
 30
0.0
 40
0.72
  1

  0
TEXT
  8
DIM
 10
603.753894
 20
198.887126
 30
0.0
 40
0.72
  1

  0
TEXT
  8
DIM
 10
569.943126
 20
307.374357
 30
0.0
 40
0.72
  1

  0
TEXT
  8
DIM
 10
506.40725
 20
284.499092
 30
0.0
 40
0.72
  1

  0
TEXT
  8
DIM
 10
506.40725
 20
324.499092
 30
0.0
 40
0.72
  1

  0
TEXT
  8
DIM
 10
567.90725
 20
324.499092
 30
0.0
 40
0.72
  1

  0
TEXT
  8
DIM
 10
459.445949
 20
108.835018
 30
0.0
 40
1.25
  1

  0
TEXT
  8
DIM
 10
460.508449
 20
104.74126
 30
0.0
 40
1.0
  1

  0
TEXT
  8
DIM
 10
623.445949
 20
108.835018
 30
0.0
 40
1.25
  1

  0
TEXT
  8
DIM
 10
624.508449
 20
104.74126
 30
0.0
 40
1.0
  1

  0
TEXT
  8
OBJECT
 10
625.365192
 20
155.437917
 30
0.0
 40
1.25
  1

  0
TEXT
  8
DIM
 10
623.445949
 20
108.835018
 30
0.0
 40
1.25
  1

  0
TEXT
  8
DIM
 10
624.508449
 20
104.74126
 30
0.0
 40
1.0
  1

  0
TEXT
  8
OBJECT
 10
625.365192
 20
155.437917
 30
0.0
 40
1.25
  1

  0
TEXT
  8
DIM
 10
641.413326
 20
293.759395
 30
0.0
 40
0.72
  1

  0
TEXT
  8
DIM
 10
577.877449
 20
270.884129
 30
0.0
 40
0.72
  1

  0
TEXT
  8
DIM
 10
728.78977
 20
221.762391
 30
0.0
 40
0.72
  1

  0
TEXT
  8
DIM
 10
665.253894
 20
198.887126
 30
0.0
 40
0.72
  1

  0
TEXT
  8
DIM
 10
631.443126
 20
307.374357
 30
0.0
 40
0.72
  1

  0
TEXT
  8
DIM
 10
567.90725
 20
284.499092
 30
0.0
 40
0.72
  1

  0
TEXT
  8
DIM
 10
567.90725
 20
324.499092
 30
0.0
 40
0.72
  1

  0
TEXT
  8
DIM
 10
629.40725
 20
324.499092
 30
0.0
 40
0.72
  1

  0
TEXT
  8
DIM
 10
459.445949
 20
108.835018
 30
0.0
 40
1.25
  1

  0
TEXT
  8
DIM
 10
460.508449
 20
104.74126
 30
0.0
 40
1.0
  1

  0
TEXT
  8
OBJECT
 10
461.365192
 20
155.437917
 30
0.0
 40
1.25
  1

  0
TEXT
  8
DIM
 10
664.445949
 20
108.835018
 30
0.0
 40
1.25
  1

  0
TEXT
  8
DIM
 10
665.508449
 20
104.74126
 30
0.0
 40
1.0
  1

  0
TEXT
  8
OBJECT
 10
666.365192
 20
155.437917
 30
0.0
 40
1.25
  1

  0
TEXT
  8
DIM
 10
869.445949
 20
108.835018
 30
0.0
 40
1.25
  1

  0
TEXT
  8
DIM
 10
870.508449
 20
104.74126
 30
0.0
 40
1.0
  1

  0
TEXT
  8
DIM
 10
1033.445949
 20
108.835018
 30
0.0
 40
1.25
  1

  0
TEXT
  8
DIM
 10
1034.508449
 20
104.74126
 30
0.0
 40
1.0
  1

  0
TEXT
  8
OBJECT
 10
1035.365192
 20
155.437917
 30
0.0
 40
1.25
  1

  0
TEXT
  8
DIM
 10
1033.445949
 20
108.835018
 30
0.0
 40
1.25
  1

  0
TEXT
  8
DIM
 10
1034.508449
 20
104.74126
 30
0.0
 40
1.0
  1

  0
TEXT
  8
OBJECT
 10
1035.365192
 20
155.437917
 30
0.0
 40
1.25
  1

  0
TEXT
  8
DIM
 10
1051.413326
 20
293.759395
 30
0.0
 40
0.72
  1

  0
TEXT
  8
DIM
 10
987.877449
 20
270.884129
 30
0.0
 40
0.72
  1

  0
TEXT
  8
DIM
 10
1138.78977
 20
221.762391
 30
0.0
 40
0.72
  1

  0
TEXT
  8
DIM
 10
1075.253894
 20
198.887126
 30
0.0
 40
0.72
  1

  0
TEXT
  8
DIM
 10
1041.443126
 20
307.374357
 30
0.0
 40
0.72
  1

  0
TEXT
  8
DIM
 10
977.90725
 20
284.499092
 30
0.0
 40
0.72
  1

  0
TEXT
  8
DIM
 10
977.90725
 20
324.499092
 30
0.0
 40
0.72
  1

  0
TEXT
  8
DIM
 10
1039.40725
 20
324.499092
 30
0.0
 40
0.72
  1

  0
TEXT
  8
DIM
 10
664.445949
 20
108.835018
 30
0.0
 40
1.25
  1

  0
TEXT
  8
DIM
 10
665.508449
 20
104.74126
 30
0.0
 40
1.0
  1

  0
TEXT
  8
OBJECT
 10
666.365192
 20
155.437917
 30
0.0
 40
1.25
  1

  0
TEXT
  8
DIM
 10
869.445949
 20
108.835018
 30
0.0
 40
1.25
  1

  0
TEXT
  8
DIM
 10
870.508449
 20
104.74126
 30
0.0
 40
1.0
  1

  0
TEXT
  8
DIM
 10
1033.445949
 20
108.835018
 30
0.0
 40
1.25
  1

  0
TEXT
  8
DIM
 10
1034.508449
 20
104.74126
 30
0.0
 40
1.0
  1

  0
TEXT
  8
OBJECT
 10
1035.365192
 20
155.437917
 30
0.0
 40
1.25
  1

  0
TEXT
  8
DIM
 10
1033.445949
 20
108.835018
 30
0.0
 40
1.25
  1

  0
TEXT
  8
DIM
 10
1034.508449
 20
104.74126
 30
0.0
 40
1.0
  1

  0
TEXT
  8
OBJECT
 10
1035.365192
 20
155.437917
 30
0.0
 40
1.25
  1

  0
TEXT
  8
DIM
 10
1051.413326
 20
293.759395
 30
0.0
 40
0.72
  1

  0
TEXT
  8
DIM
 10
987.877449
 20
270.884129
 30
0.0
 40
0.72
  1

  0
TEXT
  8
DIM
 10
1138.78977
 20
221.762391
 30
0.0
 40
0.72
  1

  0
TEXT
  8
DIM
 10
1075.253894
 20
198.887126
 30
0.0
 40
0.72
  1

  0
TEXT
  8
DIM
 10
1041.443126
 20
307.374357
 30
0.0
 40
0.72
  1

  0
TEXT
  8
DIM
 10
977.90725
 20
284.499092
 30
0.0
 40
0.72
  1

  0
TEXT
  8
DIM
 10
977.90725
 20
324.499092
 30
0.0
 40
0.72
  1

  0
TEXT
  8
DIM
 10
1039.40725
 20
324.499092
 30
0.0
 40
0.72
  1

  0
TEXT
  8
DIM
 10
643.945949
 20
108.835018
 30
0.0
 40
1.25
  1

  0
TEXT
  8
DIM
 10
645.008449
 20
104.74126
 30
0.0
 40
1.0
  1

  0
TEXT
  8
DIM
 10
807.945949
 20
108.835018
 30
0.0
 40
1.25
  1

  0
TEXT
  8
DIM
 10
809.008449
 20
104.74126
 30
0.0
 40
1.0
  1

  0
TEXT
  8
OBJECT
 10
809.865192
 20
155.437917
 30
0.0
 40
1.25
  1

  0
TEXT
  8
DIM
 10
807.945949
 20
108.835018
 30
0.0
 40
1.25
  1

  0
TEXT
  8
DIM
 10
809.008449
 20
104.74126
 30
0.0
 40
1.0
  1

  0
TEXT
  8
OBJECT
 10
809.865192
 20
155.437917
 30
0.0
 40
1.25
  1

  0
TEXT
  8
DIM
 10
825.913326
 20
293.759395
 30
0.0
 40
0.72
  1

  0
TEXT
  8
DIM
 10
762.377449
 20
270.884129
 30
0.0
 40
0.72
  1

  0
TEXT
  8
DIM
 10
913.28977
 20
221.762391
 30
0.0
 40
0.72
  1

  0
TEXT
  8
DIM
 10
849.753894
 20
198.887126
 30
0.0
 40
0.72
  1

  0
TEXT
  8
DIM
 10
815.943126
 20
307.374357
 30
0.0
 40
0.72
  1

  0
TEXT
  8
DIM
 10
752.40725
 20
284.499092
 30
0.0
 40
0.72
  1

  0
TEXT
  8
DIM
 10
752.40725
 20
324.499092
 30
0.0
 40
0.72
  1

  0
TEXT
  8
DIM
 10
813.90725
 20
324.499092
 30
0.0
 40
0.72
  1

  0
TEXT
  8
DIM
 10
664.445949
 20
108.835018
 30
0.0
 40
1.25
  1

  0
TEXT
  8
DIM
 10
665.508449
 20
104.74126
 30
0.0
 40
1.0
  1

  0
TEXT
  8
DIM
 10
828.445949
 20
108.835018
 30
0.0
 40
1.25
  1

  0
TEXT
  8
DIM
 10
829.508449
 20
104.74126
 30
0.0
 40
1.0
  1

  0
TEXT
  8
OBJECT
 10
830.365192
 20
155.437917
 30
0.0
 40
1.25
  1

  0
TEXT
  8
DIM
 10
828.445949
 20
108.835018
 30
0.0
 40
1.25
  1

  0
TEXT
  8
DIM
 10
829.508449
 20
104.74126
 30
0.0
 40
1.0
  1

  0
TEXT
  8
OBJECT
 10
830.365192
 20
155.437917
 30
0.0
 40
1.25
  1

  0
TEXT
  8
DIM
 10
846.413326
 20
293.759395
 30
0.0
 40
0.72
  1

  0
TEXT
  8
DIM
 10
782.877449
 20
270.884129
 30
0.0
 40
0.72
  1

  0
TEXT
  8
DIM
 10
933.78977
 20
221.762391
 30
0.0
 40
0.72
  1

  0
TEXT
  8
DIM
 10
870.253894
 20
198.887126
 30
0.0
 40
0.72
  1

  0
TEXT
  8
DIM
 10
836.443126
 20
307.374357
 30
0.0
 40
0.72
  1

  0
TEXT
  8
DIM
 10
772.90725
 20
284.499092
 30
0.0
 40
0.72
  1

  0
TEXT
  8
DIM
 10
772.90725
 20
324.499092
 30
0.0
 40
0.72
  1

  0
TEXT
  8
DIM
 10
834.40725
 20
324.499092
 30
0.0
 40
0.72
  1

  0
TEXT
  8
DIM
 10
684.945949
 20
108.835018
 30
0.0
 40
1.25
  1

  0
TEXT
  8
DIM
 10
686.008449
 20
104.74126
 30
0.0
 40
1.0
  1

  0
TEXT
  8
OBJECT
 10
686.865192
 20
155.437917
 30
0.0
 40
1.25
  1

  0
TEXT
  8
DIM
 10
889.945949
 20
108.835018
 30
0.0
 40
1.25
  1

  0
TEXT
  8
DIM
 10
891.008449
 20
104.74126
 30
0.0
 40
1.0
  1

  0
TEXT
  8
OBJECT
 10
891.865192
 20
155.437917
 30
0.0
 40
1.25
  1

  0
TEXT
  8
DIM
 10
1094.945949
 20
108.835018
 30
0.0
 40
1.25
  1

  0
TEXT
  8
DIM
 10
1096.008449
 20
104.74126
 30
0.0
 40
1.0
  1

  0
TEXT
  8
DIM
 10
1258.945949
 20
108.835018
 30
0.0
 40
1.25
  1

  0
TEXT
  8
DIM
 10
1260.008449
 20
104.74126
 30
0.0
 40
1.0
  1

  0
TEXT
  8
OBJECT
 10
1260.865192
 20
155.437917
 30
0.0
 40
1.25
  1

  0
TEXT
  8
DIM
 10
1258.945949
 20
108.835018
 30
0.0
 40
1.25
  1

  0
TEXT
  8
DIM
 10
1260.008449
 20
104.74126
 30
0.0
 40
1.0
  1

  0
TEXT
  8
OBJECT
 10
1260.865192
 20
155.437917
 30
0.0
 40
1.25
  1

  0
TEXT
  8
DIM
 10
1276.913326
 20
293.759395
 30
0.0
 40
0.72
  1

  0
TEXT
  8
DIM
 10
1213.377449
 20
270.884129
 30
0.0
 40
0.72
  1

  0
TEXT
  8
DIM
 10
1364.28977
 20
221.762391
 30
0.0
 40
0.72
  1

  0
TEXT
  8
DIM
 10
1300.753894
 20
198.887126
 30
0.0
 40
0.72
  1

  0
TEXT
  8
DIM
 10
1266.943126
 20
307.374357
 30
0.0
 40
0.72
  1

  0
TEXT
  8
DIM
 10
1203.40725
 20
284.499092
 30
0.0
 40
0.72
  1

  0
TEXT
  8
DIM
 10
1203.40725
 20
324.499092
 30
0.0
 40
0.72
  1

  0
TEXT
  8
DIM
 10
1264.90725
 20
324.499092
 30
0.0
 40
0.72
  1

  0
TEXT
  8
DIM
 10
889.945949
 20
108.835018
 30
0.0
 40
1.25
  1

  0
TEXT
  8
DIM
 10
891.008449
 20
104.74126
 30
0.0
 40
1.0
  1

  0
TEXT
  8
OBJECT
 10
891.865192
 20
155.437917
 30
0.0
 40
1.25
  1

  0
TEXT
  8
DIM
 10
1094.945949
 20
108.835018
 30
0.0
 40
1.25
  1

  0
TEXT
  8
DIM
 10
1096.008449
 20
104.74126
 30
0.0
 40
1.0
  1

  0
TEXT
  8
DIM
 10
1258.945949
 20
108.835018
 30
0.0
 40
1.25
  1

  0
TEXT
  8
DIM
 10
1260.008449
 20
104.74126
 30
0.0
 40
1.0
  1

  0
TEXT
  8
OBJECT
 10
1260.865192
 20
155.437917
 30
0.0
 40
1.25
  1

  0
TEXT
  8
DIM
 10
1258.945949
 20
108.835018
 30
0.0
 40
1.25
  1

  0
TEXT
  8
DIM
 10
1260.008449
 20
104.74126
 30
0.0
 40
1.0
  1

  0
TEXT
  8
OBJECT
 10
1260.865192
 20
155.437917
 30
0.0
 40
1.25
  1

  0
TEXT
  8
DIM
 10
1276.913326
 20
293.759395
 30
0.0
 40
0.72
  1

  0
TEXT
  8
DIM
 10
1213.377449
 20
270.884129
 30
0.0
 40
0.72
  1

  0
TEXT
  8
DIM
 10
1364.28977
 20
221.762391
 30
0.0
 40
0.72
  1

  0
TEXT
  8
DIM
 10
1300.753894
 20
198.887126
 30
0.0
 40
0.72
  1

  0
TEXT
  8
DIM
 10
1266.943126
 20
307.374357
 30
0.0
 40
0.72
  1

  0
TEXT
  8
DIM
 10
1203.40725
 20
284.499092
 30
0.0
 40
0.72
  1

  0
TEXT
  8
DIM
 10
1203.40725
 20
324.499092
 30
0.0
 40
0.72
  1

  0
TEXT
  8
DIM
 10
1264.90725
 20
324.499092
 30
0.0
 40
0.72
  1

  0
TEXT
  8
DIM
 10
869.445949
 20
108.835018
 30
0.0
 40
1.25
  1

  0
TEXT
  8
DIM
 10
870.508449
 20
104.74126
 30
0.0
 40
1.0
  1

  0
TEXT
  8
DIM
 10
1033.445949
 20
108.835018
 30
0.0
 40
1.25
  1

  0
TEXT
  8
DIM
 10
1034.508449
 20
104.74126
 30
0.0
 40
1.0
  1

  0
TEXT
  8
OBJECT
 10
1035.365192
 20
155.437917
 30
0.0
 40
1.25
  1

  0
TEXT
  8
DIM
 10
1033.445949
 20
108.835018
 30
0.0
 40
1.25
  1

  0
TEXT
  8
DIM
 10
1034.508449
 20
104.74126
 30
0.0
 40
1.0
  1

  0
TEXT
  8
OBJECT
 10
1035.365192
 20
155.437917
 30
0.0
 40
1.25
  1

  0
TEXT
  8
DIM
 10
1051.413326
 20
293.759395
 30
0.0
 40
0.72
  1

  0
TEXT
  8
DIM
 10
987.877449
 20
270.884129
 30
0.0
 40
0.72
  1

  0
TEXT
  8
DIM
 10
1138.78977
 20
221.762391
 30
0.0
 40
0.72
  1

  0
TEXT
  8
DIM
 10
1075.253894
 20
198.887126
 30
0.0
 40
0.72
  1

  0
TEXT
  8
DIM
 10
1041.443126
 20
307.374357
 30
0.0
 40
0.72
  1

  0
TEXT
  8
DIM
 10
977.90725
 20
284.499092
 30
0.0
 40
0.72
  1

  0
TEXT
  8
DIM
 10
977.90725
 20
324.499092
 30
0.0
 40
0.72
  1

  0
TEXT
  8
DIM
 10
1039.40725
 20
324.499092
 30
0.0
 40
0.72
  1

  0
TEXT
  8
DIM
 10
889.945949
 20
108.835018
 30
0.0
 40
1.25
  1

  0
TEXT
  8
DIM
 10
891.008449
 20
104.74126
 30
0.0
 40
1.0
  1

  0
TEXT
  8
DIM
 10
1053.945949
 20
108.835018
 30
0.0
 40
1.25
  1

  0
TEXT
  8
DIM
 10
1055.008449
 20
104.74126
 30
0.0
 40
1.0
  1

  0
TEXT
  8
OBJECT
 10
1055.865192
 20
155.437917
 30
0.0
 40
1.25
  1

  0
TEXT
  8
DIM
 10
1053.945949
 20
108.835018
 30
0.0
 40
1.25
  1

  0
TEXT
  8
DIM
 10
1055.008449
 20
104.74126
 30
0.0
 40
1.0
  1

  0
TEXT
  8
OBJECT
 10
1055.865192
 20
155.437917
 30
0.0
 40
1.25
  1

  0
TEXT
  8
DIM
 10
1071.913326
 20
293.759395
 30
0.0
 40
0.72
  1

  0
TEXT
  8
DIM
 10
1008.377449
 20
270.884129
 30
0.0
 40
0.72
  1

  0
TEXT
  8
DIM
 10
1159.28977
 20
221.762391
 30
0.0
 40
0.72
  1

  0
TEXT
  8
DIM
 10
1095.753894
 20
198.887126
 30
0.0
 40
0.72
  1

  0
TEXT
  8
DIM
 10
1061.943126
 20
307.374357
 30
0.0
 40
0.72
  1

  0
TEXT
  8
DIM
 10
998.40725
 20
284.499092
 30
0.0
 40
0.72
  1

  0
TEXT
  8
DIM
 10
998.40725
 20
324.499092
 30
0.0
 40
0.72
  1

  0
TEXT
  8
DIM
 10
1059.90725
 20
324.499092
 30
0.0
 40
0.72
  1

  0
TEXT
  8
DIM
 10
889.945949
 20
108.835018
 30
0.0
 40
1.25
  1

  0
TEXT
  8
DIM
 10
891.008449
 20
104.74126
 30
0.0
 40
1.0
  1

  0
TEXT
  8
OBJECT
 10
891.865192
 20
155.437917
 30
0.0
 40
1.25
  1

  0
TEXT
  8
DIM
 10
1094.945949
 20
108.835018
 30
0.0
 40
1.25
  1

  0
TEXT
  8
DIM
 10
1096.008449
 20
104.74126
 30
0.0
 40
1.0
  1

  0
TEXT
  8
DIM
 10
1258.945949
 20
108.835018
 30
0.0
 40
1.25
  1

  0
TEXT
  8
DIM
 10
1260.008449
 20
104.74126
 30
0.0
 40
1.0
  1

  0
TEXT
  8
OBJECT
 10
1260.865192
 20
155.437917
 30
0.0
 40
1.25
  1

  0
TEXT
  8
DIM
 10
1258.945949
 20
108.835018
 30
0.0
 40
1.25
  1

  0
TEXT
  8
DIM
 10
1260.008449
 20
104.74126
 30
0.0
 40
1.0
  1

  0
TEXT
  8
OBJECT
 10
1260.865192
 20
155.437917
 30
0.0
 40
1.25
  1

  0
TEXT
  8
DIM
 10
1276.913326
 20
293.759395
 30
0.0
 40
0.72
  1

  0
TEXT
  8
DIM
 10
1213.377449
 20
270.884129
 30
0.0
 40
0.72
  1

  0
TEXT
  8
DIM
 10
1364.28977
 20
221.762391
 30
0.0
 40
0.72
  1

  0
TEXT
  8
DIM
 10
1300.753894
 20
198.887126
 30
0.0
 40
0.72
  1

  0
TEXT
  8
DIM
 10
1266.943126
 20
307.374357
 30
0.0
 40
0.72
  1

  0
TEXT
  8
DIM
 10
1203.40725
 20
284.499092
 30
0.0
 40
0.72
  1

  0
TEXT
  8
DIM
 10
1203.40725
 20
324.499092
 30
0.0
 40
0.72
  1

  0
TEXT
  8
DIM
 10
1264.90725
 20
324.499092
 30
0.0
 40
0.72
  1

  0
TEXT
  8
DIM
 10
1053.945949
 20
108.835018
 30
0.0
 40
1.25
  1

  0
TEXT
  8
DIM
 10
1055.008449
 20
104.74126
 30
0.0
 40
1.0
  1

  0
TEXT
  8
OBJECT
 10
1055.865192
 20
155.437917
 30
0.0
 40
1.25
  1

  0
TEXT
  8
DIM
 10
1258.945949
 20
108.835018
 30
0.0
 40
1.25
  1

  0
TEXT
  8
DIM
 10
1260.008449
 20
104.74126
 30
0.0
 40
1.0
  1

  0
TEXT
  8
OBJECT
 10
1260.865192
 20
155.437917
 30
0.0
 40
1.25
  1

  0
TEXT
  8
DIM
 10
1463.945949
 20
108.835018
 30
0.0
 40
1.25
  1

  0
TEXT
  8
DIM
 10
1465.008449
 20
104.74126
 30
0.0
 40
1.0
  1

  0
TEXT
  8
DIM
 10
1627.945949
 20
108.835018
 30
0.0
 40
1.25
  1

  0
TEXT
  8
DIM
 10
1629.008449
 20
104.74126
 30
0.0
 40
1.0
  1

  0
TEXT
  8
OBJECT
 10
1629.865192
 20
155.437917
 30
0.0
 40
1.25
  1

  0
TEXT
  8
DIM
 10
1627.945949
 20
108.835018
 30
0.0
 40
1.25
  1

  0
TEXT
  8
DIM
 10
1629.008449
 20
104.74126
 30
0.0
 40
1.0
  1

  0
TEXT
  8
OBJECT
 10
1629.865192
 20
155.437917
 30
0.0
 40
1.25
  1

  0
TEXT
  8
DIM
 10
1645.913326
 20
293.759395
 30
0.0
 40
0.72
  1

  0
TEXT
  8
DIM
 10
1582.377449
 20
270.884129
 30
0.0
 40
0.72
  1

  0
TEXT
  8
DIM
 10
1733.28977
 20
221.762391
 30
0.0
 40
0.72
  1

  0
TEXT
  8
DIM
 10
1669.753894
 20
198.887126
 30
0.0
 40
0.72
  1

  0
TEXT
  8
DIM
 10
1635.943126
 20
307.374357
 30
0.0
 40
0.72
  1

  0
TEXT
  8
DIM
 10
1572.40725
 20
284.499092
 30
0.0
 40
0.72
  1

  0
TEXT
  8
DIM
 10
1572.40725
 20
324.499092
 30
0.0
 40
0.72
  1

  0
TEXT
  8
DIM
 10
1633.90725
 20
324.499092
 30
0.0
 40
0.72
  1

  0
TEXT
  8
DIM
 10
1258.945949
 20
108.835018
 30
0.0
 40
1.25
  1

  0
TEXT
  8
DIM
 10
1260.008449
 20
104.74126
 30
0.0
 40
1.0
  1

  0
TEXT
  8
OBJECT
 10
1260.865192
 20
155.437917
 30
0.0
 40
1.25
  1

  0
TEXT
  8
DIM
 10
1463.945949
 20
108.835018
 30
0.0
 40
1.25
  1

  0
TEXT
  8
DIM
 10
1465.008449
 20
104.74126
 30
0.0
 40
1.0
  1

  0
TEXT
  8
DIM
 10
1627.945949
 20
108.835018
 30
0.0
 40
1.25
  1

  0
TEXT
  8
DIM
 10
1629.008449
 20
104.74126
 30
0.0
 40
1.0
  1

  0
TEXT
  8
OBJECT
 10
1629.865192
 20
155.437917
 30
0.0
 40
1.25
  1

  0
TEXT
  8
DIM
 10
1627.945949
 20
108.835018
 30
0.0
 40
1.25
  1

  0
TEXT
  8
DIM
 10
1629.008449
 20
104.74126
 30
0.0
 40
1.0
  1

  0
TEXT
  8
OBJECT
 10
1629.865192
 20
155.437917
 30
0.0
 40
1.25
  1

  0
TEXT
  8
DIM
 10
1645.913326
 20
293.759395
 30
0.0
 40
0.72
  1

  0
TEXT
  8
DIM
 10
1582.377449
 20
270.884129
 30
0.0
 40
0.72
  1

  0
TEXT
  8
DIM
 10
1733.28977
 20
221.762391
 30
0.0
 40
0.72
  1

  0
TEXT
  8
DIM
 10
1669.753894
 20
198.887126
 30
0.0
 40
0.72
  1

  0
TEXT
  8
DIM
 10
1635.943126
 20
307.374357
 30
0.0
 40
0.72
  1

  0
TEXT
  8
DIM
 10
1572.40725
 20
284.499092
 30
0.0
 40
0.72
  1

  0
TEXT
  8
DIM
 10
1572.40725
 20
324.499092
 30
0.0
 40
0.72
  1

  0
TEXT
  8
DIM
 10
1633.90725
 20
324.499092
 30
0.0
 40
0.72
  1

  0
TEXT
  8
DIM
 10
1238.445949
 20
108.835018
 30
0.0
 40
1.25
  1

  0
TEXT
  8
DIM
 10
1239.508449
 20
104.74126
 30
0.0
 40
1.0
  1

  0
TEXT
  8
DIM
 10
1402.445949
 20
108.835018
 30
0.0
 40
1.25
  1

  0
TEXT
  8
DIM
 10
1403.508449
 20
104.74126
 30
0.0
 40
1.0
  1

  0
TEXT
  8
OBJECT
 10
1404.365192
 20
155.437917
 30
0.0
 40
1.25
  1

  0
TEXT
  8
DIM
 10
1402.445949
 20
108.835018
 30
0.0
 40
1.25
  1

  0
TEXT
  8
DIM
 10
1403.508449
 20
104.74126
 30
0.0
 40
1.0
  1

  0
TEXT
  8
OBJECT
 10
1404.365192
 20
155.437917
 30
0.0
 40
1.25
  1

  0
TEXT
  8
DIM
 10
1420.413326
 20
293.759395
 30
0.0
 40
0.72
  1

  0
TEXT
  8
DIM
 10
1356.877449
 20
270.884129
 30
0.0
 40
0.72
  1

  0
TEXT
  8
DIM
 10
1507.78977
 20
221.762391
 30
0.0
 40
0.72
  1

  0
TEXT
  8
DIM
 10
1444.253894
 20
198.887126
 30
0.0
 40
0.72
  1

  0
TEXT
  8
DIM
 10
1410.443126
 20
307.374357
 30
0.0
 40
0.72
  1

  0
TEXT
  8
DIM
 10
1346.90725
 20
284.499092
 30
0.0
 40
0.72
  1

  0
TEXT
  8
DIM
 10
1346.90725
 20
324.499092
 30
0.0
 40
0.72
  1

  0
TEXT
  8
DIM
 10
1408.40725
 20
324.499092
 30
0.0
 40
0.72
  1

  0
TEXT
  8
DIM
 10
1053.945949
 20
108.835018
 30
0.0
 40
1.25
  1

  0
TEXT
  8
DIM
 10
1055.008449
 20
104.74126
 30
0.0
 40
1.0
  1

  0
TEXT
  8
DIM
 10
1217.945949
 20
108.835018
 30
0.0
 40
1.25
  1

  0
TEXT
  8
DIM
 10
1219.008449
 20
104.74126
 30
0.0
 40
1.0
  1

  0
TEXT
  8
OBJECT
 10
1219.865192
 20
155.437917
 30
0.0
 40
1.25
  1

  0
TEXT
  8
DIM
 10
1217.945949
 20
108.835018
 30
0.0
 40
1.25
  1

  0
TEXT
  8
DIM
 10
1219.008449
 20
104.74126
 30
0.0
 40
1.0
  1

  0
TEXT
  8
OBJECT
 10
1219.865192
 20
155.437917
 30
0.0
 40
1.25
  1

  0
TEXT
  8
DIM
 10
1235.913326
 20
293.759395
 30
0.0
 40
0.72
  1

  0
TEXT
  8
DIM
 10
1172.377449
 20
270.884129
 30
0.0
 40
0.72
  1

  0
TEXT
  8
DIM
 10
1323.28977
 20
221.762391
 30
0.0
 40
0.72
  1

  0
TEXT
  8
DIM
 10
1259.753894
 20
198.887126
 30
0.0
 40
0.72
  1

  0
TEXT
  8
DIM
 10
1225.943126
 20
307.374357
 30
0.0
 40
0.72
  1

  0
TEXT
  8
DIM
 10
1162.40725
 20
284.499092
 30
0.0
 40
0.72
  1

  0
TEXT
  8
DIM
 10
1162.40725
 20
324.499092
 30
0.0
 40
0.72
  1

  0
TEXT
  8
DIM
 10
1223.90725
 20
324.499092
 30
0.0
 40
0.72
  1

  0
TEXT
  8
DIM
 10
1074.445949
 20
108.835018
 30
0.0
 40
1.25
  1

  0
TEXT
  8
DIM
 10
1075.508449
 20
104.74126
 30
0.0
 40
1.0
  1

  0
TEXT
  8
OBJECT
 10
1076.365192
 20
155.437917
 30
0.0
 40
1.25
  1

  0
TEXT
  8
DIM
 10
1279.445949
 20
108.835018
 30
0.0
 40
1.25
  1

  0
TEXT
  8
DIM
 10
1280.508449
 20
104.74126
 30
0.0
 40
1.0
  1

  0
TEXT
  8
DIM
 10
1443.445949
 20
108.835018
 30
0.0
 40
1.25
  1

  0
TEXT
  8
DIM
 10
1444.508449
 20
104.74126
 30
0.0
 40
1.0
  1

  0
TEXT
  8
OBJECT
 10
1445.365192
 20
155.437917
 30
0.0
 40
1.25
  1

  0
TEXT
  8
DIM
 10
1443.445949
 20
108.835018
 30
0.0
 40
1.25
  1

  0
TEXT
  8
DIM
 10
1444.508449
 20
104.74126
 30
0.0
 40
1.0
  1

  0
TEXT
  8
OBJECT
 10
1445.365192
 20
155.437917
 30
0.0
 40
1.25
  1

  0
TEXT
  8
DIM
 10
1461.413326
 20
293.759395
 30
0.0
 40
0.72
  1

  0
TEXT
  8
DIM
 10
1397.877449
 20
270.884129
 30
0.0
 40
0.72
  1

  0
TEXT
  8
DIM
 10
1548.78977
 20
221.762391
 30
0.0
 40
0.72
  1

  0
TEXT
  8
DIM
 10
1485.253894
 20
198.887126
 30
0.0
 40
0.72
  1

  0
TEXT
  8
DIM
 10
1451.443126
 20
307.374357
 30
0.0
 40
0.72
  1

  0
TEXT
  8
DIM
 10
1387.90725
 20
284.499092
 30
0.0
 40
0.72
  1

  0
TEXT
  8
DIM
 10
1387.90725
 20
324.499092
 30
0.0
 40
0.72
  1

  0
TEXT
  8
DIM
 10
1449.40725
 20
324.499092
 30
0.0
 40
0.72
  1

  0
TEXT
  8
DIM
 10
1238.445949
 20
108.835018
 30
0.0
 40
1.25
  1

  0
TEXT
  8
DIM
 10
1239.508449
 20
104.74126
 30
0.0
 40
1.0
  1

  0
TEXT
  8
OBJECT
 10
1240.365192
 20
155.437917
 30
0.0
 40
1.25
  1

  0
TEXT
  8
DIM
 10
1443.445949
 20
108.835018
 30
0.0
 40
1.25
  1

  0
TEXT
  8
DIM
 10
1444.508449
 20
104.74126
 30
0.0
 40
1.0
  1

  0
TEXT
  8
OBJECT
 10
1445.365192
 20
155.437917
 30
0.0
 40
1.25
  1

  0
TEXT
  8
DIM
 10
1648.445949
 20
108.835018
 30
0.0
 40
1.25
  1

  0
TEXT
  8
DIM
 10
1649.508449
 20
104.74126
 30
0.0
 40
1.0
  1

  0
TEXT
  8
DIM
 10
1812.445949
 20
108.835018
 30
0.0
 40
1.25
  1

  0
TEXT
  8
DIM
 10
1813.508449
 20
104.74126
 30
0.0
 40
1.0
  1

  0
TEXT
  8
OBJECT
 10
1814.365192
 20
155.437917
 30
0.0
 40
1.25
  1

  0
TEXT
  8
DIM
 10
1812.445949
 20
108.835018
 30
0.0
 40
1.25
  1

  0
TEXT
  8
DIM
 10
1813.508449
 20
104.74126
 30
0.0
 40
1.0
  1

  0
TEXT
  8
OBJECT
 10
1814.365192
 20
155.437917
 30
0.0
 40
1.25
  1

  0
TEXT
  8
DIM
 10
1830.413326
 20
293.759395
 30
0.0
 40
0.72
  1

  0
TEXT
  8
DIM
 10
1766.877449
 20
270.884129
 30
0.0
 40
0.72
  1

  0
TEXT
  8
DIM
 10
1917.78977
 20
221.762391
 30
0.0
 40
0.72
  1

  0
TEXT
  8
DIM
 10
1854.253894
 20
198.887126
 30
0.0
 40
0.72
  1

  0
TEXT
  8
DIM
 10
1820.443126
 20
307.374357
 30
0.0
 40
0.72
  1

  0
TEXT
  8
DIM
 10
1756.90725
 20
284.499092
 30
0.0
 40
0.72
  1

  0
TEXT
  8
DIM
 10
1756.90725
 20
324.499092
 30
0.0
 40
0.72
  1

  0
TEXT
  8
DIM
 10
1818.40725
 20
324.499092
 30
0.0
 40
0.72
  1

  0
TEXT
  8
DIM
 10
1443.445949
 20
108.835018
 30
0.0
 40
1.25
  1

  0
TEXT
  8
DIM
 10
1444.508449
 20
104.74126
 30
0.0
 40
1.0
  1

  0
TEXT
  8
OBJECT
 10
1445.365192
 20
155.437917
 30
0.0
 40
1.25
  1

  0
TEXT
  8
DIM
 10
1648.445949
 20
108.835018
 30
0.0
 40
1.25
  1

  0
TEXT
  8
DIM
 10
1649.508449
 20
104.74126
 30
0.0
 40
1.0
  1

  0
TEXT
  8
DIM
 10
1812.445949
 20
108.835018
 30
0.0
 40
1.25
  1

  0
TEXT
  8
DIM
 10
1813.508449
 20
104.74126
 30
0.0
 40
1.0
  1

  0
TEXT
  8
OBJECT
 10
1814.365192
 20
155.437917
 30
0.0
 40
1.25
  1

  0
TEXT
  8
DIM
 10
1812.445949
 20
108.835018
 30
0.0
 40
1.25
  1

  0
TEXT
  8
DIM
 10
1813.508449
 20
104.74126
 30
0.0
 40
1.0
  1

  0
TEXT
  8
OBJECT
 10
1814.365192
 20
155.437917
 30
0.0
 40
1.25
  1

  0
TEXT
  8
DIM
 10
1830.413326
 20
293.759395
 30
0.0
 40
0.72
  1

  0
TEXT
  8
DIM
 10
1766.877449
 20
270.884129
 30
0.0
 40
0.72
  1

  0
TEXT
  8
DIM
 10
1917.78977
 20
221.762391
 30
0.0
 40
0.72
  1

  0
TEXT
  8
DIM
 10
1854.253894
 20
198.887126
 30
0.0
 40
0.72
  1

  0
TEXT
  8
DIM
 10
1820.443126
 20
307.374357
 30
0.0
 40
0.72
  1

  0
TEXT
  8
DIM
 10
1756.90725
 20
284.499092
 30
0.0
 40
0.72
  1

  0
TEXT
  8
DIM
 10
1756.90725
 20
324.499092
 30
0.0
 40
0.72
  1

  0
TEXT
  8
DIM
 10
1818.40725
 20
324.499092
 30
0.0
 40
0.72
  1

  0
TEXT
  8
DIM
 10
1422.945949
 20
108.835018
 30
0.0
 40
1.25
  1

  0
TEXT
  8
DIM
 10
1424.008449
 20
104.74126
 30
0.0
 40
1.0
  1

  0
TEXT
  8
DIM
 10
1586.945949
 20
108.835018
 30
0.0
 40
1.25
  1

  0
TEXT
  8
DIM
 10
1588.008449
 20
104.74126
 30
0.0
 40
1.0
  1

  0
TEXT
  8
OBJECT
 10
1588.865192
 20
155.437917
 30
0.0
 40
1.25
  1

  0
TEXT
  8
DIM
 10
1586.945949
 20
108.835018
 30
0.0
 40
1.25
  1

  0
TEXT
  8
DIM
 10
1588.008449
 20
104.74126
 30
0.0
 40
1.0
  1

  0
TEXT
  8
OBJECT
 10
1588.865192
 20
155.437917
 30
0.0
 40
1.25
  1

  0
TEXT
  8
DIM
 10
1604.913326
 20
293.759395
 30
0.0
 40
0.72
  1

  0
TEXT
  8
DIM
 10
1541.377449
 20
270.884129
 30
0.0
 40
0.72
  1

  0
TEXT
  8
DIM
 10
1692.28977
 20
221.762391
 30
0.0
 40
0.72
  1

  0
TEXT
  8
DIM
 10
1628.753894
 20
198.887126
 30
0.0
 40
0.72
  1

  0
TEXT
  8
DIM
 10
1594.943126
 20
307.374357
 30
0.0
 40
0.72
  1

  0
TEXT
  8
DIM
 10
1531.40725
 20
284.499092
 30
0.0
 40
0.72
  1

  0
TEXT
  8
DIM
 10
1531.40725
 20
324.499092
 30
0.0
 40
0.72
  1

  0
TEXT
  8
DIM
 10
1592.90725
 20
324.499092
 30
0.0
 40
0.72
  1

  0
TEXT
  8
DIM
 10
1238.445949
 20
108.835018
 30
0.0
 40
1.25
  1

  0
TEXT
  8
DIM
 10
1239.508449
 20
104.74126
 30
0.0
 40
1.0
  1

  0
TEXT
  8
OBJECT
 10
1240.365192
 20
155.437917
 30
0.0
 40
1.25
  1

  0
TEXT
  8
DIM
 10
1074.643028
 20
268.54834
 30
0.0
 40
1.25
  1

  0
TEXT
  8
DIM
 10
1075.705528
 20
264.454581
 30
0.0
 40
1.0
  1

  0
TEXT
  8
OBJECT
 10
1076.562271
 20
315.151239
 30
0.0
 40
1.25
  1

  0
TEXT
  8
DIM
 10
889.945949
 20
252.835018
 30
0.0
 40
1.25
  1

  0
TEXT
  8
DIM
 10
891.008449
 20
248.74126
 30
0.0
 40
1.0
  1

  0
TEXT
  8
OBJECT
 10
891.865192
 20
299.437917
 30
0.0
 40
1.25
  1

  0
TEXT
  8
DIM
 10
889.945949
 20
108.835018
 30
0.0
 40
1.25
  1

  0
TEXT
  8
DIM
 10
891.008449
 20
104.74126
 30
0.0
 40
1.0
  1

  0
TEXT
  8
OBJECT
 10
891.865192
 20
155.437917
 30
0.0
 40
1.25
  1

  0
TEXT
  8
DIM
 10
684.945949
 20
108.835018
 30
0.0
 40
1.25
  1

  0
TEXT
  8
DIM
 10
686.008449
 20
104.74126
 30
0.0
 40
1.0
  1

  0
TEXT
  8
OBJECT
 10
686.865192
 20
155.437917
 30
0.0
 40
1.25
  1

  0
TEXT
  8
DIM
 10
459.445949
 20
108.835018
 30
0.0
 40
1.25
  1

  0
TEXT
  8
DIM
 10
460.508449
 20
104.74126
 30
0.0
 40
1.0
  1

  0
TEXT
  8
OBJECT
 10
461.365192
 20
155.437917
 30
0.0
 40
1.25
  1

  0
POLYLINE
  8
PMR
 66
     1
 10
0.0
 20
0.0
 30
0.0
  0
VERTEX
  8
PMR
 10
408.729974
 20
117.818168
 30
0.0
 42
1.0
  0
SEQEND
  8
PMR
  0
POLYLINE
  8
PMR
 66
     1
 10
0.0
 20
0.0
 30
0.0
  0
VERTEX
  8
PMR
 10
408.729974
 20
115.068168
 30
0.0
 42
1.0
  0
SEQEND
  8
PMR
  0
TEXT
  8
DIM
 10
229.867406
 20
108.685211
 30
0.0
 40
1.25
  1

  0
TEXT
  8
DIM
 10
230.929906
 20
104.591452
 30
0.0
 40
1.0
  1

  0
TEXT
  8
OBJECT
 10
231.78665
 20
155.28811
 30
0.0
 40
1.25
  1

  0
TEXT
  8
DIM
 10
434.867406
 20
108.685211
 30
0.0
 40
1.25
  1

  0
TEXT
  8
DIM
 10
435.929906
 20
104.591452
 30
0.0
 40
1.0
  1

  0
TEXT
  8
OBJECT
 10
436.78665
 20
155.28811
 30
0.0
 40
1.25
  1

  0
TEXT
  8
DIM
 10
639.867406
 20
108.685211
 30
0.0
 40
1.25
  1

  0
TEXT
  8
DIM
 10
640.929906
 20
104.591452
 30
0.0
 40
1.0
  1

  0
TEXT
  8
DIM
 10
803.867406
 20
108.685211
 30
0.0
 40
1.25
  1

  0
TEXT
  8
DIM
 10
804.929906
 20
104.591452
 30
0.0
 40
1.0
  1

  0
TEXT
  8
OBJECT
 10
805.78665
 20
155.28811
 30
0.0
 40
1.25
  1

  0
TEXT
  8
DIM
 10
803.867406
 20
108.685211
 30
0.0
 40
1.25
  1

  0
TEXT
  8
DIM
 10
804.929906
 20
104.591452
 30
0.0
 40
1.0
  1

  0
TEXT
  8
OBJECT
 10
805.78665
 20
155.28811
 30
0.0
 40
1.25
  1

  0
TEXT
  8
DIM
 10
821.834784
 20
293.609587
 30
0.0
 40
0.72
  1

  0
TEXT
  8
DIM
 10
758.298907
 20
270.734322
 30
0.0
 40
0.72
  1

  0
TEXT
  8
DIM
 10
909.211228
 20
221.612584
 30
0.0
 40
0.72
  1

  0
TEXT
  8
DIM
 10
845.675351
 20
198.737319
 30
0.0
 40
0.72
  1

  0
TEXT
  8
DIM
 10
811.864584
 20
307.22455
 30
0.0
 40
0.72
  1

  0
TEXT
  8
DIM
 10
748.328707
 20
284.349285
 30
0.0
 40
0.72
  1

  0
TEXT
  8
DIM
 10
748.328707
 20
324.349285
 30
0.0
 40
0.72
  1

  0
TEXT
  8
DIM
 10
809.828707
 20
324.349285
 30
0.0
 40
0.72
  1

  0
TEXT
  8
DIM
 10
434.867406
 20
108.685211
 30
0.0
 40
1.25
  1

  0
TEXT
  8
DIM
 10
435.929906
 20
104.591452
 30
0.0
 40
1.0
  1

  0
TEXT
  8
OBJECT
 10
436.78665
 20
155.28811
 30
0.0
 40
1.25
  1

  0
TEXT
  8
DIM
 10
639.867406
 20
108.685211
 30
0.0
 40
1.25
  1

  0
TEXT
  8
DIM
 10
640.929906
 20
104.591452
 30
0.0
 40
1.0
  1

  0
TEXT
  8
DIM
 10
803.867406
 20
108.685211
 30
0.0
 40
1.25
  1

  0
TEXT
  8
DIM
 10
804.929906
 20
104.591452
 30
0.0
 40
1.0
  1

  0
TEXT
  8
OBJECT
 10
805.78665
 20
155.28811
 30
0.0
 40
1.25
  1

  0
TEXT
  8
DIM
 10
803.867406
 20
108.685211
 30
0.0
 40
1.25
  1

  0
TEXT
  8
DIM
 10
804.929906
 20
104.591452
 30
0.0
 40
1.0
  1

  0
TEXT
  8
OBJECT
 10
805.78665
 20
155.28811
 30
0.0
 40
1.25
  1

  0
TEXT
  8
DIM
 10
821.834784
 20
293.609587
 30
0.0
 40
0.72
  1

  0
TEXT
  8
DIM
 10
758.298907
 20
270.734322
 30
0.0
 40
0.72
  1

  0
TEXT
  8
DIM
 10
909.211228
 20
221.612584
 30
0.0
 40
0.72
  1

  0
TEXT
  8
DIM
 10
845.675351
 20
198.737319
 30
0.0
 40
0.72
  1

  0
TEXT
  8
DIM
 10
811.864584
 20
307.22455
 30
0.0
 40
0.72
  1

  0
TEXT
  8
DIM
 10
748.328707
 20
284.349285
 30
0.0
 40
0.72
  1

  0
TEXT
  8
DIM
 10
748.328707
 20
324.349285
 30
0.0
 40
0.72
  1

  0
TEXT
  8
DIM
 10
809.828707
 20
324.349285
 30
0.0
 40
0.72
  1

  0
TEXT
  8
DIM
 10
414.367406
 20
108.685211
 30
0.0
 40
1.25
  1

  0
TEXT
  8
DIM
 10
415.429906
 20
104.591452
 30
0.0
 40
1.0
  1

  0
TEXT
  8
DIM
 10
578.367406
 20
108.685211
 30
0.0
 40
1.25
  1

  0
TEXT
  8
DIM
 10
579.429906
 20
104.591452
 30
0.0
 40
1.0
  1

  0
TEXT
  8
OBJECT
 10
580.28665
 20
155.28811
 30
0.0
 40
1.25
  1

  0
TEXT
  8
DIM
 10
578.367406
 20
108.685211
 30
0.0
 40
1.25
  1

  0
TEXT
  8
DIM
 10
579.429906
 20
104.591452
 30
0.0
 40
1.0
  1

  0
TEXT
  8
OBJECT
 10
580.28665
 20
155.28811
 30
0.0
 40
1.25
  1

  0
TEXT
  8
DIM
 10
596.334784
 20
293.609587
 30
0.0
 40
0.72
  1

  0
TEXT
  8
DIM
 10
532.798907
 20
270.734322
 30
0.0
 40
0.72
  1

  0
TEXT
  8
DIM
 10
683.711228
 20
221.612584
 30
0.0
 40
0.72
  1

  0
TEXT
  8
DIM
 10
620.175351
 20
198.737319
 30
0.0
 40
0.72
  1

  0
TEXT
  8
DIM
 10
586.364584
 20
307.22455
 30
0.0
 40
0.72
  1

  0
TEXT
  8
DIM
 10
522.828707
 20
284.349285
 30
0.0
 40
0.72
  1

  0
TEXT
  8
DIM
 10
522.828707
 20
324.349285
 30
0.0
 40
0.72
  1

  0
TEXT
  8
DIM
 10
584.328707
 20
324.349285
 30
0.0
 40
0.72
  1

  0
TEXT
  8
DIM
 10
475.867406
 20
108.685211
 30
0.0
 40
1.25
  1

  0
TEXT
  8
DIM
 10
476.929906
 20
104.591452
 30
0.0
 40
1.0
  1

  0
TEXT
  8
DIM
 10
639.867406
 20
108.685211
 30
0.0
 40
1.25
  1

  0
TEXT
  8
DIM
 10
640.929906
 20
104.591452
 30
0.0
 40
1.0
  1

  0
TEXT
  8
OBJECT
 10
641.78665
 20
155.28811
 30
0.0
 40
1.25
  1

  0
TEXT
  8
DIM
 10
639.867406
 20
108.685211
 30
0.0
 40
1.25
  1

  0
TEXT
  8
DIM
 10
640.929906
 20
104.591452
 30
0.0
 40
1.0
  1

  0
TEXT
  8
OBJECT
 10
641.78665
 20
155.28811
 30
0.0
 40
1.25
  1

  0
TEXT
  8
DIM
 10
657.834784
 20
293.609587
 30
0.0
 40
0.72
  1

  0
TEXT
  8
DIM
 10
594.298907
 20
270.734322
 30
0.0
 40
0.72
  1

  0
TEXT
  8
DIM
 10
745.211228
 20
221.612584
 30
0.0
 40
0.72
  1

  0
TEXT
  8
DIM
 10
681.675351
 20
198.737319
 30
0.0
 40
0.72
  1

  0
TEXT
  8
DIM
 10
647.864584
 20
307.22455
 30
0.0
 40
0.72
  1

  0
TEXT
  8
DIM
 10
584.328707
 20
284.349285
 30
0.0
 40
0.72
  1

  0
TEXT
  8
DIM
 10
584.328707
 20
324.349285
 30
0.0
 40
0.72
  1

  0
TEXT
  8
DIM
 10
645.828707
 20
324.349285
 30
0.0
 40
0.72
  1

  0
TEXT
  8
DIM
 10
475.867406
 20
108.685211
 30
0.0
 40
1.25
  1

  0
TEXT
  8
DIM
 10
476.929906
 20
104.591452
 30
0.0
 40
1.0
  1

  0
TEXT
  8
OBJECT
 10
477.78665
 20
155.28811
 30
0.0
 40
1.25
  1

  0
TEXT
  8
DIM
 10
680.867406
 20
108.685211
 30
0.0
 40
1.25
  1

  0
TEXT
  8
DIM
 10
681.929906
 20
104.591452
 30
0.0
 40
1.0
  1

  0
TEXT
  8
OBJECT
 10
682.78665
 20
155.28811
 30
0.0
 40
1.25
  1

  0
TEXT
  8
DIM
 10
885.867406
 20
108.685211
 30
0.0
 40
1.25
  1

  0
TEXT
  8
DIM
 10
886.929906
 20
104.591452
 30
0.0
 40
1.0
  1

  0
TEXT
  8
DIM
 10
1049.867406
 20
108.685211
 30
0.0
 40
1.25
  1

  0
TEXT
  8
DIM
 10
1050.929906
 20
104.591452
 30
0.0
 40
1.0
  1

  0
TEXT
  8
OBJECT
 10
1051.78665
 20
155.28811
 30
0.0
 40
1.25
  1

  0
TEXT
  8
DIM
 10
1049.867406
 20
108.685211
 30
0.0
 40
1.25
  1

  0
TEXT
  8
DIM
 10
1050.929906
 20
104.591452
 30
0.0
 40
1.0
  1

  0
TEXT
  8
OBJECT
 10
1051.78665
 20
155.28811
 30
0.0
 40
1.25
  1

  0
TEXT
  8
DIM
 10
1067.834784
 20
293.609587
 30
0.0
 40
0.72
  1

  0
TEXT
  8
DIM
 10
1004.298907
 20
270.734322
 30
0.0
 40
0.72
  1

  0
TEXT
  8
DIM
 10
1155.211228
 20
221.612584
 30
0.0
 40
0.72
  1

  0
TEXT
  8
DIM
 10
1091.675351
 20
198.737319
 30
0.0
 40
0.72
  1

  0
TEXT
  8
DIM
 10
1057.864584
 20
307.22455
 30
0.0
 40
0.72
  1

  0
TEXT
  8
DIM
 10
994.328707
 20
284.349285
 30
0.0
 40
0.72
  1

  0
TEXT
  8
DIM
 10
994.328707
 20
324.349285
 30
0.0
 40
0.72
  1

  0
TEXT
  8
DIM
 10
1055.828707
 20
324.349285
 30
0.0
 40
0.72
  1

  0
TEXT
  8
DIM
 10
680.867406
 20
108.685211
 30
0.0
 40
1.25
  1

  0
TEXT
  8
DIM
 10
681.929906
 20
104.591452
 30
0.0
 40
1.0
  1

  0
TEXT
  8
OBJECT
 10
682.78665
 20
155.28811
 30
0.0
 40
1.25
  1

  0
TEXT
  8
DIM
 10
885.867406
 20
108.685211
 30
0.0
 40
1.25
  1

  0
TEXT
  8
DIM
 10
886.929906
 20
104.591452
 30
0.0
 40
1.0
  1

  0
TEXT
  8
DIM
 10
1049.867406
 20
108.685211
 30
0.0
 40
1.25
  1

  0
TEXT
  8
DIM
 10
1050.929906
 20
104.591452
 30
0.0
 40
1.0
  1

  0
TEXT
  8
OBJECT
 10
1051.78665
 20
155.28811
 30
0.0
 40
1.25
  1

  0
TEXT
  8
DIM
 10
1049.867406
 20
108.685211
 30
0.0
 40
1.25
  1

  0
TEXT
  8
DIM
 10
1050.929906
 20
104.591452
 30
0.0
 40
1.0
  1

  0
TEXT
  8
OBJECT
 10
1051.78665
 20
155.28811
 30
0.0
 40
1.25
  1

  0
TEXT
  8
DIM
 10
1067.834784
 20
293.609587
 30
0.0
 40
0.72
  1

  0
TEXT
  8
DIM
 10
1004.298907
 20
270.734322
 30
0.0
 40
0.72
  1

  0
TEXT
  8
DIM
 10
1155.211228
 20
221.612584
 30
0.0
 40
0.72
  1

  0
TEXT
  8
DIM
 10
1091.675351
 20
198.737319
 30
0.0
 40
0.72
  1

  0
TEXT
  8
DIM
 10
1057.864584
 20
307.22455
 30
0.0
 40
0.72
  1

  0
TEXT
  8
DIM
 10
994.328707
 20
284.349285
 30
0.0
 40
0.72
  1

  0
TEXT
  8
DIM
 10
994.328707
 20
324.349285
 30
0.0
 40
0.72
  1

  0
TEXT
  8
DIM
 10
1055.828707
 20
324.349285
 30
0.0
 40
0.72
  1

  0
TEXT
  8
DIM
 10
660.367406
 20
108.685211
 30
0.0
 40
1.25
  1

  0
TEXT
  8
DIM
 10
661.429906
 20
104.591452
 30
0.0
 40
1.0
  1

  0
TEXT
  8
DIM
 10
824.367406
 20
108.685211
 30
0.0
 40
1.25
  1

  0
TEXT
  8
DIM
 10
825.429906
 20
104.591452
 30
0.0
 40
1.0
  1

  0
TEXT
  8
OBJECT
 10
826.28665
 20
155.28811
 30
0.0
 40
1.25
  1

  0
TEXT
  8
DIM
 10
824.367406
 20
108.685211
 30
0.0
 40
1.25
  1

  0
TEXT
  8
DIM
 10
825.429906
 20
104.591452
 30
0.0
 40
1.0
  1

  0
TEXT
  8
OBJECT
 10
826.28665
 20
155.28811
 30
0.0
 40
1.25
  1

  0
TEXT
  8
DIM
 10
842.334784
 20
293.609587
 30
0.0
 40
0.72
  1

  0
TEXT
  8
DIM
 10
778.798907
 20
270.734322
 30
0.0
 40
0.72
  1

  0
TEXT
  8
DIM
 10
929.711228
 20
221.612584
 30
0.0
 40
0.72
  1

  0
TEXT
  8
DIM
 10
866.175351
 20
198.737319
 30
0.0
 40
0.72
  1

  0
TEXT
  8
DIM
 10
832.364584
 20
307.22455
 30
0.0
 40
0.72
  1

  0
TEXT
  8
DIM
 10
768.828707
 20
284.349285
 30
0.0
 40
0.72
  1

  0
TEXT
  8
DIM
 10
768.828707
 20
324.349285
 30
0.0
 40
0.72
  1

  0
TEXT
  8
DIM
 10
830.328707
 20
324.349285
 30
0.0
 40
0.72
  1

  0
TEXT
  8
DIM
 10
680.867406
 20
108.685211
 30
0.0
 40
1.25
  1

  0
TEXT
  8
DIM
 10
681.929906
 20
104.591452
 30
0.0
 40
1.0
  1

  0
TEXT
  8
DIM
 10
844.867406
 20
108.685211
 30
0.0
 40
1.25
  1

  0
TEXT
  8
DIM
 10
845.929906
 20
104.591452
 30
0.0
 40
1.0
  1

  0
TEXT
  8
OBJECT
 10
846.78665
 20
155.28811
 30
0.0
 40
1.25
  1

  0
TEXT
  8
DIM
 10
844.867406
 20
108.685211
 30
0.0
 40
1.25
  1

  0
TEXT
  8
DIM
 10
845.929906
 20
104.591452
 30
0.0
 40
1.0
  1

  0
TEXT
  8
OBJECT
 10
846.78665
 20
155.28811
 30
0.0
 40
1.25
  1

  0
TEXT
  8
DIM
 10
862.834784
 20
293.609587
 30
0.0
 40
0.72
  1

  0
TEXT
  8
DIM
 10
799.298907
 20
270.734322
 30
0.0
 40
0.72
  1

  0
TEXT
  8
DIM
 10
950.211228
 20
221.612584
 30
0.0
 40
0.72
  1

  0
TEXT
  8
DIM
 10
886.675351
 20
198.737319
 30
0.0
 40
0.72
  1

  0
TEXT
  8
DIM
 10
852.864584
 20
307.22455
 30
0.0
 40
0.72
  1

  0
TEXT
  8
DIM
 10
789.328707
 20
284.349285
 30
0.0
 40
0.72
  1

  0
TEXT
  8
DIM
 10
789.328707
 20
324.349285
 30
0.0
 40
0.72
  1

  0
TEXT
  8
DIM
 10
850.828707
 20
324.349285
 30
0.0
 40
0.72
  1

  0
TEXT
  8
DIM
 10
701.367406
 20
108.685211
 30
0.0
 40
1.25
  1

  0
TEXT
  8
DIM
 10
702.429906
 20
104.591452
 30
0.0
 40
1.0
  1

  0
TEXT
  8
OBJECT
 10
703.28665
 20
155.28811
 30
0.0
 40
1.25
  1

  0
TEXT
  8
DIM
 10
906.367406
 20
108.685211
 30
0.0
 40
1.25
  1

  0
TEXT
  8
DIM
 10
907.429906
 20
104.591452
 30
0.0
 40
1.0
  1

  0
TEXT
  8
OBJECT
 10
908.28665
 20
155.28811
 30
0.0
 40
1.25
  1

  0
TEXT
  8
DIM
 10
1111.367406
 20
108.685211
 30
0.0
 40
1.25
  1

  0
TEXT
  8
DIM
 10
1112.429906
 20
104.591452
 30
0.0
 40
1.0
  1

  0
TEXT
  8
DIM
 10
1275.367406
 20
108.685211
 30
0.0
 40
1.25
  1

  0
TEXT
  8
DIM
 10
1276.429906
 20
104.591452
 30
0.0
 40
1.0
  1

  0
TEXT
  8
OBJECT
 10
1277.28665
 20
155.28811
 30
0.0
 40
1.25
  1

  0
TEXT
  8
DIM
 10
1275.367406
 20
108.685211
 30
0.0
 40
1.25
  1

  0
TEXT
  8
DIM
 10
1276.429906
 20
104.591452
 30
0.0
 40
1.0
  1

  0
TEXT
  8
OBJECT
 10
1277.28665
 20
155.28811
 30
0.0
 40
1.25
  1

  0
TEXT
  8
DIM
 10
1293.334784
 20
293.609587
 30
0.0
 40
0.72
  1

  0
TEXT
  8
DIM
 10
1229.798907
 20
270.734322
 30
0.0
 40
0.72
  1

  0
TEXT
  8
DIM
 10
1380.711228
 20
221.612584
 30
0.0
 40
0.72
  1

  0
TEXT
  8
DIM
 10
1317.175351
 20
198.737319
 30
0.0
 40
0.72
  1

  0
TEXT
  8
DIM
 10
1283.364584
 20
307.22455
 30
0.0
 40
0.72
  1

  0
TEXT
  8
DIM
 10
1219.828707
 20
284.349285
 30
0.0
 40
0.72
  1

  0
TEXT
  8
DIM
 10
1219.828707
 20
324.349285
 30
0.0
 40
0.72
  1

  0
TEXT
  8
DIM
 10
1281.328707
 20
324.349285
 30
0.0
 40
0.72
  1

  0
TEXT
  8
DIM
 10
906.367406
 20
108.685211
 30
0.0
 40
1.25
  1

  0
TEXT
  8
DIM
 10
907.429906
 20
104.591452
 30
0.0
 40
1.0
  1

  0
TEXT
  8
OBJECT
 10
908.28665
 20
155.28811
 30
0.0
 40
1.25
  1

  0
TEXT
  8
DIM
 10
1111.367406
 20
108.685211
 30
0.0
 40
1.25
  1

  0
TEXT
  8
DIM
 10
1112.429906
 20
104.591452
 30
0.0
 40
1.0
  1

  0
TEXT
  8
DIM
 10
1275.367406
 20
108.685211
 30
0.0
 40
1.25
  1

  0
TEXT
  8
DIM
 10
1276.429906
 20
104.591452
 30
0.0
 40
1.0
  1

  0
TEXT
  8
OBJECT
 10
1277.28665
 20
155.28811
 30
0.0
 40
1.25
  1

  0
TEXT
  8
DIM
 10
1275.367406
 20
108.685211
 30
0.0
 40
1.25
  1

  0
TEXT
  8
DIM
 10
1276.429906
 20
104.591452
 30
0.0
 40
1.0
  1

  0
TEXT
  8
OBJECT
 10
1277.28665
 20
155.28811
 30
0.0
 40
1.25
  1

  0
TEXT
  8
DIM
 10
1293.334784
 20
293.609587
 30
0.0
 40
0.72
  1

  0
TEXT
  8
DIM
 10
1229.798907
 20
270.734322
 30
0.0
 40
0.72
  1

  0
TEXT
  8
DIM
 10
1380.711228
 20
221.612584
 30
0.0
 40
0.72
  1

  0
TEXT
  8
DIM
 10
1317.175351
 20
198.737319
 30
0.0
 40
0.72
  1

  0
TEXT
  8
DIM
 10
1283.364584
 20
307.22455
 30
0.0
 40
0.72
  1

  0
TEXT
  8
DIM
 10
1219.828707
 20
284.349285
 30
0.0
 40
0.72
  1

  0
TEXT
  8
DIM
 10
1219.828707
 20
324.349285
 30
0.0
 40
0.72
  1

  0
TEXT
  8
DIM
 10
1281.328707
 20
324.349285
 30
0.0
 40
0.72
  1

  0
TEXT
  8
DIM
 10
885.867406
 20
108.685211
 30
0.0
 40
1.25
  1

  0
TEXT
  8
DIM
 10
886.929906
 20
104.591452
 30
0.0
 40
1.0
  1

  0
TEXT
  8
DIM
 10
1049.867406
 20
108.685211
 30
0.0
 40
1.25
  1

  0
TEXT
  8
DIM
 10
1050.929906
 20
104.591452
 30
0.0
 40
1.0
  1

  0
TEXT
  8
OBJECT
 10
1051.78665
 20
155.28811
 30
0.0
 40
1.25
  1

  0
TEXT
  8
DIM
 10
1049.867406
 20
108.685211
 30
0.0
 40
1.25
  1

  0
TEXT
  8
DIM
 10
1050.929906
 20
104.591452
 30
0.0
 40
1.0
  1

  0
TEXT
  8
OBJECT
 10
1051.78665
 20
155.28811
 30
0.0
 40
1.25
  1

  0
TEXT
  8
DIM
 10
1067.834784
 20
293.609587
 30
0.0
 40
0.72
  1

  0
TEXT
  8
DIM
 10
1004.298907
 20
270.734322
 30
0.0
 40
0.72
  1

  0
TEXT
  8
DIM
 10
1155.211228
 20
221.612584
 30
0.0
 40
0.72
  1

  0
TEXT
  8
DIM
 10
1091.675351
 20
198.737319
 30
0.0
 40
0.72
  1

  0
TEXT
  8
DIM
 10
1057.864584
 20
307.22455
 30
0.0
 40
0.72
  1

  0
TEXT
  8
DIM
 10
994.328707
 20
284.349285
 30
0.0
 40
0.72
  1

  0
TEXT
  8
DIM
 10
994.328707
 20
324.349285
 30
0.0
 40
0.72
  1

  0
TEXT
  8
DIM
 10
1055.828707
 20
324.349285
 30
0.0
 40
0.72
  1

  0
TEXT
  8
DIM
 10
906.367406
 20
108.685211
 30
0.0
 40
1.25
  1

  0
TEXT
  8
DIM
 10
907.429906
 20
104.591452
 30
0.0
 40
1.0
  1

  0
TEXT
  8
DIM
 10
1070.367406
 20
108.685211
 30
0.0
 40
1.25
  1

  0
TEXT
  8
DIM
 10
1071.429906
 20
104.591452
 30
0.0
 40
1.0
  1

  0
TEXT
  8
OBJECT
 10
1072.28665
 20
155.28811
 30
0.0
 40
1.25
  1

  0
TEXT
  8
DIM
 10
1070.367406
 20
108.685211
 30
0.0
 40
1.25
  1

  0
TEXT
  8
DIM
 10
1071.429906
 20
104.591452
 30
0.0
 40
1.0
  1

  0
TEXT
  8
OBJECT
 10
1072.28665
 20
155.28811
 30
0.0
 40
1.25
  1

  0
TEXT
  8
DIM
 10
1088.334784
 20
293.609587
 30
0.0
 40
0.72
  1

  0
TEXT
  8
DIM
 10
1024.798907
 20
270.734322
 30
0.0
 40
0.72
  1

  0
TEXT
  8
DIM
 10
1175.711228
 20
221.612584
 30
0.0
 40
0.72
  1

  0
TEXT
  8
DIM
 10
1112.175351
 20
198.737319
 30
0.0
 40
0.72
  1

  0
TEXT
  8
DIM
 10
1078.364584
 20
307.22455
 30
0.0
 40
0.72
  1

  0
TEXT
  8
DIM
 10
1014.828707
 20
284.349285
 30
0.0
 40
0.72
  1

  0
TEXT
  8
DIM
 10
1014.828707
 20
324.349285
 30
0.0
 40
0.72
  1

  0
TEXT
  8
DIM
 10
1076.328707
 20
324.349285
 30
0.0
 40
0.72
  1

  0
TEXT
  8
DIM
 10
906.367406
 20
108.685211
 30
0.0
 40
1.25
  1

  0
TEXT
  8
DIM
 10
907.429906
 20
104.591452
 30
0.0
 40
1.0
  1

  0
TEXT
  8
OBJECT
 10
908.28665
 20
155.28811
 30
0.0
 40
1.25
  1

  0
TEXT
  8
DIM
 10
1111.367406
 20
108.685211
 30
0.0
 40
1.25
  1

  0
TEXT
  8
DIM
 10
1112.429906
 20
104.591452
 30
0.0
 40
1.0
  1

  0
TEXT
  8
DIM
 10
1275.367406
 20
108.685211
 30
0.0
 40
1.25
  1

  0
TEXT
  8
DIM
 10
1276.429906
 20
104.591452
 30
0.0
 40
1.0
  1

  0
TEXT
  8
OBJECT
 10
1277.28665
 20
155.28811
 30
0.0
 40
1.25
  1

  0
TEXT
  8
DIM
 10
1275.367406
 20
108.685211
 30
0.0
 40
1.25
  1

  0
TEXT
  8
DIM
 10
1276.429906
 20
104.591452
 30
0.0
 40
1.0
  1

  0
TEXT
  8
OBJECT
 10
1277.28665
 20
155.28811
 30
0.0
 40
1.25
  1

  0
TEXT
  8
DIM
 10
1293.334784
 20
293.609587
 30
0.0
 40
0.72
  1

  0
TEXT
  8
DIM
 10
1229.798907
 20
270.734322
 30
0.0
 40
0.72
  1

  0
TEXT
  8
DIM
 10
1380.711228
 20
221.612584
 30
0.0
 40
0.72
  1

  0
TEXT
  8
DIM
 10
1317.175351
 20
198.737319
 30
0.0
 40
0.72
  1

  0
TEXT
  8
DIM
 10
1283.364584
 20
307.22455
 30
0.0
 40
0.72
  1

  0
TEXT
  8
DIM
 10
1219.828707
 20
284.349285
 30
0.0
 40
0.72
  1

  0
TEXT
  8
DIM
 10
1219.828707
 20
324.349285
 30
0.0
 40
0.72
  1

  0
TEXT
  8
DIM
 10
1281.328707
 20
324.349285
 30
0.0
 40
0.72
  1

  0
TEXT
  8
DIM
 10
1070.367406
 20
108.685211
 30
0.0
 40
1.25
  1

  0
TEXT
  8
DIM
 10
1071.429906
 20
104.591452
 30
0.0
 40
1.0
  1

  0
TEXT
  8
OBJECT
 10
1072.28665
 20
155.28811
 30
0.0
 40
1.25
  1

  0
TEXT
  8
DIM
 10
1275.367406
 20
108.685211
 30
0.0
 40
1.25
  1

  0
TEXT
  8
DIM
 10
1276.429906
 20
104.591452
 30
0.0
 40
1.0
  1

  0
TEXT
  8
OBJECT
 10
1277.28665
 20
155.28811
 30
0.0
 40
1.25
  1

  0
TEXT
  8
DIM
 10
1480.367406
 20
108.685211
 30
0.0
 40
1.25
  1

  0
TEXT
  8
DIM
 10
1481.429906
 20
104.591452
 30
0.0
 40
1.0
  1

  0
TEXT
  8
DIM
 10
1644.367406
 20
108.685211
 30
0.0
 40
1.25
  1

  0
TEXT
  8
DIM
 10
1645.429906
 20
104.591452
 30
0.0
 40
1.0
  1

  0
TEXT
  8
OBJECT
 10
1646.28665
 20
155.28811
 30
0.0
 40
1.25
  1

  0
TEXT
  8
DIM
 10
1644.367406
 20
108.685211
 30
0.0
 40
1.25
  1

  0
TEXT
  8
DIM
 10
1645.429906
 20
104.591452
 30
0.0
 40
1.0
  1

  0
TEXT
  8
OBJECT
 10
1646.28665
 20
155.28811
 30
0.0
 40
1.25
  1

  0
TEXT
  8
DIM
 10
1662.334784
 20
293.609587
 30
0.0
 40
0.72
  1

  0
TEXT
  8
DIM
 10
1598.798907
 20
270.734322
 30
0.0
 40
0.72
  1

  0
TEXT
  8
DIM
 10
1749.711228
 20
221.612584
 30
0.0
 40
0.72
  1

  0
TEXT
  8
DIM
 10
1686.175351
 20
198.737319
 30
0.0
 40
0.72
  1

  0
TEXT
  8
DIM
 10
1652.364584
 20
307.22455
 30
0.0
 40
0.72
  1

  0
TEXT
  8
DIM
 10
1588.828707
 20
284.349285
 30
0.0
 40
0.72
  1

  0
TEXT
  8
DIM
 10
1588.828707
 20
324.349285
 30
0.0
 40
0.72
  1

  0
TEXT
  8
DIM
 10
1650.328707
 20
324.349285
 30
0.0
 40
0.72
  1

  0
TEXT
  8
DIM
 10
1275.367406
 20
108.685211
 30
0.0
 40
1.25
  1

  0
TEXT
  8
DIM
 10
1276.429906
 20
104.591452
 30
0.0
 40
1.0
  1

  0
TEXT
  8
OBJECT
 10
1277.28665
 20
155.28811
 30
0.0
 40
1.25
  1

  0
TEXT
  8
DIM
 10
1480.367406
 20
108.685211
 30
0.0
 40
1.25
  1

  0
TEXT
  8
DIM
 10
1481.429906
 20
104.591452
 30
0.0
 40
1.0
  1

  0
TEXT
  8
DIM
 10
1644.367406
 20
108.685211
 30
0.0
 40
1.25
  1

  0
TEXT
  8
DIM
 10
1645.429906
 20
104.591452
 30
0.0
 40
1.0
  1

  0
TEXT
  8
OBJECT
 10
1646.28665
 20
155.28811
 30
0.0
 40
1.25
  1

  0
TEXT
  8
DIM
 10
1644.367406
 20
108.685211
 30
0.0
 40
1.25
  1

  0
TEXT
  8
DIM
 10
1645.429906
 20
104.591452
 30
0.0
 40
1.0
  1

  0
TEXT
  8
OBJECT
 10
1646.28665
 20
155.28811
 30
0.0
 40
1.25
  1

  0
TEXT
  8
DIM
 10
1662.334784
 20
293.609587
 30
0.0
 40
0.72
  1

  0
TEXT
  8
DIM
 10
1598.798907
 20
270.734322
 30
0.0
 40
0.72
  1

  0
TEXT
  8
DIM
 10
1749.711228
 20
221.612584
 30
0.0
 40
0.72
  1

  0
TEXT
  8
DIM
 10
1686.175351
 20
198.737319
 30
0.0
 40
0.72
  1

  0
TEXT
  8
DIM
 10
1652.364584
 20
307.22455
 30
0.0
 40
0.72
  1

  0
TEXT
  8
DIM
 10
1588.828707
 20
284.349285
 30
0.0
 40
0.72
  1

  0
TEXT
  8
DIM
 10
1588.828707
 20
324.349285
 30
0.0
 40
0.72
  1

  0
TEXT
  8
DIM
 10
1650.328707
 20
324.349285
 30
0.0
 40
0.72
  1

  0
TEXT
  8
DIM
 10
1254.867406
 20
108.685211
 30
0.0
 40
1.25
  1

  0
TEXT
  8
DIM
 10
1255.929906
 20
104.591452
 30
0.0
 40
1.0
  1

  0
TEXT
  8
DIM
 10
1418.867406
 20
108.685211
 30
0.0
 40
1.25
  1

  0
TEXT
  8
DIM
 10
1419.929906
 20
104.591452
 30
0.0
 40
1.0
  1

  0
TEXT
  8
OBJECT
 10
1420.78665
 20
155.28811
 30
0.0
 40
1.25
  1

  0
TEXT
  8
DIM
 10
1418.867406
 20
108.685211
 30
0.0
 40
1.25
  1

  0
TEXT
  8
DIM
 10
1419.929906
 20
104.591452
 30
0.0
 40
1.0
  1

  0
TEXT
  8
OBJECT
 10
1420.78665
 20
155.28811
 30
0.0
 40
1.25
  1

  0
TEXT
  8
DIM
 10
1436.834784
 20
293.609587
 30
0.0
 40
0.72
  1

  0
TEXT
  8
DIM
 10
1373.298907
 20
270.734322
 30
0.0
 40
0.72
  1

  0
TEXT
  8
DIM
 10
1524.211228
 20
221.612584
 30
0.0
 40
0.72
  1

  0
TEXT
  8
DIM
 10
1460.675351
 20
198.737319
 30
0.0
 40
0.72
  1

  0
TEXT
  8
DIM
 10
1426.864584
 20
307.22455
 30
0.0
 40
0.72
  1

  0
TEXT
  8
DIM
 10
1363.328707
 20
284.349285
 30
0.0
 40
0.72
  1

  0
TEXT
  8
DIM
 10
1363.328707
 20
324.349285
 30
0.0
 40
0.72
  1

  0
TEXT
  8
DIM
 10
1424.828707
 20
324.349285
 30
0.0
 40
0.72
  1

  0
TEXT
  8
DIM
 10
1070.367406
 20
108.685211
 30
0.0
 40
1.25
  1

  0
TEXT
  8
DIM
 10
1071.429906
 20
104.591452
 30
0.0
 40
1.0
  1

  0
TEXT
  8
DIM
 10
1234.367406
 20
108.685211
 30
0.0
 40
1.25
  1

  0
TEXT
  8
DIM
 10
1235.429906
 20
104.591452
 30
0.0
 40
1.0
  1

  0
TEXT
  8
OBJECT
 10
1236.28665
 20
155.28811
 30
0.0
 40
1.25
  1

  0
TEXT
  8
DIM
 10
1234.367406
 20
108.685211
 30
0.0
 40
1.25
  1

  0
TEXT
  8
DIM
 10
1235.429906
 20
104.591452
 30
0.0
 40
1.0
  1

  0
TEXT
  8
OBJECT
 10
1236.28665
 20
155.28811
 30
0.0
 40
1.25
  1

  0
TEXT
  8
DIM
 10
1252.334784
 20
293.609587
 30
0.0
 40
0.72
  1

  0
TEXT
  8
DIM
 10
1188.798907
 20
270.734322
 30
0.0
 40
0.72
  1

  0
TEXT
  8
DIM
 10
1339.711228
 20
221.612584
 30
0.0
 40
0.72
  1

  0
TEXT
  8
DIM
 10
1276.175351
 20
198.737319
 30
0.0
 40
0.72
  1

  0
TEXT
  8
DIM
 10
1242.364584
 20
307.22455
 30
0.0
 40
0.72
  1

  0
TEXT
  8
DIM
 10
1178.828707
 20
284.349285
 30
0.0
 40
0.72
  1

  0
TEXT
  8
DIM
 10
1178.828707
 20
324.349285
 30
0.0
 40
0.72
  1

  0
TEXT
  8
DIM
 10
1240.328707
 20
324.349285
 30
0.0
 40
0.72
  1

  0
TEXT
  8
DIM
 10
1090.867406
 20
108.685211
 30
0.0
 40
1.25
  1

  0
TEXT
  8
DIM
 10
1091.929906
 20
104.591452
 30
0.0
 40
1.0
  1

  0
TEXT
  8
OBJECT
 10
1092.78665
 20
155.28811
 30
0.0
 40
1.25
  1

  0
TEXT
  8
DIM
 10
1295.867406
 20
108.685211
 30
0.0
 40
1.25
  1

  0
TEXT
  8
DIM
 10
1296.929906
 20
104.591452
 30
0.0
 40
1.0
  1

  0
TEXT
  8
DIM
 10
1459.867406
 20
108.685211
 30
0.0
 40
1.25
  1

  0
TEXT
  8
DIM
 10
1460.929906
 20
104.591452
 30
0.0
 40
1.0
  1

  0
TEXT
  8
OBJECT
 10
1461.78665
 20
155.28811
 30
0.0
 40
1.25
  1

  0
TEXT
  8
DIM
 10
1459.867406
 20
108.685211
 30
0.0
 40
1.25
  1

  0
TEXT
  8
DIM
 10
1460.929906
 20
104.591452
 30
0.0
 40
1.0
  1

  0
TEXT
  8
OBJECT
 10
1461.78665
 20
155.28811
 30
0.0
 40
1.25
  1

  0
TEXT
  8
DIM
 10
1477.834784
 20
293.609587
 30
0.0
 40
0.72
  1

  0
TEXT
  8
DIM
 10
1414.298907
 20
270.734322
 30
0.0
 40
0.72
  1

  0
TEXT
  8
DIM
 10
1565.211228
 20
221.612584
 30
0.0
 40
0.72
  1

  0
TEXT
  8
DIM
 10
1501.675351
 20
198.737319
 30
0.0
 40
0.72
  1

  0
TEXT
  8
DIM
 10
1467.864584
 20
307.22455
 30
0.0
 40
0.72
  1

  0
TEXT
  8
DIM
 10
1404.328707
 20
284.349285
 30
0.0
 40
0.72
  1

  0
TEXT
  8
DIM
 10
1404.328707
 20
324.349285
 30
0.0
 40
0.72
  1

  0
TEXT
  8
DIM
 10
1465.828707
 20
324.349285
 30
0.0
 40
0.72
  1

  0
TEXT
  8
DIM
 10
1254.867406
 20
108.685211
 30
0.0
 40
1.25
  1

  0
TEXT
  8
DIM
 10
1255.929906
 20
104.591452
 30
0.0
 40
1.0
  1

  0
TEXT
  8
OBJECT
 10
1256.78665
 20
155.28811
 30
0.0
 40
1.25
  1

  0
TEXT
  8
DIM
 10
1459.867406
 20
108.685211
 30
0.0
 40
1.25
  1

  0
TEXT
  8
DIM
 10
1460.929906
 20
104.591452
 30
0.0
 40
1.0
  1

  0
TEXT
  8
OBJECT
 10
1461.78665
 20
155.28811
 30
0.0
 40
1.25
  1

  0
TEXT
  8
DIM
 10
1664.867406
 20
108.685211
 30
0.0
 40
1.25
  1

  0
TEXT
  8
DIM
 10
1665.929906
 20
104.591452
 30
0.0
 40
1.0
  1

  0
TEXT
  8
DIM
 10
1828.867406
 20
108.685211
 30
0.0
 40
1.25
  1

  0
TEXT
  8
DIM
 10
1829.929906
 20
104.591452
 30
0.0
 40
1.0
  1

  0
TEXT
  8
OBJECT
 10
1830.78665
 20
155.28811
 30
0.0
 40
1.25
  1

  0
TEXT
  8
DIM
 10
1828.867406
 20
108.685211
 30
0.0
 40
1.25
  1

  0
TEXT
  8
DIM
 10
1829.929906
 20
104.591452
 30
0.0
 40
1.0
  1

  0
TEXT
  8
OBJECT
 10
1830.78665
 20
155.28811
 30
0.0
 40
1.25
  1

  0
TEXT
  8
DIM
 10
1846.834784
 20
293.609587
 30
0.0
 40
0.72
  1

  0
TEXT
  8
DIM
 10
1783.298907
 20
270.734322
 30
0.0
 40
0.72
  1

  0
TEXT
  8
DIM
 10
1934.211228
 20
221.612584
 30
0.0
 40
0.72
  1

  0
TEXT
  8
DIM
 10
1870.675351
 20
198.737319
 30
0.0
 40
0.72
  1

  0
TEXT
  8
DIM
 10
1836.864584
 20
307.22455
 30
0.0
 40
0.72
  1

  0
TEXT
  8
DIM
 10
1773.328707
 20
284.349285
 30
0.0
 40
0.72
  1

  0
TEXT
  8
DIM
 10
1773.328707
 20
324.349285
 30
0.0
 40
0.72
  1

  0
TEXT
  8
DIM
 10
1834.828707
 20
324.349285
 30
0.0
 40
0.72
  1

  0
TEXT
  8
DIM
 10
1459.867406
 20
108.685211
 30
0.0
 40
1.25
  1

  0
TEXT
  8
DIM
 10
1460.929906
 20
104.591452
 30
0.0
 40
1.0
  1

  0
TEXT
  8
OBJECT
 10
1461.78665
 20
155.28811
 30
0.0
 40
1.25
  1

  0
TEXT
  8
DIM
 10
1664.867406
 20
108.685211
 30
0.0
 40
1.25
  1

  0
TEXT
  8
DIM
 10
1665.929906
 20
104.591452
 30
0.0
 40
1.0
  1

  0
TEXT
  8
DIM
 10
1828.867406
 20
108.685211
 30
0.0
 40
1.25
  1

  0
TEXT
  8
DIM
 10
1829.929906
 20
104.591452
 30
0.0
 40
1.0
  1

  0
TEXT
  8
OBJECT
 10
1830.78665
 20
155.28811
 30
0.0
 40
1.25
  1

  0
TEXT
  8
DIM
 10
1828.867406
 20
108.685211
 30
0.0
 40
1.25
  1

  0
TEXT
  8
DIM
 10
1829.929906
 20
104.591452
 30
0.0
 40
1.0
  1

  0
TEXT
  8
OBJECT
 10
1830.78665
 20
155.28811
 30
0.0
 40
1.25
  1

  0
TEXT
  8
DIM
 10
1846.834784
 20
293.609587
 30
0.0
 40
0.72
  1

  0
TEXT
  8
DIM
 10
1783.298907
 20
270.734322
 30
0.0
 40
0.72
  1

  0
TEXT
  8
DIM
 10
1934.211228
 20
221.612584
 30
0.0
 40
0.72
  1

  0
TEXT
  8
DIM
 10
1870.675351
 20
198.737319
 30
0.0
 40
0.72
  1

  0
TEXT
  8
DIM
 10
1836.864584
 20
307.22455
 30
0.0
 40
0.72
  1

  0
TEXT
  8
DIM
 10
1773.328707
 20
284.349285
 30
0.0
 40
0.72
  1

  0
TEXT
  8
DIM
 10
1773.328707
 20
324.349285
 30
0.0
 40
0.72
  1

  0
TEXT
  8
DIM
 10
1834.828707
 20
324.349285
 30
0.0
 40
0.72
  1

  0
TEXT
  8
DIM
 10
1439.367406
 20
108.685211
 30
0.0
 40
1.25
  1

  0
TEXT
  8
DIM
 10
1440.429906
 20
104.591452
 30
0.0
 40
1.0
  1

  0
TEXT
  8
DIM
 10
1603.367406
 20
108.685211
 30
0.0
 40
1.25
  1

  0
TEXT
  8
DIM
 10
1604.429906
 20
104.591452
 30
0.0
 40
1.0
  1

  0
TEXT
  8
OBJECT
 10
1605.28665
 20
155.28811
 30
0.0
 40
1.25
  1

  0
TEXT
  8
DIM
 10
1603.367406
 20
108.685211
 30
0.0
 40
1.25
  1

  0
TEXT
  8
DIM
 10
1604.429906
 20
104.591452
 30
0.0
 40
1.0
  1

  0
TEXT
  8
OBJECT
 10
1605.28665
 20
155.28811
 30
0.0
 40
1.25
  1

  0
TEXT
  8
DIM
 10
1621.334784
 20
293.609587
 30
0.0
 40
0.72
  1

  0
TEXT
  8
DIM
 10
1557.798907
 20
270.734322
 30
0.0
 40
0.72
  1

  0
TEXT
  8
DIM
 10
1708.711228
 20
221.612584
 30
0.0
 40
0.72
  1

  0
TEXT
  8
DIM
 10
1645.175351
 20
198.737319
 30
0.0
 40
0.72
  1

  0
TEXT
  8
DIM
 10
1611.364584
 20
307.22455
 30
0.0
 40
0.72
  1

  0
TEXT
  8
DIM
 10
1547.828707
 20
284.349285
 30
0.0
 40
0.72
  1

  0
TEXT
  8
DIM
 10
1547.828707
 20
324.349285
 30
0.0
 40
0.72
  1

  0
TEXT
  8
DIM
 10
1609.328707
 20
324.349285
 30
0.0
 40
0.72
  1

  0
TEXT
  8
DIM
 10
1254.867406
 20
108.685211
 30
0.0
 40
1.25
  1

  0
TEXT
  8
DIM
 10
1255.929906
 20
104.591452
 30
0.0
 40
1.0
  1

  0
TEXT
  8
OBJECT
 10
1256.78665
 20
155.28811
 30
0.0
 40
1.25
  1

  0
TEXT
  8
DIM
 10
1091.064485
 20
268.398533
 30
0.0
 40
1.25
  1

  0
TEXT
  8
DIM
 10
1092.126985
 20
264.304774
 30
0.0
 40
1.0
  1

  0
TEXT
  8
OBJECT
 10
1092.983729
 20
315.001432
 30
0.0
 40
1.25
  1

  0
TEXT
  8
DIM
 10
906.367406
 20
252.685211
 30
0.0
 40
1.25
  1

  0
TEXT
  8
DIM
 10
907.429906
 20
248.591452
 30
0.0
 40
1.0
  1

  0
TEXT
  8
OBJECT
 10
908.28665
 20
299.28811
 30
0.0
 40
1.25
  1

  0
TEXT
  8
DIM
 10
906.367406
 20
108.685211
 30
0.0
 40
1.25
  1

  0
TEXT
  8
DIM
 10
907.429906
 20
104.591452
 30
0.0
 40
1.0
  1

  0
TEXT
  8
OBJECT
 10
908.28665
 20
155.28811
 30
0.0
 40
1.25
  1

  0
TEXT
  8
DIM
 10
701.367406
 20
108.685211
 30
0.0
 40
1.25
  1

  0
TEXT
  8
DIM
 10
702.429906
 20
104.591452
 30
0.0
 40
1.0
  1

  0
TEXT
  8
OBJECT
 10
703.28665
 20
155.28811
 30
0.0
 40
1.25
  1

  0
TEXT
  8
DIM
 10
475.867406
 20
108.685211
 30
0.0
 40
1.25
  1

  0
TEXT
  8
DIM
 10
476.929906
 20
104.591452
 30
0.0
 40
1.0
  1

  0
TEXT
  8
OBJECT
 10
477.78665
 20
155.28811
 30
0.0
 40
1.25
  1

  0
TEXT
  8
DIM
 10
-16.132594
 20
300.685211
 30
0.0
 40
1.25
  1

  0
TEXT
  8
DIM
 10
-15.070094
 20
296.591452
 30
0.0
 40
1.0
  1

  0
TEXT
  8
OBJECT
 10
-14.21335
 20
347.28811
 30
0.0
 40
1.25
  1

  0
TEXT
  8
DIM
 10
229.867406
 20
300.685211
 30
0.0
 40
1.25
  1

  0
TEXT
  8
DIM
 10
230.929906
 20
296.591452
 30
0.0
 40
1.0
  1

  0
TEXT
  8
OBJECT
 10
231.78665
 20
347.28811
 30
0.0
 40
1.25
  1

  0
TEXT
  8
DIM
 10
434.867406
 20
300.685211
 30
0.0
 40
1.25
  1

  0
TEXT
  8
DIM
 10
435.929906
 20
296.591452
 30
0.0
 40
1.0
  1

  0
TEXT
  8
OBJECT
 10
436.78665
 20
347.28811
 30
0.0
 40
1.25
  1

  0
TEXT
  8
DIM
 10
639.867406
 20
300.685211
 30
0.0
 40
1.25
  1

  0
TEXT
  8
DIM
 10
640.929906
 20
296.591452
 30
0.0
 40
1.0
  1

  0
TEXT
  8
DIM
 10
803.867406
 20
300.685211
 30
0.0
 40
1.25
  1

  0
TEXT
  8
DIM
 10
804.929906
 20
296.591452
 30
0.0
 40
1.0
  1

  0
TEXT
  8
OBJECT
 10
805.78665
 20
347.28811
 30
0.0
 40
1.25
  1

  0
TEXT
  8
DIM
 10
803.867406
 20
300.685211
 30
0.0
 40
1.25
  1

  0
TEXT
  8
DIM
 10
804.929906
 20
296.591452
 30
0.0
 40
1.0
  1

  0
TEXT
  8
OBJECT
 10
805.78665
 20
347.28811
 30
0.0
 40
1.25
  1

  0
TEXT
  8
DIM
 10
821.834784
 20
485.609587
 30
0.0
 40
0.72
  1

  0
TEXT
  8
DIM
 10
758.298907
 20
462.734322
 30
0.0
 40
0.72
  1

  0
TEXT
  8
DIM
 10
909.211228
 20
413.612584
 30
0.0
 40
0.72
  1

  0
TEXT
  8
DIM
 10
845.675351
 20
390.737319
 30
0.0
 40
0.72
  1

  0
TEXT
  8
DIM
 10
811.864584
 20
499.22455
 30
0.0
 40
0.72
  1

  0
TEXT
  8
DIM
 10
748.328707
 20
476.349285
 30
0.0
 40
0.72
  1

  0
TEXT
  8
DIM
 10
748.328707
 20
516.349285
 30
0.0
 40
0.72
  1

  0
TEXT
  8
DIM
 10
809.828707
 20
516.349285
 30
0.0
 40
0.72
  1

  0
TEXT
  8
DIM
 10
434.867406
 20
300.685211
 30
0.0
 40
1.25
  1

  0
TEXT
  8
DIM
 10
435.929906
 20
296.591452
 30
0.0
 40
1.0
  1

  0
TEXT
  8
OBJECT
 10
436.78665
 20
347.28811
 30
0.0
 40
1.25
  1

  0
TEXT
  8
DIM
 10
639.867406
 20
300.685211
 30
0.0
 40
1.25
  1

  0
TEXT
  8
DIM
 10
640.929906
 20
296.591452
 30
0.0
 40
1.0
  1

  0
TEXT
  8
DIM
 10
803.867406
 20
300.685211
 30
0.0
 40
1.25
  1

  0
TEXT
  8
DIM
 10
804.929906
 20
296.591452
 30
0.0
 40
1.0
  1

  0
TEXT
  8
OBJECT
 10
805.78665
 20
347.28811
 30
0.0
 40
1.25
  1

  0
TEXT
  8
DIM
 10
803.867406
 20
300.685211
 30
0.0
 40
1.25
  1

  0
TEXT
  8
DIM
 10
804.929906
 20
296.591452
 30
0.0
 40
1.0
  1

  0
TEXT
  8
OBJECT
 10
805.78665
 20
347.28811
 30
0.0
 40
1.25
  1

  0
TEXT
  8
DIM
 10
821.834784
 20
485.609587
 30
0.0
 40
0.72
  1

  0
TEXT
  8
DIM
 10
758.298907
 20
462.734322
 30
0.0
 40
0.72
  1

  0
TEXT
  8
DIM
 10
909.211228
 20
413.612584
 30
0.0
 40
0.72
  1

  0
TEXT
  8
DIM
 10
845.675351
 20
390.737319
 30
0.0
 40
0.72
  1

  0
TEXT
  8
DIM
 10
811.864584
 20
499.22455
 30
0.0
 40
0.72
  1

  0
TEXT
  8
DIM
 10
748.328707
 20
476.349285
 30
0.0
 40
0.72
  1

  0
TEXT
  8
DIM
 10
748.328707
 20
516.349285
 30
0.0
 40
0.72
  1

  0
TEXT
  8
DIM
 10
809.828707
 20
516.349285
 30
0.0
 40
0.72
  1

  0
TEXT
  8
DIM
 10
414.367406
 20
300.685211
 30
0.0
 40
1.25
  1

  0
TEXT
  8
DIM
 10
415.429906
 20
296.591452
 30
0.0
 40
1.0
  1

  0
TEXT
  8
DIM
 10
578.367406
 20
300.685211
 30
0.0
 40
1.25
  1

  0
TEXT
  8
DIM
 10
579.429906
 20
296.591452
 30
0.0
 40
1.0
  1

  0
TEXT
  8
OBJECT
 10
580.28665
 20
347.28811
 30
0.0
 40
1.25
  1

  0
TEXT
  8
DIM
 10
578.367406
 20
300.685211
 30
0.0
 40
1.25
  1

  0
TEXT
  8
DIM
 10
579.429906
 20
296.591452
 30
0.0
 40
1.0
  1

  0
TEXT
  8
OBJECT
 10
580.28665
 20
347.28811
 30
0.0
 40
1.25
  1

  0
TEXT
  8
DIM
 10
596.334784
 20
485.609587
 30
0.0
 40
0.72
  1

  0
TEXT
  8
DIM
 10
532.798907
 20
462.734322
 30
0.0
 40
0.72
  1

  0
TEXT
  8
DIM
 10
683.711228
 20
413.612584
 30
0.0
 40
0.72
  1

  0
TEXT
  8
DIM
 10
620.175351
 20
390.737319
 30
0.0
 40
0.72
  1

  0
TEXT
  8
DIM
 10
586.364584
 20
499.22455
 30
0.0
 40
0.72
  1

  0
TEXT
  8
DIM
 10
522.828707
 20
476.349285
 30
0.0
 40
0.72
  1

  0
TEXT
  8
DIM
 10
522.828707
 20
516.349285
 30
0.0
 40
0.72
  1

  0
TEXT
  8
DIM
 10
584.328707
 20
516.349285
 30
0.0
 40
0.72
  1

  0
TEXT
  8
DIM
 10
475.867406
 20
300.685211
 30
0.0
 40
1.25
  1

  0
TEXT
  8
DIM
 10
476.929906
 20
296.591452
 30
0.0
 40
1.0
  1

  0
TEXT
  8
DIM
 10
639.867406
 20
300.685211
 30
0.0
 40
1.25
  1

  0
TEXT
  8
DIM
 10
640.929906
 20
296.591452
 30
0.0
 40
1.0
  1

  0
TEXT
  8
OBJECT
 10
641.78665
 20
347.28811
 30
0.0
 40
1.25
  1

  0
TEXT
  8
DIM
 10
639.867406
 20
300.685211
 30
0.0
 40
1.25
  1

  0
TEXT
  8
DIM
 10
640.929906
 20
296.591452
 30
0.0
 40
1.0
  1

  0
TEXT
  8
OBJECT
 10
641.78665
 20
347.28811
 30
0.0
 40
1.25
  1

  0
TEXT
  8
DIM
 10
657.834784
 20
485.609587
 30
0.0
 40
0.72
  1

  0
TEXT
  8
DIM
 10
594.298907
 20
462.734322
 30
0.0
 40
0.72
  1

  0
TEXT
  8
DIM
 10
745.211228
 20
413.612584
 30
0.0
 40
0.72
  1

  0
TEXT
  8
DIM
 10
681.675351
 20
390.737319
 30
0.0
 40
0.72
  1

  0
TEXT
  8
DIM
 10
647.864584
 20
499.22455
 30
0.0
 40
0.72
  1

  0
TEXT
  8
DIM
 10
584.328707
 20
476.349285
 30
0.0
 40
0.72
  1

  0
TEXT
  8
DIM
 10
584.328707
 20
516.349285
 30
0.0
 40
0.72
  1

  0
TEXT
  8
DIM
 10
645.828707
 20
516.349285
 30
0.0
 40
0.72
  1

  0
TEXT
  8
DIM
 10
475.867406
 20
300.685211
 30
0.0
 40
1.25
  1

  0
TEXT
  8
DIM
 10
476.929906
 20
296.591452
 30
0.0
 40
1.0
  1

  0
TEXT
  8
OBJECT
 10
477.78665
 20
347.28811
 30
0.0
 40
1.25
  1

  0
TEXT
  8
DIM
 10
680.867406
 20
300.685211
 30
0.0
 40
1.25
  1

  0
TEXT
  8
DIM
 10
681.929906
 20
296.591452
 30
0.0
 40
1.0
  1

  0
TEXT
  8
OBJECT
 10
682.78665
 20
347.28811
 30
0.0
 40
1.25
  1

  0
TEXT
  8
DIM
 10
885.867406
 20
300.685211
 30
0.0
 40
1.25
  1

  0
TEXT
  8
DIM
 10
886.929906
 20
296.591452
 30
0.0
 40
1.0
  1

  0
TEXT
  8
DIM
 10
1049.867406
 20
300.685211
 30
0.0
 40
1.25
  1

  0
TEXT
  8
DIM
 10
1050.929906
 20
296.591452
 30
0.0
 40
1.0
  1

  0
TEXT
  8
OBJECT
 10
1051.78665
 20
347.28811
 30
0.0
 40
1.25
  1

  0
TEXT
  8
DIM
 10
1049.867406
 20
300.685211
 30
0.0
 40
1.25
  1

  0
TEXT
  8
DIM
 10
1050.929906
 20
296.591452
 30
0.0
 40
1.0
  1

  0
TEXT
  8
OBJECT
 10
1051.78665
 20
347.28811
 30
0.0
 40
1.25
  1

  0
TEXT
  8
DIM
 10
1067.834784
 20
485.609587
 30
0.0
 40
0.72
  1

  0
TEXT
  8
DIM
 10
1004.298907
 20
462.734322
 30
0.0
 40
0.72
  1

  0
TEXT
  8
DIM
 10
1155.211228
 20
413.612584
 30
0.0
 40
0.72
  1

  0
TEXT
  8
DIM
 10
1091.675351
 20
390.737319
 30
0.0
 40
0.72
  1

  0
TEXT
  8
DIM
 10
1057.864584
 20
499.22455
 30
0.0
 40
0.72
  1

  0
TEXT
  8
DIM
 10
994.328707
 20
476.349285
 30
0.0
 40
0.72
  1

  0
TEXT
  8
DIM
 10
994.328707
 20
516.349285
 30
0.0
 40
0.72
  1

  0
TEXT
  8
DIM
 10
1055.828707
 20
516.349285
 30
0.0
 40
0.72
  1

  0
TEXT
  8
DIM
 10
680.867406
 20
300.685211
 30
0.0
 40
1.25
  1

  0
TEXT
  8
DIM
 10
681.929906
 20
296.591452
 30
0.0
 40
1.0
  1

  0
TEXT
  8
OBJECT
 10
682.78665
 20
347.28811
 30
0.0
 40
1.25
  1

  0
TEXT
  8
DIM
 10
885.867406
 20
300.685211
 30
0.0
 40
1.25
  1

  0
TEXT
  8
DIM
 10
886.929906
 20
296.591452
 30
0.0
 40
1.0
  1

  0
TEXT
  8
DIM
 10
1049.867406
 20
300.685211
 30
0.0
 40
1.25
  1

  0
TEXT
  8
DIM
 10
1050.929906
 20
296.591452
 30
0.0
 40
1.0
  1

  0
TEXT
  8
OBJECT
 10
1051.78665
 20
347.28811
 30
0.0
 40
1.25
  1

  0
TEXT
  8
DIM
 10
1049.867406
 20
300.685211
 30
0.0
 40
1.25
  1

  0
TEXT
  8
DIM
 10
1050.929906
 20
296.591452
 30
0.0
 40
1.0
  1

  0
TEXT
  8
OBJECT
 10
1051.78665
 20
347.28811
 30
0.0
 40
1.25
  1

  0
TEXT
  8
DIM
 10
1067.834784
 20
485.609587
 30
0.0
 40
0.72
  1

  0
TEXT
  8
DIM
 10
1004.298907
 20
462.734322
 30
0.0
 40
0.72
  1

  0
TEXT
  8
DIM
 10
1155.211228
 20
413.612584
 30
0.0
 40
0.72
  1

  0
TEXT
  8
DIM
 10
1091.675351
 20
390.737319
 30
0.0
 40
0.72
  1

  0
TEXT
  8
DIM
 10
1057.864584
 20
499.22455
 30
0.0
 40
0.72
  1

  0
TEXT
  8
DIM
 10
994.328707
 20
476.349285
 30
0.0
 40
0.72
  1

  0
TEXT
  8
DIM
 10
994.328707
 20
516.349285
 30
0.0
 40
0.72
  1

  0
TEXT
  8
DIM
 10
1055.828707
 20
516.349285
 30
0.0
 40
0.72
  1

  0
TEXT
  8
DIM
 10
660.367406
 20
300.685211
 30
0.0
 40
1.25
  1

  0
TEXT
  8
DIM
 10
661.429906
 20
296.591452
 30
0.0
 40
1.0
  1

  0
TEXT
  8
DIM
 10
824.367406
 20
300.685211
 30
0.0
 40
1.25
  1

  0
TEXT
  8
DIM
 10
825.429906
 20
296.591452
 30
0.0
 40
1.0
  1

  0
TEXT
  8
OBJECT
 10
826.28665
 20
347.28811
 30
0.0
 40
1.25
  1

  0
TEXT
  8
DIM
 10
824.367406
 20
300.685211
 30
0.0
 40
1.25
  1

  0
TEXT
  8
DIM
 10
825.429906
 20
296.591452
 30
0.0
 40
1.0
  1

  0
TEXT
  8
OBJECT
 10
826.28665
 20
347.28811
 30
0.0
 40
1.25
  1

  0
TEXT
  8
DIM
 10
842.334784
 20
485.609587
 30
0.0
 40
0.72
  1

  0
TEXT
  8
DIM
 10
778.798907
 20
462.734322
 30
0.0
 40
0.72
  1

  0
TEXT
  8
DIM
 10
929.711228
 20
413.612584
 30
0.0
 40
0.72
  1

  0
TEXT
  8
DIM
 10
866.175351
 20
390.737319
 30
0.0
 40
0.72
  1

  0
TEXT
  8
DIM
 10
832.364584
 20
499.22455
 30
0.0
 40
0.72
  1

  0
TEXT
  8
DIM
 10
768.828707
 20
476.349285
 30
0.0
 40
0.72
  1

  0
TEXT
  8
DIM
 10
768.828707
 20
516.349285
 30
0.0
 40
0.72
  1

  0
TEXT
  8
DIM
 10
830.328707
 20
516.349285
 30
0.0
 40
0.72
  1

  0
TEXT
  8
DIM
 10
680.867406
 20
300.685211
 30
0.0
 40
1.25
  1

  0
TEXT
  8
DIM
 10
681.929906
 20
296.591452
 30
0.0
 40
1.0
  1

  0
TEXT
  8
DIM
 10
844.867406
 20
300.685211
 30
0.0
 40
1.25
  1

  0
TEXT
  8
DIM
 10
845.929906
 20
296.591452
 30
0.0
 40
1.0
  1

  0
TEXT
  8
OBJECT
 10
846.78665
 20
347.28811
 30
0.0
 40
1.25
  1

  0
TEXT
  8
DIM
 10
844.867406
 20
300.685211
 30
0.0
 40
1.25
  1

  0
TEXT
  8
DIM
 10
845.929906
 20
296.591452
 30
0.0
 40
1.0
  1

  0
TEXT
  8
OBJECT
 10
846.78665
 20
347.28811
 30
0.0
 40
1.25
  1

  0
TEXT
  8
DIM
 10
862.834784
 20
485.609587
 30
0.0
 40
0.72
  1

  0
TEXT
  8
DIM
 10
799.298907
 20
462.734322
 30
0.0
 40
0.72
  1

  0
TEXT
  8
DIM
 10
950.211228
 20
413.612584
 30
0.0
 40
0.72
  1

  0
TEXT
  8
DIM
 10
886.675351
 20
390.737319
 30
0.0
 40
0.72
  1

  0
TEXT
  8
DIM
 10
852.864584
 20
499.22455
 30
0.0
 40
0.72
  1

  0
TEXT
  8
DIM
 10
789.328707
 20
476.349285
 30
0.0
 40
0.72
  1

  0
TEXT
  8
DIM
 10
789.328707
 20
516.349285
 30
0.0
 40
0.72
  1

  0
TEXT
  8
DIM
 10
850.828707
 20
516.349285
 30
0.0
 40
0.72
  1

  0
TEXT
  8
DIM
 10
701.367406
 20
300.685211
 30
0.0
 40
1.25
  1

  0
TEXT
  8
DIM
 10
702.429906
 20
296.591452
 30
0.0
 40
1.0
  1

  0
TEXT
  8
OBJECT
 10
703.28665
 20
347.28811
 30
0.0
 40
1.25
  1

  0
TEXT
  8
DIM
 10
906.367406
 20
300.685211
 30
0.0
 40
1.25
  1

  0
TEXT
  8
DIM
 10
907.429906
 20
296.591452
 30
0.0
 40
1.0
  1

  0
TEXT
  8
OBJECT
 10
908.28665
 20
347.28811
 30
0.0
 40
1.25
  1

  0
TEXT
  8
DIM
 10
1111.367406
 20
300.685211
 30
0.0
 40
1.25
  1

  0
TEXT
  8
DIM
 10
1112.429906
 20
296.591452
 30
0.0
 40
1.0
  1

  0
TEXT
  8
DIM
 10
1275.367406
 20
300.685211
 30
0.0
 40
1.25
  1

  0
TEXT
  8
DIM
 10
1276.429906
 20
296.591452
 30
0.0
 40
1.0
  1

  0
TEXT
  8
OBJECT
 10
1277.28665
 20
347.28811
 30
0.0
 40
1.25
  1

  0
TEXT
  8
DIM
 10
1275.367406
 20
300.685211
 30
0.0
 40
1.25
  1

  0
TEXT
  8
DIM
 10
1276.429906
 20
296.591452
 30
0.0
 40
1.0
  1

  0
TEXT
  8
OBJECT
 10
1277.28665
 20
347.28811
 30
0.0
 40
1.25
  1

  0
TEXT
  8
DIM
 10
1293.334784
 20
485.609587
 30
0.0
 40
0.72
  1

  0
TEXT
  8
DIM
 10
1229.798907
 20
462.734322
 30
0.0
 40
0.72
  1

  0
TEXT
  8
DIM
 10
1380.711228
 20
413.612584
 30
0.0
 40
0.72
  1

  0
TEXT
  8
DIM
 10
1317.175351
 20
390.737319
 30
0.0
 40
0.72
  1

  0
TEXT
  8
DIM
 10
1283.364584
 20
499.22455
 30
0.0
 40
0.72
  1

  0
TEXT
  8
DIM
 10
1219.828707
 20
476.349285
 30
0.0
 40
0.72
  1

  0
TEXT
  8
DIM
 10
1219.828707
 20
516.349285
 30
0.0
 40
0.72
  1

  0
TEXT
  8
DIM
 10
1281.328707
 20
516.349285
 30
0.0
 40
0.72
  1

  0
TEXT
  8
DIM
 10
906.367406
 20
300.685211
 30
0.0
 40
1.25
  1

  0
TEXT
  8
DIM
 10
907.429906
 20
296.591452
 30
0.0
 40
1.0
  1

  0
TEXT
  8
OBJECT
 10
908.28665
 20
347.28811
 30
0.0
 40
1.25
  1

  0
TEXT
  8
DIM
 10
1111.367406
 20
300.685211
 30
0.0
 40
1.25
  1

  0
TEXT
  8
DIM
 10
1112.429906
 20
296.591452
 30
0.0
 40
1.0
  1

  0
TEXT
  8
DIM
 10
1275.367406
 20
300.685211
 30
0.0
 40
1.25
  1

  0
TEXT
  8
DIM
 10
1276.429906
 20
296.591452
 30
0.0
 40
1.0
  1

  0
TEXT
  8
OBJECT
 10
1277.28665
 20
347.28811
 30
0.0
 40
1.25
  1

  0
TEXT
  8
DIM
 10
1275.367406
 20
300.685211
 30
0.0
 40
1.25
  1

  0
TEXT
  8
DIM
 10
1276.429906
 20
296.591452
 30
0.0
 40
1.0
  1

  0
TEXT
  8
OBJECT
 10
1277.28665
 20
347.28811
 30
0.0
 40
1.25
  1

  0
TEXT
  8
DIM
 10
1293.334784
 20
485.609587
 30
0.0
 40
0.72
  1

  0
TEXT
  8
DIM
 10
1229.798907
 20
462.734322
 30
0.0
 40
0.72
  1

  0
TEXT
  8
DIM
 10
1380.711228
 20
413.612584
 30
0.0
 40
0.72
  1

  0
TEXT
  8
DIM
 10
1317.175351
 20
390.737319
 30
0.0
 40
0.72
  1

  0
TEXT
  8
DIM
 10
1283.364584
 20
499.22455
 30
0.0
 40
0.72
  1

  0
TEXT
  8
DIM
 10
1219.828707
 20
476.349285
 30
0.0
 40
0.72
  1

  0
TEXT
  8
DIM
 10
1219.828707
 20
516.349285
 30
0.0
 40
0.72
  1

  0
TEXT
  8
DIM
 10
1281.328707
 20
516.349285
 30
0.0
 40
0.72
  1

  0
TEXT
  8
DIM
 10
885.867406
 20
300.685211
 30
0.0
 40
1.25
  1

  0
TEXT
  8
DIM
 10
886.929906
 20
296.591452
 30
0.0
 40
1.0
  1

  0
TEXT
  8
DIM
 10
1049.867406
 20
300.685211
 30
0.0
 40
1.25
  1

  0
TEXT
  8
DIM
 10
1050.929906
 20
296.591452
 30
0.0
 40
1.0
  1

  0
TEXT
  8
OBJECT
 10
1051.78665
 20
347.28811
 30
0.0
 40
1.25
  1

  0
TEXT
  8
DIM
 10
1049.867406
 20
300.685211
 30
0.0
 40
1.25
  1

  0
TEXT
  8
DIM
 10
1050.929906
 20
296.591452
 30
0.0
 40
1.0
  1

  0
TEXT
  8
OBJECT
 10
1051.78665
 20
347.28811
 30
0.0
 40
1.25
  1

  0
TEXT
  8
DIM
 10
1067.834784
 20
485.609587
 30
0.0
 40
0.72
  1

  0
TEXT
  8
DIM
 10
1004.298907
 20
462.734322
 30
0.0
 40
0.72
  1

  0
TEXT
  8
DIM
 10
1155.211228
 20
413.612584
 30
0.0
 40
0.72
  1

  0
TEXT
  8
DIM
 10
1091.675351
 20
390.737319
 30
0.0
 40
0.72
  1

  0
TEXT
  8
DIM
 10
1057.864584
 20
499.22455
 30
0.0
 40
0.72
  1

  0
TEXT
  8
DIM
 10
994.328707
 20
476.349285
 30
0.0
 40
0.72
  1

  0
TEXT
  8
DIM
 10
994.328707
 20
516.349285
 30
0.0
 40
0.72
  1

  0
TEXT
  8
DIM
 10
1055.828707
 20
516.349285
 30
0.0
 40
0.72
  1

  0
TEXT
  8
DIM
 10
906.367406
 20
300.685211
 30
0.0
 40
1.25
  1

  0
TEXT
  8
DIM
 10
907.429906
 20
296.591452
 30
0.0
 40
1.0
  1

  0
TEXT
  8
DIM
 10
1070.367406
 20
300.685211
 30
0.0
 40
1.25
  1

  0
TEXT
  8
DIM
 10
1071.429906
 20
296.591452
 30
0.0
 40
1.0
  1

  0
TEXT
  8
OBJECT
 10
1072.28665
 20
347.28811
 30
0.0
 40
1.25
  1

  0
TEXT
  8
DIM
 10
1070.367406
 20
300.685211
 30
0.0
 40
1.25
  1

  0
TEXT
  8
DIM
 10
1071.429906
 20
296.591452
 30
0.0
 40
1.0
  1

  0
TEXT
  8
OBJECT
 10
1072.28665
 20
347.28811
 30
0.0
 40
1.25
  1

  0
TEXT
  8
DIM
 10
1088.334784
 20
485.609587
 30
0.0
 40
0.72
  1

  0
TEXT
  8
DIM
 10
1024.798907
 20
462.734322
 30
0.0
 40
0.72
  1

  0
TEXT
  8
DIM
 10
1175.711228
 20
413.612584
 30
0.0
 40
0.72
  1

  0
TEXT
  8
DIM
 10
1112.175351
 20
390.737319
 30
0.0
 40
0.72
  1

  0
TEXT
  8
DIM
 10
1078.364584
 20
499.22455
 30
0.0
 40
0.72
  1

  0
TEXT
  8
DIM
 10
1014.828707
 20
476.349285
 30
0.0
 40
0.72
  1

  0
TEXT
  8
DIM
 10
1014.828707
 20
516.349285
 30
0.0
 40
0.72
  1

  0
TEXT
  8
DIM
 10
1076.328707
 20
516.349285
 30
0.0
 40
0.72
  1

  0
TEXT
  8
DIM
 10
906.367406
 20
300.685211
 30
0.0
 40
1.25
  1

  0
TEXT
  8
DIM
 10
907.429906
 20
296.591452
 30
0.0
 40
1.0
  1

  0
TEXT
  8
OBJECT
 10
908.28665
 20
347.28811
 30
0.0
 40
1.25
  1

  0
TEXT
  8
DIM
 10
1111.367406
 20
300.685211
 30
0.0
 40
1.25
  1

  0
TEXT
  8
DIM
 10
1112.429906
 20
296.591452
 30
0.0
 40
1.0
  1

  0
TEXT
  8
DIM
 10
1275.367406
 20
300.685211
 30
0.0
 40
1.25
  1

  0
TEXT
  8
DIM
 10
1276.429906
 20
296.591452
 30
0.0
 40
1.0
  1

  0
TEXT
  8
OBJECT
 10
1277.28665
 20
347.28811
 30
0.0
 40
1.25
  1

  0
TEXT
  8
DIM
 10
1275.367406
 20
300.685211
 30
0.0
 40
1.25
  1

  0
TEXT
  8
DIM
 10
1276.429906
 20
296.591452
 30
0.0
 40
1.0
  1

  0
TEXT
  8
OBJECT
 10
1277.28665
 20
347.28811
 30
0.0
 40
1.25
  1

  0
TEXT
  8
DIM
 10
1293.334784
 20
485.609587
 30
0.0
 40
0.72
  1

  0
TEXT
  8
DIM
 10
1229.798907
 20
462.734322
 30
0.0
 40
0.72
  1

  0
TEXT
  8
DIM
 10
1380.711228
 20
413.612584
 30
0.0
 40
0.72
  1

  0
TEXT
  8
DIM
 10
1317.175351
 20
390.737319
 30
0.0
 40
0.72
  1

  0
TEXT
  8
DIM
 10
1283.364584
 20
499.22455
 30
0.0
 40
0.72
  1

  0
TEXT
  8
DIM
 10
1219.828707
 20
476.349285
 30
0.0
 40
0.72
  1

  0
TEXT
  8
DIM
 10
1219.828707
 20
516.349285
 30
0.0
 40
0.72
  1

  0
TEXT
  8
DIM
 10
1281.328707
 20
516.349285
 30
0.0
 40
0.72
  1

  0
TEXT
  8
DIM
 10
1070.367406
 20
300.685211
 30
0.0
 40
1.25
  1

  0
TEXT
  8
DIM
 10
1071.429906
 20
296.591452
 30
0.0
 40
1.0
  1

  0
TEXT
  8
OBJECT
 10
1072.28665
 20
347.28811
 30
0.0
 40
1.25
  1

  0
TEXT
  8
DIM
 10
1275.367406
 20
300.685211
 30
0.0
 40
1.25
  1

  0
TEXT
  8
DIM
 10
1276.429906
 20
296.591452
 30
0.0
 40
1.0
  1

  0
TEXT
  8
OBJECT
 10
1277.28665
 20
347.28811
 30
0.0
 40
1.25
  1

  0
TEXT
  8
DIM
 10
1480.367406
 20
300.685211
 30
0.0
 40
1.25
  1

  0
TEXT
  8
DIM
 10
1481.429906
 20
296.591452
 30
0.0
 40
1.0
  1

  0
TEXT
  8
DIM
 10
1644.367406
 20
300.685211
 30
0.0
 40
1.25
  1

  0
TEXT
  8
DIM
 10
1645.429906
 20
296.591452
 30
0.0
 40
1.0
  1

  0
TEXT
  8
OBJECT
 10
1646.28665
 20
347.28811
 30
0.0
 40
1.25
  1

  0
TEXT
  8
DIM
 10
1644.367406
 20
300.685211
 30
0.0
 40
1.25
  1

  0
TEXT
  8
DIM
 10
1645.429906
 20
296.591452
 30
0.0
 40
1.0
  1

  0
TEXT
  8
OBJECT
 10
1646.28665
 20
347.28811
 30
0.0
 40
1.25
  1

  0
TEXT
  8
DIM
 10
1662.334784
 20
485.609587
 30
0.0
 40
0.72
  1

  0
TEXT
  8
DIM
 10
1598.798907
 20
462.734322
 30
0.0
 40
0.72
  1

  0
TEXT
  8
DIM
 10
1749.711228
 20
413.612584
 30
0.0
 40
0.72
  1

  0
TEXT
  8
DIM
 10
1686.175351
 20
390.737319
 30
0.0
 40
0.72
  1

  0
TEXT
  8
DIM
 10
1652.364584
 20
499.22455
 30
0.0
 40
0.72
  1

  0
TEXT
  8
DIM
 10
1588.828707
 20
476.349285
 30
0.0
 40
0.72
  1

  0
TEXT
  8
DIM
 10
1588.828707
 20
516.349285
 30
0.0
 40
0.72
  1

  0
TEXT
  8
DIM
 10
1650.328707
 20
516.349285
 30
0.0
 40
0.72
  1

  0
TEXT
  8
DIM
 10
1275.367406
 20
300.685211
 30
0.0
 40
1.25
  1

  0
TEXT
  8
DIM
 10
1276.429906
 20
296.591452
 30
0.0
 40
1.0
  1

  0
TEXT
  8
OBJECT
 10
1277.28665
 20
347.28811
 30
0.0
 40
1.25
  1

  0
TEXT
  8
DIM
 10
1480.367406
 20
300.685211
 30
0.0
 40
1.25
  1

  0
TEXT
  8
DIM
 10
1481.429906
 20
296.591452
 30
0.0
 40
1.0
  1

  0
TEXT
  8
DIM
 10
1644.367406
 20
300.685211
 30
0.0
 40
1.25
  1

  0
TEXT
  8
DIM
 10
1645.429906
 20
296.591452
 30
0.0
 40
1.0
  1

  0
TEXT
  8
OBJECT
 10
1646.28665
 20
347.28811
 30
0.0
 40
1.25
  1

  0
TEXT
  8
DIM
 10
1644.367406
 20
300.685211
 30
0.0
 40
1.25
  1

  0
TEXT
  8
DIM
 10
1645.429906
 20
296.591452
 30
0.0
 40
1.0
  1

  0
TEXT
  8
OBJECT
 10
1646.28665
 20
347.28811
 30
0.0
 40
1.25
  1

  0
TEXT
  8
DIM
 10
1662.334784
 20
485.609587
 30
0.0
 40
0.72
  1

  0
TEXT
  8
DIM
 10
1598.798907
 20
462.734322
 30
0.0
 40
0.72
  1

  0
TEXT
  8
DIM
 10
1749.711228
 20
413.612584
 30
0.0
 40
0.72
  1

  0
TEXT
  8
DIM
 10
1686.175351
 20
390.737319
 30
0.0
 40
0.72
  1

  0
TEXT
  8
DIM
 10
1652.364584
 20
499.22455
 30
0.0
 40
0.72
  1

  0
TEXT
  8
DIM
 10
1588.828707
 20
476.349285
 30
0.0
 40
0.72
  1

  0
TEXT
  8
DIM
 10
1588.828707
 20
516.349285
 30
0.0
 40
0.72
  1

  0
TEXT
  8
DIM
 10
1650.328707
 20
516.349285
 30
0.0
 40
0.72
  1

  0
TEXT
  8
DIM
 10
1254.867406
 20
300.685211
 30
0.0
 40
1.25
  1

  0
TEXT
  8
DIM
 10
1255.929906
 20
296.591452
 30
0.0
 40
1.0
  1

  0
TEXT
  8
DIM
 10
1418.867406
 20
300.685211
 30
0.0
 40
1.25
  1

  0
TEXT
  8
DIM
 10
1419.929906
 20
296.591452
 30
0.0
 40
1.0
  1

  0
TEXT
  8
OBJECT
 10
1420.78665
 20
347.28811
 30
0.0
 40
1.25
  1

  0
TEXT
  8
DIM
 10
1418.867406
 20
300.685211
 30
0.0
 40
1.25
  1

  0
TEXT
  8
DIM
 10
1419.929906
 20
296.591452
 30
0.0
 40
1.0
  1

  0
TEXT
  8
OBJECT
 10
1420.78665
 20
347.28811
 30
0.0
 40
1.25
  1

  0
TEXT
  8
DIM
 10
1436.834784
 20
485.609587
 30
0.0
 40
0.72
  1

  0
TEXT
  8
DIM
 10
1373.298907
 20
462.734322
 30
0.0
 40
0.72
  1

  0
TEXT
  8
DIM
 10
1524.211228
 20
413.612584
 30
0.0
 40
0.72
  1

  0
TEXT
  8
DIM
 10
1460.675351
 20
390.737319
 30
0.0
 40
0.72
  1

  0
TEXT
  8
DIM
 10
1426.864584
 20
499.22455
 30
0.0
 40
0.72
  1

  0
TEXT
  8
DIM
 10
1363.328707
 20
476.349285
 30
0.0
 40
0.72
  1

  0
TEXT
  8
DIM
 10
1363.328707
 20
516.349285
 30
0.0
 40
0.72
  1

  0
TEXT
  8
DIM
 10
1424.828707
 20
516.349285
 30
0.0
 40
0.72
  1

  0
TEXT
  8
DIM
 10
1070.367406
 20
300.685211
 30
0.0
 40
1.25
  1

  0
TEXT
  8
DIM
 10
1071.429906
 20
296.591452
 30
0.0
 40
1.0
  1

  0
TEXT
  8
DIM
 10
1234.367406
 20
300.685211
 30
0.0
 40
1.25
  1

  0
TEXT
  8
DIM
 10
1235.429906
 20
296.591452
 30
0.0
 40
1.0
  1

  0
TEXT
  8
OBJECT
 10
1236.28665
 20
347.28811
 30
0.0
 40
1.25
  1

  0
TEXT
  8
DIM
 10
1234.367406
 20
300.685211
 30
0.0
 40
1.25
  1

  0
TEXT
  8
DIM
 10
1235.429906
 20
296.591452
 30
0.0
 40
1.0
  1

  0
TEXT
  8
OBJECT
 10
1236.28665
 20
347.28811
 30
0.0
 40
1.25
  1

  0
TEXT
  8
DIM
 10
1252.334784
 20
485.609587
 30
0.0
 40
0.72
  1

  0
TEXT
  8
DIM
 10
1188.798907
 20
462.734322
 30
0.0
 40
0.72
  1

  0
TEXT
  8
DIM
 10
1339.711228
 20
413.612584
 30
0.0
 40
0.72
  1

  0
TEXT
  8
DIM
 10
1276.175351
 20
390.737319
 30
0.0
 40
0.72
  1

  0
TEXT
  8
DIM
 10
1242.364584
 20
499.22455
 30
0.0
 40
0.72
  1

  0
TEXT
  8
DIM
 10
1178.828707
 20
476.349285
 30
0.0
 40
0.72
  1

  0
TEXT
  8
DIM
 10
1178.828707
 20
516.349285
 30
0.0
 40
0.72
  1

  0
TEXT
  8
DIM
 10
1240.328707
 20
516.349285
 30
0.0
 40
0.72
  1

  0
TEXT
  8
DIM
 10
1090.867406
 20
300.685211
 30
0.0
 40
1.25
  1

  0
TEXT
  8
DIM
 10
1091.929906
 20
296.591452
 30
0.0
 40
1.0
  1

  0
TEXT
  8
OBJECT
 10
1092.78665
 20
347.28811
 30
0.0
 40
1.25
  1

  0
TEXT
  8
DIM
 10
1295.867406
 20
300.685211
 30
0.0
 40
1.25
  1

  0
TEXT
  8
DIM
 10
1296.929906
 20
296.591452
 30
0.0
 40
1.0
  1

  0
TEXT
  8
DIM
 10
1459.867406
 20
300.685211
 30
0.0
 40
1.25
  1

  0
TEXT
  8
DIM
 10
1460.929906
 20
296.591452
 30
0.0
 40
1.0
  1

  0
TEXT
  8
OBJECT
 10
1461.78665
 20
347.28811
 30
0.0
 40
1.25
  1

  0
TEXT
  8
DIM
 10
1459.867406
 20
300.685211
 30
0.0
 40
1.25
  1

  0
TEXT
  8
DIM
 10
1460.929906
 20
296.591452
 30
0.0
 40
1.0
  1

  0
TEXT
  8
OBJECT
 10
1461.78665
 20
347.28811
 30
0.0
 40
1.25
  1

  0
TEXT
  8
DIM
 10
1477.834784
 20
485.609587
 30
0.0
 40
0.72
  1

  0
TEXT
  8
DIM
 10
1414.298907
 20
462.734322
 30
0.0
 40
0.72
  1

  0
TEXT
  8
DIM
 10
1565.211228
 20
413.612584
 30
0.0
 40
0.72
  1

  0
TEXT
  8
DIM
 10
1501.675351
 20
390.737319
 30
0.0
 40
0.72
  1

  0
TEXT
  8
DIM
 10
1467.864584
 20
499.22455
 30
0.0
 40
0.72
  1

  0
TEXT
  8
DIM
 10
1404.328707
 20
476.349285
 30
0.0
 40
0.72
  1

  0
TEXT
  8
DIM
 10
1404.328707
 20
516.349285
 30
0.0
 40
0.72
  1

  0
TEXT
  8
DIM
 10
1465.828707
 20
516.349285
 30
0.0
 40
0.72
  1

  0
TEXT
  8
DIM
 10
1254.867406
 20
300.685211
 30
0.0
 40
1.25
  1

  0
TEXT
  8
DIM
 10
1255.929906
 20
296.591452
 30
0.0
 40
1.0
  1

  0
TEXT
  8
OBJECT
 10
1256.78665
 20
347.28811
 30
0.0
 40
1.25
  1

  0
TEXT
  8
DIM
 10
1459.867406
 20
300.685211
 30
0.0
 40
1.25
  1

  0
TEXT
  8
DIM
 10
1460.929906
 20
296.591452
 30
0.0
 40
1.0
  1

  0
TEXT
  8
OBJECT
 10
1461.78665
 20
347.28811
 30
0.0
 40
1.25
  1

  0
TEXT
  8
DIM
 10
1664.867406
 20
300.685211
 30
0.0
 40
1.25
  1

  0
TEXT
  8
DIM
 10
1665.929906
 20
296.591452
 30
0.0
 40
1.0
  1

  0
TEXT
  8
DIM
 10
1828.867406
 20
300.685211
 30
0.0
 40
1.25
  1

  0
TEXT
  8
DIM
 10
1829.929906
 20
296.591452
 30
0.0
 40
1.0
  1

  0
TEXT
  8
OBJECT
 10
1830.78665
 20
347.28811
 30
0.0
 40
1.25
  1

  0
TEXT
  8
DIM
 10
1828.867406
 20
300.685211
 30
0.0
 40
1.25
  1

  0
TEXT
  8
DIM
 10
1829.929906
 20
296.591452
 30
0.0
 40
1.0
  1

  0
TEXT
  8
OBJECT
 10
1830.78665
 20
347.28811
 30
0.0
 40
1.25
  1

  0
TEXT
  8
DIM
 10
1846.834784
 20
485.609587
 30
0.0
 40
0.72
  1

  0
TEXT
  8
DIM
 10
1783.298907
 20
462.734322
 30
0.0
 40
0.72
  1

  0
TEXT
  8
DIM
 10
1934.211228
 20
413.612584
 30
0.0
 40
0.72
  1

  0
TEXT
  8
DIM
 10
1870.675351
 20
390.737319
 30
0.0
 40
0.72
  1

  0
TEXT
  8
DIM
 10
1836.864584
 20
499.22455
 30
0.0
 40
0.72
  1

  0
TEXT
  8
DIM
 10
1773.328707
 20
476.349285
 30
0.0
 40
0.72
  1

  0
TEXT
  8
DIM
 10
1773.328707
 20
516.349285
 30
0.0
 40
0.72
  1

  0
TEXT
  8
DIM
 10
1834.828707
 20
516.349285
 30
0.0
 40
0.72
  1

  0
TEXT
  8
DIM
 10
1459.867406
 20
300.685211
 30
0.0
 40
1.25
  1

  0
TEXT
  8
DIM
 10
1460.929906
 20
296.591452
 30
0.0
 40
1.0
  1

  0
TEXT
  8
OBJECT
 10
1461.78665
 20
347.28811
 30
0.0
 40
1.25
  1

  0
TEXT
  8
DIM
 10
1664.867406
 20
300.685211
 30
0.0
 40
1.25
  1

  0
TEXT
  8
DIM
 10
1665.929906
 20
296.591452
 30
0.0
 40
1.0
  1

  0
TEXT
  8
DIM
 10
1828.867406
 20
300.685211
 30
0.0
 40
1.25
  1

  0
TEXT
  8
DIM
 10
1829.929906
 20
296.591452
 30
0.0
 40
1.0
  1

  0
TEXT
  8
OBJECT
 10
1830.78665
 20
347.28811
 30
0.0
 40
1.25
  1

  0
TEXT
  8
DIM
 10
1828.867406
 20
300.685211
 30
0.0
 40
1.25
  1

  0
TEXT
  8
DIM
 10
1829.929906
 20
296.591452
 30
0.0
 40
1.0
  1

  0
TEXT
  8
OBJECT
 10
1830.78665
 20
347.28811
 30
0.0
 40
1.25
  1

  0
TEXT
  8
DIM
 10
1846.834784
 20
485.609587
 30
0.0
 40
0.72
  1

  0
TEXT
  8
DIM
 10
1783.298907
 20
462.734322
 30
0.0
 40
0.72
  1

  0
TEXT
  8
DIM
 10
1934.211228
 20
413.612584
 30
0.0
 40
0.72
  1

  0
TEXT
  8
DIM
 10
1870.675351
 20
390.737319
 30
0.0
 40
0.72
  1

  0
TEXT
  8
DIM
 10
1836.864584
 20
499.22455
 30
0.0
 40
0.72
  1

  0
TEXT
  8
DIM
 10
1773.328707
 20
476.349285
 30
0.0
 40
0.72
  1

  0
TEXT
  8
DIM
 10
1773.328707
 20
516.349285
 30
0.0
 40
0.72
  1

  0
TEXT
  8
DIM
 10
1834.828707
 20
516.349285
 30
0.0
 40
0.72
  1

  0
TEXT
  8
DIM
 10
1439.367406
 20
300.685211
 30
0.0
 40
1.25
  1

  0
TEXT
  8
DIM
 10
1440.429906
 20
296.591452
 30
0.0
 40
1.0
  1

  0
TEXT
  8
DIM
 10
1603.367406
 20
300.685211
 30
0.0
 40
1.25
  1

  0
TEXT
  8
DIM
 10
1604.429906
 20
296.591452
 30
0.0
 40
1.0
  1

  0
TEXT
  8
OBJECT
 10
1605.28665
 20
347.28811
 30
0.0
 40
1.25
  1

  0
TEXT
  8
DIM
 10
1603.367406
 20
300.685211
 30
0.0
 40
1.25
  1

  0
TEXT
  8
DIM
 10
1604.429906
 20
296.591452
 30
0.0
 40
1.0
  1

  0
TEXT
  8
OBJECT
 10
1605.28665
 20
347.28811
 30
0.0
 40
1.25
  1

  0
TEXT
  8
DIM
 10
1621.334784
 20
485.609587
 30
0.0
 40
0.72
  1

  0
TEXT
  8
DIM
 10
1557.798907
 20
462.734322
 30
0.0
 40
0.72
  1

  0
TEXT
  8
DIM
 10
1708.711228
 20
413.612584
 30
0.0
 40
0.72
  1

  0
TEXT
  8
DIM
 10
1645.175351
 20
390.737319
 30
0.0
 40
0.72
  1

  0
TEXT
  8
DIM
 10
1611.364584
 20
499.22455
 30
0.0
 40
0.72
  1

  0
TEXT
  8
DIM
 10
1547.828707
 20
476.349285
 30
0.0
 40
0.72
  1

  0
TEXT
  8
DIM
 10
1547.828707
 20
516.349285
 30
0.0
 40
0.72
  1

  0
TEXT
  8
DIM
 10
1609.328707
 20
516.349285
 30
0.0
 40
0.72
  1

  0
TEXT
  8
DIM
 10
1254.867406
 20
300.685211
 30
0.0
 40
1.25
  1

  0
TEXT
  8
DIM
 10
1255.929906
 20
296.591452
 30
0.0
 40
1.0
  1

  0
TEXT
  8
OBJECT
 10
1256.78665
 20
347.28811
 30
0.0
 40
1.25
  1

  0
TEXT
  8
DIM
 10
1091.064485
 20
460.398533
 30
0.0
 40
1.25
  1

  0
TEXT
  8
DIM
 10
1092.126985
 20
456.304774
 30
0.0
 40
1.0
  1

  0
TEXT
  8
OBJECT
 10
1092.983729
 20
507.001432
 30
0.0
 40
1.25
  1

  0
TEXT
  8
DIM
 10
906.367406
 20
444.685211
 30
0.0
 40
1.25
  1

  0
TEXT
  8
DIM
 10
907.429906
 20
440.591452
 30
0.0
 40
1.0
  1

  0
TEXT
  8
OBJECT
 10
908.28665
 20
491.28811
 30
0.0
 40
1.25
  1

  0
TEXT
  8
DIM
 10
906.367406
 20
300.685211
 30
0.0
 40
1.25
  1

  0
TEXT
  8
DIM
 10
907.429906
 20
296.591452
 30
0.0
 40
1.0
  1

  0
TEXT
  8
OBJECT
 10
908.28665
 20
347.28811
 30
0.0
 40
1.25
  1

  0
TEXT
  8
DIM
 10
701.367406
 20
300.685211
 30
0.0
 40
1.25
  1

  0
TEXT
  8
DIM
 10
702.429906
 20
296.591452
 30
0.0
 40
1.0
  1

  0
TEXT
  8
OBJECT
 10
703.28665
 20
347.28811
 30
0.0
 40
1.25
  1

  0
TEXT
  8
DIM
 10
475.867406
 20
300.685211
 30
0.0
 40
1.25
  1

  0
TEXT
  8
DIM
 10
476.929906
 20
296.591452
 30
0.0
 40
1.0
  1

  0
TEXT
  8
OBJECT
 10
477.78665
 20
347.28811
 30
0.0
 40
1.25
  1

  0
LINE
  8
CENTER
 10
50.234989
 20
83.059125
 30
0.0
 11
50.234989
 21
82.719125
 31
0.0
  0
LINE
  8
CENTER
 10
35.609989
 20
83.401625
 30
0.0
 11
35.609989
 21
83.126625
 31
0.0
  0
LINE
  8
CENTER
 10
59.609989
 20
83.059125
 30
0.0
 11
59.609989
 21
82.719125
 31
0.0
  0
LINE
  8
CENTER
 10
44.609989
 20
83.401625
 30
0.0
 11
44.609989
 21
83.126625
 31
0.0
  0
LINE
  8
CENTER
 10
68.984989
 20
83.059125
 30
0.0
 11
68.984989
 21
82.719125
 31
0.0
  0
LINE
  8
SHELF
 10
49.609989
 20
92.155125
 30
0.0
 11
69.609989
 21
92.155125
 31
0.0
  0
LINE
  8
CENTER
 10
35.609989
 20
90.830625
 30
0.0
 11
35.609989
 21
91.105625
 31
0.0
  0
LINE
  8
CENTER
 10
50.234989
 20
91.173125
 30
0.0
 11
50.234989
 21
91.513125
 31
0.0
  0
LINE
  8
CENTER
 10
44.609989
 20
90.830625
 30
0.0
 11
44.609989
 21
91.105625
 31
0.0
  0
LINE
  8
CENTER
 10
59.609989
 20
91.173125
 30
0.0
 11
59.609989
 21
91.513125
 31
0.0
  0
LINE
  8
HIDDEN
 10
49.609989
 20
91.281125
 30
0.0
 11
69.609989
 21
91.281125
 31
0.0
  0
LINE
  8
HIDDEN
 10
49.609989
 20
82.951125
 30
0.0
 11
69.609989
 21
82.951125
 31
0.0
  0
DIMENSION
  8
DIM
  2
*D4
 10
49.609989
 20
73.319822
 30
0.0
 11
42.109989
 21
73.319822
 31
0.0
 12
2.421702
 22
55.795228
 32
0.0
  1
<> SLIDE TRAVEL
 13
34.609989
 23
76.538328
 33
0.0
 14
49.609989
 24
76.343409
 34
0.0
  3
23NSTDI
  0
DIMENSION
  8
DIM
  2
*D5
 10
49.609989
 20
73.319822
 30
0.0
 11
59.609989
 21
73.319822
 31
0.0
 12
2.421702
 22
55.795228
 32
0.0
  1
<> SLIDE
 13
69.609989
 23
76.343409
 33
0.0
 14
49.609989
 24
76.343409
 34
0.0
  3
23NSTD
  0
LINE
  8
CENTER
 10
68.984989
 20
91.173125
 30
0.0
 11
68.984989
 21
91.513125
 31
0.0
  0
LINE
  8
SLIDE-SHELF
  6
HIDDEN
 10
34.421989
 20
83.014125
 30
0.0
 11
34.421989
 21
91.218125
 31
0.0
  0
LINE
  8
SHELF
  6
HIDDEN
 10
49.343989
 20
100.640125
 30
0.0
 11
49.343989
 21
82.920125
 31
0.0
  0
LINE
  8
SHELF
 10
49.359489
 20
82.889125
 30
0.0
 11
71.954489
 21
82.889125
 31
0.0
  0
LINE
  8
SHELF
  6
HIDDEN
 10
71.969989
 20
82.920125
 30
0.0
 11
71.969989
 21
100.640125
 31
0.0
  0
LINE
  8
SHELF
 10
71.954489
 20
100.671125
 30
0.0
 11
49.359489
 21
100.671125
 31
0.0
  0
POLYLINE
  8
HANDLE
  6
HIDDEN2
 66
     1
 10
0.0
 20
0.0
 30
0.0
  0
VERTEX
  8
HANDLE
  6
HIDDEN2
 10
34.359989
 20
89.679125
 30
0.0
  0
VERTEX
  8
HANDLE
  6
HIDDEN2
 10
34.916989
 20
89.679125
 30
0.0
 42
-0.414214
  0
VERTEX
  8
HANDLE
  6
HIDDEN2
 10
35.009989
 20
89.586125
 30
0.0
  0
VERTEX
  8
HANDLE
  6
HIDDEN2
 10
35.009989
 20
84.646125
 30
0.0
 42
-0.414214
  0
VERTEX
  8
HANDLE
  6
HIDDEN2
 10
34.916989
 20
84.553125
 30
0.0
  0
VERTEX
  8
HANDLE
  6
HIDDEN2
 10
34.359989
 20
84.553125
 30
0.0
  0
SEQEND
  8
HANDLE
  6
HIDDEN2
  0
POLYLINE
  8
HANDLE
 66
     1
 10
0.0
 20
0.0
 30
0.0
 70
     1
  0
VERTEX
  8
HANDLE
 10
34.359989
 20
89.816125
 30
0.0
  0
VERTEX
  8
HANDLE
 10
34.312989
 20
89.816125
 30
0.0
 42
0.414214
  0
VERTEX
  8
HANDLE
 10
34.281989
 20
89.785125
 30
0.0
  0
VERTEX
  8
HANDLE
 10
34.281989
 20
84.447125
 30
0.0
 42
0.414214
  0
VERTEX
  8
HANDLE
 10
34.312989
 20
84.416125
 30
0.0
  0
VERTEX
  8
HANDLE
 10
34.359989
 20
84.416125
 30
0.0
  0
SEQEND
  8
HANDLE
  0
POLYLINE
  8
HANDLE
  6
HIDDEN2
 66
     1
 10
0.0
 20
0.0
 30
0.0
  0
VERTEX
  8
HANDLE
  6
HIDDEN2
 10
34.359989
 20
89.616125
 30
0.0
  0
VERTEX
  8
HANDLE
  6
HIDDEN2
 10
34.939989
 20
89.616125
 30
0.0
  0
VERTEX
  8
HANDLE
  6
HIDDEN2
 10
34.939989
 20
84.616125
 30
0.0
  0
VERTEX
  8
HANDLE
  6
HIDDEN2
 10
34.359989
 20
84.616125
 30
0.0
  0
SEQEND
  8
HANDLE
  6
HIDDEN2
  0
POLYLINE
  8
HANDLE
  6
HIDDEN2
 66
     1
 10
0.0
 20
0.0
 30
0.0
 70
     1
  0
VERTEX
  8
HANDLE
  6
HIDDEN2
 10
34.429989
 20
86.085125
 30
0.0
  0
VERTEX
  8
HANDLE
  6
HIDDEN2
 10
34.429989
 20
86.147125
 30
0.0
  0
VERTEX
  8
HANDLE
  6
HIDDEN2
 10
34.582994
 20
86.147125
 30
0.0
  0
VERTEX
  8
HANDLE
  6
HIDDEN2
 10
34.582994
 20
86.085125
 30
0.0
  0
SEQEND
  8
HANDLE
  6
HIDDEN2
  0
POLYLINE
  8
HANDLE
  6
HIDDEN2
 66
     1
 10
0.0
 20
0.0
 30
0.0
 70
     1
  0
VERTEX
  8
HANDLE
  6
HIDDEN2
 10
34.429989
 20
85.085125
 30
0.0
  0
VERTEX
  8
HANDLE
  6
HIDDEN2
 10
34.429989
 20
85.147125
 30
0.0
  0
VERTEX
  8
HANDLE
  6
HIDDEN2
 10
34.582994
 20
85.147125
 30
0.0
  0
VERTEX
  8
HANDLE
  6
HIDDEN2
 10
34.582994
 20
85.085125
 30
0.0
  0
SEQEND
  8
HANDLE
  6
HIDDEN2
  0
POLYLINE
  8
HANDLE
  6
HIDDEN2
 66
     1
 10
0.0
 20
0.0
 30
0.0
 70
     1
  0
VERTEX
  8
HANDLE
  6
HIDDEN2
 10
34.429989
 20
87.085125
 30
0.0
  0
VERTEX
  8
HANDLE
  6
HIDDEN2
 10
34.429989
 20
87.147125
 30
0.0
  0
VERTEX
  8
HANDLE
  6
HIDDEN2
 10
34.582994
 20
87.147125
 30
0.0
  0
VERTEX
  8
HANDLE
  6
HIDDEN2
 10
34.582994
 20
87.085125
 30
0.0
  0
SEQEND
  8
HANDLE
  6
HIDDEN2
  0
POLYLINE
  8
HANDLE
  6
HIDDEN2
 66
     1
 10
0.0
 20
0.0
 30
0.0
 70
     1
  0
VERTEX
  8
HANDLE
  6
HIDDEN2
 10
34.429989
 20
89.085125
 30
0.0
  0
VERTEX
  8
HANDLE
  6
HIDDEN2
 10
34.429989
 20
89.147125
 30
0.0
  0
VERTEX
  8
HANDLE
  6
HIDDEN2
 10
34.582994
 20
89.147125
 30
0.0
  0
VERTEX
  8
HANDLE
  6
HIDDEN2
 10
34.582994
 20
89.085125
 30
0.0
  0
SEQEND
  8
HANDLE
  6
HIDDEN2
  0
POLYLINE
  8
HANDLE
  6
HIDDEN2
 66
     1
 10
0.0
 20
0.0
 30
0.0
 70
     1
  0
VERTEX
  8
HANDLE
  6
HIDDEN2
 10
34.429989
 20
88.085125
 30
0.0
  0
VERTEX
  8
HANDLE
  6
HIDDEN2
 10
34.429989
 20
88.147125
 30
0.0
  0
VERTEX
  8
HANDLE
  6
HIDDEN2
 10
34.582994
 20
88.147125
 30
0.0
  0
VERTEX
  8
HANDLE
  6
HIDDEN2
 10
34.582994
 20
88.085125
 30
0.0
  0
SEQEND
  8
HANDLE
  6
HIDDEN2
  0
LINE
  8
CENTER
 10
53.609989
 20
90.830625
 30
0.0
 11
53.609989
 21
91.105625
 31
0.0
  0
LINE
  8
CENTER
 10
53.609989
 20
83.401625
 30
0.0
 11
53.609989
 21
83.126625
 31
0.0
  0
DIMENSION
  8
DIM
  2
*D11
 10
72.032489
 20
113.319815
 30
0.0
 11
60.657489
 21
113.319815
 31
0.0
 13
49.282489
 23
109.423093
 33
0.0
 14
72.032489
 24
109.423093
 34
0.0
  3
23NSTD
  0
DIMENSION
  8
DIM
  2
*D9
 10
73.835168
 20
109.423093
 30
0.0
 11
77.432668
 21
112.303093
 31
0.0
 12
2.421702
 22
55.795228
 32
0.0
 13
71.954989
 23
108.658095
 33
0.0
 14
72.032489
 24
109.423093
 34
0.0
 50
270.0
  3
23NSTD
  0
POLYLINE
  8
SLIDE-SHELF
  6
HIDDEN
 66
     1
 10
0.0
 20
0.0
 30
0.0
  0
VERTEX
  8
SLIDE-SHELF
  6
HIDDEN
 10
54.359989
 20
83.326125
 30
0.0
  0
VERTEX
  8
SLIDE-SHELF
  6
HIDDEN
 10
34.609989
 20
83.326125
 30
0.0
  0
VERTEX
  8
SLIDE-SHELF
  6
HIDDEN
 10
34.609989
 20
82.952125
 30
0.0
  0
SEQEND
  8
SLIDE-SHELF
  6
HIDDEN
  0
POLYLINE
  8
SLIDE-SHELF
  6
HIDDEN
 66
     1
 10
0.0
 20
0.0
 30
0.0
  0
VERTEX
  8
SLIDE-SHELF
  6
HIDDEN
 10
54.359989
 20
90.906125
 30
0.0
  0
VERTEX
  8
SLIDE-SHELF
  6
HIDDEN
 10
34.609989
 20
90.906125
 30
0.0
  0
VERTEX
  8
SLIDE-SHELF
  6
HIDDEN
 10
34.609989
 20
91.280125
 30
0.0
  0
SEQEND
  8
SLIDE-SHELF
  6
HIDDEN
  0
LINE
  8
SLIDE-SHELF
  6
HIDDEN
 10
34.687989
 20
83.014125
 30
0.0
 11
54.359989
 21
83.014125
 31
0.0
  0
LINE
  8
SLIDE-SHELF
  6
HIDDEN
 10
54.359989
 20
91.218125
 30
0.0
 11
34.687989
 21
91.218125
 31
0.0
  0
POLYLINE
  8
SLIDE-SHELF
 66
     1
 10
0.0
 20
0.0
 30
0.0
  0
VERTEX
  8
SLIDE-SHELF
 10
54.359989
 20
82.952125
 30
0.0
  0
VERTEX
  8
SLIDE-SHELF
 10
54.359989
 20
91.280125
 30
0.0
  0
VERTEX
  8
SLIDE-SHELF
 10
34.609989
 20
91.280125
 30
0.0
  0
VERTEX
  8
SLIDE-SHELF
 10
34.609989
 20
91.218125
 30
0.0
  0
VERTEX
  8
SLIDE-SHELF
 10
34.359989
 20
91.218125
 30
0.0
  0
VERTEX
  8
SLIDE-SHELF
 10
34.359989
 20
83.014125
 30
0.0
  0
VERTEX
  8
SLIDE-SHELF
 10
34.609989
 20
83.014125
 30
0.0
  0
VERTEX
  8
SLIDE-SHELF
 10
34.609989
 20
82.952125
 30
0.0
  0
VERTEX
  8
SLIDE-SHELF
 10
54.359989
 20
82.952125
 30
0.0
  0
SEQEND
  8
SLIDE-SHELF
  0
POLYLINE
  8
HIDDEN
 66
     1
 10
0.0
 20
0.0
 30
0.0
  0
VERTEX
  8
HIDDEN
 10
34.609989
 20
91.243125
 30
0.0
  0
VERTEX
  8
HIDDEN
 10
54.449489
 20
91.243125
 30
0.0
  0
VERTEX
  8
HIDDEN
 10
54.449489
 20
90.968125
 30
0.0
  0
VERTEX
  8
HIDDEN
 10
34.609989
 20
90.968125
 30
0.0
  0
SEQEND
  8
HIDDEN
  0
POLYLINE
  8
HIDDEN
 66
     1
 10
0.0
 20
0.0
 30
0.0
  0
VERTEX
  8
HIDDEN
 10
34.609989
 20
82.989125
 30
0.0
  0
VERTEX
  8
HIDDEN
 10
54.449489
 20
82.989125
 30
0.0
  0
VERTEX
  8
HIDDEN
 10
54.449489
 20
83.264125
 30
0.0
  0
VERTEX
  8
HIDDEN
 10
34.609989
 20
83.264125
 30
0.0
  0
SEQEND
  8
HIDDEN
  0
LINE
  8
SLIDE-SHELF
 10
34.609989
 20
78.219409
 30
0.0
 11
49.359989
 21
78.219409
 31
0.0
  0
POLYLINE
  8
HANDLE
  6
HIDDEN2
 66
     1
 10
0.0
 20
0.0
 30
0.0
  0
VERTEX
  8
HANDLE
  6
HIDDEN2
 10
34.359989
 20
76.744414
 30
0.0
  0
VERTEX
  8
HANDLE
  6
HIDDEN2
 10
35.009989
 20
77.394414
 30
0.0
  0
VERTEX
  8
HANDLE
  6
HIDDEN2
 10
35.009989
 20
77.984142
 30
0.0
 42
0.668179
  0
VERTEX
  8
HANDLE
  6
HIDDEN2
 10
34.606822
 20
78.151139
 30
0.0
  0
VERTEX
  8
HANDLE
  6
HIDDEN2
 10
34.437033
 20
77.948505
 30
0.0
  0
VERTEX
  8
HANDLE
  6
HIDDEN2
 10
34.359989
 20
77.948505
 30
0.0
  0
SEQEND
  8
HANDLE
  6
HIDDEN2
  0
POLYLINE
  8
HANDLE
 66
     1
 10
0.0
 20
0.0
 30
0.0
 70
     1
  0
VERTEX
  8
HANDLE
 10
34.359989
 20
76.643409
 30
0.0
  0
VERTEX
  8
HANDLE
 10
34.312989
 20
76.643409
 30
0.0
 42
-0.414214
  0
VERTEX
  8
HANDLE
 10
34.281989
 20
76.674409
 30
0.0
  0
VERTEX
  8
HANDLE
 10
34.281989
 20
78.012409
 30
0.0
 42
-0.414214
  0
VERTEX
  8
HANDLE
 10
34.312989
 20
78.043409
 30
0.0
  0
VERTEX
  8
HANDLE
 10
34.359989
 20
78.043409
 30
0.0
  0
SEQEND
  8
HANDLE
  0
POLYLINE
  8
HANDLE
  6
HIDDEN2
 66
     1
 10
0.0
 20
0.0
 30
0.0
  0
VERTEX
  8
HANDLE
  6
HIDDEN2
 10
34.586857
 20
78.127312
 30
0.0
  0
VERTEX
  8
HANDLE
  6
HIDDEN2
 10
34.484
 20
78.127312
 30
0.0
  0
VERTEX
  8
HANDLE
  6
HIDDEN2
 10
34.429989
 20
78.073302
 30
0.0
  0
VERTEX
  8
HANDLE
  6
HIDDEN2
 10
34.429989
 20
77.948505
 30
0.0
  0
SEQEND
  8
HANDLE
  6
HIDDEN2
  0
POLYLINE
  8
HANDLE
  6
HIDDEN2
 66
     1
 10
0.0
 20
0.0
 30
0.0
  0
VERTEX
  8
HANDLE
  6
HIDDEN2
 10
34.359989
 20
76.738505
 30
0.0
  0
VERTEX
  8
HANDLE
  6
HIDDEN2
 10
34.429989
 20
76.738505
 30
0.0
  0
VERTEX
  8
HANDLE
  6
HIDDEN2
 10
34.429989
 20
76.713885
 30
0.0
  0
VERTEX
  8
HANDLE
  6
HIDDEN2
 10
34.454588
 20
76.700312
 30
0.0
  0
VERTEX
  8
HANDLE
  6
HIDDEN2
 10
34.957849
 20
76.895843
 30
0.0
  0
VERTEX
  8
HANDLE
  6
HIDDEN2
 10
34.957849
 20
77.342274
 30
0.0
  0
SEQEND
  8
HANDLE
  6
HIDDEN2
  0
POLYLINE
  8
HANDLE
  6
HIDDEN2
 66
     1
 10
0.0
 20
0.0
 30
0.0
  0
VERTEX
  8
HANDLE
  6
HIDDEN2
 10
34.359989
 20
77.843505
 30
0.0
  0
VERTEX
  8
HANDLE
  6
HIDDEN2
 10
34.436701
 20
77.843505
 30
0.0
  0
VERTEX
  8
HANDLE
  6
HIDDEN2
 10
34.656319
 20
78.101642
 30
0.0
 42
-0.668179
  0
VERTEX
  8
HANDLE
  6
HIDDEN2
 10
34.939989
 20
77.984142
 30
0.0
  0
VERTEX
  8
HANDLE
  6
HIDDEN2
 10
34.939989
 20
77.423409
 30
0.0
  0
VERTEX
  8
HANDLE
  6
HIDDEN2
 10
34.359989
 20
76.843409
 30
0.0
  0
SEQEND
  8
HANDLE
  6
HIDDEN2
  0
CIRCLE
  8
SLIDE-SHELF
 10
44.609989
 20
77.038409
 30
0.0
 40
0.082
  0
CIRCLE
  8
SLIDE-SHELF
 10
35.609989
 20
77.038409
 30
0.0
 40
0.082
  0
LINE
  8
SLIDE-SHELF
  6
HIDDEN
 10
34.687989
 20
78.281409
 30
0.0
 11
54.359989
 21
78.281409
 31
0.0
  0
POLYLINE
  8
SHELF
 66
     1
 10
0.0
 20
0.0
 30
0.0
 70
     1
  0
VERTEX
  8
SHELF
 10
69.609989
 20
92.217125
 30
0.0
  0
VERTEX
  8
SHELF
 10
69.609989
 20
91.343125
 30
0.0
  0
VERTEX
  8
SHELF
 10
49.609989
 20
91.343125
 30
0.0
  0
VERTEX
  8
SHELF
 10
49.609989
 20
92.217125
 30
0.0
  0
SEQEND
  8
SHELF
  0
POLYLINE
  8
OBJECT
 66
     1
 10
0.0
 20
0.0
 30
0.0
  0
VERTEX
  8
OBJECT
 10
49.609989
 20
82.889125
 30
0.0
  0
VERTEX
  8
OBJECT
 10
49.609989
 20
83.229125
 30
0.0
  0
VERTEX
  8
OBJECT
 10
69.609989
 20
83.229125
 30
0.0
  0
VERTEX
  8
OBJECT
 10
69.609989
 20
82.889125
 30
0.0
  0
SEQEND
  8
OBJECT
  0
POLYLINE
  8
OBJECT
 66
     1
 10
0.0
 20
0.0
 30
0.0
  0
VERTEX
  8
OBJECT
 10
69.609989
 20
91.343125
 30
0.0
  0
VERTEX
  8
OBJECT
 10
69.609989
 20
91.003125
 30
0.0
  0
VERTEX
  8
OBJECT
 10
49.609989
 20
91.003125
 30
0.0
  0
VERTEX
  8
OBJECT
 10
49.609989
 20
91.343125
 30
0.0
  0
SEQEND
  8
OBJECT
  0
POLYLINE
  8
HIDDEN
 66
     1
 10
0.0
 20
0.0
 30
0.0
  0
VERTEX
  8
HIDDEN
 10
49.609989
 20
100.671125
 30
0.0
  0
VERTEX
  8
HIDDEN
 10
49.609989
 20
100.331125
 30
0.0
  0
VERTEX
  8
HIDDEN
 10
69.609989
 20
100.331125
 30
0.0
  0
VERTEX
  8
HIDDEN
 10
69.609989
 20
100.671125
 30
0.0
  0
SEQEND
  8
HIDDEN
  0
LINE
  8
HIDDEN
 10
49.609989
 20
100.609125
 30
0.0
 11
69.609989
 21
100.609125
 31
0.0
  0
LINE
  8
CENTER
 10
50.234989
 20
100.501125
 30
0.0
 11
50.234989
 21
100.841125
 31
0.0
  0
LINE
  8
CENTER
 10
59.609989
 20
100.501125
 30
0.0
 11
59.609989
 21
100.841125
 31
0.0
  0
LINE
  8
CENTER
 10
68.984989
 20
100.501125
 30
0.0
 11
68.984989
 21
100.841125
 31
0.0
  0
LINE
  8
HIDDEN
 10
49.609989
 20
92.279125
 30
0.0
 11
69.609989
 21
92.279125
 31
0.0
  0
POLYLINE
  8
HIDDEN
 66
     1
 10
0.0
 20
0.0
 30
0.0
  0
VERTEX
  8
HIDDEN
 10
69.609989
 20
92.217125
 30
0.0
  0
VERTEX
  8
HIDDEN
 10
69.609989
 20
92.557125
 30
0.0
  0
VERTEX
  8
HIDDEN
 10
49.609989
 20
92.557125
 30
0.0
  0
VERTEX
  8
HIDDEN
 10
49.609989
 20
92.217125
 30
0.0
  0
SEQEND
  8
HIDDEN
  0
POLYLINE
  8
SLIDE-SHELF
 66
     1
 10
0.0
 20
0.0
 30
0.0
  0
VERTEX
  8
SLIDE-SHELF
 10
69.359989
 20
92.280125
 30
0.0
  0
VERTEX
  8
SLIDE-SHELF
 10
69.359989
 20
100.608125
 30
0.0
  0
VERTEX
  8
SLIDE-SHELF
 10
49.609989
 20
100.608125
 30
0.0
  0
VERTEX
  8
SLIDE-SHELF
 10
49.609989
 20
100.546125
 30
0.0
  0
VERTEX
  8
SLIDE-SHELF
 10
49.359989
 20
100.546125
 30
0.0
  0
VERTEX
  8
SLIDE-SHELF
 10
49.359989
 20
92.342125
 30
0.0
  0
VERTEX
  8
SLIDE-SHELF
 10
49.609989
 20
92.342125
 30
0.0
  0
VERTEX
  8
SLIDE-SHELF
 10
49.609989
 20
92.280125
 30
0.0
  0
VERTEX
  8
SLIDE-SHELF
 10
69.359989
 20
92.280125
 30
0.0
  0
SEQEND
  8
SLIDE-SHELF
  0
POLYLINE
  8
HANDLE
  6
HIDDEN2
 66
     1
 10
0.0
 20
0.0
 30
0.0
  0
VERTEX
  8
HANDLE
  6
HIDDEN2
 10
49.359989
 20
98.944125
 30
0.0
  0
VERTEX
  8
HANDLE
  6
HIDDEN2
 10
49.939989
 20
98.944125
 30
0.0
  0
VERTEX
  8
HANDLE
  6
HIDDEN2
 10
49.939989
 20
93.944125
 30
0.0
  0
VERTEX
  8
HANDLE
  6
HIDDEN2
 10
49.359989
 20
93.944125
 30
0.0
  0
SEQEND
  8
HANDLE
  6
HIDDEN2
  0
POLYLINE
  8
HANDLE
  6
HIDDEN2
 66
     1
 10
0.0
 20
0.0
 30
0.0
  0
VERTEX
  8
HANDLE
  6
HIDDEN2
 10
49.359989
 20
99.007125
 30
0.0
  0
VERTEX
  8
HANDLE
  6
HIDDEN2
 10
49.916989
 20
99.007125
 30
0.0
 42
-0.414214
  0
VERTEX
  8
HANDLE
  6
HIDDEN2
 10
50.009989
 20
98.914125
 30
0.0
  0
VERTEX
  8
HANDLE
  6
HIDDEN2
 10
50.009989
 20
93.974125
 30
0.0
 42
-0.414214
  0
VERTEX
  8
HANDLE
  6
HIDDEN2
 10
49.916989
 20
93.881125
 30
0.0
  0
VERTEX
  8
HANDLE
  6
HIDDEN2
 10
49.359989
 20
93.881125
 30
0.0
  0
SEQEND
  8
HANDLE
  6
HIDDEN2
  0
POLYLINE
  8
HANDLE
 66
     1
 10
0.0
 20
0.0
 30
0.0
 70
     1
  0
VERTEX
  8
HANDLE
 10
49.359989
 20
99.144125
 30
0.0
  0
VERTEX
  8
HANDLE
 10
49.312989
 20
99.144125
 30
0.0
 42
0.414214
  0
VERTEX
  8
HANDLE
 10
49.281989
 20
99.113125
 30
0.0
  0
VERTEX
  8
HANDLE
 10
49.281989
 20
93.775125
 30
0.0
 42
0.414214
  0
VERTEX
  8
HANDLE
 10
49.312989
 20
93.744125
 30
0.0
  0
VERTEX
  8
HANDLE
 10
49.359989
 20
93.744125
 30
0.0
  0
SEQEND
  8
HANDLE
  0
LINE
  8
SLIDE-SHELF
  6
HIDDEN
 10
49.421989
 20
92.342125
 30
0.0
 11
49.421989
 21
100.546125
 31
0.0
  0
POLYLINE
  8
HANDLE
  6
HIDDEN2
 66
     1
 10
0.0
 20
0.0
 30
0.0
 70
     1
  0
VERTEX
  8
HANDLE
  6
HIDDEN2
 10
49.429989
 20
94.413125
 30
0.0
  0
VERTEX
  8
HANDLE
  6
HIDDEN2
 10
49.429989
 20
94.475125
 30
0.0
  0
VERTEX
  8
HANDLE
  6
HIDDEN2
 10
49.582994
 20
94.475125
 30
0.0
  0
VERTEX
  8
HANDLE
  6
HIDDEN2
 10
49.582994
 20
94.413125
 30
0.0
  0
SEQEND
  8
HANDLE
  6
HIDDEN2
  0
POLYLINE
  8
HANDLE
  6
HIDDEN2
 66
     1
 10
0.0
 20
0.0
 30
0.0
 70
     1
  0
VERTEX
  8
HANDLE
  6
HIDDEN2
 10
49.429989
 20
95.413125
 30
0.0
  0
VERTEX
  8
HANDLE
  6
HIDDEN2
 10
49.429989
 20
95.475125
 30
0.0
  0
VERTEX
  8
HANDLE
  6
HIDDEN2
 10
49.582994
 20
95.475125
 30
0.0
  0
VERTEX
  8
HANDLE
  6
HIDDEN2
 10
49.582994
 20
95.413125
 30
0.0
  0
SEQEND
  8
HANDLE
  6
HIDDEN2
  0
POLYLINE
  8
HANDLE
  6
HIDDEN2
 66
     1
 10
0.0
 20
0.0
 30
0.0
 70
     1
  0
VERTEX
  8
HANDLE
  6
HIDDEN2
 10
49.429989
 20
96.413125
 30
0.0
  0
VERTEX
  8
HANDLE
  6
HIDDEN2
 10
49.429989
 20
96.475125
 30
0.0
  0
VERTEX
  8
HANDLE
  6
HIDDEN2
 10
49.582994
 20
96.475125
 30
0.0
  0
VERTEX
  8
HANDLE
  6
HIDDEN2
 10
49.582994
 20
96.413125
 30
0.0
  0
SEQEND
  8
HANDLE
  6
HIDDEN2
  0
POLYLINE
  8
HANDLE
  6
HIDDEN2
 66
     1
 10
0.0
 20
0.0
 30
0.0
 70
     1
  0
VERTEX
  8
HANDLE
  6
HIDDEN2
 10
49.429989
 20
97.413125
 30
0.0
  0
VERTEX
  8
HANDLE
  6
HIDDEN2
 10
49.429989
 20
97.475125
 30
0.0
  0
VERTEX
  8
HANDLE
  6
HIDDEN2
 10
49.582994
 20
97.475125
 30
0.0
  0
VERTEX
  8
HANDLE
  6
HIDDEN2
 10
49.582994
 20
97.413125
 30
0.0
  0
SEQEND
  8
HANDLE
  6
HIDDEN2
  0
POLYLINE
  8
HANDLE
  6
HIDDEN2
 66
     1
 10
0.0
 20
0.0
 30
0.0
 70
     1
  0
VERTEX
  8
HANDLE
  6
HIDDEN2
 10
49.429989
 20
98.413125
 30
0.0
  0
VERTEX
  8
HANDLE
  6
HIDDEN2
 10
49.429989
 20
98.475125
 30
0.0
  0
VERTEX
  8
HANDLE
  6
HIDDEN2
 10
49.582994
 20
98.475125
 30
0.0
  0
VERTEX
  8
HANDLE
  6
HIDDEN2
 10
49.582994
 20
98.413125
 30
0.0
  0
SEQEND
  8
HANDLE
  6
HIDDEN2
  0
POLYLINE
  8
SLIDE-SHELF
  6
HIDDEN
 66
     1
 10
0.0
 20
0.0
 30
0.0
  0
VERTEX
  8
SLIDE-SHELF
  6
HIDDEN
 10
69.359989
 20
92.654125
 30
0.0
  0
VERTEX
  8
SLIDE-SHELF
  6
HIDDEN
 10
49.609989
 20
92.654125
 30
0.0
  0
VERTEX
  8
SLIDE-SHELF
  6
HIDDEN
 10
49.609989
 20
92.280125
 30
0.0
  0
SEQEND
  8
SLIDE-SHELF
  6
HIDDEN
  0
POLYLINE
  8
SLIDE-SHELF
  6
HIDDEN
 66
     1
 10
0.0
 20
0.0
 30
0.0
  0
VERTEX
  8
SLIDE-SHELF
  6
HIDDEN
 10
69.359989
 20
100.234125
 30
0.0
  0
VERTEX
  8
SLIDE-SHELF
  6
HIDDEN
 10
49.609989
 20
100.234125
 30
0.0
  0
VERTEX
  8
SLIDE-SHELF
  6
HIDDEN
 10
49.609989
 20
100.608125
 30
0.0
  0
SEQEND
  8
SLIDE-SHELF
  6
HIDDEN
  0
LINE
  8
SLIDE-SHELF
  6
HIDDEN
 10
69.359989
 20
100.546125
 30
0.0
 11
49.687989
 21
100.546125
 31
0.0
  0
LINE
  8
SLIDE-SHELF
  6
HIDDEN
 10
49.687989
 20
92.342125
 30
0.0
 11
69.359989
 21
92.342125
 31
0.0
  0
LINE
  8
CENTER
 10
50.609989
 20
92.729625
 30
0.0
 11
50.609989
 21
92.454625
 31
0.0
  0
LINE
  8
CENTER
 10
54.609989
 20
92.729625
 30
0.0
 11
54.609989
 21
92.454625
 31
0.0
  0
LINE
  8
CENTER
 10
54.609989
 20
100.158625
 30
0.0
 11
54.609989
 21
100.433625
 31
0.0
  0
LINE
  8
CENTER
 10
50.609989
 20
100.158625
 30
0.0
 11
50.609989
 21
100.433625
 31
0.0
  0
LINE
  8
CENTER
 10
59.609989
 20
92.729625
 30
0.0
 11
59.609989
 21
92.454625
 31
0.0
  0
POLYLINE
  8
HIDDEN
 66
     1
 10
0.0
 20
0.0
 30
0.0
  0
VERTEX
  8
HIDDEN
 10
49.609989
 20
92.317125
 30
0.0
  0
VERTEX
  8
HIDDEN
 10
69.449489
 20
92.317125
 30
0.0
  0
VERTEX
  8
HIDDEN
 10
69.449489
 20
92.592125
 30
0.0
  0
VERTEX
  8
HIDDEN
 10
49.609989
 20
92.592125
 30
0.0
  0
SEQEND
  8
HIDDEN
  0
LINE
  8
CENTER
 10
59.609989
 20
100.158625
 30
0.0
 11
59.609989
 21
100.433625
 31
0.0
  0
LINE
  8
CENTER
 10
68.609989
 20
92.729625
 30
0.0
 11
68.609989
 21
92.454625
 31
0.0
  0
LINE
  8
CENTER
 10
68.609989
 20
100.158625
 30
0.0
 11
68.609989
 21
100.433625
 31
0.0
  0
POLYLINE
  8
HIDDEN
 66
     1
 10
0.0
 20
0.0
 30
0.0
  0
VERTEX
  8
HIDDEN
 10
49.609989
 20
100.571125
 30
0.0
  0
VERTEX
  8
HIDDEN
 10
69.449489
 20
100.571125
 30
0.0
  0
VERTEX
  8
HIDDEN
 10
69.449489
 20
100.296125
 30
0.0
  0
VERTEX
  8
HIDDEN
 10
49.609989
 20
100.296125
 30
0.0
  0
SEQEND
  8
HIDDEN
  0
LINE
  8
CENTER
 10
50.234989
 20
92.387125
 30
0.0
 11
50.234989
 21
92.047125
 31
0.0
  0
LINE
  8
CENTER
 10
59.609989
 20
92.387125
 30
0.0
 11
59.609989
 21
92.047125
 31
0.0
  0
LINE
  8
CENTER
 10
68.984989
 20
92.387125
 30
0.0
 11
68.984989
 21
92.047125
 31
0.0
  0
LINE
  8
SHELF
 10
49.609989
 20
91.405125
 30
0.0
 11
69.609989
 21
91.405125
 31
0.0
  0
POLYLINE
  8
OBJECT
 66
     1
 10
0.0
 20
0.0
 30
0.0
  0
VERTEX
  8
OBJECT
 10
68.828989
 20
82.827125
 30
0.0
  0
VERTEX
  8
OBJECT
 10
68.828989
 20
82.804125
 30
0.0
  0
VERTEX
  8
OBJECT
 10
68.934989
 20
82.780125
 30
0.0
  0
VERTEX
  8
OBJECT
 10
69.034989
 20
82.780125
 30
0.0
  0
VERTEX
  8
OBJECT
 10
69.140989
 20
82.804125
 30
0.0
  0
VERTEX
  8
OBJECT
 10
69.140989
 20
82.827125
 30
0.0
  0
SEQEND
  8
OBJECT
  0
POLYLINE
  8
OBJECT
 66
     1
 10
0.0
 20
0.0
 30
0.0
  0
VERTEX
  8
OBJECT
 10
68.828989
 20
91.281125
 30
0.0
  0
VERTEX
  8
OBJECT
 10
68.828989
 20
91.258125
 30
0.0
  0
VERTEX
  8
OBJECT
 10
68.934989
 20
91.234125
 30
0.0
  0
VERTEX
  8
OBJECT
 10
69.034989
 20
91.234125
 30
0.0
  0
VERTEX
  8
OBJECT
 10
69.140989
 20
91.258125
 30
0.0
  0
VERTEX
  8
OBJECT
 10
69.140989
 20
91.281125
 30
0.0
  0
SEQEND
  8
OBJECT
  0
POLYLINE
  8
OBJECT
 66
     1
 10
0.0
 20
0.0
 30
0.0
  0
VERTEX
  8
OBJECT
 10
59.453989
 20
82.827125
 30
0.0
  0
VERTEX
  8
OBJECT
 10
59.453989
 20
82.804125
 30
0.0
  0
VERTEX
  8
OBJECT
 10
59.559989
 20
82.780125
 30
0.0
  0
VERTEX
  8
OBJECT
 10
59.659989
 20
82.780125
 30
0.0
  0
VERTEX
  8
OBJECT
 10
59.765989
 20
82.804125
 30
0.0
  0
VERTEX
  8
OBJECT
 10
59.765989
 20
82.827125
 30
0.0
  0
SEQEND
  8
OBJECT
  0
POLYLINE
  8
OBJECT
 66
     1
 10
0.0
 20
0.0
 30
0.0
  0
VERTEX
  8
OBJECT
 10
59.453989
 20
91.281125
 30
0.0
  0
VERTEX
  8
OBJECT
 10
59.453989
 20
91.258125
 30
0.0
  0
VERTEX
  8
OBJECT
 10
59.559989
 20
91.234125
 30
0.0
  0
VERTEX
  8
OBJECT
 10
59.659989
 20
91.234125
 30
0.0
  0
VERTEX
  8
OBJECT
 10
59.765989
 20
91.258125
 30
0.0
  0
VERTEX
  8
OBJECT
 10
59.765989
 20
91.281125
 30
0.0
  0
SEQEND
  8
OBJECT
  0
POLYLINE
  8
OBJECT
 66
     1
 10
0.0
 20
0.0
 30
0.0
  0
VERTEX
  8
OBJECT
 10
50.078989
 20
82.827125
 30
0.0
  0
VERTEX
  8
OBJECT
 10
50.078989
 20
82.804125
 30
0.0
  0
VERTEX
  8
OBJECT
 10
50.184989
 20
82.780125
 30
0.0
  0
VERTEX
  8
OBJECT
 10
50.284989
 20
82.780125
 30
0.0
  0
VERTEX
  8
OBJECT
 10
50.390989
 20
82.804125
 30
0.0
  0
VERTEX
  8
OBJECT
 10
50.390989
 20
82.827125
 30
0.0
  0
SEQEND
  8
OBJECT
  0
POLYLINE
  8
OBJECT
 66
     1
 10
0.0
 20
0.0
 30
0.0
  0
VERTEX
  8
OBJECT
 10
50.078989
 20
91.281125
 30
0.0
  0
VERTEX
  8
OBJECT
 10
50.078989
 20
91.258125
 30
0.0
  0
VERTEX
  8
OBJECT
 10
50.184989
 20
91.234125
 30
0.0
  0
VERTEX
  8
OBJECT
 10
50.284989
 20
91.234125
 30
0.0
  0
VERTEX
  8
OBJECT
 10
50.390989
 20
91.258125
 30
0.0
  0
VERTEX
  8
OBJECT
 10
50.390989
 20
91.281125
 30
0.0
  0
SEQEND
  8
OBJECT
  0
POLYLINE
  8
OBJECT
 66
     1
 10
0.0
 20
0.0
 30
0.0
  0
VERTEX
  8
OBJECT
 10
50.078989
 20
100.733125
 30
0.0
  0
VERTEX
  8
OBJECT
 10
50.078989
 20
100.756125
 30
0.0
  0
VERTEX
  8
OBJECT
 10
50.184989
 20
100.780125
 30
0.0
  0
VERTEX
  8
OBJECT
 10
50.284989
 20
100.780125
 30
0.0
  0
VERTEX
  8
OBJECT
 10
50.390989
 20
100.756125
 30
0.0
  0
VERTEX
  8
OBJECT
 10
50.390989
 20
100.733125
 30
0.0
  0
SEQEND
  8
OBJECT
  0
POLYLINE
  8
OBJECT
 66
     1
 10
0.0
 20
0.0
 30
0.0
  0
VERTEX
  8
OBJECT
 10
59.453989
 20
100.733125
 30
0.0
  0
VERTEX
  8
OBJECT
 10
59.453989
 20
100.756125
 30
0.0
  0
VERTEX
  8
OBJECT
 10
59.559989
 20
100.780125
 30
0.0
  0
VERTEX
  8
OBJECT
 10
59.659989
 20
100.780125
 30
0.0
  0
VERTEX
  8
OBJECT
 10
59.765989
 20
100.756125
 30
0.0
  0
VERTEX
  8
OBJECT
 10
59.765989
 20
100.733125
 30
0.0
  0
SEQEND
  8
OBJECT
  0
POLYLINE
  8
OBJECT
 66
     1
 10
0.0
 20
0.0
 30
0.0
  0
VERTEX
  8
OBJECT
 10
68.828989
 20
100.733125
 30
0.0
  0
VERTEX
  8
OBJECT
 10
68.828989
 20
100.756125
 30
0.0
  0
VERTEX
  8
OBJECT
 10
68.934989
 20
100.780125
 30
0.0
  0
VERTEX
  8
OBJECT
 10
69.034989
 20
100.780125
 30
0.0
  0
VERTEX
  8
OBJECT
 10
69.140989
 20
100.756125
 30
0.0
  0
VERTEX
  8
OBJECT
 10
69.140989
 20
100.733125
 30
0.0
  0
SEQEND
  8
OBJECT
  0
POLYLINE
  8
OBJECT
 66
     1
 10
0.0
 20
0.0
 30
0.0
  0
VERTEX
  8
OBJECT
 10
59.453989
 20
92.279125
 30
0.0
  0
VERTEX
  8
OBJECT
 10
59.453989
 20
92.302125
 30
0.0
  0
VERTEX
  8
OBJECT
 10
59.559989
 20
92.326125
 30
0.0
  0
VERTEX
  8
OBJECT
 10
59.659989
 20
92.326125
 30
0.0
  0
VERTEX
  8
OBJECT
 10
59.765989
 20
92.302125
 30
0.0
  0
VERTEX
  8
OBJECT
 10
59.765989
 20
92.279125
 30
0.0
  0
SEQEND
  8
OBJECT
  0
POLYLINE
  8
OBJECT
 66
     1
 10
0.0
 20
0.0
 30
0.0
  0
VERTEX
  8
OBJECT
 10
68.828989
 20
92.279125
 30
0.0
  0
VERTEX
  8
OBJECT
 10
68.828989
 20
92.302125
 30
0.0
  0
VERTEX
  8
OBJECT
 10
68.934989
 20
92.326125
 30
0.0
  0
VERTEX
  8
OBJECT
 10
69.034989
 20
92.326125
 30
0.0
  0
VERTEX
  8
OBJECT
 10
69.140989
 20
92.302125
 30
0.0
  0
VERTEX
  8
OBJECT
 10
69.140989
 20
92.279125
 30
0.0
  0
SEQEND
  8
OBJECT
  0
POLYLINE
  8
OBJECT
 66
     1
 10
0.0
 20
0.0
 30
0.0
  0
VERTEX
  8
OBJECT
 10
50.078989
 20
92.279125
 30
0.0
  0
VERTEX
  8
OBJECT
 10
50.078989
 20
92.302125
 30
0.0
  0
VERTEX
  8
OBJECT
 10
50.184989
 20
92.326125
 30
0.0
  0
VERTEX
  8
OBJECT
 10
50.284989
 20
92.326125
 30
0.0
  0
VERTEX
  8
OBJECT
 10
50.390989
 20
92.302125
 30
0.0
  0
VERTEX
  8
OBJECT
 10
50.390989
 20
92.279125
 30
0.0
  0
SEQEND
  8
OBJECT
  0
LINE
  8
OBJECT
 10
34.609989
 20
77.53849
 30
0.0
 11
49.609989
 21
77.53849
 31
0.0
  0
LINE
  8
OBJECT
 10
34.609989
 20
76.538328
 30
0.0
 11
49.609989
 21
76.538328
 31
0.0
  0
LINE
  8
OBJECT
 10
34.609989
 20
77.439672
 30
0.0
 11
49.609989
 21
77.439672
 31
0.0
  0
LINE
  8
OBJECT
 10
34.609989
 20
77.495648
 30
0.0
 11
49.609989
 21
77.495648
 31
0.0
  0
LINE
  8
OBJECT
 10
34.609989
 20
76.58117
 30
0.0
 11
49.609989
 21
76.58117
 31
0.0
  0
LINE
  8
OBJECT
 10
34.609989
 20
76.637145
 30
0.0
 11
49.609989
 21
76.637145
 31
0.0
  0
LINE
  8
OBJECT
 10
34.609989
 20
76.538328
 30
0.0
 11
34.609989
 21
77.53849
 31
0.0
  0
CIRCLE
  8
OBJECT
 10
35.234989
 20
77.038409
 30
0.0
 40
0.1875
  0
POLYLINE
  8
OBJECT
 66
     1
 10
0.0
 20
0.0
 30
0.0
 70
     1
  0
VERTEX
  8
OBJECT
 10
35.519989
 20
77.023409
 30
0.0
  0
VERTEX
  8
OBJECT
 10
35.519989
 20
77.053409
 30
0.0
 42
-1.0
  0
VERTEX
  8
OBJECT
 10
35.699989
 20
77.053409
 30
0.0
  0
VERTEX
  8
OBJECT
 10
35.699989
 20
77.023409
 30
0.0
 42
-1.0
  0
SEQEND
  8
OBJECT
  0
POLYLINE
  8
OBJECT
 66
     1
 10
0.0
 20
0.0
 30
0.0
 70
     1
  0
VERTEX
  8
OBJECT
 10
39.594989
 20
77.128409
 30
0.0
  0
VERTEX
  8
OBJECT
 10
39.624989
 20
77.128409
 30
0.0
 42
-1.0
  0
VERTEX
  8
OBJECT
 10
39.624989
 20
76.948409
 30
0.0
  0
VERTEX
  8
OBJECT
 10
39.594989
 20
76.948409
 30
0.0
 42
-1.0
  0
SEQEND
  8
OBJECT
  0
LINE
  8
HIDDEN
 10
49.734989
 20
77.53849
 30
0.0
 11
54.263462
 21
77.53849
 31
0.0
  0
LINE
  8
HIDDEN
 10
49.734989
 20
76.538328
 30
0.0
 11
54.263462
 21
76.538328
 31
0.0
  0
POLYLINE
  8
HIDDEN
 66
     1
 10
0.0
 20
0.0
 30
0.0
  0
VERTEX
  8
HIDDEN
 10
48.734989
 20
76.800909
 30
0.0
  0
VERTEX
  8
HIDDEN
 10
49.054989
 20
76.733409
 30
0.0
  0
VERTEX
  8
HIDDEN
 10
49.504989
 20
76.733409
 30
0.0
  0
VERTEX
  8
HIDDEN
 10
49.504989
 20
76.895909
 30
0.0
  0
VERTEX
  8
HIDDEN
 10
49.904989
 20
76.895909
 30
0.0
  0
VERTEX
  8
HIDDEN
 10
49.904989
 20
76.733409
 30
0.0
  0
VERTEX
  8
HIDDEN
 10
52.484989
 20
76.733409
 30
0.0
  0
VERTEX
  8
HIDDEN
 10
52.484989
 20
77.343409
 30
0.0
  0
VERTEX
  8
HIDDEN
 10
49.904989
 20
77.343409
 30
0.0
  0
VERTEX
  8
HIDDEN
 10
49.904989
 20
77.180909
 30
0.0
  0
VERTEX
  8
HIDDEN
 10
49.504989
 20
77.180909
 30
0.0
  0
VERTEX
  8
HIDDEN
 10
49.504989
 20
77.343409
 30
0.0
  0
VERTEX
  8
HIDDEN
 10
49.054989
 20
77.343409
 30
0.0
  0
VERTEX
  8
HIDDEN
 10
48.734989
 20
77.275909
 30
0.0
  0
SEQEND
  8
HIDDEN
  0
POLYLINE
  8
OBJECT
 66
     1
 10
0.0
 20
0.0
 30
0.0
 70
     1
  0
VERTEX
  8
OBJECT
 10
44.624989
 20
76.948409
 30
0.0
  0
VERTEX
  8
OBJECT
 10
44.594989
 20
76.948409
 30
0.0
 42
-1.0
  0
VERTEX
  8
OBJECT
 10
44.594989
 20
77.128409
 30
0.0
  0
VERTEX
  8
OBJECT
 10
44.624989
 20
77.128409
 30
0.0
 42
-1.0
  0
SEQEND
  8
OBJECT
  0
POLYLINE
  8
OBJECT
 66
     1
 10
0.0
 20
0.0
 30
0.0
 70
     1
  0
VERTEX
  8
OBJECT
 10
48.834989
 20
77.180596
 30
0.0
  0
VERTEX
  8
OBJECT
 10
48.834989
 20
76.896221
 30
0.0
 42
-1.0
  0
VERTEX
  8
OBJECT
 10
48.634989
 20
76.896221
 30
0.0
  0
VERTEX
  8
OBJECT
 10
48.634989
 20
77.180596
 30
0.0
 42
-1.0
  0
SEQEND
  8
OBJECT
  0
CIRCLE
  8
OBJECT
 10
68.984989
 20
77.038409
 30
0.0
 40
0.156
  0
CIRCLE
  8
SHELF
 10
68.984989
 20
77.038409
 30
0.0
 40
0.082
  0
CIRCLE
  8
OBJECT
 10
59.609989
 20
77.038409
 30
0.0
 40
0.156
  0
CIRCLE
  8
SHELF
 10
59.609989
 20
77.038409
 30
0.0
 40
0.082
  0
CIRCLE
  8
OBJECT
 10
50.234989
 20
77.038409
 30
0.0
 40
0.156
  0
CIRCLE
  8
SHELF
 10
50.234989
 20
77.038409
 30
0.0
 40
0.082
  0
LINE
  8
SHELF
  6
HIDDEN
 10
49.437989
 20
76.225409
 30
0.0
 11
71.876989
 21
76.225409
 31
0.0
  0
POLYLINE
  8
HIDDEN
 66
     1
 10
0.0
 20
0.0
 30
0.0
 70
     1
  0
VERTEX
  8
HIDDEN
 10
49.609989
 20
76.343409
 30
0.0
  0
VERTEX
  8
HIDDEN
 10
69.609989
 20
76.343409
 30
0.0
  0
VERTEX
  8
HIDDEN
 10
69.609989
 20
76.447193
 30
0.0
  0
VERTEX
  8
HIDDEN
 10
69.573404
 20
76.447193
 30
0.0
 42
-0.593233
  0
VERTEX
  8
HIDDEN
 10
69.509989
 20
76.600909
 30
0.0
  0
VERTEX
  8
HIDDEN
 10
69.609989
 20
76.600909
 30
0.0
  0
VERTEX
  8
HIDDEN
 10
69.609989
 20
77.475909
 30
0.0
  0
VERTEX
  8
HIDDEN
 10
69.509989
 20
77.475909
 30
0.0
 42
-0.538557
  0
VERTEX
  8
HIDDEN
 10
69.558015
 20
77.626641
 30
0.0
  0
VERTEX
  8
HIDDEN
 10
69.609989
 20
77.629625
 30
0.0
  0
VERTEX
  8
HIDDEN
 10
69.609989
 20
77.733409
 30
0.0
  0
VERTEX
  8
HIDDEN
 10
49.609989
 20
77.733409
 30
0.0
  0
SEQEND
  8
HIDDEN
  0
LINE
  8
SHELF
  6
HIDDEN
 10
49.437989
 20
108.658093
 30
0.0
 11
71.876989
 21
108.658093
 31
0.0
  0
LINE
  8
SLIDE-SHELF
  6
HIDDEN
 10
49.687989
 20
106.602093
 30
0.0
 11
69.359989
 21
106.602093
 31
0.0
  0
POLYLINE
  8
HIDDEN
 66
     1
 10
0.0
 20
0.0
 30
0.0
 70
     1
  0
VERTEX
  8
HIDDEN
 10
49.609989
 20
108.540093
 30
0.0
  0
VERTEX
  8
HIDDEN
 10
69.609989
 20
108.540093
 30
0.0
  0
VERTEX
  8
HIDDEN
 10
69.609989
 20
108.436309
 30
0.0
  0
VERTEX
  8
HIDDEN
 10
69.573404
 20
108.436309
 30
0.0
 42
0.593233
  0
VERTEX
  8
HIDDEN
 10
69.509989
 20
108.282593
 30
0.0
  0
VERTEX
  8
HIDDEN
 10
69.609989
 20
108.282593
 30
0.0
  0
VERTEX
  8
HIDDEN
 10
69.609989
 20
107.407593
 30
0.0
  0
VERTEX
  8
HIDDEN
 10
69.509989
 20
107.407593
 30
0.0
 42
0.538557
  0
VERTEX
  8
HIDDEN
 10
69.558015
 20
107.256861
 30
0.0
  0
VERTEX
  8
HIDDEN
 10
69.609989
 20
107.253877
 30
0.0
  0
VERTEX
  8
HIDDEN
 10
69.609989
 20
107.150093
 30
0.0
  0
VERTEX
  8
HIDDEN
 10
49.609989
 20
107.150093
 30
0.0
  0
SEQEND
  8
HIDDEN
  0
LINE
  8
SLIDE-SHELF
  6
HIDDEN
 10
49.609989
 20
106.664093
 30
0.0
 11
69.359989
 21
106.664093
 31
0.0
  0
POLYLINE
  8
SLIDE-SHELF
  6
HIDDEN
 66
     1
 10
0.0
 20
0.0
 30
0.0
  0
VERTEX
  8
SLIDE-SHELF
  6
HIDDEN
 10
49.609989
 20
106.602093
 30
0.0
  0
VERTEX
  8
SLIDE-SHELF
  6
HIDDEN
 10
49.437989
 20
106.602093
 30
0.0
 42
-0.414214
  0
VERTEX
  8
SLIDE-SHELF
  6
HIDDEN
 10
49.421989
 20
106.618093
 30
0.0
  0
VERTEX
  8
SLIDE-SHELF
  6
HIDDEN
 10
49.421989
 20
108.540093
 30
0.0
  0
VERTEX
  8
SLIDE-SHELF
  6
HIDDEN
 10
49.359989
 20
108.540093
 30
0.0
  0
VERTEX
  8
SLIDE-SHELF
  6
HIDDEN
 10
49.359989
 20
106.618093
 30
0.0
 42
0.414214
  0
VERTEX
  8
SLIDE-SHELF
  6
HIDDEN
 10
49.437989
 20
106.540093
 30
0.0
  0
VERTEX
  8
SLIDE-SHELF
  6
HIDDEN
 10
69.359989
 20
106.540093
 30
0.0
  0
VERTEX
  8
SLIDE-SHELF
  6
HIDDEN
 10
69.359989
 20
108.220093
 30
0.0
  0
VERTEX
  8
SLIDE-SHELF
  6
HIDDEN
 10
49.609989
 20
108.220093
 30
0.0
  0
VERTEX
  8
SLIDE-SHELF
  6
HIDDEN
 10
49.609989
 20
106.540093
 30
0.0
  0
SEQEND
  8
SLIDE-SHELF
  6
HIDDEN
  0
CIRCLE
  8
OBJECT
 10
50.234989
 20
107.845093
 30
0.0
 40
0.156
  0
CIRCLE
  8
SHELF
 10
50.234989
 20
107.845093
 30
0.0
 40
0.082
  0
CIRCLE
  8
OBJECT
 10
59.609989
 20
107.845093
 30
0.0
 40
0.156
  0
CIRCLE
  8
SHELF
 10
59.609989
 20
107.845093
 30
0.0
 40
0.082
  0
CIRCLE
  8
OBJECT
 10
68.984989
 20
107.845093
 30
0.0
 40
0.156
  0
CIRCLE
  8
SHELF
 10
68.984989
 20
107.845093
 30
0.0
 40
0.082
  0
POLYLINE
  8
SHELF
 66
     1
 10
0.0
 20
0.0
 30
0.0
 70
     1
  0
VERTEX
  8
SHELF
 10
70.766489
 20
106.783093
 30
0.0
 42
1.0
  0
VERTEX
  8
SHELF
 10
70.766489
 20
107.033093
 30
0.0
  0
VERTEX
  8
SHELF
 10
70.141489
 20
107.033093
 30
0.0
 42
1.0
  0
VERTEX
  8
SHELF
 10
70.141489
 20
106.783093
 30
0.0
  0
SEQEND
  8
SHELF
  0
CIRCLE
  8
SLIDE-SHELF
 10
35.609989
 20
77.038409
 30
0.0
 40
0.156
  0
CIRCLE
  8
SLIDE-SHELF
 10
44.609989
 20
77.038409
 30
0.0
 40
0.156
  0
CIRCLE
  8
SLIDE-SHELF
 10
53.609989
 20
77.038409
 30
0.0
 40
0.156
  0
POLYLINE
  8
OBJECT
 66
     1
 10
0.0
 20
0.0
 30
0.0
 70
     1
  0
VERTEX
  8
OBJECT
 10
53.519989
 20
77.023409
 30
0.0
  0
VERTEX
  8
OBJECT
 10
53.519989
 20
77.053409
 30
0.0
 42
-1.0
  0
VERTEX
  8
OBJECT
 10
53.699989
 20
77.053409
 30
0.0
  0
VERTEX
  8
OBJECT
 10
53.699989
 20
77.023409
 30
0.0
 42
-1.0
  0
SEQEND
  8
OBJECT
  0
CIRCLE
  8
SLIDE-SHELF
 10
53.609989
 20
77.038409
 30
0.0
 40
0.082
  0
POLYLINE
  8
HANDLE
  6
HIDDEN2
 66
     1
 10
0.0
 20
0.0
 30
0.0
  0
VERTEX
  8
HANDLE
  6
HIDDEN2
 10
49.359989
 20
108.139088
 30
0.0
  0
VERTEX
  8
HANDLE
  6
HIDDEN2
 10
50.009989
 20
107.489088
 30
0.0
  0
VERTEX
  8
HANDLE
  6
HIDDEN2
 10
50.009989
 20
106.89936
 30
0.0
 42
-0.668179
  0
VERTEX
  8
HANDLE
  6
HIDDEN2
 10
49.606822
 20
106.732363
 30
0.0
  0
VERTEX
  8
HANDLE
  6
HIDDEN2
 10
49.437033
 20
106.934997
 30
0.0
  0
VERTEX
  8
HANDLE
  6
HIDDEN2
 10
49.359989
 20
106.934997
 30
0.0
  0
SEQEND
  8
HANDLE
  6
HIDDEN2
  0
POLYLINE
  8
HANDLE
  6
HIDDEN2
 66
     1
 10
0.0
 20
0.0
 30
0.0
  0
VERTEX
  8
HANDLE
  6
HIDDEN2
 10
49.359989
 20
107.039997
 30
0.0
  0
VERTEX
  8
HANDLE
  6
HIDDEN2
 10
49.436701
 20
107.039997
 30
0.0
  0
VERTEX
  8
HANDLE
  6
HIDDEN2
 10
49.656319
 20
106.78186
 30
0.0
 42
0.668179
  0
VERTEX
  8
HANDLE
  6
HIDDEN2
 10
49.939989
 20
106.89936
 30
0.0
  0
VERTEX
  8
HANDLE
  6
HIDDEN2
 10
49.939989
 20
107.460093
 30
0.0
  0
VERTEX
  8
HANDLE
  6
HIDDEN2
 10
49.359989
 20
108.040093
 30
0.0
  0
SEQEND
  8
HANDLE
  6
HIDDEN2
  0
POLYLINE
  8
HANDLE
 66
     1
 10
0.0
 20
0.0
 30
0.0
 70
     1
  0
VERTEX
  8
HANDLE
 10
49.359989
 20
108.240093
 30
0.0
  0
VERTEX
  8
HANDLE
 10
49.312989
 20
108.240093
 30
0.0
 42
0.414214
  0
VERTEX
  8
HANDLE
 10
49.281989
 20
108.209093
 30
0.0
  0
VERTEX
  8
HANDLE
 10
49.281989
 20
106.871093
 30
0.0
 42
0.414214
  0
VERTEX
  8
HANDLE
 10
49.312989
 20
106.840093
 30
0.0
  0
VERTEX
  8
HANDLE
 10
49.359989
 20
106.840093
 30
0.0
  0
SEQEND
  8
HANDLE
  0
POLYLINE
  8
HANDLE
  6
HIDDEN2
 66
     1
 10
0.0
 20
0.0
 30
0.0
  0
VERTEX
  8
HANDLE
  6
HIDDEN2
 10
49.359989
 20
108.144997
 30
0.0
  0
VERTEX
  8
HANDLE
  6
HIDDEN2
 10
49.429989
 20
108.144997
 30
0.0
  0
VERTEX
  8
HANDLE
  6
HIDDEN2
 10
49.429989
 20
108.169617
 30
0.0
  0
VERTEX
  8
HANDLE
  6
HIDDEN2
 10
49.454588
 20
108.18319
 30
0.0
  0
VERTEX
  8
HANDLE
  6
HIDDEN2
 10
49.957849
 20
107.987659
 30
0.0
  0
VERTEX
  8
HANDLE
  6
HIDDEN2
 10
49.957849
 20
107.541228
 30
0.0
  0
SEQEND
  8
HANDLE
  6
HIDDEN2
  0
POLYLINE
  8
HANDLE
  6
HIDDEN2
 66
     1
 10
0.0
 20
0.0
 30
0.0
  0
VERTEX
  8
HANDLE
  6
HIDDEN2
 10
49.586857
 20
106.75619
 30
0.0
  0
VERTEX
  8
HANDLE
  6
HIDDEN2
 10
49.484
 20
106.75619
 30
0.0
  0
VERTEX
  8
HANDLE
  6
HIDDEN2
 10
49.429989
 20
106.8102
 30
0.0
  0
VERTEX
  8
HANDLE
  6
HIDDEN2
 10
49.429989
 20
106.934997
 30
0.0
  0
SEQEND
  8
HANDLE
  6
HIDDEN2
  0
POLYLINE
  8
SLIDE-SHELF
 66
     1
 10
0.0
 20
0.0
 30
0.0
 70
     1
  0
VERTEX
  8
SLIDE-SHELF
 10
17.454434
 20
76.342409
 30
0.0
  0
VERTEX
  8
SLIDE-SHELF
 10
25.658434
 20
76.342409
 30
0.0
  0
VERTEX
  8
SLIDE-SHELF
 10
25.658434
 20
78.342409
 30
0.0
  0
VERTEX
  8
SLIDE-SHELF
 10
17.454434
 20
78.342409
 30
0.0
  0
SEQEND
  8
SLIDE-SHELF
  0
POLYLINE
  8
HANDLE
 66
     1
 10
0.0
 20
0.0
 30
0.0
 70
     1
  0
VERTEX
  8
HANDLE
 10
18.856434
 20
77.980409
 30
0.0
  0
VERTEX
  8
HANDLE
 10
18.856434
 20
76.704409
 30
0.0
 42
0.414214
  0
VERTEX
  8
HANDLE
 10
18.918434
 20
76.642409
 30
0.0
  0
VERTEX
  8
HANDLE
 10
24.194434
 20
76.642409
 30
0.0
 42
0.414214
  0
VERTEX
  8
HANDLE
 10
24.256434
 20
76.704409
 30
0.0
  0
VERTEX
  8
HANDLE
 10
24.256434
 20
77.980409
 30
0.0
 42
0.414214
  0
VERTEX
  8
HANDLE
 10
24.194434
 20
78.042409
 30
0.0
  0
VERTEX
  8
HANDLE
 10
18.918434
 20
78.042409
 30
0.0
 42
0.414214
  0
SEQEND
  8
HANDLE
  0
POLYLINE
  8
SLIDE-SHELF
  6
HIDDEN2
 66
     1
 10
0.0
 20
0.0
 30
0.0
  0
VERTEX
  8
SLIDE-SHELF
  6
HIDDEN2
 10
18.956434
 20
76.737409
 30
0.0
  0
VERTEX
  8
SLIDE-SHELF
  6
HIDDEN2
 10
24.156434
 20
76.737409
 30
0.0
  0
VERTEX
  8
SLIDE-SHELF
  6
HIDDEN2
 10
24.156434
 20
77.947409
 30
0.0
  0
VERTEX
  8
SLIDE-SHELF
  6
HIDDEN2
 10
18.956434
 20
77.947409
 30
0.0
  0
VERTEX
  8
SLIDE-SHELF
  6
HIDDEN2
 10
18.956434
 20
76.737409
 30
0.0
  0
SEQEND
  8
SLIDE-SHELF
  6
HIDDEN2
  0
POLYLINE
  8
HANDLE
 66
     1
 10
0.0
 20
0.0
 30
0.0
 70
     1
  0
VERTEX
  8
HANDLE
 10
19.056434
 20
77.842409
 30
0.0
  0
VERTEX
  8
HANDLE
 10
19.056434
 20
76.842409
 30
0.0
  0
VERTEX
  8
HANDLE
 10
24.056434
 20
76.842409
 30
0.0
  0
VERTEX
  8
HANDLE
 10
24.056434
 20
77.842409
 30
0.0
  0
SEQEND
  8
HANDLE
  0
POLYLINE
  8
HANDLE
 66
     1
 10
0.0
 20
0.0
 30
0.0
  0
VERTEX
  8
HANDLE
 10
24.056434
 20
77.422313
 30
0.0
  0
VERTEX
  8
HANDLE
 10
19.056434
 20
77.422313
 30
0.0
  0
SEQEND
  8
HANDLE
  0
POLYLINE
  8
HANDLE
  6
HIDDEN2
 66
     1
 10
0.0
 20
0.0
 30
0.0
  0
VERTEX
  8
HANDLE
  6
HIDDEN2
 10
19.056434
 20
78.042409
 30
0.0
  0
VERTEX
  8
HANDLE
  6
HIDDEN2
 10
19.056434
 20
78.149216
 30
0.0
  0
VERTEX
  8
HANDLE
  6
HIDDEN2
 10
24.056434
 20
78.149216
 30
0.0
  0
VERTEX
  8
HANDLE
  6
HIDDEN2
 10
24.056434
 20
78.042409
 30
0.0
  0
SEQEND
  8
HANDLE
  6
HIDDEN2
  0
POLYLINE
  8
HANDLE
  6
HIDDEN2
 66
     1
 10
0.0
 20
0.0
 30
0.0
  0
VERTEX
  8
HANDLE
  6
HIDDEN2
 10
24.119434
 20
78.042409
 30
0.0
  0
VERTEX
  8
HANDLE
  6
HIDDEN2
 10
24.119434
 20
78.126216
 30
0.0
 42
0.414214
  0
VERTEX
  8
HANDLE
  6
HIDDEN2
 10
24.026434
 20
78.219216
 30
0.0
  0
VERTEX
  8
HANDLE
  6
HIDDEN2
 10
19.086434
 20
78.219216
 30
0.0
 42
0.414214
  0
VERTEX
  8
HANDLE
  6
HIDDEN2
 10
18.993434
 20
78.126216
 30
0.0
  0
VERTEX
  8
HANDLE
  6
HIDDEN2
 10
18.993434
 20
78.042409
 30
0.0
  0
SEQEND
  8
HANDLE
  6
HIDDEN2
  0
LINE
  8
SLIDE-SHELF
  6
HIDDEN
 10
25.658434
 20
78.280409
 30
0.0
 11
17.454434
 21
78.280409
 31
0.0
  0
DIMENSION
  8
DIM
  2
*D1
 10
25.845434
 20
73.592409
 30
0.0
 11
16.892434
 21
73.592409
 31
0.0
 12
2.421702
 22
55.795228
 32
0.0
 13
7.939434
 23
76.163409
 33
0.0
 14
25.845434
 24
76.163409
 34
0.0
 50
180.0
  3
23NSTD
  0
POLYLINE
  8
SHELF
 66
     1
 10
0.0
 20
0.0
 30
0.0
  0
VERTEX
  8
SHELF
 10
25.752434
 20
76.163409
 30
0.0
  0
VERTEX
  8
SHELF
 10
25.767434
 20
76.163409
 30
0.0
 42
0.414214
  0
VERTEX
  8
SHELF
 10
25.845434
 20
76.241409
 30
0.0
  0
VERTEX
  8
SHELF
 10
25.845434
 20
78.413409
 30
0.0
  0
VERTEX
  8
SHELF
 10
25.783434
 20
78.413409
 30
0.0
  0
VERTEX
  8
SHELF
 10
25.783434
 20
76.241409
 30
0.0
 42
-0.414214
  0
VERTEX
  8
SHELF
 10
25.767434
 20
76.225409
 30
0.0
  0
VERTEX
  8
SHELF
 10
8.017434
 20
76.225409
 30
0.0
 42
-0.414214
  0
VERTEX
  8
SHELF
 10
8.001434
 20
76.241409
 30
0.0
  0
VERTEX
  8
SHELF
 10
8.001434
 20
78.413409
 30
0.0
  0
VERTEX
  8
SHELF
 10
7.939434
 20
78.413409
 30
0.0
  0
VERTEX
  8
SHELF
 10
7.939434
 20
76.241409
 30
0.0
 42
0.414214
  0
VERTEX
  8
SHELF
 10
8.017434
 20
76.163409
 30
0.0
  0
VERTEX
  8
SHELF
 10
8.032434
 20
76.163409
 30
0.0
  0
SEQEND
  8
SHELF
  0
LINE
  8
SHELF
  6
HIDDEN
 10
25.674434
 20
76.163409
 30
0.0
 11
8.110434
 21
76.163409
 31
0.0
  0
POLYLINE
  8
SHELF
 66
     1
 10
0.0
 20
0.0
 30
0.0
  0
VERTEX
  8
SHELF
 10
25.752434
 20
76.225409
 30
0.0
  0
VERTEX
  8
SHELF
 10
25.752434
 20
75.460409
 30
0.0
  0
VERTEX
  8
SHELF
 10
8.032434
 20
75.460409
 30
0.0
  0
VERTEX
  8
SHELF
 10
8.032434
 20
76.225409
 30
0.0
  0
SEQEND
  8
SHELF
  0
DIMENSION
  8
DIM
  2
*D8
 10
74.818989
 20
76.163409
 30
0.0
 11
74.818989
 21
77.288409
 31
0.0
 12
2.421702
 22
55.795228
 32
0.0
 13
71.954989
 23
78.413409
 33
0.0
 14
71.954989
 24
76.163409
 34
0.0
 50
90.0
  3
23NSTDI
  0
POLYLINE
  8
SLIDE-SHELF
  6
HIDDEN
 66
     1
 10
0.0
 20
0.0
 30
0.0
  0
VERTEX
  8
SLIDE-SHELF
  6
HIDDEN
 10
25.658434
 20
78.342409
 30
0.0
 42
-1.0
  0
VERTEX
  8
SLIDE-SHELF
  6
HIDDEN
 10
25.658434
 20
78.218409
 30
0.0
  0
VERTEX
  8
SLIDE-SHELF
  6
HIDDEN
 10
25.408434
 20
78.218409
 30
0.0
  0
VERTEX
  8
SLIDE-SHELF
  6
HIDDEN
 10
25.408434
 20
76.662409
 30
0.0
  0
VERTEX
  8
SLIDE-SHELF
  6
HIDDEN
 10
25.346434
 20
76.662409
 30
0.0
  0
VERTEX
  8
SLIDE-SHELF
  6
HIDDEN
 10
25.346434
 20
78.280409
 30
0.0
  0
SEQEND
  8
SLIDE-SHELF
  6
HIDDEN
  0
POLYLINE
  8
OBJECT
 66
     1
 10
0.0
 20
0.0
 30
0.0
 70
     1
 75
     6
  0
VERTEX
  8
OBJECT
 10
25.687167
 20
76.519909
 30
0.0
 42
-0.414214
  0
VERTEX
  8
OBJECT
 10
25.665167
 20
76.497909
 30
0.0
  0
VERTEX
  8
OBJECT
 10
25.472942
 20
76.497909
 30
0.0
  0
VERTEX
  8
OBJECT
 10
25.472942
 20
76.472909
 30
0.0
  0
VERTEX
  8
OBJECT
 10
25.665167
 20
76.472909
 30
0.0
 42
0.414214
  0
VERTEX
  8
OBJECT
 10
25.712167
 20
76.519909
 30
0.0
  0
VERTEX
  8
OBJECT
 10
25.712167
 20
76.815986
 30
0.0
 42
0.414214
  0
VERTEX
  8
OBJECT
 10
25.665167
 20
76.862986
 30
0.0
  0
VERTEX
  8
OBJECT
 10
25.61865
 20
76.862986
 30
0.0
 42
-0.414214
  0
VERTEX
  8
OBJECT
 10
25.59665
 20
76.884986
 30
0.0
  0
VERTEX
  8
OBJECT
 10
25.59665
 20
77.189831
 30
0.0
 42
-0.414214
  0
VERTEX
  8
OBJECT
 10
25.61865
 20
77.211831
 30
0.0
  0
VERTEX
  8
OBJECT
 10
25.665167
 20
77.211831
 30
0.0
 42
0.414214
  0
VERTEX
  8
OBJECT
 10
25.712167
 20
77.258831
 30
0.0
  0
VERTEX
  8
OBJECT
 10
25.712167
 20
77.554909
 30
0.0
 42
0.414214
  0
VERTEX
  8
OBJECT
 10
25.665167
 20
77.601909
 30
0.0
  0
VERTEX
  8
OBJECT
 10
25.472942
 20
77.601909
 30
0.0
  0
VERTEX
  8
OBJECT
 10
25.472942
 20
77.576909
 30
0.0
  0
VERTEX
  8
OBJECT
 10
25.665167
 20
77.576909
 30
0.0
 42
-0.414214
  0
VERTEX
  8
OBJECT
 10
25.687167
 20
77.554909
 30
0.0
  0
VERTEX
  8
OBJECT
 10
25.687167
 20
77.258831
 30
0.0
 42
-0.414214
  0
VERTEX
  8
OBJECT
 10
25.665167
 20
77.236831
 30
0.0
  0
VERTEX
  8
OBJECT
 10
25.61865
 20
77.236831
 30
0.0
 42
0.414214
  0
VERTEX
  8
OBJECT
 10
25.57165
 20
77.189831
 30
0.0
  0
VERTEX
  8
OBJECT
 10
25.57165
 20
76.884986
 30
0.0
 42
0.414214
  0
VERTEX
  8
OBJECT
 10
25.61865
 20
76.837986
 30
0.0
  0
VERTEX
  8
OBJECT
 10
25.665167
 20
76.837986
 30
0.0
 42
-0.414214
  0
VERTEX
  8
OBJECT
 10
25.687167
 20
76.815986
 30
0.0
  0
SEQEND
  8
OBJECT
  0
ARC
  8
OBJECT
 10
25.611434
 20
76.497909
 30
0.0
 40
0.0935
 50
35.905824
 51
180.0
  0
POLYLINE
  8
OBJECT
 66
     1
 10
0.0
 20
0.0
 30
0.0
 75
     6
  0
VERTEX
  8
OBJECT
 10
25.655268
 20
76.580497
 30
0.0
  0
VERTEX
  8
OBJECT
 10
25.684803
 20
76.636145
 30
0.0
 42
0.33823
  0
VERTEX
  8
OBJECT
 10
25.497367
 20
76.605058
 30
0.0
 42
-0.679543
  0
VERTEX
  8
OBJECT
 10
25.471434
 20
76.615328
 30
0.0
  0
VERTEX
  8
OBJECT
 10
25.471434
 20
77.45949
 30
0.0
 42
-0.679543
  0
VERTEX
  8
OBJECT
 10
25.497367
 20
77.469759
 30
0.0
 42
0.33823
  0
VERTEX
  8
OBJECT
 10
25.684803
 20
77.438672
 30
0.0
  0
VERTEX
  8
OBJECT
 10
25.655265
 20
77.494326
 30
0.0
 42
-0.340971
  0
VERTEX
  8
OBJECT
 10
25.542652
 20
77.513559
 30
0.0
 42
0.675247
  0
VERTEX
  8
OBJECT
 10
25.408434
 20
77.45949
 30
0.0
  0
VERTEX
  8
OBJECT
 10
25.408434
 20
76.615328
 30
0.0
 42
0.675247
  0
VERTEX
  8
OBJECT
 10
25.542652
 20
76.561258
 30
0.0
 42
-0.340971
  0
VERTEX
  8
OBJECT
 10
25.655265
 20
76.580491
 30
0.0
  0
SEQEND
  8
OBJECT
  0
POLYLINE
  8
OBJECT
 66
     1
 10
0.0
 20
0.0
 30
0.0
 70
     1
 75
     6
  0
VERTEX
  8
OBJECT
 10
25.472942
 20
77.662409
 30
0.0
 42
-0.238363
  0
VERTEX
  8
OBJECT
 10
25.611434
 20
77.732409
 30
0.0
 42
-0.414214
  0
VERTEX
  8
OBJECT
 10
25.783434
 20
77.560409
 30
0.0
  0
VERTEX
  8
OBJECT
 10
25.783434
 20
76.514409
 30
0.0
 42
-0.414214
  0
VERTEX
  8
OBJECT
 10
25.611434
 20
76.342409
 30
0.0
 42
-0.238363
  0
VERTEX
  8
OBJECT
 10
25.472942
 20
76.412409
 30
0.0
  0
VERTEX
  8
OBJECT
 10
25.520127
 20
76.446193
 30
0.0
 42
0.241913
  0
VERTEX
  8
OBJECT
 10
25.601434
 20
76.404409
 30
0.0
  0
VERTEX
  8
OBJECT
 10
25.611434
 20
76.404409
 30
0.0
 42
0.414214
  0
VERTEX
  8
OBJECT
 10
25.721434
 20
76.514409
 30
0.0
  0
VERTEX
  8
OBJECT
 10
25.721434
 20
77.560409
 30
0.0
 42
0.414214
  0
VERTEX
  8
OBJECT
 10
25.611434
 20
77.670409
 30
0.0
  0
VERTEX
  8
OBJECT
 10
25.601434
 20
77.670409
 30
0.0
 42
0.241913
  0
VERTEX
  8
OBJECT
 10
25.520127
 20
77.628625
 30
0.0
  0
SEQEND
  8
OBJECT
  0
ARC
  8
OBJECT
 10
25.611434
 20
76.497909
 30
0.0
 40
0.0935
 50
195.508402
 51
358.078271
  0
ARC
  8
OBJECT
 10
25.611434
 20
77.576909
 30
0.0
 40
0.0935
 50
1.921729
 51
164.491598
  0
ARC
  8
OBJECT
 10
25.611434
 20
77.576909
 30
0.0
 40
0.0935
 50
180.0
 51
324.094176
  0
POLYLINE
  8
OBJECT
 66
     1
 10
0.0
 20
0.0
 30
0.0
  0
VERTEX
  8
OBJECT
 10
25.845434
 20
76.881409
 30
0.0
  0
VERTEX
  8
OBJECT
 10
25.868434
 20
76.881409
 30
0.0
  0
VERTEX
  8
OBJECT
 10
25.892434
 20
76.987409
 30
0.0
  0
VERTEX
  8
OBJECT
 10
25.892434
 20
77.087409
 30
0.0
  0
VERTEX
  8
OBJECT
 10
25.868434
 20
77.193409
 30
0.0
  0
VERTEX
  8
OBJECT
 10
25.845434
 20
77.193409
 30
0.0
  0
SEQEND
  8
OBJECT
  0
POLYLINE
  8
OBJECT
 66
     1
 10
0.0
 20
0.0
 30
0.0
  0
VERTEX
  8
OBJECT
 10
25.845434
 20
76.881409
 30
0.0
  0
VERTEX
  8
OBJECT
 10
25.868434
 20
76.881409
 30
0.0
  0
VERTEX
  8
OBJECT
 10
25.892434
 20
76.987409
 30
0.0
  0
VERTEX
  8
OBJECT
 10
25.892434
 20
77.087409
 30
0.0
  0
VERTEX
  8
OBJECT
 10
25.868434
 20
77.193409
 30
0.0
  0
VERTEX
  8
OBJECT
 10
25.845434
 20
77.193409
 30
0.0
  0
SEQEND
  8
OBJECT
  0
LINE
  8
HANDLE
  6
HIDDEN2
 10
23.525434
 20
78.042409
 30
0.0
 11
23.525434
 21
78.126216
 31
0.0
  0
LINE
  8
HANDLE
  6
HIDDEN2
 10
23.587434
 20
78.042409
 30
0.0
 11
23.587434
 21
78.126216
 31
0.0
  0
LINE
  8
HANDLE
  6
HIDDEN2
 10
22.525434
 20
78.042409
 30
0.0
 11
22.525434
 21
78.126216
 31
0.0
  0
LINE
  8
HANDLE
  6
HIDDEN2
 10
21.525434
 20
78.042409
 30
0.0
 11
21.525434
 21
78.126216
 31
0.0
  0
LINE
  8
HANDLE
  6
HIDDEN2
 10
21.587434
 20
78.042409
 30
0.0
 11
21.587434
 21
78.126216
 31
0.0
  0
LINE
  8
HANDLE
  6
HIDDEN2
 10
22.587434
 20
78.042409
 30
0.0
 11
22.587434
 21
78.126216
 31
0.0
  0
LINE
  8
HANDLE
  6
HIDDEN2
 10
20.587434
 20
78.042409
 30
0.0
 11
20.587434
 21
78.126216
 31
0.0
  0
LINE
  8
HANDLE
  6
HIDDEN2
 10
19.525434
 20
78.042409
 30
0.0
 11
19.525434
 21
78.126216
 31
0.0
  0
LINE
  8
HANDLE
  6
HIDDEN2
 10
19.587434
 20
78.042409
 30
0.0
 11
19.587434
 21
78.126216
 31
0.0
  0
LINE
  8
HANDLE
  6
HIDDEN2
 10
20.525434
 20
78.042409
 30
0.0
 11
20.525434
 21
78.126216
 31
0.0
  0
POLYLINE
  8
SLIDE-SHELF
  6
HIDDEN2
 66
     1
 10
0.0
 20
0.0
 30
0.0
  0
VERTEX
  8
SLIDE-SHELF
  6
HIDDEN2
 10
9.628434
 20
76.737409
 30
0.0
  0
VERTEX
  8
SLIDE-SHELF
  6
HIDDEN2
 10
14.828434
 20
76.737409
 30
0.0
  0
VERTEX
  8
SLIDE-SHELF
  6
HIDDEN2
 10
14.828434
 20
77.947409
 30
0.0
  0
VERTEX
  8
SLIDE-SHELF
  6
HIDDEN2
 10
9.628434
 20
77.947409
 30
0.0
  0
VERTEX
  8
SLIDE-SHELF
  6
HIDDEN2
 10
9.628434
 20
76.737409
 30
0.0
  0
SEQEND
  8
SLIDE-SHELF
  6
HIDDEN2
  0
POLYLINE
  8
HANDLE
 66
     1
 10
0.0
 20
0.0
 30
0.0
 70
     1
  0
VERTEX
  8
HANDLE
 10
9.528434
 20
77.980409
 30
0.0
  0
VERTEX
  8
HANDLE
 10
9.528434
 20
76.704409
 30
0.0
 42
0.414214
  0
VERTEX
  8
HANDLE
 10
9.590434
 20
76.642409
 30
0.0
  0
VERTEX
  8
HANDLE
 10
14.866434
 20
76.642409
 30
0.0
 42
0.414214
  0
VERTEX
  8
HANDLE
 10
14.928434
 20
76.704409
 30
0.0
  0
VERTEX
  8
HANDLE
 10
14.928434
 20
77.980409
 30
0.0
 42
0.414214
  0
VERTEX
  8
HANDLE
 10
14.866434
 20
78.042409
 30
0.0
  0
VERTEX
  8
HANDLE
 10
9.590434
 20
78.042409
 30
0.0
 42
0.414214
  0
SEQEND
  8
HANDLE
  0
POLYLINE
  8
HANDLE
 66
     1
 10
0.0
 20
0.0
 30
0.0
  0
VERTEX
  8
HANDLE
 10
14.728434
 20
77.422313
 30
0.0
  0
VERTEX
  8
HANDLE
 10
9.728434
 20
77.422313
 30
0.0
  0
SEQEND
  8
HANDLE
  0
POLYLINE
  8
HANDLE
 66
     1
 10
0.0
 20
0.0
 30
0.0
 70
     1
  0
VERTEX
  8
HANDLE
 10
9.728434
 20
77.842409
 30
0.0
  0
VERTEX
  8
HANDLE
 10
9.728434
 20
76.842409
 30
0.0
  0
VERTEX
  8
HANDLE
 10
14.728434
 20
76.842409
 30
0.0
  0
VERTEX
  8
HANDLE
 10
14.728434
 20
77.842409
 30
0.0
  0
SEQEND
  8
HANDLE
  0
POLYLINE
  8
HANDLE
  6
HIDDEN2
 66
     1
 10
0.0
 20
0.0
 30
0.0
  0
VERTEX
  8
HANDLE
  6
HIDDEN2
 10
14.791434
 20
78.042409
 30
0.0
  0
VERTEX
  8
HANDLE
  6
HIDDEN2
 10
14.791434
 20
78.126216
 30
0.0
 42
0.414214
  0
VERTEX
  8
HANDLE
  6
HIDDEN2
 10
14.698434
 20
78.219216
 30
0.0
  0
VERTEX
  8
HANDLE
  6
HIDDEN2
 10
9.758434
 20
78.219216
 30
0.0
 42
0.414214
  0
VERTEX
  8
HANDLE
  6
HIDDEN2
 10
9.665434
 20
78.126216
 30
0.0
  0
VERTEX
  8
HANDLE
  6
HIDDEN2
 10
9.665434
 20
78.042409
 30
0.0
  0
SEQEND
  8
HANDLE
  6
HIDDEN2
  0
POLYLINE
  8
HANDLE
  6
HIDDEN2
 66
     1
 10
0.0
 20
0.0
 30
0.0
  0
VERTEX
  8
HANDLE
  6
HIDDEN2
 10
9.728434
 20
78.042409
 30
0.0
  0
VERTEX
  8
HANDLE
  6
HIDDEN2
 10
9.728434
 20
78.149216
 30
0.0
  0
VERTEX
  8
HANDLE
  6
HIDDEN2
 10
14.728434
 20
78.149216
 30
0.0
  0
VERTEX
  8
HANDLE
  6
HIDDEN2
 10
14.728434
 20
78.042409
 30
0.0
  0
SEQEND
  8
HANDLE
  6
HIDDEN2
  0
POLYLINE
  8
SLIDE-SHELF
 66
     1
 10
0.0
 20
0.0
 30
0.0
 70
     1
  0
VERTEX
  8
SLIDE-SHELF
 10
8.126434
 20
76.342409
 30
0.0
  0
VERTEX
  8
SLIDE-SHELF
 10
16.330434
 20
76.342409
 30
0.0
  0
VERTEX
  8
SLIDE-SHELF
 10
16.330434
 20
78.342409
 30
0.0
  0
VERTEX
  8
SLIDE-SHELF
 10
8.126434
 20
78.342409
 30
0.0
  0
SEQEND
  8
SLIDE-SHELF
  0
LINE
  8
SLIDE-SHELF
  6
HIDDEN
 10
16.330434
 20
78.280409
 30
0.0
 11
8.126434
 21
78.280409
 31
0.0
  0
DIMENSION
  8
DIM
  2
*D3
 10
16.392434
 20
82.170664
 30
0.0
 11
12.228434
 21
82.170664
 31
0.0
 12
2.421702
 22
55.795228
 32
0.0
 13
8.064434
 23
78.280409
 33
0.0
 14
16.392434
 24
78.280409
 34
0.0
  3
23NSTDI
  0
POLYLINE
  8
SLIDE-SHELF
  6
HIDDEN
 66
     1
 10
0.0
 20
0.0
 30
0.0
  0
VERTEX
  8
SLIDE-SHELF
  6
HIDDEN
 10
16.330434
 20
78.342409
 30
0.0
 42
-1.0
  0
VERTEX
  8
SLIDE-SHELF
  6
HIDDEN
 10
16.330434
 20
78.218409
 30
0.0
  0
VERTEX
  8
SLIDE-SHELF
  6
HIDDEN
 10
16.080434
 20
78.218409
 30
0.0
  0
VERTEX
  8
SLIDE-SHELF
  6
HIDDEN
 10
16.080434
 20
76.662409
 30
0.0
  0
VERTEX
  8
SLIDE-SHELF
  6
HIDDEN
 10
16.018434
 20
76.662409
 30
0.0
  0
VERTEX
  8
SLIDE-SHELF
  6
HIDDEN
 10
16.018434
 20
78.280409
 30
0.0
  0
SEQEND
  8
SLIDE-SHELF
  6
HIDDEN
  0
POLYLINE
  8
SLIDE-SHELF
  6
HIDDEN
 66
     1
 10
0.0
 20
0.0
 30
0.0
  0
VERTEX
  8
SLIDE-SHELF
  6
HIDDEN
 10
17.454434
 20
78.342409
 30
0.0
 42
1.0
  0
VERTEX
  8
SLIDE-SHELF
  6
HIDDEN
 10
17.454434
 20
78.218409
 30
0.0
  0
VERTEX
  8
SLIDE-SHELF
  6
HIDDEN
 10
17.704434
 20
78.218409
 30
0.0
  0
VERTEX
  8
SLIDE-SHELF
  6
HIDDEN
 10
17.704434
 20
76.662409
 30
0.0
  0
VERTEX
  8
SLIDE-SHELF
  6
HIDDEN
 10
17.766434
 20
76.662409
 30
0.0
  0
VERTEX
  8
SLIDE-SHELF
  6
HIDDEN
 10
17.766434
 20
78.280409
 30
0.0
  0
SEQEND
  8
SLIDE-SHELF
  6
HIDDEN
  0
POLYLINE
  8
OBJECT
 66
     1
 10
0.0
 20
0.0
 30
0.0
 70
     1
 75
     6
  0
VERTEX
  8
OBJECT
 10
17.425701
 20
76.519909
 30
0.0
 42
0.414214
  0
VERTEX
  8
OBJECT
 10
17.447701
 20
76.497909
 30
0.0
  0
VERTEX
  8
OBJECT
 10
17.639926
 20
76.497909
 30
0.0
  0
VERTEX
  8
OBJECT
 10
17.639926
 20
76.472909
 30
0.0
  0
VERTEX
  8
OBJECT
 10
17.447701
 20
76.472909
 30
0.0
 42
-0.414214
  0
VERTEX
  8
OBJECT
 10
17.400701
 20
76.519909
 30
0.0
  0
VERTEX
  8
OBJECT
 10
17.400701
 20
76.815986
 30
0.0
 42
-0.414214
  0
VERTEX
  8
OBJECT
 10
17.447701
 20
76.862986
 30
0.0
  0
VERTEX
  8
OBJECT
 10
17.494218
 20
76.862986
 30
0.0
 42
0.414214
  0
VERTEX
  8
OBJECT
 10
17.516218
 20
76.884986
 30
0.0
  0
VERTEX
  8
OBJECT
 10
17.516218
 20
77.189831
 30
0.0
 42
0.414214
  0
VERTEX
  8
OBJECT
 10
17.494218
 20
77.211831
 30
0.0
  0
VERTEX
  8
OBJECT
 10
17.447701
 20
77.211831
 30
0.0
 42
-0.414214
  0
VERTEX
  8
OBJECT
 10
17.400701
 20
77.258831
 30
0.0
  0
VERTEX
  8
OBJECT
 10
17.400701
 20
77.554909
 30
0.0
 42
-0.414214
  0
VERTEX
  8
OBJECT
 10
17.447701
 20
77.601909
 30
0.0
  0
VERTEX
  8
OBJECT
 10
17.639926
 20
77.601909
 30
0.0
  0
VERTEX
  8
OBJECT
 10
17.639926
 20
77.576909
 30
0.0
  0
VERTEX
  8
OBJECT
 10
17.447701
 20
77.576909
 30
0.0
 42
0.414214
  0
VERTEX
  8
OBJECT
 10
17.425701
 20
77.554909
 30
0.0
  0
VERTEX
  8
OBJECT
 10
17.425701
 20
77.258831
 30
0.0
 42
0.414214
  0
VERTEX
  8
OBJECT
 10
17.447701
 20
77.236831
 30
0.0
  0
VERTEX
  8
OBJECT
 10
17.494218
 20
77.236831
 30
0.0
 42
-0.414214
  0
VERTEX
  8
OBJECT
 10
17.541218
 20
77.189831
 30
0.0
  0
VERTEX
  8
OBJECT
 10
17.541218
 20
76.884986
 30
0.0
 42
-0.414214
  0
VERTEX
  8
OBJECT
 10
17.494218
 20
76.837986
 30
0.0
  0
VERTEX
  8
OBJECT
 10
17.447701
 20
76.837986
 30
0.0
 42
0.414214
  0
VERTEX
  8
OBJECT
 10
17.425701
 20
76.815986
 30
0.0
  0
SEQEND
  8
OBJECT
  0
ARC
  8
OBJECT
 10
17.501434
 20
76.497909
 30
0.0
 40
0.0935
 50
360.0
 51
144.094176
  0
ARC
  8
OBJECT
 10
17.501434
 20
77.576909
 30
0.0
 40
0.0935
 50
15.508402
 51
178.078271
  0
ARC
  8
OBJECT
 10
17.501434
 20
77.576909
 30
0.0
 40
0.0935
 50
215.905824
 51
0.0
  0
POLYLINE
  8
OBJECT
 66
     1
 10
0.0
 20
0.0
 30
0.0
 75
     6
  0
VERTEX
  8
OBJECT
 10
17.4576
 20
76.580497
 30
0.0
  0
VERTEX
  8
OBJECT
 10
17.428065
 20
76.636145
 30
0.0
 42
-0.33823
  0
VERTEX
  8
OBJECT
 10
17.615501
 20
76.605058
 30
0.0
 42
0.679543
  0
VERTEX
  8
OBJECT
 10
17.641434
 20
76.615328
 30
0.0
  0
VERTEX
  8
OBJECT
 10
17.641434
 20
77.45949
 30
0.0
 42
0.679543
  0
VERTEX
  8
OBJECT
 10
17.615501
 20
77.469759
 30
0.0
 42
-0.33823
  0
VERTEX
  8
OBJECT
 10
17.428065
 20
77.438672
 30
0.0
  0
VERTEX
  8
OBJECT
 10
17.457603
 20
77.494326
 30
0.0
 42
0.340971
  0
VERTEX
  8
OBJECT
 10
17.570216
 20
77.513559
 30
0.0
 42
-0.675247
  0
VERTEX
  8
OBJECT
 10
17.704434
 20
77.45949
 30
0.0
  0
VERTEX
  8
OBJECT
 10
17.704434
 20
76.615328
 30
0.0
 42
-0.675247
  0
VERTEX
  8
OBJECT
 10
17.570216
 20
76.561258
 30
0.0
 42
0.340971
  0
VERTEX
  8
OBJECT
 10
17.457603
 20
76.580491
 30
0.0
  0
SEQEND
  8
OBJECT
  0
POLYLINE
  8
OBJECT
 66
     1
 10
0.0
 20
0.0
 30
0.0
  0
VERTEX
  8
OBJECT
 10
17.391434
 20
76.881409
 30
0.0
  0
VERTEX
  8
OBJECT
 10
17.414434
 20
76.881409
 30
0.0
  0
VERTEX
  8
OBJECT
 10
17.438434
 20
76.987409
 30
0.0
  0
VERTEX
  8
OBJECT
 10
17.438434
 20
77.087409
 30
0.0
  0
VERTEX
  8
OBJECT
 10
17.414434
 20
77.193409
 30
0.0
  0
VERTEX
  8
OBJECT
 10
17.391434
 20
77.193409
 30
0.0
  0
SEQEND
  8
OBJECT
  0
ARC
  8
OBJECT
 10
17.501434
 20
76.497909
 30
0.0
 40
0.0935
 50
181.921729
 51
344.491598
  0
POLYLINE
  8
OBJECT
 66
     1
 10
0.0
 20
0.0
 30
0.0
 70
     1
 75
     6
  0
VERTEX
  8
OBJECT
 10
17.639926
 20
77.662409
 30
0.0
 42
0.238363
  0
VERTEX
  8
OBJECT
 10
17.501434
 20
77.732409
 30
0.0
 42
0.414214
  0
VERTEX
  8
OBJECT
 10
17.329434
 20
77.560409
 30
0.0
  0
VERTEX
  8
OBJECT
 10
17.329434
 20
76.514409
 30
0.0
 42
0.414214
  0
VERTEX
  8
OBJECT
 10
17.501434
 20
76.342409
 30
0.0
 42
0.238363
  0
VERTEX
  8
OBJECT
 10
17.639926
 20
76.412409
 30
0.0
  0
VERTEX
  8
OBJECT
 10
17.592741
 20
76.446193
 30
0.0
 42
-0.241913
  0
VERTEX
  8
OBJECT
 10
17.511434
 20
76.404409
 30
0.0
  0
VERTEX
  8
OBJECT
 10
17.501434
 20
76.404409
 30
0.0
 42
-0.414214
  0
VERTEX
  8
OBJECT
 10
17.391434
 20
76.514409
 30
0.0
  0
VERTEX
  8
OBJECT
 10
17.391434
 20
77.560409
 30
0.0
 42
-0.414214
  0
VERTEX
  8
OBJECT
 10
17.501434
 20
77.670409
 30
0.0
  0
VERTEX
  8
OBJECT
 10
17.511434
 20
77.670409
 30
0.0
 42
-0.241913
  0
VERTEX
  8
OBJECT
 10
17.592741
 20
77.628625
 30
0.0
  0
SEQEND
  8
OBJECT
  0
POLYLINE
  8
OBJECT
 66
     1
 10
0.0
 20
0.0
 30
0.0
 70
     1
 75
     6
  0
VERTEX
  8
OBJECT
 10
16.359167
 20
76.519909
 30
0.0
 42
-0.414214
  0
VERTEX
  8
OBJECT
 10
16.337167
 20
76.497909
 30
0.0
  0
VERTEX
  8
OBJECT
 10
16.144942
 20
76.497909
 30
0.0
  0
VERTEX
  8
OBJECT
 10
16.144942
 20
76.472909
 30
0.0
  0
VERTEX
  8
OBJECT
 10
16.337167
 20
76.472909
 30
0.0
 42
0.414214
  0
VERTEX
  8
OBJECT
 10
16.384167
 20
76.519909
 30
0.0
  0
VERTEX
  8
OBJECT
 10
16.384167
 20
76.815986
 30
0.0
 42
0.414214
  0
VERTEX
  8
OBJECT
 10
16.337167
 20
76.862986
 30
0.0
  0
VERTEX
  8
OBJECT
 10
16.29065
 20
76.862986
 30
0.0
 42
-0.414214
  0
VERTEX
  8
OBJECT
 10
16.26865
 20
76.884986
 30
0.0
  0
VERTEX
  8
OBJECT
 10
16.26865
 20
77.189831
 30
0.0
 42
-0.414214
  0
VERTEX
  8
OBJECT
 10
16.29065
 20
77.211831
 30
0.0
  0
VERTEX
  8
OBJECT
 10
16.337167
 20
77.211831
 30
0.0
 42
0.414214
  0
VERTEX
  8
OBJECT
 10
16.384167
 20
77.258831
 30
0.0
  0
VERTEX
  8
OBJECT
 10
16.384167
 20
77.554909
 30
0.0
 42
0.414214
  0
VERTEX
  8
OBJECT
 10
16.337167
 20
77.601909
 30
0.0
  0
VERTEX
  8
OBJECT
 10
16.144942
 20
77.601909
 30
0.0
  0
VERTEX
  8
OBJECT
 10
16.144942
 20
77.576909
 30
0.0
  0
VERTEX
  8
OBJECT
 10
16.337167
 20
77.576909
 30
0.0
 42
-0.414214
  0
VERTEX
  8
OBJECT
 10
16.359167
 20
77.554909
 30
0.0
  0
VERTEX
  8
OBJECT
 10
16.359167
 20
77.258831
 30
0.0
 42
-0.414214
  0
VERTEX
  8
OBJECT
 10
16.337167
 20
77.236831
 30
0.0
  0
VERTEX
  8
OBJECT
 10
16.29065
 20
77.236831
 30
0.0
 42
0.414214
  0
VERTEX
  8
OBJECT
 10
16.24365
 20
77.189831
 30
0.0
  0
VERTEX
  8
OBJECT
 10
16.24365
 20
76.884986
 30
0.0
 42
0.414214
  0
VERTEX
  8
OBJECT
 10
16.29065
 20
76.837986
 30
0.0
  0
VERTEX
  8
OBJECT
 10
16.337167
 20
76.837986
 30
0.0
 42
-0.414214
  0
VERTEX
  8
OBJECT
 10
16.359167
 20
76.815986
 30
0.0
  0
SEQEND
  8
OBJECT
  0
POLYLINE
  8
OBJECT
 66
     1
 10
0.0
 20
0.0
 30
0.0
 75
     6
  0
VERTEX
  8
OBJECT
 10
16.327268
 20
76.580497
 30
0.0
  0
VERTEX
  8
OBJECT
 10
16.356803
 20
76.636145
 30
0.0
 42
0.33823
  0
VERTEX
  8
OBJECT
 10
16.169367
 20
76.605058
 30
0.0
 42
-0.679543
  0
VERTEX
  8
OBJECT
 10
16.143434
 20
76.615328
 30
0.0
  0
VERTEX
  8
OBJECT
 10
16.143434
 20
77.45949
 30
0.0
 42
-0.679543
  0
VERTEX
  8
OBJECT
 10
16.169367
 20
77.469759
 30
0.0
 42
0.33823
  0
VERTEX
  8
OBJECT
 10
16.356803
 20
77.438672
 30
0.0
  0
VERTEX
  8
OBJECT
 10
16.327265
 20
77.494326
 30
0.0
 42
-0.340971
  0
VERTEX
  8
OBJECT
 10
16.214652
 20
77.513559
 30
0.0
 42
0.675247
  0
VERTEX
  8
OBJECT
 10
16.080434
 20
77.45949
 30
0.0
  0
VERTEX
  8
OBJECT
 10
16.080434
 20
76.615328
 30
0.0
 42
0.675247
  0
VERTEX
  8
OBJECT
 10
16.214652
 20
76.561258
 30
0.0
 42
-0.340971
  0
VERTEX
  8
OBJECT
 10
16.327265
 20
76.580491
 30
0.0
  0
SEQEND
  8
OBJECT
  0
ARC
  8
OBJECT
 10
16.283434
 20
76.497909
 30
0.0
 40
0.0935
 50
35.905824
 51
180.0
  0
POLYLINE
  8
OBJECT
 66
     1
 10
0.0
 20
0.0
 30
0.0
 70
     1
 75
     6
  0
VERTEX
  8
OBJECT
 10
16.144942
 20
77.662409
 30
0.0
 42
-0.238363
  0
VERTEX
  8
OBJECT
 10
16.283434
 20
77.732409
 30
0.0
 42
-0.414214
  0
VERTEX
  8
OBJECT
 10
16.455434
 20
77.560409
 30
0.0
  0
VERTEX
  8
OBJECT
 10
16.455434
 20
76.514409
 30
0.0
 42
-0.414214
  0
VERTEX
  8
OBJECT
 10
16.283434
 20
76.342409
 30
0.0
 42
-0.238363
  0
VERTEX
  8
OBJECT
 10
16.144942
 20
76.412409
 30
0.0
  0
VERTEX
  8
OBJECT
 10
16.192127
 20
76.446193
 30
0.0
 42
0.241913
  0
VERTEX
  8
OBJECT
 10
16.273434
 20
76.404409
 30
0.0
  0
VERTEX
  8
OBJECT
 10
16.283434
 20
76.404409
 30
0.0
 42
0.414214
  0
VERTEX
  8
OBJECT
 10
16.393434
 20
76.514409
 30
0.0
  0
VERTEX
  8
OBJECT
 10
16.393434
 20
77.560409
 30
0.0
 42
0.414214
  0
VERTEX
  8
OBJECT
 10
16.283434
 20
77.670409
 30
0.0
  0
VERTEX
  8
OBJECT
 10
16.273434
 20
77.670409
 30
0.0
 42
0.241913
  0
VERTEX
  8
OBJECT
 10
16.192127
 20
77.628625
 30
0.0
  0
SEQEND
  8
OBJECT
  0
POLYLINE
  8
SHELF
 66
     1
 10
0.0
 20
0.0
 30
0.0
 70
     1
  0
VERTEX
  8
SHELF
 10
16.517434
 20
77.412409
 30
0.0
  0
VERTEX
  8
SHELF
 10
16.455434
 20
77.412409
 30
0.0
  0
VERTEX
  8
SHELF
 10
16.455434
 20
76.303409
 30
0.0
 42
0.414214
  0
VERTEX
  8
SHELF
 10
16.533434
 20
76.225409
 30
0.0
  0
VERTEX
  8
SHELF
 10
17.251434
 20
76.225409
 30
0.0
 42
0.414214
  0
VERTEX
  8
SHELF
 10
17.329434
 20
76.303409
 30
0.0
  0
VERTEX
  8
SHELF
 10
17.329434
 20
77.412409
 30
0.0
  0
VERTEX
  8
SHELF
 10
17.267434
 20
77.412409
 30
0.0
  0
VERTEX
  8
SHELF
 10
17.267434
 20
76.303409
 30
0.0
 42
-0.414214
  0
VERTEX
  8
SHELF
 10
17.251434
 20
76.287409
 30
0.0
  0
VERTEX
  8
SHELF
 10
16.533434
 20
76.287409
 30
0.0
 42
-0.414214
  0
VERTEX
  8
SHELF
 10
16.517434
 20
76.303409
 30
0.0
  0
SEQEND
  8
SHELF
  0
ARC
  8
OBJECT
 10
16.283434
 20
76.497909
 30
0.0
 40
0.0935
 50
195.508402
 51
358.078271
  0
ARC
  8
OBJECT
 10
16.283434
 20
77.576909
 30
0.0
 40
0.0935
 50
180.0
 51
324.094176
  0
ARC
  8
OBJECT
 10
16.283434
 20
77.576909
 30
0.0
 40
0.0935
 50
1.921729
 51
164.491598
  0
POLYLINE
  8
OBJECT
 66
     1
 10
0.0
 20
0.0
 30
0.0
  0
VERTEX
  8
OBJECT
 10
16.393434
 20
76.881409
 30
0.0
  0
VERTEX
  8
OBJECT
 10
16.370434
 20
76.881409
 30
0.0
  0
VERTEX
  8
OBJECT
 10
16.346434
 20
76.987409
 30
0.0
  0
VERTEX
  8
OBJECT
 10
16.346434
 20
77.087409
 30
0.0
  0
VERTEX
  8
OBJECT
 10
16.370434
 20
77.193409
 30
0.0
  0
VERTEX
  8
OBJECT
 10
16.393434
 20
77.193409
 30
0.0
  0
SEQEND
  8
OBJECT
  0
DIMENSION
  8
DIM
  2
*D2
 10
17.392434
 20
80.170664
 30
0.0
 11
22.179934
 21
80.170664
 31
0.0
 12
2.421702
 22
55.795228
 32
0.0
 13
16.392434
 23
78.280409
 33
0.0
 14
17.392434
 24
78.280409
 34
0.0
  3
23NSTD
  0
LINE
  8
HANDLE
  6
HIDDEN2
 10
14.259434
 20
78.042409
 30
0.0
 11
14.259434
 21
78.126216
 31
0.0
  0
LINE
  8
HANDLE
  6
HIDDEN2
 10
14.197434
 20
78.042409
 30
0.0
 11
14.197434
 21
78.126216
 31
0.0
  0
LINE
  8
HANDLE
  6
HIDDEN2
 10
13.197434
 20
78.042409
 30
0.0
 11
13.197434
 21
78.126216
 31
0.0
  0
LINE
  8
HANDLE
  6
HIDDEN2
 10
13.259434
 20
78.042409
 30
0.0
 11
13.259434
 21
78.126216
 31
0.0
  0
LINE
  8
HANDLE
  6
HIDDEN2
 10
12.259434
 20
78.042409
 30
0.0
 11
12.259434
 21
78.126216
 31
0.0
  0
LINE
  8
HANDLE
  6
HIDDEN2
 10
12.197434
 20
78.042409
 30
0.0
 11
12.197434
 21
78.126216
 31
0.0
  0
POLYLINE
  8
SLIDE-SHELF
  6
HIDDEN
 66
     1
 10
0.0
 20
0.0
 30
0.0
  0
VERTEX
  8
SLIDE-SHELF
  6
HIDDEN
 10
8.126434
 20
78.342409
 30
0.0
 42
1.0
  0
VERTEX
  8
SLIDE-SHELF
  6
HIDDEN
 10
8.126434
 20
78.218409
 30
0.0
  0
VERTEX
  8
SLIDE-SHELF
  6
HIDDEN
 10
8.376434
 20
78.218409
 30
0.0
  0
VERTEX
  8
SLIDE-SHELF
  6
HIDDEN
 10
8.376434
 20
76.662409
 30
0.0
  0
VERTEX
  8
SLIDE-SHELF
  6
HIDDEN
 10
8.438434
 20
76.662409
 30
0.0
  0
VERTEX
  8
SLIDE-SHELF
  6
HIDDEN
 10
8.438434
 20
78.280409
 30
0.0
  0
SEQEND
  8
SLIDE-SHELF
  6
HIDDEN
  0
POLYLINE
  8
OBJECT
 66
     1
 10
0.0
 20
0.0
 30
0.0
 70
     1
 75
     6
  0
VERTEX
  8
OBJECT
 10
8.311926
 20
77.662409
 30
0.0
 42
0.238363
  0
VERTEX
  8
OBJECT
 10
8.173434
 20
77.732409
 30
0.0
 42
0.414214
  0
VERTEX
  8
OBJECT
 10
8.001434
 20
77.560409
 30
0.0
  0
VERTEX
  8
OBJECT
 10
8.001434
 20
76.514409
 30
0.0
 42
0.414214
  0
VERTEX
  8
OBJECT
 10
8.173434
 20
76.342409
 30
0.0
 42
0.238363
  0
VERTEX
  8
OBJECT
 10
8.311926
 20
76.412409
 30
0.0
  0
VERTEX
  8
OBJECT
 10
8.264741
 20
76.446193
 30
0.0
 42
-0.241913
  0
VERTEX
  8
OBJECT
 10
8.183434
 20
76.404409
 30
0.0
  0
VERTEX
  8
OBJECT
 10
8.173434
 20
76.404409
 30
0.0
 42
-0.414214
  0
VERTEX
  8
OBJECT
 10
8.063434
 20
76.514409
 30
0.0
  0
VERTEX
  8
OBJECT
 10
8.063434
 20
77.560409
 30
0.0
 42
-0.414214
  0
VERTEX
  8
OBJECT
 10
8.173434
 20
77.670409
 30
0.0
  0
VERTEX
  8
OBJECT
 10
8.183434
 20
77.670409
 30
0.0
 42
-0.241913
  0
VERTEX
  8
OBJECT
 10
8.264741
 20
77.628625
 30
0.0
  0
SEQEND
  8
OBJECT
  0
POLYLINE
  8
OBJECT
 66
     1
 10
0.0
 20
0.0
 30
0.0
 70
     1
 75
     6
  0
VERTEX
  8
OBJECT
 10
8.097701
 20
76.519909
 30
0.0
 42
0.414214
  0
VERTEX
  8
OBJECT
 10
8.119701
 20
76.497909
 30
0.0
  0
VERTEX
  8
OBJECT
 10
8.311926
 20
76.497909
 30
0.0
  0
VERTEX
  8
OBJECT
 10
8.311926
 20
76.472909
 30
0.0
  0
VERTEX
  8
OBJECT
 10
8.119701
 20
76.472909
 30
0.0
 42
-0.414214
  0
VERTEX
  8
OBJECT
 10
8.072701
 20
76.519909
 30
0.0
  0
VERTEX
  8
OBJECT
 10
8.072701
 20
76.815986
 30
0.0
 42
-0.414214
  0
VERTEX
  8
OBJECT
 10
8.119701
 20
76.862986
 30
0.0
  0
VERTEX
  8
OBJECT
 10
8.166218
 20
76.862986
 30
0.0
 42
0.414214
  0
VERTEX
  8
OBJECT
 10
8.188218
 20
76.884986
 30
0.0
  0
VERTEX
  8
OBJECT
 10
8.188218
 20
77.189831
 30
0.0
 42
0.414214
  0
VERTEX
  8
OBJECT
 10
8.166218
 20
77.211831
 30
0.0
  0
VERTEX
  8
OBJECT
 10
8.119701
 20
77.211831
 30
0.0
 42
-0.414214
  0
VERTEX
  8
OBJECT
 10
8.072701
 20
77.258831
 30
0.0
  0
VERTEX
  8
OBJECT
 10
8.072701
 20
77.554909
 30
0.0
 42
-0.414214
  0
VERTEX
  8
OBJECT
 10
8.119701
 20
77.601909
 30
0.0
  0
VERTEX
  8
OBJECT
 10
8.311926
 20
77.601909
 30
0.0
  0
VERTEX
  8
OBJECT
 10
8.311926
 20
77.576909
 30
0.0
  0
VERTEX
  8
OBJECT
 10
8.119701
 20
77.576909
 30
0.0
 42
0.414214
  0
VERTEX
  8
OBJECT
 10
8.097701
 20
77.554909
 30
0.0
  0
VERTEX
  8
OBJECT
 10
8.097701
 20
77.258831
 30
0.0
 42
0.414214
  0
VERTEX
  8
OBJECT
 10
8.119701
 20
77.236831
 30
0.0
  0
VERTEX
  8
OBJECT
 10
8.166218
 20
77.236831
 30
0.0
 42
-0.414214
  0
VERTEX
  8
OBJECT
 10
8.213218
 20
77.189831
 30
0.0
  0
VERTEX
  8
OBJECT
 10
8.213218
 20
76.884986
 30
0.0
 42
-0.414214
  0
VERTEX
  8
OBJECT
 10
8.166218
 20
76.837986
 30
0.0
  0
VERTEX
  8
OBJECT
 10
8.119701
 20
76.837986
 30
0.0
 42
0.414214
  0
VERTEX
  8
OBJECT
 10
8.097701
 20
76.815986
 30
0.0
  0
SEQEND
  8
OBJECT
  0
ARC
  8
OBJECT
 10
8.173434
 20
76.497909
 30
0.0
 40
0.0935
 50
360.0
 51
144.094176
  0
POLYLINE
  8
OBJECT
 66
     1
 10
0.0
 20
0.0
 30
0.0
 75
     6
  0
VERTEX
  8
OBJECT
 10
8.1296
 20
76.580497
 30
0.0
  0
VERTEX
  8
OBJECT
 10
8.100065
 20
76.636145
 30
0.0
 42
-0.33823
  0
VERTEX
  8
OBJECT
 10
8.287501
 20
76.605058
 30
0.0
 42
0.679543
  0
VERTEX
  8
OBJECT
 10
8.313434
 20
76.615328
 30
0.0
  0
VERTEX
  8
OBJECT
 10
8.313434
 20
77.45949
 30
0.0
 42
0.679543
  0
VERTEX
  8
OBJECT
 10
8.287501
 20
77.469759
 30
0.0
 42
-0.33823
  0
VERTEX
  8
OBJECT
 10
8.100065
 20
77.438672
 30
0.0
  0
VERTEX
  8
OBJECT
 10
8.129603
 20
77.494326
 30
0.0
 42
0.340971
  0
VERTEX
  8
OBJECT
 10
8.242216
 20
77.513559
 30
0.0
 42
-0.675247
  0
VERTEX
  8
OBJECT
 10
8.376434
 20
77.45949
 30
0.0
  0
VERTEX
  8
OBJECT
 10
8.376434
 20
76.615328
 30
0.0
 42
-0.675247
  0
VERTEX
  8
OBJECT
 10
8.242216
 20
76.561258
 30
0.0
 42
0.340971
  0
VERTEX
  8
OBJECT
 10
8.129603
 20
76.580491
 30
0.0
  0
SEQEND
  8
OBJECT
  0
ARC
  8
OBJECT
 10
8.173434
 20
76.497909
 30
0.0
 40
0.0935
 50
181.921729
 51
344.491598
  0
POLYLINE
  8
OBJECT
 66
     1
 10
0.0
 20
0.0
 30
0.0
  0
VERTEX
  8
OBJECT
 10
7.939434
 20
76.881409
 30
0.0
  0
VERTEX
  8
OBJECT
 10
7.916434
 20
76.881409
 30
0.0
  0
VERTEX
  8
OBJECT
 10
7.892434
 20
76.987409
 30
0.0
  0
VERTEX
  8
OBJECT
 10
7.892434
 20
77.087409
 30
0.0
  0
VERTEX
  8
OBJECT
 10
7.916434
 20
77.193409
 30
0.0
  0
VERTEX
  8
OBJECT
 10
7.939434
 20
77.193409
 30
0.0
  0
SEQEND
  8
OBJECT
  0
ARC
  8
OBJECT
 10
8.173434
 20
77.576909
 30
0.0
 40
0.0935
 50
15.508402
 51
178.078271
  0
ARC
  8
OBJECT
 10
8.173434
 20
77.576909
 30
0.0
 40
0.0935
 50
215.905824
 51
0.0
  0
LINE
  8
HANDLE
  6
HIDDEN2
 10
10.259434
 20
78.042409
 30
0.0
 11
10.259434
 21
78.126216
 31
0.0
  0
LINE
  8
HANDLE
  6
HIDDEN2
 10
11.197434
 20
78.042409
 30
0.0
 11
11.197434
 21
78.126216
 31
0.0
  0
LINE
  8
HANDLE
  6
HIDDEN2
 10
11.259434
 20
78.042409
 30
0.0
 11
11.259434
 21
78.126216
 31
0.0
  0
LINE
  8
HANDLE
  6
HIDDEN2
 10
10.197434
 20
78.042409
 30
0.0
 11
10.197434
 21
78.126216
 31
0.0
  0
POLYLINE
  8
SLIDE-SHELF
 66
     1
 10
0.0
 20
0.0
 30
0.0
  0
VERTEX
  8
SLIDE-SHELF
 10
34.609989
 20
78.281409
 30
0.0
  0
VERTEX
  8
SLIDE-SHELF
 10
34.437989
 20
78.281409
 30
0.0
 42
0.414214
  0
VERTEX
  8
SLIDE-SHELF
 10
34.421989
 20
78.265409
 30
0.0
  0
VERTEX
  8
SLIDE-SHELF
 10
34.421989
 20
76.343409
 30
0.0
  0
VERTEX
  8
SLIDE-SHELF
 10
34.359989
 20
76.343409
 30
0.0
  0
VERTEX
  8
SLIDE-SHELF
 10
34.359989
 20
78.265409
 30
0.0
 42
-0.414214
  0
VERTEX
  8
SLIDE-SHELF
 10
34.437989
 20
78.343409
 30
0.0
  0
VERTEX
  8
SLIDE-SHELF
 10
49.359989
 20
78.343409
 30
0.0
  0
SEQEND
  8
SLIDE-SHELF
  0
LINE
  8
SLIDE-SHELF
  6
HIDDEN
 10
49.437989
 20
78.219409
 30
0.0
 11
54.359989
 21
78.219409
 31
0.0
  0
POLYLINE
  8
SLIDE-SHELF
  6
HIDDEN
 66
     1
 10
0.0
 20
0.0
 30
0.0
  0
VERTEX
  8
SLIDE-SHELF
  6
HIDDEN
 10
49.437989
 20
78.343409
 30
0.0
  0
VERTEX
  8
SLIDE-SHELF
  6
HIDDEN
 10
54.359989
 20
78.343409
 30
0.0
  0
VERTEX
  8
SLIDE-SHELF
  6
HIDDEN
 10
54.359989
 20
76.663409
 30
0.0
  0
VERTEX
  8
SLIDE-SHELF
  6
HIDDEN
 10
49.437989
 20
76.663409
 30
0.0
  0
SEQEND
  8
SLIDE-SHELF
  6
HIDDEN
  0
POLYLINE
  8
SLIDE-SHELF
 66
     1
 10
0.0
 20
0.0
 30
0.0
  0
VERTEX
  8
SLIDE-SHELF
 10
49.359989
 20
76.663409
 30
0.0
  0
VERTEX
  8
SLIDE-SHELF
 10
34.609989
 20
76.663409
 30
0.0
  0
VERTEX
  8
SLIDE-SHELF
 10
34.609989
 20
78.343409
 30
0.0
  0
SEQEND
  8
SLIDE-SHELF
  0
POLYLINE
  8
SHELF
 66
     1
 10
0.0
 20
0.0
 30
0.0
  0
VERTEX
  8
SHELF
 10
49.281989
 20
82.952125
 30
0.0
  0
VERTEX
  8
SHELF
 10
49.281989
 20
82.920125
 30
0.0
  0
VERTEX
  8
SHELF
 10
49.359489
 20
82.920125
 30
0.0
  0
VERTEX
  8
SHELF
 10
49.359489
 20
82.827125
 30
0.0
  0
VERTEX
  8
SHELF
 10
71.954489
 20
82.827125
 30
0.0
  0
VERTEX
  8
SHELF
 10
71.954489
 20
82.920125
 30
0.0
  0
VERTEX
  8
SHELF
 10
72.031989
 20
82.920125
 30
0.0
  0
VERTEX
  8
SHELF
 10
72.031989
 20
100.640125
 30
0.0
  0
VERTEX
  8
SHELF
 10
71.954489
 20
100.640125
 30
0.0
  0
VERTEX
  8
SHELF
 10
71.954489
 20
100.733125
 30
0.0
  0
VERTEX
  8
SHELF
 10
49.359489
 20
100.733125
 30
0.0
  0
VERTEX
  8
SHELF
 10
49.359489
 20
100.640125
 30
0.0
  0
VERTEX
  8
SHELF
 10
49.281989
 20
100.640125
 30
0.0
  0
SEQEND
  8
SHELF
  0
POLYLINE
  8
SHELF
 66
     1
 10
0.0
 20
0.0
 30
0.0
  0
VERTEX
  8
SHELF
 10
49.281989
 20
100.640125
 30
0.0
  0
VERTEX
  8
SHELF
 10
49.281989
 20
91.280125
 30
0.0
  0
SEQEND
  8
SHELF
  0
POLYLINE
  8
SHELF
  6
HIDDEN
 66
     1
 10
0.0
 20
0.0
 30
0.0
  0
VERTEX
  8
SHELF
  6
HIDDEN
 10
49.281989
 20
91.218125
 30
0.0
  0
VERTEX
  8
SHELF
  6
HIDDEN
 10
49.281989
 20
83.014125
 30
0.0
  0
SEQEND
  8
SHELF
  6
HIDDEN
  0
DIMENSION
  8
DIM
  2
*D6
 10
31.495989
 20
78.343409
 30
0.0
 11
31.495989
 21
77.343409
 31
0.0
 12
2.421702
 22
55.795228
 32
0.0
 13
34.359989
 23
76.343409
 33
0.0
 14
34.437989
 24
78.343409
 34
0.0
 50
90.0
  3
23NSTDI
  0
DIMENSION
  8
DIM
  2
*D0
 10
49.359989
 20
95.932783
 30
0.0
 11
59.359989
 21
95.932783
 31
0.0
 12
-171.221524
 22
44.782667
 32
0.0
  1
<> SLIDING SHELF
 13
69.359989
 23
95.680783
 33
0.0
 14
49.359989
 24
95.680783
 34
0.0
  3
23NSTD
  0
POLYLINE
  8
PMR
 66
     1
 10
0.0
 20
0.0
 30
0.0
 70
     1
  0
VERTEX
  8
PMR
 10
50.391989
 20
82.295125
 30
0.0
  0
VERTEX
  8
PMR
 10
49.141989
 20
82.295125
 30
0.0
 42
-0.414214
  0
VERTEX
  8
PMR
 10
49.125989
 20
82.311125
 30
0.0
  0
VERTEX
  8
PMR
 10
49.125989
 20
82.811125
 30
0.0
  0
VERTEX
  8
PMR
 10
49.016989
 20
82.811125
 30
0.0
  0
VERTEX
  8
PMR
 10
49.016989
 20
82.311125
 30
0.0
 42
0.414214
  0
VERTEX
  8
PMR
 10
49.141989
 20
82.186125
 30
0.0
  0
VERTEX
  8
PMR
 10
50.391989
 20
82.186125
 30
0.0
 42
0.414214
  0
VERTEX
  8
PMR
 10
50.516989
 20
82.311125
 30
0.0
  0
VERTEX
  8
PMR
 10
50.516989
 20
82.686125
 30
0.0
 42
-0.414214
  0
VERTEX
  8
PMR
 10
50.532989
 20
82.702125
 30
0.0
  0
VERTEX
  8
PMR
 10
51.094989
 20
82.702125
 30
0.0
  0
VERTEX
  8
PMR
 10
51.094989
 20
82.811125
 30
0.0
  0
VERTEX
  8
PMR
 10
50.532989
 20
82.811125
 30
0.0
 42
0.414214
  0
VERTEX
  8
PMR
 10
50.407989
 20
82.686125
 30
0.0
  0
VERTEX
  8
PMR
 10
50.407989
 20
82.311125
 30
0.0
 42
-0.414214
  0
SEQEND
  8
PMR
  0
POLYLINE
  8
PMR
 66
     1
 10
0.0
 20
0.0
 30
0.0
 70
     1
  0
VERTEX
  8
PMR
 10
65.641989
 20
82.295125
 30
0.0
  0
VERTEX
  8
PMR
 10
66.891989
 20
82.295125
 30
0.0
 42
0.414214
  0
VERTEX
  8
PMR
 10
66.907989
 20
82.311125
 30
0.0
  0
VERTEX
  8
PMR
 10
66.907989
 20
82.811125
 30
0.0
  0
VERTEX
  8
PMR
 10
67.016989
 20
82.811125
 30
0.0
  0
VERTEX
  8
PMR
 10
67.016989
 20
82.311125
 30
0.0
 42
-0.414214
  0
VERTEX
  8
PMR
 10
66.891989
 20
82.186125
 30
0.0
  0
VERTEX
  8
PMR
 10
65.641989
 20
82.186125
 30
0.0
 42
-0.414214
  0
VERTEX
  8
PMR
 10
65.516989
 20
82.311125
 30
0.0
  0
VERTEX
  8
PMR
 10
65.516989
 20
82.686125
 30
0.0
 42
0.414214
  0
VERTEX
  8
PMR
 10
65.500989
 20
82.702125
 30
0.0
  0
VERTEX
  8
PMR
 10
64.938989
 20
82.702125
 30
0.0
  0
VERTEX
  8
PMR
 10
64.938989
 20
82.811125
 30
0.0
  0
VERTEX
  8
PMR
 10
65.500989
 20
82.811125
 30
0.0
 42
-0.414214
  0
VERTEX
  8
PMR
 10
65.625989
 20
82.686125
 30
0.0
  0
VERTEX
  8
PMR
 10
65.625989
 20
82.311125
 30
0.0
 42
0.414214
  0
SEQEND
  8
PMR
  0
POLYLINE
  8
PMR
 66
     1
 10
0.0
 20
0.0
 30
0.0
 70
     1
  0
VERTEX
  8
PMR
 10
65.641989
 20
101.265125
 30
0.0
  0
VERTEX
  8
PMR
 10
66.891989
 20
101.265125
 30
0.0
 42
-0.414214
  0
VERTEX
  8
PMR
 10
66.907989
 20
101.249125
 30
0.0
  0
VERTEX
  8
PMR
 10
66.907989
 20
100.749125
 30
0.0
  0
VERTEX
  8
PMR
 10
67.016989
 20
100.749125
 30
0.0
  0
VERTEX
  8
PMR
 10
67.016989
 20
101.249125
 30
0.0
 42
0.414214
  0
VERTEX
  8
PMR
 10
66.891989
 20
101.374125
 30
0.0
  0
VERTEX
  8
PMR
 10
65.641989
 20
101.374125
 30
0.0
 42
0.414214
  0
VERTEX
  8
PMR
 10
65.516989
 20
101.249125
 30
0.0
  0
VERTEX
  8
PMR
 10
65.516989
 20
100.874125
 30
0.0
 42
-0.414214
  0
VERTEX
  8
PMR
 10
65.500989
 20
100.858125
 30
0.0
  0
VERTEX
  8
PMR
 10
64.938989
 20
100.858125
 30
0.0
  0
VERTEX
  8
PMR
 10
64.938989
 20
100.749125
 30
0.0
  0
VERTEX
  8
PMR
 10
65.500989
 20
100.749125
 30
0.0
 42
0.414214
  0
VERTEX
  8
PMR
 10
65.625989
 20
100.874125
 30
0.0
  0
VERTEX
  8
PMR
 10
65.625989
 20
101.249125
 30
0.0
 42
-0.414214
  0
SEQEND
  8
PMR
  0
POLYLINE
  8
PMR
 66
     1
 10
0.0
 20
0.0
 30
0.0
 70
     1
  0
VERTEX
  8
PMR
 10
50.391989
 20
101.265125
 30
0.0
  0
VERTEX
  8
PMR
 10
49.141989
 20
101.265125
 30
0.0
 42
0.414214
  0
VERTEX
  8
PMR
 10
49.125989
 20
101.249125
 30
0.0
  0
VERTEX
  8
PMR
 10
49.125989
 20
100.749125
 30
0.0
  0
VERTEX
  8
PMR
 10
49.016989
 20
100.749125
 30
0.0
  0
VERTEX
  8
PMR
 10
49.016989
 20
101.249125
 30
0.0
 42
-0.414214
  0
VERTEX
  8
PMR
 10
49.141989
 20
101.374125
 30
0.0
  0
VERTEX
  8
PMR
 10
50.391989
 20
101.374125
 30
0.0
 42
-0.414214
  0
VERTEX
  8
PMR
 10
50.516989
 20
101.249125
 30
0.0
  0
VERTEX
  8
PMR
 10
50.516989
 20
100.874125
 30
0.0
 42
0.414214
  0
VERTEX
  8
PMR
 10
50.532989
 20
100.858125
 30
0.0
  0
VERTEX
  8
PMR
 10
51.094989
 20
100.858125
 30
0.0
  0
VERTEX
  8
PMR
 10
51.094989
 20
100.749125
 30
0.0
  0
VERTEX
  8
PMR
 10
50.532989
 20
100.749125
 30
0.0
 42
-0.414214
  0
VERTEX
  8
PMR
 10
50.407989
 20
100.874125
 30
0.0
  0
VERTEX
  8
PMR
 10
50.407989
 20
101.249125
 30
0.0
 42
0.414214
  0
SEQEND
  8
PMR
  0
DIMENSION
  8
DIM
  2
*D7
 10
49.281989
 20
93.033733
 30
0.0
 11
41.820989
 21
93.033733
 31
0.0
 12
2.421702
 22
55.795228
 32
0.0
 13
34.359989
 23
91.218125
 33
0.0
 14
49.281989
 24
91.218125
 34
0.0
  3
23NSTD
  0
TEXT
  8
TEXT
 10
2.939139
 20
116.856409
 30
0.0
 40
1.0
  1
%%uMATERIAL:
 41
0.75
  0
TEXT
  8
TEXT
 10
3.832747
 20
115.189742
 30
0.0
 40
1.0
  1
SHELVES & BRACKET
 41
0.75
  0
TEXT
  8
TEXT
 10
2.939139
 20
110.189742
 30
0.0
 40
1.0
  1
%%uFINISH:
 41
0.75
  0
TEXT
  8
TEXT
 10
3.832747
 20
108.523076
 30
0.0
 40
1.0
  1
SHELVES & BRACKET
 41
0.75
  0
TEXT
  8
TEXT
 10
3.832747
 20
113.570742
 30
0.0
 40
1.0
  1
HANDLES
 41
0.75
  0
TEXT
  8
TEXT
 10
3.832747
 20
106.904076
 30
0.0
 40
1.0
  1
HANDLES
 41
0.75
  0
TEXT
  8
TEXT
 10
3.832747
 20
103.570742
 30
0.0
 40
1.0
  1
SLIDE LOAD RATING:  92 LBS. (PER PAIR)
 41
0.75
  0
TEXT
  8
TEXT
 10
20.503295
 20
115.189742
 30
0.0
 40
1.0
  1
16 GA. STEEL
 41
0.75
  0
TEXT
  8
TEXT
 10
20.503295
 20
113.570742
 30
0.0
 40
1.0
  1
ABS PLASTIC
 41
0.75
  0
TEXT
  8
TEXT
 10
20.503295
 20
108.523076
 30
0.0
 40
1.0
  1
SMOOTH BLACK
 41
0.75
  0
TEXT
  8
TEXT
 10
20.503295
 20
106.904076
 30
0.0
 40
1.0
  1
BLACK
 41
0.75
  0
LINE
  8
TEXT
 10
19.957202
 20
115.189742
 30
0.0
 11
16.884792
 21
115.189742
 31
0.0
  0
LINE
  8
TEXT
 10
19.957202
 20
113.570742
 30
0.0
 11
9.428208
 21
113.570742
 31
0.0
  0
LINE
  8
TEXT
 10
19.957202
 20
106.904076
 30
0.0
 11
9.428208
 21
106.904076
 31
0.0
  0
LINE
  8
TEXT
 10
19.957202
 20
108.523076
 30
0.0
 11
16.884792
 21
108.523076
 31
0.0
  0
POLYLINE
  8
DIM
 66
     1
 10
0.0
 20
0.0
 30
0.0
 41
0.54
  0
VERTEX
  8
DIM
 10
49.141989
 20
101.374125
 30
0.0
  0
VERTEX
  8
DIM
 10
48.139764
 20
102.408119
 30
0.0
 41
0.0
  0
VERTEX
  8
DIM
 10
46.722275
 20
103.870539
 30
0.0
 41
0.0
  0
VERTEX
  8
DIM
 10
45.282275
 20
103.870539
 30
0.0
 41
0.0
  0
SEQEND
  8
DIM
  0
TEXT
  8
DIM
 10
34.062275
 20
103.370539
 30
0.0
 40
1.0
  1
REF. RACK PANEL
 41
0.75
 72
     2
 11
44.562275
 21
103.870539
 31
0.0
 73
     2
  0
TEXT
  8
DIM
 10
34.812275
 20
101.703872
 30
0.0
 40
1.0
  1
MOUNTING RAILS
 41
0.75
 72
     2
 11
44.562275
 21
102.203872
 31
0.0
 73
     2
  0
TEXT
  8
TEXT
 10
1.662667
 20
120.480634
 30
0.0
 40
1.0
  1
NAME
 72
     1
 11
3.496
 21
120.480634
 31
0.0
  0
TEXT
  8
TEXT
 10
1.662667
 20
122.1473
 30
0.0
 40
1.0
  1
PART
 72
     1
 11
3.496
 21
122.1473
 31
0.0
  0
TEXT
  8
TEXT
 10
42.976
 20
120.480634
 30
0.0
 40
1.0
  1
No.
 72
     1
 11
43.976
 21
120.480634
 31
0.0
  0
TEXT
  8
TEXT
 10
42.142667
 20
122.1473
 30
0.0
 40
1.0
  1
PART
 72
     1
 11
43.976
 21
122.1473
 31
0.0
  0
LINE
  8
TITLE
 10
46.976
 20
123.504
 30
0.0
 11
46.976
 21
120.16
 31
0.0
  0
LINE
  8
TITLE
 10
40.976
 20
123.504
 30
0.0
 11
40.976
 21
120.16
 31
0.0
  0
LINE
  8
TITLE
 10
40.48
 20
123.504
 30
0.0
 11
40.48
 21
120.16
 31
0.0
  0
LINE
  8
TITLE
 10
6.496
 20
120.16
 30
0.0
 11
6.496
 21
123.504
 31
0.0
  0
LINE
  8
TITLE
 10
0.496
 20
120.16
 30
0.0
 11
80.464
 21
120.16
 31
0.0
  0
LINE
  8
TITLE
 10
80.464
 20
0.496
 30
0.0
 11
0.496
 21
0.496
 31
0.0
  0
LINE
  8
TITLE
 10
80.464
 20
123.504
 30
0.0
 11
80.464
 21
62.248
 31
0.0
  0
LINE
  8
TITLE
 10
0.496
 20
123.504
 30
0.0
 11
80.464
 21
123.504
 31
0.0
  0
LINE
  8
TITLE
 10
0.496
 20
0.496
 30
0.0
 11
0.496
 21
61.752
 31
0.0
  0
LINE
  8
TITLE
 10
0.0
 20
0.0
 30
0.0
 11
0.0
 21
124.0
 31
0.0
  0
LINE
  8
TITLE
 10
80.96
 20
0.0
 30
0.0
 11
0.0
 21
0.0
 31
0.0
  0
LINE
  8
TITLE
 10
80.96
 20
124.0
 30
0.0
 11
80.96
 21
0.0
 31
0.0
  0
LINE
  8
TITLE
 10
0.0
 20
124.0
 30
0.0
 11
80.96
 21
124.0
 31
0.0
  0
LINE
  8
TITLE
 10
0.496
 20
62.248
 30
0.0
 11
80.464
 21
62.248
 31
0.0
  0
LINE
  8
TITLE
 10
0.496
 20
61.752
 30
0.0
 11
80.464
 21
61.752
 31
0.0
  0
LINE
  8
TITLE
 10
0.496
 20
58.408
 30
0.0
 11
80.464
 21
58.408
 31
0.0
  0
TEXT
  8
TEXT
 10
1.662667
 20
60.3953
 30
0.0
 40
1.0
  1
PART
 72
     1
 11
3.496
 21
60.3953
 31
0.0
  0
TEXT
  8
TEXT
 10
1.662667
 20
58.728634
 30
0.0
 40
1.0
  1
NAME
 72
     1
 11
3.496
 21
58.728634
 31
0.0
  0
LINE
  8
TITLE
 10
6.496
 20
58.408
 30
0.0
 11
6.496
 21
61.752
 31
0.0
  0
TEXT
  8
TEXT
 10
42.142667
 20
60.3953
 30
0.0
 40
1.0
  1
PART
 72
     1
 11
43.976
 21
60.3953
 31
0.0
  0
TEXT
  8
TEXT
 10
42.976
 20
58.728634
 30
0.0
 40
1.0
  1
No.
 72
     1
 11
43.976
 21
58.728634
 31
0.0
  0
LINE
  8
TITLE
 10
40.48
 20
61.752
 30
0.0
 11
40.48
 21
58.408
 31
0.0
  0
LINE
  8
TITLE
 10
40.976
 20
61.752
 30
0.0
 11
40.976
 21
58.408
 31
0.0
  0
LINE
  8
TITLE
 10
46.976
 20
61.752
 30
0.0
 11
46.976
 21
58.408
 31
0.0
  0
LINE
  8
TITLE
 10
80.464
 20
61.752
 30
0.0
 11
80.464
 21
0.496
 31
0.0
  0
LINE
  8
TITLE
 10
0.496
 20
62.248
 30
0.0
 11
0.496
 21
123.504
 31
0.0
  0
POLYLINE
  8
OBJECT
 66
     1
 10
0.0
 20
0.0
 30
0.0
  0
VERTEX
  8
OBJECT
 10
17.048434
 20
76.287409
 30
0.0
  0
VERTEX
  8
OBJECT
 10
17.048434
 20
76.310409
 30
0.0
  0
VERTEX
  8
OBJECT
 10
16.942434
 20
76.334409
 30
0.0
  0
VERTEX
  8
OBJECT
 10
16.842434
 20
76.334409
 30
0.0
  0
VERTEX
  8
OBJECT
 10
16.736434
 20
76.310409
 30
0.0
  0
VERTEX
  8
OBJECT
 10
16.736434
 20
76.287409
 30
0.0
  0
SEQEND
  8
OBJECT
  0
POLYLINE
  8
OBJECT
 66
     1
 10
0.0
 20
0.0
 30
0.0
  0
VERTEX
  8
OBJECT
 10
16.814434
 20
76.163409
 30
0.0
  0
VERTEX
  8
OBJECT
 10
16.814434
 20
76.054409
 30
0.0
  0
VERTEX
  8
OBJECT
 10
16.970434
 20
76.054409
 30
0.0
  0
VERTEX
  8
OBJECT
 10
16.970434
 20
76.163409
 30
0.0
  0
SEQEND
  8
OBJECT
  0
POLYLINE
  8
OBJECT
 66
     1
 10
0.0
 20
0.0
 30
0.0
  0
VERTEX
  8
OBJECT
 10
16.517434
 20
77.115409
 30
0.0
  0
VERTEX
  8
OBJECT
 10
16.626434
 20
77.115409
 30
0.0
  0
VERTEX
  8
OBJECT
 10
16.626434
 20
76.959409
 30
0.0
  0
VERTEX
  8
OBJECT
 10
16.517434
 20
76.959409
 30
0.0
  0
SEQEND
  8
OBJECT
  0
POLYLINE
  8
OBJECT
 66
     1
 10
0.0
 20
0.0
 30
0.0
  0
VERTEX
  8
OBJECT
 10
17.267434
 20
77.115409
 30
0.0
  0
VERTEX
  8
OBJECT
 10
17.158434
 20
77.115409
 30
0.0
  0
VERTEX
  8
OBJECT
 10
17.158434
 20
76.959409
 30
0.0
  0
VERTEX
  8
OBJECT
 10
17.267434
 20
76.959409
 30
0.0
  0
SEQEND
  8
OBJECT
  0
LINE
  8
SHELF
  6
HIDDEN
 10
25.752434
 20
75.522409
 30
0.0
 11
8.032434
 21
75.522409
 31
0.0
  0
POLYLINE
  8
OBJECT
 66
     1
 10
0.0
 20
0.0
 30
0.0
  0
VERTEX
  8
OBJECT
 10
50.312989
 20
92.155125
 30
0.0
  0
VERTEX
  8
OBJECT
 10
50.312989
 20
92.046125
 30
0.0
  0
VERTEX
  8
OBJECT
 10
50.156989
 20
92.046125
 30
0.0
  0
VERTEX
  8
OBJECT
 10
50.156989
 20
92.155125
 30
0.0
  0
SEQEND
  8
OBJECT
  0
POLYLINE
  8
OBJECT
 66
     1
 10
0.0
 20
0.0
 30
0.0
  0
VERTEX
  8
OBJECT
 10
59.687989
 20
92.155125
 30
0.0
  0
VERTEX
  8
OBJECT
 10
59.687989
 20
92.046125
 30
0.0
  0
VERTEX
  8
OBJECT
 10
59.531989
 20
92.046125
 30
0.0
  0
VERTEX
  8
OBJECT
 10
59.531989
 20
92.155125
 30
0.0
  0
SEQEND
  8
OBJECT
  0
POLYLINE
  8
OBJECT
 66
     1
 10
0.0
 20
0.0
 30
0.0
  0
VERTEX
  8
OBJECT
 10
69.062989
 20
92.155125
 30
0.0
  0
VERTEX
  8
OBJECT
 10
69.062989
 20
92.046125
 30
0.0
  0
VERTEX
  8
OBJECT
 10
68.906989
 20
92.046125
 30
0.0
  0
VERTEX
  8
OBJECT
 10
68.906989
 20
92.155125
 30
0.0
  0
SEQEND
  8
OBJECT
  0
POLYLINE
  8
OBJECT
 66
     1
 10
0.0
 20
0.0
 30
0.0
  0
VERTEX
  8
OBJECT
 10
50.312989
 20
91.405125
 30
0.0
  0
VERTEX
  8
OBJECT
 10
50.312989
 20
91.514125
 30
0.0
  0
VERTEX
  8
OBJECT
 10
50.156989
 20
91.514125
 30
0.0
  0
VERTEX
  8
OBJECT
 10
50.156989
 20
91.405125
 30
0.0
  0
SEQEND
  8
OBJECT
  0
POLYLINE
  8
OBJECT
 66
     1
 10
0.0
 20
0.0
 30
0.0
  0
VERTEX
  8
OBJECT
 10
59.687989
 20
91.405125
 30
0.0
  0
VERTEX
  8
OBJECT
 10
59.687989
 20
91.514125
 30
0.0
  0
VERTEX
  8
OBJECT
 10
59.531989
 20
91.514125
 30
0.0
  0
VERTEX
  8
OBJECT
 10
59.531989
 20
91.405125
 30
0.0
  0
SEQEND
  8
OBJECT
  0
POLYLINE
  8
OBJECT
 66
     1
 10
0.0
 20
0.0
 30
0.0
  0
VERTEX
  8
OBJECT
 10
69.062989
 20
91.405125
 30
0.0
  0
VERTEX
  8
OBJECT
 10
69.062989
 20
91.514125
 30
0.0
  0
VERTEX
  8
OBJECT
 10
68.906989
 20
91.514125
 30
0.0
  0
VERTEX
  8
OBJECT
 10
68.906989
 20
91.405125
 30
0.0
  0
SEQEND
  8
OBJECT
  0
POLYLINE
  8
SHELF
  6
HIDDEN
 66
     1
 10
0.0
 20
0.0
 30
0.0
  0
VERTEX
  8
SHELF
  6
HIDDEN
 10
71.892489
 20
100.640125
 30
0.0
  0
VERTEX
  8
SHELF
  6
HIDDEN
 10
71.656989
 20
100.640125
 30
0.0
  0
VERTEX
  8
SHELF
  6
HIDDEN
 10
71.656989
 20
82.920125
 30
0.0
  0
VERTEX
  8
SHELF
  6
HIDDEN
 10
71.892489
 20
82.920125
 30
0.0
  0
SEQEND
  8
SHELF
  6
HIDDEN
  0
POLYLINE
  8
SHELF
  6
HIDDEN
 66
     1
 10
0.0
 20
0.0
 30
0.0
  0
VERTEX
  8
SHELF
  6
HIDDEN
 10
49.421489
 20
100.640125
 30
0.0
  0
VERTEX
  8
SHELF
  6
HIDDEN
 10
49.656989
 20
100.640125
 30
0.0
  0
VERTEX
  8
SHELF
  6
HIDDEN
 10
49.656989
 20
82.920125
 30
0.0
  0
VERTEX
  8
SHELF
  6
HIDDEN
 10
49.421489
 20
82.920125
 30
0.0
  0
SEQEND
  8
SHELF
  6
HIDDEN
  0
POLYLINE
  8
SHELF
 66
     1
 10
0.0
 20
0.0
 30
0.0
  0
VERTEX
  8
SHELF
 10
71.954989
 20
76.163409
 30
0.0
  0
VERTEX
  8
SHELF
 10
71.954989
 20
78.288409
 30
0.0
 42
0.414214
  0
VERTEX
  8
SHELF
 10
71.829989
 20
78.413409
 30
0.0
  0
VERTEX
  8
SHELF
 10
49.484989
 20
78.413409
 30
0.0
 42
0.414214
  0
VERTEX
  8
SHELF
 10
49.359989
 20
78.288409
 30
0.0
  0
VERTEX
  8
SHELF
 10
49.359989
 20
76.225407
 30
0.0
 42
0.412337
  0
VERTEX
  8
SHELF
 10
49.282489
 20
76.147409
 30
0.0
  0
VERTEX
  8
SHELF
 10
49.282489
 20
75.538409
 30
0.0
 42
0.414214
  0
VERTEX
  8
SHELF
 10
49.360489
 20
75.460409
 30
0.0
  0
VERTEX
  8
SHELF
 10
49.657489
 20
75.460409
 30
0.0
  0
VERTEX
  8
SHELF
 10
49.657489
 20
75.522409
 30
0.0
  0
VERTEX
  8
SHELF
 10
49.360489
 20
75.522409
 30
0.0
 42
-0.414214
  0
VERTEX
  8
SHELF
 10
49.344489
 20
75.538409
 30
0.0
  0
VERTEX
  8
SHELF
 10
49.344489
 20
76.147409
 30
0.0
 42
-0.414214
  0
VERTEX
  8
SHELF
 10
49.360489
 20
76.163409
 30
0.0
  0
VERTEX
  8
SHELF
 10
71.954489
 20
76.163409
 30
0.0
 42
-0.414214
  0
VERTEX
  8
SHELF
 10
71.970489
 20
76.147409
 30
0.0
  0
VERTEX
  8
SHELF
 10
71.970489
 20
75.538409
 30
0.0
 42
-0.414214
  0
VERTEX
  8
SHELF
 10
71.954489
 20
75.522409
 30
0.0
  0
VERTEX
  8
SHELF
 10
71.657489
 20
75.522409
 30
0.0
  0
VERTEX
  8
SHELF
 10
71.657489
 20
75.460409
 30
0.0
  0
VERTEX
  8
SHELF
 10
71.954489
 20
75.460409
 30
0.0
 42
0.414214
  0
VERTEX
  8
SHELF
 10
72.032489
 20
75.538409
 30
0.0
  0
VERTEX
  8
SHELF
 10
72.032489
 20
76.147409
 30
0.0
 42
0.412337
  0
VERTEX
  8
SHELF
 10
71.954989
 20
76.225407
 30
0.0
  0
SEQEND
  8
SHELF
  0
POLYLINE
  8
HIDDEN
 66
     1
 10
0.0
 20
0.0
 30
0.0
  0
VERTEX
  8
HIDDEN
 10
51.078989
 20
76.287409
 30
0.0
  0
VERTEX
  8
HIDDEN
 10
51.078989
 20
76.310409
 30
0.0
  0
VERTEX
  8
HIDDEN
 10
51.184989
 20
76.334409
 30
0.0
  0
VERTEX
  8
HIDDEN
 10
51.284989
 20
76.334409
 30
0.0
  0
VERTEX
  8
HIDDEN
 10
51.390989
 20
76.310409
 30
0.0
  0
VERTEX
  8
HIDDEN
 10
51.390989
 20
76.287409
 30
0.0
  0
SEQEND
  8
HIDDEN
  0
POLYLINE
  8
OBJECT
 66
     1
 10
0.0
 20
0.0
 30
0.0
  0
VERTEX
  8
OBJECT
 10
51.312989
 20
76.163409
 30
0.0
  0
VERTEX
  8
OBJECT
 10
51.312989
 20
76.054409
 30
0.0
  0
VERTEX
  8
OBJECT
 10
51.156989
 20
76.054409
 30
0.0
  0
VERTEX
  8
OBJECT
 10
51.156989
 20
76.163409
 30
0.0
  0
SEQEND
  8
OBJECT
  0
POLYLINE
  8
HIDDEN
 66
     1
 10
0.0
 20
0.0
 30
0.0
  0
VERTEX
  8
HIDDEN
 10
56.328989
 20
76.287409
 30
0.0
  0
VERTEX
  8
HIDDEN
 10
56.328989
 20
76.310409
 30
0.0
  0
VERTEX
  8
HIDDEN
 10
56.434989
 20
76.334409
 30
0.0
  0
VERTEX
  8
HIDDEN
 10
56.534989
 20
76.334409
 30
0.0
  0
VERTEX
  8
HIDDEN
 10
56.640989
 20
76.310409
 30
0.0
  0
VERTEX
  8
HIDDEN
 10
56.640989
 20
76.287409
 30
0.0
  0
SEQEND
  8
HIDDEN
  0
POLYLINE
  8
OBJECT
 66
     1
 10
0.0
 20
0.0
 30
0.0
  0
VERTEX
  8
OBJECT
 10
56.562989
 20
76.163409
 30
0.0
  0
VERTEX
  8
OBJECT
 10
56.562989
 20
76.054409
 30
0.0
  0
VERTEX
  8
OBJECT
 10
56.406989
 20
76.054409
 30
0.0
  0
VERTEX
  8
OBJECT
 10
56.406989
 20
76.163409
 30
0.0
  0
SEQEND
  8
OBJECT
  0
POLYLINE
  8
OBJECT
 66
     1
 10
0.0
 20
0.0
 30
0.0
  0
VERTEX
  8
OBJECT
 10
62.812989
 20
76.163409
 30
0.0
  0
VERTEX
  8
OBJECT
 10
62.812989
 20
76.054409
 30
0.0
  0
VERTEX
  8
OBJECT
 10
62.656989
 20
76.054409
 30
0.0
  0
VERTEX
  8
OBJECT
 10
62.656989
 20
76.163409
 30
0.0
  0
SEQEND
  8
OBJECT
  0
POLYLINE
  8
HIDDEN
 66
     1
 10
0.0
 20
0.0
 30
0.0
  0
VERTEX
  8
HIDDEN
 10
62.578989
 20
76.287409
 30
0.0
  0
VERTEX
  8
HIDDEN
 10
62.578989
 20
76.310409
 30
0.0
  0
VERTEX
  8
HIDDEN
 10
62.684989
 20
76.334409
 30
0.0
  0
VERTEX
  8
HIDDEN
 10
62.784989
 20
76.334409
 30
0.0
  0
VERTEX
  8
HIDDEN
 10
62.890989
 20
76.310409
 30
0.0
  0
VERTEX
  8
HIDDEN
 10
62.890989
 20
76.287409
 30
0.0
  0
SEQEND
  8
HIDDEN
  0
POLYLINE
  8
HIDDEN
 66
     1
 10
0.0
 20
0.0
 30
0.0
  0
VERTEX
  8
HIDDEN
 10
67.828989
 20
76.287409
 30
0.0
  0
VERTEX
  8
HIDDEN
 10
67.828989
 20
76.310409
 30
0.0
  0
VERTEX
  8
HIDDEN
 10
67.934989
 20
76.334409
 30
0.0
  0
VERTEX
  8
HIDDEN
 10
68.034989
 20
76.334409
 30
0.0
  0
VERTEX
  8
HIDDEN
 10
68.140989
 20
76.310409
 30
0.0
  0
VERTEX
  8
HIDDEN
 10
68.140989
 20
76.287409
 30
0.0
  0
SEQEND
  8
HIDDEN
  0
POLYLINE
  8
OBJECT
 66
     1
 10
0.0
 20
0.0
 30
0.0
  0
VERTEX
  8
OBJECT
 10
68.062989
 20
76.163409
 30
0.0
  0
VERTEX
  8
OBJECT
 10
68.062989
 20
76.054409
 30
0.0
  0
VERTEX
  8
OBJECT
 10
67.906989
 20
76.054409
 30
0.0
  0
VERTEX
  8
OBJECT
 10
67.906989
 20
76.163409
 30
0.0
  0
SEQEND
  8
OBJECT
  0
POLYLINE
  8
SHELF
 66
     1
 10
0.0
 20
0.0
 30
0.0
  0
VERTEX
  8
SHELF
 10
49.359989
 20
108.658095
 30
0.0
 42
-0.412337
  0
VERTEX
  8
SHELF
 10
49.282489
 20
108.736093
 30
0.0
  0
VERTEX
  8
SHELF
 10
49.282489
 20
109.345093
 30
0.0
 42
-0.414214
  0
VERTEX
  8
SHELF
 10
49.360489
 20
109.423093
 30
0.0
  0
VERTEX
  8
SHELF
 10
49.657489
 20
109.423093
 30
0.0
  0
VERTEX
  8
SHELF
 10
49.657489
 20
109.361093
 30
0.0
  0
VERTEX
  8
SHELF
 10
49.360489
 20
109.361093
 30
0.0
 42
0.414214
  0
VERTEX
  8
SHELF
 10
49.344489
 20
109.345093
 30
0.0
  0
VERTEX
  8
SHELF
 10
49.344489
 20
108.736093
 30
0.0
 42
0.414214
  0
VERTEX
  8
SHELF
 10
49.360489
 20
108.720093
 30
0.0
  0
VERTEX
  8
SHELF
 10
71.954489
 20
108.720093
 30
0.0
 42
0.414214
  0
VERTEX
  8
SHELF
 10
71.970489
 20
108.736093
 30
0.0
  0
VERTEX
  8
SHELF
 10
71.970489
 20
109.345093
 30
0.0
 42
0.414214
  0
VERTEX
  8
SHELF
 10
71.954489
 20
109.361093
 30
0.0
  0
VERTEX
  8
SHELF
 10
71.657489
 20
109.361093
 30
0.0
  0
VERTEX
  8
SHELF
 10
71.657489
 20
109.423093
 30
0.0
  0
VERTEX
  8
SHELF
 10
71.954489
 20
109.423093
 30
0.0
 42
-0.414214
  0
VERTEX
  8
SHELF
 10
72.032489
 20
109.345093
 30
0.0
  0
VERTEX
  8
SHELF
 10
72.032489
 20
108.736093
 30
0.0
 42
-0.412337
  0
VERTEX
  8
SHELF
 10
71.954989
 20
108.658095
 30
0.0
  0
SEQEND
  8
SHELF
  0
POLYLINE
  8
SHELF
 66
     1
 10
0.0
 20
0.0
 30
0.0
  0
VERTEX
  8
SHELF
 10
71.954989
 20
108.720093
 30
0.0
  0
VERTEX
  8
SHELF
 10
71.954989
 20
106.595093
 30
0.0
 42
-0.414214
  0
VERTEX
  8
SHELF
 10
71.829989
 20
106.470093
 30
0.0
  0
VERTEX
  8
SHELF
 10
49.484989
 20
106.470093
 30
0.0
 42
-0.414214
  0
VERTEX
  8
SHELF
 10
49.359989
 20
106.595093
 30
0.0
  0
VERTEX
  8
SHELF
 10
49.359989
 20
108.720093
 30
0.0
  0
SEQEND
  8
SHELF
  0
DIMENSION
  8
DIM
  2
*D10
 10
49.282489
 20
111.319815
 30
0.0
 11
44.244989
 21
111.319815
 31
0.0
 13
49.657489
 23
109.423093
 33
0.0
 14
49.282489
 24
109.423093
 34
0.0
  3
23NSTD
  0
CIRCLE
  8
OBJECT
 10
51.234989
 20
91.780125
 30
0.0
 40
0.156
  0
CIRCLE
  8
SHELF
 10
51.234989
 20
91.780125
 30
0.0
 40
0.082
  0
CIRCLE
  8
OBJECT
 10
56.484989
 20
91.780125
 30
0.0
 40
0.156
  0
CIRCLE
  8
SHELF
 10
56.484989
 20
91.780125
 30
0.0
 40
0.082
  0
CIRCLE
  8
OBJECT
 10
62.734989
 20
91.780125
 30
0.0
 40
0.156
  0
CIRCLE
  8
SHELF
 10
62.734989
 20
91.780125
 30
0.0
 40
0.082
  0
CIRCLE
  8
OBJECT
 10
67.984989
 20
91.780125
 30
0.0
 40
0.156
  0
CIRCLE
  8
SHELF
 10
67.984989
 20
91.780125
 30
0.0
 40
0.082
  0
POLYLINE
  8
OBJECT
 66
     1
 10
0.0
 20
0.0
 30
0.0
  0
VERTEX
  8
OBJECT
 10
51.312989
 20
108.720093
 30
0.0
  0
VERTEX
  8
OBJECT
 10
51.312989
 20
108.829093
 30
0.0
  0
VERTEX
  8
OBJECT
 10
51.156989
 20
108.829093
 30
0.0
  0
VERTEX
  8
OBJECT
 10
51.156989
 20
108.720093
 30
0.0
  0
SEQEND
  8
OBJECT
  0
POLYLINE
  8
HIDDEN
 66
     1
 10
0.0
 20
0.0
 30
0.0
  0
VERTEX
  8
HIDDEN
 10
51.078989
 20
108.596093
 30
0.0
  0
VERTEX
  8
HIDDEN
 10
51.078989
 20
108.573093
 30
0.0
  0
VERTEX
  8
HIDDEN
 10
51.184989
 20
108.549093
 30
0.0
  0
VERTEX
  8
HIDDEN
 10
51.284989
 20
108.549093
 30
0.0
  0
VERTEX
  8
HIDDEN
 10
51.390989
 20
108.573093
 30
0.0
  0
VERTEX
  8
HIDDEN
 10
51.390989
 20
108.596093
 30
0.0
  0
SEQEND
  8
HIDDEN
  0
POLYLINE
  8
OBJECT
 66
     1
 10
0.0
 20
0.0
 30
0.0
  0
VERTEX
  8
OBJECT
 10
56.562989
 20
108.720093
 30
0.0
  0
VERTEX
  8
OBJECT
 10
56.562989
 20
108.829093
 30
0.0
  0
VERTEX
  8
OBJECT
 10
56.406989
 20
108.829093
 30
0.0
  0
VERTEX
  8
OBJECT
 10
56.406989
 20
108.720093
 30
0.0
  0
SEQEND
  8
OBJECT
  0
POLYLINE
  8
HIDDEN
 66
     1
 10
0.0
 20
0.0
 30
0.0
  0
VERTEX
  8
HIDDEN
 10
56.328989
 20
108.596093
 30
0.0
  0
VERTEX
  8
HIDDEN
 10
56.328989
 20
108.573093
 30
0.0
  0
VERTEX
  8
HIDDEN
 10
56.434989
 20
108.549093
 30
0.0
  0
VERTEX
  8
HIDDEN
 10
56.534989
 20
108.549093
 30
0.0
  0
VERTEX
  8
HIDDEN
 10
56.640989
 20
108.573093
 30
0.0
  0
VERTEX
  8
HIDDEN
 10
56.640989
 20
108.596093
 30
0.0
  0
SEQEND
  8
HIDDEN
  0
POLYLINE
  8
HIDDEN
 66
     1
 10
0.0
 20
0.0
 30
0.0
  0
VERTEX
  8
HIDDEN
 10
62.578989
 20
108.596093
 30
0.0
  0
VERTEX
  8
HIDDEN
 10
62.578989
 20
108.573093
 30
0.0
  0
VERTEX
  8
HIDDEN
 10
62.684989
 20
108.549093
 30
0.0
  0
VERTEX
  8
HIDDEN
 10
62.784989
 20
108.549093
 30
0.0
  0
VERTEX
  8
HIDDEN
 10
62.890989
 20
108.573093
 30
0.0
  0
VERTEX
  8
HIDDEN
 10
62.890989
 20
108.596093
 30
0.0
  0
SEQEND
  8
HIDDEN
  0
POLYLINE
  8
OBJECT
 66
     1
 10
0.0
 20
0.0
 30
0.0
  0
VERTEX
  8
OBJECT
 10
62.812989
 20
108.720093
 30
0.0
  0
VERTEX
  8
OBJECT
 10
62.812989
 20
108.829093
 30
0.0
  0
VERTEX
  8
OBJECT
 10
62.656989
 20
108.829093
 30
0.0
  0
VERTEX
  8
OBJECT
 10
62.656989
 20
108.720093
 30
0.0
  0
SEQEND
  8
OBJECT
  0
POLYLINE
  8
OBJECT
 66
     1
 10
0.0
 20
0.0
 30
0.0
  0
VERTEX
  8
OBJECT
 10
68.062989
 20
108.720093
 30
0.0
  0
VERTEX
  8
OBJECT
 10
68.062989
 20
108.829093
 30
0.0
  0
VERTEX
  8
OBJECT
 10
67.906989
 20
108.829093
 30
0.0
  0
VERTEX
  8
OBJECT
 10
67.906989
 20
108.720093
 30
0.0
  0
SEQEND
  8
OBJECT
  0
POLYLINE
  8
HIDDEN
 66
     1
 10
0.0
 20
0.0
 30
0.0
  0
VERTEX
  8
HIDDEN
 10
67.828989
 20
108.596093
 30
0.0
  0
VERTEX
  8
HIDDEN
 10
67.828989
 20
108.573093
 30
0.0
  0
VERTEX
  8
HIDDEN
 10
67.934989
 20
108.549093
 30
0.0
  0
VERTEX
  8
HIDDEN
 10
68.034989
 20
108.549093
 30
0.0
  0
VERTEX
  8
HIDDEN
 10
68.140989
 20
108.573093
 30
0.0
  0
VERTEX
  8
HIDDEN
 10
68.140989
 20
108.596093
 30
0.0
  0
SEQEND
  8
HIDDEN
  0
POLYLINE
  8
SHELF
 66
     1
 10
0.0
 20
0.0
 30
0.0
 70
     1
  0
VERTEX
  8
SHELF
 10
68.985239
 20
106.783093
 30
0.0
 42
1.0
  0
VERTEX
  8
SHELF
 10
68.985239
 20
107.033093
 30
0.0
  0
VERTEX
  8
SHELF
 10
68.360239
 20
107.033093
 30
0.0
 42
1.0
  0
VERTEX
  8
SHELF
 10
68.360239
 20
106.783093
 30
0.0
  0
SEQEND
  8
SHELF
  0
POLYLINE
  8
SHELF
 66
     1
 10
0.0
 20
0.0
 30
0.0
 70
     1
  0
VERTEX
  8
SHELF
 10
67.203989
 20
106.783093
 30
0.0
 42
1.0
  0
VERTEX
  8
SHELF
 10
67.203989
 20
107.033093
 30
0.0
  0
VERTEX
  8
SHELF
 10
66.578989
 20
107.033093
 30
0.0
 42
1.0
  0
VERTEX
  8
SHELF
 10
66.578989
 20
106.783093
 30
0.0
  0
SEQEND
  8
SHELF
  0
POLYLINE
  8
SHELF
 66
     1
 10
0.0
 20
0.0
 30
0.0
 70
     1
  0
VERTEX
  8
SHELF
 10
65.422739
 20
106.783093
 30
0.0
 42
1.0
  0
VERTEX
  8
SHELF
 10
65.422739
 20
107.033093
 30
0.0
  0
VERTEX
  8
SHELF
 10
64.797739
 20
107.033093
 30
0.0
 42
1.0
  0
VERTEX
  8
SHELF
 10
64.797739
 20
106.783093
 30
0.0
  0
SEQEND
  8
SHELF
  0
POLYLINE
  8
SHELF
 66
     1
 10
0.0
 20
0.0
 30
0.0
 70
     1
  0
VERTEX
  8
SHELF
 10
63.641489
 20
106.783093
 30
0.0
 42
1.0
  0
VERTEX
  8
SHELF
 10
63.641489
 20
107.033093
 30
0.0
  0
VERTEX
  8
SHELF
 10
63.016489
 20
107.033093
 30
0.0
 42
1.0
  0
VERTEX
  8
SHELF
 10
63.016489
 20
106.783093
 30
0.0
  0
SEQEND
  8
SHELF
  0
POLYLINE
  8
SHELF
 66
     1
 10
0.0
 20
0.0
 30
0.0
 70
     1
  0
VERTEX
  8
SHELF
 10
61.860239
 20
106.783093
 30
0.0
 42
1.0
  0
VERTEX
  8
SHELF
 10
61.860239
 20
107.033093
 30
0.0
  0
VERTEX
  8
SHELF
 10
61.235239
 20
107.033093
 30
0.0
 42
1.0
  0
VERTEX
  8
SHELF
 10
61.235239
 20
106.783093
 30
0.0
  0
SEQEND
  8
SHELF
  0
POLYLINE
  8
SHELF
 66
     1
 10
0.0
 20
0.0
 30
0.0
 70
     1
  0
VERTEX
  8
SHELF
 10
60.078989
 20
106.783093
 30
0.0
 42
1.0
  0
VERTEX
  8
SHELF
 10
60.078989
 20
107.033093
 30
0.0
  0
VERTEX
  8
SHELF
 10
59.453989
 20
107.033093
 30
0.0
 42
1.0
  0
VERTEX
  8
SHELF
 10
59.453989
 20
106.783093
 30
0.0
  0
SEQEND
  8
SHELF
  0
POLYLINE
  8
SHELF
 66
     1
 10
0.0
 20
0.0
 30
0.0
 70
     1
  0
VERTEX
  8
SHELF
 10
58.297739
 20
106.783093
 30
0.0
 42
1.0
  0
VERTEX
  8
SHELF
 10
58.297739
 20
107.033093
 30
0.0
  0
VERTEX
  8
SHELF
 10
57.672739
 20
107.033093
 30
0.0
 42
1.0
  0
VERTEX
  8
SHELF
 10
57.672739
 20
106.783093
 30
0.0
  0
SEQEND
  8
SHELF
  0
POLYLINE
  8
SHELF
 66
     1
 10
0.0
 20
0.0
 30
0.0
 70
     1
  0
VERTEX
  8
SHELF
 10
56.516489
 20
106.783093
 30
0.0
 42
1.0
  0
VERTEX
  8
SHELF
 10
56.516489
 20
107.033093
 30
0.0
  0
VERTEX
  8
SHELF
 10
55.891489
 20
107.033093
 30
0.0
 42
1.0
  0
VERTEX
  8
SHELF
 10
55.891489
 20
106.783093
 30
0.0
  0
SEQEND
  8
SHELF
  0
POLYLINE
  8
SHELF
 66
     1
 10
0.0
 20
0.0
 30
0.0
 70
     1
  0
VERTEX
  8
SHELF
 10
54.735239
 20
106.783093
 30
0.0
 42
1.0
  0
VERTEX
  8
SHELF
 10
54.735239
 20
107.033093
 30
0.0
  0
VERTEX
  8
SHELF
 10
54.110239
 20
107.033093
 30
0.0
 42
1.0
  0
VERTEX
  8
SHELF
 10
54.110239
 20
106.783093
 30
0.0
  0
SEQEND
  8
SHELF
  0
POLYLINE
  8
SHELF
 66
     1
 10
0.0
 20
0.0
 30
0.0
 70
     1
  0
VERTEX
  8
SHELF
 10
52.953989
 20
106.783093
 30
0.0
 42
1.0
  0
VERTEX
  8
SHELF
 10
52.953989
 20
107.033093
 30
0.0
  0
VERTEX
  8
SHELF
 10
52.328989
 20
107.033093
 30
0.0
 42
1.0
  0
VERTEX
  8
SHELF
 10
52.328989
 20
106.783093
 30
0.0
  0
SEQEND
  8
SHELF
  0
POLYLINE
  8
SHELF
 66
     1
 10
0.0
 20
0.0
 30
0.0
 70
     1
  0
VERTEX
  8
SHELF
 10
51.172739
 20
106.783093
 30
0.0
 42
1.0
  0
VERTEX
  8
SHELF
 10
51.172739
 20
107.033093
 30
0.0
  0
VERTEX
  8
SHELF
 10
50.547739
 20
107.033093
 30
0.0
 42
1.0
  0
VERTEX
  8
SHELF
 10
50.547739
 20
106.783093
 30
0.0
  0
SEQEND
  8
SHELF
  0
POLYLINE
  8
SHELF
 66
     1
 10
0.0
 20
0.0
 30
0.0
 70
     1
  0
VERTEX
  8
SHELF
 10
51.172739
 20
78.100409
 30
0.0
 42
-1.0
  0
VERTEX
  8
SHELF
 10
51.172739
 20
77.850409
 30
0.0
  0
VERTEX
  8
SHELF
 10
50.547739
 20
77.850409
 30
0.0
 42
-1.0
  0
VERTEX
  8
SHELF
 10
50.547739
 20
78.100409
 30
0.0
  0
SEQEND
  8
SHELF
  0
POLYLINE
  8
SHELF
 66
     1
 10
0.0
 20
0.0
 30
0.0
 70
     1
  0
VERTEX
  8
SHELF
 10
52.953989
 20
78.100409
 30
0.0
 42
-1.0
  0
VERTEX
  8
SHELF
 10
52.953989
 20
77.850409
 30
0.0
  0
VERTEX
  8
SHELF
 10
52.328989
 20
77.850409
 30
0.0
 42
-1.0
  0
VERTEX
  8
SHELF
 10
52.328989
 20
78.100409
 30
0.0
  0
SEQEND
  8
SHELF
  0
POLYLINE
  8
SHELF
 66
     1
 10
0.0
 20
0.0
 30
0.0
 70
     1
  0
VERTEX
  8
SHELF
 10
60.078989
 20
78.100409
 30
0.0
 42
-1.0
  0
VERTEX
  8
SHELF
 10
60.078989
 20
77.850409
 30
0.0
  0
VERTEX
  8
SHELF
 10
59.453989
 20
77.850409
 30
0.0
 42
-1.0
  0
VERTEX
  8
SHELF
 10
59.453989
 20
78.100409
 30
0.0
  0
SEQEND
  8
SHELF
  0
POLYLINE
  8
SHELF
 66
     1
 10
0.0
 20
0.0
 30
0.0
 70
     1
  0
VERTEX
  8
SHELF
 10
56.516489
 20
78.100409
 30
0.0
 42
-1.0
  0
VERTEX
  8
SHELF
 10
56.516489
 20
77.850409
 30
0.0
  0
VERTEX
  8
SHELF
 10
55.891489
 20
77.850409
 30
0.0
 42
-1.0
  0
VERTEX
  8
SHELF
 10
55.891489
 20
78.100409
 30
0.0
  0
SEQEND
  8
SHELF
  0
POLYLINE
  8
SHELF
 66
     1
 10
0.0
 20
0.0
 30
0.0
 70
     1
  0
VERTEX
  8
SHELF
 10
54.735239
 20
78.100409
 30
0.0
 42
-1.0
  0
VERTEX
  8
SHELF
 10
54.735239
 20
77.850409
 30
0.0
  0
VERTEX
  8
SHELF
 10
54.110239
 20
77.850409
 30
0.0
 42
-1.0
  0
VERTEX
  8
SHELF
 10
54.110239
 20
78.100409
 30
0.0
  0
SEQEND
  8
SHELF
  0
POLYLINE
  8
SHELF
 66
     1
 10
0.0
 20
0.0
 30
0.0
 70
     1
  0
VERTEX
  8
SHELF
 10
58.297739
 20
78.100409
 30
0.0
 42
-1.0
  0
VERTEX
  8
SHELF
 10
58.297739
 20
77.850409
 30
0.0
  0
VERTEX
  8
SHELF
 10
57.672739
 20
77.850409
 30
0.0
 42
-1.0
  0
VERTEX
  8
SHELF
 10
57.672739
 20
78.100409
 30
0.0
  0
SEQEND
  8
SHELF
  0
POLYLINE
  8
SHELF
 66
     1
 10
0.0
 20
0.0
 30
0.0
 70
     1
  0
VERTEX
  8
SHELF
 10
61.860239
 20
78.100409
 30
0.0
 42
-1.0
  0
VERTEX
  8
SHELF
 10
61.860239
 20
77.850409
 30
0.0
  0
VERTEX
  8
SHELF
 10
61.235239
 20
77.850409
 30
0.0
 42
-1.0
  0
VERTEX
  8
SHELF
 10
61.235239
 20
78.100409
 30
0.0
  0
SEQEND
  8
SHELF
  0
POLYLINE
  8
SHELF
 66
     1
 10
0.0
 20
0.0
 30
0.0
 70
     1
  0
VERTEX
  8
SHELF
 10
63.641489
 20
78.100409
 30
0.0
 42
-1.0
  0
VERTEX
  8
SHELF
 10
63.641489
 20
77.850409
 30
0.0
  0
VERTEX
  8
SHELF
 10
63.016489
 20
77.850409
 30
0.0
 42
-1.0
  0
VERTEX
  8
SHELF
 10
63.016489
 20
78.100409
 30
0.0
  0
SEQEND
  8
SHELF
  0
POLYLINE
  8
SHELF
 66
     1
 10
0.0
 20
0.0
 30
0.0
 70
     1
  0
VERTEX
  8
SHELF
 10
65.422739
 20
78.100409
 30
0.0
 42
-1.0
  0
VERTEX
  8
SHELF
 10
65.422739
 20
77.850409
 30
0.0
  0
VERTEX
  8
SHELF
 10
64.797739
 20
77.850409
 30
0.0
 42
-1.0
  0
VERTEX
  8
SHELF
 10
64.797739
 20
78.100409
 30
0.0
  0
SEQEND
  8
SHELF
  0
POLYLINE
  8
SHELF
 66
     1
 10
0.0
 20
0.0
 30
0.0
 70
     1
  0
VERTEX
  8
SHELF
 10
68.985239
 20
78.100409
 30
0.0
 42
-1.0
  0
VERTEX
  8
SHELF
 10
68.985239
 20
77.850409
 30
0.0
  0
VERTEX
  8
SHELF
 10
68.360239
 20
77.850409
 30
0.0
 42
-1.0
  0
VERTEX
  8
SHELF
 10
68.360239
 20
78.100409
 30
0.0
  0
SEQEND
  8
SHELF
  0
POLYLINE
  8
SHELF
 66
     1
 10
0.0
 20
0.0
 30
0.0
 70
     1
  0
VERTEX
  8
SHELF
 10
67.203989
 20
78.100409
 30
0.0
 42
-1.0
  0
VERTEX
  8
SHELF
 10
67.203989
 20
77.850409
 30
0.0
  0
VERTEX
  8
SHELF
 10
66.578989
 20
77.850409
 30
0.0
 42
-1.0
  0
VERTEX
  8
SHELF
 10
66.578989
 20
78.100409
 30
0.0
  0
SEQEND
  8
SHELF
  0
POLYLINE
  8
SHELF
 66
     1
 10
0.0
 20
0.0
 30
0.0
 70
     1
  0
VERTEX
  8
SHELF
 10
70.766489
 20
78.100409
 30
0.0
 42
-1.0
  0
VERTEX
  8
SHELF
 10
70.766489
 20
77.850409
 30
0.0
  0
VERTEX
  8
SHELF
 10
70.141489
 20
77.850409
 30
0.0
 42
-1.0
  0
VERTEX
  8
SHELF
 10
70.141489
 20
78.100409
 30
0.0
  0
SEQEND
  8
SHELF
  0
ENDSEC
  0
EOF
