  0
SECTION
  2
HEADER
  9
$ACADVER
  1
AC1015
  9
$ACADMAINTVER
 70
     6
  9
$DWGCODEPAGE
  3
ANSI_1252
  9
$INSBASE
 10
0.0
 20
0.0
 30
0.0
  9
$EXTMIN
 10
-0.0037533757320603
 20
-0.0029294639859927
 30
-0.0015258207003583
  9
$EXTMAX
 10
60.72111532618419
 20
93.00000022002498
 30
0.0000000349246037
  9
$LIMMIN
 10
0.0
 20
0.0
  9
$LIMMAX
 10
123.0
 20
96.0
  9
$ORTHOMODE
 70
     0
  9
$REGENMODE
 70
     1
  9
$FILLMODE
 70
     1
  9
$QTEXTMODE
 70
     0
  9
$MIRRTEXT
 70
     0
  9
$LTSCALE
 40
2.0
  9
$ATTMODE
 70
     1
  9
$TEXTSIZE
 40
0.75
  9
$TRACEWID
 40
0.05
  9
$TEXTSTYLE
  7
TXT
  9
$CLAYER
  8
OBJECT
  9
$CELTYPE
  6
ByLayer
  9
$CECOLOR
 62
   256
  9
$CELTSCALE
 40
1.0
  9
$DISPSILH
 70
     0
  9
$DIMSCALE
 40
6.0
  9
$DIMASZ
 40
0.18
  9
$DIMEXO
 40
0.063
  9
$DIMDLI
 40
0.281
  9
$DIMRND
 40
0.0
  9
$DIMDLE
 40
0.0
  9
$DIMEXE
 40
0.093
  9
$DIMTP
 40
0.0
  9
$DIMTM
 40
0.0
  9
$DIMTXT
 40
0.125
  9
$DIMCEN
 40
0.09
  9
$DIMTSZ
 40
0.0
  9
$DIMTOL
 70
     0
  9
$DIMLIM
 70
     0
  9
$DIMTIH
 70
     1
  9
$DIMTOH
 70
     1
  9
$DIMSE1
 70
     0
  9
$DIMSE2
 70
     0
  9
$DIMTAD
 70
     0
  9
$DIMZIN
 70
     0
  9
$DIMBLK
  1

  9
$DIMASO
 70
     1
  9
$DIMSHO
 70
     1
  9
$DIMPOST
  1

  9
$DIMAPOST
  1

  9
$DIMALT
 70
     0
  9
$DIMALTD
 70
     2
  9
$DIMALTF
 40
25.4
  9
$DIMLFAC
 40
1.0
  9
$DIMTOFL
 70
     0
  9
$DIMTVP
 40
0.0
  9
$DIMTIX
 70
     0
  9
$DIMSOXD
 70
     0
  9
$DIMSAH
 70
     0
  9
$DIMBLK1
  1

  9
$DIMBLK2
  1

  9
$DIMSTYLE
  2
23NSTD
  9
$DIMCLRD
 70
     0
  9
$DIMCLRE
 70
     0
  9
$DIMCLRT
 70
     0
  9
$DIMTFAC
 40
1.0
  9
$DIMGAP
 40
0.09
  9
$DIMJUST
 70
     0
  9
$DIMSD1
 70
     0
  9
$DIMSD2
 70
     0
  9
$DIMTOLJ
 70
     1
  9
$DIMTZIN
 70
     0
  9
$DIMALTZ
 70
     0
  9
$DIMALTTZ
 70
     0
  9
$DIMUPT
 70
     0
  9
$DIMDEC
 70
     3
  9
$DIMTDEC
 70
     3
  9
$DIMALTU
 70
     2
  9
$DIMALTTD
 70
     2
  9
$DIMTXSTY
  7
TXT
  9
$DIMAUNIT
 70
     0
  9
$DIMADEC
 70
     0
  9
$DIMALTRND
 40
0.0
  9
$DIMAZIN
 70
     0
  9
$DIMDSEP
 70
    46
  9
$DIMATFIT
 70
     1
  9
$DIMFRAC
 70
     0
  9
$DIMLDRBLK
  1

  9
$DIMLUNIT
 70
     2
  9
$DIMLWD
 70
    -2
  9
$DIMLWE
 70
    -2
  9
$DIMTMOVE
 70
     0
  9
$LUNITS
 70
     2
  9
$LUPREC
 70
     3
  9
$SKETCHINC
 40
0.1
  9
$FILLETRAD
 40
0.25
  9
$AUNITS
 70
     0
  9
$AUPREC
 70
     0
  9
$MENU
  1
acad
  9
$ELEVATION
 40
0.0
  9
$PELEVATION
 40
0.0
  9
$THICKNESS
 40
0.0
  9
$LIMCHECK
 70
     0
  9
$CHAMFERA
 40
0.0
  9
$CHAMFERB
 40
0.0
  9
$CHAMFERC
 40
0.0
  9
$CHAMFERD
 40
0.0
  9
$SKPOLY
 70
     0
  9
$TDCREATE
 40
2450578.385076620
  9
$TDUCREATE
 40
2450578.593409953
  9
$TDUPDATE
 40
2455239.324750162
  9
$TDUUPDATE
 40
2455239.533083495
  9
$TDINDWG
 40
0.1398124074
  9
$TDUSRTIMER
 40
0.1398124074
  9
$USRTIMER
 70
     1
  9
$ANGBASE
 50
0.0
  9
$ANGDIR
 70
     0
  9
$PDMODE
 70
     0
  9
$PDSIZE
 40
0.0
  9
$PLINEWID
 40
0.0
  9
$SPLFRAME
 70
     0
  9
$SPLINETYPE
 70
     6
  9
$SPLINESEGS
 70
     8
  9
$HANDSEED
  5
2013
  9
$SURFTAB1
 70
     6
  9
$SURFTAB2
 70
     6
  9
$SURFTYPE
 70
     6
  9
$SURFU
 70
     6
  9
$SURFV
 70
     6
  9
$UCSBASE
  2

  9
$UCSNAME
  2

  9
$UCSORG
 10
0.0
 20
0.0
 30
0.0
  9
$UCSXDIR
 10
1.0
 20
0.0
 30
0.0
  9
$UCSYDIR
 10
0.0
 20
1.0
 30
0.0
  9
$UCSORTHOREF
  2

  9
$UCSORTHOVIEW
 70
     0
  9
$UCSORGTOP
 10
0.0
 20
0.0
 30
0.0
  9
$UCSORGBOTTOM
 10
0.0
 20
0.0
 30
0.0
  9
$UCSORGLEFT
 10
0.0
 20
0.0
 30
0.0
  9
$UCSORGRIGHT
 10
0.0
 20
0.0
 30
0.0
  9
$UCSORGFRONT
 10
0.0
 20
0.0
 30
0.0
  9
$UCSORGBACK
 10
0.0
 20
0.0
 30
0.0
  9
$PUCSBASE
  2

  9
$PUCSNAME
  2

  9
$PUCSORG
 10
0.0
 20
0.0
 30
0.0
  9
$PUCSXDIR
 10
1.0
 20
0.0
 30
0.0
  9
$PUCSYDIR
 10
0.0
 20
1.0
 30
0.0
  9
$PUCSORTHOREF
  2

  9
$PUCSORTHOVIEW
 70
     0
  9
$PUCSORGTOP
 10
0.0
 20
0.0
 30
0.0
  9
$PUCSORGBOTTOM
 10
0.0
 20
0.0
 30
0.0
  9
$PUCSORGLEFT
 10
0.0
 20
0.0
 30
0.0
  9
$PUCSORGRIGHT
 10
0.0
 20
0.0
 30
0.0
  9
$PUCSORGFRONT
 10
0.0
 20
0.0
 30
0.0
  9
$PUCSORGBACK
 10
0.0
 20
0.0
 30
0.0
  9
$USERI1
 70
     0
  9
$USERI2
 70
     0
  9
$USERI3
 70
     0
  9
$USERI4
 70
     0
  9
$USERI5
 70
     0
  9
$USERR1
 40
0.0
  9
$USERR2
 40
0.0
  9
$USERR3
 40
0.0
  9
$USERR4
 40
0.0
  9
$USERR5
 40
0.0
  9
$WORLDVIEW
 70
     1
  9
$SHADEDGE
 70
     3
  9
$SHADEDIF
 70
    70
  9
$TILEMODE
 70
     1
  9
$MAXACTVP
 70
    16
  9
$PINSBASE
 10
0.0
 20
0.0
 30
0.0
  9
$PLIMCHECK
 70
     0
  9
$PEXTMIN
 10
1.000000000000000E+20
 20
1.000000000000000E+20
 30
1.000000000000000E+20
  9
$PEXTMAX
 10
-1.000000000000000E+20
 20
-1.000000000000000E+20
 30
-1.000000000000000E+20
  9
$PLIMMIN
 10
0.0
 20
0.0
  9
$PLIMMAX
 10
12.0
 20
9.0
  9
$UNITMODE
 70
     0
  9
$VISRETAIN
 70
     0
  9
$PLINEGEN
 70
     0
  9
$PSLTSCALE
 70
     1
  9
$TREEDEPTH
 70
  3020
  9
$CMLSTYLE
  2
Standard
  9
$CMLJUST
 70
     0
  9
$CMLSCALE
 40
1.0
  9
$PROXYGRAPHICS
 70
     1
  9
$MEASUREMENT
 70
     0
  9
$CELWEIGHT
370
    -1
  9
$ENDCAPS
280
     0
  9
$JOINSTYLE
280
     0
  9
$LWDISPLAY
290
     0
  9
$INSUNITS
 70
     0
  9
$HYPERLINKBASE
  1

  9
$STYLESHEET
  1
monochrome.ctb
  9
$XEDIT
290
     1
  9
$CEPSNTYPE
380
     0
  9
$PSTYLEMODE
290
     1
  9
$FINGERPRINTGUID
  2
{311F911D-126A-492F-A215-BAE476DE31D6}
  9
$VERSIONGUID
  2
{C985DDD1-FDAD-429B-8E06-A85AF9E76665}
  9
$EXTNAMES
290
     1
  9
$PSVPSCALE
 40
0.0
  9
$OLESTARTUP
290
     0
  0
ENDSEC
  0
SECTION
  2
CLASSES
  0
CLASS
  1
ACDBDICTIONARYWDFLT
  2
AcDbDictionaryWithDefault
  3
AutoCAD 2000
 90
        0
280
     0
281
     0
  0
CLASS
  1
ACDBPLACEHOLDER
  2
AcDbPlaceHolder
  3
AutoCAD 2000
 90
        0
280
     0
281
     0
  0
CLASS
  1
LAYOUT
  2
AcDbLayout
  3
AutoCAD 2000
 90
        0
280
     0
281
     0
  0
ENDSEC
  0
SECTION
  2
TABLES
  0
TABLE
  2
VPORT
  5
16CC
330
0
100
AcDbSymbolTable
 70
     4
  0
VPORT
  5
2012
330
16CC
100
AcDbSymbolTableRecord
100
AcDbViewportTableRecord
  2
*Active
 70
     0
 10
0.0
 20
0.0
 11
1.0
 21
1.0
 12
30.35726820053952
 22
46.50144264881093
 13
0.0
 23
0.0
 14
1.0
 24
1.0
 15
0.0
 25
0.0
 16
0.0
 26
0.0
 36
1.0
 17
0.0
 27
0.0
 37
0.0
 40
93.99592280425947
 41
1.931095406360423
 42
50.0
 43
0.0
 44
0.0
 50
0.0
 51
0.0
 71
     0
 72
   100
 73
     1
 74
     0
 75
     0
 76
     0
 77
     0
 78
     0
281
     0
 65
     0
110
0.0
120
0.0
130
0.0
111
1.0
121
0.0
131
0.0
112
0.0
122
1.0
132
0.0
 79
     0
146
0.0
  0
ENDTAB
  0
TABLE
  2
LTYPE
  5
16C9
330
0
100
AcDbSymbolTable
 70
     4
  0
LTYPE
  5
16D7
330
16C9
100
AcDbSymbolTableRecord
100
AcDbLinetypeTableRecord
  2
ByBlock
 70
     0
  3

 72
    65
 73
     0
 40
0.0
  0
LTYPE
  5
16D8
330
16C9
100
AcDbSymbolTableRecord
100
AcDbLinetypeTableRecord
  2
ByLayer
 70
     0
  3

 72
    65
 73
     0
 40
0.0
  0
LTYPE
  5
16D9
330
16C9
100
AcDbSymbolTableRecord
100
AcDbLinetypeTableRecord
  2
CONTINUOUS
 70
     0
  3
Solid line
 72
    65
 73
     0
 40
0.0
  0
LTYPE
  5
16E9
330
16C9
100
AcDbSymbolTableRecord
100
AcDbLinetypeTableRecord
  2
HIDDEN
 70
     0
  3
_ _ _ _ _ _ _ _ _ _ _ _ _ _ _ _ _ _ _ _ _ _ _
 72
    65
 73
     2
 40
0.375
 49
0.25
 74
     0
 49
-0.125
 74
     0
  0
LTYPE
  5
16EA
330
16C9
100
AcDbSymbolTableRecord
100
AcDbLinetypeTableRecord
  2
CENTER
 70
     0
  3
____ _ ____ _ ____ _ ____ _ ____ _ ____ _ ____
 72
    65
 73
     4
 40
2.0
 49
1.25
 74
     0
 49
-0.25
 74
     0
 49
0.25
 74
     0
 49
-0.25
 74
     0
  0
LTYPE
  5
16EB
330
16C9
100
AcDbSymbolTableRecord
100
AcDbLinetypeTableRecord
  2
PHANTOM
 70
     0
  3
_____ _ _ _____ _ _ _____ _ _ _____ _ _ ____
 72
    65
 73
     6
 40
2.5
 49
1.25
 74
     0
 49
-0.25
 74
     0
 49
0.25
 74
     0
 49
-0.25
 74
     0
 49
0.25
 74
     0
 49
-0.25
 74
     0
  0
ENDTAB
  0
TABLE
  2
LAYER
  5
16C6
330
0
100
AcDbSymbolTable
 70
     9
  0
LAYER
  5
16D4
330
16C6
100
AcDbSymbolTableRecord
100
AcDbLayerTableRecord
  2
0
 70
     0
 62
     7
  6
CONTINUOUS
370
    -3
390
16D3
  0
LAYER
  5
16E6
330
16C6
100
AcDbSymbolTableRecord
100
AcDbLayerTableRecord
  2
OBJECT
 70
     0
 62
     7
  6
CONTINUOUS
370
    -3
390
16D3
  0
LAYER
  5
16EF
330
16C6
100
AcDbSymbolTableRecord
100
AcDbLayerTableRecord
  2
DIM
 70
     0
 62
     7
  6
CONTINUOUS
370
    -3
390
16D3
  0
LAYER
  5
16F0
330
16C6
100
AcDbSymbolTableRecord
100
AcDbLayerTableRecord
  2
HIDDEN
 70
     0
 62
     7
  6
HIDDEN
370
    -3
390
16D3
  0
LAYER
  5
16F1
330
16C6
100
AcDbSymbolTableRecord
100
AcDbLayerTableRecord
  2
TEXT
 70
     0
 62
     7
  6
CONTINUOUS
370
    -3
390
16D3
  0
LAYER
  5
16F2
330
16C6
100
AcDbSymbolTableRecord
100
AcDbLayerTableRecord
  2
TITLE
 70
     0
 62
     7
  6
CONTINUOUS
370
    -3
390
16D3
  0
LAYER
  5
16F3
330
16C6
100
AcDbSymbolTableRecord
100
AcDbLayerTableRecord
  2
CENTER
 70
     0
 62
     7
  6
CENTER
370
    -3
390
16D3
  0
LAYER
  5
16F4
330
16C6
100
AcDbSymbolTableRecord
100
AcDbLayerTableRecord
  2
DEFPOINTS
 70
     0
 62
     7
  6
CONTINUOUS
290
     0
370
    -3
390
16D3
  0
LAYER
  5
16F5
330
16C6
100
AcDbSymbolTableRecord
100
AcDbLayerTableRecord
  2
BEND
 70
     0
 62
     7
  6
PHANTOM
370
    -3
390
16D3
  0
ENDTAB
  0
TABLE
  2
STYLE
  5
16C7
330
0
100
AcDbSymbolTable
 70
     3
  0
STYLE
  5
16D5
330
16C7
100
AcDbSymbolTableRecord
100
AcDbTextStyleTableRecord
  2
STANDARD
 70
     0
 40
0.0
 41
1.0
 50
0.0
 71
     0
 42
0.2
  3
txt
  4

  0
STYLE
  5
16E7
330
16C7
100
AcDbSymbolTableRecord
100
AcDbTextStyleTableRecord
  2
TXT
 70
     0
 40
0.0
 41
0.75
 50
0.0
 71
     0
 42
0.75
  3
TXT.shx
  4

  0
STYLE
  5
16F6
330
16C7
100
AcDbSymbolTableRecord
100
AcDbTextStyleTableRecord
  2
SECTION
 70
     0
 40
0.0
 41
0.8
 50
0.0
 71
     0
 42
0.2
  3
ROMANT.SHX
  4

  0
ENDTAB
  0
TABLE
  2
VIEW
  5
16CA
330
0
100
AcDbSymbolTable
 70
     0
  0
ENDTAB
  0
TABLE
  2
UCS
  5
16CB
330
0
100
AcDbSymbolTable
 70
     0
  0
ENDTAB
  0
TABLE
  2
APPID
  5
16CD
330
0
100
AcDbSymbolTable
 70
     1
  0
APPID
  5
16D6
330
16CD
100
AcDbSymbolTableRecord
100
AcDbRegAppTableRecord
  2
ACAD
 70
     0
  0
ENDTAB
  0
TABLE
  2
DIMSTYLE
  5
16CE
330
0
100
AcDbSymbolTable
 70
     3
100
AcDbDimStyleTable
 71
     2
340
16F7
340
16F9
  0
DIMSTYLE
105
16F7
102
{ACAD_REACTORS
330
1995
330
1CDD
330
19C5
330
19EF
330
19A3
330
1987
330
1F21
330
1F23
330
1F25
330
1F28
330
1F29
330
1F2F
330
1F31
330
1F3C
330
1F3E
330
1F41
102
}
330
16CE
100
AcDbSymbolTableRecord
100
AcDbDimStyleTableRecord
  2
23NSTD
 70
     0
 40
6.0
 42
0.063
 43
0.281
 44
0.093
140
0.125
271
     3
272
     3
289
     1
340
16E7
  0
DIMSTYLE
105
16F9
102
{ACAD_REACTORS
330
1C22
330
1BFD
102
}
330
16CE
100
AcDbSymbolTableRecord
100
AcDbDimStyleTableRecord
  2
23NSTD4
 70
     0
  4
ction
 40
6.0
 42
0.063
 43
0.281
 44
0.093
140
0.125
144
0.25
271
     3
272
     3
289
     1
340
16E7
  0
DIMSTYLE
105
1FD4
330
16CE
100
AcDbSymbolTableRecord
100
AcDbDimStyleTableRecord
  2
23NSTDI
 70
     0
 42
0.063
 43
0.281
 44
0.093
140
0.125
174
     1
271
     3
272
     3
279
     2
340
16E7
  0
ENDTAB
  0
TABLE
  2
BLOCK_RECORD
  5
16C5
330
0
100
AcDbSymbolTable
 70
    15
  0
BLOCK_RECORD
  5
16E2
330
16C5
100
AcDbSymbolTableRecord
100
AcDbBlockTableRecord
  2
*Model_Space
340
16E5
  0
BLOCK_RECORD
  5
16DE
330
16C5
100
AcDbSymbolTableRecord
100
AcDbBlockTableRecord
  2
*Paper_Space
340
16E1
  0
BLOCK_RECORD
  5
1702
330
16C5
100
AcDbSymbolTableRecord
100
AcDbBlockTableRecord
  2
HB
340
0
102
{BLKREFS
331
1CF2
102
}
  0
BLOCK_RECORD
  5
1716
330
16C5
100
AcDbSymbolTableRecord
100
AcDbBlockTableRecord
  2
*X1
340
0
102
{BLKREFS
331
1A10
331
1A11
102
}
  0
BLOCK_RECORD
  5
17A4
330
16C5
100
AcDbSymbolTableRecord
100
AcDbBlockTableRecord
  2
*X2
340
0
102
{BLKREFS
331
1C0D
102
}
  0
BLOCK_RECORD
  5
17FE
330
16C5
100
AcDbSymbolTableRecord
100
AcDbBlockTableRecord
  2
*X3
340
0
102
{BLKREFS
331
1C62
102
}
  0
BLOCK_RECORD
  5
182E
330
16C5
100
AcDbSymbolTableRecord
100
AcDbBlockTableRecord
  2
*X4
340
0
102
{BLKREFS
331
1C63
102
}
  0
BLOCK_RECORD
  5
1865
330
16C5
100
AcDbSymbolTableRecord
100
AcDbBlockTableRecord
  2
*X5
340
0
102
{BLKREFS
331
1CEB
102
}
  0
BLOCK_RECORD
  5
1885
330
16C5
100
AcDbSymbolTableRecord
100
AcDbBlockTableRecord
  2
*X6
340
0
102
{BLKREFS
331
1CEC
102
}
  0
BLOCK_RECORD
  5
1988
330
16C5
100
AcDbSymbolTableRecord
100
AcDbBlockTableRecord
  2
*D7
340
0
  0
BLOCK_RECORD
  5
1996
330
16C5
100
AcDbSymbolTableRecord
100
AcDbBlockTableRecord
  2
*D8
340
0
  0
BLOCK_RECORD
  5
19A4
330
16C5
100
AcDbSymbolTableRecord
100
AcDbBlockTableRecord
  2
*D9
340
0
  0
BLOCK_RECORD
  5
19C6
330
16C5
100
AcDbSymbolTableRecord
100
AcDbBlockTableRecord
  2
*D10
340
0
  0
BLOCK_RECORD
  5
19F0
330
16C5
100
AcDbSymbolTableRecord
100
AcDbBlockTableRecord
  2
*D11
340
0
  0
BLOCK_RECORD
  5
1BFE
330
16C5
100
AcDbSymbolTableRecord
100
AcDbBlockTableRecord
  2
*D12
340
0
  0
BLOCK_RECORD
  5
1C23
330
16C5
100
AcDbSymbolTableRecord
100
AcDbBlockTableRecord
  2
*D13
340
0
  0
BLOCK_RECORD
  5
1CDE
330
16C5
100
AcDbSymbolTableRecord
100
AcDbBlockTableRecord
  2
*D14
340
0
  0
ENDTAB
  0
ENDSEC
  0
SECTION
  2
BLOCKS
  0
BLOCK
  5
16E3
330
16E2
100
AcDbEntity
  8
0
100
AcDbBlockBegin
  2
*Model_Space
 70
     0
 10
0.0
 20
0.0
 30
0.0
  3
*Model_Space
  1

  0
ENDBLK
  5
16E4
330
16E2
100
AcDbEntity
  8
0
100
AcDbBlockEnd
  0
BLOCK
  5
16DF
330
16DE
100
AcDbEntity
 67
     1
  8
0
100
AcDbBlockBegin
  2
*Paper_Space
 70
     0
 10
0.0
 20
0.0
 30
0.0
  3
*Paper_Space
  1

  0
ENDBLK
  5
16E0
330
16DE
100
AcDbEntity
 67
     1
  8
0
100
AcDbBlockEnd
  0
BLOCK
  5
1703
330
1702
100
AcDbEntity
  8
0
100
AcDbBlockBegin
  2
HB
 70
     0
 10
0.0
 20
0.0
 30
0.0
  3
HB
  1

  0
LINE
  5
1FD5
330
1702
100
AcDbEntity
  8
TITLE
100
AcDbLine
 10
0.0
 20
15.5
 30
0.0
 11
10.11999999999999
 21
15.49999999999999
 31
0.0
  0
LINE
  5
1FD6
330
1702
100
AcDbEntity
  8
TITLE
100
AcDbLine
 10
10.11999999999999
 20
-0.0000000000000018
 30
0.0
 11
0.0
 21
0.0
 31
0.0
  0
LINE
  5
1FD7
330
1702
100
AcDbEntity
  8
TITLE
100
AcDbLine
 10
0.0620000000000012
 20
15.438
 30
0.0
 11
10.058
 21
15.438
 31
0.0
  0
LINE
  5
1FD8
330
1702
100
AcDbEntity
  8
TITLE
100
AcDbLine
 10
10.058
 20
0.0619999999999994
 30
0.0
 11
0.0619999999999976
 21
0.0620000000000012
 31
0.0
  0
LINE
  5
1FD9
330
1702
100
AcDbEntity
  8
TITLE
100
AcDbLine
 10
0.0620000000000012
 20
15.01999999999999
 30
0.0
 11
10.058
 21
15.01999999999999
 31
0.0
  0
LINE
  5
1FDA
330
1702
100
AcDbEntity
  8
TITLE
100
AcDbLine
 10
0.0
 20
0.0
 30
0.0
 11
0.0
 21
15.5
 31
0.0
  0
LINE
  5
1FDB
330
1702
100
AcDbEntity
  8
TITLE
100
AcDbLine
 10
0.0619999999999976
 20
0.0620000000000012
 30
0.0
 11
0.0620000000000012
 21
15.438
 31
0.0
  0
TEXT
  5
1FDC
330
1702
100
AcDbEntity
  8
TEXT
100
AcDbText
 10
0.2078333333333381
 20
15.26841252897341
 30
0.0
 40
0.125
  1
PART
  7
TXT
 72
     1
 11
0.4370000000000048
 21
15.26841252897341
 31
0.0
100
AcDbText
  0
TEXT
  5
1FDD
330
1702
100
AcDbEntity
  8
TEXT
100
AcDbText
 10
0.2078333333333381
 20
15.06007919564008
 30
0.0
 40
0.125
  1
NAME
  7
TXT
 72
     1
 11
0.4370000000000048
 21
15.06007919564008
 31
0.0
100
AcDbText
  0
LINE
  5
1FDE
330
1702
100
AcDbEntity
  8
TITLE
100
AcDbLine
 10
0.8120000000000047
 20
15.01999999999999
 30
0.0
 11
0.8120000000000011
 21
15.438
 31
0.0
  0
LINE
  5
1FDF
330
1702
100
AcDbEntity
  8
TITLE
100
AcDbLine
 10
10.11999999999999
 20
15.49999999999999
 30
0.0
 11
10.11999999999999
 21
-0.0000000000000018
 31
0.0
  0
LINE
  5
1FE0
330
1702
100
AcDbEntity
  8
TITLE
100
AcDbLine
 10
10.058
 20
15.438
 30
0.0
 11
10.058
 21
0.0619999999999994
 31
0.0
  0
TEXT
  5
1FE1
330
1702
100
AcDbEntity
  8
TEXT
100
AcDbText
 10
4.36183333333333
 20
15.26841252897341
 30
0.0
 40
0.125
  1
PART
  7
TXT
 72
     1
 11
4.590999999999997
 21
15.26841252897341
 31
0.0
100
AcDbText
  0
LINE
  5
1FE2
330
1702
100
AcDbEntity
  8
TITLE
100
AcDbLine
 10
4.153999999999999
 20
15.438
 30
0.0
 11
4.153999999999999
 21
15.01999999999999
 31
0.0
  0
LINE
  5
1FE3
330
1702
100
AcDbEntity
  8
TITLE
100
AcDbLine
 10
4.215999999999997
 20
15.438
 30
0.0
 11
4.215999999999997
 21
15.01999999999999
 31
0.0
  0
TEXT
  5
1FE4
330
1702
100
AcDbEntity
  8
TEXT
100
AcDbText
 10
4.465999999999997
 20
15.06007919564008
 30
0.0
 40
0.125
  1
No.
  7
TXT
 72
     1
 11
4.590999999999997
 21
15.06007919564008
 31
0.0
100
AcDbText
  0
LINE
  5
1FE5
330
1702
100
AcDbEntity
  8
TITLE
100
AcDbLine
 10
4.965999999999997
 20
15.438
 30
0.0
 11
4.965999999999997
 21
15.01999999999999
 31
0.0
  0
LINE
  5
1FE6
330
1702
100
AcDbEntity
  8
TITLE
100
AcDbLine
 10
8.307999999999999
 20
15.438
 30
0.0
 11
8.307999999999999
 21
15.02
 31
0.0
  0
LINE
  5
1FE7
330
1702
100
AcDbEntity
  8
TITLE
100
AcDbLine
 10
8.245999999999988
 20
15.438
 30
0.0
 11
8.245999999999988
 21
15.02
 31
0.0
  0
TEXT
  5
1FE8
330
1702
100
AcDbEntity
  8
TEXT
100
AcDbText
 10
8.453833333333333
 20
15.06007919564008
 30
0.0
 40
0.125
  1
DATE
  7
TXT
 72
     1
 11
8.682999999999999
 21
15.06007919564008
 31
0.0
100
AcDbText
  0
TEXT
  5
1FE9
330
1702
100
AcDbEntity
  8
TEXT
100
AcDbText
 10
8.474666666666665
 20
15.26841252897341
 30
0.0
 40
0.125
  1
REV.
  7
TXT
 72
     1
 11
8.682999999999999
 21
15.26841252897341
 31
0.0
100
AcDbText
  0
LINE
  5
1FEA
330
1702
100
AcDbEntity
  8
TITLE
100
AcDbLine
 10
9.057999999999999
 20
15.438
 30
0.0
 11
9.057999999999999
 21
15.02
 31
0.0
  0
ENDBLK
  5
1715
330
1702
100
AcDbEntity
  8
0
100
AcDbBlockEnd
  0
BLOCK
  5
1717
330
1716
100
AcDbEntity
  8
0
100
AcDbBlockBegin
  2
*X1
 70
     1
 10
0.0
 20
0.0
 30
0.0
  3
*X1
  1

  0
LINE
  5
1718
330
1716
100
AcDbEntity
  8
0
 62
     0
100
AcDbLine
 10
1.196039168385687
 20
0.599975639101544
 30
0.0
 11
5.086496000593312
 21
15.11935820155386
 31
0.0
  0
LINE
  5
1719
330
1716
100
AcDbEntity
  8
0
 62
     0
100
AcDbLine
 10
0.4476575443577132
 20
1.670680699934502
 30
0.0
 11
3.720421748261796
 21
13.88480299009724
 31
0.0
  0
LINE
  5
171A
330
1716
100
AcDbEntity
  8
0
 62
     0
100
AcDbLine
 10
0.2832854686663652
 20
4.920939067265105
 30
0.0
 11
2.354347495930281
 21
12.65024777864064
 31
0.0
  0
LINE
  5
171B
330
1716
100
AcDbEntity
  8
0
 62
     0
100
AcDbLine
 10
0.1189133929750173
 20
8.171197434595708
 30
0.0
 11
0.9882732435987675
 21
11.41569256718401
 31
0.0
  0
LINE
  5
171C
330
1716
100
AcDbEntity
  8
0
 62
     0
100
AcDbLine
 10
2.562113420717199
 20
1.834530850558144
 30
0.0
 11
6.45257025292483
 21
16.35391341301047
 31
0.0
  0
LINE
  5
171D
330
1716
100
AcDbEntity
  8
0
 62
     0
100
AcDbLine
 10
3.928187673048713
 20
3.069086062014747
 30
0.0
 11
7.817076767118476
 21
17.58261774608358
 31
0.0
  0
LINE
  5
171E
330
1716
100
AcDbEntity
  8
0
 62
     0
100
AcDbLine
 10
5.294261925380228
 20
4.303641273471351
 30
0.0
 11
7.981448842809824
 21
14.33235937875299
 31
0.0
  0
LINE
  5
171F
330
1716
100
AcDbEntity
  8
0
 62
     0
100
AcDbLine
 10
6.660336177711742
 20
5.538196484927953
 30
0.0
 11
8.145820918501168
 21
11.08210101142238
 31
0.0
  0
LINE
  5
1720
330
1716
100
AcDbEntity
  8
0
 62
     0
100
AcDbLine
 10
8.026410430043256
 20
6.772751696384553
 30
0.0
 11
8.310192994192519
 21
7.831842644091777
 31
0.0
  0
ENDBLK
  5
1721
330
1716
100
AcDbEntity
  8
0
100
AcDbBlockEnd
  0
BLOCK
  5
17A5
330
17A4
100
AcDbEntity
  8
0
100
AcDbBlockBegin
  2
*X2
 70
     1
 10
0.0
 20
0.0
 30
0.0
  3
*X2
  1

  0
LINE
  5
17A6
330
17A4
100
AcDbEntity
  8
0
 62
     0
100
AcDbLine
 10
46.8342922311201
 20
57.04980973031137
 30
0.0
 11
47.08229223608014
 21
56.80180972535133
 31
0.0
  0
LINE
  5
17A7
330
17A4
100
AcDbEntity
  8
0
 62
     0
100
AcDbLine
 10
46.83429223112013
 20
57.49175146855296
 30
0.0
 11
47.08229223608014
 21
57.24375146359292
 31
0.0
  0
LINE
  5
17A8
330
17A4
100
AcDbEntity
  8
0
 62
     0
100
AcDbLine
 10
46.83429223112013
 20
57.93369320679452
 30
0.0
 11
47.08229223608014
 21
57.68569320183452
 31
0.0
  0
LINE
  5
17A9
330
17A4
100
AcDbEntity
  8
0
 62
     0
100
AcDbLine
 10
46.8342922311201
 20
58.37563494503616
 30
0.0
 11
47.08229223608014
 21
58.12763494007612
 31
0.0
  0
LINE
  5
17AA
330
17A4
100
AcDbEntity
  8
0
 62
     0
100
AcDbLine
 10
48.60229226647975
 20
57.04957664791812
 30
0.0
 11
48.8502922714399
 21
56.80157664295798
 31
0.0
  0
LINE
  5
17AB
330
17A4
100
AcDbEntity
  8
0
 62
     0
100
AcDbLine
 10
46.83429223112013
 20
58.81757668327773
 30
0.0
 11
47.08229223608014
 21
58.5695766783177
 31
0.0
  0
LINE
  5
17AC
330
17A4
100
AcDbEntity
  8
0
 62
     0
100
AcDbLine
 10
48.60229226647973
 20
57.49151838615972
 30
0.0
 11
48.85029227143991
 21
57.24351838119955
 31
0.0
  0
LINE
  5
17AD
330
17A4
100
AcDbEntity
  8
0
 62
     0
100
AcDbLine
 10
46.83429223112013
 20
59.25951842151931
 30
0.0
 11
47.08229223608014
 21
59.01151841655931
 31
0.0
  0
LINE
  5
17AE
330
17A4
100
AcDbEntity
  8
0
 62
     0
100
AcDbLine
 10
48.60229226647973
 20
57.93346012440129
 30
0.0
 11
48.8502922714399
 21
57.68546011944113
 31
0.0
  0
LINE
  5
17AF
330
17A4
100
AcDbEntity
  8
0
 62
     0
100
AcDbLine
 10
49.83429229112012
 20
56.70146009976092
 30
0.0
 11
49.89758592091959
 21
56.63816646996146
 31
0.0
  0
LINE
  5
17B0
330
17A4
100
AcDbEntity
  8
0
 62
     0
100
AcDbLine
 10
46.8342922311201
 20
59.70146015976093
 30
0.0
 11
47.08229223608014
 21
59.45346015480092
 31
0.0
  0
LINE
  5
17B1
330
17A4
100
AcDbEntity
  8
0
 62
     0
100
AcDbLine
 10
48.60229226647973
 20
58.37540186264291
 30
0.0
 11
48.85029227143992
 21
58.12740185768271
 31
0.0
  0
LINE
  5
17B2
330
17A4
100
AcDbEntity
  8
0
 62
     0
100
AcDbLine
 10
49.83429229112013
 20
57.1434018380025
 30
0.0
 11
50.08229229608011
 21
56.8954018330425
 31
0.0
  0
LINE
  5
17B3
330
17A4
100
AcDbEntity
  8
0
 62
     0
100
AcDbLine
 10
46.83429223112013
 20
60.1434018980025
 30
0.0
 11
47.08229223608014
 21
59.8954018930425
 31
0.0
  0
LINE
  5
17B4
330
17A4
100
AcDbEntity
  8
0
 62
     0
100
AcDbLine
 10
48.60229226647973
 20
58.81734360088451
 30
0.0
 11
48.85029227143992
 21
58.56934359592431
 31
0.0
  0
LINE
  5
17B5
330
17A4
100
AcDbEntity
  8
0
 62
     0
100
AcDbLine
 10
49.83429229112013
 20
57.58534357624411
 30
0.0
 11
50.08229229608011
 21
57.3373435712841
 31
0.0
  0
LINE
  5
17B6
330
17A4
100
AcDbEntity
  8
0
 62
     0
100
AcDbLine
 10
46.83429223112016
 20
60.58534363624406
 30
0.0
 11
47.08229223608014
 21
60.33734363128409
 31
0.0
  0
LINE
  5
17B7
330
17A4
100
AcDbEntity
  8
0
 62
     0
100
AcDbLine
 10
48.60229226647972
 20
59.25928533912609
 30
0.0
 11
48.85029227143991
 21
59.01128533416589
 31
0.0
  0
LINE
  5
17B8
330
17A4
100
AcDbEntity
  8
0
 62
     0
100
AcDbLine
 10
49.83429229112012
 20
58.02728531448568
 30
0.0
 11
50.08229229608011
 21
57.7792853095257
 31
0.0
  0
LINE
  5
17B9
330
17A4
100
AcDbEntity
  8
0
 62
     0
100
AcDbLine
 10
46.83429223112013
 20
61.02728537448569
 30
0.0
 11
47.0822922360801
 21
60.77928536952569
 31
0.0
  0
LINE
  5
17BA
330
17A4
100
AcDbEntity
  8
0
 62
     0
100
AcDbLine
 10
48.60229226647972
 20
59.70122707736769
 30
0.0
 11
48.85029227143992
 21
59.45322707240746
 31
0.0
  0
LINE
  5
17BB
330
17A4
100
AcDbEntity
  8
0
 62
     0
100
AcDbLine
 10
49.83429229112013
 20
58.46922705272728
 30
0.0
 11
50.08229229608011
 21
58.22122704776727
 31
0.0
  0
LINE
  5
17BC
330
17A4
100
AcDbEntity
  8
0
 62
     0
100
AcDbLine
 10
46.83429223112013
 20
61.46922711272726
 30
0.0
 11
47.0822922360801
 21
61.22122710776729
 31
0.0
  0
LINE
  5
17BD
330
17A4
100
AcDbEntity
  8
0
 62
     0
100
AcDbLine
 10
48.60229226647973
 20
60.14316881560927
 30
0.0
 11
48.85029227143993
 21
59.89516881064904
 31
0.0
  0
LINE
  5
17BE
330
17A4
100
AcDbEntity
  8
0
 62
     0
100
AcDbLine
 10
49.83429229112013
 20
58.91116879096887
 30
0.0
 11
50.08229229608011
 21
58.66316878600888
 31
0.0
  0
LINE
  5
17BF
330
17A4
100
AcDbEntity
  8
0
 62
     0
100
AcDbLine
 10
46.83429223112016
 20
61.91116885096885
 30
0.0
 11
47.0822922360801
 21
61.66316884600888
 31
0.0
  0
LINE
  5
17C0
330
17A4
100
AcDbEntity
  8
0
 62
     0
100
AcDbLine
 10
48.60229226647972
 20
60.58511055385086
 30
0.0
 11
48.85029227143992
 21
60.33711054889066
 31
0.0
  0
LINE
  5
17C1
330
17A4
100
AcDbEntity
  8
0
 62
     0
100
AcDbLine
 10
49.83429229112012
 20
59.35311052921047
 30
0.0
 11
50.08229229608011
 21
59.10511052425047
 31
0.0
  0
LINE
  5
17C2
330
17A4
100
AcDbEntity
  8
0
 62
     0
100
AcDbLine
 10
46.83429223112013
 20
62.35311058921046
 30
0.0
 11
47.0822922360801
 21
62.10511058425048
 31
0.0
  0
LINE
  5
17C3
330
17A4
100
AcDbEntity
  8
0
 62
     0
100
AcDbLine
 10
48.60229226647972
 20
61.02705229209245
 30
0.0
 11
48.85029227143993
 21
60.77905228713224
 31
0.0
  0
LINE
  5
17C4
330
17A4
100
AcDbEntity
  8
0
 62
     0
100
AcDbLine
 10
49.83429229112012
 20
59.79505226745207
 30
0.0
 11
50.08229229608011
 21
59.54705226249207
 31
0.0
  0
LINE
  5
17C5
330
17A4
100
AcDbEntity
  8
0
 62
     0
100
AcDbLine
 10
47.02645134085989
 20
62.60289321771228
 30
0.0
 11
47.0822922360801
 21
62.54705232249207
 31
0.0
  0
LINE
  5
17C6
330
17A4
100
AcDbEntity
  8
0
 62
     0
100
AcDbLine
 10
49.83429229112013
 20
60.23699400569364
 30
0.0
 11
50.08229229608011
 21
59.98899400073366
 31
0.0
  0
LINE
  5
17C7
330
17A4
100
AcDbEntity
  8
0
 62
     0
100
AcDbLine
 10
49.83429229112012
 20
60.67893574393524
 30
0.0
 11
50.08229229608011
 21
60.43093573897525
 31
0.0
  0
LINE
  5
17C8
330
17A4
100
AcDbEntity
  8
0
 62
     0
100
AcDbLine
 10
48.60229226647998
 20
61.91093576857536
 30
0.0
 11
48.82649394156278
 21
61.68673409349257
 31
0.0
  0
LINE
  5
17C9
330
17A4
100
AcDbEntity
  8
0
 62
     0
100
AcDbLine
 10
49.83429229112012
 20
61.12087748217684
 30
0.0
 11
50.08229229608011
 21
60.87287747721685
 31
0.0
  0
LINE
  5
17CA
330
17A4
100
AcDbEntity
  8
0
 62
     0
100
AcDbLine
 10
48.60229226648001
 20
62.35287750681695
 30
0.0
 11
48.85029227143993
 21
62.10487750185702
 31
0.0
  0
LINE
  5
17CB
330
17A4
100
AcDbEntity
  8
0
 62
     0
100
AcDbLine
 10
48.60229226647998
 20
62.79481924505858
 30
0.0
 11
48.85029227143993
 21
62.54681924009862
 31
0.0
  0
LINE
  5
17CC
330
17A4
100
AcDbEntity
  8
0
 62
     0
100
AcDbLine
 10
49.83429229112009
 20
62.00476095866005
 30
0.0
 11
50.0078139254631
 21
61.83123932431704
 31
0.0
  0
LINE
  5
17CD
330
17A4
100
AcDbEntity
  8
0
 62
     0
100
AcDbLine
 10
48.60229226647998
 20
63.23676098330015
 30
0.0
 11
48.85029227143992
 21
62.98876097834021
 31
0.0
  0
LINE
  5
17CE
330
17A4
100
AcDbEntity
  8
0
 62
     0
100
AcDbLine
 10
49.8342922911201
 20
62.44670269690164
 30
0.0
 11
50.08229229608011
 21
62.1987026919416
 31
0.0
  0
LINE
  5
17CF
330
17A4
100
AcDbEntity
  8
0
 62
     0
100
AcDbLine
 10
48.60229226647994
 20
63.67870272154178
 30
0.0
 11
48.85029227143993
 21
63.43070271658179
 31
0.0
  0
LINE
  5
17D0
330
17A4
100
AcDbEntity
  8
0
 62
     0
100
AcDbLine
 10
49.83429229112015
 20
62.88864443514317
 30
0.0
 11
50.08229229608011
 21
62.6406444301832
 31
0.0
  0
LINE
  5
17D1
330
17A4
100
AcDbEntity
  8
0
 62
     0
100
AcDbLine
 10
48.60229226647998
 20
64.12064445978336
 30
0.0
 11
48.85029227143993
 21
63.8726444548234
 31
0.0
  0
LINE
  5
17D2
330
17A4
100
AcDbEntity
  8
0
 62
     0
100
AcDbLine
 10
49.83429229112013
 20
63.33058617338477
 30
0.0
 11
50.08229229608011
 21
63.08258616842482
 31
0.0
  0
LINE
  5
17D3
330
17A4
100
AcDbEntity
  8
0
 62
     0
100
AcDbLine
 10
48.79421829382625
 20
64.37066017067865
 30
0.0
 11
48.85029227143992
 21
64.31458619306495
 31
0.0
  0
LINE
  5
17D4
330
17A4
100
AcDbEntity
  8
0
 62
     0
100
AcDbLine
 10
49.83429229112015
 20
63.77252791162637
 30
0.0
 11
50.08229229608011
 21
63.5245279066664
 31
0.0
  0
LINE
  5
17D5
330
17A4
100
AcDbEntity
  8
0
 62
     0
100
AcDbLine
 10
49.83429229112015
 20
64.21446964986798
 30
0.0
 11
50.08229229608014
 21
63.96646964490797
 31
0.0
  0
LINE
  5
17D6
330
17A4
100
AcDbEntity
  8
0
 62
     0
100
AcDbLine
 10
49.83429229112013
 20
64.65641138810955
 30
0.0
 11
50.08229229608011
 21
64.40841138314957
 31
0.0
  0
LINE
  5
17D7
330
17A4
100
AcDbEntity
  8
0
 62
     0
100
AcDbLine
 10
49.83429229112015
 20
65.09835312635114
 30
0.0
 11
50.08229229608011
 21
64.85035312139114
 31
0.0
  0
LINE
  5
17D8
330
17A4
100
AcDbEntity
  8
0
 62
     0
100
AcDbLine
 10
49.89907263943026
 20
65.47551451628263
 30
0.0
 11
50.08229229608014
 21
65.29229485963274
 31
0.0
  0
ENDBLK
  5
17D9
330
17A4
100
AcDbEntity
  8
0
100
AcDbBlockEnd
  0
BLOCK
  5
17FF
330
17FE
100
AcDbEntity
  8
0
100
AcDbBlockBegin
  2
*X3
 70
     1
 10
0.0
 20
0.0
 30
0.0
  3
*X3
  1

  0
LINE
  5
1800
330
17FE
100
AcDbEntity
  8
0
 62
     0
100
AcDbLine
 10
49.50232698005143
 20
57.41073400797257
 30
0.0
 11
49.83429229112012
 21
57.74269931904126
 31
0.0
  0
LINE
  5
1801
330
17FE
100
AcDbEntity
  8
0
 62
     0
100
AcDbLine
 10
48.91429227272003
 20
57.61819442947606
 30
0.0
 11
49.83429229112012
 21
58.53819444787615
 31
0.0
  0
LINE
  5
1802
330
17FE
100
AcDbEntity
  8
0
 62
     0
100
AcDbLine
 10
48.91429227272006
 20
58.41368955831096
 30
0.0
 11
49.83429229112015
 21
59.33368957671103
 31
0.0
  0
LINE
  5
1803
330
17FE
100
AcDbEntity
  8
0
 62
     0
100
AcDbLine
 10
48.91429227272006
 20
59.20918468714582
 30
0.0
 11
49.83429229112013
 21
60.12918470554589
 31
0.0
  0
LINE
  5
1804
330
17FE
100
AcDbEntity
  8
0
 62
     0
100
AcDbLine
 10
48.91429227272007
 20
60.0046798159807
 30
0.0
 11
49.83429229112013
 21
60.92467983438078
 31
0.0
  0
LINE
  5
1805
330
17FE
100
AcDbEntity
  8
0
 62
     0
100
AcDbLine
 10
49.8008514213971
 20
61.6867340934926
 30
0.0
 11
49.83429229112015
 21
61.72017496321565
 31
0.0
  0
LINE
  5
1806
330
17FE
100
AcDbEntity
  8
0
 62
     0
100
AcDbLine
 10
48.91429227272008
 20
60.80017494481558
 30
0.0
 11
49.2488514103573
 21
61.1347340824528
 31
0.0
  0
LINE
  5
1807
330
17FE
100
AcDbEntity
  8
0
 62
     0
100
AcDbLine
 10
49.00535629256221
 20
61.68673409349257
 30
0.0
 11
49.83429229112015
 21
62.5156700920505
 31
0.0
  0
LINE
  5
1808
330
17FE
100
AcDbEntity
  8
0
 62
     0
100
AcDbLine
 10
49.11429227672005
 20
62.5911652064853
 30
0.0
 11
49.83429229112013
 21
63.31116522088539
 31
0.0
  0
LINE
  5
1809
330
17FE
100
AcDbEntity
  8
0
 62
     0
100
AcDbLine
 10
49.11429227672008
 20
63.38666033532017
 30
0.0
 11
49.83429229112013
 21
64.10666034972024
 31
0.0
  0
LINE
  5
180A
330
17FE
100
AcDbEntity
  8
0
 62
     0
100
AcDbLine
 10
49.11429227672008
 20
64.18215546415503
 30
0.0
 11
49.83429229112012
 21
64.90215547855507
 31
0.0
  0
LINE
  5
180B
330
17FE
100
AcDbEntity
  8
0
 62
     0
100
AcDbLine
 10
48.82737583730293
 20
64.69073415357278
 30
0.0
 11
49.54737585170281
 21
65.41073416797266
 31
0.0
  0
LINE
  5
180C
330
17FE
100
AcDbEntity
  8
0
 62
     0
100
AcDbLine
 10
48.03188070846809
 20
64.69073415357278
 30
0.0
 11
48.75188072286796
 21
65.41073416797264
 31
0.0
  0
LINE
  5
180D
330
17FE
100
AcDbEntity
  8
0
 62
     0
100
AcDbLine
 10
47.23638557963321
 20
64.69073415357278
 30
0.0
 11
47.95638559403307
 21
65.41073416797264
 31
0.0
  0
LINE
  5
180E
330
17FE
100
AcDbEntity
  8
0
 62
     0
100
AcDbLine
 10
46.24089044679839
 20
64.49073414957282
 30
0.0
 11
47.16089046519821
 21
65.41073416797264
 31
0.0
  0
LINE
  5
180F
330
17FE
100
AcDbEntity
  8
0
 62
     0
100
AcDbLine
 10
46.11029221664031
 20
65.1556310482496
 30
0.0
 11
46.36539533636333
 21
65.4107341679726
 31
0.0
  0
LINE
  5
1810
330
17FE
100
AcDbEntity
  8
0
 62
     0
100
AcDbLine
 10
45.44539531796352
 20
64.4907341495728
 30
0.0
 11
45.55829220560025
 21
64.60363103720952
 31
0.0
  0
LINE
  5
1811
330
17FE
100
AcDbEntity
  8
0
 62
     0
100
AcDbLine
 10
44.64990018912863
 20
64.4907341495728
 30
0.0
 11
45.55829220560021
 21
65.39912616604439
 31
0.0
  0
LINE
  5
1812
330
17FE
100
AcDbEntity
  8
0
 62
     0
100
AcDbLine
 10
43.8544050602938
 20
64.49073414957282
 30
0.0
 11
44.77440507869363
 21
65.41073416797266
 31
0.0
  0
LINE
  5
1813
330
17FE
100
AcDbEntity
  8
0
 62
     0
100
AcDbLine
 10
43.05890993145889
 20
64.49073414957277
 30
0.0
 11
43.97890994985876
 21
65.41073416797264
 31
0.0
  0
LINE
  5
1814
330
17FE
100
AcDbEntity
  8
0
 62
     0
100
AcDbLine
 10
42.26341480262402
 20
64.49073414957279
 30
0.0
 11
43.18341482102388
 21
65.41073416797265
 31
0.0
  0
LINE
  5
1815
330
17FE
100
AcDbEntity
  8
0
 62
     0
100
AcDbLine
 10
41.83429213112068
 20
64.85710660690431
 30
0.0
 11
42.38791969218903
 21
65.41073416797266
 31
0.0
  0
LINE
  5
1816
330
17FE
100
AcDbEntity
  8
0
 62
     0
100
AcDbLine
 10
49.76749202255136
 20
57.4107340079725
 30
0.0
 11
49.83429229112013
 21
57.47753427654128
 31
0.0
  0
LINE
  5
1817
330
17FE
100
AcDbEntity
  8
0
 62
     0
100
AcDbLine
 10
48.97199689371667
 20
57.41073400797271
 30
0.0
 11
49.83429229112012
 21
58.27302940537615
 31
0.0
  0
LINE
  5
1818
330
17FE
100
AcDbEntity
  8
0
 62
     0
100
AcDbLine
 10
48.91429227272006
 20
58.14852451581096
 30
0.0
 11
49.83429229112015
 21
59.06852453421103
 31
0.0
  0
LINE
  5
1819
330
17FE
100
AcDbEntity
  8
0
 62
     0
100
AcDbLine
 10
48.91429227272006
 20
58.94401964464581
 30
0.0
 11
49.83429229112015
 21
59.8640196630459
 31
0.0
  0
LINE
  5
181A
330
17FE
100
AcDbEntity
  8
0
 62
     0
100
AcDbLine
 10
48.91429227272006
 20
59.73951477348069
 30
0.0
 11
49.83429229112013
 21
60.65951479188078
 31
0.0
  0
LINE
  5
181B
330
17FE
100
AcDbEntity
  8
0
 62
     0
100
AcDbLine
 10
48.91429227272007
 20
60.53500990231557
 30
0.0
 11
49.51401645285731
 21
61.1347340824528
 31
0.0
  0
LINE
  5
181C
330
17FE
100
AcDbEntity
  8
0
 62
     0
100
AcDbLine
 10
49.27052133506222
 20
61.68673409349256
 30
0.0
 11
49.83429229112015
 21
62.2505050495505
 31
0.0
  0
LINE
  5
181D
330
17FE
100
AcDbEntity
  8
0
 62
     0
100
AcDbLine
 10
49.11429227672005
 20
62.3260001639853
 30
0.0
 11
49.83429229112013
 21
63.04600017838538
 31
0.0
  0
LINE
  5
181E
330
17FE
100
AcDbEntity
  8
0
 62
     0
100
AcDbLine
 10
48.91429227272007
 20
62.12600015998528
 30
0.0
 11
49.03902621750766
 21
62.25073410477293
 31
0.0
  0
LINE
  5
181F
330
17FE
100
AcDbEntity
  8
0
 62
     0
100
AcDbLine
 10
49.11429227672008
 20
63.12149529282017
 30
0.0
 11
49.83429229112015
 21
63.84149530722026
 31
0.0
  0
LINE
  5
1820
330
17FE
100
AcDbEntity
  8
0
 62
     0
100
AcDbLine
 10
49.11429227672006
 20
63.91699042165502
 30
0.0
 11
49.83429229112013
 21
64.6369904360551
 31
0.0
  0
LINE
  5
1821
330
17FE
100
AcDbEntity
  8
0
 62
     0
100
AcDbLine
 10
49.09254087980297
 20
64.69073415357282
 30
0.0
 11
49.81254089420282
 21
65.41073416797266
 31
0.0
  0
LINE
  5
1822
330
17FE
100
AcDbEntity
  8
0
 62
     0
100
AcDbLine
 10
48.29704575096811
 20
64.69073415357279
 30
0.0
 11
49.01704576536797
 21
65.41073416797264
 31
0.0
  0
LINE
  5
1823
330
17FE
100
AcDbEntity
  8
0
 62
     0
100
AcDbLine
 10
47.50155062213324
 20
64.69073415357282
 30
0.0
 11
48.22155063653308
 21
65.41073416797264
 31
0.0
  0
LINE
  5
1824
330
17FE
100
AcDbEntity
  8
0
 62
     0
100
AcDbLine
 10
46.70605549329838
 20
64.69073415357282
 30
0.0
 11
47.42605550769821
 21
65.41073416797264
 31
0.0
  0
LINE
  5
1825
330
17FE
100
AcDbEntity
  8
0
 62
     0
100
AcDbLine
 10
46.50605548929838
 20
64.4907341495728
 30
0.0
 11
46.67429222792065
 21
64.65897088819509
 31
0.0
  0
LINE
  5
1826
330
17FE
100
AcDbEntity
  8
0
 62
     0
100
AcDbLine
 10
46.11029221664031
 20
64.89046600574957
 30
0.0
 11
46.63056037886331
 21
65.4107341679726
 31
0.0
  0
LINE
  5
1827
330
17FE
100
AcDbEntity
  8
0
 62
     0
100
AcDbLine
 10
44.91506523162864
 20
64.49073414957279
 30
0.0
 11
45.55829220560021
 21
65.13396112354439
 31
0.0
  0
LINE
  5
1828
330
17FE
100
AcDbEntity
  8
0
 62
     0
100
AcDbLine
 10
44.11957010279378
 20
64.4907341495728
 30
0.0
 11
45.03957012119362
 21
65.41073416797266
 31
0.0
  0
LINE
  5
1829
330
17FE
100
AcDbEntity
  8
0
 62
     0
100
AcDbLine
 10
43.3240749739589
 20
64.49073414957277
 30
0.0
 11
44.24407499235874
 21
65.41073416797262
 31
0.0
  0
LINE
  5
182A
330
17FE
100
AcDbEntity
  8
0
 62
     0
100
AcDbLine
 10
42.52857984512405
 20
64.49073414957282
 30
0.0
 11
43.44857986352388
 21
65.41073416797265
 31
0.0
  0
LINE
  5
182B
330
17FE
100
AcDbEntity
  8
0
 62
     0
100
AcDbLine
 10
41.83429213112068
 20
64.59194156440429
 30
0.0
 11
42.65308473468901
 21
65.41073416797264
 31
0.0
  0
LINE
  5
182C
330
17FE
100
AcDbEntity
  8
0
 62
     0
100
AcDbLine
 10
41.83429213112068
 20
65.38743669323911
 30
0.0
 11
41.85758960585413
 21
65.41073416797262
 31
0.0
  0
ENDBLK
  5
182D
330
17FE
100
AcDbEntity
  8
0
100
AcDbBlockEnd
  0
BLOCK
  5
182F
330
182E
100
AcDbEntity
  8
0
100
AcDbBlockBegin
  2
*X4
 70
     1
 10
0.0
 20
0.0
 30
0.0
  3
*X4
  1

  0
LINE
  5
1830
330
182E
100
AcDbEntity
  8
0
 62
     0
100
AcDbLine
 10
48.46457604653902
 20
64.17873414333235
 30
0.0
 11
48.71257605149921
 21
64.42673414829254
 31
0.0
  0
LINE
  5
1831
330
182E
100
AcDbEntity
  8
0
 62
     0
100
AcDbLine
 10
49.69657607117929
 20
65.41073416797264
 30
0.0
 11
49.94457607613949
 21
65.65873417293281
 31
0.0
  0
LINE
  5
1832
330
182E
100
AcDbEntity
  8
0
 62
     0
100
AcDbLine
 10
46.69657601117918
 20
62.41073410797252
 30
0.0
 11
46.94457601613915
 21
62.65873411293247
 31
0.0
  0
LINE
  5
1833
330
182E
100
AcDbEntity
  8
0
 62
     0
100
AcDbLine
 10
48.02263430829738
 20
64.1787341433323
 30
0.0
 11
48.27063431325764
 21
64.42673414829254
 31
0.0
  0
LINE
  5
1834
330
182E
100
AcDbEntity
  8
0
 62
     0
100
AcDbLine
 10
49.25463433293771
 20
65.41073416797262
 30
0.0
 11
49.50263433789789
 21
65.65873417293281
 31
0.0
  0
LINE
  5
1835
330
182E
100
AcDbEntity
  8
0
 62
     0
100
AcDbLine
 10
46.25463427293757
 20
62.41073410797248
 30
0.0
 11
46.50263427789754
 21
62.65873411293249
 31
0.0
  0
LINE
  5
1836
330
182E
100
AcDbEntity
  8
0
 62
     0
100
AcDbLine
 10
47.5806925700558
 20
64.17873414333232
 30
0.0
 11
47.82869257501602
 21
64.42673414829255
 31
0.0
  0
LINE
  5
1837
330
182E
100
AcDbEntity
  8
0
 62
     0
100
AcDbLine
 10
48.8126925946961
 20
65.4107341679726
 30
0.0
 11
49.06069259965633
 21
65.65873417293281
 31
0.0
  0
LINE
  5
1838
330
182E
100
AcDbEntity
  8
0
 62
     0
100
AcDbLine
 10
45.81269253469599
 20
62.41073410797248
 30
0.0
 11
46.06069253965599
 21
62.65873411293247
 31
0.0
  0
LINE
  5
1839
330
182E
100
AcDbEntity
  8
0
 62
     0
100
AcDbLine
 10
47.13875083181422
 20
64.17873414333232
 30
0.0
 11
47.38675083677442
 21
64.42673414829254
 31
0.0
  0
LINE
  5
183A
330
182E
100
AcDbEntity
  8
0
 62
     0
100
AcDbLine
 10
48.37075085645452
 20
65.41073416797264
 30
0.0
 11
48.61875086141473
 21
65.65873417293281
 31
0.0
  0
LINE
  5
183B
330
182E
100
AcDbEntity
  8
0
 62
     0
100
AcDbLine
 10
45.37075079645441
 20
62.41073410797248
 30
0.0
 11
45.61875080141439
 21
62.65873411293247
 31
0.0
  0
LINE
  5
183C
330
182E
100
AcDbEntity
  8
0
 62
     0
100
AcDbLine
 10
46.6968090935726
 20
64.1787341433323
 30
0.0
 11
46.94480909853285
 21
64.42673414829254
 31
0.0
  0
LINE
  5
183D
330
182E
100
AcDbEntity
  8
0
 62
     0
100
AcDbLine
 10
47.92880911821291
 20
65.41073416797259
 30
0.0
 11
48.17680912317311
 21
65.65873417293279
 31
0.0
  0
LINE
  5
183E
330
182E
100
AcDbEntity
  8
0
 62
     0
100
AcDbLine
 10
44.92880905821278
 20
62.41073410797248
 30
0.0
 11
45.17680906317276
 21
62.65873411293249
 31
0.0
  0
LINE
  5
183F
330
182E
100
AcDbEntity
  8
0
 62
     0
100
AcDbLine
 10
46.25486735533103
 20
64.17873414333232
 30
0.0
 11
46.50286736029126
 21
64.42673414829255
 31
0.0
  0
LINE
  5
1840
330
182E
100
AcDbEntity
  8
0
 62
     0
100
AcDbLine
 10
47.48686737997132
 20
65.41073416797257
 30
0.0
 11
47.73486738493153
 21
65.65873417293281
 31
0.0
  0
LINE
  5
1841
330
182E
100
AcDbEntity
  8
0
 62
     0
100
AcDbLine
 10
44.48686731997121
 20
62.41073410797246
 30
0.0
 11
44.7348673249312
 21
62.65873411293247
 31
0.0
  0
LINE
  5
1842
330
182E
100
AcDbEntity
  8
0
 62
     0
100
AcDbLine
 10
47.04492564172975
 20
65.4107341679726
 30
0.0
 11
47.29292564668995
 21
65.65873417293281
 31
0.0
  0
LINE
  5
1843
330
182E
100
AcDbEntity
  8
0
 62
     0
100
AcDbLine
 10
44.04492558172964
 20
62.41073410797248
 30
0.0
 11
44.29292558668961
 21
62.65873411293247
 31
0.0
  0
LINE
  5
1844
330
182E
100
AcDbEntity
  8
0
 62
     0
100
AcDbLine
 10
45.37098387884785
 20
64.1787341433323
 30
0.0
 11
45.55829220560028
 21
64.36604247008478
 31
0.0
  0
LINE
  5
1845
330
182E
100
AcDbEntity
  8
0
 62
     0
100
AcDbLine
 10
46.60298390348812
 20
65.41073416797259
 30
0.0
 11
46.85098390844834
 21
65.65873417293279
 31
0.0
  0
LINE
  5
1846
330
182E
100
AcDbEntity
  8
0
 62
     0
100
AcDbLine
 10
43.60298384348803
 20
62.41073410797248
 30
0.0
 11
43.85098384844801
 21
62.65873411293249
 31
0.0
  0
LINE
  5
1847
330
182E
100
AcDbEntity
  8
0
 62
     0
100
AcDbLine
 10
44.92904214060625
 20
64.17873414333232
 30
0.0
 11
45.17704214556649
 21
64.42673414829255
 31
0.0
  0
LINE
  5
1848
330
182E
100
AcDbEntity
  8
0
 62
     0
100
AcDbLine
 10
46.16104216524649
 20
65.41073416797257
 30
0.0
 11
46.40904217020675
 21
65.65873417293281
 31
0.0
  0
LINE
  5
1849
330
182E
100
AcDbEntity
  8
0
 62
     0
100
AcDbLine
 10
43.16104210524644
 20
62.41073410797246
 30
0.0
 11
43.40904211020644
 21
62.65873411293247
 31
0.0
  0
LINE
  5
184A
330
182E
100
AcDbEntity
  8
0
 62
     0
100
AcDbLine
 10
44.48710040236468
 20
64.17873414333232
 30
0.0
 11
44.73510040732492
 21
64.42673414829255
 31
0.0
  0
LINE
  5
184B
330
182E
100
AcDbEntity
  8
0
 62
     0
100
AcDbLine
 10
42.71910036700484
 20
62.41073410797248
 30
0.0
 11
42.96710037196485
 21
62.65873411293247
 31
0.0
  0
LINE
  5
184C
330
182E
100
AcDbEntity
  8
0
 62
     0
100
AcDbLine
 10
44.04515866412308
 20
64.17873414333232
 30
0.0
 11
44.29315866908328
 21
64.42673414829255
 31
0.0
  0
LINE
  5
184D
330
182E
100
AcDbEntity
  8
0
 62
     0
100
AcDbLine
 10
45.27715868876339
 20
65.41073416797264
 30
0.0
 11
45.43061977407186
 21
65.56419525328109
 31
0.0
  0
LINE
  5
184E
330
182E
100
AcDbEntity
  8
0
 62
     0
100
AcDbLine
 10
42.27715862876325
 20
62.41073410797248
 30
0.0
 11
42.52515863372322
 21
62.6587341129325
 31
0.0
  0
LINE
  5
184F
330
182E
100
AcDbEntity
  8
0
 62
     0
100
AcDbLine
 10
43.60321692588148
 20
64.17873414333235
 30
0.0
 11
43.85121693084172
 21
64.42673414829254
 31
0.0
  0
LINE
  5
1850
330
182E
100
AcDbEntity
  8
0
 62
     0
100
AcDbLine
 10
44.83521695052179
 20
65.41073416797262
 30
0.0
 11
45.08321695548199
 21
65.65873417293281
 31
0.0
  0
LINE
  5
1851
330
182E
100
AcDbEntity
  8
0
 62
     0
100
AcDbLine
 10
41.83521689052166
 20
62.41073410797248
 30
0.0
 11
42.08321689548164
 21
62.65873411293246
 31
0.0
  0
LINE
  5
1852
330
182E
100
AcDbEntity
  8
0
 62
     0
100
AcDbLine
 10
43.1612751876399
 20
64.17873414333232
 30
0.0
 11
43.40927519260015
 21
64.42673414829255
 31
0.0
  0
LINE
  5
1853
330
182E
100
AcDbEntity
  8
0
 62
     0
100
AcDbLine
 10
44.39327521228021
 20
65.4107341679726
 30
0.0
 11
44.6412752172404
 21
65.65873417293284
 31
0.0
  0
LINE
  5
1854
330
182E
100
AcDbEntity
  8
0
 62
     0
100
AcDbLine
 10
41.39327515228006
 20
62.41073410797248
 30
0.0
 11
41.64127515724003
 21
62.65873411293245
 31
0.0
  0
LINE
  5
1855
330
182E
100
AcDbEntity
  8
0
 62
     0
100
AcDbLine
 10
42.71933344939831
 20
64.17873414333232
 30
0.0
 11
42.96733345435851
 21
64.42673414829254
 31
0.0
  0
LINE
  5
1856
330
182E
100
AcDbEntity
  8
0
 62
     0
100
AcDbLine
 10
43.95133347403858
 20
65.41073416797264
 30
0.0
 11
44.19933347899881
 21
65.65873417293284
 31
0.0
  0
LINE
  5
1857
330
182E
100
AcDbEntity
  8
0
 62
     0
100
AcDbLine
 10
40.95133341403847
 20
62.41073410797248
 30
0.0
 11
41.19933341899844
 21
62.6587341129325
 31
0.0
  0
LINE
  5
1858
330
182E
100
AcDbEntity
  8
0
 62
     0
100
AcDbLine
 10
43.509391735797
 20
65.41073416797262
 30
0.0
 11
43.75739174075721
 21
65.65873417293281
 31
0.0
  0
LINE
  5
1859
330
182E
100
AcDbEntity
  8
0
 62
     0
100
AcDbLine
 10
42.27739171115667
 20
64.1787341433323
 30
0.0
 11
42.52539171611693
 21
64.42673414829254
 31
0.0
  0
LINE
  5
185A
330
182E
100
AcDbEntity
  8
0
 62
     0
100
AcDbLine
 10
43.06744999755543
 20
65.4107341679726
 30
0.0
 11
43.31545000251563
 21
65.65873417293284
 31
0.0
  0
LINE
  5
185B
330
182E
100
AcDbEntity
  8
0
 62
     0
100
AcDbLine
 10
41.83544997291513
 20
64.17873414333232
 30
0.0
 11
42.08344997787537
 21
64.42673414829255
 31
0.0
  0
LINE
  5
185C
330
182E
100
AcDbEntity
  8
0
 62
     0
100
AcDbLine
 10
42.62550825931381
 20
65.41073416797264
 30
0.0
 11
42.87350826427402
 21
65.65873417293281
 31
0.0
  0
LINE
  5
185D
330
182E
100
AcDbEntity
  8
0
 62
     0
100
AcDbLine
 10
41.39350823467353
 20
64.17873414333232
 30
0.0
 11
41.64150823963374
 21
64.42673414829254
 31
0.0
  0
LINE
  5
185E
330
182E
100
AcDbEntity
  8
0
 62
     0
100
AcDbLine
 10
42.18356652107224
 20
65.41073416797262
 30
0.0
 11
42.43156652603239
 21
65.65873417293281
 31
0.0
  0
LINE
  5
185F
330
182E
100
AcDbEntity
  8
0
 62
     0
100
AcDbLine
 10
40.95156649643192
 20
64.1787341433323
 30
0.0
 11
41.19956650139211
 21
64.42673414829254
 31
0.0
  0
LINE
  5
1860
330
182E
100
AcDbEntity
  8
0
 62
     0
100
AcDbLine
 10
41.74162478283064
 20
65.4107341679726
 30
0.0
 11
41.98962478779084
 21
65.65873417293281
 31
0.0
  0
LINE
  5
1861
330
182E
100
AcDbEntity
  8
0
 62
     0
100
AcDbLine
 10
40.7391780000584
 20
64.40828738520039
 30
0.0
 11
40.75762476315055
 21
64.42673414829254
 31
0.0
  0
LINE
  5
1862
330
182E
100
AcDbEntity
  8
0
 62
     0
100
AcDbLine
 10
41.29968304458905
 20
65.41073416797264
 30
0.0
 11
41.54768304954921
 21
65.65873417293278
 31
0.0
  0
LINE
  5
1863
330
182E
100
AcDbEntity
  8
0
 62
     0
100
AcDbLine
 10
40.89917242650176
 20
65.45216528812694
 30
0.0
 11
41.10574131130763
 21
65.65873417293281
 31
0.0
  0
ENDBLK
  5
1864
330
182E
100
AcDbEntity
  8
0
100
AcDbBlockEnd
  0
BLOCK
  5
1866
330
1865
100
AcDbEntity
  8
0
100
AcDbBlockBegin
  2
*X5
 70
     1
 10
0.0
 20
0.0
 30
0.0
  3
*X5
  1

  0
LINE
  5
1867
330
1865
100
AcDbEntity
  8
0
 62
     0
100
AcDbLine
 10
46.86936627951817
 20
41.38527556757703
 30
0.0
 11
46.5622841184539
 21
41.69235772864129
 31
0.0
  0
LINE
  5
1868
330
1865
100
AcDbEntity
  8
0
 62
     0
100
AcDbLine
 10
46.86936627951815
 20
41.03172217698374
 30
0.0
 11
46.20873072786063
 21
41.69235772864129
 31
0.0
  0
LINE
  5
1869
330
1865
100
AcDbEntity
  8
0
 62
     0
100
AcDbLine
 10
46.60717750240655
 20
40.94035756350211
 30
0.0
 11
45.85517733726736
 21
41.69235772864129
 31
0.0
  0
LINE
  5
186A
330
1865
100
AcDbEntity
  8
0
 62
     0
100
AcDbLine
 10
46.25362411181328
 20
40.94035756350211
 30
0.0
 11
45.50162394667409
 21
41.69235772864129
 31
0.0
  0
LINE
  5
186B
330
1865
100
AcDbEntity
  8
0
 62
     0
100
AcDbLine
 10
45.90007072121998
 20
40.94035756350211
 30
0.0
 11
45.14807055608081
 21
41.69235772864129
 31
0.0
  0
LINE
  5
186C
330
1865
100
AcDbEntity
  8
0
 62
     0
100
AcDbLine
 10
45.5465173306267
 20
40.94035756350211
 30
0.0
 11
44.79451716548752
 21
41.69235772864129
 31
0.0
  0
LINE
  5
186D
330
1865
100
AcDbEntity
  8
0
 62
     0
100
AcDbLine
 10
45.19296394003343
 20
40.94035756350211
 30
0.0
 11
44.44096377489425
 21
41.69235772864129
 31
0.0
  0
LINE
  5
186E
330
1865
100
AcDbEntity
  8
0
 62
     0
100
AcDbLine
 10
44.83941054944017
 20
40.94035756350211
 30
0.0
 11
44.087410384301
 21
41.69235772864129
 31
0.0
  0
LINE
  5
186F
330
1865
100
AcDbEntity
  8
0
 62
     0
100
AcDbLine
 10
44.4858571588469
 20
40.94035756350211
 30
0.0
 11
43.7338569937077
 21
41.69235772864129
 31
0.0
  0
LINE
  5
1870
330
1865
100
AcDbEntity
  8
0
 62
     0
100
AcDbLine
 10
44.13230376825361
 20
40.94035756350211
 30
0.0
 11
43.38030360311445
 21
41.69235772864129
 31
0.0
  0
LINE
  5
1871
330
1865
100
AcDbEntity
  8
0
 62
     0
100
AcDbLine
 10
43.77875037766033
 20
40.94035756350211
 30
0.0
 11
43.02675021252117
 21
41.69235772864129
 31
0.0
  0
LINE
  5
1872
330
1865
100
AcDbEntity
  8
0
 62
     0
100
AcDbLine
 10
43.42519698706705
 20
40.94035756350211
 30
0.0
 11
42.67319682192789
 21
41.69235772864129
 31
0.0
  0
LINE
  5
1873
330
1865
100
AcDbEntity
  8
0
 62
     0
100
AcDbLine
 10
42.49356619560487
 20
41.51843496437106
 30
0.0
 11
42.31964343133461
 21
41.69235772864129
 31
0.0
  0
LINE
  5
1874
330
1865
100
AcDbEntity
  8
0
 62
     0
100
AcDbLine
 10
43.07164359647379
 20
40.94035756350213
 30
0.0
 11
42.49356619560488
 21
41.51843496437105
 31
0.0
  0
LINE
  5
1875
330
1865
100
AcDbEntity
  8
0
 62
     0
100
AcDbLine
 10
42.49356619560487
 20
41.16488157377777
 30
0.0
 11
41.96609004074136
 21
41.69235772864129
 31
0.0
  0
LINE
  5
1876
330
1865
100
AcDbEntity
  8
0
 62
     0
100
AcDbLine
 10
42.71809020588052
 20
40.94035756350213
 30
0.0
 11
42.49356619560487
 21
41.16488157377777
 31
0.0
  0
LINE
  5
1877
330
1865
100
AcDbEntity
  8
0
 62
     0
100
AcDbLine
 10
42.36453681528725
 20
40.94035756350211
 30
0.0
 11
41.61253665014807
 21
41.69235772864129
 31
0.0
  0
LINE
  5
1878
330
1865
100
AcDbEntity
  8
0
 62
     0
100
AcDbLine
 10
42.01098342469399
 20
40.94035756350211
 30
0.0
 11
41.25898325955478
 21
41.69235772864129
 31
0.0
  0
LINE
  5
1879
330
1865
100
AcDbEntity
  8
0
 62
     0
100
AcDbLine
 10
41.65743003410069
 20
40.94035756350211
 30
0.0
 11
40.90542986896152
 21
41.69235772864129
 31
0.0
  0
LINE
  5
187A
330
1865
100
AcDbEntity
  8
0
 62
     0
100
AcDbLine
 10
41.30387664350744
 20
40.94035756350211
 30
0.0
 11
40.55187647836826
 21
41.69235772864129
 31
0.0
  0
LINE
  5
187B
330
1865
100
AcDbEntity
  8
0
 62
     0
100
AcDbLine
 10
40.95032325291414
 20
40.94035756350211
 30
0.0
 11
40.19832308777496
 21
41.69235772864129
 31
0.0
  0
LINE
  5
187C
330
1865
100
AcDbEntity
  8
0
 62
     0
100
AcDbLine
 10
40.59676986232089
 20
40.94035756350211
 30
0.0
 11
39.84476969718171
 21
41.69235772864129
 31
0.0
  0
LINE
  5
187D
330
1865
100
AcDbEntity
  8
0
 62
     0
100
AcDbLine
 10
40.24321647172761
 20
40.94035756350211
 30
0.0
 11
39.49121630658842
 21
41.69235772864129
 31
0.0
  0
LINE
  5
187E
330
1865
100
AcDbEntity
  8
0
 62
     0
100
AcDbLine
 10
39.88966308113433
 20
40.94035756350211
 30
0.0
 11
39.13766291599515
 21
41.69235772864129
 31
0.0
  0
LINE
  5
187F
330
1865
100
AcDbEntity
  8
0
 62
     0
100
AcDbLine
 10
39.53610969054105
 20
40.94035756350211
 30
0.0
 11
38.78410952540191
 21
41.69235772864129
 31
0.0
  0
LINE
  5
1880
330
1865
100
AcDbEntity
  8
0
 62
     0
100
AcDbLine
 10
39.18255629994779
 20
40.94035756350211
 30
0.0
 11
38.43055613480862
 21
41.69235772864129
 31
0.0
  0
LINE
  5
1881
330
1865
100
AcDbEntity
  8
0
 62
     0
100
AcDbLine
 10
38.82900290935451
 20
40.94035756350211
 30
0.0
 11
38.07700274421534
 21
41.69235772864129
 31
0.0
  0
LINE
  5
1882
330
1865
100
AcDbEntity
  8
0
 62
     0
100
AcDbLine
 10
38.47544951876121
 20
40.94035756350211
 30
0.0
 11
38.14106051378844
 21
41.27474656847492
 31
0.0
  0
LINE
  5
1883
330
1865
100
AcDbEntity
  8
0
 62
     0
100
AcDbLine
 10
38.12189612816796
 20
40.94035756350211
 30
0.0
 11
38.09762976393728
 21
40.96462392773278
 31
0.0
  0
ENDBLK
  5
1884
330
1865
100
AcDbEntity
  8
0
100
AcDbBlockEnd
  0
BLOCK
  5
1886
330
1885
100
AcDbEntity
  8
0
100
AcDbBlockBegin
  2
*X6
 70
     1
 10
0.0
 20
0.0
 30
0.0
  3
*X6
  1

  0
LINE
  5
1887
330
1885
100
AcDbEntity
  8
0
 62
     0
100
AcDbLine
 10
46.86936627951747
 20
23.35405264732075
 30
0.0
 11
46.69087760865649
 21
23.53254131818173
 31
0.0
  0
LINE
  5
1888
330
1885
100
AcDbEntity
  8
0
 62
     0
100
AcDbLine
 10
46.86936627951747
 20
23.00049925672748
 30
0.0
 11
46.33732421806324
 21
23.53254131818173
 31
0.0
  0
LINE
  5
1889
330
1885
100
AcDbEntity
  8
0
 62
     0
100
AcDbLine
 10
46.73577099260914
 20
22.78054115304254
 30
0.0
 11
45.98377082746996
 21
23.53254131818173
 31
0.0
  0
LINE
  5
188A
330
1885
100
AcDbEntity
  8
0
 62
     0
100
AcDbLine
 10
46.38221760201588
 20
22.78054115304254
 30
0.0
 11
45.63021743687669
 21
23.53254131818173
 31
0.0
  0
LINE
  5
188B
330
1885
100
AcDbEntity
  8
0
 62
     0
100
AcDbLine
 10
46.02866421142261
 20
22.78054115304253
 30
0.0
 11
45.2766640462834
 21
23.53254131818173
 31
0.0
  0
LINE
  5
188C
330
1885
100
AcDbEntity
  8
0
 62
     0
100
AcDbLine
 10
45.67511082082932
 20
22.78054115304255
 30
0.0
 11
44.92311065569014
 21
23.53254131818173
 31
0.0
  0
LINE
  5
188D
330
1885
100
AcDbEntity
  8
0
 62
     0
100
AcDbLine
 10
45.32155743023606
 20
22.78054115304255
 30
0.0
 11
44.56955726509685
 21
23.53254131818173
 31
0.0
  0
LINE
  5
188E
330
1885
100
AcDbEntity
  8
0
 62
     0
100
AcDbLine
 10
44.96800403964277
 20
22.78054115304254
 30
0.0
 11
44.2160038745036
 21
23.53254131818173
 31
0.0
  0
LINE
  5
188F
330
1885
100
AcDbEntity
  8
0
 62
     0
100
AcDbLine
 10
44.61445064904951
 20
22.78054115304254
 30
0.0
 11
43.86245048391033
 21
23.53254131818173
 31
0.0
  0
LINE
  5
1890
330
1885
100
AcDbEntity
  8
0
 62
     0
100
AcDbLine
 10
44.26089725845623
 20
22.78054115304254
 30
0.0
 11
43.50889709331704
 21
23.53254131818173
 31
0.0
  0
LINE
  5
1891
330
1885
100
AcDbEntity
  8
0
 62
     0
100
AcDbLine
 10
43.90734386786294
 20
22.78054115304255
 30
0.0
 11
43.15534370272376
 21
23.53254131818173
 31
0.0
  0
LINE
  5
1892
330
1885
100
AcDbEntity
  8
0
 62
     0
100
AcDbLine
 10
43.55379047726969
 20
22.78054115304255
 30
0.0
 11
42.80179031213051
 21
23.53254131818173
 31
0.0
  0
LINE
  5
1893
330
1885
100
AcDbEntity
  8
0
 62
     0
100
AcDbLine
 10
43.2002370866764
 20
22.78054115304255
 30
0.0
 11
42.44823692153723
 21
23.53254131818173
 31
0.0
  0
LINE
  5
1894
330
1885
100
AcDbEntity
  8
0
 62
     0
100
AcDbLine
 10
42.84668369608313
 20
22.78054115304255
 30
0.0
 11
42.09468353094396
 21
23.53254131818173
 31
0.0
  0
LINE
  5
1895
330
1885
100
AcDbEntity
  8
0
 62
     0
100
AcDbLine
 10
42.49313030548985
 20
22.78054115304255
 30
0.0
 11
41.74113014035067
 21
23.53254131818173
 31
0.0
  0
LINE
  5
1896
330
1885
100
AcDbEntity
  8
0
 62
     0
100
AcDbLine
 10
42.13957691489659
 20
22.78054115304255
 30
0.0
 11
41.38757674975741
 21
23.53254131818173
 31
0.0
  0
LINE
  5
1897
330
1885
100
AcDbEntity
  8
0
 62
     0
100
AcDbLine
 10
41.78602352430329
 20
22.78054115304255
 30
0.0
 11
41.47627527957371
 21
23.09028939777216
 31
0.0
  0
LINE
  5
1898
330
1885
100
AcDbEntity
  8
0
 62
     0
100
AcDbLine
 10
41.43247013371004
 20
22.78054115304255
 30
0.0
 11
41.41865458373357
 21
22.79435670301901
 31
0.0
  0
ENDBLK
  5
1899
330
1885
100
AcDbEntity
  8
0
100
AcDbBlockEnd
  0
BLOCK
  5
1993
330
1988
100
AcDbEntity
  8
0
100
AcDbBlockBegin
  2
*D7
 70
     1
 10
0.0
 20
0.0
 30
0.0
  3
*D7
  1

  0
LINE
  5
1F81
330
1988
100
AcDbEntity
  8
DIM
 62
     0
370
    -2
100
AcDbLine
 10
28.21308008613463
 20
60.94955030815438
 30
0.0
 11
34.81759165671405
 21
60.94955030815438
 31
0.0
  0
LINE
  5
1F82
330
1988
100
AcDbEntity
  8
DIM
 62
     0
370
    -2
100
AcDbLine
 10
28.21308008613463
 20
19.01155030815436
 30
0.0
 11
34.81759165671405
 21
19.01155030815436
 31
0.0
  0
LINE
  5
1F83
330
1988
100
AcDbEntity
  8
DIM
 62
     0
370
    -2
100
AcDbLine
 10
34.25959165671406
 20
59.86955030815439
 30
0.0
 11
34.25959165671405
 21
40.89555030815438
 31
0.0
  0
LINE
  5
1F84
330
1988
100
AcDbEntity
  8
DIM
 62
     0
370
    -2
100
AcDbLine
 10
34.25959165671405
 20
20.09155030815436
 30
0.0
 11
34.25959165671405
 21
39.06555030815438
 31
0.0
  0
SOLID
  5
1F85
330
1988
100
AcDbEntity
  8
DIM
 62
     0
100
AcDbTrace
 10
34.07959165671405
 20
59.86955030815439
 30
0.0
 11
34.43959165671405
 21
59.86955030815439
 31
0.0
 12
34.25959165671406
 22
60.94955030815438
 32
0.0
 13
34.25959165671406
 23
60.94955030815438
 33
0.0
  0
SOLID
  5
1F86
330
1988
100
AcDbEntity
  8
DIM
 62
     0
100
AcDbTrace
 10
34.07959165671405
 20
20.09155030815436
 30
0.0
 11
34.43959165671405
 21
20.09155030815436
 31
0.0
 12
34.25959165671405
 22
19.01155030815436
 32
0.0
 13
34.25959165671405
 23
19.01155030815436
 33
0.0
  0
MTEXT
  5
1F87
330
1988
100
AcDbEntity
  8
DIM
 62
     0
100
AcDbMText
 10
34.25959165671404
 20
39.98055030815438
 30
0.0
 40
0.75
 41
0.0
 71
     5
 72
     1
  1
\A1;A
  7
TXT
 73
     1
 44
1.0
  0
POINT
  5
1F88
330
1988
100
AcDbEntity
  8
DEFPOINTS
 62
     0
100
AcDbPoint
 10
27.83508008613464
 20
60.94955030815438
 30
0.0
  0
POINT
  5
1F89
330
1988
100
AcDbEntity
  8
DEFPOINTS
 62
     0
100
AcDbPoint
 10
27.83508008613464
 20
19.01155030815436
 30
0.0
  0
POINT
  5
1F8A
330
1988
100
AcDbEntity
  8
DEFPOINTS
 62
     0
100
AcDbPoint
 10
34.25959165671405
 20
19.01155030815436
 30
0.0
  0
ENDBLK
  5
1994
330
1988
100
AcDbEntity
  8
0
100
AcDbBlockEnd
  0
BLOCK
  5
19A1
330
1996
100
AcDbEntity
  8
0
100
AcDbBlockBegin
  2
*D8
 70
     1
 10
0.0
 20
0.0
 30
0.0
  3
*D8
  1

  0
LINE
  5
1F4E
330
1996
100
AcDbEntity
  8
DIM
 62
     0
370
    -2
100
AcDbLine
 10
8.89708008613465
 20
61.32755030815438
 30
0.0
 11
8.89708008613465
 21
63.48793217118457
 31
0.0
  0
LINE
  5
1F4F
330
1996
100
AcDbEntity
  8
DIM
 62
     0
370
    -2
100
AcDbLine
 10
27.83508008613464
 20
61.32755030815438
 30
0.0
 11
27.83508008613464
 21
63.48793217118457
 31
0.0
  0
LINE
  5
1F50
330
1996
100
AcDbEntity
  8
DIM
 62
     0
370
    -2
100
AcDbLine
 10
9.97708008613465
 20
62.92993217118457
 30
0.0
 11
16.51358008613464
 21
62.92993217118457
 31
0.0
  0
LINE
  5
1F51
330
1996
100
AcDbEntity
  8
DIM
 62
     0
370
    -2
100
AcDbLine
 10
26.75508008613464
 20
62.92993217118457
 30
0.0
 11
20.21858008613464
 21
62.92993217118457
 31
0.0
  0
SOLID
  5
1F52
330
1996
100
AcDbEntity
  8
DIM
 62
     0
100
AcDbTrace
 10
9.97708008613465
 20
63.10993217118457
 30
0.0
 11
9.97708008613465
 21
62.74993217118456
 31
0.0
 12
8.89708008613465
 22
62.92993217118457
 32
0.0
 13
8.89708008613465
 23
62.92993217118457
 33
0.0
  0
SOLID
  5
1F53
330
1996
100
AcDbEntity
  8
DIM
 62
     0
100
AcDbTrace
 10
26.75508008613464
 20
63.10993217118457
 30
0.0
 11
26.75508008613464
 21
62.74993217118456
 31
0.0
 12
27.83508008613464
 22
62.92993217118457
 32
0.0
 13
27.83508008613464
 23
62.92993217118457
 33
0.0
  0
MTEXT
  5
1F54
330
1996
100
AcDbEntity
  8
DIM
 62
     0
100
AcDbMText
 10
18.36608008613464
 20
62.92993217118457
 30
0.0
 40
0.75
 41
0.0
 71
     5
 72
     1
  1
\A1;18.938
  7
TXT
 73
     1
 44
1.0
  0
POINT
  5
1F55
330
1996
100
AcDbEntity
  8
DEFPOINTS
 62
     0
100
AcDbPoint
 10
8.89708008613465
 20
60.94955030815438
 30
0.0
  0
POINT
  5
1F56
330
1996
100
AcDbEntity
  8
DEFPOINTS
 62
     0
100
AcDbPoint
 10
27.83508008613464
 20
60.94955030815438
 30
0.0
  0
POINT
  5
1F57
330
1996
100
AcDbEntity
  8
DEFPOINTS
 62
     0
100
AcDbPoint
 10
27.83508008613464
 20
62.92993217118457
 30
0.0
  0
ENDBLK
  5
19A2
330
1996
100
AcDbEntity
  8
0
100
AcDbBlockEnd
  0
BLOCK
  5
19AF
330
19A4
100
AcDbEntity
  8
0
100
AcDbBlockBegin
  2
*D9
 70
     1
 10
0.0
 20
0.0
 30
0.0
  3
*D9
  1

  0
LINE
  5
1F77
330
19A4
100
AcDbEntity
  8
DIM
 62
     0
370
    -2
100
AcDbLine
 10
28.21308008613463
 20
60.9495503081544
 30
0.0
 11
32.2122501827489
 21
60.9495503081544
 31
0.0
  0
LINE
  5
1F78
330
19A4
100
AcDbEntity
  8
DIM
 62
     0
370
    -2
100
AcDbLine
 10
26.21308008613465
 20
39.98055030815437
 30
0.0
 11
32.21225018274889
 21
39.98055030815437
 31
0.0
  0
LINE
  5
1F79
330
19A4
100
AcDbEntity
  8
DIM
 62
     0
370
    -2
100
AcDbLine
 10
31.6542501827489
 20
59.8695503081544
 30
0.0
 11
31.6542501827489
 21
51.38005030815438
 31
0.0
  0
LINE
  5
1F7A
330
19A4
100
AcDbEntity
  8
DIM
 62
     0
370
    -2
100
AcDbLine
 10
31.6542501827489
 20
41.06055030815436
 30
0.0
 11
31.6542501827489
 21
49.55005030815438
 31
0.0
  0
SOLID
  5
1F7B
330
19A4
100
AcDbEntity
  8
DIM
 62
     0
100
AcDbTrace
 10
31.47425018274891
 20
59.8695503081544
 30
0.0
 11
31.8342501827489
 21
59.8695503081544
 31
0.0
 12
31.6542501827489
 22
60.9495503081544
 32
0.0
 13
31.6542501827489
 23
60.9495503081544
 33
0.0
  0
SOLID
  5
1F7C
330
19A4
100
AcDbEntity
  8
DIM
 62
     0
100
AcDbTrace
 10
31.4742501827489
 20
41.06055030815436
 30
0.0
 11
31.8342501827489
 21
41.06055030815436
 31
0.0
 12
31.65425018274889
 22
39.98055030815437
 32
0.0
 13
31.65425018274889
 23
39.98055030815437
 33
0.0
  0
MTEXT
  5
1F7D
330
19A4
100
AcDbEntity
  8
DIM
 62
     0
100
AcDbMText
 10
31.65425018274889
 20
50.46505030815438
 30
0.0
 40
0.75
 41
0.0
 71
     5
 72
     1
  1
\A1;B
  7
TXT
 73
     1
 44
1.0
  0
POINT
  5
1F7E
330
19A4
100
AcDbEntity
  8
DEFPOINTS
 62
     0
100
AcDbPoint
 10
27.83508008613464
 20
60.9495503081544
 30
0.0
  0
POINT
  5
1F7F
330
19A4
100
AcDbEntity
  8
DEFPOINTS
 62
     0
100
AcDbPoint
 10
25.83508008613465
 20
39.98055030815437
 30
0.0
  0
POINT
  5
1F80
330
19A4
100
AcDbEntity
  8
DEFPOINTS
 62
     0
100
AcDbPoint
 10
31.65425018274889
 20
39.98055030815437
 30
0.0
  0
ENDBLK
  5
19B0
330
19A4
100
AcDbEntity
  8
0
100
AcDbBlockEnd
  0
BLOCK
  5
19D1
330
19C6
100
AcDbEntity
  8
0
100
AcDbBlockBegin
  2
*D10
 70
     1
 10
0.0
 20
0.0
 30
0.0
  3
*D10
  1

  0
LINE
  5
1F63
330
19C6
100
AcDbEntity
  8
DIM
 62
     0
370
    -2
100
AcDbLine
 10
4.505502357454188
 20
58.40255030815436
 30
0.0
 11
1.947614101387107
 21
58.40255030815436
 31
0.0
  0
LINE
  5
1F64
330
19C6
100
AcDbEntity
  8
DIM
 62
     0
370
    -2
100
AcDbLine
 10
4.505502357454175
 20
60.94955030815438
 30
0.0
 11
1.947614101387108
 21
60.94955030815438
 31
0.0
  0
LINE
  5
1F65
330
19C6
100
AcDbEntity
  8
DIM
 62
     0
370
    -2
100
AcDbLine
 10
2.505614101387107
 20
57.32255030815436
 30
0.0
 11
2.505614101387107
 21
56.24255030815437
 31
0.0
  0
LINE
  5
1F66
330
19C6
100
AcDbEntity
  8
DIM
 62
     0
370
    -2
100
AcDbLine
 10
2.505614101387108
 20
62.02955030815438
 30
0.0
 11
2.505614101387108
 21
63.10955030815438
 31
0.0
  0
SOLID
  5
1F67
330
19C6
100
AcDbEntity
  8
DIM
 62
     0
100
AcDbTrace
 10
2.325614101387107
 20
57.32255030815436
 30
0.0
 11
2.685614101387107
 21
57.32255030815436
 31
0.0
 12
2.505614101387107
 22
58.40255030815436
 32
0.0
 13
2.505614101387107
 23
58.40255030815436
 33
0.0
  0
SOLID
  5
1F68
330
19C6
100
AcDbEntity
  8
DIM
 62
     0
100
AcDbTrace
 10
2.325614101387108
 20
62.02955030815438
 30
0.0
 11
2.685614101387108
 21
62.02955030815438
 31
0.0
 12
2.505614101387108
 22
60.94955030815438
 32
0.0
 13
2.505614101387108
 23
60.94955030815438
 33
0.0
  0
MTEXT
  5
1F69
330
19C6
100
AcDbEntity
  8
DIM
 62
     0
100
AcDbMText
 10
2.505614101387098
 20
59.67605030815438
 30
0.0
 40
0.75
 41
0.0
 71
     5
 72
     1
  1
\A1;2.547
  7
TXT
 73
     1
 44
1.0
  0
POINT
  5
1F6A
330
19C6
100
AcDbEntity
  8
DEFPOINTS
 62
     0
100
AcDbPoint
 10
4.883502357454188
 20
58.40255030815436
 30
0.0
  0
POINT
  5
1F6B
330
19C6
100
AcDbEntity
  8
DEFPOINTS
 62
     0
100
AcDbPoint
 10
4.883502357454175
 20
60.94955030815438
 30
0.0
  0
POINT
  5
1F6C
330
19C6
100
AcDbEntity
  8
DEFPOINTS
 62
     0
100
AcDbPoint
 10
2.505614101387108
 20
60.94955030815438
 30
0.0
  0
ENDBLK
  5
19D2
330
19C6
100
AcDbEntity
  8
0
100
AcDbBlockEnd
  0
BLOCK
  5
19FB
330
19F0
100
AcDbEntity
  8
0
100
AcDbBlockBegin
  2
*D11
 70
     1
 10
0.0
 20
0.0
 30
0.0
  3
*D11
  1

  0
LINE
  5
1F6D
330
19F0
100
AcDbEntity
  8
DIM
 62
     0
370
    -2
100
AcDbLine
 10
4.505502357454231
 20
22.18355030815434
 30
0.0
 11
1.947614101387108
 21
22.18355030815434
 31
0.0
  0
LINE
  5
1F6E
330
19F0
100
AcDbEntity
  8
DIM
 62
     0
370
    -2
100
AcDbLine
 10
4.505502357454175
 20
19.01155030815435
 30
0.0
 11
1.947614101387108
 21
19.01155030815435
 31
0.0
  0
LINE
  5
1F6F
330
19F0
100
AcDbEntity
  8
DIM
 62
     0
370
    -2
100
AcDbLine
 10
2.505614101387108
 20
23.26355030815435
 30
0.0
 11
2.505614101387108
 21
24.34355030815435
 31
0.0
  0
LINE
  5
1F70
330
19F0
100
AcDbEntity
  8
DIM
 62
     0
370
    -2
100
AcDbLine
 10
2.505614101387107
 20
17.93155030815435
 30
0.0
 11
2.505614101387107
 21
16.85155030815435
 31
0.0
  0
SOLID
  5
1F71
330
19F0
100
AcDbEntity
  8
DIM
 62
     0
100
AcDbTrace
 10
2.325614101387108
 20
23.26355030815435
 30
0.0
 11
2.685614101387109
 21
23.26355030815435
 31
0.0
 12
2.505614101387108
 22
22.18355030815434
 32
0.0
 13
2.505614101387108
 23
22.18355030815434
 33
0.0
  0
SOLID
  5
1F72
330
19F0
100
AcDbEntity
  8
DIM
 62
     0
100
AcDbTrace
 10
2.325614101387107
 20
17.93155030815435
 30
0.0
 11
2.685614101387107
 21
17.93155030815435
 31
0.0
 12
2.505614101387108
 22
19.01155030815435
 32
0.0
 13
2.505614101387108
 23
19.01155030815435
 33
0.0
  0
MTEXT
  5
1F73
330
19F0
100
AcDbEntity
  8
DIM
 62
     0
100
AcDbMText
 10
2.505614101387104
 20
20.59755030815435
 30
0.0
 40
0.75
 41
0.0
 71
     5
 72
     1
  1
\A1;3.172
  7
TXT
 73
     1
 44
1.0
  0
POINT
  5
1F74
330
19F0
100
AcDbEntity
  8
DEFPOINTS
 62
     0
100
AcDbPoint
 10
4.883502357454231
 20
22.18355030815434
 30
0.0
  0
POINT
  5
1F75
330
19F0
100
AcDbEntity
  8
DEFPOINTS
 62
     0
100
AcDbPoint
 10
4.883502357454175
 20
19.01155030815435
 30
0.0
  0
POINT
  5
1F76
330
19F0
100
AcDbEntity
  8
DEFPOINTS
 62
     0
100
AcDbPoint
 10
2.505614101387108
 20
19.01155030815435
 30
0.0
  0
ENDBLK
  5
19FC
330
19F0
100
AcDbEntity
  8
0
100
AcDbBlockEnd
  0
BLOCK
  5
1C09
330
1BFE
100
AcDbEntity
  8
0
100
AcDbBlockBegin
  2
*D12
 70
     1
 10
0.0
 20
0.0
 30
0.0
  3
*D12
  1

  0
LINE
  5
1FFB
330
1BFE
100
AcDbEntity
  8
DIM
 62
     0
370
    -2
100
AcDbLine
 10
43.46405157500257
 20
38.33999623200627
 30
0.0
 11
43.46405157500257
 21
37.42527046283556
 31
0.0
  0
LINE
  5
1FFC
330
1BFE
100
AcDbEntity
  8
DIM
 62
     0
370
    -2
100
AcDbLine
 10
51.4638516513983
 20
39.9383577011216
 30
0.0
 11
51.4638516513983
 21
37.42527046283556
 31
0.0
  0
LINE
  5
1FFD
330
1BFE
100
AcDbEntity
  8
DIM
 62
     0
370
    -2
100
AcDbLine
 10
44.54405157500256
 20
37.98327046283556
 30
0.0
 11
45.93957661320043
 21
37.98327046283556
 31
0.0
  0
LINE
  5
1FFE
330
1BFE
100
AcDbEntity
  8
DIM
 62
     0
370
    -2
100
AcDbLine
 10
50.3838516513983
 20
37.98327046283556
 30
0.0
 11
48.98832661320043
 21
37.98327046283556
 31
0.0
  0
SOLID
  5
1FFF
330
1BFE
100
AcDbEntity
  8
DIM
 62
     0
100
AcDbTrace
 10
44.54405157500256
 20
38.16327046283556
 30
0.0
 11
44.54405157500256
 21
37.80327046283556
 31
0.0
 12
43.46405157500257
 22
37.98327046283556
 32
0.0
 13
43.46405157500257
 23
37.98327046283556
 33
0.0
  0
SOLID
  5
2000
330
1BFE
100
AcDbEntity
  8
DIM
 62
     0
100
AcDbTrace
 10
50.3838516513983
 20
38.16327046283556
 30
0.0
 11
50.3838516513983
 21
37.80327046283556
 31
0.0
 12
51.4638516513983
 22
37.98327046283556
 32
0.0
 13
51.4638516513983
 23
37.98327046283556
 33
0.0
  0
MTEXT
  5
2001
330
1BFE
100
AcDbEntity
  8
DIM
 62
     0
100
AcDbMText
 10
47.46395161320044
 20
37.98327046283556
 30
0.0
 40
0.75
 41
0.0
 71
     5
 72
     1
  1
\A1;2.000
  7
TXT
 73
     1
 44
1.0
  0
POINT
  5
2002
330
1BFE
100
AcDbEntity
  8
DEFPOINTS
 62
     0
100
AcDbPoint
 10
43.46405157500257
 20
38.71799623200627
 30
0.0
  0
POINT
  5
2003
330
1BFE
100
AcDbEntity
  8
DEFPOINTS
 62
     0
100
AcDbPoint
 10
51.4638516513983
 20
40.3163577011216
 30
0.0
  0
POINT
  5
2004
330
1BFE
100
AcDbEntity
  8
DEFPOINTS
 62
     0
100
AcDbPoint
 10
51.4638516513983
 20
37.98327046283556
 30
0.0
  0
ENDBLK
  5
1C0A
330
1BFE
100
AcDbEntity
  8
0
100
AcDbBlockEnd
  0
BLOCK
  5
1C2E
330
1C23
100
AcDbEntity
  8
0
100
AcDbBlockBegin
  2
*D13
 70
     1
 10
0.0
 20
0.0
 30
0.0
  3
*D13
  1

  0
LINE
  5
1FF0
330
1C23
100
AcDbEntity
  8
DIM
 62
     0
370
    -2
100
AcDbLine
 10
41.88373587915994
 20
20.49309736663562
 30
0.0
 11
40.59413837306379
 21
20.49309736663562
 31
0.0
  0
LINE
  5
1FF1
330
1C23
100
AcDbEntity
  8
DIM
 62
     0
370
    -2
100
AcDbLine
 10
42.02032052432163
 20
19.7739309380814
 30
0.0
 11
40.59413837306379
 21
19.7739309380814
 31
0.0
  0
LINE
  5
1FF2
330
1C23
100
AcDbEntity
  8
DIM
 62
     0
370
    -2
100
AcDbLine
 10
41.15213837306378
 20
21.57309736663562
 30
0.0
 11
41.15213837306378
 21
22.65309736663562
 31
0.0
  0
LINE
  5
1FF3
330
1C23
100
AcDbEntity
  8
DIM
 62
     0
370
    -2
100
AcDbLine
 10
41.15213837306378
 20
18.69393093808141
 30
0.0
 11
41.15213837306378
 21
17.6139309380814
 31
0.0
  0
LINE
  5
1FF4
330
1C23
100
AcDbEntity
  8
DIM
 62
     0
370
    -2
100
AcDbLine
 10
41.15213837306378
 20
17.6139309380814
 30
0.0
 11
40.07213837306379
 21
17.6139309380814
 31
0.0
  0
SOLID
  5
1FF5
330
1C23
100
AcDbEntity
  8
DIM
 62
     0
100
AcDbTrace
 10
40.97213837306378
 20
21.57309736663562
 30
0.0
 11
41.33213837306378
 21
21.57309736663562
 31
0.0
 12
41.15213837306378
 22
20.49309736663562
 32
0.0
 13
41.15213837306378
 23
20.49309736663562
 33
0.0
  0
SOLID
  5
1FF6
330
1C23
100
AcDbEntity
  8
DIM
 62
     0
100
AcDbTrace
 10
40.97213837306378
 20
18.69393093808141
 30
0.0
 11
41.33213837306378
 21
18.69393093808141
 31
0.0
 12
41.15213837306378
 22
19.7739309380814
 32
0.0
 13
41.15213837306378
 23
19.7739309380814
 33
0.0
  0
MTEXT
  5
1FF7
330
1C23
100
AcDbEntity
  8
DIM
 62
     0
100
AcDbMText
 10
37.32901337306378
 20
17.61393093808141
 30
0.0
 40
0.75
 41
0.0
 71
     5
 72
     1
  1
\A1;0.187 REF.
  7
TXT
 73
     1
 44
1.0
  0
POINT
  5
1FF8
330
1C23
100
AcDbEntity
  8
DEFPOINTS
 62
     0
100
AcDbPoint
 10
42.26173587915994
 20
20.49309736663562
 30
0.0
  0
POINT
  5
1FF9
330
1C23
100
AcDbEntity
  8
DEFPOINTS
 62
     0
100
AcDbPoint
 10
42.39832052432163
 20
19.7739309380814
 30
0.0
  0
POINT
  5
1FFA
330
1C23
100
AcDbEntity
  8
DEFPOINTS
 62
     0
100
AcDbPoint
 10
41.15213837306378
 20
19.7739309380814
 30
0.0
  0
ENDBLK
  5
1C2F
330
1C23
100
AcDbEntity
  8
0
100
AcDbBlockEnd
  0
BLOCK
  5
1CE9
330
1CDE
100
AcDbEntity
  8
0
100
AcDbBlockBegin
  2
*D14
 70
     1
 10
0.0
 20
0.0
 30
0.0
  3
*D14
  1

  0
LINE
  5
1F58
330
1CDE
100
AcDbEntity
  8
DIM
 62
     0
370
    -2
100
AcDbLine
 10
28.21308008613463
 20
67.03418187211318
 30
0.0
 11
32.2122501827489
 21
67.03418187211316
 31
0.0
  0
LINE
  5
1F59
330
1CDE
100
AcDbEntity
  8
DIM
 62
     0
370
    -2
100
AcDbLine
 10
28.21308008613463
 20
67.53418187211318
 30
0.0
 11
32.2122501827489
 21
67.53418187211316
 31
0.0
  0
LINE
  5
1F5A
330
1CDE
100
AcDbEntity
  8
DIM
 62
     0
370
    -2
100
AcDbLine
 10
31.6542501827489
 20
65.95418187211318
 30
0.0
 11
31.6542501827489
 21
64.87418187211318
 31
0.0
  0
LINE
  5
1F5B
330
1CDE
100
AcDbEntity
  8
DIM
 62
     0
370
    -2
100
AcDbLine
 10
31.6542501827489
 20
68.61418187211318
 30
0.0
 11
31.6542501827489
 21
69.69418187211317
 31
0.0
  0
LINE
  5
1F5C
330
1CDE
100
AcDbEntity
  8
DIM
 62
     0
370
    -2
100
AcDbLine
 10
31.6542501827489
 20
69.69418187211317
 30
0.0
 11
32.7342501827489
 21
69.69418187211316
 31
0.0
  0
SOLID
  5
1F5D
330
1CDE
100
AcDbEntity
  8
DIM
 62
     0
100
AcDbTrace
 10
31.47425018274891
 20
65.95418187211318
 30
0.0
 11
31.8342501827489
 21
65.95418187211318
 31
0.0
 12
31.6542501827489
 22
67.03418187211318
 32
0.0
 13
31.6542501827489
 23
67.03418187211318
 33
0.0
  0
SOLID
  5
1F5E
330
1CDE
100
AcDbEntity
  8
DIM
 62
     0
100
AcDbTrace
 10
31.47425018274891
 20
68.61418187211318
 30
0.0
 11
31.8342501827489
 21
68.61418187211318
 31
0.0
 12
31.6542501827489
 22
67.53418187211318
 32
0.0
 13
31.6542501827489
 23
67.53418187211318
 33
0.0
  0
MTEXT
  5
1F5F
330
1CDE
100
AcDbEntity
  8
DIM
 62
     0
100
AcDbMText
 10
34.2586251827489
 20
69.69418187211317
 30
0.0
 40
0.75
 41
0.0
 71
     5
 72
     1
  1
\A1;0.500
  7
TXT
 73
     1
 44
1.0
  0
POINT
  5
1F60
330
1CDE
100
AcDbEntity
  8
DEFPOINTS
 62
     0
100
AcDbPoint
 10
27.83508008613464
 20
67.03418187211318
 30
0.0
  0
POINT
  5
1F61
330
1CDE
100
AcDbEntity
  8
DEFPOINTS
 62
     0
100
AcDbPoint
 10
27.83508008613464
 20
67.53418187211318
 30
0.0
  0
POINT
  5
1F62
330
1CDE
100
AcDbEntity
  8
DEFPOINTS
 62
     0
100
AcDbPoint
 10
31.6542501827489
 20
67.53418187211318
 30
0.0
  0
ENDBLK
  5
1CEA
330
1CDE
100
AcDbEntity
  8
0
100
AcDbBlockEnd
  0
ENDSEC
  0
SECTION
  2
ENTITIES
  0
TEXT
  5
190F
330
16E2
100
AcDbEntity
  8
TEXT
100
AcDbText
 10
31.99541234383849
 20
88.45648675312814
 30
0.0
 40
0.75
  1
%%UDOOR:
 41
0.75
  7
TXT
100
AcDbText
  0
TEXT
  5
1910
330
16E2
100
AcDbEntity
  8
TEXT
100
AcDbText
 10
32.70193582646271
 20
87.20648675312814
 30
0.0
 40
0.75
  1
- CLEARS PANEL SPACE WHEN OPENED 90%%d OR MORE
 41
0.75
  7
TXT
100
AcDbText
  0
TEXT
  5
1911
330
16E2
100
AcDbEntity
  8
TEXT
100
AcDbText
 10
32.70193582646271
 20
85.95648675312814
 30
0.0
 40
0.75
  1
- IS HELD CLOSED WITH LOCK
 41
0.75
  7
TXT
100
AcDbText
  0
TEXT
  5
1912
330
16E2
100
AcDbEntity
  8
TEXT
100
AcDbText
 10
2.31434999999999
 20
9.981000000000003
 30
0.0
 40
0.75
  1
PART NO.
 41
0.75
  7
TXT
 72
     1
 11
4.28309999999999
 21
9.981000000000003
 31
0.0
100
AcDbText
  0
TEXT
  5
1913
330
16E2
100
AcDbEntity
  8
TEXT
100
AcDbText
 10
2.50184999999999
 20
8.731000000000005
 30
0.0
 40
0.75
  1
LOCKING
 41
0.75
  7
TXT
 72
     1
 11
4.28309999999999
 21
8.731000000000005
 31
0.0
100
AcDbText
  0
TEXT
  5
1914
330
16E2
100
AcDbEntity
  8
TEXT
100
AcDbText
 10
9.68310000000001
 20
9.981000000000014
 30
0.0
 40
0.75
  1
HEIGHT
 41
0.75
  7
TXT
 72
     1
 11
11.18310000000001
 21
9.981000000000014
 31
0.0
100
AcDbText
  0
TEXT
  5
1915
330
16E2
100
AcDbEntity
  8
TEXT
100
AcDbText
 10
10.9956
 20
8.731000000000014
 30
0.0
 40
0.75
  1
A
 41
0.75
  7
TXT
 72
     1
 11
11.18310000000001
 21
8.731000000000014
 31
0.0
100
AcDbText
  0
TEXT
  5
1916
330
16E2
100
AcDbEntity
  8
TEXT
100
AcDbText
 10
20.82359999999999
 20
9.981000000000014
 30
0.0
 40
0.75
  1
RACK VERTICAL
 41
0.75
  7
TXT
 72
     1
 11
24.3861
 21
9.981000000000014
 31
0.0
100
AcDbText
  0
TEXT
  5
1917
330
16E2
100
AcDbEntity
  8
TEXT
100
AcDbText
 10
21.38609999999999
 20
8.731000000000014
 30
0.0
 40
0.75
  1
PANEL SPACE
 41
0.75
  7
TXT
 72
     1
 11
24.3861
 21
8.731000000000014
 31
0.0
100
AcDbText
  0
LINE
  5
1918
330
16E2
100
AcDbEntity
  8
TITLE
100
AcDbLine
 10
28.58609999999998
 20
11.60399999999999
 30
0.0
 11
28.58609999999998
 21
0.3720000000000123
 31
0.0
  0
LINE
  5
1919
330
16E2
100
AcDbEntity
  8
TITLE
100
AcDbLine
 10
14.17889999999998
 20
11.60399999999998
 30
0.0
 11
14.17889999999998
 21
0.3720000000000123
 31
0.0
  0
LINE
  5
191A
330
16E2
100
AcDbEntity
  8
TITLE
100
AcDbLine
 10
8.175900000000012
 20
11.60399999999998
 30
0.0
 11
8.175899999999984
 21
0.3720000000000123
 31
0.0
  0
TEXT
  5
191B
330
16E2
100
AcDbEntity
  8
TEXT
100
AcDbText
 10
2.03309999999999
 20
0.6030000000000105
 30
0.0
 40
0.75
  1
V-9767-L
 41
0.75
  7
TXT
 72
     1
 11
4.28309999999999
 21
0.6030000000000105
 31
0.0
100
AcDbText
  0
TEXT
  5
191C
330
16E2
100
AcDbEntity
  8
TEXT
100
AcDbText
 10
2.03309999999999
 20
1.85300000000001
 30
0.0
 40
0.75
  1
V-9766-L
 41
0.75
  7
TXT
 72
     1
 11
4.28309999999999
 21
1.85300000000001
 31
0.0
100
AcDbText
  0
TEXT
  5
191D
330
16E2
100
AcDbEntity
  8
TEXT
100
AcDbText
 10
2.03309999999999
 20
3.103000000000006
 30
0.0
 40
0.75
  1
V-9765-L
 41
0.75
  7
TXT
 72
     1
 11
4.28309999999999
 21
3.103000000000006
 31
0.0
100
AcDbText
  0
TEXT
  5
191E
330
16E2
100
AcDbEntity
  8
TEXT
100
AcDbText
 10
2.03309999999999
 20
4.353000000000008
 30
0.0
 40
0.75
  1
V-9764-L
 41
0.75
  7
TXT
 72
     1
 11
4.28309999999999
 21
4.353000000000008
 31
0.0
100
AcDbText
  0
TEXT
  5
191F
330
16E2
100
AcDbEntity
  8
TEXT
100
AcDbText
 10
2.03309999999999
 20
5.603000000000008
 30
0.0
 40
0.75
  1
V-9763-L
 41
0.75
  7
TXT
 72
     1
 11
4.28309999999999
 21
5.603000000000008
 31
0.0
100
AcDbText
  0
TEXT
  5
1920
330
16E2
100
AcDbEntity
  8
TEXT
100
AcDbText
 10
9.87060000000001
 20
5.603000000000013
 30
0.0
 40
0.75
  1
41.938
 41
0.75
  7
TXT
 72
     1
 11
11.18310000000001
 21
5.603000000000013
 31
0.0
100
AcDbText
  0
TEXT
  5
1921
330
16E2
100
AcDbEntity
  8
TEXT
100
AcDbText
 10
9.77685000000001
 20
4.353000000000013
 30
0.0
 40
0.75
  1
52.438
 41
0.75
  7
TXT
 72
     1
 11
11.18310000000001
 21
4.353000000000013
 31
0.0
100
AcDbText
  0
TEXT
  5
1922
330
16E2
100
AcDbEntity
  8
TEXT
100
AcDbText
 10
9.96435000000001
 20
3.103000000000012
 30
0.0
 40
0.75
  1
61.188
 41
0.75
  7
TXT
 72
     1
 11
11.18310000000001
 21
3.103000000000012
 31
0.0
100
AcDbText
  0
TEXT
  5
1923
330
16E2
100
AcDbEntity
  8
TEXT
100
AcDbText
 10
9.77685000000001
 20
1.853000000000012
 30
0.0
 40
0.75
  1
69.938
 41
0.75
  7
TXT
 72
     1
 11
11.18310000000001
 21
1.853000000000012
 31
0.0
100
AcDbText
  0
TEXT
  5
1924
330
16E2
100
AcDbEntity
  8
TEXT
100
AcDbText
 10
9.77685000000001
 20
0.603000000000014
 30
0.0
 40
0.75
  1
78.688
 41
0.75
  7
TXT
 72
     1
 11
11.18310000000001
 21
0.603000000000014
 31
0.0
100
AcDbText
  0
TEXT
  5
1925
330
16E2
100
AcDbEntity
  8
TEXT
100
AcDbText
 10
23.12047499999999
 20
5.603000000000013
 30
0.0
 40
0.75
  1
42.000
 41
0.75
  7
TXT
 72
     1
 11
24.3861
 21
5.603000000000013
 31
0.0
100
AcDbText
  0
TEXT
  5
1926
330
16E2
100
AcDbEntity
  8
TEXT
100
AcDbText
 10
23.0736
 20
4.353000000000013
 30
0.0
 40
0.75
  1
52.500
 41
0.75
  7
TXT
 72
     1
 11
24.3861
 21
4.353000000000013
 31
0.0
100
AcDbText
  0
TEXT
  5
1927
330
16E2
100
AcDbEntity
  8
TEXT
100
AcDbText
 10
23.12047499999999
 20
3.103000000000012
 30
0.0
 40
0.75
  1
61.250
 41
0.75
  7
TXT
 72
     1
 11
24.3861
 21
3.103000000000012
 31
0.0
100
AcDbText
  0
TEXT
  5
1928
330
16E2
100
AcDbEntity
  8
TEXT
100
AcDbText
 10
23.16734999999999
 20
1.853000000000012
 30
0.0
 40
0.75
  1
70.000
 41
0.75
  7
TXT
 72
     1
 11
24.3861
 21
1.853000000000012
 31
0.0
100
AcDbText
  0
TEXT
  5
1929
330
16E2
100
AcDbEntity
  8
TEXT
100
AcDbText
 10
23.02672499999999
 20
0.603000000000014
 30
0.0
 40
0.75
  1
78.750
 41
0.75
  7
TXT
 72
     1
 11
24.3861
 21
0.603000000000014
 31
0.0
100
AcDbText
  0
TEXT
  5
192A
330
16E2
100
AcDbEntity
  8
TEXT
100
AcDbText
 10
32.70193582646271
 20
84.70648675312814
 30
0.0
 40
0.75
  1
- FITS ECONOMIZER UPRIGHT CABINET RACKS AND
 41
0.75
  7
TXT
100
AcDbText
  0
TEXT
  5
192B
330
16E2
100
AcDbEntity
  8
TEXT
100
AcDbText
 10
34.21352510557346
 20
83.45648675312814
 30
0.0
 40
0.75
  1
 CLASSIC II CABINET RACKS
 41
0.75
  7
TXT
100
AcDbText
  0
LINE
  5
192C
330
16E2
100
AcDbEntity
  8
TITLE
100
AcDbLine
 10
28.58609999999998
 20
1.620000000000008
 30
0.0
 11
0.3719999999999857
 21
1.620000000000008
 31
0.0
  0
LINE
  5
192D
330
16E2
100
AcDbEntity
  8
TITLE
100
AcDbLine
 10
28.58609999999998
 20
2.86800000000001
 30
0.0
 11
0.3719999999999857
 21
2.86800000000001
 31
0.0
  0
LINE
  5
192E
330
16E2
100
AcDbEntity
  8
TITLE
100
AcDbLine
 10
28.58609999999998
 20
4.116000000000006
 30
0.0
 11
0.3719999999999857
 21
4.116000000000006
 31
0.0
  0
LINE
  5
192F
330
16E2
100
AcDbEntity
  8
TITLE
100
AcDbLine
 10
28.58609999999998
 20
5.364000000000007
 30
0.0
 11
0.3719999999999857
 21
5.364000000000007
 31
0.0
  0
LINE
  5
1930
330
16E2
100
AcDbEntity
  8
TITLE
100
AcDbLine
 10
28.58609999999998
 20
6.612000000000007
 30
0.0
 11
0.3719999999999857
 21
6.612000000000007
 31
0.0
  0
LINE
  5
1931
330
16E2
100
AcDbEntity
  8
TITLE
100
AcDbLine
 10
28.58609999999998
 20
11.60399999999998
 30
0.0
 11
0.3719999999999857
 21
11.60399999999998
 31
0.0
  0
TEXT
  5
1932
330
16E2
100
AcDbEntity
  8
TEXT
100
AcDbText
 10
15.76844999999996
 20
1.853000000000012
 30
0.0
 40
0.75
  1
34.969
 41
0.75
  7
TXT
 72
     1
 11
17.17469999999996
 21
1.853000000000012
 31
0.0
100
AcDbText
  0
TEXT
  5
1933
330
16E2
100
AcDbEntity
  8
TEXT
100
AcDbText
 10
15.76844999999996
 20
0.603000000000014
 30
0.0
 40
0.75
  1
39.344
 41
0.75
  7
TXT
 72
     1
 11
17.17469999999996
 21
0.603000000000014
 31
0.0
100
AcDbText
  0
TEXT
  5
1934
330
16E2
100
AcDbEntity
  8
TEXT
100
AcDbText
 10
15.86219999999996
 20
4.353000000000013
 30
0.0
 40
0.75
  1
26.219
 41
0.75
  7
TXT
 72
     1
 11
17.17469999999996
 21
4.353000000000013
 31
0.0
100
AcDbText
  0
TEXT
  5
1935
330
16E2
100
AcDbEntity
  8
TEXT
100
AcDbText
 10
15.81532499999996
 20
3.103000000000012
 30
0.0
 40
0.75
  1
30.594
 41
0.75
  7
TXT
 72
     1
 11
17.17469999999996
 21
3.103000000000012
 31
0.0
100
AcDbText
  0
TEXT
  5
1936
330
16E2
100
AcDbEntity
  8
TEXT
100
AcDbText
 10
15.81532499999996
 20
5.603000000000013
 30
0.0
 40
0.75
  1
20.969
 41
0.75
  7
TXT
 72
     1
 11
17.17469999999996
 21
5.603000000000013
 31
0.0
100
AcDbText
  0
TEXT
  5
1937
330
16E2
100
AcDbEntity
  8
TEXT
100
AcDbText
 10
16.98719999999996
 20
8.731000000000014
 30
0.0
 40
0.75
  1
B
 41
0.75
  7
TXT
 72
     1
 11
17.17469999999996
 21
8.731000000000014
 31
0.0
100
AcDbText
  0
LINE
  5
1938
330
16E2
100
AcDbEntity
  8
TITLE
100
AcDbLine
 10
20.18189999999998
 20
11.60399999999998
 30
0.0
 11
20.1819
 21
0.3720000000000123
 31
0.0
  0
TEXT
  5
1939
330
16E2
100
AcDbEntity
  8
TEXT
100
AcDbText
 10
9.713555480062108
 20
90.9251527186309
 30
0.0
 40
0.9360000000000001
  1
ECONOGLAS DOOR
 41
0.75
  7
TXT
 72
     4
 11
14.51055548006211
 21
91.39315271863091
 31
0.0
100
AcDbText
  0
TEXT
  5
193A
330
16E2
100
AcDbEntity
  8
TEXT
100
AcDbText
 10
30.0531738788015
 20
90.9251527186309
 30
0.0
 40
0.9360000000000001
  1
V-9760-L & V-9763-L to 67-L
 41
0.75
  7
TXT
 72
     4
 11
39.58867387880151
 21
91.39315271863091
 31
0.0
100
AcDbText
  0
TEXT
  5
193B
330
16E2
100
AcDbEntity
  8
TEXT
100
AcDbText
 10
22.09544209541835
 20
72.28422123399138
 30
0.0
 40
0.75
  1
METALLIC GRAY
 41
0.75
  7
TXT
 72
     2
 11
29.03294209541835
 21
72.28422123399138
 31
0.0
100
AcDbText
  0
TEXT
  5
193C
330
16E2
100
AcDbEntity
  8
TEXT
100
AcDbText
 10
22.47044209541835
 20
73.53422123399138
 30
0.0
 40
0.75
  1
SMOOTH BLACK
 41
0.75
  7
TXT
 72
     2
 11
29.03294209541835
 21
73.53422123399138
 31
0.0
100
AcDbText
  0
TEXT
  5
193D
330
16E2
100
AcDbEntity
  8
TEXT
100
AcDbText
 10
25.28294209541835
 20
74.78422123399138
 30
0.0
 40
0.75
  1
NATURAL
 41
0.75
  7
TXT
 72
     2
 11
29.03294209541835
 21
74.78422123399138
 31
0.0
100
AcDbText
  0
TEXT
  5
193E
330
16E2
100
AcDbEntity
  8
TEXT
100
AcDbText
 10
23.59544209541835
 20
76.03422123399138
 30
0.0
 40
0.75
  1
SMOKE GRAY
 41
0.75
  7
TXT
 72
     2
 11
29.03294209541835
 21
76.03422123399138
 31
0.0
100
AcDbText
  0
TEXT
  5
193F
330
16E2
100
AcDbEntity
  8
TEXT
100
AcDbText
 10
21.53294209541835
 20
77.28422123399138
 30
0.0
 40
0.75
  1
CLEAR ANODIZED
 41
0.75
  7
TXT
 72
     2
 11
29.03294209541835
 21
77.28422123399138
 31
0.0
100
AcDbText
  0
TEXT
  5
1940
330
16E2
100
AcDbEntity
  8
TEXT
100
AcDbText
 10
23.03294209541835
 20
82.28422123399138
 30
0.0
 40
0.75
  1
14 GA. STEEL
 41
0.75
  7
TXT
 72
     2
 11
29.03294209541835
 21
82.28422123399138
 31
0.0
100
AcDbText
  0
TEXT
  5
1941
330
16E2
100
AcDbEntity
  8
TEXT
100
AcDbText
 10
19.47044209541835
 20
87.28222123399138
 30
0.0
 40
0.75
  1
ALUMINUM EXTRUSION
 41
0.75
  7
TXT
 72
     2
 11
29.03294209541835
 21
87.28222123399138
 31
0.0
100
AcDbText
  0
TEXT
  5
1942
330
16E2
100
AcDbEntity
  8
TEXT
100
AcDbText
 10
18.43919209541835
 20
86.03222123399138
 30
0.0
 40
0.75
  1
0.187 THICK PLEXIGLAS
 41
0.75
  7
TXT
 72
     2
 11
29.03294209541835
 21
86.03222123399138
 31
0.0
100
AcDbText
  0
TEXT
  5
1943
330
16E2
100
AcDbEntity
  8
TEXT
100
AcDbText
 10
17.50169209541835
 20
84.78222123399138
 30
0.0
 40
0.75
  1
20 GA. STAINLESS STEEL
 41
0.75
  7
TXT
 72
     2
 11
29.03294209541835
 21
84.78222123399138
 31
0.0
100
AcDbText
  0
TEXT
  5
1944
330
16E2
100
AcDbEntity
  8
TEXT
100
AcDbText
 10
23.03294209541835
 20
83.53222123399138
 30
0.0
 40
0.75
  1
16 GA. STEEL
 41
0.75
  7
TXT
 72
     2
 11
29.03294209541835
 21
83.53222123399138
 31
0.0
100
AcDbText
  0
TEXT
  5
1945
330
16E2
100
AcDbEntity
  8
TEXT
100
AcDbText
 10
17.78294209541835
 20
81.03422123399138
 30
0.0
 40
0.75
  1
11 GA. STAINLESS STEEL
 41
0.75
  7
TXT
 72
     2
 11
29.03294209541835
 21
81.03422123399138
 31
0.0
100
AcDbText
  0
TEXT
  5
1946
330
16E2
100
AcDbEntity
  8
TEXT
100
AcDbText
 10
2.714794583898225
 20
77.28422123399138
 30
0.0
 40
0.75
  1
DOOR FRAME
 41
0.75
  7
TXT
100
AcDbText
  0
LINE
  5
1947
330
16E2
100
AcDbEntity
  8
TEXT
100
AcDbLine
 10
5.968425766076862
 20
72.29344884798141
 30
0.0
 11
21.82135537668523
 21
72.29344884798141
 31
0.0
  0
TEXT
  5
1948
330
16E2
100
AcDbEntity
  8
TEXT
100
AcDbText
 10
2.714794583898225
 20
73.53422123399138
 30
0.0
 40
0.75
  1
DOOR STOPS
 41
0.75
  7
TXT
100
AcDbText
  0
TEXT
  5
1949
330
16E2
100
AcDbEntity
  8
TEXT
100
AcDbText
 10
2.714794583898225
 20
76.03422123399138
 30
0.0
 40
0.75
  1
DOOR PANEL
 41
0.75
  7
TXT
100
AcDbText
  0
TEXT
  5
194A
330
16E2
100
AcDbEntity
  8
TEXT
100
AcDbText
 10
2.714794583898225
 20
72.28222123399138
 30
0.0
 40
0.75
  1
HINGES
 41
0.75
  7
TXT
100
AcDbText
  0
TEXT
  5
194B
330
16E2
100
AcDbEntity
  8
TEXT
100
AcDbText
 10
2.714794583898225
 20
74.78422123399138
 30
0.0
 40
0.75
  1
STRIKER, WASHER
 41
0.75
  7
TXT
100
AcDbText
  0
LINE
  5
194C
330
16E2
100
AcDbEntity
  8
TEXT
100
AcDbLine
 10
8.572128170442866
 20
76.03744884798145
 30
0.0
 11
23.32313835414407
 21
76.03744884798145
 31
0.0
  0
LINE
  5
194D
330
16E2
100
AcDbEntity
  8
TEXT
100
AcDbLine
 10
8.572128170442866
 20
77.28544884798141
 30
0.0
 11
21.29759345151326
 21
77.28544884798141
 31
0.0
  0
LINE
  5
194E
330
16E2
100
AcDbEntity
  8
TEXT
100
AcDbLine
 10
8.572128170442866
 20
73.54144884798142
 30
0.0
 11
22.25958810770835
 21
73.54144884798142
 31
0.0
  0
LINE
  5
194F
330
16E2
100
AcDbEntity
  8
TEXT
100
AcDbLine
 10
5.968425766076862
 20
82.27744884798147
 30
0.0
 11
22.70909521437015
 21
82.27744884798147
 31
0.0
  0
LINE
  5
1950
330
16E2
100
AcDbEntity
  8
TEXT
100
AcDbLine
 10
6.438926353695833
 20
84.77344884798146
 30
0.0
 11
17.25049093936704
 21
84.77344884798146
 31
0.0
  0
TEXT
  5
1951
330
16E2
100
AcDbEntity
  8
TEXT
100
AcDbText
 10
2.714794583898225
 20
83.53222123399138
 30
0.0
 40
0.75
  1
DOOR STOPS
 41
0.75
  7
TXT
100
AcDbText
  0
TEXT
  5
1952
330
16E2
100
AcDbEntity
  8
TEXT
100
AcDbText
 10
2.714794583898225
 20
86.03222123399138
 30
0.0
 40
0.75
  1
DOOR PANEL
 41
0.75
  7
TXT
100
AcDbText
  0
TEXT
  5
1953
330
16E2
100
AcDbEntity
  8
TEXT
100
AcDbText
 10
2.714794583898225
 20
87.28222123399138
 30
0.0
 40
0.75
  1
DOOR FRAME
 41
0.75
  7
TXT
100
AcDbText
  0
TEXT
  5
1954
330
16E2
100
AcDbEntity
  8
TEXT
100
AcDbText
 10
2.714794583898225
 20
88.53222123399138
 30
0.0
 40
0.75
  1
%%UMATERIAL:
 41
0.75
  7
TXT
100
AcDbText
  0
TEXT
  5
1955
330
16E2
100
AcDbEntity
  8
TEXT
100
AcDbText
 10
2.714794583898225
 20
84.78222123399138
 30
0.0
 40
0.75
  1
WASHER
 41
0.75
  7
TXT
100
AcDbText
  0
TEXT
  5
1956
330
16E2
100
AcDbEntity
  8
TEXT
100
AcDbText
 10
2.714794583898225
 20
81.03422123399138
 30
0.0
 40
0.75
  1
STRIKER
 41
0.75
  7
TXT
100
AcDbText
  0
TEXT
  5
1957
330
16E2
100
AcDbEntity
  8
TEXT
100
AcDbText
 10
2.714794583898225
 20
78.53422123399138
 30
0.0
 40
0.75
  1
%%UFINISH:
 41
0.75
  7
TXT
100
AcDbText
  0
TEXT
  5
1958
330
16E2
100
AcDbEntity
  8
TEXT
100
AcDbText
 10
2.714794583898225
 20
82.28422123399138
 30
0.0
 40
0.75
  1
HINGES
 41
0.75
  7
TXT
100
AcDbText
  0
LINE
  5
1959
330
16E2
100
AcDbEntity
  8
TEXT
100
AcDbLine
 10
8.572128170442866
 20
83.52544884798145
 30
0.0
 11
22.70909521437015
 21
83.52544884798145
 31
0.0
  0
LINE
  5
195A
330
16E2
100
AcDbEntity
  8
TEXT
100
AcDbLine
 10
8.572128170442866
 20
86.02144884798146
 30
0.0
 11
18.26326339068245
 21
86.02144884798146
 31
0.0
  0
LINE
  5
195B
330
16E2
100
AcDbEntity
  8
TEXT
100
AcDbLine
 10
8.572128170442866
 20
87.26944884798149
 30
0.0
 11
19.12850599672751
 21
87.26944884798149
 31
0.0
  0
LINE
  5
195C
330
16E2
100
AcDbEntity
  8
TEXT
100
AcDbLine
 10
6.618354543889509
 20
81.02944884798141
 30
0.0
 11
17.29542737671387
 21
81.02944884798141
 31
0.0
  0
LINE
  5
195D
330
16E2
100
AcDbEntity
  8
TEXT
100
AcDbLine
 10
10.89194195538573
 20
74.78944884798142
 30
0.0
 11
24.87818266915593
 21
74.78944884798142
 31
0.0
  0
LINE
  5
195E
330
16E2
100
AcDbEntity
  8
OBJECT
100
AcDbLine
 10
5.383502357454175
 20
60.94955030815438
 30
0.0
 11
4.883502357454175
 21
60.94955030815438
 31
0.0
  0
LINE
  5
195F
330
16E2
100
AcDbEntity
  8
OBJECT
100
AcDbLine
 10
5.383502357454175
 20
60.94955030815438
 30
0.0
 11
5.383502357454175
 21
58.40255030815436
 31
0.0
  0
LINE
  5
1960
330
16E2
100
AcDbEntity
  8
OBJECT
100
AcDbLine
 10
5.383502357454175
 20
19.01155030815436
 30
0.0
 11
4.883502357454175
 21
19.01155030815435
 31
0.0
  0
LINE
  5
1961
330
16E2
100
AcDbEntity
  8
OBJECT
100
AcDbLine
 10
8.89708008613465
 20
67.03418187211318
 30
0.0
 11
8.89708008613465
 21
67.53418187211318
 31
0.0
  0
LINE
  5
1962
330
16E2
100
AcDbEntity
  8
OBJECT
100
AcDbLine
 10
8.89708008613465
 20
67.03418187211318
 30
0.0
 11
27.83508008613464
 21
67.03418187211318
 31
0.0
  0
LINE
  5
1963
330
16E2
100
AcDbEntity
  8
OBJECT
100
AcDbLine
 10
27.83508008613464
 20
67.03418187211318
 30
0.0
 11
27.83508008613464
 21
67.53418187211318
 31
0.0
  0
LINE
  5
1964
330
16E2
100
AcDbEntity
  8
OBJECT
100
AcDbLine
 10
27.83508008613464
 20
67.53418187211318
 30
0.0
 11
8.89708008613465
 21
67.53418187211318
 31
0.0
  0
CIRCLE
  5
1965
330
16E2
100
AcDbEntity
  8
OBJECT
100
AcDbCircle
 10
10.14708008613464
 20
67.28418187211318
 30
0.0
 40
0.134
  0
CIRCLE
  5
1966
330
16E2
100
AcDbEntity
  8
OBJECT
100
AcDbCircle
 10
26.58508008613464
 20
67.28418187211318
 30
0.0
 40
0.134
  0
CIRCLE
  5
1967
330
16E2
100
AcDbEntity
  8
OBJECT
100
AcDbCircle
 10
5.133502357454175
 20
59.69955030815438
 30
0.0
 40
0.134
  0
CIRCLE
  5
1968
330
16E2
100
AcDbEntity
  8
OBJECT
100
AcDbCircle
 10
5.133502357454148
 20
20.26155030815436
 30
0.0
 40
0.134
  0
CIRCLE
  5
1969
330
16E2
100
AcDbEntity
  8
OBJECT
100
AcDbCircle
 10
5.133502357454175
 20
57.30855030815437
 30
0.0
 40
0.1405
  0
CIRCLE
  5
196A
330
16E2
100
AcDbEntity
  8
OBJECT
100
AcDbCircle
 10
5.133502357454175
 20
57.99655030815435
 30
0.0
 40
0.1405
  0
CIRCLE
  5
196B
330
16E2
100
AcDbEntity
  8
OBJECT
100
AcDbCircle
 10
5.133502357454175
 20
57.65255030815436
 30
0.0
 40
0.1405
  0
ARC
  5
196C
330
16E2
100
AcDbEntity
  8
OBJECT
100
AcDbCircle
 10
25.83508008613465
 20
39.91711074536743
 30
0.0
 40
0.0907602504109022
100
AcDbArc
 50
289.9718984509592
 51
70.0281015490407
  0
ARC
  5
196D
330
16E2
100
AcDbEntity
  8
OBJECT
100
AcDbCircle
 10
25.83508008613465
 20
39.91711074536743
 30
0.0
 40
0.0907602504109022
100
AcDbArc
 50
109.9718984509627
 51
250.0281015490381
  0
ARC
  5
196E
330
16E2
100
AcDbEntity
  8
OBJECT
100
AcDbCircle
 10
25.83508008613465
 20
39.98055030815437
 30
0.0
 40
0.158830438218807
100
AcDbArc
 50
258.7449541943661
 51
281.2550458056321
  0
ARC
  5
196F
330
16E2
100
AcDbEntity
  8
OBJECT
100
AcDbCircle
 10
25.83508008613465
 20
39.98055030815437
 30
0.0
 40
0.158830438218807
100
AcDbArc
 50
78.74495419436787
 51
101.2550458056336
  0
LINE
  5
1970
330
16E2
100
AcDbEntity
  8
OBJECT
100
AcDbLine
 10
25.86608008613465
 20
39.82477448170885
 30
0.0
 11
25.86608008613465
 21
40.13632613459987
 31
0.0
  0
LINE
  5
1971
330
16E2
100
AcDbEntity
  8
OBJECT
100
AcDbLine
 10
25.80408008613463
 20
39.82477448170885
 30
0.0
 11
25.80408008613463
 21
40.13632613459987
 31
0.0
  0
CIRCLE
  5
1972
330
16E2
100
AcDbEntity
  8
OBJECT
100
AcDbCircle
 10
25.83508008613465
 20
39.98055030815437
 30
0.0
 40
0.2755221887471073
  0
CIRCLE
  5
1973
330
16E2
100
AcDbEntity
  8
OBJECT
100
AcDbCircle
 10
25.83508008613465
 20
39.98055030815437
 30
0.0
 40
0.4375
  0
LINE
  5
1974
330
16E2
100
AcDbEntity
  8
OBJECT
100
AcDbLine
 10
5.383502357454175
 20
56.90305030815434
 30
0.0
 11
5.383502357454188
 21
23.68305030815438
 31
0.0
  0
LINE
  5
1975
330
16E2
100
AcDbEntity
  8
OBJECT
100
AcDbLine
 10
4.883502357454175
 20
60.94955030815438
 30
0.0
 11
4.883502357454175
 21
19.01155030815435
 31
0.0
  0
LINE
  5
1976
330
16E2
100
AcDbEntity
  8
OBJECT
100
AcDbLine
 10
10.09664476840751
 20
67.33461718984031
 30
0.0
 11
10.19751540386176
 21
67.23374655438604
 31
0.0
  0
LINE
  5
1977
330
16E2
100
AcDbEntity
  8
OBJECT
100
AcDbLine
 10
10.19751540386176
 20
67.33461718984031
 30
0.0
 11
10.09664476840751
 21
67.23374655438604
 31
0.0
  0
LINE
  5
1978
330
16E2
100
AcDbEntity
  8
OBJECT
100
AcDbLine
 10
5.183937675181326
 20
59.74998562588152
 30
0.0
 11
5.083067039727055
 21
59.64911499042724
 31
0.0
  0
LINE
  5
1979
330
16E2
100
AcDbEntity
  8
OBJECT
100
AcDbLine
 10
5.08306703972704
 20
59.74998562588152
 30
0.0
 11
5.183937675181311
 21
59.64911499042724
 31
0.0
  0
LINE
  5
197A
330
16E2
100
AcDbEntity
  8
OBJECT
100
AcDbLine
 10
5.08306703972704
 20
58.04698562588149
 30
0.0
 11
5.183937675181311
 21
57.94611499042722
 31
0.0
  0
LINE
  5
197B
330
16E2
100
AcDbEntity
  8
OBJECT
100
AcDbLine
 10
5.183937675181311
 20
58.04698562588149
 30
0.0
 11
5.08306703972704
 21
57.94611499042722
 31
0.0
  0
LINE
  5
197C
330
16E2
100
AcDbEntity
  8
OBJECT
100
AcDbLine
 10
5.183937675181311
 20
57.70298562588148
 30
0.0
 11
5.08306703972704
 21
57.60211499042721
 31
0.0
  0
LINE
  5
197D
330
16E2
100
AcDbEntity
  8
OBJECT
100
AcDbLine
 10
5.08306703972704
 20
57.70298562588148
 30
0.0
 11
5.183937675181311
 21
57.60211499042721
 31
0.0
  0
LINE
  5
197E
330
16E2
100
AcDbEntity
  8
OBJECT
100
AcDbLine
 10
5.183937675181311
 20
57.3589856258815
 30
0.0
 11
5.08306703972704
 21
57.25811499042722
 31
0.0
  0
LINE
  5
197F
330
16E2
100
AcDbEntity
  8
OBJECT
100
AcDbLine
 10
5.08306703972704
 20
57.3589856258815
 30
0.0
 11
5.183937675181311
 21
57.25811499042722
 31
0.0
  0
LINE
  5
1980
330
16E2
100
AcDbEntity
  8
OBJECT
100
AcDbLine
 10
5.08306703972701
 20
20.31198562588151
 30
0.0
 11
5.183937675181281
 21
20.21111499042723
 31
0.0
  0
LINE
  5
1981
330
16E2
100
AcDbEntity
  8
OBJECT
100
AcDbLine
 10
5.183937675181281
 20
20.31198562588151
 30
0.0
 11
5.08306703972701
 21
20.21111499042723
 31
0.0
  0
LINE
  5
1982
330
16E2
100
AcDbEntity
  8
OBJECT
100
AcDbLine
 10
5.383502357454175
 20
22.18355030815434
 30
0.0
 11
5.383502357454175
 21
19.01155030815436
 31
0.0
  0
LINE
  5
1983
330
16E2
100
AcDbEntity
  8
OBJECT
100
AcDbLine
 10
25.52308008613465
 20
68.06518187211321
 30
0.0
 11
25.52308008613465
 21
67.53418187211318
 31
0.0
  0
LINE
  5
1984
330
16E2
100
AcDbEntity
  8
OBJECT
100
AcDbLine
 10
26.14708008613463
 20
68.06518187211321
 30
0.0
 11
26.14708008613463
 21
67.53418187211318
 31
0.0
  0
LINE
  5
1985
330
16E2
100
AcDbEntity
  8
OBJECT
100
AcDbLine
 10
26.63551540386178
 20
67.33461718984031
 30
0.0
 11
26.53464476840751
 21
67.23374655438604
 31
0.0
  0
LINE
  5
1986
330
16E2
100
AcDbEntity
  8
OBJECT
100
AcDbLine
 10
26.53464476840751
 20
67.33461718984031
 30
0.0
 11
26.63551540386178
 21
67.23374655438604
 31
0.0
  0
DIMENSION
  5
1987
330
16E2
100
AcDbEntity
  8
DIM
100
AcDbDimension
  2
*D7
 10
34.25959165671405
 20
19.01155030815436
 30
0.0
 11
34.25959165671404
 21
39.98055030815438
 31
0.0
 70
    32
  1
A
 71
     5
 42
41.93800000000002
  3
23NSTD
100
AcDbAlignedDimension
 13
27.83508008613464
 23
60.94955030815438
 33
0.0
 14
27.83508008613464
 24
19.01155030815436
 34
0.0
 50
90.0
100
AcDbRotatedDimension
  0
DIMENSION
  5
1995
330
16E2
100
AcDbEntity
  8
DIM
100
AcDbDimension
  2
*D8
 10
27.83508008613464
 20
62.92993217118457
 30
0.0
 11
18.36608008613464
 21
62.92993217118457
 31
0.0
 70
    32
 71
     5
 42
18.93799999999998
  3
23NSTD
100
AcDbAlignedDimension
 13
8.89708008613465
 23
60.94955030815438
 33
0.0
 14
27.83508008613464
 24
60.94955030815438
 34
0.0
100
AcDbRotatedDimension
  0
DIMENSION
  5
19A3
330
16E2
100
AcDbEntity
  8
DIM
100
AcDbDimension
  2
*D9
 10
31.65425018274889
 20
39.98055030815437
 30
0.0
 11
31.65425018274889
 21
50.46505030815438
 31
0.0
 70
    32
  1
B
 71
     5
 42
20.96900000000002
  3
23NSTD
100
AcDbAlignedDimension
 13
27.83508008613464
 23
60.9495503081544
 33
0.0
 14
25.83508008613465
 24
39.98055030815437
 34
0.0
 50
90.0
100
AcDbRotatedDimension
  0
LINE
  5
19B1
330
16E2
100
AcDbEntity
  8
OBJECT
100
AcDbLine
 10
28.24108008613464
 20
39.85555030815437
 30
0.0
 11
28.24108008613464
 21
40.10555030815437
 31
0.0
  0
LINE
  5
19B2
330
16E2
100
AcDbEntity
  8
OBJECT
100
AcDbLine
 10
5.820502357454245
 20
56.90305030815434
 30
0.0
 11
4.883502357454188
 21
56.90305030815434
 31
0.0
  0
LINE
  5
19B3
330
16E2
100
AcDbEntity
  8
OBJECT
100
AcDbLine
 10
4.883502357454188
 20
58.40255030815436
 30
0.0
 11
5.820502357454245
 21
58.40255030815436
 31
0.0
  0
LINE
  5
19B4
330
16E2
100
AcDbEntity
  8
OBJECT
100
AcDbLine
 10
4.883502357454188
 20
58.40255030815436
 30
0.0
 11
4.883502357454188
 21
56.90305030815434
 31
0.0
  0
LINE
  5
19B5
330
16E2
100
AcDbEntity
  8
OBJECT
100
AcDbLine
 10
5.477502357454227
 20
56.90305030815434
 30
0.0
 11
5.477502357454227
 21
58.40255030815436
 31
0.0
  0
LINE
  5
19B6
330
16E2
100
AcDbEntity
  8
OBJECT
100
AcDbLine
 10
5.820502357454245
 20
58.40255030815436
 30
0.0
 11
5.820502357454245
 21
56.90305030815434
 31
0.0
  0
LINE
  5
19B7
330
16E2
100
AcDbEntity
  8
OBJECT
100
AcDbLine
 10
5.703002357454238
 20
58.68355030815436
 30
0.0
 11
5.595002357454233
 21
58.68355030815436
 31
0.0
  0
ARC
  5
19B8
330
16E2
100
AcDbEntity
  8
OBJECT
100
AcDbCircle
 10
5.312753886506326
 20
58.3553018372064
 30
0.0
 40
0.5099420827475099
100
AcDbArc
 50
5.31634181896547
 51
40.06809258287255
  0
ARC
  5
19B9
330
16E2
100
AcDbEntity
  8
OBJECT
100
AcDbCircle
 10
5.985250828402143
 20
58.3553018372064
 30
0.0
 40
0.5099420827475099
100
AcDbArc
 50
139.9319074171272
 51
174.6836581810347
  0
LINE
  5
19BA
330
16E2
100
AcDbEntity
  8
OBJECT
100
AcDbLine
 10
8.554080086134632
 20
56.90305030815434
 30
0.0
 11
8.554080086134632
 21
58.40255030815436
 31
0.0
  0
LINE
  5
19BB
330
16E2
100
AcDbEntity
  8
OBJECT
100
AcDbLine
 10
8.89708008613465
 20
56.90305030815434
 30
0.0
 11
8.554080086134632
 21
56.90305030815434
 31
0.0
  0
LINE
  5
19BC
330
16E2
100
AcDbEntity
  8
OBJECT
100
AcDbLine
 10
8.554080086134632
 20
58.40255030815436
 30
0.0
 11
8.89708008613465
 21
58.40255030815436
 31
0.0
  0
LINE
  5
19BD
330
16E2
100
AcDbEntity
  8
OBJECT
100
AcDbLine
 10
8.779580086134643
 20
58.68355030815436
 30
0.0
 11
8.671580086134635
 21
58.68355030815436
 31
0.0
  0
ARC
  5
19BE
330
16E2
100
AcDbEntity
  8
OBJECT
100
AcDbCircle
 10
9.061828557082547
 20
58.3553018372064
 30
0.0
 40
0.5099420827475099
100
AcDbArc
 50
139.9319074171272
 51
174.6836581810347
  0
ARC
  5
19BF
330
16E2
100
AcDbEntity
  8
OBJECT
100
AcDbCircle
 10
8.389331615186733
 20
58.3553018372064
 30
0.0
 40
0.5099420827475099
100
AcDbArc
 50
5.31634181896547
 51
40.06809258287255
  0
LINE
  5
19C0
330
16E2
100
AcDbEntity
  8
OBJECT
100
AcDbLine
 10
8.554080086134632
 20
56.90305030815436
 30
0.0
 11
8.554080086134632
 21
55.40355030815437
 31
0.0
  0
LINE
  5
19C1
330
16E2
100
AcDbEntity
  8
OBJECT
100
AcDbLine
 10
8.554080086134632
 20
55.40355030815437
 30
0.0
 11
8.89708008613465
 21
55.40355030815437
 31
0.0
  0
ARC
  5
19C2
330
16E2
100
AcDbEntity
  8
OBJECT
100
AcDbCircle
 10
8.389331615186733
 20
55.45079877910231
 30
0.0
 40
0.5099420827475099
100
AcDbArc
 50
319.9319074171274
 51
354.6836581810343
  0
ARC
  5
19C3
330
16E2
100
AcDbEntity
  8
OBJECT
100
AcDbCircle
 10
9.061828557082547
 20
55.45079877910231
 30
0.0
 40
0.5099420827475099
100
AcDbArc
 50
185.3163418189651
 51
220.0680925828724
  0
LINE
  5
19C4
330
16E2
100
AcDbEntity
  8
OBJECT
100
AcDbLine
 10
8.779580086134643
 20
55.12255030815436
 30
0.0
 11
8.671580086134635
 21
55.12255030815436
 31
0.0
  0
DIMENSION
  5
19C5
330
16E2
100
AcDbEntity
  8
DIM
100
AcDbDimension
  2
*D10
 10
2.505614101387108
 20
60.94955030815438
 30
0.0
 11
2.505614101387098
 21
59.67605030815438
 31
0.0
 70
    32
 71
     5
 42
2.547000000000025
  3
23NSTD
100
AcDbAlignedDimension
 13
4.883502357454188
 23
58.40255030815436
 33
0.0
 14
4.883502357454175
 24
60.94955030815438
 34
0.0
 50
90.0
100
AcDbRotatedDimension
  0
LINE
  5
19D3
330
16E2
100
AcDbEntity
  8
OBJECT
100
AcDbLine
 10
5.820502357454271
 20
22.18355030815434
 30
0.0
 11
4.883502357454231
 21
22.18355030815434
 31
0.0
  0
LINE
  5
19D4
330
16E2
100
AcDbEntity
  8
OBJECT
100
AcDbLine
 10
4.883502357454231
 20
23.68305030815438
 30
0.0
 11
5.820502357454271
 21
23.68305030815438
 31
0.0
  0
LINE
  5
19D5
330
16E2
100
AcDbEntity
  8
OBJECT
100
AcDbLine
 10
5.703002357454264
 20
23.96405030815437
 30
0.0
 11
5.59500235745426
 21
23.96405030815437
 31
0.0
  0
CIRCLE
  5
19D6
330
16E2
100
AcDbEntity
  8
OBJECT
100
AcDbCircle
 10
5.133502357454219
 20
23.27705030815437
 30
0.0
 40
0.1405
  0
LINE
  5
19D7
330
16E2
100
AcDbEntity
  8
OBJECT
100
AcDbLine
 10
4.883502357454231
 20
23.68305030815438
 30
0.0
 11
4.883502357454231
 21
22.18355030815434
 31
0.0
  0
LINE
  5
19D8
330
16E2
100
AcDbEntity
  8
OBJECT
100
AcDbLine
 10
5.477502357454254
 20
22.18355030815434
 30
0.0
 11
5.477502357454254
 21
23.68305030815438
 31
0.0
  0
CIRCLE
  5
19D9
330
16E2
100
AcDbEntity
  8
OBJECT
100
AcDbCircle
 10
5.133502357454219
 20
22.58905030815437
 30
0.0
 40
0.1405
  0
CIRCLE
  5
19DA
330
16E2
100
AcDbEntity
  8
OBJECT
100
AcDbCircle
 10
5.133502357454219
 20
22.93305030815437
 30
0.0
 40
0.1405
  0
LINE
  5
19DB
330
16E2
100
AcDbEntity
  8
OBJECT
100
AcDbLine
 10
5.183937675181352
 20
22.98348562588151
 30
0.0
 11
5.083067039727081
 21
22.88261499042723
 31
0.0
  0
LINE
  5
19DC
330
16E2
100
AcDbEntity
  8
OBJECT
100
AcDbLine
 10
5.083067039727081
 20
22.98348562588151
 30
0.0
 11
5.183937675181352
 21
22.88261499042723
 31
0.0
  0
LINE
  5
19DD
330
16E2
100
AcDbEntity
  8
OBJECT
100
AcDbLine
 10
5.183937675181352
 20
22.63948562588152
 30
0.0
 11
5.083067039727081
 21
22.53861499042725
 31
0.0
  0
LINE
  5
19DE
330
16E2
100
AcDbEntity
  8
OBJECT
100
AcDbLine
 10
5.083067039727081
 20
22.63948562588152
 30
0.0
 11
5.183937675181352
 21
22.53861499042725
 31
0.0
  0
ARC
  5
19DF
330
16E2
100
AcDbEntity
  8
OBJECT
100
AcDbCircle
 10
5.985250828402172
 20
23.63580183720641
 30
0.0
 40
0.5099420827475099
100
AcDbArc
 50
139.9319074171272
 51
174.6836581810347
  0
LINE
  5
19E0
330
16E2
100
AcDbEntity
  8
OBJECT
100
AcDbLine
 10
5.083067039727081
 20
23.3274856258815
 30
0.0
 11
5.183937675181352
 21
23.22661499042723
 31
0.0
  0
LINE
  5
19E1
330
16E2
100
AcDbEntity
  8
OBJECT
100
AcDbLine
 10
5.183937675181352
 20
23.3274856258815
 30
0.0
 11
5.083067039727081
 21
23.22661499042723
 31
0.0
  0
LINE
  5
19E2
330
16E2
100
AcDbEntity
  8
OBJECT
100
AcDbLine
 10
5.820502357454271
 20
23.68305030815438
 30
0.0
 11
5.820502357454271
 21
22.18355030815434
 31
0.0
  0
ARC
  5
19E3
330
16E2
100
AcDbEntity
  8
OBJECT
100
AcDbCircle
 10
5.312753886506356
 20
23.63580183720641
 30
0.0
 40
0.5099420827475099
100
AcDbArc
 50
5.31634181896547
 51
40.06809258287255
  0
ARC
  5
19E4
330
16E2
100
AcDbEntity
  8
OBJECT
100
AcDbCircle
 10
8.389331615186762
 20
23.63580183720641
 30
0.0
 40
0.5099420827475099
100
AcDbArc
 50
5.31634181896547
 51
40.06809258287255
  0
ARC
  5
19E5
330
16E2
100
AcDbEntity
  8
OBJECT
100
AcDbCircle
 10
8.389331615186762
 20
20.7312987791023
 30
0.0
 40
0.5099420827475099
100
AcDbArc
 50
319.9319074171274
 51
354.6836581810343
  0
LINE
  5
19E6
330
16E2
100
AcDbEntity
  8
OBJECT
100
AcDbLine
 10
8.554080086134661
 20
22.18355030815437
 30
0.0
 11
8.554080086134661
 21
20.68405030815435
 31
0.0
  0
LINE
  5
19E7
330
16E2
100
AcDbEntity
  8
OBJECT
100
AcDbLine
 10
8.554080086134661
 20
20.68405030815435
 30
0.0
 11
8.897080086134678
 21
20.68405030815435
 31
0.0
  0
ARC
  5
19E8
330
16E2
100
AcDbEntity
  8
OBJECT
100
AcDbCircle
 10
9.061828557082575
 20
20.7312987791023
 30
0.0
 40
0.5099420827475099
100
AcDbArc
 50
185.3163418189651
 51
220.0680925828724
  0
LINE
  5
19E9
330
16E2
100
AcDbEntity
  8
OBJECT
100
AcDbLine
 10
8.779580086134675
 20
20.40305030815436
 30
0.0
 11
8.671580086134666
 21
20.40305030815436
 31
0.0
  0
LINE
  5
19EA
330
16E2
100
AcDbEntity
  8
OBJECT
100
AcDbLine
 10
8.554080086134661
 20
22.18355030815434
 30
0.0
 11
8.554080086134661
 21
23.68305030815438
 31
0.0
  0
LINE
  5
19EB
330
16E2
100
AcDbEntity
  8
OBJECT
100
AcDbLine
 10
8.897080086134678
 20
22.18355030815434
 30
0.0
 11
8.554080086134661
 21
22.18355030815434
 31
0.0
  0
LINE
  5
19EC
330
16E2
100
AcDbEntity
  8
OBJECT
100
AcDbLine
 10
8.779580086134675
 20
23.96405030815437
 30
0.0
 11
8.671580086134666
 21
23.96405030815437
 31
0.0
  0
ARC
  5
19ED
330
16E2
100
AcDbEntity
  8
OBJECT
100
AcDbCircle
 10
9.061828557082575
 20
23.63580183720641
 30
0.0
 40
0.5099420827475099
100
AcDbArc
 50
139.9319074171272
 51
174.6836581810347
  0
LINE
  5
19EE
330
16E2
100
AcDbEntity
  8
OBJECT
100
AcDbLine
 10
8.554080086134661
 20
23.68305030815438
 30
0.0
 11
8.897080086134678
 21
23.68305030815438
 31
0.0
  0
DIMENSION
  5
19EF
330
16E2
100
AcDbEntity
  8
DIM
100
AcDbDimension
  2
*D11
 10
2.505614101387108
 20
19.01155030815435
 30
0.0
 11
2.505614101387104
 21
20.59755030815435
 31
0.0
 70
    32
 71
     5
 42
3.171999999999997
  3
23NSTD
100
AcDbAlignedDimension
 13
4.883502357454231
 23
22.18355030815434
 33
0.0
 14
4.883502357454175
 24
19.01155030815435
 34
0.0
 50
90.0
100
AcDbRotatedDimension
  0
LINE
  5
19FD
330
16E2
100
AcDbEntity
  8
HIDDEN
100
AcDbLine
 10
8.89708008613465
 20
67.21148623766282
 30
0.0
 11
8.819080086134645
 21
67.14368187211315
 31
0.0
  0
LINE
  5
19FE
330
16E2
100
AcDbEntity
  8
OBJECT
100
AcDbLine
 10
8.819080086134645
 20
67.53418187211315
 30
0.0
 11
8.819080086134645
 21
66.76868187211312
 31
0.0
  0
LINE
  5
19FF
330
16E2
100
AcDbEntity
  8
OBJECT
100
AcDbLine
 10
8.89708008613465
 20
67.53418187211315
 30
0.0
 11
8.89708008613465
 21
66.76868187211312
 31
0.0
  0
LINE
  5
1A00
330
16E2
100
AcDbEntity
  8
CENTER
100
AcDbLine
 10
8.970485997357856
 20
67.28418187211318
 30
0.0
 11
9.017114263432844
 21
67.28418187211318
 31
0.0
  0
LINE
  5
1A01
330
16E2
100
AcDbEntity
  8
CENTER
100
AcDbLine
 10
8.686793105008206
 20
67.28418187211318
 30
0.0
 11
8.72981382715713
 21
67.28418187211318
 31
0.0
  0
LINE
  5
1A02
330
16E2
100
AcDbEntity
  8
CENTER
100
AcDbLine
 10
8.763708936557634
 20
67.28418187211318
 30
0.0
 11
8.93970282571054
 21
67.28418187211318
 31
0.0
  0
LINE
  5
1A03
330
16E2
100
AcDbEntity
  8
HIDDEN
100
AcDbLine
 10
8.89708008613465
 20
67.3568775065635
 30
0.0
 11
8.819080086134645
 21
67.42468187211315
 31
0.0
  0
LINE
  5
1A04
330
16E2
100
AcDbEntity
  8
OBJECT
100
AcDbLine
 10
8.897080086134636
 20
67.53418187211315
 30
0.0
 11
8.819080086134645
 21
67.53418187211315
 31
0.0
  0
LINE
  5
1A05
330
16E2
100
AcDbEntity
  8
OBJECT
100
AcDbLine
 10
8.725580086134641
 20
66.9401818721131
 30
0.0
 11
8.725580086134641
 21
66.9401818721131
 31
0.0
  0
LINE
  5
1A06
330
16E2
100
AcDbEntity
  8
CENTER
100
AcDbLine
 10
8.725580086134641
 20
66.53729357253121
 30
0.0
 11
8.725580086134641
 21
66.99011325147996
 31
0.0
  0
LINE
  5
1A07
330
16E2
100
AcDbEntity
  8
CENTER
100
AcDbLine
 10
8.960900861024498
 20
66.76868187211312
 30
0.0
 11
8.498222101802863
 21
66.76868187211312
 31
0.0
  0
ARC
  5
1A08
330
16E2
100
AcDbEntity
  8
OBJECT
100
AcDbCircle
 10
8.725580086134641
 20
66.76868187211312
 30
0.0
 40
0.1715
100
AcDbArc
 50
90.0
 51
0.0
  0
CIRCLE
  5
1A09
330
16E2
100
AcDbEntity
  8
OBJECT
100
AcDbCircle
 10
8.725580086134641
 20
66.76868187211312
 30
0.0
 40
0.0935
  0
LINE
  5
1A0A
330
16E2
100
AcDbEntity
  8
OBJECT
100
AcDbLine
 10
8.725580086134641
 20
66.86218187211309
 30
0.0
 11
8.819080086134645
 21
66.86218187211309
 31
0.0
  0
LINE
  5
1A0B
330
16E2
100
AcDbEntity
  8
OBJECT
100
AcDbLine
 10
8.725580086134641
 20
66.9401818721131
 30
0.0
 11
8.819080086134645
 21
66.9401818721131
 31
0.0
  0
LINE
  5
1A0C
330
16E2
100
AcDbEntity
  8
OBJECT
100
AcDbLine
 10
27.99108008613464
 20
40.35555030815434
 30
0.0
 11
27.83508008613464
 21
40.35555030815434
 31
0.0
  0
LINE
  5
1A0D
330
16E2
100
AcDbEntity
  8
OBJECT
100
AcDbLine
 10
27.99108008613464
 20
39.60555030815437
 30
0.0
 11
27.83508008613464
 21
39.60555030815434
 31
0.0
  0
ARC
  5
1A0E
330
16E2
100
AcDbEntity
  8
OBJECT
100
AcDbCircle
 10
27.99108008613464
 20
40.10555030815437
 30
0.0
 40
0.25
100
AcDbArc
 50
0.0
 51
90.0
  0
ARC
  5
1A0F
330
16E2
100
AcDbEntity
  8
OBJECT
100
AcDbCircle
 10
27.99108008613464
 20
39.85555030815437
 30
0.0
 40
0.25
100
AcDbArc
 50
270.0
 51
0.0
  0
INSERT
  5
1A10
330
16E2
100
AcDbEntity
  8
OBJECT
100
AcDbBlockReference
  2
*X1
 10
14.45537656405726
 20
21.20589155397572
 30
0.0
 41
0.875
 42
0.875
 43
0.875
1001
ACAD
1000
HATCH
1002
{
1070
    16
1000
ANSI31
1040
8.0
1040
0.5235987755982987
1002
}
  0
INSERT
  5
1A11
330
16E2
100
AcDbEntity
  8
OBJECT
100
AcDbBlockReference
  2
*X1
 10
14.45537656405726
 20
43.27464025646875
 30
0.0
 41
0.875
 42
0.875
 43
0.875
1001
ACAD
1000
HATCH
1002
{
1070
    16
1000
ANSI31
1040
8.0
1040
0.5235987755982987
1002
}
  0
LWPOLYLINE
  5
1A12
330
16E2
100
AcDbEntity
  8
BEND
100
AcDbPolyline
 90
        6
 70
     0
 10
24.07963571449107
 20
23.09806246091447
 40
0.0
 41
0.5625
 10
24.07963571449107
 20
24.22306246091447
 40
0.09375
 41
0.09375
 10
24.07963571449107
 20
25.89356911623791
 40
0.09375
 41
0.09375
 10
29.45955235941571
 20
25.89356911623791
 40
0.09375
 41
0.09375
 10
29.45955235941571
 20
24.22306246091447
 40
0.5625
 41
0.0
 10
29.45955235941571
 20
23.09806246091447
 40
0.0
 41
0.0
  0
TEXT
  5
1A1A
330
16E2
100
AcDbEntity
  8
TEXT
100
AcDbText
 10
23.61063571449107
 20
26.52377654989265
 30
0.0
 40
0.9379999999999999
  1
C
  7
SECTION
 72
     4
 11
24.07963571449107
 21
26.99277654989266
 31
0.0
100
AcDbText
  0
TEXT
  5
1A1B
330
16E2
100
AcDbEntity
  8
TEXT
100
AcDbText
 10
28.99055235941571
 20
26.52377654989265
 30
0.0
 40
0.9379999999999999
  1
C
  7
SECTION
 72
     4
 11
29.45955235941571
 21
26.99277654989266
 31
0.0
100
AcDbText
  0
LWPOLYLINE
  5
1A1C
330
16E2
100
AcDbEntity
  8
BEND
100
AcDbPolyline
 90
        6
 70
     0
 10
24.07963571449107
 20
44.77817309957779
 40
0.0
 41
0.5625
 10
24.07963571449107
 20
45.90317309957779
 40
0.09375
 41
0.09375
 10
24.07963571449107
 20
47.57367975490121
 40
0.09375
 41
0.09375
 10
29.45955235941571
 20
47.57367975490121
 40
0.09375
 41
0.09375
 10
29.45955235941571
 20
45.90317309957779
 40
0.5625
 41
0.0
 10
29.45955235941571
 20
44.77817309957779
 40
0.0
 41
0.0
  0
TEXT
  5
1A24
330
16E2
100
AcDbEntity
  8
TEXT
100
AcDbText
 10
23.61063571449107
 20
48.20388718855596
 30
0.0
 40
0.9379999999999999
  1
B
  7
SECTION
 72
     4
 11
24.07963571449107
 21
48.67288718855597
 31
0.0
100
AcDbText
  0
TEXT
  5
1A25
330
16E2
100
AcDbEntity
  8
TEXT
100
AcDbText
 10
28.99055235941571
 20
48.20388718855596
 30
0.0
 40
0.9379999999999999
  1
B
  7
SECTION
 72
     4
 11
29.45955235941571
 21
48.67288718855597
 31
0.0
100
AcDbText
  0
TEXT
  5
1A26
330
16E2
100
AcDbEntity
  8
DIM
100
AcDbText
 10
316.9605392480832
 20
332.8348337946605
 30
0.0
 40
0.125
  1

100
AcDbText
  0
TEXT
  5
1A27
330
16E2
100
AcDbEntity
  8
DIM
100
AcDbText
 10
320.7563546273011
 20
334.5292043711591
 30
0.0
 40
0.125
  1

100
AcDbText
  0
TEXT
  5
1A28
330
16E2
100
AcDbEntity
  8
DIM
100
AcDbText
 10
320.7769379606346
 20
334.9885749476576
 30
0.0
 40
0.125
  1

100
AcDbText
  0
TEXT
  5
1A29
330
16E2
100
AcDbEntity
  8
DIM
100
AcDbText
 10
316.9605392480832
 20
332.8348337946605
 30
0.0
 40
0.125
  1

100
AcDbText
  0
TEXT
  5
1A2A
330
16E2
100
AcDbEntity
  8
DIM
100
AcDbText
 10
320.7563546273011
 20
334.5292043711591
 30
0.0
 40
0.125
  1

100
AcDbText
  0
TEXT
  5
1A2B
330
16E2
100
AcDbEntity
  8
DIM
100
AcDbText
 10
320.7769379606346
 20
334.9885749476576
 30
0.0
 40
0.125
  1

100
AcDbText
  0
LWPOLYLINE
  5
1A2C
330
16E2
100
AcDbEntity
  8
OBJECT
100
AcDbPolyline
 90
        4
 70
     1
 43
0.0
 10
8.89708008613465
 20
60.94955030815438
 10
8.89708008613465
 20
19.01155030815435
 10
27.83508008613464
 20
19.01155030815435
 10
27.83508008613464
 20
60.94955030815438
  0
LWPOLYLINE
  5
1A32
330
16E2
100
AcDbEntity
  8
OBJECT
100
AcDbPolyline
 90
        4
 70
     1
 43
0.0
 10
10.14708008613464
 20
59.69955030815444
 10
10.1470800861347
 20
20.26155030815436
 10
26.58508008613464
 20
20.26155030815436
 10
26.58508008613471
 20
59.69955030815438
  0
LINE
  5
1A38
330
16E2
100
AcDbEntity
  8
OBJECT
100
AcDbLine
 10
10.1470800861347
 20
20.26155030815434
 30
0.0
 11
8.89708008613465
 21
19.01155030815435
 31
0.0
  0
LINE
  5
1A39
330
16E2
100
AcDbEntity
  8
OBJECT
100
AcDbLine
 10
26.58508008613464
 20
20.2615503081544
 30
0.0
 11
27.83508008613464
 21
19.01155030815435
 31
0.0
  0
LINE
  5
1A3A
330
16E2
100
AcDbEntity
  8
OBJECT
100
AcDbLine
 10
10.14708008613459
 20
59.69955030815444
 30
0.0
 11
8.89708008613465
 21
60.94955030815438
 31
0.0
  0
LINE
  5
1A3B
330
16E2
100
AcDbEntity
  8
OBJECT
100
AcDbLine
 10
26.58508008613471
 20
59.69955030815438
 30
0.0
 11
27.83508008613464
 21
60.94955030815438
 31
0.0
  0
LWPOLYLINE
  5
1A3C
330
16E2
100
AcDbEntity
  8
BEND
100
AcDbPolyline
 90
        6
 70
     0
 10
24.07963571449107
 20
70.14319267727874
 40
0.0
 41
0.5625
 10
24.07963571449107
 20
69.01819267727873
 40
0.09375
 41
0.09375
 10
24.07963571449107
 20
67.34768602195528
 40
0.09375
 41
0.09375
 10
29.45955235941571
 20
67.34768602195528
 40
0.09375
 41
0.09375
 10
29.45955235941571
 20
69.01819267727873
 40
0.5625
 41
0.0
 10
29.45955235941571
 20
70.14319267727874
 40
0.0
 41
0.0
  0
TEXT
  5
1A44
330
16E2
100
AcDbEntity
  8
TEXT
100
AcDbText
 10
23.6329690478244
 20
65.77947858830055
 30
0.0
 40
0.9379999999999999
  1
A
  7
SECTION
 72
     4
 11
24.07963571449107
 21
66.24847858830055
 31
0.0
100
AcDbText
  0
TEXT
  5
1A45
330
16E2
100
AcDbEntity
  8
TEXT
100
AcDbText
 10
29.01288569274905
 20
65.77947858830055
 30
0.0
 40
0.9379999999999999
  1
A
  7
SECTION
 72
     4
 11
29.45955235941571
 21
66.24847858830055
 31
0.0
100
AcDbText
  0
LINE
  5
1A46
330
16E2
100
AcDbEntity
  8
DIM
100
AcDbLine
 10
12.04809249281541
 20
21.72303945806155
 30
0.0
 11
14.03469950282661
 21
22.72461642063289
 31
0.0
  0
LINE
  5
1A47
330
16E2
100
AcDbEntity
  8
DIM
100
AcDbLine
 10
13.61539995938065
 20
23.19538831984771
 30
0.0
 11
12.46951113891788
 21
21.22654204674895
 31
0.0
  0
TEXT
  5
1A48
330
16E2
100
AcDbEntity
  8
DIM
100
AcDbText
 10
439.9605392480832
 20
335.1268337946606
 30
0.0
 40
0.125
  1

100
AcDbText
  0
TEXT
  5
1A49
330
16E2
100
AcDbEntity
  8
DIM
100
AcDbText
 10
443.756354627301
 20
336.8212043711591
 30
0.0
 40
0.125
  1

100
AcDbText
  0
TEXT
  5
1A4A
330
16E2
100
AcDbEntity
  8
DIM
100
AcDbText
 10
443.7769379606345
 20
337.2805749476576
 30
0.0
 40
0.125
  1

100
AcDbText
  0
TEXT
  5
1A4B
330
16E2
100
AcDbEntity
  8
DIM
100
AcDbText
 10
439.9605392480832
 20
335.1268337946606
 30
0.0
 40
0.125
  1

100
AcDbText
  0
TEXT
  5
1A4C
330
16E2
100
AcDbEntity
  8
DIM
100
AcDbText
 10
443.756354627301
 20
336.8212043711591
 30
0.0
 40
0.125
  1

100
AcDbText
  0
TEXT
  5
1A4D
330
16E2
100
AcDbEntity
  8
DIM
100
AcDbText
 10
443.7769379606345
 20
337.2805749476576
 30
0.0
 40
0.125
  1

100
AcDbText
  0
TEXT
  5
1A54
330
16E2
100
AcDbEntity
  8
DIM
100
AcDbText
 10
562.9605392480832
 20
335.1268337946606
 30
0.0
 40
0.125
  1

100
AcDbText
  0
TEXT
  5
1A55
330
16E2
100
AcDbEntity
  8
DIM
100
AcDbText
 10
566.7563546273012
 20
336.8212043711591
 30
0.0
 40
0.125
  1

100
AcDbText
  0
TEXT
  5
1A56
330
16E2
100
AcDbEntity
  8
DIM
100
AcDbText
 10
566.7769379606345
 20
337.2805749476576
 30
0.0
 40
0.125
  1

100
AcDbText
  0
TEXT
  5
1A57
330
16E2
100
AcDbEntity
  8
DIM
100
AcDbText
 10
562.9605392480832
 20
335.1268337946606
 30
0.0
 40
0.125
  1

100
AcDbText
  0
TEXT
  5
1A58
330
16E2
100
AcDbEntity
  8
DIM
100
AcDbText
 10
566.7563546273012
 20
336.8212043711591
 30
0.0
 40
0.125
  1

100
AcDbText
  0
TEXT
  5
1A59
330
16E2
100
AcDbEntity
  8
DIM
100
AcDbText
 10
566.7769379606345
 20
337.2805749476576
 30
0.0
 40
0.125
  1

100
AcDbText
  0
TEXT
  5
1A5A
330
16E2
100
AcDbEntity
  8
TEXT
100
AcDbText
 10
43.81823559724596
 20
52.53756806470396
 30
0.0
 40
0.9379999999999999
  1
%%uSECTION "A-A"
 41
0.8
  7
SECTION
 72
     1
 11
48.38674226391262
 21
52.53756806470396
 31
0.0
100
AcDbText
  0
LINE
  5
1A5B
330
16E2
100
AcDbEntity
  8
OBJECT
100
AcDbLine
 10
46.46385163139487
 20
19.11709733911586
 30
0.0
 11
42.31671019757394
 21
19.11709733911586
 31
0.0
  0
LINE
  5
1A5C
330
16E2
100
AcDbEntity
  8
OBJECT
100
AcDbLine
 10
46.46385163139508
 20
21.1170973791159
 30
0.0
 11
42.40863679145061
 21
21.1170973791159
 31
0.0
  0
LWPOLYLINE
  5
1A5D
330
16E2
100
AcDbEntity
  8
OBJECT
100
AcDbPolyline
 90
        4
 70
     0
 43
0.0
 10
42.38084599900498
 20
19.74109720149644
 10
47.83985165891517
 20
19.74109720149644
 10
47.83985165891517
 20
20.49309736663562
 10
42.26173587915987
 20
20.49309736663562
1001
ACAD
1000
ASC_BOUNDS
1002
{
1070
    19
1005
B43
1002
}
  0
LINE
  5
1A63
330
16E2
100
AcDbEntity
  8
OBJECT
100
AcDbLine
 10
42.62566665793749
 20
44.94035779335752
 30
0.0
 11
44.30243649206753
 21
44.94035779335752
 31
0.0
  0
LINE
  5
1A64
330
16E2
100
AcDbEntity
  8
OBJECT
100
AcDbLine
 10
42.96405156500262
 20
43.48018766046639
 30
0.0
 11
43.96405158500264
 21
43.48018766046639
 31
0.0
  0
LINE
  5
1A65
330
16E2
100
AcDbEntity
  8
OBJECT
100
AcDbLine
 10
42.96405156500262
 20
43.85618766798631
 30
0.0
 11
43.96405158500264
 21
43.85618766798631
 31
0.0
  0
LINE
  5
1A66
330
16E2
100
AcDbEntity
  8
OBJECT
100
AcDbLine
 10
42.96405156500262
 20
44.23218767550621
 30
0.0
 11
43.96405158500264
 21
44.23218767550621
 31
0.0
  0
LINE
  5
1A67
330
16E2
100
AcDbEntity
  8
OBJECT
100
AcDbLine
 10
42.96405156500262
 20
42.72818764542637
 30
0.0
 11
43.96405158500264
 21
42.72818764542637
 31
0.0
  0
LINE
  5
1A68
330
16E2
100
AcDbEntity
  8
OBJECT
100
AcDbLine
 10
42.96405156500262
 20
43.10418765294627
 30
0.0
 11
43.96405158500264
 21
43.10418765294627
 31
0.0
  0
ARC
  5
1A69
330
16E2
100
AcDbEntity
  8
OBJECT
100
AcDbCircle
 10
43.46405157500251
 20
44.56325902723063
 30
0.0
 40
0.9192892627330694
100
AcDbArc
 50
24.21783037328039
 51
81.35645042765501
  0
LINE
  5
1A6A
330
16E2
100
AcDbEntity
  8
OBJECT
100
AcDbLine
 10
42.38271872024077
 20
42.54083249729761
 30
0.0
 11
44.54938542924085
 21
42.54083249729761
 31
0.0
  0
LINE
  5
1A6B
330
16E2
100
AcDbEntity
  8
OBJECT
100
AcDbLine
 10
42.38271872024077
 20
43.29283251218714
 30
0.0
 11
44.54938542924085
 21
43.29283251218714
 31
0.0
  0
LINE
  5
1A6C
330
16E2
100
AcDbEntity
  8
OBJECT
100
AcDbLine
 10
42.38271872024099
 20
43.66883251955676
 30
0.0
 11
44.54938542924085
 21
43.66883251955676
 31
0.0
  0
LINE
  5
1A6D
330
16E2
100
AcDbEntity
  8
OBJECT
100
AcDbLine
 10
42.38271872024099
 20
44.04483252692635
 30
0.0
 11
44.54938542924085
 21
44.04483252692635
 31
0.0
  0
LINE
  5
1A6E
330
16E2
100
AcDbEntity
  8
OBJECT
100
AcDbLine
 10
42.38271872024077
 20
42.91683250481753
 30
0.0
 11
44.54938542924085
 21
42.91683250481753
 31
0.0
  0
LINE
  5
1A6F
330
16E2
100
AcDbEntity
  8
OBJECT
100
AcDbLine
 10
42.96405156500262
 20
42.35218763790624
 30
0.0
 11
43.96405158500264
 21
42.35218763790624
 31
0.0
  0
LWPOLYLINE
  5
1A70
330
16E2
100
AcDbEntity
  8
OBJECT
100
AcDbPolyline
 90
        4
 70
     0
 43
0.0
 10
41.65155153875247
 20
40.94035771335749
 42
0.217523824832095
 10
42.19405154960257
 20
40.0403576953576
 10
44.73405160040257
 20
40.0403576953576
 42
0.2175238248320952
 10
45.27655161125241
 20
40.94035771335749
  0
LINE
  5
1A76
330
16E2
100
AcDbEntity
  8
OBJECT
100
AcDbLine
 10
45.96405162500245
 20
41.81635773057664
 30
0.0
 11
40.96405152500258
 21
41.81635773057664
 31
0.0
  0
LINE
  5
1A77
330
16E2
100
AcDbEntity
  8
OBJECT
100
AcDbLine
 10
41.35638421812385
 20
41.81635773057664
 30
0.0
 11
45.57171893188095
 21
41.81635773057664
 31
0.0
  0
ARC
  5
1A78
330
16E2
100
AcDbEntity
  8
OBJECT
100
AcDbCircle
 10
43.46405157500251
 20
37.7025499005216
 30
0.0
 40
4.513807837895032
100
AcDbArc
 50
76.49861409937013
 51
103.5013859006297
  0
LINE
  5
1A79
330
16E2
100
AcDbEntity
  8
OBJECT
100
AcDbLine
 10
41.88330105734351
 20
42.21635773841683
 30
0.0
 11
45.04480209266152
 21
42.21635773841683
 31
0.0
  0
LWPOLYLINE
  5
1A7A
330
16E2
100
AcDbEntity
  8
OBJECT
100
AcDbPolyline
 90
       25
 70
     0
 43
0.0
 10
42.40863679145056
 20
21.11709737911594
 10
42.39550073382541
 20
21.09468762071363
 10
42.37243346976103
 20
21.05244257095828
 10
42.34340339486559
 20
20.99365555088123
 10
42.31237890474672
 20
20.92161988151459
 10
42.28332839501216
 20
20.83962888388972
 10
42.26022026127018
 20
20.75097587903823
 10
42.24702289912804
 20
20.65895418799218
 10
42.24770470419409
 20
20.56685713178292
 10
42.26472386285009
 20
20.47738998818825
 10
42.29449772457653
 20
20.39090586197114
 10
42.33193342962723
 20
20.30716981463986
 10
42.37193811825655
 20
20.22594690770332
 10
42.40941893071929
 20
20.14700220266976
 10
42.43928300726927
 20
20.07010076104809
 10
42.4564374881613
 20
19.99500764434704
 10
42.45578951364925
 20
19.92148791407506
 10
42.43444694459888
 20
19.84876939164458
 10
42.39832052432163
 20
19.7739309380814
 10
42.35552171673925
 20
19.69351417431569
 10
42.31416198577446
 20
19.60406072127701
 10
42.28235279534915
 20
19.50211219989508
 10
42.26820560938627
 20
19.38421023109942
 10
42.27983189180756
 20
19.24689643582025
 10
42.31671019757388
 20
19.11709733911592
1001
ACAD
1000
ASC_BOUNDS
1002
{
1070
    19
1005
B43
1002
}
  0
LINE
  5
1A95
330
16E2
100
AcDbEntity
  8
OBJECT
100
AcDbLine
 10
43.32589449894681
 20
45.09035151211298
 30
0.0
 11
43.60220865105817
 21
45.09035151211298
 31
0.0
  0
LINE
  5
1A96
330
16E2
100
AcDbEntity
  8
OBJECT
100
AcDbLine
 10
43.32589449894681
 20
45.47210740342539
 30
0.0
 11
43.32589449894681
 21
45.09035151211298
 31
0.0
  0
ARC
  5
1A97
330
16E2
100
AcDbEntity
  8
OBJECT
100
AcDbCircle
 10
43.46405157500251
 20
44.56325902723063
 30
0.0
 40
0.9192892627330694
100
AcDbArc
 50
98.64354957234503
 51
155.7821696267195
  0
LINE
  5
1A98
330
16E2
100
AcDbEntity
  8
OBJECT
100
AcDbLine
 10
43.60220865105817
 20
45.47210740342539
 30
0.0
 11
43.60220865105817
 21
45.09035151211298
 31
0.0
  0
ARC
  5
1A99
330
16E2
100
AcDbEntity
  8
OBJECT
100
AcDbCircle
 10
41.88330105734351
 20
41.04112739421553
 30
0.0
 40
1.175230344201217
100
AcDbArc
 50
63.36200291983725
 51
116.6379970801627
  0
LINE
  5
1A9A
330
16E2
100
AcDbEntity
  8
OBJECT
100
AcDbLine
 10
41.35638421812385
 20
42.09161537914349
 30
0.0
 11
41.35638421812385
 21
41.81635773057664
 31
0.0
  0
LINE
  5
1A9B
330
16E2
100
AcDbEntity
  8
OBJECT
100
AcDbLine
 10
40.96405152500258
 20
41.81635773057664
 30
0.0
 11
40.96405152500258
 21
41.69235772809668
 31
0.0
  0
LINE
  5
1A9C
330
16E2
100
AcDbEntity
  8
OBJECT
100
AcDbLine
 10
42.41021789656317
 20
42.09161537914349
 30
0.0
 11
42.41021789656317
 21
41.81635773057664
 31
0.0
  0
LINE
  5
1A9D
330
16E2
100
AcDbEntity
  8
OBJECT
100
AcDbLine
 10
42.21605205024096
 20
44.44035778355749
 30
0.0
 11
42.21605205024096
 21
42.21635773841683
 31
0.0
  0
LWPOLYLINE
  5
1A9E
330
16E2
100
AcDbEntity
  8
OBJECT
100
AcDbPolyline
 90
        6
 70
     0
 43
0.0
 10
46.46385163139851
 20
41.69235772864692
 10
46.46385163139851
 20
42.31635774112161
 10
51.46385165139875
 20
42.31635774112161
 10
51.4638516513983
 20
40.3163577011216
 10
46.46385163139851
 20
40.3163577011216
 10
46.46385163139828
 20
40.94035756350772
  0
LWPOLYLINE
  5
1AA6
330
16E2
100
AcDbEntity
  8
OBJECT
100
AcDbPolyline
 90
       12
 70
     1
 43
0.0
 10
51.21585164643832
 20
40.56435770608157
 10
50.23185162675716
 20
40.56435770608157
 10
50.23185162675716
 20
40.86035771200153
 10
49.98385162179719
 20
40.86035771200175
 10
49.98385162179741
 20
40.56435770608135
 10
48.46385159139734
 20
40.56435770608157
 10
48.4638515913971
 20
42.06835773616164
 10
49.98385162179719
 20
42.06835773616164
 10
49.98385162179741
 20
41.77235773024146
 10
50.23185162675739
 20
41.77235773024146
 10
50.23185162675716
 20
42.06835773616164
 10
51.21585164643855
 20
42.06835773616164
  0
LWPOLYLINE
  5
1AB4
330
16E2
100
AcDbEntity
  8
OBJECT
100
AcDbPolyline
 90
        4
 70
     1
 43
0.0
 10
50.29585162803735
 20
42.0423577356416
 10
51.21585164643855
 20
42.0423577356416
 10
51.21585164643855
 20
40.5903577066014
 10
50.29585162803758
 20
40.5903577066014
  0
LWPOLYLINE
  5
1ABA
330
16E2
100
AcDbEntity
  8
OBJECT
100
AcDbPolyline
 90
        6
 70
     0
 43
0.0
 10
46.46385163139487
 20
20.49309736663556
 10
46.46385163139487
 20
21.1170973791159
 10
51.46385165139513
 20
21.1170973791159
 10
51.46385165139466
 20
19.11709733911586
 10
46.46385163139487
 20
19.11709733911586
 10
46.46385163139487
 20
19.74109720149637
  0
LWPOLYLINE
  5
1AC2
330
16E2
100
AcDbEntity
  8
OBJECT
100
AcDbPolyline
 90
       12
 70
     1
 43
0.0
 10
51.2158516464347
 20
19.36509734407582
 10
50.23185170675495
 20
19.36509734407582
 10
50.23185170675495
 20
19.66109734999556
 10
49.98385170179474
 20
19.66109734999579
 10
49.98385170179496
 20
19.3650973440756
 10
48.46385167139513
 20
19.36509734407582
 10
48.46385167139491
 20
20.86909737415569
 10
49.98385170179474
 20
20.86909737415569
 10
49.98385170179496
 20
20.57309736823574
 10
50.23185170675517
 20
20.57309736823574
 10
50.23185170675495
 20
20.86909737415569
 10
51.21585164643491
 20
20.86909737415569
  0
LWPOLYLINE
  5
1AD0
330
16E2
100
AcDbEntity
  8
OBJECT
100
AcDbPolyline
 90
        4
 70
     1
 43
0.0
 10
50.29585170803492
 20
20.84309737363562
 10
51.21585164643491
 20
20.84309737363562
 10
51.21585164643491
 20
19.39109734459568
 10
50.29585170803514
 20
19.39109734459568
  0
LWPOLYLINE
  5
1AD6
330
16E2
100
AcDbEntity
  8
OBJECT
100
AcDbPolyline
 90
       24
 70
     1
 43
0.0
 10
52.21385166643628
 20
40.25235778355733
 42
-0.4142135623730951
 10
51.83785165891638
 20
40.62835779107722
 10
51.83785165891638
 20
42.87635777603719
 42
-0.4142135623730887
 10
52.21385166643628
 20
43.25235778355732
 10
53.33785165891637
 20
43.25235778355732
 10
53.33785165891637
 20
42.94035777731736
 10
52.21385166643628
 20
42.94035777731736
 42
0.4142135623730951
 10
52.14985166515631
 20
42.87635777603742
 10
52.14985166515631
 20
40.62835779107745
 42
0.4142135623730879
 10
52.21385166643628
 20
40.56435778979727
 10
57.21385165139626
 20
40.56435778979727
 42
0.4142135623730943
 10
57.27785165267643
 20
40.62835779107745
 10
57.27785165267643
 20
45.7523578935573
 42
0.4142135623730951
 10
57.21385165139648
 20
45.81635789483724
 10
55.02985160771618
 20
45.81635789483724
 42
-0.4142135623730951
 10
54.65385160019628
 20
46.19235790235738
 10
54.65385160019628
 20
48.37635794603722
 10
54.96585160643622
 20
48.37635794603722
 10
54.96585160643622
 20
46.19235790235738
 42
0.4142135623730951
 10
55.02985160771618
 20
46.12835790107721
 10
57.21385165139648
 20
46.12835790107744
 42
-0.4142135623730951
 10
57.58985165891639
 20
45.7523578935573
 10
57.58985165891639
 20
40.62835779107722
 42
-0.4142135623730919
 10
57.21385165139648
 20
40.25235778355733
  0
LINE
  5
1AF0
330
16E2
100
AcDbEntity
  8
OBJECT
100
AcDbLine
 10
45.96405162500245
 20
41.81635773057664
 30
0.0
 11
45.96405162500245
 21
41.69235772809668
 31
0.0
  0
LINE
  5
1AF1
330
16E2
100
AcDbEntity
  8
OBJECT
100
AcDbLine
 10
45.96405162500245
 20
41.81635773007736
 30
0.0
 11
44.7120515989641
 21
41.81635773007736
 31
0.0
  0
LINE
  5
1AF2
330
16E2
100
AcDbEntity
  8
OBJECT
100
AcDbLine
 10
45.57171893188095
 20
42.09161537914349
 30
0.0
 11
45.57171893188095
 21
41.81635773057664
 31
0.0
  0
LINE
  5
1AF3
330
16E2
100
AcDbEntity
  8
OBJECT
100
AcDbLine
 10
44.51788525344183
 20
42.09161537914349
 30
0.0
 11
44.51788525344183
 21
41.81635773057664
 31
0.0
  0
LINE
  5
1AF4
330
16E2
100
AcDbEntity
  8
OBJECT
100
AcDbLine
 10
44.51788525344183
 20
42.21635773841683
 30
0.0
 11
45.04480209266152
 21
42.21635773841683
 31
0.0
  0
ARC
  5
1AF5
330
16E2
100
AcDbEntity
  8
OBJECT
100
AcDbCircle
 10
45.04480209266152
 20
41.04112739421553
 30
0.0
 40
1.175230344201217
100
AcDbArc
 50
63.36200291983725
 51
116.6379970801627
  0
LINE
  5
1AF6
330
16E2
100
AcDbEntity
  8
OBJECT
100
AcDbLine
 10
44.71605209924089
 20
44.44035778355749
 30
0.0
 11
44.71605209924089
 21
42.21635773841683
 31
0.0
  0
LINE
  5
1AF7
330
16E2
100
AcDbEntity
  8
OBJECT
100
AcDbLine
 10
48.0527776154778
 20
62.65873411293249
 30
0.0
 11
41.9663532417327
 21
62.65873411293249
 31
0.0
  0
LINE
  5
1AF8
330
16E2
100
AcDbEntity
  8
OBJECT
100
AcDbLine
 10
49.82077765083763
 20
64.42673414829254
 30
0.0
 11
47.08077759603784
 21
64.42673414829254
 31
0.0
  0
LINE
  5
1AF9
330
16E2
100
AcDbEntity
  8
OBJECT
100
AcDbLine
 10
49.57277764587765
 20
64.17873414333235
 30
0.0
 11
47.08077759603784
 21
64.17873414333235
 31
0.0
  0
LINE
  5
1AFA
330
16E2
100
AcDbEntity
  8
OBJECT
100
AcDbLine
 10
46.05277757547802
 20
60.65873407293269
 30
0.0
 11
50.08477765611783
 21
64.6907341535725
 31
0.0
  0
LWPOLYLINE
  5
1AFB
330
16E2
100
AcDbEntity
  8
OBJECT
100
AcDbPolyline
 90
        7
 70
     0
 43
0.0
 10
47.08077759603756
 20
64.49073414957279
 10
47.64477760731834
 20
64.49073414957279
 10
47.64477760731834
 20
64.69073415357279
 10
50.08477765611778
 20
64.69073415357279
 10
50.08477765611778
 20
62.25073410477289
 10
49.88477765211777
 20
62.25073410477289
 10
49.88477765211777
 20
61.68673409349257
  0
LWPOLYLINE
  5
1B04
330
16E2
100
AcDbEntity
  8
OBJECT
100
AcDbPolyline
 90
        3
 70
     0
 43
0.0
 10
50.80477767051783
 20
61.68673409349257
 10
50.80477767051783
 20
65.41073416797262
 10
47.08077759603802
 20
65.41073416797262
  0
LWPOLYLINE
  5
1B09
330
16E2
100
AcDbEntity
  8
OBJECT
100
AcDbPolyline
 90
        3
 70
     0
 43
0.0
 10
47.08077759603802
 20
65.41073416797262
 10
50.80477767051783
 20
65.41073416797262
 10
50.80477767051783
 20
61.68673409349257
  0
LWPOLYLINE
  5
1B0E
330
16E2
100
AcDbEntity
  8
OBJECT
100
AcDbPolyline
 90
       71
 70
     0
 43
0.0
 10
51.05277767547781
 20
56.72826541122893
 10
50.85599779275852
 20
56.63227706713229
 10
50.6801593847441
 20
56.58701465956532
 10
50.52356145543249
 20
56.58185566633282
 10
50.38450300882034
 20
56.60617756524088
 10
50.26128304890526
 20
56.64935783409423
 10
50.15220057968448
 20
56.70077395069829
 10
50.05555460515516
 20
56.74980339285871
 10
49.969644129315
 20
56.78582363838045
 10
49.89283057489352
 20
56.8007099942661
 10
49.82372503955216
 20
56.79632908430725
 10
49.76100103968438
 20
56.77704536149217
 10
49.70333209168401
 20
56.74722327880957
 10
49.64939171194473
 20
56.711227289248
 10
49.5978534168606
 20
56.6734218457962
 10
49.54739072282504
 20
56.63817140144242
 10
49.49667714623192
 20
56.60984040917519
 10
49.44464014587092
 20
56.59183083179623
 10
49.39122295011689
 20
56.58369467135803
 10
49.33662272973979
 20
56.58402143972653
 10
49.28103665551031
 20
56.59140064876673
 10
49.22466189819861
 20
56.60442181034459
 10
49.16769562857584
 20
56.62167443632601
 10
49.11033501741221
 20
56.64174803857581
 10
49.05277723547769
 20
56.66323212896013
 10
48.9952194535434
 20
56.68471621934468
 10
48.93785884237956
 20
56.70478982159472
 10
48.88089257275677
 20
56.7220424475759
 10
48.8245178154453
 20
56.73506360915375
 10
48.7689317412158
 20
56.74244281819419
 10
48.71433152083874
 20
56.74276958656246
 10
48.66091432508446
 20
56.73463342612425
 10
48.60887732472369
 20
56.7166238487453
 10
48.55826552567904
 20
56.68818825432394
 10
48.50851527448329
 20
56.65220559488971
 10
48.45891075282096
 20
56.61241271050521
 10
48.40873614237747
 20
56.57254644123286
 10
48.35727562483756
 20
56.53634362713527
 10
48.3038133818862
 20
56.50754110827509
 10
48.24763359520814
 20
56.4898757247145
 10
48.18802044648859
 20
56.48708431651611
 10
48.12448701958111
 20
56.5015755741081
 10
48.0574620070125
 20
56.53044558938066
 10
47.98760300347963
 20
56.56946230458929
 10
47.91556760367789
 20
56.6143936619899
 10
47.84201340230388
 20
56.66100760383852
 10
47.76759799405303
 20
56.70507207239033
 10
47.69297897362191
 20
56.74235500990157
 10
47.61881393570601
 20
56.76862435862794
 10
47.54562771802746
 20
56.78067102141863
 10
47.47341413040871
 20
56.77937774349611
 10
47.40203422569865
 20
56.76665023067657
 10
47.33134905674577
 20
56.74439418877664
 10
47.26121967639876
 20
56.71451532361179
 10
47.19150713750591
 20
56.67891934099866
 10
47.12207249291608
 20
56.63951194675319
 10
47.05277679547779
 20
56.59819884669154
 10
46.98348109803927
 20
56.55688574662988
 10
46.91404645344944
 20
56.51747835238444
 10
46.84433391455658
 20
56.4818823697713
 10
46.77420453420959
 20
56.45200350460668
 10
46.7035193652567
 20
56.42974746270652
 10
46.63213946054663
 20
56.41701994988697
 10
46.5599258729281
 20
56.41572667196468
 10
46.48673965524912
 20
56.42777333475514
 10
46.4125160604138
 20
56.45395342297506
 10
46.33748714154385
 20
56.49061153694225
 10
46.26195915181651
 20
56.53298005587389
 10
46.18623834440913
 20
56.57629135898814
 10
46.11063097249878
 20
56.61577782550265
 10
46.05277757547795
 20
56.63954931704193
  0
LWPOLYLINE
  5
1B57
330
16E2
100
AcDbEntity
  8
OBJECT
100
AcDbPolyline
 90
        3
 70
     0
 43
0.0
 10
41.77114968351823
 20
65.65873417293281
 10
51.05277767547781
 20
65.65873417293281
 10
51.05277767547781
 20
56.72826541122893
  0
LWPOLYLINE
  5
1B5C
330
16E2
100
AcDbEntity
  8
OBJECT
100
AcDbPolyline
 90
        3
 70
     0
 43
0.0
 10
41.85986577770527
 20
60.65873407293274
 10
46.0527775754782
 20
60.65873407293274
 10
46.05277757547795
 20
56.63954931704193
  0
LINE
  5
1B61
330
16E2
100
AcDbEntity
  8
OBJECT
100
AcDbLine
 10
47.80477761051783
 20
62.41073410797252
 30
0.0
 11
47.80477761051783
 21
56.68305646999032
 31
0.0
  0
LWPOLYLINE
  5
1B62
330
16E2
100
AcDbEntity
  8
OBJECT
100
AcDbPolyline
 90
       71
 70
     0
 43
0.0
 10
41.77114968351823
 20
65.65873417293281
 10
41.86713802761491
 20
65.46195429021331
 10
41.91240043518209
 20
65.28611588219909
 10
41.91755942841411
 20
65.12951795288728
 10
41.89323752950651
 20
64.99045950627515
 10
41.85005726065296
 20
64.86723954636004
 10
41.7986411440489
 20
64.75815707713927
 10
41.74961170188848
 20
64.66151110261016
 10
41.71359145636674
 20
64.5756006267698
 10
41.69870510048108
 20
64.49878707234853
 10
41.70308601043991
 20
64.42968153700694
 10
41.72236973325502
 20
64.36695753713938
 10
41.75219181593758
 20
64.30928858913903
 10
41.78818780549895
 20
64.25534820939974
 10
41.82599324895099
 20
64.2038099143156
 10
41.86124369330477
 20
64.15334722028004
 10
41.889574685572
 20
64.1026336436867
 10
41.90758426295096
 20
64.05059664332593
 10
41.91572042338916
 20
63.99717944757167
 10
41.91539365502086
 20
63.94257922719456
 10
41.90801444598043
 20
63.88699315296506
 10
41.89499328440259
 20
63.8306183956536
 10
41.87774065842138
 20
63.77365212603085
 10
41.85766705617138
 20
63.716291514867
 10
41.83618296578683
 20
63.6587337329327
 10
41.81469887540251
 20
63.6011759509984
 10
41.79462527315249
 20
63.54381533983453
 10
41.77737264717129
 20
63.48684907021156
 10
41.76435148559343
 20
63.43047431290032
 10
41.75697227655322
 20
63.37488823867081
 10
41.75664550818473
 20
63.32028801829372
 10
41.76478166862292
 20
63.26687082253946
 10
41.78279124600189
 20
63.21483382217848
 10
41.81122684042323
 20
63.16422202313383
 10
41.84720949985771
 20
63.11447177193809
 10
41.88700238424198
 20
63.06486725027596
 10
41.92686865351433
 20
63.0146926398325
 10
41.96307146761168
 20
62.96323212229257
 10
41.99187398647207
 20
62.909769879341
 10
42.00953937003267
 20
62.85359009266318
 10
42.01233077823107
 20
62.79397694394361
 10
41.99783952063905
 20
62.73044351703589
 10
41.96896950536673
 20
62.6634185044675
 10
41.92995279015788
 20
62.59355950093439
 10
41.88502143275726
 20
62.52152410113289
 10
41.83840749090888
 20
62.44796989975864
 10
41.79434302235684
 20
62.37355449150804
 10
41.75706008484562
 20
62.29893547107671
 10
41.730790736119
 20
62.22477043316103
 10
41.71874407332855
 20
62.15158421548225
 10
41.72003735125108
 20
62.07937062786349
 10
41.7327648640706
 20
62.00799072315344
 10
41.75502090597077
 20
61.93730555420057
 10
41.78489977113538
 20
61.86717617385355
 10
41.82049575374853
 20
61.79746363496092
 10
41.859903147994
 20
61.7280289903711
 10
41.90121624805564
 20
61.65873329293257
 10
41.94252934811729
 20
61.58943759549406
 10
41.98193674236274
 20
61.52000295090424
 10
42.01753272497587
 20
61.45029041201159
 10
42.04741159014051
 20
61.38016103166437
 10
42.06966763204067
 20
61.30947586271171
 10
42.08239514486019
 20
61.23809595800167
 10
42.08368842278273
 20
61.1658823703829
 10
42.07164175999205
 20
61.09269615270413
 10
42.04546167177212
 20
61.01847255786861
 10
42.00880355780518
 20
60.94344363899863
 10
41.96643503887329
 20
60.86791564927152
 10
41.92312373575926
 20
60.79219484186392
 10
41.88363726924451
 20
60.71658746995357
 10
41.85986577770527
 20
60.65873407293274
  0
LINE
  5
1BAB
330
16E2
100
AcDbEntity
  8
OBJECT
100
AcDbLine
 10
47.80477761051783
 20
62.41073410797252
 30
0.0
 11
41.81635862475687
 21
62.41073410797252
 31
0.0
  0
LINE
  5
1BAC
330
16E2
100
AcDbEntity
  8
OBJECT
100
AcDbLine
 10
46.52877758499804
 20
64.17873414333235
 30
0.0
 11
41.84350979432306
 21
64.17873414333235
 31
0.0
  0
LWPOLYLINE
  5
1BAD
330
16E2
100
AcDbEntity
  8
OBJECT
100
AcDbPolyline
 90
        2
 70
     0
 43
0.0
 10
41.88032255353649
 20
65.41073416797262
 10
46.52877758499798
 20
65.41073416797262
  0
LWPOLYLINE
  5
1BB1
330
16E2
100
AcDbEntity
  8
OBJECT
100
AcDbPolyline
 90
        3
 70
     0
 43
0.0
 10
42.80477751051838
 20
65.41073416797262
 10
42.80477751051838
 20
64.49073414957279
 10
46.52877758499798
 20
64.49073414957279
  0
LWPOLYLINE
  5
1BB6
330
16E2
100
AcDbEntity
  8
OBJECT
100
AcDbPolyline
 90
        2
 70
     0
 43
0.0
 10
46.52877758499798
 20
65.41073416797262
 10
42.80477751051838
 20
65.41073416797262
  0
LINE
  5
1BBA
330
16E2
100
AcDbEntity
  8
OBJECT
100
AcDbLine
 10
46.52877758499804
 20
64.42673414829254
 30
0.0
 11
41.7039921488737
 21
64.42673414829254
 31
0.0
  0
LWPOLYLINE
  5
1BBB
330
16E2
100
AcDbEntity
  8
OBJECT
100
AcDbPolyline
 90
       12
 70
     1
 43
0.0
 10
46.74102158924287
 20
65.65873417293261
 10
46.32177758085808
 20
65.65873417293261
 10
46.52877758499798
 20
65.4120411743318
 10
46.52877758499798
 20
63.22773412431279
 10
46.59777758637787
 20
63.15873412293267
 10
47.0117775946579
 20
63.15873412293267
 10
47.08077759603802
 20
63.22773412431279
 10
47.08077759603802
 20
65.4120411743318
 10
47.2877776001779
 20
65.65873417293261
 10
46.86853359179312
 20
65.65873417293261
 10
46.86853359179312
 20
65.52073417017258
 10
46.74102158924287
 20
65.52073417017258
  0
LINE
  5
1BC9
330
16E2
100
AcDbEntity
  8
OBJECT
100
AcDbLine
 10
46.52877758499804
 20
63.22773412431271
 30
0.0
 11
47.08077759603784
 21
63.22773412431271
 31
0.0
  0
LINE
  5
1BCA
330
16E2
100
AcDbEntity
  8
OBJECT
  6
ByBlock
 62
     0
100
AcDbLine
 10
47.08077759603805
 20
65.41204117433172
 30
0.0
 11
46.52877758499804
 21
65.41204117433172
 31
0.0
  0
LWPOLYLINE
  5
1BCB
330
16E2
100
AcDbEntity
  8
OBJECT
100
AcDbPolyline
 90
        2
 70
     0
 43
0.0
 10
50.80477767051783
 20
61.13473408245274
 10
50.80477767051783
 20
56.61909254121069
  0
LINE
  5
1BCF
330
16E2
100
AcDbEntity
  8
OBJECT
100
AcDbLine
 10
49.57277764587743
 20
61.13473408245271
 30
0.0
 11
49.57277764587743
 21
56.65590530042414
 31
0.0
  0
LINE
  5
1BD0
330
16E2
100
AcDbEntity
  8
OBJECT
100
AcDbLine
 10
49.82077765083763
 20
61.13473408245271
 30
0.0
 11
49.82077765083763
 21
56.79542294587348
 31
0.0
  0
LINE
  5
1BD1
330
16E2
100
AcDbEntity
  8
OBJECT
100
AcDbLine
 10
48.0527776154778
 20
62.65873411293249
 30
0.0
 11
48.0527776154778
 21
56.53306185301445
 31
0.0
  0
LINE
  5
1BD2
330
16E2
100
AcDbEntity
  8
OBJECT
  6
ByBlock
 62
     0
100
AcDbLine
 10
50.80608467687731
 20
61.13473408245271
 30
0.0
 11
50.80608467687731
 21
61.68673409349253
 31
0.0
  0
LINE
  5
1BD3
330
16E2
100
AcDbEntity
  8
OBJECT
100
AcDbLine
 10
48.62177762685783
 20
61.68673409349253
 30
0.0
 11
48.62177762685783
 21
61.13473408245271
 31
0.0
  0
LWPOLYLINE
  5
1BD4
330
16E2
100
AcDbEntity
  8
OBJECT
  6
ByBlock
 62
     0
100
AcDbPolyline
 90
       12
 70
     1
 43
0.0
 10
50.80608467687703
 20
61.68673409349257
 10
48.62177762685777
 20
61.68673409349257
 10
48.55277762547788
 20
61.61773409211268
 10
48.55277762547788
 20
61.20373408383263
 10
48.62177762685777
 20
61.13473408245274
 10
50.80608467687724
 20
61.13473408245274
 10
51.05277767547804
 20
60.92773407831287
 10
51.05277767547804
 20
61.34697808669764
 10
50.91477767271825
 20
61.34697808669764
 10
50.91477767271825
 20
61.47449008924789
 10
51.05277767547804
 20
61.47449008924789
 10
51.05277767547804
 20
61.8937340976327
  0
LWPOLYLINE
  5
1BE2
330
16E2
100
AcDbEntity
  8
OBJECT
100
AcDbPolyline
 90
        4
 70
     0
 43
0.0
 10
49.88477765211777
 20
61.13473408245274
 10
49.88477765211777
 20
57.41073400797271
 10
50.80477767051783
 20
57.41073400797247
 10
50.80477767051783
 20
61.13473408245274
  0
LINE
  5
1BE8
330
16E2
100
AcDbEntity
  8
CENTER
100
AcDbLine
 10
48.55277762547794
 20
61.41073408797272
 30
0.0
 11
51.55277768547799
 21
61.41073408797272
 31
0.0
  0
LINE
  5
1BE9
330
16E2
100
AcDbEntity
  8
OBJECT
100
AcDbLine
 10
49.82077765083763
 20
64.42673414829254
 30
0.0
 11
49.82077765083763
 21
61.68673409349253
 31
0.0
  0
LINE
  5
1BEA
330
16E2
100
AcDbEntity
  8
OBJECT
100
AcDbLine
 10
49.57277764587765
 20
64.17873414333235
 30
0.0
 11
49.57277764587765
 21
61.68673409349253
 31
0.0
  0
LINE
  5
1BEB
330
16E2
100
AcDbEntity
  8
OBJECT
100
AcDbLine
 10
50.80477767051789
 20
65.41073416797257
 30
0.0
 11
51.05277767547787
 21
65.65873417293278
 31
0.0
  0
LINE
  5
1BEC
330
16E2
100
AcDbEntity
  8
CENTER
100
AcDbLine
 10
46.80477759051805
 20
63.1587341229326
 30
0.0
 11
46.80477759051805
 21
66.15873418293265
 31
0.0
  0
LINE
  5
1BFB
330
16E2
100
AcDbEntity
  8
CENTER
100
AcDbLine
 10
43.46405157500257
 20
46.75105529064135
 30
0.0
 11
43.46405157500257
 21
38.71799623200627
 31
0.0
  0
TEXT
  5
1BFC
330
16E2
100
AcDbEntity
  8
TEXT
100
AcDbText
 10
41.86981043074812
 20
31.78334417897002
 30
0.0
 40
0.9379999999999999
  1
%%uSECTION "B-B"
 41
0.8
  7
SECTION
 72
     1
 11
46.50978376408146
 21
31.78334417897002
 31
0.0
100
AcDbText
  0
DIMENSION
  5
1BFD
330
16E2
100
AcDbEntity
  8
DIM
100
AcDbDimension
  2
*D12
 10
51.4638516513983
 20
37.98327046283556
 30
0.0
 11
47.46395161320044
 21
37.98327046283556
 31
0.0
 70
    32
 71
     5
 42
1.999950019098932
  3
23NSTD4
100
AcDbAlignedDimension
 13
43.46405157500257
 23
38.71799623200627
 33
0.0
 14
51.4638516513983
 24
40.3163577011216
 34
0.0
100
AcDbRotatedDimension
  0
TEXT
  5
1C0B
330
16E2
100
AcDbEntity
  8
DIM
100
AcDbText
 10
43.56930992032522
 20
38.56768985496697
 30
0.0
 40
0.75
  1
L
 41
0.75
  7
TXT
 72
     1
 11
43.75680992032523
 21
38.56768985496697
 31
0.0
100
AcDbText
  0
TEXT
  5
1C0C
330
16E2
100
AcDbEntity
  8
DIM
100
AcDbText
 10
43.33990245335538
 20
39.09148398770584
 30
0.0
 40
0.75
  1
C
 41
0.75
  7
TXT
 72
     1
 11
43.52740245335538
 21
39.09148398770584
 31
0.0
100
AcDbText
  0
INSERT
  5
1C0D
330
16E2
100
AcDbEntity
  8
OBJECT
  6
Continuous
100
AcDbBlockReference
  2
*X2
 10
0.9704853793977008
 20
0.0
 30
0.0
1001
ACAD
1000
HATCH
1002
{
1070
    19
1000
ANSI31
1040
2.5
1040
3.141592653589791
1000
R14_HATCH_DATA
1000
79F
1011
1.9704853793977
1021
0.0
1031
0.0
1011
0.9704853793977008
1021
1.0
1031
0.0
1011
0.9704853793977008
1021
0.0
1031
1.0
1040
0.0
1010
0.0
1020
0.0
1030
1.0
1000
ANSI31
1070
     0
1070
     0
1071
        5
1071
        7
1070
     0
1070
     1
1071
        7
1040
46.83429223112013
1040
62.41073410797252
1040
47.0822922360801
1040
62.65873411293249
1040
47.08229223608014
1040
56.53306185301445
1040
47.01711762408186
1040
56.56946230458935
1040
46.94508222428038
1040
56.61439366198925
1040
46.87152802290632
1040
56.66100760383845
1040
46.8342922311201
1040
56.68305646999037
1071
        0
1071
        7
1070
     0
1070
     1
1071
        8
1040
48.60229226647973
1040
61.13473408245274
1040
48.85029227143993
1040
61.13473408245274
1040
48.85029227143991
1040
56.79542294587353
1040
48.79051566028658
1040
56.77704536149221
1040
48.73284671228629
1040
56.74722327880957
1040
48.67890633254726
1040
56.7112272892481
1040
48.62736803746351
1040
56.6734218457969
1040
48.60229226647973
1040
56.65590530042431
1071
        0
1071
        7
1070
     0
1070
     1
1071
        4
1040
48.60229226647994
1040
64.1787341433323
1040
48.85029227143993
1040
64.42673414829231
1040
48.85029227143993
1040
61.68673409349257
1040
48.60229226647998
1040
61.68673409349257
1071
        0
1071
        7
1070
     0
1070
     1
1071
        5
1040
50.08229229608011
1040
61.89373409763248
1040
49.83559929747936
1040
61.68673409349257
1040
49.8342922911201
1040
61.68673409349257
1040
49.83429229112015
1040
65.41073416797249
1040
50.08229229608014
1040
65.65873417293268
1071
        0
1071
        7
1070
     0
1070
     1
1071
        6
1040
49.83429229112013
1040
61.13473408245274
1040
49.83559929747954
1040
61.13473408245274
1040
50.08229229608011
1040
60.92773407831307
1040
50.08229229608011
1040
56.72826541122893
1040
49.88551241336079
1040
56.63227706713229
1040
49.83429229112013
1040
56.61909254121063
1071
        0
1070
     0
1070
     1
1040
3.141592653589791
1040
2.5
1070
     0
1070
     1
1040
5.497787143782137
1040
234.6024843515641
1040
-2.555278300071036
1040
-0.2209708691207961
1040
-0.2209708691207961
1070
     0
1040
0.0223078018354246
1071
        5
1040
46.93080647812766
1040
59.87945280109618
1040
0.0
1040
48.6946077939958
1040
59.58945119138093
1040
0.0
1040
48.6946077939958
1040
62.80177482064191
1040
0.0
1040
49.96722365066054
1040
63.58254775401359
1040
0.0
1040
49.94489728052322
1040
59.56714351051606
1040
0.0
1002
}
  0
LWPOLYLINE
  5
1C0E
330
16E2
100
AcDbEntity
  8
OBJECT
100
AcDbPolyline
 90
        4
 70
     0
 43
0.0
 10
39.05520028075167
 20
40.94035756350211
 10
47.83985165891587
 20
40.94035756350211
 10
47.83985165891587
 20
41.69235772864129
 10
38.93609016090655
 20
41.69235772864129
  0
LWPOLYLINE
  5
1C14
330
16E2
100
AcDbEntity
  8
OBJECT
100
AcDbPolyline
 90
       12
 70
     0
 43
0.0
 10
38.9360901609066
 20
41.69235772864129
 10
38.93907814459675
 20
41.67665035019394
 10
38.96885200632321
 20
41.59016622397682
 10
39.00628771137391
 20
41.50643017664553
 10
39.04629240000323
 20
41.42520726970899
 10
39.08377321246595
 20
41.34626256467544
 10
39.11363728901594
 20
41.26936112305378
 10
39.13079176990797
 20
41.19426800635272
 10
39.13014379539592
 20
41.12074827608073
 10
39.10880122634555
 20
41.04802975365026
 10
39.0726748060683
 20
40.97319130008708
 10
39.05520028075162
 20
40.94035756350211
  0
DIMENSION
  5
1C22
330
16E2
100
AcDbEntity
  8
DIM
100
AcDbDimension
  2
*D13
 10
41.15213837306378
 20
19.7739309380814
 30
0.0
 11
37.32901337306378
 21
17.61393093808141
 31
0.0
 70
   160
  1
0.187 REF.
 71
     5
 42
0.1797916071385535
  3
23NSTD4
100
AcDbAlignedDimension
 13
42.26173587915994
 23
20.49309736663562
 33
0.0
 14
42.39832052432163
 24
19.7739309380814
 34
0.0
 50
90.0
100
AcDbRotatedDimension
  0
TEXT
  5
1C30
330
16E2
100
AcDbEntity
  8
TEXT
100
AcDbText
 10
43.52965745711657
 20
11.84657920171547
 30
0.0
 40
0.9379999999999999
  1
%%uSECTION "C-C"
 41
0.8
  7
SECTION
 72
     1
 11
48.13389745711656
 21
11.84657920171547
 31
0.0
100
AcDbText
  0
TEXT
  5
1C61
330
16E2
100
AcDbEntity
  8
OBJECT
100
AcDbText
 10
454.451322601508
 20
21.24049929150629
 30
0.0
 40
0.625
  1
 
 41
0.75
  7
TXT
 72
     4
 11
454.685697601508
 21
21.24049929150629
 31
0.0
100
AcDbText
  0
INSERT
  5
1C62
330
16E2
100
AcDbEntity
  8
OBJECT
100
AcDbBlockReference
  2
*X3
 10
0.9704853793977008
 20
0.0
 30
0.0
1001
ACAD
1000
HATCH
1002
{
1070
    19
1000
ANSI32
1040
1.5
1040
1.570796326794894
1000
R14_HATCH_DATA
1000
7B6
1011
1.9704853793977
1021
0.0
1031
0.0
1011
0.9704853793977008
1021
1.0
1031
0.0
1011
0.9704853793977008
1021
0.0
1031
1.0
1040
0.0
1010
0.0
1020
0.0
1030
1.0
1000
ANSI32
1070
     0
1070
     0
1071
        3
1071
        7
1070
     0
1070
     1
1071
        4
1040
48.91429227272007
1040
61.13473408245274
1040
49.83429229112015
1040
61.13473408245278
1040
49.83429229112013
1040
57.41073400797247
1040
48.91429227272006
1040
57.41073400797271
1071
        0
1071
        7
1070
     0
1070
     1
1071
       10
1040
46.11029221664032
1040
65.4107341679726
1040
49.83429229112013
1040
65.41073416797265
1040
49.83429229112015
1040
61.68673409349257
1040
48.91429227272007
1040
61.68673409349257
1040
48.91429227272007
1040
62.25073410477289
1040
49.11429227672008
1040
62.25073410477289
1040
49.11429227672008
1040
64.69073415357279
1040
46.67429222792065
1040
64.69073415357279
1040
46.67429222792064
1040
64.49073414957279
1040
46.11029221664032
1040
64.4907341495728
1071
        0
1071
        7
1070
     0
1070
     1
1071
        4
1040
41.83429213112068
1040
65.41073416797262
1040
45.55829220560025
1040
65.41073416797262
1040
45.55829220560028
1040
64.49073414957279
1040
41.83429213112068
1040
64.49073414957279
1071
        0
1070
     0
1070
     1
1040
1.570796326794894
1040
1.5
1070
     0
1070
     2
1040
0.7853981633974484
1040
240.5339793021124
1040
-13.54067609913708
1040
0.397747564417433
1040
-0.397747564417433
1070
     0
1040
0.7853981633974484
1040
240.5339793021124
1040
-13.27551105663709
1040
0.397747564417433
1040
-0.397747564417433
1070
     0
1040
0.0222538206339479
1071
        3
1040
49.2771491146457
1040
60.24583206037613
1040
0.0
1040
49.34396691374482
1040
64.89688084419538
1040
0.0
1040
44.24354820470583
1040
64.83011932064801
1040
0.0
1002
}
  0
INSERT
  5
1C63
330
16E2
100
AcDbEntity
  8
0
  6
Continuous
100
AcDbBlockReference
  2
*X4
 10
0.9704853793977008
 20
0.0
 30
0.0
1001
ACAD
1000
HATCH
1002
{
1070
    19
1000
ANSI31
1040
2.5
1040
0.0
1000
R14_HATCH_DATA
1000
7B7
1011
1.9704853793977
1021
0.0
1031
0.0
1011
0.9704853793977008
1021
1.0
1031
0.0
1011
0.9704853793977008
1021
0.0
1031
1.0
1040
0.0
1010
0.0
1020
0.0
1030
1.0
1000
ANSI31
1070
     0
1070
     0
1071
        5
1071
        7
1070
     0
1070
     1
1071
        6
1040
45.35129220146018
1040
65.65873417293284
1040
40.80066430412053
1040
65.65873417293281
1040
40.89665264821717
1040
65.46195429021327
1040
40.9098371741389
1040
65.41073416797262
1040
45.55829220560028
1040
65.41073416797262
1040
45.5582922056003
1040
65.4120411743318
1071
        0
1071
        7
1070
     0
1070
     1
1071
        5
1040
50.08229229608023
1040
65.65873417293281
1040
46.31729222078038
1040
65.65873417293281
1040
46.11029221664032
1040
65.41204117433179
1040
46.11029221664028
1040
65.4107341679726
1040
49.83429229112028
1040
65.41073416797262
1071
        0
1071
        7
1070
     0
1070
     1
1071
        8
1040
45.5582922056003
1040
64.42673414829255
1040
40.73350676947592
1040
64.42673414829254
1040
40.75188435385732
1040
64.3669575371393
1040
40.78170643654019
1040
64.30928858913876
1040
40.81770242610121
1040
64.2553482093996
1040
40.85550786955326
1040
64.20380991431478
1040
40.8730244149252
1040
64.17873414333232
1040
45.55829220560025
1040
64.17873414333232
1071
        0
1071
        7
1070
     0
1070
     1
1071
        4
1040
48.85029227144015
1040
64.42673414829254
1040
46.11029221664032
1040
64.42673414829254
1040
46.11029221664028
1040
64.17873414333235
1040
48.60229226647998
1040
64.17873414333235
1071
        0
1071
        7
1070
     0
1070
     1
1071
        7
1040
47.0822922360801
1040
62.65873411293249
1040
40.99586786233504
1040
62.65873411293249
1040
40.95946741076041
1040
62.59355950093453
1040
40.91453605336034
1040
62.52152410113287
1040
40.86792211151145
1040
62.44796989975895
1040
40.84587324535913
1040
62.41073410797248
1040
46.83429223112017
1040
62.41073410797252
1071
        0
1070
     0
1070
     1
1040
0.0
1040
2.5
1070
     0
1070
     1
1040
0.7853981633974483
1040
-146.3693948299523
1040
-13.54067609913708
1040
-0.2209708691207961
1040
0.2209708691207961
1070
     0
1040
0.0184543881087199
1071
        5
1040
41.54084572100102
1040
65.51021778040598
1040
0.0
1040
46.86018766610223
1040
65.54712654110716
1040
0.0
1040
44.36674605331599
1040
64.32913699093207
1040
0.0
1040
47.45122575010022
1040
64.32913699093207
1040
0.0
1040
44.21898653231646
1040
62.55751558320378
1040
0.0
1002
}
  0
LWPOLYLINE
  5
1C64
330
16E2
100
AcDbEntity
  8
OBJECT
100
AcDbPolyline
 90
       12
 70
     1
 43
0.0
 10
45.46930640899857
 20
44.42161261755347
 10
46.40936946758388
 20
43.48154955896808
 42
0.1989123673796578
 10
46.80817769217306
 20
43.31635778355732
 10
53.0880515750027
 20
43.31635778355732
 10
53.0880515750027
 20
43.81635778355732
 10
46.80817769217306
 20
43.81635778355732
 42
-0.1989123673796586
 10
46.76292285817723
 20
43.83510294956136
 10
45.82285979959187
 20
44.77516600814673
 42
0.1989123673796587
 10
45.42405157500271
 20
44.94035778355753
 10
41.92405157500273
 20
44.94035778355753
 10
41.92405157500273
 20
44.44035778355753
 10
45.42405157500271
 20
44.44035778355753
 42
-0.1989123673796578
  0
LWPOLYLINE
  5
1C72
330
16E2
100
AcDbEntity
  8
OBJECT
100
AcDbPolyline
 90
        4
 70
     0
 43
0.0
 10
46.4638516313948
 20
19.3650973440759
 10
48.21585166643464
 20
19.3650973440759
 10
48.21585166643487
 20
20.86909737415575
 10
46.46385163139505
 20
20.86909737415575
  0
LWPOLYLINE
  5
1C78
330
16E2
100
AcDbEntity
  8
OBJECT
100
AcDbPolyline
 90
        4
 70
     0
 43
0.0
 10
46.4638516313948
 20
40.56435770608157
 10
48.21585166643464
 20
40.56435770608157
 10
48.21585166643487
 20
42.0683577361614
 10
46.46385163139505
 20
42.0683577361614
  0
LWPOLYLINE
  5
1C7E
330
16E2
100
AcDbEntity
  8
OBJECT
100
AcDbPolyline
 90
        8
 70
     1
 43
0.0
 10
54.34585160643263
 20
22.05309778899353
 10
49.41385160643458
 20
22.05309778899353
 10
49.41385160643458
 20
22.30109778899341
 10
54.34585160643263
 20
22.30109778899341
 42
0.4142135623730951
 10
54.40585160643263
 20
22.3610977889934
 10
54.40585160643263
 20
27.37309778899138
 10
54.6538516064325
 20
27.37309778899138
 10
54.6538516064325
 20
22.3610977889934
 42
-0.4142135623730951
  0
LWPOLYLINE
  5
1C88
330
16E2
100
AcDbEntity
  8
OBJECT
100
AcDbPolyline
 90
       10
 70
     1
 43
0.0
 10
51.53585160643377
 20
22.93309778899317
 10
51.78785160643361
 20
22.30109778899338
 10
51.5358516064338
 20
22.30109778899338
 10
51.5358516064338
 20
22.05309778899353
 10
51.91185160643367
 20
22.05309778899353
 42
-0.6975999999999999
 10
49.41185160643465
 20
22.05309778899353
 10
49.78785160643447
 20
22.05309778899353
 10
49.78785160643456
 20
22.30109778899341
 10
49.53585160643463
 20
22.30109778899341
 10
49.78785160643447
 20
22.93309778899317
  0
LWPOLYLINE
  5
1C94
330
16E2
100
AcDbEntity
  8
OBJECT
100
AcDbPolyline
 90
        6
 70
     0
 43
0.0
 10
54.40585160643271
 20
27.14348248432864
 42
0.2546116017424533
 10
53.87410200699988
 20
26.44325465732437
 10
54.25585789067722
 20
26.44325465732437
 10
54.25585789067722
 20
26.16694051073932
 10
53.87410200699988
 20
26.16694051073932
 42
0.254611601742454
 10
54.40585160643271
 20
25.46671268373493
  0
LINE
  5
1C9C
330
16E2
100
AcDbEntity
  8
OBJECT
100
AcDbLine
 10
55.90585160643208
 20
26.63309758403176
 30
0.0
 11
54.96585160643242
 21
26.63309758403176
 31
0.0
  0
LINE
  5
1C9D
330
16E2
100
AcDbEntity
  8
OBJECT
100
AcDbLine
 10
55.90585160643208
 20
25.97709758403196
 30
0.0
 11
54.96585160643242
 21
25.97709758403196
 31
0.0
  0
LINE
  5
1C9E
330
16E2
100
AcDbEntity
  8
OBJECT
100
AcDbLine
 10
55.90585160643208
 20
26.63309758403176
 30
0.0
 11
55.90585160643208
 21
25.97709758403196
 31
0.0
  0
LINE
  5
1C9F
330
16E2
100
AcDbEntity
  8
OBJECT
100
AcDbLine
 10
55.72471577281892
 20
26.63309758403176
 30
0.0
 11
55.72471577281892
 21
25.97709758403196
 31
0.0
  0
LINE
  5
1CA0
330
16E2
100
AcDbEntity
  8
OBJECT
100
AcDbLine
 10
55.80622701078098
 20
26.50220567338041
 30
0.0
 11
55.80622701078098
 21
26.09479123838915
 31
0.0
  0
LINE
  5
1CA1
330
16E2
100
AcDbEntity
  8
OBJECT
100
AcDbLine
 10
55.30810358118074
 20
26.63309758403176
 30
0.0
 11
55.30810358118074
 21
25.97709758403196
 31
0.0
  0
LINE
  5
1CA2
330
16E2
100
AcDbEntity
  8
OBJECT
100
AcDbLine
 10
55.09074058084487
 20
26.63309758403176
 30
0.0
 11
55.09074058084487
 21
25.97709758403196
 31
0.0
  0
LINE
  5
1CA3
330
16E2
100
AcDbEntity
  8
OBJECT
100
AcDbLine
 10
55.40772817683185
 20
26.50220567338041
 30
0.0
 11
55.40772817683185
 21
26.09479123838915
 31
0.0
  0
LINE
  5
1CA4
330
16E2
100
AcDbEntity
  8
OBJECT
100
AcDbLine
 10
55.19942208101283
 20
26.50220567338041
 30
0.0
 11
55.19942208101283
 21
26.09479123838915
 31
0.0
  0
LINE
  5
1CA5
330
16E2
100
AcDbEntity
  8
OBJECT
100
AcDbLine
 10
55.00922956855506
 20
26.50220567338041
 30
0.0
 11
55.00922956855506
 21
26.09479123838915
 31
0.0
  0
LINE
  5
1CA6
330
16E2
100
AcDbEntity
  8
OBJECT
100
AcDbLine
 10
55.5164096769998
 20
26.63309758403176
 30
0.0
 11
55.5164096769998
 21
25.97709758403196
 31
0.0
  0
LINE
  5
1CA7
330
16E2
100
AcDbEntity
  8
OBJECT
100
AcDbLine
 10
55.60697759380641
 20
26.50220567338041
 30
0.0
 11
55.60697759380641
 21
26.09479123838915
 31
0.0
  0
LWPOLYLINE
  5
1CA8
330
16E2
100
AcDbEntity
  8
OBJECT
100
AcDbPolyline
 90
       24
 70
     1
 43
0.0
 10
52.21385166643266
 20
19.05309742155158
 42
-0.4142135623730951
 10
51.83785165891274
 20
19.4290974290715
 10
51.83785165891274
 20
21.67709741403146
 42
-0.4142135623730887
 10
52.21385166643266
 20
22.05309742155158
 10
53.33785165891274
 20
22.05309742155158
 10
53.33785165891274
 20
21.74109741531165
 10
52.21385166643266
 20
21.74109741531165
 42
0.4142135623730951
 10
52.14985166515266
 20
21.67709741403168
 10
52.14985166515266
 20
19.42909742907171
 42
0.4142135623730879
 10
52.21385166643266
 20
19.36509742779153
 10
57.2138516513926
 20
19.36509742779153
 42
0.4142135623730943
 10
57.27785165267281
 20
19.42909742907171
 10
57.27785165267281
 20
24.55309753155157
 42
0.4142135623730951
 10
57.21385165139285
 20
24.61709753283154
 10
55.02985160771255
 20
24.61709753283154
 42
-0.4142135623730951
 10
54.65385160019263
 20
24.99309754035166
 10
54.65385160019263
 20
27.17709758403147
 10
54.9658516064326
 20
27.17709758403147
 10
54.9658516064326
 20
24.99309754035166
 42
0.4142135623730951
 10
55.02985160771255
 20
24.92909753907146
 10
57.21385165139285
 20
24.9290975390717
 42
-0.4142135623730951
 10
57.58985165891273
 20
24.55309753155157
 10
57.58985165891273
 20
19.4290974290715
 42
-0.4142135623730919
 10
57.21385165139285
 20
19.05309742155158
  0
TEXT
  5
1CC2
330
16E2
100
AcDbEntity
  8
TITLE
100
AcDbText
 10
247.2251599450447
 20
17.87747989476629
 30
0.0
 40
0.75
  1
 
 41
0.75
  7
TXT
100
AcDbText
  0
LWPOLYLINE
  5
1CC3
330
16E2
100
AcDbEntity
  8
OBJECT
100
AcDbPolyline
 90
       12
 70
     1
 43
0.0
 10
26.33644377553471
 20
68.06049560122115
 10
26.57145954018105
 20
67.82547983657479
 42
0.1989123673796578
 10
26.67116159632833
 20
67.7841818927221
 10
28.24113006703575
 20
67.7841818927221
 10
28.24113006703575
 20
67.9091818927221
 10
26.67116159632833
 20
67.9091818927221
 42
-0.1989123673796586
 10
26.65984788782937
 20
67.91386818422312
 10
26.42483212318305
 20
68.14888394886946
 42
0.1989123673796587
 10
26.32513006703575
 20
68.19018189272217
 10
25.45013006703575
 20
68.19018189272217
 10
25.45013006703575
 20
68.06518189272217
 10
26.32513006703575
 20
68.06518189272217
 42
-0.1989123673796578
  0
DIMENSION
  5
1CDD
330
16E2
100
AcDbEntity
  8
DIM
100
AcDbDimension
  2
*D14
 10
31.6542501827489
 20
67.53418187211318
 30
0.0
 11
34.2586251827489
 21
69.69418187211317
 31
0.0
 70
    32
 71
     5
 42
0.5
  3
23NSTD
100
AcDbAlignedDimension
 13
27.83508008613464
 23
67.03418187211318
 33
0.0
 14
27.83508008613464
 24
67.53418187211318
 34
0.0
 50
90.0
100
AcDbRotatedDimension
  0
INSERT
  5
1CEB
330
16E2
100
AcDbEntity
  8
OBJECT
  6
Continuous
100
AcDbBlockReference
  2
*X5
 10
0.9704853793977008
 20
0.0
 30
0.0
1001
ACAD
1000
HATCH
1002
{
1070
    19
1000
ANSI31
1040
2.0
1040
1.570796326794894
1000
R14_HATCH_DATA
1000
B32
1011
1.9704853793977
1021
0.0
1031
0.0
1011
0.9704853793977008
1021
1.0
1031
0.0
1011
0.9704853793977008
1021
0.0
1031
1.0
1040
0.0
1010
0.0
1020
0.0
1030
1.0
1000
ANSI31
1070
     0
1070
     0
1071
        2
1071
        7
1070
     0
1070
     1
1071
        7
1040
46.86936627951817
1040
41.69235772864129
1040
42.49356619560487
1040
41.69235772864129
1040
42.49356619560487
1040
40.94035756350211
1040
44.30606621468388
1040
40.94035756350211
1040
44.30606622353201
1040
40.94035764072256
1040
44.30606621468387
1040
40.94035756350211
1040
46.86936627951815
1040
40.94035756350211
1071
        0
1071
        7
1070
     0
1070
     1
1071
       14
1040
42.49356619560487
1040
41.69235772864129
1040
37.9656047815089
1040
41.69235772864129
1040
37.96859276519906
1040
41.67665035019395
1040
37.99836662692547
1040
41.5901662239769
1040
38.03580233197624
1040
41.50643017664541
1040
38.0758070206056
1040
41.42520726970877
1040
38.11328783306827
1040
41.34626256467524
1040
38.14315190961824
1040
41.26936112305371
1040
38.16030639051027
1040
41.19426800635276
1040
38.15965841599822
1040
41.12074827608073
1040
38.13831584694784
1040
41.04802975365024
1040
38.1021894266706
1040
40.973191300087
1040
38.08471490135392
1040
40.94035756350211
1040
42.49356619560487
1040
40.94035756350211
1071
        0
1070
     0
1070
     1
1040
1.570796326794894
1040
2.0
1070
     0
1070
     1
1040
2.356194490192343
1040
-2.76268544158222
1040
-2.674321218540112
1040
-0.1767766952966369
1040
-0.1767766952966369
1070
     0
1040
0.0164712863379821
1071
        2
1040
43.5130980759652
1040
41.40370745833112
1040
0.0
1040
41.40299714572615
1040
41.35429365944249
1040
0.0
1002
}
  0
INSERT
  5
1CEC
330
16E2
100
AcDbEntity
  8
OBJECT
  6
Continuous
100
AcDbBlockReference
  2
*X6
 10
0.9704853793977008
 20
-3.039443951546104
 30
0.0
1001
ACAD
1000
HATCH
1002
{
1070
    19
1000
ANSI31
1040
2.0
1040
1.570796326794894
1002
}
  0
LINE
  5
1CED
330
16E2
100
AcDbEntity
  8
TITLE
100
AcDbLine
 10
28.58609999999998
 20
7.860000000000004
 30
0.0
 11
0.3719999999999857
 21
7.860000000000004
 31
0.0
  0
TEXT
  5
1CEE
330
16E2
100
AcDbEntity
  8
TEXT
100
AcDbText
 10
2.07997499999999
 20
6.851000000000007
 30
0.0
 40
0.75
  1
V-9760-L
 41
0.75
  7
TXT
 72
     1
 11
4.28309999999999
 21
6.851000000000007
 31
0.0
100
AcDbText
  0
TEXT
  5
1CEF
330
16E2
100
AcDbEntity
  8
TEXT
100
AcDbText
 10
9.82372500000001
 20
6.851000000000009
 30
0.0
 40
0.75
  1
20.938
 41
0.75
  7
TXT
 72
     1
 11
11.18310000000001
 21
6.851000000000009
 31
0.0
100
AcDbText
  0
TEXT
  5
1CF0
330
16E2
100
AcDbEntity
  8
TEXT
100
AcDbText
 10
15.90907499999996
 20
6.851000000000009
 30
0.0
 40
0.75
  1
10.469
 41
0.75
  7
TXT
 72
     1
 11
17.17469999999996
 21
6.851000000000009
 31
0.0
100
AcDbText
  0
TEXT
  5
1CF1
330
16E2
100
AcDbEntity
  8
TEXT
100
AcDbText
 10
23.214225
 20
6.851000000000009
 30
0.0
 40
0.75
  1
21.000
 41
0.75
  7
TXT
 72
     1
 11
24.3861
 21
6.851000000000009
 31
0.0
100
AcDbText
  0
INSERT
  5
1CF2
330
16E2
100
AcDbEntity
  8
TITLE
100
AcDbBlockReference
  2
HB
 10
0.0
 20
0.0
 30
0.0
 41
6.0
 42
6.0
 43
6.0
  0
TEXT
  5
1F03
330
16E2
100
AcDbEntity
  8
OBJECT
100
AcDbText
 10
18.75283861331741
 20
16.68530221644309
 30
0.0
 40
0.75
  1
NOTE: PROTECTIVE PAPER ON
 41
0.75
  7
TXT
100
AcDbText
  0
TEXT
  5
1F04
330
16E2
100
AcDbEntity
  8
OBJECT
100
AcDbText
 10
18.75283861331741
 20
15.43530221644308
 30
0.0
 40
0.75
  1
BOTH SIDES OF PLEXIGLAS
 41
0.75
  7
TXT
100
AcDbText
  0
LINE
  5
1F05
330
16E2
100
AcDbEntity
  8
0
100
AcDbLine
 10
13.0535
 20
22.2299
 30
0.0
 11
17.1328
 21
17.0603
 31
0.0
  0
LINE
  5
1F06
330
16E2
100
AcDbEntity
  8
0
100
AcDbLine
 10
17.1328
 20
17.0603
 30
0.0
 11
18.2128
 21
17.0603
 31
0.0
  0
LEADER
  5
1F21
330
16E2
100
AcDbEntity
  8
OBJECT
100
AcDbLeader
  3
23NSTD
 73
     0
 40
2.0
 41
9.1875
 76
     3
 10
42.23464662475197
 20
65.70400403449543
 30
0.0
 10
38.66441757482641
 20
71.78980720791068
 30
0.0
 10
40.39702919450144
 20
71.78980720791068
 30
0.0
340
1F22
213
0.0
223
-0.375
233
0.0
1001
ACAD
1000
DSTYLE
1002
{
1070
   147
1040
0.09
1070
    77
1070
     0
1002
}
  0
MTEXT
  5
1F22
102
{ACAD_REACTORS
330
1F21
102
}
330
16E2
100
AcDbEntity
  8
OBJECT
100
AcDbMText
 10
40.93702919450143
 20
72.16480720791068
 30
0.0
 40
0.75
 41
0.0
 71
     1
 72
     1
  1
EXTRUDED ALUMINUM\PFRAME
  7
TXT
 73
     1
 44
1.0
  0
LEADER
  5
1F23
330
16E2
100
AcDbEntity
  8
OBJECT
100
AcDbLeader
  3
23NSTD
 73
     0
 74
     0
 75
     1
 40
2.0
 41
4.875
 76
     3
 10
50.53287912865116
 20
60.15604610333621
 30
0.0
 10
52.60767698187855
 20
58.07939003992576
 30
0.0
 10
53.68767698187856
 20
58.07939003992576
 30
0.0
340
1F24
213
0.0
223
-0.375
233
0.0
1001
ACAD
1000
DSTYLE
1002
{
1070
   147
1040
0.09
1070
    77
1070
     0
1002
}
  0
MTEXT
  5
1F24
102
{ACAD_REACTORS
330
1F23
102
}
330
16E2
100
AcDbEntity
  8
OBJECT
100
AcDbMText
 10
54.22767698187855
 20
58.45439003992575
 30
0.0
 40
0.75
 41
0.0
 71
     1
 72
     1
  1
ALUMINUM\PCONNECTOR
  7
TXT
 73
     1
 44
1.0
  0
LEADER
  5
1F25
330
16E2
100
AcDbEntity
  8
OBJECT
100
AcDbLeader
  3
23NSTD
 73
     0
 40
2.0
 41
7.875
 76
     3
 10
46.59242652099954
 20
65.70400381324223
 30
0.0
 10
44.59729835627297
 20
68.79936930242658
 30
0.0
 10
46.329909975948
 20
68.79936930242658
 30
0.0
340
1F26
213
0.0
223
-0.375
233
0.0
1001
ACAD
1000
DSTYLE
1002
{
1070
   147
1040
0.09
1070
    77
1070
     0
1002
}
  0
MTEXT
  5
1F26
102
{ACAD_REACTORS
330
1F25
102
}
330
16E2
100
AcDbEntity
  8
OBJECT
100
AcDbMText
 10
46.869909975948
 20
69.17436930242658
 30
0.0
 40
0.75
 41
0.0
 71
     1
 72
     1
  1
SCREW (TWO PER\PCONNECTOR)
  7
TXT
 73
     1
 44
1.0
  0
MTEXT
  5
1F27
102
{ACAD_REACTORS
330
1F28
102
}
330
16E2
100
AcDbEntity
  8
OBJECT
100
AcDbMText
 10
53.29020255879337
 20
17.3853514097679
 30
0.0
 40
0.75
 41
0.0
 71
     1
 72
     1
  1
DOOR FRAME
  7
TXT
 73
     1
 44
1.0
  0
LEADER
  5
1F28
330
16E2
100
AcDbEntity
  8
OBJECT
100
AcDbLeader
  3
23NSTD
 73
     0
 74
     0
 75
     1
 40
0.7500000000000001
 41
5.4375
 76
     3
 10
49.59540470556598
 20
19.08700747317836
 30
0.0
 10
51.67020255879337
 20
17.0103514097679
 30
0.0
 10
52.75020255879336
 20
17.0103514097679
 30
0.0
340
1F27
213
0.0
223
-0.375
233
0.0
1001
ACAD
1000
DSTYLE
1002
{
1070
   147
1040
0.09
1070
    77
1070
     0
1002
}
  0
LEADER
  5
1F29
330
16E2
100
AcDbEntity
  8
OBJECT
100
AcDbLeader
  3
23NSTD
 73
     0
 75
     1
 40
2.0
 41
4.6875
 76
     3
 10
45.52439035219456
 20
19.68254090675925
 30
0.0
 10
43.86677999414128
 20
15.52151771518896
 30
0.0
 10
42.78677999414129
 20
15.52151771518896
 30
0.0
340
1F2A
210
0.0
220
0.0
230
-1.0
213
0.0
223
-0.375
233
0.0
1001
ACAD
1000
DSTYLE
1002
{
1070
   147
1040
0.09
1070
    77
1070
     0
1002
}
  0
MTEXT
  5
1F2A
102
{ACAD_REACTORS
330
1F29
102
}
330
16E2
100
AcDbEntity
  8
OBJECT
100
AcDbMText
 10
42.24677999414129
 20
15.89651771518896
 30
0.0
 40
0.75
 41
0.0
 71
     3
 72
     1
  1
PLEXIGLAS\PPANEL
  7
TXT
 73
     1
 44
1.0
  0
MTEXT
  5
1F2E
102
{ACAD_REACTORS
330
1F2F
102
}
330
16E2
100
AcDbEntity
  8
OBJECT
100
AcDbMText
 10
50.27368137863297
 20
27.49027052035819
 30
0.0
 40
0.75
 41
0.0
 71
     3
 72
     1
  1
DOOR STOP\P(2) SUPPLIED
  7
TXT
 73
     1
 44
1.0
  0
LEADER
  5
1F2F
330
16E2
100
AcDbEntity
  8
OBJECT
100
AcDbLeader
  3
23NSTD
 73
     0
 75
     1
 40
2.0
 41
6.0
 76
     3
 10
54.3520756022755
 20
24.08948902326851
 30
0.0
 10
51.89368137863297
 20
27.11527052035819
 30
0.0
 10
50.81368137863297
 20
27.11527052035819
 30
0.0
340
1F2E
210
0.0
220
0.0
230
-1.0
213
0.0
223
-0.375
233
0.0
1001
ACAD
1000
DSTYLE
1002
{
1070
   147
1040
0.09
1070
    77
1070
     0
1002
}
  0
MTEXT
  5
1F30
102
{ACAD_REACTORS
330
1F31
102
}
330
16E2
100
AcDbEntity
  8
OBJECT
100
AcDbMText
 10
42.37312173356289
 20
25.06773374285208
 30
0.0
 40
0.75
 41
0.0
 71
     3
 72
     1
  1
WINDOW SPLINE
  7
TXT
 73
     1
 44
1.0
  0
LEADER
  5
1F31
330
16E2
100
AcDbEntity
  8
OBJECT
100
AcDbLeader
  3
23NSTD
 73
     0
 75
     1
 40
0.7500000000000001
 41
7.125
 76
     3
 10
46.36591082779571
 20
20.63539457749136
 30
0.0
 10
43.99312173356289
 20
24.69273374285208
 30
0.0
 10
42.91312173356289
 20
24.69273374285208
 30
0.0
340
1F30
210
0.0
220
0.0
230
-1.0
213
0.0
223
-0.375
233
0.0
1001
ACAD
1000
DSTYLE
1002
{
1070
   147
1040
0.09
1070
    77
1070
     0
1002
}
  0
LEADER
  5
1F3C
330
16E2
100
AcDbEntity
  8
OBJECT
100
AcDbLeader
  3
23NSTD
 73
     0
 75
     1
 40
2.0
 41
4.125
 76
     3
 10
42.71453677691218
 20
39.96844181694932
 30
0.0
 10
41.3170939521847
 20
37.8525092478234
 30
0.0
 10
40.2370939521847
 20
37.8525092478234
 30
0.0
340
1F3D
210
0.0
220
0.0
230
-1.0
213
0.0
223
-0.375
233
0.0
1001
ACAD
1000
DSTYLE
1002
{
1070
   147
1040
0.09
1070
    77
1070
     0
1002
}
  0
MTEXT
  5
1F3D
102
{ACAD_REACTORS
330
1F3C
102
}
330
16E2
100
AcDbEntity
  8
OBJECT
100
AcDbMText
 10
39.6970939521847
 20
38.2275092478234
 30
0.0
 40
0.75
 41
0.0
 71
     3
 72
     1
  1
LOCK\PCYLINDER
  7
TXT
 73
     1
 44
1.0
  0
LEADER
  5
1F3E
330
16E2
100
AcDbEntity
  8
OBJECT
100
AcDbLeader
  3
23NSTD
 73
     0
 74
     0
 75
     1
 40
3.25
 41
7.125
 76
     3
 10
53.66969305586767
 20
40.28542316159369
 30
0.0
 10
51.47755687081966
 20
36.21084458642477
 30
0.0
 10
52.55755687081966
 20
36.21084458642477
 30
0.0
340
1F3F
213
0.0
223
-0.375
233
0.0
1001
ACAD
1000
DSTYLE
1002
{
1070
   147
1040
0.09
1070
    77
1070
     0
1002
}
  0
MTEXT
  5
1F3F
102
{ACAD_REACTORS
330
1F3E
102
}
330
16E2
100
AcDbEntity
  8
OBJECT
100
AcDbMText
 10
53.09755687081966
 20
36.58584458642477
 30
0.0
 40
0.75
 41
0.0
 71
     1
 72
     1
  1
ECONOMIZER\PRACK VERTICAL\PFRAME RAIL
  7
TXT
 73
     1
 44
1.0
  0
MTEXT
  5
1F40
102
{ACAD_REACTORS
330
1F41
102
}
330
16E2
100
AcDbEntity
  8
OBJECT
100
AcDbMText
 10
48.48470687998966
 20
47.95023978257066
 30
0.0
 40
0.75
 41
0.0
 71
     4
 72
     1
  1
STRIKER
  7
TXT
 73
     1
 44
1.0
  0
LEADER
  5
1F41
330
16E2
100
AcDbEntity
  8
OBJECT
100
AcDbLeader
  3
23NSTD
 73
     0
 74
     0
 75
     1
 40
0.75
 41
3.5625
 76
     3
 10
45.8709342663013
 20
44.7570051049593
 30
0.0
 10
46.86470687998966
 20
47.95023978257066
 30
0.0
 10
47.94470687998965
 20
47.95023978257066
 30
0.0
340
1F40
1001
ACAD
1000
DSTYLE
1002
{
1070
   147
1040
0.09
1070
    77
1070
     0
1002
}
  0
TEXT
  5
1FEC
330
16E2
100
AcDbEntity
  8
TEXT
100
AcDbText
 10
55.3785683872546
 20
90.9251527186309
 30
0.0
 40
0.9360000000000001
  1
2-10-10
 41
0.75
  7
TXT
 72
     4
 11
57.36756838725459
 21
91.39315271863091
 31
0.0
100
AcDbText
  0
ENDSEC
  0
SECTION
  2
OBJECTS
  0
DICTIONARY
  5
16D0
330
0
100
AcDbDictionary
281
     1
  3
ACAD_GROUP
350
16D1
  3
ACAD_LAYOUT
350
16DD
  3
ACAD_MLINESTYLE
350
16DA
  3
ACAD_PLOTSETTINGS
350
16DC
  3
ACAD_PLOTSTYLENAME
350
16D2
  0
DICTIONARY
  5
16D1
102
{ACAD_REACTORS
330
16D0
102
}
330
16D0
100
AcDbDictionary
281
     1
  0
DICTIONARY
  5
16DD
102
{ACAD_REACTORS
330
16D0
102
}
330
16D0
100
AcDbDictionary
281
     1
  3
Layout1
350
16E1
  3
Model
350
16E5
  0
DICTIONARY
  5
16DA
102
{ACAD_REACTORS
330
16D0
102
}
330
16D0
100
AcDbDictionary
281
     1
  3
Standard
350
16DB
  0
DICTIONARY
  5
16DC
102
{ACAD_REACTORS
330
16D0
102
}
330
16D0
100
AcDbDictionary
281
     1
  0
ACDBDICTIONARYWDFLT
  5
16D2
102
{ACAD_REACTORS
330
16D0
102
}
330
16D0
100
AcDbDictionary
281
     1
  3
Normal
350
16D3
100
AcDbDictionaryWithDefault
340
16D3
  0
LAYOUT
  5
16E1
102
{ACAD_REACTORS
330
16DD
102
}
330
16DD
100
AcDbPlotSettings
  1

  2
None
  4

  6

 40
0.0
 41
0.0
 42
0.0
 43
0.0
 44
0.0
 45
0.0
 46
0.0
 47
0.0
 48
0.0
 49
0.0
140
0.0
141
0.0
142
1.0
143
1.0
 70
   688
 72
     0
 73
     0
 74
     5
  7
monochrome.ctb
 75
    16
147
1.0
148
0.0
149
0.0
100
AcDbLayout
  1
Layout1
 70
     1
 71
     1
 10
0.0
 20
0.0
 11
12.0
 21
9.0
 12
0.0
 22
0.0
 32
0.0
 14
1.000000000000000E+20
 24
1.000000000000000E+20
 34
1.000000000000000E+20
 15
-1.000000000000000E+20
 25
-1.000000000000000E+20
 35
-1.000000000000000E+20
146
0.0
 13
0.0
 23
0.0
 33
0.0
 16
1.0
 26
0.0
 36
0.0
 17
0.0
 27
1.0
 37
0.0
 76
     0
330
16DE
  0
LAYOUT
  5
16E5
102
{ACAD_REACTORS
330
16DD
102
}
330
16DD
100
AcDbPlotSettings
  1

  2
none_device
  4
Letter_(8.50_x_11.00_Inches)
  6

 40
6.349999904632568
 41
6.349999904632568
 42
6.350006103515625
 43
6.350006103515625
 44
215.8999938964843
 45
279.3999938964843
 46
0.0
 47
0.0
 48
0.0
 49
0.0
140
0.0
141
0.0
142
1.0
143
1.0
 70
 11952
 72
     0
 73
     1
 74
     0
  7

 75
     0
147
1.0
148
398.4533746113108
149
12.77794014887421
100
AcDbLayout
  1
Model
 70
     1
 71
     0
 10
0.0
 20
0.0
 11
12.0
 21
9.0
 12
0.0
 22
0.0
 32
0.0
 14
0.0
 24
0.0
 34
0.0
 15
0.0
 25
0.0
 35
0.0
146
0.0
 13
0.0
 23
0.0
 33
0.0
 16
1.0
 26
0.0
 36
0.0
 17
0.0
 27
1.0
 37
0.0
 76
     0
330
16E2
  0
MLINESTYLE
  5
16DB
102
{ACAD_REACTORS
330
16DA
102
}
330
16DA
100
AcDbMlineStyle
  2
STANDARD
 70
     0
  3

 62
   256
 51
90.0
 52
90.0
 71
     2
 49
0.5
 62
   256
  6
BYLAYER
 49
-0.5
 62
   256
  6
BYLAYER
  0
ACDBPLACEHOLDER
  5
16D3
102
{ACAD_REACTORS
330
16D2
102
}
330
16D2
  0
ENDSEC
  0
EOF
