  0
SECTION
  2
HEADER
  9
$ACADVER
  1
AC1009
  9
$INSBASE
 10
0.0
 20
0.0
 30
0.0
  9
$EXTMIN
 10
0.0
 20
0.0
 30
0.0
  9
$EXTMAX
 10
30.999999999968999
 20
20.239999999979752
 30
0.0
  9
$LIMMIN
 10
0.0
 20
0.0
  9
$LIMMAX
 10
75.0
 20
50.0
  9
$ORTHOMODE
 70
     1
  9
$REGENMODE
 70
     0
  9
$FILLMODE
 70
     1
  9
$QTEXTMODE
 70
     0
  9
$MIRRTEXT
 70
     0
  9
$DRAGMODE
 70
     2
  9
$LTSCALE
 40
1.0
  9
$OSMODE
 70
    37
  9
$ATTMODE
 70
     1
  9
$TEXTSIZE
 40
0.25
  9
$TRACEWID
 40
0.05
  9
$TEXTSTYLE
  7
TXT
  9
$CLAYER
  8
OBJECT
  9
$CELTYPE
  6
BYLAYER
  9
$CECOLOR
 62
   256
  9
$DIMSCALE
 40
2.0
  9
$DIMASZ
 40
0.18
  9
$DIMEXO
 40
0.063
  9
$DIMDLI
 40
0.281
  9
$DIMRND
 40
0.0
  9
$DIMDLE
 40
0.0
  9
$DIMEXE
 40
0.093
  9
$DIMTP
 40
0.0
  9
$DIMTM
 40
0.0
  9
$DIMTXT
 40
0.125
  9
$DIMCEN
 40
0.09
  9
$DIMTSZ
 40
0.0
  9
$DIMTOL
 70
     0
  9
$DIMLIM
 70
     0
  9
$DIMTIH
 70
     1
  9
$DIMTOH
 70
     1
  9
$DIMSE1
 70
     0
  9
$DIMSE2
 70
     0
  9
$DIMTAD
 70
     0
  9
$DIMZIN
 70
     0
  9
$DIMBLK
  1

  9
$DIMASO
 70
     1
  9
$DIMSHO
 70
     1
  9
$DIMPOST
  1

  9
$DIMAPOST
  1

  9
$DIMALT
 70
     0
  9
$DIMALTD
 70
     2
  9
$DIMALTF
 40
25.399999999999999
  9
$DIMLFAC
 40
1.0
  9
$DIMTOFL
 70
     0
  9
$DIMTVP
 40
0.0
  9
$DIMTIX
 70
     0
  9
$DIMSOXD
 70
     0
  9
$DIMSAH
 70
     0
  9
$DIMBLK1
  1

  9
$DIMBLK2
  1

  9
$DIMSTYLE
  2
STD
  9
$DIMCLRD
 70
     0
  9
$DIMCLRE
 70
     0
  9
$DIMCLRT
 70
     0
  9
$DIMTFAC
 40
1.0
  9
$DIMGAP
 40
0.09
  9
$LUNITS
 70
     2
  9
$LUPREC
 70
     3
  9
$SKETCHINC
 40
0.1
  9
$FILLETRAD
 40
0.0
  9
$AUNITS
 70
     0
  9
$AUPREC
 70
     0
  9
$MENU
  1
acad
  9
$ELEVATION
 40
0.0
  9
$PELEVATION
 40
0.0
  9
$THICKNESS
 40
0.0
  9
$LIMCHECK
 70
     0
  9
$BLIPMODE
 70
     0
  9
$CHAMFERA
 40
0.0
  9
$CHAMFERB
 40
0.0
  9
$SKPOLY
 70
     0
  9
$TDCREATE
 40
2449133.4256833331
  9
$TDUPDATE
 40
2451668.4594395831
  9
$TDINDWG
 40
0.072289294
  9
$TDUSRTIMER
 40
0.072289294
  9
$USRTIMER
 70
     1
  9
$ANGBASE
 50
0.0
  9
$ANGDIR
 70
     0
  9
$PDMODE
 70
     0
  9
$PDSIZE
 40
0.0
  9
$PLINEWID
 40
0.0
  9
$COORDS
 70
     1
  9
$SPLFRAME
 70
     0
  9
$SPLINETYPE
 70
     6
  9
$SPLINESEGS
 70
     8
  9
$ATTDIA
 70
     0
  9
$ATTREQ
 70
     1
  9
$HANDLING
 70
  4097
  9
$HANDSEED
  5
D9E
  9
$SURFTAB1
 70
     6
  9
$SURFTAB2
 70
     6
  9
$SURFTYPE
 70
     6
  9
$SURFU
 70
     6
  9
$SURFV
 70
     6
  9
$UCSNAME
  2

  9
$UCSORG
 10
0.0
 20
0.0
 30
0.0
  9
$UCSXDIR
 10
1.0
 20
0.0
 30
0.0
  9
$UCSYDIR
 10
0.0
 20
1.0
 30
0.0
  9
$PUCSNAME
  2

  9
$PUCSORG
 10
0.0
 20
0.0
 30
0.0
  9
$PUCSXDIR
 10
1.0
 20
0.0
 30
0.0
  9
$PUCSYDIR
 10
0.0
 20
1.0
 30
0.0
  9
$USERI1
 70
     0
  9
$USERI2
 70
     0
  9
$USERI3
 70
     0
  9
$USERI4
 70
     0
  9
$USERI5
 70
     0
  9
$USERR1
 40
0.0
  9
$USERR2
 40
0.0
  9
$USERR3
 40
0.0
  9
$USERR4
 40
0.0
  9
$USERR5
 40
0.0
  9
$WORLDVIEW
 70
     1
  9
$SHADEDGE
 70
     3
  9
$SHADEDIF
 70
    70
  9
$TILEMODE
 70
     1
  9
$MAXACTVP
 70
    16
  9
$PLIMCHECK
 70
     0
  9
$PEXTMIN
 10
1.0000000000000000E+020
 20
1.0000000000000000E+020
 30
1.0000000000000000E+020
  9
$PEXTMAX
 10
-1.0000000000000000E+020
 20
-1.0000000000000000E+020
 30
-1.0000000000000000E+020
  9
$PLIMMIN
 10
0.0
 20
0.0
  9
$PLIMMAX
 10
12.0
 20
9.0
  9
$UNITMODE
 70
     0
  9
$VISRETAIN
 70
     0
  9
$PLINEGEN
 70
     0
  9
$PSLTSCALE
 70
     1
  0
ENDSEC
  0
SECTION
  2
TABLES
  0
TABLE
  2
VPORT
 70
     2
  0
VPORT
  2
*ACTIVE
 70
     0
 10
0.0
 20
0.0
 11
1.0
 21
1.0
 12
15.7989679009083
 22
10.119556489960051
 13
0.0
 23
0.0
 14
1.0
 24
1.0
 15
0.0
 25
0.0
 16
0.0
 26
0.0
 36
1.0
 17
0.0
 27
0.0
 37
0.0
 40
20.47311724259259
 41
1.84313725490196
 42
50.0
 43
0.0
 44
0.0
 50
0.0
 51
0.0
 71
     0
 72
   100
 73
     1
 74
     0
 75
     0
 76
     0
 77
     0
 78
     0
  0
ENDTAB
  0
TABLE
  2
LTYPE
 70
     7
  0
LTYPE
  2
CONTINUOUS
 70
     0
  3
Solid line
 72
    65
 73
     0
 40
0.0
  0
LTYPE
  2
HIDDEN
 70
     0
  3
_ _ _ _ _ _ _ _ _ _ _ _ _ _ _ _ _ _ _ _ _ _ _
 72
    65
 73
     2
 40
0.375
 49
0.25
 49
-0.125
  0
LTYPE
  2
PHANTOM
 70
     0
  3
_____ _ _ _____ _ _ _____ _ _ _____ _ _ ____
 72
    65
 73
     6
 40
2.5
 49
1.25
 49
-0.25
 49
0.25
 49
-0.25
 49
0.25
 49
-0.25
  0
LTYPE
  2
CENTER
 70
     0
  3
____ _ ____ _ ____ _ ____ _ ____ _ ____ _ ____
 72
    65
 73
     4
 40
2.0
 49
1.25
 49
-0.25
 49
0.25
 49
-0.25
  0
LTYPE
  2
PHANTOM2
 70
     0
  3
___ _ _ ___ _ _ ___ _ _ ___ _ _ ___ _ _ ___ _ _
 72
    65
 73
     6
 40
1.25
 49
0.625
 49
-0.125
 49
0.125
 49
-0.125
 49
0.125
 49
-0.125
  0
LTYPE
  2
HIDDEN2
 70
     0
  3
_ _ _ _ _ _ _ _ _ _ _ _ _ _ _ _ _ _ _ _ _ _ _ _
 72
    65
 73
     2
 40
0.1875
 49
0.125
 49
-0.0625
  0
LTYPE
  2
CENTER2
 70
     0
  3
Center (.5x) ___ _ ___ _ ___ _ ___ _ ___ _ ___
 72
    65
 73
     4
 40
1.125
 49
0.75
 49
-0.125
 49
0.125
 49
-0.125
  0
ENDTAB
  0
TABLE
  2
LAYER
 70
    10
  0
LAYER
  2
0
 70
     0
 62
     7
  6
CONTINUOUS
  0
LAYER
  2
DEFPOINTS
 70
     0
 62
     7
  6
CONTINUOUS
  0
LAYER
  2
OBJECT
 70
     0
 62
     7
  6
CONTINUOUS
  0
LAYER
  2
DIM
 70
     0
 62
     7
  6
CONTINUOUS
  0
LAYER
  2
HIDDEN
 70
     0
 62
     7
  6
HIDDEN
  0
LAYER
  2
BEND
 70
     0
 62
     7
  6
PHANTOM
  0
LAYER
  2
TEXT
 70
     0
 62
     7
  6
CONTINUOUS
  0
LAYER
  2
TITLE
 70
     0
 62
     7
  6
CONTINUOUS
  0
LAYER
  2
CENTER
 70
     0
 62
     7
  6
CENTER
  0
LAYER
  2
HIDDEN2
 70
     0
 62
     7
  6
HIDDEN2
  0
ENDTAB
  0
TABLE
  2
STYLE
 70
     2
  0
STYLE
  2
STANDARD
 70
     0
 40
0.0
 41
1.0
 50
0.0
 71
     0
 42
0.2
  3
txt
  4

  0
STYLE
  2
TXT
 70
     0
 40
0.0
 41
0.75
 50
0.0
 71
     0
 42
0.25
  3
TXT.shx
  4

  0
ENDTAB
  0
TABLE
  2
VIEW
 70
     0
  0
ENDTAB
  0
TABLE
  2
UCS
 70
     0
  0
ENDTAB
  0
TABLE
  2
APPID
 70
     1
  0
APPID
  2
ACAD
 70
     0
  0
ENDTAB
  0
TABLE
  2
DIMSTYLE
 70
     3
  0
DIMSTYLE
  2
STD
 70
     0
  3

  4

  5

  6

  7

 40
2.0
 41
0.18
 42
0.063
 43
0.281
 44
0.093
 45
0.0
 46
0.0
 47
0.0
 48
0.0
140
0.125
141
0.09
142
0.0
143
25.399999999999999
144
1.0
145
0.0
146
1.0
147
0.09
 71
     0
 72
     0
 73
     1
 74
     1
 75
     0
 76
     0
 77
     0
 78
     0
170
     0
171
     2
172
     0
173
     0
174
     0
175
     0
176
     0
177
     0
178
     0
  0
DIMSTYLE
  2
23NSTD
 70
     0
  3

  4

  5

  6

  7

 40
2.0
 41
0.18
 42
0.063
 43
0.281
 44
0.093
 45
0.0
 46
0.0
 47
0.0
 48
0.0
140
0.125
141
0.09
142
0.0
143
25.399999999999999
144
1.0
145
0.0
146
1.0
147
0.09
 71
     0
 72
     0
 73
     1
 74
     1
 75
     0
 76
     0
 77
     0
 78
     0
170
     0
171
     2
172
     0
173
     0
174
     0
175
     0
176
     0
177
     0
178
     0
  0
DIMSTYLE
  2
23NSTDI
 70
     0
  3

  4

  5

  6

  7

 40
2.0
 41
0.18
 42
0.063
 43
0.281
 44
0.093
 45
0.0
 46
0.0
 47
0.0
 48
0.0
140
0.125
141
0.09
142
0.0
143
25.399999999999999
144
1.0
145
0.0
146
1.0
147
0.09
 71
     0
 72
     0
 73
     1
 74
     1
 75
     0
 76
     0
 77
     0
 78
     0
170
     0
171
     2
172
     0
173
     0
174
     1
175
     0
176
     0
177
     0
178
     0
  0
ENDTAB
  0
ENDSEC
  0
SECTION
  2
BLOCKS
  0
BLOCK
  8
0
  2
$MODEL_SPACE
 70
     0
 10
0.0
 20
0.0
 30
0.0
  3
$MODEL_SPACE
  1

  0
ENDBLK
  5
48
  8
0
  0
BLOCK
 67
     1
  8
0
  2
$PAPER_SPACE
 70
     0
 10
0.0
 20
0.0
 30
0.0
  3
$PAPER_SPACE
  1

  0
ENDBLK
  5
46
 67
     1
  8
0
  0
BLOCK
  8
0
  2
*D0
 70
     1
 10
0.0
 20
0.0
 30
0.0
  3
*D0
  1

  0
LINE
  5
C4
  8
0
  6
BYBLOCK
 62
     0
 10
9.2035795898739767
 20
16.782143372478359
 30
0.0
 11
9.7764500758373245
 21
16.782143372478359
 31
0.0
  0
LINE
  5
C5
  8
0
  6
BYBLOCK
 62
     0
 10
9.2035795898739767
 20
15.28214337247835
 30
0.0
 11
9.7764500758373245
 21
15.28214337247835
 31
0.0
  0
LINE
  5
C6
  8
0
  6
BYBLOCK
 62
     0
 10
9.5904500758373246
 20
17.142143372478358
 30
0.0
 11
9.5904500758373246
 21
17.502143372478361
 31
0.0
  0
LINE
  5
C7
  8
0
  6
BYBLOCK
 62
     0
 10
9.5904500758373246
 20
14.922143372478351
 30
0.0
 11
9.5904500758373246
 21
14.562143372478349
 31
0.0
  0
SOLID
  5
C8
  8
0
  6
BYBLOCK
 62
     0
 10
9.5304500758373241
 20
17.142143372478358
 30
0.0
 11
9.6504500758373251
 21
17.142143372478358
 31
0.0
 12
9.5904500758373246
 22
16.782143372478359
 32
0.0
 13
9.5904500758373246
 23
16.782143372478359
 33
0.0
  0
SOLID
  5
C9
  8
0
  6
BYBLOCK
 62
     0
 10
9.5304500758373241
 20
14.922143372478351
 30
0.0
 11
9.6504500758373251
 21
14.922143372478351
 31
0.0
 12
9.5904500758373246
 22
15.28214337247835
 32
0.0
 13
9.5904500758373246
 23
15.28214337247835
 33
0.0
  0
TEXT
  5
CA
  8
0
  6
BYBLOCK
 62
     0
 10
9.2779500758373246
 20
15.907143372478361
 30
0.0
 40
0.25
  1
1.500
 41
0.75
  7
TXT
 72
     1
 11
9.5904500758373246
 21
16.032143372478359
 31
0.0
 73
     2
  0
POINT
  5
CB
  8
DEFPOINTS
  6
BYBLOCK
 62
     0
 10
9.0775795898739773
 20
16.782143372478359
 30
0.0
  0
POINT
  5
CC
  8
DEFPOINTS
  6
BYBLOCK
 62
     0
 10
9.0775795898739773
 20
15.28214337247835
 30
0.0
  0
POINT
  5
CD
  8
DEFPOINTS
  6
BYBLOCK
 62
     0
 10
9.5904500758373246
 20
15.28214337247835
 30
0.0
  0
ENDBLK
  5
CE
  8
0
  0
BLOCK
  8
0
  2
*D1
 70
     1
 10
0.0
 20
0.0
 30
0.0
  3
*D1
  1

  0
LINE
  5
D0
  8
0
  6
BYBLOCK
 62
     0
 10
23.10735204515127
 20
16.689143372478341
 30
0.0
 11
23.10735204515127
 21
17.800516121092119
 31
0.0
  0
LINE
  5
D1
  8
0
  6
BYBLOCK
 62
     0
 10
22.045352045151262
 20
16.689143372478341
 30
0.0
 11
22.045352045151262
 21
17.800516121092119
 31
0.0
  0
LINE
  5
D2
  8
0
  6
BYBLOCK
 62
     0
 10
23.467352045151269
 20
17.61451612109212
 30
0.0
 11
23.827352045151269
 21
17.61451612109212
 31
0.0
  0
LINE
  5
D3
  8
0
  6
BYBLOCK
 62
     0
 10
21.685352045151259
 20
17.61451612109212
 30
0.0
 11
21.325352045151259
 21
17.61451612109212
 31
0.0
  0
SOLID
  5
D4
  8
0
  6
BYBLOCK
 62
     0
 10
23.467352045151269
 20
17.674516121092118
 30
0.0
 11
23.467352045151269
 21
17.554516121092121
 31
0.0
 12
23.10735204515127
 22
17.61451612109212
 32
0.0
 13
23.10735204515127
 23
17.61451612109212
 33
0.0
  0
SOLID
  5
D5
  8
0
  6
BYBLOCK
 62
     0
 10
21.685352045151259
 20
17.674516121092118
 30
0.0
 11
21.685352045151259
 21
17.554516121092121
 31
0.0
 12
22.045352045151262
 22
17.61451612109212
 32
0.0
 13
22.045352045151262
 23
17.61451612109212
 33
0.0
  0
TEXT
  5
D6
  8
0
  6
BYBLOCK
 62
     0
 10
22.248227045151271
 20
17.48951612109212
 30
0.0
 40
0.25
  1
1.062
 41
0.75
  7
TXT
 72
     1
 11
22.576352045151271
 21
17.61451612109212
 31
0.0
 73
     2
  0
POINT
  5
D7
  8
DEFPOINTS
  6
BYBLOCK
 62
     0
 10
23.10735204515127
 20
16.56314337247834
 30
0.0
  0
POINT
  5
D8
  8
DEFPOINTS
  6
BYBLOCK
 62
     0
 10
22.045352045151262
 20
16.56314337247834
 30
0.0
  0
POINT
  5
D9
  8
DEFPOINTS
  6
BYBLOCK
 62
     0
 10
22.045352045151262
 20
17.61451612109212
 30
0.0
  0
ENDBLK
  5
DA
  8
0
  0
BLOCK
  8
0
  2
*D2
 70
     1
 10
0.0
 20
0.0
 30
0.0
  3
*D2
  1

  0
LINE
  5
DC
  8
0
  6
BYBLOCK
 62
     0
 10
23.233352045151271
 20
15.501143372478341
 30
0.0
 11
24.315241242035039
 21
15.501143372478341
 31
0.0
  0
LINE
  5
DD
  8
0
  6
BYBLOCK
 62
     0
 10
23.233352045151271
 20
16.56314337247834
 30
0.0
 11
24.315241242035039
 21
16.56314337247834
 31
0.0
  0
LINE
  5
DE
  8
0
  6
BYBLOCK
 62
     0
 10
24.12924124203504
 20
15.141143372478339
 30
0.0
 11
24.12924124203504
 21
14.78114337247834
 31
0.0
  0
LINE
  5
DF
  8
0
  6
BYBLOCK
 62
     0
 10
24.12924124203504
 20
16.923143372478339
 30
0.0
 11
24.12924124203504
 21
17.283143372478339
 31
0.0
  0
SOLID
  5
E0
  8
0
  6
BYBLOCK
 62
     0
 10
24.069241242035041
 20
15.141143372478339
 30
0.0
 11
24.189241242035038
 21
15.141143372478339
 31
0.0
 12
24.12924124203504
 22
15.501143372478341
 32
0.0
 13
24.12924124203504
 23
15.501143372478341
 33
0.0
  0
SOLID
  5
E1
  8
0
  6
BYBLOCK
 62
     0
 10
24.069241242035041
 20
16.923143372478339
 30
0.0
 11
24.189241242035038
 21
16.923143372478339
 31
0.0
 12
24.12924124203504
 22
16.56314337247834
 32
0.0
 13
24.12924124203504
 23
16.56314337247834
 33
0.0
  0
TEXT
  5
E2
  8
0
  6
BYBLOCK
 62
     0
 10
23.80111624203504
 20
15.907143372478339
 30
0.0
 40
0.25
  1
1.062
 41
0.75
  7
TXT
 72
     1
 11
24.12924124203504
 21
16.032143372478341
 31
0.0
 73
     2
  0
POINT
  5
E3
  8
DEFPOINTS
  6
BYBLOCK
 62
     0
 10
23.10735204515127
 20
15.501143372478341
 30
0.0
  0
POINT
  5
E4
  8
DEFPOINTS
  6
BYBLOCK
 62
     0
 10
23.10735204515127
 20
16.56314337247834
 30
0.0
  0
POINT
  5
E5
  8
DEFPOINTS
  6
BYBLOCK
 62
     0
 10
24.12924124203504
 20
16.56314337247834
 30
0.0
  0
ENDBLK
  5
E6
  8
0
  0
BLOCK
  8
0
  2
*D3
 70
     1
 10
0.0
 20
0.0
 30
0.0
  3
*D3
  1

  0
LINE
  5
124
  8
0
  6
BYBLOCK
 62
     0
 10
23.772972111881689
 20
11.07997454161184
 30
0.0
 11
24.315665801898781
 21
11.07997454161184
 31
0.0
  0
LINE
  5
125
  8
0
  6
BYBLOCK
 62
     0
 10
23.233352045151271
 20
11.26797454161184
 30
0.0
 11
24.315665801898781
 21
11.26797454161184
 31
0.0
  0
LINE
  5
126
  8
0
  6
BYBLOCK
 62
     0
 10
24.129665801898781
 20
10.71997454161184
 30
0.0
 11
24.129665801898781
 21
10.359974541611839
 31
0.0
  0
LINE
  5
127
  8
0
  6
BYBLOCK
 62
     0
 10
24.129665801898781
 20
11.62797454161184
 30
0.0
 11
24.129665801898781
 21
11.987974541611839
 31
0.0
  0
LINE
  5
128
  8
0
  6
BYBLOCK
 62
     0
 10
24.129665801898781
 20
11.987974541611839
 30
0.0
 11
24.489665801898781
 21
11.987974541611839
 31
0.0
  0
SOLID
  5
129
  8
0
  6
BYBLOCK
 62
     0
 10
24.069665801898779
 20
10.71997454161184
 30
0.0
 11
24.18966580189878
 21
10.71997454161184
 31
0.0
 12
24.129665801898781
 22
11.07997454161184
 32
0.0
 13
24.129665801898781
 23
11.07997454161184
 33
0.0
  0
SOLID
  5
12A
  8
0
  6
BYBLOCK
 62
     0
 10
24.069665801898779
 20
11.62797454161184
 30
0.0
 11
24.18966580189878
 21
11.62797454161184
 31
0.0
 12
24.129665801898781
 22
11.26797454161184
 32
0.0
 13
24.129665801898781
 23
11.26797454161184
 33
0.0
  0
TEXT
  5
12B
  8
0
  6
BYBLOCK
 62
     0
 10
24.66966580189878
 20
11.86297454161185
 30
0.0
 40
0.25
  1
0.188
 41
0.75
  7
TXT
 72
     1
 11
24.99779080189878
 21
11.987974541611839
 31
0.0
 73
     2
  0
POINT
  5
12C
  8
DEFPOINTS
  6
BYBLOCK
 62
     0
 10
23.646972111881691
 20
11.07997454161184
 30
0.0
  0
POINT
  5
12D
  8
DEFPOINTS
  6
BYBLOCK
 62
     0
 10
23.10735204515127
 20
11.26797454161184
 30
0.0
  0
POINT
  5
12E
  8
DEFPOINTS
  6
BYBLOCK
 62
     0
 10
24.129665801898781
 20
11.26797454161184
 30
0.0
  0
ENDBLK
  5
12F
  8
0
  0
BLOCK
  8
0
  2
*D4
 70
     1
 10
0.0
 20
0.0
 30
0.0
  3
*D4
  1

  0
LINE
  5
19F
  8
0
  6
BYBLOCK
 62
     0
 10
26.907161501224451
 20
1.345940886996853
 30
0.0
 11
26.907161501224451
 21
0.5865444155699877
 31
0.0
  0
LINE
  5
1A0
  8
0
  6
BYBLOCK
 62
     0
 10
28.56316150122445
 20
1.345940886996853
 30
0.0
 11
28.56316150122445
 21
0.5865444155699877
 31
0.0
  0
LINE
  5
1A1
  8
0
  6
BYBLOCK
 62
     0
 10
26.547161501224451
 20
0.7725444155699878
 30
0.0
 11
26.187161501224448
 21
0.7725444155699878
 31
0.0
  0
LINE
  5
1A2
  8
0
  6
BYBLOCK
 62
     0
 10
28.923161501224449
 20
0.7725444155699878
 30
0.0
 11
29.283161501224441
 21
0.7725444155699878
 31
0.0
  0
SOLID
  5
1A3
  8
0
  6
BYBLOCK
 62
     0
 10
26.547161501224451
 20
0.8325444155699877
 30
0.0
 11
26.547161501224451
 21
0.7125444155699878
 31
0.0
 12
26.907161501224451
 22
0.7725444155699878
 32
0.0
 13
26.907161501224451
 23
0.7725444155699878
 33
0.0
  0
SOLID
  5
1A4
  8
0
  6
BYBLOCK
 62
     0
 10
28.923161501224449
 20
0.8325444155699877
 30
0.0
 11
28.923161501224449
 21
0.7125444155699878
 31
0.0
 12
28.56316150122445
 22
0.7725444155699878
 32
0.0
 13
28.56316150122445
 23
0.7725444155699878
 33
0.0
  0
TEXT
  5
1A5
  8
0
  6
BYBLOCK
 62
     0
 10
27.39141150122445
 20
0.6475444155699878
 30
0.0
 40
0.25
  1
1.656
 41
0.75
  7
TXT
 72
     1
 11
27.73516150122445
 21
0.7725444155699878
 31
0.0
 73
     2
  0
POINT
  5
1A6
  8
DEFPOINTS
  6
BYBLOCK
 62
     0
 10
26.907161501224451
 20
1.4719408869968531
 30
0.0
  0
POINT
  5
1A7
  8
DEFPOINTS
  6
BYBLOCK
 62
     0
 10
28.56316150122445
 20
1.4719408869968531
 30
0.0
  0
POINT
  5
1A8
  8
DEFPOINTS
  6
BYBLOCK
 62
     0
 10
28.56316150122445
 20
0.7725444155699878
 30
0.0
  0
ENDBLK
  5
1A9
  8
0
  0
BLOCK
  8
0
  2
*D5
 70
     1
 10
0.0
 20
0.0
 30
0.0
  3
*D5
  1

  0
LINE
  5
45F
  8
DIM
 62
     0
 10
27.464563720562381
 20
4.5535869183567277
 30
0.0
 11
26.582052371597982
 21
4.5535869183567277
 31
0.0
  0
LINE
  5
460
  8
DIM
 62
     0
 10
27.464563720562381
 20
2.9285869183567281
 30
0.0
 11
26.582052371597982
 21
2.9285869183567281
 31
0.0
  0
LINE
  5
461
  8
DIM
 62
     0
 10
26.768052371597982
 20
4.913586918356728
 30
0.0
 11
26.768052371597982
 21
5.2735869183567283
 31
0.0
  0
LINE
  5
462
  8
DIM
 62
     0
 10
26.768052371597982
 20
2.5685869183567291
 30
0.0
 11
26.768052371597982
 21
2.2085869183567288
 31
0.0
  0
SOLID
  5
463
  8
DIM
 62
     0
 10
26.70805237159799
 20
4.913586918356728
 30
0.0
 11
26.82805237159798
 21
4.913586918356728
 31
0.0
 12
26.768052371597982
 22
4.5535869183567277
 32
0.0
 13
26.768052371597982
 23
4.5535869183567277
 33
0.0
  0
SOLID
  5
464
  8
DIM
 62
     0
 10
26.70805237159799
 20
2.5685869183567291
 30
0.0
 11
26.82805237159798
 21
2.5685869183567291
 31
0.0
 12
26.768052371597982
 22
2.9285869183567281
 32
0.0
 13
26.768052371597982
 23
2.9285869183567281
 33
0.0
  0
TEXT
  5
465
  8
OBJECT
 62
     0
 10
26.424302371597982
 20
3.616086918356733
 30
0.0
 40
0.25
  1
1.625
 41
0.75
  7
TXT
  0
POINT
  5
466
  8
DEFPOINTS
 62
     0
 10
27.59056372056239
 20
4.5535869183567277
 30
0.0
  0
POINT
  5
467
  8
DEFPOINTS
 62
     0
 10
27.59056372056239
 20
2.9285869183567281
 30
0.0
  0
POINT
  5
468
  8
DEFPOINTS
 62
     0
 10
26.768052371597982
 20
2.9285869183567281
 30
0.0
  0
ENDBLK
  5
454
  8
0
  0
BLOCK
  8
0
  2
*D6
 70
     1
 10
0.0
 20
0.0
 30
0.0
  3
*D6
  1

  0
LINE
  5
46A
  8
DIM
 62
     0
 10
7.9988013528483188
 20
11.07997454161184
 30
0.0
 11
6.7516562588455038
 21
11.07997454161184
 31
0.0
  0
LINE
  5
46B
  8
DIM
 62
     0
 10
7.9988013528483179
 20
9.8299745416118451
 30
0.0
 11
6.7516562588455029
 21
9.8299745416118451
 31
0.0
  0
LINE
  5
46C
  8
DIM
 62
     0
 10
6.9376562588455037
 20
11.439974541611839
 30
0.0
 11
6.9376562588455037
 21
11.79997454161184
 31
0.0
  0
LINE
  5
46D
  8
DIM
 62
     0
 10
6.9376562588455029
 20
9.4699745416118475
 30
0.0
 11
6.9376562588455029
 21
9.1099745416118463
 31
0.0
  0
SOLID
  5
46E
  8
DIM
 62
     0
 10
6.877656258845505
 20
11.439974541611839
 30
0.0
 11
6.9976562588455042
 21
11.439974541611839
 31
0.0
 12
6.9376562588455037
 22
11.07997454161184
 32
0.0
 13
6.9376562588455037
 23
11.07997454161184
 33
0.0
  0
SOLID
  5
46F
  8
DIM
 62
     0
 10
6.8776562588455041
 20
9.4699745416118475
 30
0.0
 11
6.9976562588455034
 21
9.4699745416118475
 31
0.0
 12
6.9376562588455029
 22
9.8299745416118451
 32
0.0
 13
6.9376562588455029
 23
9.8299745416118451
 33
0.0
  0
TEXT
  5
470
  8
OBJECT
 62
     0
 10
6.609531258845502
 20
10.32997454161184
 30
0.0
 40
0.25
  1
1.250
 41
0.75
  7
TXT
  0
POINT
  5
471
  8
DEFPOINTS
 62
     0
 10
8.1248013528483192
 20
11.07997454161184
 30
0.0
  0
POINT
  5
472
  8
DEFPOINTS
 62
     0
 10
8.1248013528483192
 20
9.8299745416118451
 30
0.0
  0
POINT
  5
473
  8
DEFPOINTS
 62
     0
 10
6.9376562588455029
 20
9.8299745416118451
 30
0.0
  0
ENDBLK
  5
475
  8
0
  0
BLOCK
  8
0
  2
*D7
 70
     1
 10
0.0
 20
0.0
 30
0.0
  3
*D7
  1

  0
LINE
  5
477
  8
DIM
 62
     0
 10
8.1248013528483192
 20
9.7039745416118475
 30
0.0
 11
8.1248013528483192
 21
8.8816825814248634
 31
0.0
  0
LINE
  5
478
  8
DIM
 62
     0
 10
25.624801352848309
 20
9.7039745416118475
 30
0.0
 11
25.624801352848309
 21
8.8816825814248634
 31
0.0
  0
LINE
  5
479
  8
DIM
 62
     0
 10
8.4848013528483186
 20
9.0676825814248634
 30
0.0
 11
16.632301352848309
 21
9.0676825814248634
 31
0.0
  0
LINE
  5
47A
  8
DIM
 62
     0
 10
25.264801352848309
 20
9.0676825814248634
 30
0.0
 11
17.117301352848308
 21
9.0676825814248634
 31
0.0
  0
SOLID
  5
47B
  8
DIM
 62
     0
 10
8.4848013528483186
 20
9.1276825814248639
 30
0.0
 11
8.4848013528483186
 21
9.0076825814248611
 31
0.0
 12
8.1248013528483192
 22
9.0676825814248634
 32
0.0
 13
8.1248013528483192
 23
9.0676825814248634
 33
0.0
  0
SOLID
  5
47C
  8
DIM
 62
     0
 10
25.264801352848309
 20
9.1276825814248639
 30
0.0
 11
25.264801352848309
 21
9.0076825814248611
 31
0.0
 12
25.624801352848309
 22
9.0676825814248634
 32
0.0
 13
25.624801352848309
 23
9.0676825814248634
 33
0.0
  0
TEXT
  5
47D
  8
OBJECT
 62
     0
 10
16.812301352848309
 20
8.9426825814248634
 30
0.0
 40
0.25
  1
A
 41
0.75
  7
TXT
  0
POINT
  5
47E
  8
DEFPOINTS
 62
     0
 10
8.1248013528483192
 20
9.8299745416118451
 30
0.0
  0
POINT
  5
47F
  8
DEFPOINTS
 62
     0
 10
25.624801352848309
 20
9.8299745416118451
 30
0.0
  0
POINT
  5
480
  8
DEFPOINTS
 62
     0
 10
25.624801352848309
 20
9.0676825814248634
 30
0.0
  0
ENDBLK
  5
482
  8
0
  0
BLOCK
  8
0
  2
*D8
 70
     1
 10
0.0
 20
0.0
 30
0.0
  3
*D8
  1

  0
LINE
  5
484
  8
DIM
 62
     0
 10
5.3046114673642739
 20
10.04797454161185
 30
0.0
 11
5.3046114673642739
 21
8.8777875777615396
 31
0.0
  0
LINE
  5
485
  8
DIM
 62
     0
 10
3.680611467364272
 20
10.04797454161185
 30
0.0
 11
3.680611467364272
 21
8.8777875777615396
 31
0.0
  0
LINE
  5
486
  8
DIM
 62
     0
 10
5.6646114673642751
 20
9.0637875777615395
 30
0.0
 11
6.0246114673642737
 21
9.0637875777615395
 31
0.0
  0
LINE
  5
487
  8
DIM
 62
     0
 10
3.3206114673642722
 20
9.0637875777615395
 30
0.0
 11
2.9606114673642718
 21
9.0637875777615395
 31
0.0
  0
SOLID
  5
488
  8
DIM
 62
     0
 10
5.6646114673642751
 20
9.12378757776154
 30
0.0
 11
5.6646114673642751
 21
9.003787577761539
 31
0.0
 12
5.3046114673642739
 22
9.0637875777615395
 32
0.0
 13
5.3046114673642739
 23
9.0637875777615395
 33
0.0
  0
SOLID
  5
489
  8
DIM
 62
     0
 10
3.3206114673642722
 20
9.12378757776154
 30
0.0
 11
3.3206114673642722
 21
9.003787577761539
 31
0.0
 12
3.680611467364272
 22
9.0637875777615395
 32
0.0
 13
3.680611467364272
 23
9.0637875777615395
 33
0.0
  0
TEXT
  5
48A
  8
OBJECT
 62
     0
 10
4.1488614673642727
 20
8.9387875777615395
 30
0.0
 40
0.25
  1
1.625
 41
0.75
  7
TXT
  0
POINT
  5
48B
  8
DEFPOINTS
 62
     0
 10
5.3046114673642739
 20
10.17397454161185
 30
0.0
  0
POINT
  5
48C
  8
DEFPOINTS
 62
     0
 10
3.680611467364272
 20
10.17397454161185
 30
0.0
  0
POINT
  5
48D
  8
DEFPOINTS
 62
     0
 10
3.680611467364272
 20
9.0637875777615395
 30
0.0
  0
ENDBLK
  5
48F
  8
0
  0
BLOCK
  8
0
  2
*D9
 70
     1
 10
0.0
 20
0.0
 30
0.0
  3
*D9
  1

  0
LINE
  5
D06
  8
DIM
 62
     0
 10
13.124801352848319
 20
14.53382652461916
 30
0.0
 11
13.124801352848319
 21
12.832680297065069
 31
0.0
  0
LINE
  5
D07
  8
DIM
 62
     0
 10
22.124801352848319
 20
14.53382652461916
 30
0.0
 11
22.124801352848319
 21
12.832680297065069
 31
0.0
  0
LINE
  5
D08
  8
DIM
 62
     0
 10
13.48480135284831
 20
13.018680297065069
 30
0.0
 11
17.382301352848309
 21
13.018680297065069
 31
0.0
  0
LINE
  5
D09
  8
DIM
 62
     0
 10
21.764801352848309
 20
13.018680297065069
 30
0.0
 11
17.867301352848308
 21
13.018680297065069
 31
0.0
  0
SOLID
  5
D0A
  8
DIM
 62
     0
 10
13.48480135284831
 20
13.07868029706507
 30
0.0
 11
13.48480135284831
 21
12.958680297065071
 31
0.0
 12
13.124801352848319
 22
13.018680297065069
 32
0.0
 13
13.124801352848319
 23
13.018680297065069
 33
0.0
  0
SOLID
  5
D0B
  8
DIM
 62
     0
 10
21.764801352848309
 20
13.07868029706507
 30
0.0
 11
21.764801352848309
 21
12.958680297065071
 31
0.0
 12
22.124801352848319
 22
13.018680297065069
 32
0.0
 13
22.124801352848319
 23
13.018680297065069
 33
0.0
  0
TEXT
  5
D0C
  8
OBJECT
 62
     0
 10
17.562301352848309
 20
12.893680297065069
 30
0.0
 40
0.25
  1
C
 41
0.75
  7
TXT
  0
POINT
  5
D0D
  8
DEFPOINTS
 62
     0
 10
13.124801352848319
 20
14.659826524619159
 30
0.0
  0
POINT
  5
D0E
  8
DEFPOINTS
 62
     0
 10
22.124801352848319
 20
14.659826524619159
 30
0.0
  0
POINT
  5
D0F
  8
DEFPOINTS
 62
     0
 10
22.124801352848319
 20
13.018680297065069
 30
0.0
  0
ENDBLK
  5
49C
  8
0
  0
BLOCK
  8
0
  2
*D10
 70
     1
 10
0.0
 20
0.0
 30
0.0
  3
*D10
  1

  0
LINE
  5
D10
  8
DIM
 62
     0
 10
22.124801352848319
 20
14.53382652461916
 30
0.0
 11
22.124801352848319
 21
12.832680297065069
 31
0.0
  0
LINE
  5
D11
  8
DIM
 62
     0
 10
25.624801352848309
 20
14.25282652461917
 30
0.0
 11
25.624801352848309
 21
12.832680297065069
 31
0.0
  0
LINE
  5
D12
  8
DIM
 62
     0
 10
22.484801352848319
 20
13.018680297065069
 30
0.0
 11
23.632301352848309
 21
13.018680297065069
 31
0.0
  0
LINE
  5
D13
  8
DIM
 62
     0
 10
25.264801352848309
 20
13.018680297065069
 30
0.0
 11
24.117301352848308
 21
13.018680297065069
 31
0.0
  0
SOLID
  5
D14
  8
DIM
 62
     0
 10
22.484801352848319
 20
13.07868029706507
 30
0.0
 11
22.484801352848319
 21
12.958680297065071
 31
0.0
 12
22.124801352848319
 22
13.018680297065069
 32
0.0
 13
22.124801352848319
 23
13.018680297065069
 33
0.0
  0
SOLID
  5
D15
  8
DIM
 62
     0
 10
25.264801352848309
 20
13.07868029706507
 30
0.0
 11
25.264801352848309
 21
12.958680297065071
 31
0.0
 12
25.624801352848309
 22
13.018680297065069
 32
0.0
 13
25.624801352848309
 23
13.018680297065069
 33
0.0
  0
TEXT
  5
D16
  8
OBJECT
 62
     0
 10
23.812301352848309
 20
12.893680297065069
 30
0.0
 40
0.25
  1
B
 41
0.75
  7
TXT
  0
POINT
  5
D17
  8
DEFPOINTS
 62
     0
 10
22.124801352848319
 20
14.659826524619159
 30
0.0
  0
POINT
  5
D18
  8
DEFPOINTS
 62
     0
 10
25.624801352848309
 20
14.37882652461917
 30
0.0
  0
POINT
  5
D19
  8
DEFPOINTS
 62
     0
 10
25.624801352848309
 20
13.018680297065069
 30
0.0
  0
ENDBLK
  5
4A9
  8
0
  0
BLOCK
  8
0
  2
*D11
 70
     1
 10
0.0
 20
0.0
 30
0.0
  3
*D11
  1

  0
LINE
  5
D3D
  8
DIM
 62
     0
 10
13.124801352848319
 20
14.53382652461916
 30
0.0
 11
13.124801352848319
 21
13.42828779822835
 31
0.0
  0
LINE
  5
D3E
  8
DIM
 62
     0
 10
16.124801352848309
 20
14.53382652461916
 30
0.0
 11
16.124801352848309
 21
13.42828779822835
 31
0.0
  0
LINE
  5
D3F
  8
DIM
 62
     0
 10
13.48480135284831
 20
13.61428779822835
 30
0.0
 11
14.382301352848319
 21
13.61428779822835
 31
0.0
  0
LINE
  5
D40
  8
DIM
 62
     0
 10
15.76480135284832
 20
13.61428779822835
 30
0.0
 11
14.86730135284831
 21
13.61428779822835
 31
0.0
  0
SOLID
  5
D41
  8
DIM
 62
     0
 10
13.48480135284831
 20
13.674287798228351
 30
0.0
 11
13.48480135284831
 21
13.55428779822835
 31
0.0
 12
13.124801352848319
 22
13.61428779822835
 32
0.0
 13
13.124801352848319
 23
13.61428779822835
 33
0.0
  0
SOLID
  5
D42
  8
DIM
 62
     0
 10
15.76480135284832
 20
13.674287798228351
 30
0.0
 11
15.76480135284832
 21
13.55428779822835
 31
0.0
 12
16.124801352848309
 22
13.61428779822835
 32
0.0
 13
16.124801352848309
 23
13.61428779822835
 33
0.0
  0
TEXT
  5
D43
  8
OBJECT
 62
     0
 10
14.56230135284831
 20
13.48928779822835
 30
0.0
 40
0.25
  1
D
 41
0.75
  7
TXT
  0
POINT
  5
D44
  8
DEFPOINTS
 62
     0
 10
13.124801352848319
 20
14.659826524619159
 30
0.0
  0
POINT
  5
D45
  8
DEFPOINTS
 62
     0
 10
16.124801352848309
 20
14.659826524619159
 30
0.0
  0
POINT
  5
D46
  8
DEFPOINTS
 62
     0
 10
16.124801352848309
 20
13.61428779822835
 30
0.0
  0
ENDBLK
  5
D27
  8
0
  0
ENDSEC
  0
SECTION
  2
ENTITIES
  0
TEXT
  5
1CF
  8
TEXT
 10
0.5302499999994758
 20
19.3601583912608
 30
0.0
 40
0.24999999999975
  1
NAME
 41
0.75
  7
TXT
 72
     1
 11
0.8739999999991317
 21
19.3601583912608
 31
0.0
  0
TEXT
  5
1D0
  8
TEXT
 10
0.5302499999994758
 20
19.776825057927049
 30
0.0
 40
0.24999999999975
  1
PART
 41
0.75
  7
TXT
 72
     1
 11
0.8739999999991317
 21
19.776825057927049
 31
0.0
  0
TEXT
  5
1D1
  8
TEXT
 10
16.186499999983798
 20
19.3601583912608
 30
0.0
 40
0.24999999999975
  1
No.
 41
0.75
  7
TXT
 72
     1
 11
16.373999999983621
 21
19.3601583912608
 31
0.0
  0
TEXT
  5
1D2
  8
TEXT
 10
16.030249999983958
 20
19.776825057927049
 30
0.0
 40
0.24999999999975
  1
PART
 41
0.75
  7
TXT
 72
     1
 11
16.373999999983621
 21
19.776825057927049
 31
0.0
  0
LINE
  5
1D3
  8
TITLE
 10
17.123999999982878
 20
20.115999999979891
 30
0.0
 11
17.123999999982878
 21
19.279999999980721
 31
0.0
  0
LINE
  5
1D4
  8
TITLE
 10
15.623999999984379
 20
20.115999999979891
 30
0.0
 11
15.623999999984379
 21
19.279999999980721
 31
0.0
  0
LINE
  5
1D5
  8
TITLE
 10
15.499999999984491
 20
20.115999999979891
 30
0.0
 11
15.499999999984491
 21
19.279999999980721
 31
0.0
  0
LINE
  5
1D6
  8
TITLE
 10
1.6239999999983821
 20
19.279999999980721
 30
0.0
 11
1.6239999999983781
 21
20.115999999979891
 31
0.0
  0
LINE
  5
1D7
  8
TITLE
 10
0.1239999999998783
 20
19.279999999980721
 30
0.0
 11
30.875999999969121
 21
19.279999999980721
 31
0.0
  0
LINE
  5
1D8
  8
TITLE
 10
30.875999999969121
 20
20.115999999979891
 30
0.0
 11
30.87599999996911
 21
0.1239999999998712
 31
0.0
  0
LINE
  5
1D9
  8
TITLE
 10
0.1239999999998783
 20
20.115999999979891
 30
0.0
 11
30.875999999969121
 21
20.115999999979891
 31
0.0
  0
LINE
  5
1DA
  8
TITLE
 10
0.1239999999998783
 20
0.1239999999998783
 30
0.0
 11
0.1239999999998783
 21
20.115999999979891
 31
0.0
  0
LINE
  5
1DB
  8
TITLE
 10
30.87599999996911
 20
0.1239999999998712
 30
0.0
 11
0.1239999999998783
 21
0.1239999999998783
 31
0.0
  0
LINE
  5
1DC
  8
TITLE
 10
30.999999999968988
 20
0.0
 30
0.0
 11
0.0
 21
0.0
 31
0.0
  0
LINE
  5
1DD
  8
TITLE
 10
30.999999999968999
 20
20.239999999979752
 30
0.0
 11
30.999999999968988
 21
0.0
 31
0.0
  0
LINE
  5
1DE
  8
TITLE
 10
0.0000000000000071
 20
20.239999999979752
 30
0.0
 11
30.999999999968999
 21
20.239999999979752
 31
0.0
  0
LINE
  5
1DF
  8
TITLE
 10
0.0
 20
0.0
 30
0.0
 11
0.0000000000000071
 21
20.239999999979752
 31
0.0
  0
LINE
  5
1E0
  8
OBJECT
 10
8.1248013528483192
 20
15.94082652461918
 30
0.0
 11
10.437301352848319
 21
15.94082652461918
 31
0.0
  0
LINE
  5
1E1
  8
OBJECT
 10
25.624801352848309
 20
14.440826524619171
 30
0.0
 11
8.1248013528483192
 21
14.440826524619171
 31
0.0
  0
LINE
  5
1E2
  8
OBJECT
 10
8.1248013528483192
 20
14.37882652461917
 30
0.0
 11
8.1248013528483192
 21
16.002826524619181
 31
0.0
  0
LINE
  5
1E3
  8
OBJECT
 10
8.1248013528483192
 20
9.8299745416118451
 30
0.0
 11
8.1248013528483192
 21
11.07997454161184
 31
0.0
  0
LINE
  5
1E4
  8
OBJECT
 10
25.624801352848309
 20
9.8299745416118451
 30
0.0
 11
8.1248013528483192
 21
9.8299745416118451
 31
0.0
  0
LINE
  5
1E5
  8
OBJECT
 10
8.1248013528483192
 20
11.07997454161184
 30
0.0
 11
25.624801352848309
 21
11.07997454161184
 31
0.0
  0
LINE
  5
1E6
  8
OBJECT
 10
13.56180135284831
 20
15.346826524619161
 30
0.0
 11
13.56180135284831
 21
15.534826524619159
 31
0.0
  0
LINE
  5
1E7
  8
OBJECT
 10
13.12380135284832
 20
15.346826524619161
 30
0.0
 11
13.123801352848311
 21
15.534826524619159
 31
0.0
  0
LINE
  5
1E8
  8
OBJECT
 10
13.56180135284831
 20
15.534826524619159
 30
0.0
 11
13.12380135284832
 21
15.534826524619159
 31
0.0
  0
LINE
  5
1E9
  8
OBJECT
 10
13.56180135284831
 20
15.346826524619161
 30
0.0
 11
13.12380135284832
 21
15.346826524619161
 31
0.0
  0
LINE
  5
1EA
  8
OBJECT
 10
13.515801352848319
 20
15.39282652461916
 30
0.0
 11
13.515801352848319
 21
15.488826524619171
 31
0.0
  0
LINE
  5
1EB
  8
OBJECT
 10
13.515801352848319
 20
15.488826524619171
 30
0.0
 11
13.169801352848321
 21
15.488826524619171
 31
0.0
  0
LINE
  5
1EC
  8
OBJECT
 10
13.515801352848319
 20
15.39282652461916
 30
0.0
 11
13.169801352848321
 21
15.39282652461916
 31
0.0
  0
LINE
  5
1ED
  8
OBJECT
 10
13.169801352848321
 20
15.39282652461916
 30
0.0
 11
13.169801352848321
 21
15.488826524619171
 31
0.0
  0
LINE
  5
1EE
  8
OBJECT
 10
13.169801352848321
 20
15.39282652461916
 30
0.0
 11
13.12380135284832
 21
15.346826524619161
 31
0.0
  0
LINE
  5
1EF
  8
OBJECT
 10
13.51580135284831
 20
15.39282652461916
 30
0.0
 11
13.56180135284831
 21
15.346826524619161
 31
0.0
  0
LINE
  5
1F0
  8
OBJECT
 10
13.51580135284831
 20
15.488826524619149
 30
0.0
 11
13.56180135284831
 21
15.534826524619159
 31
0.0
  0
LINE
  5
1F1
  8
OBJECT
 10
13.169801352848321
 20
15.488826524619149
 30
0.0
 11
13.12380135284832
 21
15.534826524619159
 31
0.0
  0
LINE
  5
1F2
  8
OBJECT
 10
13.217801352848319
 20
14.89282652461916
 30
0.0
 11
13.17180135284833
 21
14.846826524619161
 31
0.0
  0
LINE
  5
1F3
  8
OBJECT
 10
13.50080135284832
 20
14.89282652461916
 30
0.0
 11
13.546801352848311
 21
14.846826524619161
 31
0.0
  0
LINE
  5
1F4
  8
OBJECT
 10
13.50080135284832
 20
14.988826524619149
 30
0.0
 11
13.546801352848311
 21
15.034826524619159
 31
0.0
  0
LINE
  5
1F5
  8
OBJECT
 10
13.217801352848319
 20
14.988826524619149
 30
0.0
 11
13.17180135284833
 21
15.034826524619159
 31
0.0
  0
LINE
  5
1F6
  8
OBJECT
 10
13.217801352848319
 20
14.988826524619149
 30
0.0
 11
13.217801352848319
 21
14.89282652461916
 31
0.0
  0
LINE
  5
1F7
  8
OBJECT
 10
13.50080135284832
 20
14.988826524619171
 30
0.0
 11
13.217801352848319
 21
14.988826524619149
 31
0.0
  0
LINE
  5
1F8
  8
OBJECT
 10
13.50080135284832
 20
14.89282652461916
 30
0.0
 11
13.217801352848319
 21
14.89282652461916
 31
0.0
  0
LINE
  5
1F9
  8
OBJECT
 10
13.50080135284832
 20
14.988826524619171
 30
0.0
 11
13.50080135284832
 21
14.89282652461916
 31
0.0
  0
LINE
  5
1FA
  8
OBJECT
 10
13.54680135284833
 20
15.034826524619159
 30
0.0
 11
13.17180135284833
 21
15.034826524619159
 31
0.0
  0
LINE
  5
1FB
  8
OBJECT
 10
13.54680135284833
 20
14.846826524619161
 30
0.0
 11
13.17180135284833
 21
14.846826524619161
 31
0.0
  0
LINE
  5
1FC
  8
OBJECT
 10
13.17180135284833
 20
15.034826524619159
 30
0.0
 11
13.17180135284833
 21
14.846826524619161
 31
0.0
  0
LINE
  5
1FD
  8
OBJECT
 10
13.54680135284833
 20
15.034826524619159
 30
0.0
 11
13.54680135284833
 21
14.846826524619161
 31
0.0
  0
LINE
  5
1FE
  8
OBJECT
 10
12.71880135284831
 20
15.346826524619161
 30
0.0
 11
12.71880135284831
 21
15.034826524619159
 31
0.0
  0
LINE
  5
1FF
  8
OBJECT
 10
12.71880135284831
 20
15.034826524619159
 30
0.0
 11
12.85880135284831
 21
15.034826524619159
 31
0.0
  0
LINE
  5
200
  8
OBJECT
 10
12.71880135284831
 20
15.346826524619161
 30
0.0
 11
12.85880135284831
 21
15.346826524619161
 31
0.0
  0
ARC
  5
201
  8
OBJECT
 10
12.8740571668018
 20
15.190826524619171
 30
0.0
 40
0.1567441860465107
 50
264.41459526857238
 51
95.585404731427616
  0
LINE
  5
202
  8
OBJECT
 10
12.76480135284832
 20
15.30082652461917
 30
0.0
 11
12.76480135284832
 21
15.08082652461917
 31
0.0
  0
LINE
  5
203
  8
OBJECT
 10
12.76480135284832
 20
15.30082652461917
 30
0.0
 11
12.85880135284831
 21
15.30082652461917
 31
0.0
  0
LINE
  5
204
  8
OBJECT
 10
12.76480135284832
 20
15.08082652461917
 30
0.0
 11
12.85880135284831
 21
15.08082652461917
 31
0.0
  0
ARC
  5
205
  8
OBJECT
 10
12.87378547983244
 20
15.190826524619171
 30
0.0
 40
0.1110158730158726
 50
262.24295099430378
 51
97.757049005696075
  0
LINE
  5
206
  8
OBJECT
 10
12.76480135284832
 20
15.08082652461917
 30
0.0
 11
12.71880135284831
 21
15.034826524619159
 31
0.0
  0
LINE
  5
207
  8
OBJECT
 10
12.76480135284832
 20
15.30082652461917
 30
0.0
 11
12.71880135284831
 21
15.346826524619161
 31
0.0
  0
LINE
  5
208
  8
OBJECT
 10
12.59380135284831
 20
15.721826524619161
 30
0.0
 11
12.59380135284832
 21
14.659826524619159
 31
0.0
  0
LINE
  5
209
  8
OBJECT
 10
13.655801352848311
 20
15.721826524619161
 30
0.0
 11
13.655801352848311
 21
14.659826524619159
 31
0.0
  0
LINE
  5
20A
  8
OBJECT
 10
12.59380135284831
 20
15.721826524619161
 30
0.0
 11
13.655801352848311
 21
15.721826524619161
 31
0.0
  0
LINE
  5
20B
  8
OBJECT
 10
12.59380135284832
 20
14.659826524619159
 30
0.0
 11
13.655801352848311
 21
14.659826524619159
 31
0.0
  0
LINE
  5
20C
  8
OBJECT
 10
12.59380135284832
 20
11.26797454161184
 30
0.0
 11
12.59380135284832
 21
11.07997454161184
 31
0.0
  0
LINE
  5
20D
  8
OBJECT
 10
13.655801352848311
 20
11.26797454161184
 30
0.0
 11
13.655801352848311
 21
11.07997454161184
 31
0.0
  0
LINE
  5
20E
  8
OBJECT
 10
12.59380135284832
 20
11.26797454161184
 30
0.0
 11
13.655801352848311
 21
11.26797454161184
 31
0.0
  0
LINE
  5
20F
  8
OBJECT
 10
12.127962012504399
 20
16.928554608277238
 30
0.0
 11
14.7205282802926
 21
16.928554608277238
 31
0.0
  0
LINE
  5
210
  8
OBJECT
 10
12.12596733165338
 20
17.303554608277238
 30
0.0
 11
14.7205282802926
 21
17.303554608277238
 31
0.0
  0
ARC
  5
211
  8
OBJECT
 10
11.826602841827521
 20
17.023054608277231
 30
0.0
 40
0.0935013297872338
 50
89.694423233593596
 51
270.30557676640632
  0
ARC
  5
212
  8
OBJECT
 10
11.82560550140202
 20
17.210054608277229
 30
0.0
 40
0.0935013297872338
 50
269.69442323359362
 51
90.305576766406404
  0
LINE
  5
213
  8
OBJECT
 10
11.82710684541153
 20
16.928554608277238
 30
0.0
 11
11.826104171614769
 21
17.116554608277241
 31
0.0
  0
ARC
  5
214
  8
OBJECT
 10
12.126466001866151
 20
17.210054608277229
 30
0.0
 40
0.0935013297872338
 50
269.69442323359362
 51
90.305576766406404
  0
ARC
  5
215
  8
OBJECT
 10
12.127463342291639
 20
17.023054608277231
 30
0.0
 40
0.0935013297872338
 50
89.694423233593596
 51
270.30557676640632
  0
LINE
  5
216
  8
OBJECT
 10
12.12596733165338
 20
17.303554608277238
 30
0.0
 11
12.12696467207889
 21
17.116554608277241
 31
0.0
  0
LINE
  5
217
  8
OBJECT
 10
16.93952828029261
 20
16.835054608277229
 30
0.0
 11
16.93952828029261
 21
16.881054608277239
 31
0.0
  0
LINE
  5
218
  8
OBJECT
 10
16.93952828029261
 20
16.835054608277229
 30
0.0
 11
16.251528280292611
 21
16.835054608277229
 31
0.0
  0
LINE
  5
219
  8
OBJECT
 10
16.93952828029261
 20
16.881054608277239
 30
0.0
 11
16.251528280292611
 21
16.881054608277239
 31
0.0
  0
LINE
  5
21A
  8
OBJECT
 10
16.93952828029261
 20
17.351054608277241
 30
0.0
 11
16.251528280292611
 21
17.351054608277241
 31
0.0
  0
LINE
  5
21B
  8
OBJECT
 10
16.93952828029261
 20
17.397054608277241
 30
0.0
 11
16.251528280292611
 21
17.39705460827723
 31
0.0
  0
LINE
  5
21C
  8
OBJECT
 10
16.93952828029261
 20
17.397054608277241
 30
0.0
 11
16.93952828029261
 21
17.351054608277241
 31
0.0
  0
ARC
  5
21D
  8
OBJECT
 10
16.969528280292611
 20
17.116054608277238
 30
0.0
 40
0.094
 50
270.0
 51
90.0
  0
LINE
  5
21E
  8
OBJECT
 10
16.251528280292611
 20
17.02205460827723
 30
0.0
 11
16.969528280292611
 21
17.02205460827723
 31
0.0
  0
LINE
  5
21F
  8
OBJECT
 10
16.251528280292611
 20
17.210054608277229
 30
0.0
 11
16.969528280292611
 21
17.210054608277229
 31
0.0
  0
LINE
  5
220
  8
OBJECT
 10
15.43952828029261
 20
16.647054608277241
 30
0.0
 11
15.001528280292611
 21
16.913054608277239
 31
0.0
  0
LINE
  5
221
  8
OBJECT
 10
14.7205282802926
 20
16.803554608277238
 30
0.0
 11
15.181832791570811
 21
16.803554608277238
 31
0.0
  0
LINE
  5
222
  8
OBJECT
 10
14.7205282802926
 20
17.428554608277238
 30
0.0
 11
15.181832791570811
 21
17.428554608277238
 31
0.0
  0
LINE
  5
223
  8
OBJECT
 10
15.43952828029261
 20
17.585054608277229
 30
0.0
 11
15.001528280292611
 21
17.319054608277241
 31
0.0
  0
LINE
  5
224
  8
OBJECT
 10
15.2205282802926
 20
17.319054608277241
 30
0.0
 11
15.22052828029261
 21
16.913054608277239
 31
0.0
  0
LINE
  5
225
  8
OBJECT
 10
16.251528280292611
 20
16.913054608277239
 30
0.0
 11
15.001528280292611
 21
16.913054608277239
 31
0.0
  0
LINE
  5
226
  8
OBJECT
 10
16.251528280292611
 20
17.319054608277241
 30
0.0
 11
15.001528280292611
 21
17.319054608277241
 31
0.0
  0
LINE
  5
227
  8
OBJECT
 10
15.001528280292611
 20
17.319054608277241
 30
0.0
 11
15.001528280292611
 21
16.913054608277239
 31
0.0
  0
LINE
  5
228
  8
OBJECT
 10
16.251528280292611
 20
16.64705460827723
 30
0.0
 11
15.43952828029261
 21
16.64705460827723
 31
0.0
  0
LINE
  5
229
  8
OBJECT
 10
16.251528280292611
 20
17.585054608277229
 30
0.0
 11
15.43952828029261
 21
17.585054608277229
 31
0.0
  0
LINE
  5
22A
  8
OBJECT
 10
16.251528280292611
 20
17.585054608277229
 30
0.0
 11
16.251528280292611
 21
16.64705460827723
 31
0.0
  0
LINE
  5
22B
  8
OBJECT
 10
14.7205282802926
 20
17.428554608277238
 30
0.0
 11
14.7205282802926
 21
16.803554608277238
 31
0.0
  0
ARC
  5
22C
  8
OBJECT
 10
11.062301352848319
 20
16.678554608277238
 30
0.0
 40
0.625
 50
90.0
 51
180.0
  0
ARC
  5
22D
  8
OBJECT
 10
11.062301352848319
 20
16.678554608277238
 30
0.0
 40
0.25
 50
90.0
 51
180.0
  0
LINE
  5
22E
  8
OBJECT
 10
11.062301352848319
 20
17.303554608277238
 30
0.0
 11
11.826104171614769
 21
17.303554608277238
 31
0.0
  0
LINE
  5
22F
  8
OBJECT
 10
11.062301352848319
 20
16.928554608277238
 30
0.0
 11
11.82710684541153
 21
16.928554608277238
 31
0.0
  0
LINE
  5
230
  8
OBJECT
 10
10.81230135284831
 20
15.190826524619171
 30
0.0
 11
10.81230135284831
 21
16.678554608277238
 31
0.0
  0
LINE
  5
231
  8
OBJECT
 10
10.437301352848319
 20
15.190826524619171
 30
0.0
 11
10.437301352848319
 21
16.678554608277238
 31
0.0
  0
ARC
  5
232
  8
OBJECT
 10
10.62480135284831
 20
15.190826524619171
 30
0.0
 40
0.1875
 50
180.0
 51
0.0
  0
ARC
  5
233
  8
OBJECT
 10
10.62480135284831
 20
15.253326524619171
 30
0.0
 40
0.3750000000000005
 50
359.99998127603158
 51
60.0
  0
ARC
  5
234
  8
OBJECT
 10
10.62480135284831
 20
15.128326524619171
 30
0.0
 40
0.3750000000000005
 50
179.99997902828261
 51
359.99998127603158
  0
LINE
  5
235
  8
OBJECT
 10
10.99980135284833
 20
15.128326661878731
 30
0.0
 11
10.99980135284833
 21
15.253326661878731
 31
0.0
  0
LINE
  5
236
  8
OBJECT
 10
10.81230135284831
 20
12.07946936834721
 30
0.0
 11
10.625301352848309
 21
12.0784720279217
 31
0.0
  0
ARC
  5
237
  8
OBJECT
 10
10.53180135284831
 20
12.077973357708951
 30
0.0
 40
0.0935013297872338
 50
359.69442323359362
 51
180.3055767664064
  0
ARC
  5
238
  8
OBJECT
 10
10.71880135284831
 20
12.07897069813445
 30
0.0
 40
0.0935013297872338
 50
179.69442323359351
 51
0.3055767664063946
  0
LINE
  5
239
  8
OBJECT
 10
10.81230135284831
 20
12.07946936834721
 30
0.0
 11
10.81230135284831
 21
11.391974541611839
 31
0.0
  0
LINE
  5
23A
  8
OBJECT
 10
10.437301352848319
 20
12.07747468749619
 30
0.0
 11
10.437301352848319
 21
11.391974541611839
 31
0.0
  0
LINE
  5
23B
  8
OBJECT
 10
10.2498013528483
 20
11.391974541611839
 30
0.0
 11
10.2498013528483
 21
11.07997454161184
 31
0.0
  0
LINE
  5
23C
  8
OBJECT
 10
10.2498013528483
 20
11.391974541611839
 30
0.0
 11
10.99980135284831
 21
11.391974541611839
 31
0.0
  0
LINE
  5
23D
  8
OBJECT
 10
10.99980135284831
 20
11.391974541611839
 30
0.0
 11
10.99980135284831
 21
11.07997454161184
 31
0.0
  0
LINE
  5
23E
  8
OBJECT
 10
10.2498013528483
 20
15.128326661878731
 30
0.0
 11
10.2498013528483
 21
15.253326661878731
 31
0.0
  0
ARC
  5
23F
  8
OBJECT
 10
10.62480135284831
 20
15.253326524619171
 30
0.0
 40
0.3750000000000005
 50
119.9999999999999
 51
179.99997902828261
  0
LINE
  5
240
  8
OBJECT
 10
10.81230135284831
 20
15.94082652461918
 30
0.0
 11
25.624801352848309
 21
15.94082652461918
 31
0.0
  0
LINE
  5
241
  8
OBJECT
 10
10.81230135284831
 20
16.002826524619181
 30
0.0
 11
25.624801352848309
 21
16.002826524619181
 31
0.0
  0
LINE
  5
242
  8
OBJECT
 10
8.1248013528483192
 20
16.002826524619181
 30
0.0
 11
10.437301352848319
 21
16.002826524619181
 31
0.0
  0
LINE
  5
243
  8
OBJECT
 10
25.624801352848309
 20
14.37882652461917
 30
0.0
 11
8.1248013528483192
 21
14.37882652461917
 31
0.0
  0
LINE
  5
244
  8
OBJECT
 10
8.1248013528483192
 20
10.79897454161185
 30
0.0
 11
25.624801352848309
 21
10.79897454161185
 31
0.0
  0
LINE
  5
245
  8
OBJECT
 10
25.624801352848309
 20
10.17397454161185
 30
0.0
 11
8.1248013528483192
 21
10.17397454161185
 31
0.0
  0
LINE
  5
246
  8
OBJECT
 10
25.624801352848309
 20
10.11197454161185
 30
0.0
 11
8.1248013528483192
 21
10.11197454161185
 31
0.0
  0
LINE
  5
247
  8
OBJECT
 10
8.0308013528483162
 20
14.45682652461916
 30
0.0
 11
8.0308013528483251
 21
15.92482652461918
 31
0.0
  0
LINE
  5
248
  8
OBJECT
 10
8.1248013528483192
 20
16.002826524619181
 30
0.0
 11
8.1088013528483192
 21
16.002826524619181
 31
0.0
  0
LINE
  5
249
  8
OBJECT
 10
8.1248013528483192
 20
15.94082652461918
 30
0.0
 11
8.0308013528483162
 21
15.94082652461918
 31
0.0
  0
LINE
  5
24A
  8
OBJECT
 10
8.1248013528483192
 20
14.440826524619171
 30
0.0
 11
8.0308013528483162
 21
14.440826524619171
 31
0.0
  0
LINE
  5
24B
  8
OBJECT
 10
8.1248013528483192
 20
14.37882652461917
 30
0.0
 11
8.1088013528483192
 21
14.37882652461917
 31
0.0
  0
ARC
  5
24C
  8
OBJECT
 10
8.1088013528483192
 20
15.92482652461918
 30
0.0
 40
0.078
 50
90.0
 51
179.99999999999989
  0
ARC
  5
24D
  8
OBJECT
 10
8.1088013528483192
 20
14.45682652461916
 30
0.0
 40
0.078
 50
179.9999999999998
 51
270.0
  0
ARC
  5
24E
  8
OBJECT
 10
25.640801352848332
 20
14.45682652461916
 30
0.0
 40
0.078
 50
270.0
 51
0.0000000000001018
  0
ARC
  5
24F
  8
OBJECT
 10
25.6408013528483
 20
15.92482652461918
 30
0.0
 40
0.078
 50
0.0000000000000509
 51
90.0
  0
LINE
  5
250
  8
OBJECT
 10
25.624801352848309
 20
14.37882652461917
 30
0.0
 11
25.640801352848332
 21
14.37882652461917
 31
0.0
  0
LINE
  5
251
  8
OBJECT
 10
25.624801352848309
 20
14.440826524619171
 30
0.0
 11
25.718801352848299
 21
14.440826524619171
 31
0.0
  0
LINE
  5
252
  8
OBJECT
 10
25.624801352848309
 20
15.94082652461918
 30
0.0
 11
25.718801352848299
 21
15.94082652461918
 31
0.0
  0
LINE
  5
253
  8
OBJECT
 10
25.624801352848309
 20
16.002826524619181
 30
0.0
 11
25.6408013528483
 21
16.002826524619181
 31
0.0
  0
LINE
  5
254
  8
OBJECT
 10
25.718801352848299
 20
14.45682652461916
 30
0.0
 11
25.718801352848299
 21
15.92482652461918
 31
0.0
  0
LINE
  5
255
  8
OBJECT
 10
25.624801352848309
 20
14.37882652461917
 30
0.0
 11
25.624801352848309
 21
16.002826524619181
 31
0.0
  0
LINE
  5
256
  8
OBJECT
 10
8.0308013528483162
 20
9.9079745416118499
 30
0.0
 11
8.0308013528483162
 21
11.00197454161184
 31
0.0
  0
LINE
  5
257
  8
OBJECT
 10
8.1248013528483192
 20
11.07997454161184
 30
0.0
 11
8.1088013528483192
 21
11.07997454161184
 31
0.0
  0
LINE
  5
258
  8
OBJECT
 10
8.1248013528483192
 20
9.8299745416118451
 30
0.0
 11
8.1088013528483192
 21
9.8299745416118451
 31
0.0
  0
LINE
  5
259
  8
OBJECT
 10
8.1248013528483192
 20
10.11197454161185
 30
0.0
 11
8.0308013528483162
 21
10.11197454161185
 31
0.0
  0
LINE
  5
25A
  8
OBJECT
 10
8.1248013528483192
 20
10.17397454161185
 30
0.0
 11
8.0308013528483162
 21
10.11197454161185
 31
0.0
  0
ARC
  5
25B
  8
OBJECT
 10
8.1088013528483192
 20
11.00197454161184
 30
0.0
 40
0.078
 50
90.0
 51
180.0
  0
ARC
  5
25C
  8
OBJECT
 10
8.1088013528483192
 20
9.9079745416118499
 30
0.0
 40
0.078
 50
180.0
 51
270.0
  0
ARC
  5
25D
  8
OBJECT
 10
8.1197823311091888
 20
10.79897454161185
 30
0.0
 40
0.1349809782608721
 50
131.23974529801271
 51
228.7602547019867
  0
ARC
  5
25E
  8
OBJECT
 10
8.1197823311091888
 20
14.596826524619161
 30
0.0
 40
0.1349809782608721
 50
131.23974529801271
 51
228.7602547019867
  0
ARC
  5
25F
  8
OBJECT
 10
8.1197823311091888
 20
15.784826524619159
 30
0.0
 40
0.1349809782608721
 50
131.23974529801271
 51
228.7602547019867
  0
ARC
  5
260
  8
OBJECT
 10
25.629820374587428
 20
15.784826524619159
 30
0.0
 40
0.1349809782608721
 50
311.23974529801319
 51
48.760254701987229
  0
ARC
  5
261
  8
OBJECT
 10
25.629820374587428
 20
14.596826524619161
 30
0.0
 40
0.1349809782608721
 50
311.23974529801319
 51
48.760254701987229
  0
LINE
  5
262
  8
OBJECT
 10
25.624801352848309
 20
9.8299745416118451
 30
0.0
 11
25.624801352848309
 21
11.07997454161184
 31
0.0
  0
LINE
  5
263
  8
OBJECT
 10
25.718801352848299
 20
9.9079745416118499
 30
0.0
 11
25.718801352848299
 21
11.00197454161184
 31
0.0
  0
LINE
  5
264
  8
OBJECT
 10
25.624801352848309
 20
11.07997454161184
 30
0.0
 11
25.640801352848332
 21
11.07997454161184
 31
0.0
  0
LINE
  5
265
  8
OBJECT
 10
25.624801352848309
 20
9.8299745416118451
 30
0.0
 11
25.640801352848332
 21
9.8299745416118451
 31
0.0
  0
LINE
  5
266
  8
OBJECT
 10
25.624801352848309
 20
10.11197454161185
 30
0.0
 11
25.718801352848331
 21
10.11197454161185
 31
0.0
  0
LINE
  5
267
  8
OBJECT
 10
25.624801352848309
 20
10.17397454161185
 30
0.0
 11
25.718801352848299
 21
10.11197454161185
 31
0.0
  0
ARC
  5
268
  8
OBJECT
 10
25.640801352848332
 20
11.00197454161184
 30
0.0
 40
0.078
 50
0.0
 51
90.0
  0
ARC
  5
269
  8
OBJECT
 10
25.640801352848332
 20
9.9079745416118499
 30
0.0
 40
0.078
 50
270.0
 51
0.0
  0
ARC
  5
26A
  8
OBJECT
 10
25.62982037458745
 20
10.79897454161185
 30
0.0
 40
0.1349809782608721
 50
311.23974529801319
 51
48.760254701987229
  0
TEXT
  5
26B
  8
OBJECT
 10
4.7262775218201076
 20
10.548474541611849
 30
0.0
 40
0.062
  1
P
 50
90.0
 41
0.75
 72
     1
 11
4.7262775218201076
 21
10.56397454161185
 31
0.0
  0
TEXT
  5
26C
  8
OBJECT
 10
4.6399444945921848
 20
10.548474541611849
 30
0.0
 40
0.062
  1
M
 50
90.0
 41
0.75
 72
     1
 11
4.6399444945921848
 21
10.56397454161185
 31
0.0
  0
TEXT
  5
26D
  8
OBJECT
 10
4.553611467364262
 20
10.548474541611849
 30
0.0
 40
0.062
  1
A
 50
90.0
 41
0.75
 72
     1
 11
4.553611467364262
 21
10.56397454161185
 31
0.0
  0
TEXT
  5
26E
  8
OBJECT
 10
4.445611467364273
 20
10.53297454161185
 30
0.0
 40
0.062
  1
15
 50
90.0
 41
0.75
 72
     1
 11
4.445611467364273
 21
10.56397454161185
 31
0.0
  0
LINE
  5
26F
  8
OBJECT
 10
4.6016114673642639
 20
10.39197454161185
 30
0.0
 11
4.6016114673642639
 21
10.141974541611861
 31
0.0
  0
LINE
  5
270
  8
OBJECT
 10
4.3836114673642683
 20
10.141974541611861
 30
0.0
 11
4.3836114673642683
 21
10.09597454161185
 31
0.0
  0
LINE
  5
271
  8
OBJECT
 10
4.695611467364273
 20
10.09597454161185
 30
0.0
 11
4.3836114673642683
 21
10.09597454161185
 31
0.0
  0
LINE
  5
272
  8
OBJECT
 10
4.6016114673642639
 20
10.141974541611861
 30
0.0
 11
4.6016114673642639
 21
10.09597454161185
 31
0.0
  0
LINE
  5
273
  8
OBJECT
 10
4.695611467364273
 20
10.141974541611861
 30
0.0
 11
4.695611467364273
 21
10.09597454161185
 31
0.0
  0
LINE
  5
274
  8
OBJECT
 10
4.6016114673642639
 20
10.39197454161185
 30
0.0
 11
4.6016114673642639
 21
10.437974541611849
 31
0.0
  0
LINE
  5
275
  8
OBJECT
 10
4.3836114673642683
 20
10.39197454161185
 30
0.0
 11
4.3836114673642683
 21
10.437974541611849
 31
0.0
  0
LINE
  5
276
  8
OBJECT
 10
4.695611467364273
 20
10.39197454161185
 30
0.0
 11
4.695611467364273
 21
10.437974541611849
 31
0.0
  0
LINE
  5
277
  8
OBJECT
 10
4.695611467364273
 20
10.437974541611849
 30
0.0
 11
4.3836114673642683
 21
10.437974541611849
 31
0.0
  0
POLYLINE
  5
278
  8
OBJECT
 66
     1
 10
0.0
 20
0.0
 30
0.0
  0
VERTEX
  5
D74
  8
OBJECT
 10
4.7266114673642639
 20
10.141974541611861
 30
0.0
  0
VERTEX
  5
D75
  8
OBJECT
 10
4.7266114673642639
 20
10.39197454161185
 30
0.0
  0
VERTEX
  5
D76
  8
OBJECT
 10
4.2586114673642683
 20
10.39197454161185
 30
0.0
  0
VERTEX
  5
D77
  8
OBJECT
 10
4.2586114673642683
 20
10.141974541611861
 30
0.0
  0
VERTEX
  5
D78
  8
OBJECT
 10
4.7266114673642639
 20
10.141974541611861
 30
0.0
  0
SEQEND
  5
D79
  8
OBJECT
  0
POLYLINE
  5
27F
  8
OBJECT
 66
     1
 10
0.0
 20
0.0
 30
0.0
  0
VERTEX
  5
D7A
  8
OBJECT
 10
4.8516114673642639
 20
9.9079745416118499
 30
0.0
  0
VERTEX
  5
D7B
  8
OBJECT
 10
4.8516114673642639
 20
10.62597454161185
 30
0.0
  0
VERTEX
  5
D7C
  8
OBJECT
 10
4.1336114673642683
 20
10.62597454161185
 30
0.0
  0
VERTEX
  5
D7D
  8
OBJECT
 10
4.1336114673642683
 20
9.9079745416118499
 30
0.0
  0
VERTEX
  5
D7E
  8
OBJECT
 10
4.8516114673642639
 20
9.9079745416118499
 30
0.0
  0
SEQEND
  5
D7F
  8
OBJECT
  0
CIRCLE
  5
286
  8
OBJECT
 10
3.8986114673642751
 20
10.79897454161185
 30
0.0
 40
0.102
  0
ARC
  5
287
  8
OBJECT
 10
3.8986114673642751
 20
10.79897454161185
 30
0.0
 40
0.055
 50
299.17337986812799
 51
330.82662013187201
  0
LINE
  5
288
  8
OBJECT
 10
3.9466346429498098
 20
10.82578451376178
 30
0.0
 11
3.9198246707998692
 21
10.79897454161185
 31
0.0
  0
LINE
  5
289
  8
OBJECT
 10
3.9254214395142091
 20
10.846997717197381
 30
0.0
 11
3.8986114673642751
 21
10.82018774504744
 31
0.0
  0
LINE
  5
28A
  8
OBJECT
 10
3.9254214395142091
 20
10.75095136602631
 30
0.0
 11
3.8986114673642751
 21
10.77776133817626
 31
0.0
  0
LINE
  5
28B
  8
OBJECT
 10
3.9466346429498098
 20
10.7721645694619
 30
0.0
 11
3.9198246707998692
 21
10.79897454161185
 31
0.0
  0
ARC
  5
28C
  8
OBJECT
 10
3.8986114673642751
 20
10.79897454161185
 30
0.0
 40
0.055
 50
209.1733798681274
 51
240.82662013187249
  0
ARC
  5
28D
  8
OBJECT
 10
3.8986114673642751
 20
10.79897454161185
 30
0.0
 40
0.055
 50
119.1733798681279
 51
150.82662013187189
  0
ARC
  5
28E
  8
OBJECT
 10
3.8986114673642751
 20
10.79897454161185
 30
0.0
 40
0.055
 50
29.17337986812743
 51
60.826620131872581
  0
LINE
  5
28F
  8
OBJECT
 10
3.8986114673642751
 20
10.77776133817626
 30
0.0
 11
3.8718014952143269
 21
10.75095136602631
 31
0.0
  0
LINE
  5
290
  8
OBJECT
 10
3.8773982639286748
 20
10.79897454161185
 30
0.0
 11
3.8505882917787342
 21
10.7721645694619
 31
0.0
  0
LINE
  5
291
  8
OBJECT
 10
3.8773982639286748
 20
10.79897454161185
 30
0.0
 11
3.8505882917787342
 21
10.82578451376178
 31
0.0
  0
LINE
  5
292
  8
OBJECT
 10
3.898611467364268
 20
10.82018774504744
 30
0.0
 11
3.8718014952143269
 21
10.846997717197381
 31
0.0
  0
LINE
  5
293
  8
OBJECT
 10
3.7426114673642701
 20
11.07997454161184
 30
0.0
 11
3.7426114673642701
 21
10.17397454161185
 31
0.0
  0
LINE
  5
294
  8
OBJECT
 10
5.2426114673642701
 20
11.07997454161184
 30
0.0
 11
5.2426114673642701
 21
10.17397454161185
 31
0.0
  0
LINE
  5
295
  8
OBJECT
 10
5.2426114673642701
 20
11.07997454161184
 30
0.0
 11
3.7426114673642701
 21
11.07997454161184
 31
0.0
  0
LINE
  5
296
  8
OBJECT
 10
5.2426114673642701
 20
9.8299745416118451
 30
0.0
 11
3.7426114673642701
 21
9.8299745416118451
 31
0.0
  0
LINE
  5
297
  8
OBJECT
 10
5.3046114673642739
 20
10.17397454161185
 30
0.0
 11
5.2426114673642701
 21
10.17397454161185
 31
0.0
  0
LINE
  5
298
  8
OBJECT
 10
5.0866114673642713
 20
10.82018774504744
 30
0.0
 11
5.0598014952143302
 21
10.846997717197381
 31
0.0
  0
LINE
  5
299
  8
OBJECT
 10
5.0653982639286781
 20
10.79897454161185
 30
0.0
 11
5.038588291778737
 21
10.82578451376178
 31
0.0
  0
LINE
  5
29A
  8
OBJECT
 10
5.0653982639286781
 20
10.79897454161185
 30
0.0
 11
5.038588291778737
 21
10.7721645694619
 31
0.0
  0
LINE
  5
29B
  8
OBJECT
 10
5.0866114673642784
 20
10.77776133817626
 30
0.0
 11
5.0598014952143302
 21
10.75095136602631
 31
0.0
  0
ARC
  5
29C
  8
OBJECT
 10
5.0866114673642784
 20
10.79897454161185
 30
0.0
 40
0.055
 50
29.17337986812743
 51
60.826620131872581
  0
ARC
  5
29D
  8
OBJECT
 10
5.0866114673642784
 20
10.79897454161185
 30
0.0
 40
0.055
 50
119.1733798681279
 51
150.82662013187189
  0
ARC
  5
29E
  8
OBJECT
 10
5.0866114673642784
 20
10.79897454161185
 30
0.0
 40
0.055
 50
209.1733798681274
 51
240.82662013187249
  0
LINE
  5
29F
  8
OBJECT
 10
5.1346346429498118
 20
10.7721645694619
 30
0.0
 11
5.1078246707998707
 21
10.79897454161185
 31
0.0
  0
LINE
  5
2A0
  8
OBJECT
 10
5.1134214395142124
 20
10.75095136602631
 30
0.0
 11
5.0866114673642784
 21
10.77776133817626
 31
0.0
  0
LINE
  5
2A1
  8
OBJECT
 10
5.1134214395142124
 20
10.846997717197381
 30
0.0
 11
5.0866114673642784
 21
10.82018774504744
 31
0.0
  0
LINE
  5
2A2
  8
OBJECT
 10
5.1346346429498118
 20
10.82578451376178
 30
0.0
 11
5.1078246707998707
 21
10.79897454161185
 31
0.0
  0
ARC
  5
2A3
  8
OBJECT
 10
5.0866114673642784
 20
10.79897454161185
 30
0.0
 40
0.055
 50
299.17337986812799
 51
330.82662013187201
  0
CIRCLE
  5
2A4
  8
OBJECT
 10
5.0866114673642784
 20
10.79897454161185
 30
0.0
 40
0.102
  0
LINE
  5
2A5
  8
OBJECT
 10
3.680611467364272
 20
10.17397454161185
 30
0.0
 11
3.7426114673642701
 21
9.8299745416118451
 31
0.0
  0
LINE
  5
2A6
  8
OBJECT
 10
5.3046114673642739
 20
10.17397454161185
 30
0.0
 11
5.2426114673642701
 21
9.8299745416118451
 31
0.0
  0
LINE
  5
2A7
  8
OBJECT
 10
3.7426114673642701
 20
10.17397454161185
 30
0.0
 11
3.680611467364272
 21
10.17397454161185
 31
0.0
  0
LINE
  5
2A8
  8
OBJECT
 10
3.820611467364273
 20
11.00197454161184
 30
0.0
 11
3.820611467364273
 21
10.864701248512469
 31
0.0
  0
LINE
  5
2A9
  8
OBJECT
 10
5.1646114673642742
 20
11.00197454161184
 30
0.0
 11
3.820611467364273
 21
11.00197454161184
 31
0.0
  0
LINE
  5
2AA
  8
OBJECT
 10
5.1646114673642742
 20
11.00197454161184
 30
0.0
 11
5.1646114673642742
 21
10.864701248512469
 31
0.0
  0
LINE
  5
2AB
  8
OBJECT
 10
5.1774128640492156
 20
9.9079745416118499
 30
0.0
 11
3.807810070679337
 21
9.9079745416118499
 31
0.0
  0
LINE
  5
2AC
  8
OBJECT
 10
3.7739263497491029
 20
10.09597454161185
 30
0.0
 11
3.807810070679337
 21
9.9079745416118499
 31
0.0
  0
LINE
  5
2AD
  8
OBJECT
 10
5.2112965849794497
 20
10.09597454161185
 30
0.0
 11
5.1774128640492156
 21
9.9079745416118499
 31
0.0
  0
LINE
  5
2AE
  8
OBJECT
 10
5.2112965849794497
 20
10.09597454161185
 30
0.0
 11
5.1646114673642742
 21
10.09597454161185
 31
0.0
  0
LINE
  5
2AF
  8
OBJECT
 10
3.820611467364273
 20
10.09597454161185
 30
0.0
 11
3.7739263497491029
 21
10.09597454161185
 31
0.0
  0
LINE
  5
2B0
  8
OBJECT
 10
3.820611467364273
 20
11.00197454161184
 30
0.0
 11
3.7426114673642701
 21
11.07997454161184
 31
0.0
  0
LINE
  5
2B1
  8
OBJECT
 10
5.1646114673642742
 20
11.00197454161184
 30
0.0
 11
5.2426114673642701
 21
11.07997454161184
 31
0.0
  0
LINE
  5
2B2
  8
OBJECT
 10
5.1774128640492156
 20
9.9079745416118499
 30
0.0
 11
5.2426114673642701
 21
9.8299745416118451
 31
0.0
  0
LINE
  5
2B3
  8
OBJECT
 10
3.807810070679337
 20
9.9079745416118499
 30
0.0
 11
3.7426114673642701
 21
9.8299745416118451
 31
0.0
  0
LINE
  5
2B4
  8
OBJECT
 10
5.1646114673642742
 20
10.73324783471123
 30
0.0
 11
5.1646114673642742
 21
10.09597454161185
 31
0.0
  0
LINE
  5
2B5
  8
OBJECT
 10
3.820611467364273
 20
10.73324783471123
 30
0.0
 11
3.820611467364273
 21
10.09597454161185
 31
0.0
  0
LINE
  5
2B6
  8
OBJECT
 10
7.9528013528483221
 20
14.831826524619171
 30
0.0
 11
7.9528013528483221
 21
15.54982652461916
 31
0.0
  0
LINE
  5
2B7
  8
OBJECT
 10
7.9528013528483221
 20
15.54982652461916
 30
0.0
 11
8.0308013528483162
 21
15.54982652461916
 31
0.0
  0
LINE
  5
2B8
  8
OBJECT
 10
7.9528013528483221
 20
14.831826524619171
 30
0.0
 11
8.0308013528483162
 21
14.831826524619171
 31
0.0
  0
LINE
  5
2B9
  8
OBJECT
 10
7.8438013528483204
 20
15.081826524619171
 30
0.0
 11
7.9528013528483221
 21
14.956826524619171
 31
0.0
  0
ARC
  5
2BA
  8
OBJECT
 10
7.4638897642814426
 20
15.39137568833284
 30
0.0
 40
0.4900545886768541
 50
320.82710583545253
 51
3.9140194955547218
  0
LINE
  5
2BB
  8
OBJECT
 10
4.9301114673642701
 20
11.391974541611839
 30
0.0
 11
4.9301114673642701
 21
11.07997454161184
 31
0.0
  0
LINE
  5
2BC
  8
OBJECT
 10
4.0551114673642701
 20
11.391974541611839
 30
0.0
 11
4.9301114673642701
 21
11.391974541611839
 31
0.0
  0
LINE
  5
2BD
  8
OBJECT
 10
4.0551114673642701
 20
11.391974541611839
 30
0.0
 11
4.0551114673642701
 21
11.07997454161184
 31
0.0
  0
LINE
  5
2BE
  8
OBJECT
 10
4.3051114673642772
 20
12.07747468749619
 30
0.0
 11
4.3051114673642843
 21
11.391974541611839
 31
0.0
  0
LINE
  5
2BF
  8
OBJECT
 10
4.6801114673642772
 20
12.07946936834721
 30
0.0
 11
4.6801114673642843
 21
11.391974541611839
 31
0.0
  0
LINE
  5
2C0
  8
OBJECT
 10
4.3051114673642772
 20
12.079469368347199
 30
0.0
 11
4.492111467364281
 21
12.07847202792169
 31
0.0
  0
ARC
  5
2C1
  8
OBJECT
 10
4.5856114673642727
 20
12.07797335770894
 30
0.0
 40
0.0935013297872338
 50
359.69442323359362
 51
180.3055767664064
  0
ARC
  5
2C2
  8
OBJECT
 10
4.3986114673642751
 20
12.078970698134439
 30
0.0
 40
0.0935013297872338
 50
179.69442323359351
 51
0.3055767664063946
  0
LINE
  5
2C3
  8
OBJECT
 10
15.59380135284832
 20
14.659826524619159
 30
0.0
 11
16.655801352848311
 21
14.659826524619159
 31
0.0
  0
LINE
  5
2C4
  8
OBJECT
 10
15.59380135284831
 20
15.721826524619161
 30
0.0
 11
16.655801352848311
 21
15.721826524619161
 31
0.0
  0
LINE
  5
2C5
  8
OBJECT
 10
16.655801352848311
 20
15.721826524619161
 30
0.0
 11
16.655801352848311
 21
14.659826524619159
 31
0.0
  0
LINE
  5
2C6
  8
OBJECT
 10
15.59380135284831
 20
15.721826524619161
 30
0.0
 11
15.59380135284832
 21
14.659826524619159
 31
0.0
  0
LINE
  5
2C7
  8
OBJECT
 10
15.76480135284832
 20
15.30082652461917
 30
0.0
 11
15.71880135284831
 21
15.346826524619161
 31
0.0
  0
LINE
  5
2C8
  8
OBJECT
 10
15.76480135284832
 20
15.08082652461917
 30
0.0
 11
15.71880135284831
 21
15.034826524619159
 31
0.0
  0
ARC
  5
2C9
  8
OBJECT
 10
15.87378547983244
 20
15.190826524619171
 30
0.0
 40
0.1110158730158726
 50
262.24295099430378
 51
97.757049005696075
  0
LINE
  5
2CA
  8
OBJECT
 10
15.76480135284832
 20
15.08082652461917
 30
0.0
 11
15.85880135284831
 21
15.08082652461917
 31
0.0
  0
LINE
  5
2CB
  8
OBJECT
 10
15.76480135284832
 20
15.30082652461917
 30
0.0
 11
15.85880135284831
 21
15.30082652461917
 31
0.0
  0
LINE
  5
2CC
  8
OBJECT
 10
15.76480135284832
 20
15.30082652461917
 30
0.0
 11
15.76480135284832
 21
15.08082652461917
 31
0.0
  0
ARC
  5
2CD
  8
OBJECT
 10
15.8740571668018
 20
15.190826524619171
 30
0.0
 40
0.1567441860465107
 50
264.41459526857238
 51
95.585404731427616
  0
LINE
  5
2CE
  8
OBJECT
 10
15.71880135284831
 20
15.346826524619161
 30
0.0
 11
15.85880135284831
 21
15.346826524619161
 31
0.0
  0
LINE
  5
2CF
  8
OBJECT
 10
15.71880135284831
 20
15.034826524619159
 30
0.0
 11
15.85880135284831
 21
15.034826524619159
 31
0.0
  0
LINE
  5
2D0
  8
OBJECT
 10
15.71880135284831
 20
15.346826524619161
 30
0.0
 11
15.71880135284831
 21
15.034826524619159
 31
0.0
  0
LINE
  5
2D1
  8
OBJECT
 10
16.54680135284833
 20
15.034826524619159
 30
0.0
 11
16.54680135284833
 21
14.846826524619161
 31
0.0
  0
LINE
  5
2D2
  8
OBJECT
 10
16.17180135284833
 20
15.034826524619159
 30
0.0
 11
16.17180135284833
 21
14.846826524619161
 31
0.0
  0
LINE
  5
2D3
  8
OBJECT
 10
16.54680135284833
 20
14.846826524619161
 30
0.0
 11
16.17180135284833
 21
14.846826524619161
 31
0.0
  0
LINE
  5
2D4
  8
OBJECT
 10
16.54680135284833
 20
15.034826524619159
 30
0.0
 11
16.17180135284833
 21
15.034826524619159
 31
0.0
  0
LINE
  5
2D5
  8
OBJECT
 10
16.50080135284832
 20
14.988826524619171
 30
0.0
 11
16.50080135284832
 21
14.89282652461916
 31
0.0
  0
LINE
  5
2D6
  8
OBJECT
 10
16.50080135284832
 20
14.89282652461916
 30
0.0
 11
16.217801352848319
 21
14.89282652461916
 31
0.0
  0
LINE
  5
2D7
  8
OBJECT
 10
16.50080135284832
 20
14.988826524619171
 30
0.0
 11
16.217801352848319
 21
14.988826524619149
 31
0.0
  0
LINE
  5
2D8
  8
OBJECT
 10
16.217801352848319
 20
14.988826524619149
 30
0.0
 11
16.217801352848319
 21
14.89282652461916
 31
0.0
  0
LINE
  5
2D9
  8
OBJECT
 10
16.217801352848319
 20
14.988826524619149
 30
0.0
 11
16.17180135284833
 21
15.034826524619159
 31
0.0
  0
LINE
  5
2DA
  8
OBJECT
 10
16.50080135284832
 20
14.988826524619149
 30
0.0
 11
16.546801352848309
 21
15.034826524619159
 31
0.0
  0
LINE
  5
2DB
  8
OBJECT
 10
16.50080135284832
 20
14.89282652461916
 30
0.0
 11
16.546801352848309
 21
14.846826524619161
 31
0.0
  0
LINE
  5
2DC
  8
OBJECT
 10
16.217801352848319
 20
14.89282652461916
 30
0.0
 11
16.17180135284833
 21
14.846826524619161
 31
0.0
  0
LINE
  5
2DD
  8
OBJECT
 10
16.169801352848321
 20
15.488826524619149
 30
0.0
 11
16.123801352848329
 21
15.534826524619159
 31
0.0
  0
LINE
  5
2DE
  8
OBJECT
 10
16.51580135284831
 20
15.488826524619149
 30
0.0
 11
16.56180135284831
 21
15.534826524619159
 31
0.0
  0
LINE
  5
2DF
  8
OBJECT
 10
16.51580135284831
 20
15.39282652461916
 30
0.0
 11
16.56180135284831
 21
15.346826524619161
 31
0.0
  0
LINE
  5
2E0
  8
OBJECT
 10
16.169801352848321
 20
15.39282652461916
 30
0.0
 11
16.123801352848329
 21
15.346826524619161
 31
0.0
  0
LINE
  5
2E1
  8
OBJECT
 10
16.169801352848321
 20
15.39282652461916
 30
0.0
 11
16.169801352848321
 21
15.488826524619171
 31
0.0
  0
LINE
  5
2E2
  8
OBJECT
 10
16.515801352848321
 20
15.39282652461916
 30
0.0
 11
16.169801352848321
 21
15.39282652461916
 31
0.0
  0
LINE
  5
2E3
  8
OBJECT
 10
16.515801352848321
 20
15.488826524619171
 30
0.0
 11
16.169801352848321
 21
15.488826524619171
 31
0.0
  0
LINE
  5
2E4
  8
OBJECT
 10
16.515801352848321
 20
15.39282652461916
 30
0.0
 11
16.515801352848321
 21
15.488826524619171
 31
0.0
  0
LINE
  5
2E5
  8
OBJECT
 10
16.56180135284831
 20
15.346826524619161
 30
0.0
 11
16.123801352848329
 21
15.346826524619161
 31
0.0
  0
LINE
  5
2E6
  8
OBJECT
 10
16.56180135284831
 20
15.534826524619159
 30
0.0
 11
16.123801352848329
 21
15.534826524619159
 31
0.0
  0
LINE
  5
2E7
  8
OBJECT
 10
16.123801352848329
 20
15.346826524619161
 30
0.0
 11
16.123801352848311
 21
15.534826524619159
 31
0.0
  0
LINE
  5
2E8
  8
OBJECT
 10
16.56180135284831
 20
15.346826524619161
 30
0.0
 11
16.56180135284831
 21
15.534826524619159
 31
0.0
  0
LINE
  5
2E9
  8
OBJECT
 10
15.59380135284832
 20
11.26797454161184
 30
0.0
 11
16.655801352848311
 21
11.26797454161184
 31
0.0
  0
LINE
  5
2EA
  8
OBJECT
 10
16.655801352848311
 20
11.26797454161184
 30
0.0
 11
16.655801352848311
 21
11.07997454161184
 31
0.0
  0
LINE
  5
2EB
  8
OBJECT
 10
15.59380135284832
 20
11.26797454161184
 30
0.0
 11
15.59380135284832
 21
11.07997454161184
 31
0.0
  0
LINE
  5
2EC
  8
OBJECT
 10
18.59380135284832
 20
14.659826524619159
 30
0.0
 11
19.655801352848311
 21
14.659826524619159
 31
0.0
  0
LINE
  5
2ED
  8
OBJECT
 10
18.59380135284831
 20
15.721826524619161
 30
0.0
 11
19.655801352848311
 21
15.721826524619161
 31
0.0
  0
LINE
  5
2EE
  8
OBJECT
 10
19.655801352848311
 20
15.721826524619161
 30
0.0
 11
19.655801352848311
 21
14.659826524619159
 31
0.0
  0
LINE
  5
2EF
  8
OBJECT
 10
18.59380135284831
 20
15.721826524619161
 30
0.0
 11
18.59380135284832
 21
14.659826524619159
 31
0.0
  0
LINE
  5
2F0
  8
OBJECT
 10
18.76480135284832
 20
15.30082652461917
 30
0.0
 11
18.71880135284831
 21
15.346826524619161
 31
0.0
  0
LINE
  5
2F1
  8
OBJECT
 10
18.76480135284832
 20
15.08082652461917
 30
0.0
 11
18.71880135284831
 21
15.034826524619159
 31
0.0
  0
ARC
  5
2F2
  8
OBJECT
 10
18.873785479832438
 20
15.190826524619171
 30
0.0
 40
0.1110158730158726
 50
262.24295099430378
 51
97.757049005696075
  0
LINE
  5
2F3
  8
OBJECT
 10
18.76480135284832
 20
15.08082652461917
 30
0.0
 11
18.85880135284831
 21
15.08082652461917
 31
0.0
  0
LINE
  5
2F4
  8
OBJECT
 10
18.76480135284832
 20
15.30082652461917
 30
0.0
 11
18.85880135284831
 21
15.30082652461917
 31
0.0
  0
LINE
  5
2F5
  8
OBJECT
 10
18.76480135284832
 20
15.30082652461917
 30
0.0
 11
18.76480135284832
 21
15.08082652461917
 31
0.0
  0
ARC
  5
2F6
  8
OBJECT
 10
18.874057166801808
 20
15.190826524619171
 30
0.0
 40
0.1567441860465107
 50
264.41459526857238
 51
95.585404731427616
  0
LINE
  5
2F7
  8
OBJECT
 10
18.71880135284831
 20
15.346826524619161
 30
0.0
 11
18.85880135284831
 21
15.346826524619161
 31
0.0
  0
LINE
  5
2F8
  8
OBJECT
 10
18.71880135284831
 20
15.034826524619159
 30
0.0
 11
18.85880135284831
 21
15.034826524619159
 31
0.0
  0
LINE
  5
2F9
  8
OBJECT
 10
18.71880135284831
 20
15.346826524619161
 30
0.0
 11
18.71880135284831
 21
15.034826524619159
 31
0.0
  0
LINE
  5
2FA
  8
OBJECT
 10
19.54680135284833
 20
15.034826524619159
 30
0.0
 11
19.54680135284833
 21
14.846826524619161
 31
0.0
  0
LINE
  5
2FB
  8
OBJECT
 10
19.17180135284833
 20
15.034826524619159
 30
0.0
 11
19.17180135284833
 21
14.846826524619161
 31
0.0
  0
LINE
  5
2FC
  8
OBJECT
 10
19.54680135284833
 20
14.846826524619161
 30
0.0
 11
19.17180135284833
 21
14.846826524619161
 31
0.0
  0
LINE
  5
2FD
  8
OBJECT
 10
19.54680135284833
 20
15.034826524619159
 30
0.0
 11
19.17180135284833
 21
15.034826524619159
 31
0.0
  0
LINE
  5
2FE
  8
OBJECT
 10
19.50080135284832
 20
14.988826524619171
 30
0.0
 11
19.50080135284832
 21
14.89282652461916
 31
0.0
  0
LINE
  5
2FF
  8
OBJECT
 10
19.50080135284832
 20
14.89282652461916
 30
0.0
 11
19.217801352848319
 21
14.89282652461916
 31
0.0
  0
LINE
  5
300
  8
OBJECT
 10
19.50080135284832
 20
14.988826524619171
 30
0.0
 11
19.217801352848319
 21
14.988826524619149
 31
0.0
  0
LINE
  5
301
  8
OBJECT
 10
19.217801352848319
 20
14.988826524619149
 30
0.0
 11
19.217801352848319
 21
14.89282652461916
 31
0.0
  0
LINE
  5
302
  8
OBJECT
 10
19.217801352848319
 20
14.988826524619149
 30
0.0
 11
19.17180135284833
 21
15.034826524619159
 31
0.0
  0
LINE
  5
303
  8
OBJECT
 10
19.50080135284832
 20
14.988826524619149
 30
0.0
 11
19.546801352848309
 21
15.034826524619159
 31
0.0
  0
LINE
  5
304
  8
OBJECT
 10
19.50080135284832
 20
14.89282652461916
 30
0.0
 11
19.546801352848309
 21
14.846826524619161
 31
0.0
  0
LINE
  5
305
  8
OBJECT
 10
19.217801352848319
 20
14.89282652461916
 30
0.0
 11
19.17180135284833
 21
14.846826524619161
 31
0.0
  0
LINE
  5
306
  8
OBJECT
 10
19.169801352848321
 20
15.488826524619149
 30
0.0
 11
19.123801352848321
 21
15.534826524619159
 31
0.0
  0
LINE
  5
307
  8
OBJECT
 10
19.51580135284831
 20
15.488826524619149
 30
0.0
 11
19.56180135284831
 21
15.534826524619159
 31
0.0
  0
LINE
  5
308
  8
OBJECT
 10
19.51580135284831
 20
15.39282652461916
 30
0.0
 11
19.56180135284831
 21
15.346826524619161
 31
0.0
  0
LINE
  5
309
  8
OBJECT
 10
19.169801352848321
 20
15.39282652461916
 30
0.0
 11
19.123801352848321
 21
15.346826524619161
 31
0.0
  0
LINE
  5
30A
  8
OBJECT
 10
19.169801352848321
 20
15.39282652461916
 30
0.0
 11
19.169801352848321
 21
15.488826524619171
 31
0.0
  0
LINE
  5
30B
  8
OBJECT
 10
19.515801352848321
 20
15.39282652461916
 30
0.0
 11
19.169801352848321
 21
15.39282652461916
 31
0.0
  0
LINE
  5
30C
  8
OBJECT
 10
19.515801352848321
 20
15.488826524619171
 30
0.0
 11
19.169801352848321
 21
15.488826524619171
 31
0.0
  0
LINE
  5
30D
  8
OBJECT
 10
19.515801352848321
 20
15.39282652461916
 30
0.0
 11
19.515801352848321
 21
15.488826524619171
 31
0.0
  0
LINE
  5
30E
  8
OBJECT
 10
19.56180135284831
 20
15.346826524619161
 30
0.0
 11
19.123801352848321
 21
15.346826524619161
 31
0.0
  0
LINE
  5
30F
  8
OBJECT
 10
19.56180135284831
 20
15.534826524619159
 30
0.0
 11
19.123801352848321
 21
15.534826524619159
 31
0.0
  0
LINE
  5
310
  8
OBJECT
 10
19.123801352848321
 20
15.346826524619161
 30
0.0
 11
19.123801352848311
 21
15.534826524619159
 31
0.0
  0
LINE
  5
311
  8
OBJECT
 10
19.56180135284831
 20
15.346826524619161
 30
0.0
 11
19.56180135284831
 21
15.534826524619159
 31
0.0
  0
LINE
  5
312
  8
OBJECT
 10
18.59380135284832
 20
11.26797454161184
 30
0.0
 11
19.655801352848311
 21
11.26797454161184
 31
0.0
  0
LINE
  5
313
  8
OBJECT
 10
19.655801352848311
 20
11.26797454161184
 30
0.0
 11
19.655801352848311
 21
11.07997454161184
 31
0.0
  0
LINE
  5
314
  8
OBJECT
 10
18.59380135284832
 20
11.26797454161184
 30
0.0
 11
18.59380135284832
 21
11.07997454161184
 31
0.0
  0
LINE
  5
315
  8
OBJECT
 10
21.59380135284832
 20
14.659826524619159
 30
0.0
 11
22.655801352848311
 21
14.659826524619159
 31
0.0
  0
LINE
  5
316
  8
OBJECT
 10
21.59380135284831
 20
15.721826524619161
 30
0.0
 11
22.655801352848311
 21
15.721826524619161
 31
0.0
  0
LINE
  5
317
  8
OBJECT
 10
22.655801352848311
 20
15.721826524619161
 30
0.0
 11
22.655801352848311
 21
14.659826524619159
 31
0.0
  0
LINE
  5
318
  8
OBJECT
 10
21.59380135284831
 20
15.721826524619161
 30
0.0
 11
21.59380135284832
 21
14.659826524619159
 31
0.0
  0
LINE
  5
319
  8
OBJECT
 10
21.764801352848309
 20
15.30082652461917
 30
0.0
 11
21.71880135284831
 21
15.346826524619161
 31
0.0
  0
LINE
  5
31A
  8
OBJECT
 10
21.764801352848309
 20
15.08082652461917
 30
0.0
 11
21.71880135284831
 21
15.034826524619159
 31
0.0
  0
ARC
  5
31B
  8
OBJECT
 10
21.873785479832438
 20
15.190826524619171
 30
0.0
 40
0.1110158730158726
 50
262.24295099430378
 51
97.757049005696075
  0
LINE
  5
31C
  8
OBJECT
 10
21.764801352848309
 20
15.08082652461917
 30
0.0
 11
21.85880135284831
 21
15.08082652461917
 31
0.0
  0
LINE
  5
31D
  8
OBJECT
 10
21.764801352848309
 20
15.30082652461917
 30
0.0
 11
21.85880135284831
 21
15.30082652461917
 31
0.0
  0
LINE
  5
31E
  8
OBJECT
 10
21.764801352848309
 20
15.30082652461917
 30
0.0
 11
21.764801352848309
 21
15.08082652461917
 31
0.0
  0
ARC
  5
31F
  8
OBJECT
 10
21.874057166801808
 20
15.190826524619171
 30
0.0
 40
0.1567441860465107
 50
264.41459526857238
 51
95.585404731427616
  0
LINE
  5
320
  8
OBJECT
 10
21.71880135284831
 20
15.346826524619161
 30
0.0
 11
21.85880135284831
 21
15.346826524619161
 31
0.0
  0
LINE
  5
321
  8
OBJECT
 10
21.71880135284831
 20
15.034826524619159
 30
0.0
 11
21.85880135284831
 21
15.034826524619159
 31
0.0
  0
LINE
  5
322
  8
OBJECT
 10
21.71880135284831
 20
15.346826524619161
 30
0.0
 11
21.71880135284831
 21
15.034826524619159
 31
0.0
  0
LINE
  5
323
  8
OBJECT
 10
22.54680135284833
 20
15.034826524619159
 30
0.0
 11
22.54680135284833
 21
14.846826524619161
 31
0.0
  0
LINE
  5
324
  8
OBJECT
 10
22.17180135284833
 20
15.034826524619159
 30
0.0
 11
22.17180135284833
 21
14.846826524619161
 31
0.0
  0
LINE
  5
325
  8
OBJECT
 10
22.54680135284833
 20
14.846826524619161
 30
0.0
 11
22.17180135284833
 21
14.846826524619161
 31
0.0
  0
LINE
  5
326
  8
OBJECT
 10
22.54680135284833
 20
15.034826524619159
 30
0.0
 11
22.17180135284833
 21
15.034826524619159
 31
0.0
  0
LINE
  5
327
  8
OBJECT
 10
22.50080135284832
 20
14.988826524619171
 30
0.0
 11
22.50080135284832
 21
14.89282652461916
 31
0.0
  0
LINE
  5
328
  8
OBJECT
 10
22.50080135284832
 20
14.89282652461916
 30
0.0
 11
22.217801352848319
 21
14.89282652461916
 31
0.0
  0
LINE
  5
329
  8
OBJECT
 10
22.50080135284832
 20
14.988826524619171
 30
0.0
 11
22.217801352848319
 21
14.988826524619149
 31
0.0
  0
LINE
  5
32A
  8
OBJECT
 10
22.217801352848319
 20
14.988826524619149
 30
0.0
 11
22.217801352848319
 21
14.89282652461916
 31
0.0
  0
LINE
  5
32B
  8
OBJECT
 10
22.217801352848319
 20
14.988826524619149
 30
0.0
 11
22.17180135284833
 21
15.034826524619159
 31
0.0
  0
LINE
  5
32C
  8
OBJECT
 10
22.50080135284832
 20
14.988826524619149
 30
0.0
 11
22.546801352848309
 21
15.034826524619159
 31
0.0
  0
LINE
  5
32D
  8
OBJECT
 10
22.50080135284832
 20
14.89282652461916
 30
0.0
 11
22.546801352848309
 21
14.846826524619161
 31
0.0
  0
LINE
  5
32E
  8
OBJECT
 10
22.217801352848319
 20
14.89282652461916
 30
0.0
 11
22.17180135284833
 21
14.846826524619161
 31
0.0
  0
LINE
  5
32F
  8
OBJECT
 10
22.169801352848321
 20
15.488826524619149
 30
0.0
 11
22.123801352848329
 21
15.534826524619159
 31
0.0
  0
LINE
  5
330
  8
OBJECT
 10
22.51580135284831
 20
15.488826524619149
 30
0.0
 11
22.56180135284831
 21
15.534826524619159
 31
0.0
  0
LINE
  5
331
  8
OBJECT
 10
22.51580135284831
 20
15.39282652461916
 30
0.0
 11
22.56180135284831
 21
15.346826524619161
 31
0.0
  0
LINE
  5
332
  8
OBJECT
 10
22.169801352848321
 20
15.39282652461916
 30
0.0
 11
22.123801352848329
 21
15.346826524619161
 31
0.0
  0
LINE
  5
333
  8
OBJECT
 10
22.169801352848321
 20
15.39282652461916
 30
0.0
 11
22.169801352848321
 21
15.488826524619171
 31
0.0
  0
LINE
  5
334
  8
OBJECT
 10
22.515801352848321
 20
15.39282652461916
 30
0.0
 11
22.169801352848321
 21
15.39282652461916
 31
0.0
  0
LINE
  5
335
  8
OBJECT
 10
22.515801352848321
 20
15.488826524619171
 30
0.0
 11
22.169801352848321
 21
15.488826524619171
 31
0.0
  0
LINE
  5
336
  8
OBJECT
 10
22.515801352848321
 20
15.39282652461916
 30
0.0
 11
22.515801352848321
 21
15.488826524619171
 31
0.0
  0
LINE
  5
337
  8
OBJECT
 10
22.56180135284831
 20
15.346826524619161
 30
0.0
 11
22.123801352848329
 21
15.346826524619161
 31
0.0
  0
LINE
  5
338
  8
OBJECT
 10
22.56180135284831
 20
15.534826524619159
 30
0.0
 11
22.123801352848329
 21
15.534826524619159
 31
0.0
  0
LINE
  5
339
  8
OBJECT
 10
22.123801352848329
 20
15.346826524619161
 30
0.0
 11
22.123801352848311
 21
15.534826524619159
 31
0.0
  0
LINE
  5
33A
  8
OBJECT
 10
22.56180135284831
 20
15.346826524619161
 30
0.0
 11
22.56180135284831
 21
15.534826524619159
 31
0.0
  0
LINE
  5
33B
  8
OBJECT
 10
21.59380135284832
 20
11.26797454161184
 30
0.0
 11
22.655801352848311
 21
11.26797454161184
 31
0.0
  0
LINE
  5
33C
  8
OBJECT
 10
22.655801352848311
 20
11.26797454161184
 30
0.0
 11
22.655801352848311
 21
11.07997454161184
 31
0.0
  0
LINE
  5
33D
  8
OBJECT
 10
21.59380135284832
 20
11.26797454161184
 30
0.0
 11
21.59380135284832
 21
11.07997454161184
 31
0.0
  0
LINE
  5
33E
  8
OBJECT
 10
7.9528013528483221
 20
9.9079745416118499
 30
0.0
 11
8.0308013528483162
 21
9.9079745416118499
 31
0.0
  0
LINE
  5
33F
  8
OBJECT
 10
7.9528013528483221
 20
10.62597454161185
 30
0.0
 11
8.0308013528483162
 21
10.62597454161185
 31
0.0
  0
LINE
  5
340
  8
OBJECT
 10
7.9528013528483221
 20
9.9079745416118499
 30
0.0
 11
7.9528013528483221
 21
10.62597454161185
 31
0.0
  0
LINE
  5
341
  8
OBJECT
 10
7.8438013528483204
 20
10.095974541611829
 30
0.0
 11
7.8438013528483204
 21
10.437974541611849
 31
0.0
  0
LINE
  5
342
  8
OBJECT
 10
7.9528013528483221
 20
10.09597454161185
 30
0.0
 11
7.8438013528483204
 21
10.095974541611829
 31
0.0
  0
LINE
  5
343
  8
OBJECT
 10
7.9528013528483221
 20
10.437974541611849
 30
0.0
 11
7.8438013528483204
 21
10.437974541611849
 31
0.0
  0
LINE
  5
344
  8
OBJECT
 10
7.9528013528483221
 20
10.391974541611839
 30
0.0
 11
7.8438013528483204
 21
10.391974541611839
 31
0.0
  0
LINE
  5
345
  8
OBJECT
 10
7.9528013528483221
 20
10.141974541611839
 30
0.0
 11
7.8438013528483204
 21
10.141974541611839
 31
0.0
  0
ARC
  5
346
  8
OBJECT
 10
7.4638897642814426
 20
6.3290714940704564
 30
0.0
 40
0.4900545886768541
 50
356.08598050444522
 51
39.172894164547387
  0
LINE
  5
347
  8
OBJECT
 10
7.8438013528483204
 20
6.6386206577841316
 30
0.0
 11
7.9528013528483221
 21
6.7636206577841316
 31
0.0
  0
LINE
  5
348
  8
OBJECT
 10
7.9528013528483221
 20
6.8886206577841316
 30
0.0
 11
8.0308013528483162
 21
6.8886206577841316
 31
0.0
  0
LINE
  5
349
  8
OBJECT
 10
7.9528013528483221
 20
6.170620657784136
 30
0.0
 11
8.0308013528483162
 21
6.170620657784136
 31
0.0
  0
LINE
  5
34A
  8
OBJECT
 10
7.9528013528483221
 20
6.8886206577841316
 30
0.0
 11
7.9528013528483221
 21
6.170620657784136
 31
0.0
  0
ARC
  5
34B
  8
OBJECT
 10
25.629820374587428
 20
7.1236206577841381
 30
0.0
 40
0.1349809782608721
 50
311.23974529801268
 51
48.760254701986739
  0
ARC
  5
34C
  8
OBJECT
 10
25.629820374587428
 20
5.9356206577841357
 30
0.0
 40
0.1349809782608721
 50
311.23974529801268
 51
48.760254701986739
  0
ARC
  5
34D
  8
OBJECT
 10
8.1197823311091888
 20
5.9356206577841357
 30
0.0
 40
0.1349809782608721
 50
131.23974529801319
 51
228.76025470198721
  0
ARC
  5
34E
  8
OBJECT
 10
8.1197823311091888
 20
7.1236206577841381
 30
0.0
 40
0.1349809782608721
 50
131.23974529801319
 51
228.76025470198721
  0
LINE
  5
34F
  8
OBJECT
 10
25.624801352848309
 20
7.3416206577841354
 30
0.0
 11
25.624801352848309
 21
5.7176206577841331
 31
0.0
  0
LINE
  5
350
  8
OBJECT
 10
25.718801352848299
 20
7.2636206577841387
 30
0.0
 11
25.718801352848299
 21
5.795620657784136
 31
0.0
  0
LINE
  5
351
  8
OBJECT
 10
25.624801352848309
 20
5.7176206577841331
 30
0.0
 11
25.6408013528483
 21
5.7176206577841331
 31
0.0
  0
LINE
  5
352
  8
OBJECT
 10
25.624801352848309
 20
5.7796206577841298
 30
0.0
 11
25.718801352848299
 21
5.7796206577841298
 31
0.0
  0
LINE
  5
353
  8
OBJECT
 10
25.624801352848309
 20
7.2796206577841298
 30
0.0
 11
25.718801352848299
 21
7.2796206577841298
 31
0.0
  0
LINE
  5
354
  8
OBJECT
 10
25.624801352848309
 20
7.3416206577841354
 30
0.0
 11
25.640801352848332
 21
7.3416206577841354
 31
0.0
  0
ARC
  5
355
  8
OBJECT
 10
25.6408013528483
 20
5.795620657784136
 30
0.0
 40
0.078
 50
270.0
 51
359.99999999999989
  0
ARC
  5
356
  8
OBJECT
 10
25.640801352848332
 20
7.2636206577841387
 30
0.0
 40
0.078
 50
359.99999999999977
 51
90.0
  0
ARC
  5
357
  8
OBJECT
 10
8.1088013528483192
 20
7.2636206577841387
 30
0.0
 40
0.078
 50
90.0
 51
180.00000000000011
  0
ARC
  5
358
  8
OBJECT
 10
8.1088013528483192
 20
5.795620657784136
 30
0.0
 40
0.078
 50
180.0
 51
270.0
  0
LINE
  5
359
  8
OBJECT
 10
8.1248013528483192
 20
7.3416206577841354
 30
0.0
 11
8.1088013528483192
 21
7.3416206577841354
 31
0.0
  0
LINE
  5
35A
  8
OBJECT
 10
8.1248013528483192
 20
7.2796206577841298
 30
0.0
 11
8.0308013528483162
 21
7.2796206577841298
 31
0.0
  0
LINE
  5
35B
  8
OBJECT
 10
8.1248013528483192
 20
5.7796206577841298
 30
0.0
 11
8.0308013528483162
 21
5.7796206577841298
 31
0.0
  0
LINE
  5
35C
  8
OBJECT
 10
8.1248013528483192
 20
5.7176206577841331
 30
0.0
 11
8.1088013528483192
 21
5.7176206577841331
 31
0.0
  0
LINE
  5
35D
  8
OBJECT
 10
8.0308013528483162
 20
7.2636206577841387
 30
0.0
 11
8.0308013528483251
 21
5.795620657784136
 31
0.0
  0
LINE
  5
35E
  8
OBJECT
 10
25.624801352848309
 20
7.3416206577841354
 30
0.0
 11
8.1248013528483192
 21
7.3416206577841354
 31
0.0
  0
LINE
  5
35F
  8
OBJECT
 10
8.1248013528483192
 20
5.7176206577841331
 30
0.0
 11
25.624801352848309
 21
5.7176206577841331
 31
0.0
  0
LINE
  5
360
  8
OBJECT
 10
8.1248013528483192
 20
5.7796206577841298
 30
0.0
 11
25.624801352848309
 21
5.7796206577841298
 31
0.0
  0
LINE
  5
361
  8
OBJECT
 10
10.437301352848319
 20
5.7176206577841331
 30
0.0
 11
10.437301352848319
 21
5.0418925741260754
 31
0.0
  0
LINE
  5
362
  8
OBJECT
 10
10.812301352848319
 20
5.7176206577841331
 30
0.0
 11
10.81230135284831
 21
5.0418925741260754
 31
0.0
  0
LINE
  5
363
  8
OBJECT
 10
11.062301352848319
 20
4.7918925741260754
 30
0.0
 11
11.82710684541153
 21
4.7918925741260754
 31
0.0
  0
LINE
  5
364
  8
OBJECT
 10
11.062301352848319
 20
4.4168925741260754
 30
0.0
 11
11.826104171614769
 21
4.4168925741260754
 31
0.0
  0
ARC
  5
365
  8
OBJECT
 10
11.062301352848319
 20
5.0418925741260754
 30
0.0
 40
0.25
 50
180.0
 51
270.0
  0
ARC
  5
366
  8
OBJECT
 10
11.062301352848319
 20
5.0418925741260754
 30
0.0
 40
0.625
 50
180.0
 51
270.0
  0
LINE
  5
367
  8
OBJECT
 10
14.7205282802926
 20
4.2918925741260754
 30
0.0
 11
14.7205282802926
 21
4.9168925741260754
 31
0.0
  0
LINE
  5
368
  8
OBJECT
 10
16.251528280292611
 20
4.1353925741260813
 30
0.0
 11
16.251528280292611
 21
5.0733925741260757
 31
0.0
  0
LINE
  5
369
  8
OBJECT
 10
16.251528280292611
 20
4.1353925741260813
 30
0.0
 11
15.43952828029261
 21
4.1353925741260813
 31
0.0
  0
LINE
  5
36A
  8
OBJECT
 10
16.251528280292611
 20
5.0733925741260757
 30
0.0
 11
15.43952828029261
 21
5.0733925741260757
 31
0.0
  0
LINE
  5
36B
  8
OBJECT
 10
15.001528280292611
 20
4.4013925741260724
 30
0.0
 11
15.001528280292611
 21
4.8073925741260783
 31
0.0
  0
LINE
  5
36C
  8
OBJECT
 10
15.43952828029261
 20
4.1353925741260813
 30
0.0
 11
15.001528280292611
 21
4.4013925741260724
 31
0.0
  0
LINE
  5
36D
  8
OBJECT
 10
14.7205282802926
 20
4.2918925741260754
 30
0.0
 11
15.181832791570811
 21
4.2918925741260754
 31
0.0
  0
LINE
  5
36E
  8
OBJECT
 10
14.7205282802926
 20
4.9168925741260754
 30
0.0
 11
15.181832791570811
 21
4.9168925741260754
 31
0.0
  0
LINE
  5
36F
  8
OBJECT
 10
15.43952828029261
 20
5.0733925741260686
 30
0.0
 11
15.001528280292611
 21
4.8073925741260783
 31
0.0
  0
LINE
  5
370
  8
OBJECT
 10
16.251528280292611
 20
4.5103925741260813
 30
0.0
 11
16.969528280292611
 21
4.5103925741260813
 31
0.0
  0
LINE
  5
371
  8
OBJECT
 10
16.251528280292611
 20
4.6983925741260757
 30
0.0
 11
16.969528280292611
 21
4.6983925741260757
 31
0.0
  0
ARC
  5
372
  8
OBJECT
 10
16.969528280292611
 20
4.6043925741260754
 30
0.0
 40
0.094
 50
270.0
 51
90.0
  0
LINE
  5
373
  8
OBJECT
 10
16.93952828029261
 20
4.3233925741260686
 30
0.0
 11
16.93952828029261
 21
4.3693925741260751
 31
0.0
  0
LINE
  5
374
  8
OBJECT
 10
16.93952828029261
 20
4.3233925741260686
 30
0.0
 11
16.251528280292611
 21
4.3233925741260757
 31
0.0
  0
LINE
  5
375
  8
OBJECT
 10
16.93952828029261
 20
4.3693925741260751
 30
0.0
 11
16.251528280292611
 21
4.3693925741260751
 31
0.0
  0
LINE
  5
376
  8
OBJECT
 10
16.93952828029261
 20
4.8393925741260739
 30
0.0
 11
16.251528280292611
 21
4.8393925741260739
 31
0.0
  0
LINE
  5
377
  8
OBJECT
 10
16.93952828029261
 20
4.8853925741260813
 30
0.0
 11
16.251528280292611
 21
4.8853925741260813
 31
0.0
  0
LINE
  5
378
  8
OBJECT
 10
16.93952828029261
 20
4.8853925741260813
 30
0.0
 11
16.93952828029261
 21
4.8393925741260739
 31
0.0
  0
LINE
  5
379
  8
OBJECT
 10
12.12596733165338
 20
4.4168925741260754
 30
0.0
 11
12.12696467207889
 21
4.603892574126073
 31
0.0
  0
ARC
  5
37A
  8
OBJECT
 10
12.127463342291639
 20
4.697392574126078
 30
0.0
 40
0.0935013297872338
 50
89.694423233593596
 51
270.30557676640632
  0
ARC
  5
37B
  8
OBJECT
 10
12.126466001866151
 20
4.5103925741260813
 30
0.0
 40
0.0935013297872338
 50
269.69442323359362
 51
90.305576766406404
  0
LINE
  5
37C
  8
OBJECT
 10
11.82710684541153
 20
4.7918925741260754
 30
0.0
 11
11.826104171614769
 21
4.603892574126073
 31
0.0
  0
ARC
  5
37D
  8
OBJECT
 10
11.82560550140202
 20
4.5103925741260813
 30
0.0
 40
0.0935013297872338
 50
269.69442323359362
 51
90.305576766406404
  0
ARC
  5
37E
  8
OBJECT
 10
11.826602841827521
 20
4.697392574126078
 30
0.0
 40
0.0935013297872338
 50
89.694423233593596
 51
270.30557676640632
  0
LINE
  5
37F
  8
OBJECT
 10
12.12596733165338
 20
4.4168925741260754
 30
0.0
 11
14.7205282802926
 21
4.4168925741260754
 31
0.0
  0
LINE
  5
380
  8
OBJECT
 10
12.127962012504399
 20
4.7918925741260754
 30
0.0
 11
14.7205282802926
 21
4.7918925741260754
 31
0.0
  0
LINE
  5
381
  8
OBJECT
 10
8.1248013528483192
 20
7.3416206577841354
 30
0.0
 11
8.1248013528483192
 21
5.7176206577841331
 31
0.0
  0
LINE
  5
382
  8
OBJECT
 10
25.624801352848309
 20
7.2796206577841298
 30
0.0
 11
8.1248013528483192
 21
7.2796206577841298
 31
0.0
  0
LINE
  5
383
  8
OBJECT
 10
27.733762323877439
 20
9.9079745416118499
 30
0.0
 11
29.103365117247321
 21
9.9079745416118499
 31
0.0
  0
LINE
  5
384
  8
OBJECT
 10
27.668563720562378
 20
9.8299745416118451
 30
0.0
 11
29.168563720562389
 21
9.8299745416118451
 31
0.0
  0
LINE
  5
385
  8
OBJECT
 10
27.746563720562381
 20
11.00197454161184
 30
0.0
 11
29.090563720562379
 21
11.00197454161184
 31
0.0
  0
LINE
  5
386
  8
OBJECT
 10
27.668563720562378
 20
11.07997454161184
 30
0.0
 11
29.168563720562389
 21
11.07997454161184
 31
0.0
  0
LINE
  5
387
  8
OBJECT
 10
29.090563720562379
 20
10.73324783471123
 30
0.0
 11
29.090563720562379
 21
10.09597454161185
 31
0.0
  0
LINE
  5
388
  8
OBJECT
 10
29.168563720562389
 20
11.07997454161184
 30
0.0
 11
29.168563720562389
 21
10.17397454161185
 31
0.0
  0
CIRCLE
  5
389
  8
OBJECT
 10
29.01256372056238
 20
10.79897454161185
 30
0.0
 40
0.102
  0
LINE
  5
38A
  8
OBJECT
 10
29.23056372056239
 20
10.17397454161185
 30
0.0
 11
29.168563720562389
 21
9.8299745416118451
 31
0.0
  0
LINE
  5
38B
  8
OBJECT
 10
29.103365117247321
 20
9.9079745416118499
 30
0.0
 11
29.168563720562389
 21
9.8299745416118451
 31
0.0
  0
LINE
  5
38C
  8
OBJECT
 10
29.090563720562379
 20
10.09597454161185
 30
0.0
 11
29.137248838177548
 21
10.09597454161185
 31
0.0
  0
LINE
  5
38D
  8
OBJECT
 10
29.137248838177548
 20
10.09597454161185
 30
0.0
 11
29.103365117247321
 21
9.9079745416118499
 31
0.0
  0
LINE
  5
38E
  8
OBJECT
 10
29.168563720562389
 20
10.17397454161185
 30
0.0
 11
29.23056372056239
 21
10.17397454161185
 31
0.0
  0
LINE
  5
38F
  8
OBJECT
 10
29.090563720562379
 20
11.00197454161184
 30
0.0
 11
29.168563720562389
 21
11.07997454161184
 31
0.0
  0
LINE
  5
390
  8
OBJECT
 10
29.090563720562379
 20
11.00197454161184
 30
0.0
 11
29.090563720562379
 21
10.864701248512469
 31
0.0
  0
LINE
  5
391
  8
OBJECT
 10
29.03377692399798
 20
10.79897454161185
 30
0.0
 11
29.060586896147921
 21
10.82578451376178
 31
0.0
  0
LINE
  5
392
  8
OBJECT
 10
29.03377692399798
 20
10.79897454161185
 30
0.0
 11
29.060586896147921
 21
10.7721645694619
 31
0.0
  0
LINE
  5
393
  8
OBJECT
 10
29.01256372056238
 20
10.77776133817626
 30
0.0
 11
29.039373692712331
 21
10.75095136602631
 31
0.0
  0
ARC
  5
394
  8
OBJECT
 10
29.01256372056238
 20
10.79897454161185
 30
0.0
 40
0.055
 50
299.17337986812743
 51
330.82662013187252
  0
LINE
  5
395
  8
OBJECT
 10
28.964540544976838
 20
10.7721645694619
 30
0.0
 11
28.99135051712679
 21
10.79897454161185
 31
0.0
  0
LINE
  5
396
  8
OBJECT
 10
28.985753748412449
 20
10.75095136602631
 30
0.0
 11
29.01256372056238
 21
10.77776133817626
 31
0.0
  0
LINE
  5
397
  8
OBJECT
 10
28.964540544976838
 20
10.82578451376178
 30
0.0
 11
28.99135051712679
 21
10.79897454161185
 31
0.0
  0
ARC
  5
398
  8
OBJECT
 10
29.01256372056238
 20
10.79897454161185
 30
0.0
 40
0.055
 50
209.17337986812791
 51
240.82662013187201
  0
LINE
  5
399
  8
OBJECT
 10
29.01256372056239
 20
10.82018774504744
 30
0.0
 11
29.039373692712331
 21
10.846997717197381
 31
0.0
  0
ARC
  5
39A
  8
OBJECT
 10
29.01256372056238
 20
10.79897454161185
 30
0.0
 40
0.055
 50
119.1733798681274
 51
150.82662013187249
  0
ARC
  5
39B
  8
OBJECT
 10
29.01256372056238
 20
10.79897454161185
 30
0.0
 40
0.055
 50
29.173379868127991
 51
60.826620131871998
  0
LINE
  5
39C
  8
OBJECT
 10
28.985753748412449
 20
10.846997717197381
 30
0.0
 11
29.01256372056238
 21
10.82018774504744
 31
0.0
  0
LINE
  5
39D
  8
OBJECT
 10
27.746563720562381
 20
10.73324783471123
 30
0.0
 11
27.746563720562381
 21
10.09597454161185
 31
0.0
  0
CIRCLE
  5
39E
  8
OBJECT
 10
27.824563720562381
 20
10.79897454161185
 30
0.0
 40
0.102
  0
LINE
  5
39F
  8
OBJECT
 10
27.668563720562378
 20
11.07997454161184
 30
0.0
 11
27.668563720562378
 21
10.17397454161185
 31
0.0
  0
LINE
  5
3A0
  8
OBJECT
 10
27.606563720562381
 20
10.17397454161185
 30
0.0
 11
27.668563720562378
 21
9.8299745416118451
 31
0.0
  0
LINE
  5
3A1
  8
OBJECT
 10
27.733762323877439
 20
9.9079745416118499
 30
0.0
 11
27.668563720562378
 21
9.8299745416118451
 31
0.0
  0
LINE
  5
3A2
  8
OBJECT
 10
27.699878602947209
 20
10.09597454161185
 30
0.0
 11
27.746563720562381
 21
10.09597454161185
 31
0.0
  0
LINE
  5
3A3
  8
OBJECT
 10
27.699878602947209
 20
10.09597454161185
 30
0.0
 11
27.733762323877439
 21
9.9079745416118499
 31
0.0
  0
LINE
  5
3A4
  8
OBJECT
 10
27.606563720562381
 20
10.17397454161185
 30
0.0
 11
27.668563720562378
 21
10.17397454161185
 31
0.0
  0
LINE
  5
3A5
  8
OBJECT
 10
27.746563720562381
 20
11.00197454161184
 30
0.0
 11
27.668563720562378
 21
11.07997454161184
 31
0.0
  0
LINE
  5
3A6
  8
OBJECT
 10
27.746563720562381
 20
11.00197454161184
 30
0.0
 11
27.746563720562381
 21
10.864701248512469
 31
0.0
  0
ARC
  5
3A7
  8
OBJECT
 10
27.824563720562381
 20
10.79897454161185
 30
0.0
 40
0.055
 50
209.17337986812791
 51
240.82662013187201
  0
LINE
  5
3A8
  8
OBJECT
 10
27.776540544976839
 20
10.82578451376178
 30
0.0
 11
27.803350517126791
 21
10.79897454161185
 31
0.0
  0
LINE
  5
3A9
  8
OBJECT
 10
27.79775374841245
 20
10.75095136602631
 30
0.0
 11
27.824563720562381
 21
10.77776133817626
 31
0.0
  0
LINE
  5
3AA
  8
OBJECT
 10
27.776540544976839
 20
10.7721645694619
 30
0.0
 11
27.803350517126791
 21
10.79897454161185
 31
0.0
  0
LINE
  5
3AB
  8
OBJECT
 10
27.824563720562381
 20
10.77776133817626
 30
0.0
 11
27.851373692712318
 21
10.75095136602631
 31
0.0
  0
LINE
  5
3AC
  8
OBJECT
 10
27.79775374841245
 20
10.846997717197381
 30
0.0
 11
27.824563720562381
 21
10.82018774504744
 31
0.0
  0
ARC
  5
3AD
  8
OBJECT
 10
27.824563720562381
 20
10.79897454161185
 30
0.0
 40
0.055
 50
119.1733798681274
 51
150.82662013187249
  0
LINE
  5
3AE
  8
OBJECT
 10
27.824563720562381
 20
10.82018774504744
 30
0.0
 11
27.851373692712318
 21
10.846997717197381
 31
0.0
  0
ARC
  5
3AF
  8
OBJECT
 10
27.824563720562381
 20
10.79897454161185
 30
0.0
 40
0.055
 50
299.17337986812743
 51
330.82662013187252
  0
LINE
  5
3B0
  8
OBJECT
 10
27.845776923997981
 20
10.79897454161185
 30
0.0
 11
27.872586896147919
 21
10.7721645694619
 31
0.0
  0
LINE
  5
3B1
  8
OBJECT
 10
27.845776923997981
 20
10.79897454161185
 30
0.0
 11
27.872586896147919
 21
10.82578451376178
 31
0.0
  0
ARC
  5
3B2
  8
OBJECT
 10
27.824563720562381
 20
10.79897454161185
 30
0.0
 40
0.055
 50
29.173379868127991
 51
60.826620131871998
  0
LINE
  5
3B3
  8
OBJECT
 10
27.88756372056239
 20
11.26797454161184
 30
0.0
 11
28.949563720562381
 21
11.26797454161184
 31
0.0
  0
LINE
  5
3B4
  8
OBJECT
 10
27.88756372056239
 20
11.26797454161184
 30
0.0
 11
27.88756372056239
 21
11.07997454161184
 31
0.0
  0
LINE
  5
3B5
  8
OBJECT
 10
28.949563720562381
 20
11.26797454161184
 30
0.0
 11
28.949563720562381
 21
11.07997454161184
 31
0.0
  0
DIMENSION
  5
3B7
  8
DIM
  2
*D9
 10
22.124801352848319
 20
13.018680297065069
 30
0.0
 11
17.624801352848319
 21
13.018680297065069
 31
0.0
 70
     0
  1
C
 13
13.124801352848319
 23
14.659826524619159
 33
0.0
 14
22.124801352848319
 24
14.659826524619159
 34
0.0
  0
DIMENSION
  5
3B8
  8
DIM
  2
*D10
 10
25.624801352848309
 20
13.018680297065069
 30
0.0
 11
23.874801352848309
 21
13.018680297065069
 31
0.0
 70
     0
  1
B
 13
22.124801352848319
 23
14.659826524619159
 33
0.0
 14
25.624801352848309
 24
14.37882652461917
 34
0.0
  0
DIMENSION
  5
3B9
  8
DIM
  2
*D7
 10
25.624801352848309
 20
9.0676825814248634
 30
0.0
 11
16.874801352848309
 21
9.0676825814248634
 31
0.0
 70
     0
  1
A
 13
8.1248013528483192
 23
9.8299745416118451
 33
0.0
 14
25.624801352848309
 24
9.8299745416118451
 34
0.0
  0
DIMENSION
  5
3BA
  8
DIM
  2
*D8
 10
3.680611467364272
 20
9.0637875777615395
 30
0.0
 11
4.4926114673642727
 21
9.0637875777615395
 31
0.0
 70
     0
  1
1.625
 13
5.3046114673642739
 23
10.17397454161185
 33
0.0
 14
3.680611467364272
 24
10.17397454161185
 34
0.0
  0
DIMENSION
  5
3BB
  8
DIM
  2
*D6
 10
6.9376562588455029
 20
9.8299745416118451
 30
0.0
 11
6.937656258845502
 21
10.45497454161185
 31
0.0
 70
     0
 13
8.1248013528483192
 23
11.07997454161184
 33
0.0
 14
8.1248013528483192
 24
9.8299745416118451
 34
0.0
 50
90.0
  0
DIMENSION
  5
3BC
  8
DIM
  2
*D0
 10
9.138899383534369
 20
14.440826524619171
 30
0.0
 11
9.138899383534369
 21
15.190826524619171
 31
0.0
 12
-0.4515506923029556
 22
-0.841316847859181
 32
0.0
 13
8.6260288975710218
 23
15.94082652461918
 33
0.0
 14
8.6260288975710218
 24
14.440826524619171
 34
0.0
 50
90.0
  0
DIMENSION
  5
3BD
  8
DIM
  2
*D1
 10
21.59380135284831
 20
16.77319927323294
 30
0.0
 11
22.124801352848309
 21
16.77319927323294
 31
0.0
 12
-0.4515506923029556
 22
-0.841316847859181
 32
0.0
 13
22.655801352848311
 23
15.721826524619161
 33
0.0
 14
21.59380135284831
 24
15.721826524619161
 34
0.0
  0
DIMENSION
  5
3BE
  8
DIM
  2
*D2
 10
23.677690549732091
 20
15.721826524619161
 30
0.0
 11
23.677690549732091
 21
15.19082652461916
 31
0.0
 12
-0.4515506923029556
 22
-0.841316847859181
 32
0.0
 13
22.655801352848311
 23
14.659826524619159
 33
0.0
 14
22.655801352848311
 24
15.721826524619161
 34
0.0
 50
90.0
  0
DIMENSION
  5
3BF
  8
DIM
  2
*D3
 10
23.678115109595819
 20
11.26797454161184
 30
0.0
 11
24.546240109595821
 21
11.987974541611839
 31
0.0
 12
-0.4515506923029556
 22
0.0
 32
0.0
 13
23.195421419578729
 23
11.07997454161184
 33
0.0
 14
22.655801352848311
 24
11.26797454161184
 34
0.0
 50
90.0
  0
LINE
  5
3C0
  8
TITLE
 10
20.924177836107479
 20
0.5399999999998736
 30
0.0
 11
0.1239999999998783
 21
0.5399999999998784
 31
0.0
  0
LINE
  5
3C1
  8
TITLE
 10
20.924177836107479
 20
0.9559999999998735
 30
0.0
 11
0.1239999999998783
 21
0.9559999999998783
 31
0.0
  0
LINE
  5
3C2
  8
TITLE
 10
20.924177836107479
 20
1.3719999999998731
 30
0.0
 11
0.1239999999998783
 21
1.371999999999878
 31
0.0
  0
LINE
  5
3C3
  8
TITLE
 10
20.924177836107479
 20
1.787999999999873
 30
0.0
 11
0.1239999999998783
 21
1.7879999999998779
 31
0.0
  0
LINE
  5
3C4
  8
TITLE
 10
20.924177836107479
 20
2.6199999999998731
 30
0.0
 11
0.1239999999998783
 21
2.619999999999878
 31
0.0
  0
POLYLINE
  5
3C5
  8
DIM
 66
     1
 10
0.0
 20
0.0
 30
0.0
 41
0.135
  0
VERTEX
  5
D80
  8
DIM
 10
13.385150055432311
 20
17.303554608277238
 30
0.0
  0
VERTEX
  5
D81
  8
DIM
 10
13.1166746627873
 20
17.5433898924706
 30
0.0
 41
0.0
  0
VERTEX
  5
D82
  8
DIM
 10
12.319805938235129
 20
18.255251173815228
 30
0.0
 41
0.0
  0
VERTEX
  5
D83
  8
DIM
 10
12.069805938235129
 20
18.255251173815228
 30
0.0
 41
0.0
  0
SEQEND
  5
D84
  8
DIM
  0
TEXT
  5
3CB
  8
DIM
 10
7.007305938235131
 20
18.130251173815228
 30
0.0
 40
0.25
  1
14 GAUGE 3 WIRE POWER CORD
 41
0.75
  7
TXT
 72
     2
 11
11.819805938235129
 21
18.130251173815228
 31
0.0
  0
TEXT
  5
3CC
  8
DIM
 10
9.819805938235131
 20
17.713584507148571
 30
0.0
 40
0.25
  1
6 FOOT LONG
 41
0.75
  7
TXT
 72
     2
 11
11.819805938235129
 21
17.713584507148571
 31
0.0
  0
POLYLINE
  5
3CD
  8
DIM
 66
     1
 10
0.0
 20
0.0
 30
0.0
 41
0.135
  0
VERTEX
  5
D85
  8
DIM
 10
15.90375222237626
 20
17.585054608277229
 30
0.0
  0
VERTEX
  5
D86
  8
DIM
 10
16.12879823391199
 20
17.866042673311789
 30
0.0
 41
0.0
  0
VERTEX
  5
D87
  8
DIM
 10
16.77646121178763
 20
18.67976731757096
 30
0.0
 41
0.0
  0
VERTEX
  5
D88
  8
DIM
 10
17.02646121178763
 20
18.67976731757096
 30
0.0
 41
0.0
  0
SEQEND
  5
D89
  8
DIM
  0
TEXT
  5
3D3
  8
DIM
 10
17.27646121178763
 20
18.55476731757096
 30
0.0
 40
0.25
  1
MOLDED ON 3-PRONG PLUG
 41
0.75
  7
TXT
  0
POLYLINE
  5
3D4
  8
DIM
 66
     1
 10
0.0
 20
0.0
 30
0.0
 41
0.135
  0
VERTEX
  5
D8A
  8
DIM
 10
10.61290578091549
 20
14.75351524494846
 30
0.0
  0
VERTEX
  5
D8B
  8
DIM
 10
10.45511095149622
 20
14.42994022766724
 30
0.0
 41
0.0
  0
VERTEX
  5
D8C
  8
DIM
 10
9.8333722437465099
 20
13.15499912950254
 30
0.0
 41
0.0
  0
VERTEX
  5
D8D
  8
DIM
 10
9.5833722437465099
 20
13.15499912950254
 30
0.0
 41
0.0
  0
SEQEND
  5
D8E
  8
DIM
  0
TEXT
  5
3DA
  8
DIM
 10
7.083372243746509
 20
13.02999912950254
 30
0.0
 40
0.25
  1
STRAIN RELIEF
 41
0.75
  7
TXT
 72
     2
 11
9.3333722437465099
 21
13.02999912950254
 31
0.0
  0
POLYLINE
  5
3DB
  8
DIM
 66
     1
 10
0.0
 20
0.0
 30
0.0
 41
0.135
  0
VERTEX
  5
D8F
  8
DIM
 10
19.1972361228766
 20
15.721826524619161
 30
0.0
  0
VERTEX
  5
D90
  8
DIM
 10
19.333060704073048
 20
16.0552207104455
 30
0.0
 41
0.0
  0
VERTEX
  5
D91
  8
DIM
 10
19.939949383977648
 20
17.5448859502843
 30
0.0
 41
0.0
  0
VERTEX
  5
D92
  8
DIM
 10
20.189949383977648
 20
17.5448859502843
 30
0.0
 41
0.0
  0
SEQEND
  5
D93
  8
DIM
  0
TEXT
  5
3E1
  8
DIM
 10
20.439949383977648
 20
17.4198859502843
 30
0.0
 40
0.25
  1
GROUNDING TYPE 15 AMP 125 VOLT RECEPTACLE
 41
0.75
  7
TXT
  0
POLYLINE
  5
3E2
  8
DIM
 66
     1
 10
0.0
 20
0.0
 30
0.0
 41
0.135
  0
VERTEX
  5
D94
  8
DIM
 10
4.748861332718409
 20
10.62597454161185
 30
0.0
  0
VERTEX
  5
D95
  8
DIM
 10
4.92876883564315
 20
10.93779707189371
 30
0.0
 41
0.0
  0
VERTEX
  5
D96
  8
DIM
 10
6.1614357261246147
 20
13.412626306041309
 30
0.0
 41
0.0
  0
VERTEX
  5
D97
  8
DIM
 10
5.577893836914388
 20
13.412626306041309
 30
0.0
 41
0.0
  0
SEQEND
  5
D98
  8
DIM
  0
TEXT
  5
3E8
  8
DIM
 10
0.343925464023993
 20
13.2876263060413
 30
0.0
 40
0.25
  1
CIRCUIT BREAKER THERMAL TYPE
 41
0.75
  7
TXT
  0
TEXT
  5
3E9
  8
DIM
 10
2.7168530192240432
 20
12.870959639374639
 30
0.0
 40
0.25
  1
15 AMP 125 VOLT
 41
0.75
  7
TXT
  0
TEXT
  5
3EA
  8
DIM
 10
3.5802343679683122
 20
12.45429297270797
 30
0.0
 40
0.25
  1
WITH RESET
 41
0.75
  7
TXT
  0
TEXT
  5
3EB
  8
TEXT
 10
0.64857317259185
 20
7.5056045486917
 30
0.0
 40
0.25
  1
%%UMATERIAL:
 41
0.75
  7
TXT
  0
TEXT
  5
3EC
  8
TEXT
 10
0.8879444529212343
 20
7.0889378820250331
 30
0.0
 40
0.25
  1
HOUSING (TOP & BOTTOM CHANNELS) -
 41
0.75
  7
TXT
  0
TEXT
  5
3ED
  8
TEXT
 10
1.1850297573616551
 20
6.6722712153583661
 30
0.0
 40
0.25
  1
ALUMINUM EXTRUSIONS
 41
0.75
  7
TXT
  0
TEXT
  5
3EE
  8
TEXT
 10
0.8879444529212343
 20
6.2556045486917
 30
0.0
 40
0.25
  1
END CAPS - ABS PLASTIC
 41
0.75
  7
TXT
  0
TEXT
  5
3EF
  8
TEXT
 10
0.6485731725918502
 20
4.9105964249741314
 30
0.0
 40
0.25
  1
%%UFINISH:
 41
0.75
  7
TXT
  0
TEXT
  5
3F0
  8
TEXT
 10
0.8879444529212343
 20
4.4939297583074644
 30
0.0
 40
0.25
  1
HOUSING - GREY
 41
0.75
  7
TXT
  0
TEXT
  5
3F1
  8
TEXT
 10
0.8879444529212343
 20
4.0772630916407966
 30
0.0
 40
0.25
  1
RECEPTACLES, POWER CORD & END
 41
0.75
  7
TXT
  0
TEXT
  5
3F2
  8
TEXT
 10
1.1850297573616551
 20
3.6605964249741301
 30
0.0
 40
0.25
  1
CAPS - BLACK
 41
0.75
  7
TXT
  0
TEXT
  5
3F3
  8
TEXT
 10
5.8628705363870992
 20
19.547340248839561
 30
0.0
 40
0.375
  1
POWER OUTLET STRIP
 41
0.75
  7
TXT
 72
     1
 11
8.3472455363870992
 21
19.547340248839561
 31
0.0
  0
TEXT
  5
3F4
  8
TEXT
 10
21.92034945823934
 20
19.547340248839561
 30
0.0
 40
0.375
  1
POS-4  TO  POS-11
 41
0.75
  7
TXT
 72
     1
 11
24.17034945823934
 21
19.547340248839561
 31
0.0
  0
TEXT
  5
3F5
  8
TEXT
 10
1.0641190758552459
 20
2.0757609627676281
 30
0.0
 40
0.25
  1
PART NO.
 41
0.75
  7
TXT
 72
     1
 11
1.7203690758552459
 21
2.0757609627676281
 31
0.0
  0
TEXT
  5
3F6
  8
TEXT
 10
1.192040447746072
 20
1.4519438514228311
 30
0.0
 40
0.25
  1
POS-4
 41
0.75
  7
TXT
 72
     1
 11
1.629540447746072
 21
1.4519438514228311
 31
0.0
  0
TEXT
  5
3F7
  8
TEXT
 10
1.192040447746072
 20
1.0352771847561639
 30
0.0
 40
0.25
  1
POS-7
 41
0.75
  7
TXT
 72
     1
 11
1.629540447746072
 21
1.0352771847561639
 31
0.0
  0
TEXT
  5
3F8
  8
TEXT
 10
1.192040447746072
 20
0.6186105180894981
 30
0.0
 40
0.25
  1
POS-9
 41
0.75
  7
TXT
 72
     1
 11
1.629540447746072
 21
0.6186105180894981
 31
0.0
  0
TEXT
  5
3F9
  8
TEXT
 10
1.160790447746072
 20
0.2019438514228315
 30
0.0
 40
0.25
  1
POS-11
 41
0.75
  7
TXT
 72
     1
 11
1.629540447746072
 21
0.2019438514228315
 31
0.0
  0
TEXT
  5
3FA
  8
TEXT
 10
4.270935574392082
 20
1.4505260589674249
 30
0.0
 40
0.25
  1
(4)
 41
0.75
  7
TXT
 72
     1
 11
4.458435574392082
 21
1.4505260589674249
 31
0.0
  0
TEXT
  5
3FB
  8
TEXT
 10
4.270935574392082
 20
1.0338593923007591
 30
0.0
 40
0.25
  1
(7)
 41
0.75
  7
TXT
 72
     1
 11
4.458435574392082
 21
1.0338593923007591
 31
0.0
  0
TEXT
  5
3FC
  8
TEXT
 10
4.270935574392082
 20
0.6171927256340926
 30
0.0
 40
0.25
  1
(9)
 41
0.75
  7
TXT
 72
     1
 11
4.458435574392082
 21
0.6171927256340926
 31
0.0
  0
TEXT
  5
3FD
  8
TEXT
 10
4.239685574392082
 20
0.2005260589674258
 30
0.0
 40
0.25
  1
(11)
 41
0.75
  7
TXT
 72
     1
 11
4.458435574392082
 21
0.2005260589674258
 31
0.0
  0
TEXT
  5
3FE
  8
TEXT
 10
3.895935574392082
 20
2.259264096409443
 30
0.0
 40
0.25
  1
QTY. OF
 41
0.75
  7
TXT
 72
     1
 11
4.458435574392082
 21
2.259264096409443
 31
0.0
  0
TEXT
  5
3FF
  8
TEXT
 10
3.833435574392082
 20
1.8946215140226721
 30
0.0
 40
0.25
  1
OUTLETS
 41
0.75
  7
TXT
 72
     1
 11
4.458435574392082
 21
1.8946215140226721
 31
0.0
  0
TEXT
  5
400
  8
TEXT
 10
6.3700373483010031
 20
1.452417843850331
 30
0.0
 40
0.25
  1
17.688
 41
0.75
  7
TXT
 72
     1
 11
6.8075373483010031
 21
1.452417843850331
 31
0.0
  0
TEXT
  5
401
  8
TEXT
 10
6.3700373483010031
 20
1.0357511771836641
 30
0.0
 40
0.25
  1
48.188
 41
0.75
  7
TXT
 72
     1
 11
6.8075373483010031
 21
1.0357511771836641
 31
0.0
  0
TEXT
  5
402
  8
TEXT
 10
6.3856623483010031
 20
0.6190845105169979
 30
0.0
 40
0.25
  1
60.188
 41
0.75
  7
TXT
 72
     1
 11
6.8075373483010031
 21
0.6190845105169979
 31
0.0
  0
TEXT
  5
403
  8
TEXT
 10
6.3700373483010031
 20
0.2024178438503312
 30
0.0
 40
0.25
  1
72.188
 41
0.75
  7
TXT
 72
     1
 11
6.8075373483010031
 21
0.2024178438503312
 31
0.0
  0
TEXT
  5
404
  8
TEXT
 10
6.7601754529858651
 20
2.0757609627676281
 30
0.0
 40
0.25
  1
A
 41
0.75
  7
TXT
 72
     1
 11
6.8226754529858651
 21
2.0757609627676281
 31
0.0
  0
TEXT
  5
405
  8
TEXT
 10
8.8467483417955979
 20
1.452417843850331
 30
0.0
 40
0.25
  1
3.500
 41
0.75
  7
TXT
 72
     1
 11
9.1904983417955979
 21
1.452417843850331
 31
0.0
  0
TEXT
  5
406
  8
TEXT
 10
8.8623733417955979
 20
0.2024178438503312
 30
0.0
 40
0.25
  1
7.000
 41
0.75
  7
TXT
 72
     1
 11
9.1904983417955979
 21
0.2024178438503312
 31
0.0
  0
TEXT
  5
407
  8
TEXT
 10
8.8623733417955979
 20
0.619084510516998
 30
0.0
 40
0.25
  1
7.000
 41
0.75
  7
TXT
 72
     1
 11
9.1904983417955979
 21
0.619084510516998
 31
0.0
  0
TEXT
  5
408
  8
TEXT
 10
8.8623733417955979
 20
1.0357511771836641
 30
0.0
 40
0.25
  1
7.000
 41
0.75
  7
TXT
 72
     1
 11
9.1904983417955979
 21
1.0357511771836641
 31
0.0
  0
TEXT
  5
409
  8
TEXT
 10
9.1431364464804599
 20
2.0757609627676281
 30
0.0
 40
0.25
  1
B
 41
0.75
  7
TXT
 72
     1
 11
9.2056364464804599
 21
2.0757609627676281
 31
0.0
  0
TEXT
  5
40A
  8
TEXT
 10
11.127253046891621
 20
1.4467424892016141
 30
0.0
 40
0.25
  1
(3) SPACES @ 3.000 = 9.000
 41
0.75
  7
TXT
 72
     1
 11
13.252253046891621
 21
1.4467424892016141
 31
0.0
  0
TEXT
  5
40B
  8
TEXT
 10
11.033503046891621
 20
1.030075822534948
 30
0.0
 40
0.25
  1
(6) SPACES @ 6.000 = 36.000
 41
0.75
  7
TXT
 72
     1
 11
13.252253046891621
 21
1.030075822534948
 31
0.0
  0
TEXT
  5
40C
  8
TEXT
 10
11.033503046891621
 20
0.6134091558682817
 30
0.0
 40
0.25
  1
(8) SPACES @ 6.000 = 48.000
 41
0.75
  7
TXT
 72
     1
 11
13.252253046891621
 21
0.6134091558682817
 31
0.0
  0
TEXT
  5
40D
  8
TEXT
 10
11.002253046891621
 20
0.196742489201615
 30
0.0
 40
0.25
  1
(10) SPACES @ 6.000 = 60.000
 41
0.75
  7
TXT
 72
     1
 11
13.252253046891621
 21
0.196742489201615
 31
0.0
  0
TEXT
  5
40E
  8
TEXT
 10
13.137715812037399
 20
2.0757609627676281
 30
0.0
 40
0.25
  1
C
 41
0.75
  7
TXT
 72
     1
 11
13.200215812037399
 21
2.0757609627676281
 31
0.0
  0
TEXT
  5
410
  8
TEXT
 10
17.09568034530119
 20
1.4505260589674249
 30
0.0
 40
0.25
  1
3.000
 41
0.75
  7
TXT
 72
     1
 11
17.42380534530119
 21
1.4505260589674249
 31
0.0
  0
TEXT
  5
411
  8
TEXT
 10
17.09568034530119
 20
0.2005260589674258
 30
0.0
 40
0.25
  1
6.000
 41
0.75
  7
TXT
 72
     1
 11
17.42380534530119
 21
0.2005260589674258
 31
0.0
  0
TEXT
  5
412
  8
TEXT
 10
17.09568034530119
 20
0.6171927256340926
 30
0.0
 40
0.25
  1
6.000
 41
0.75
  7
TXT
 72
     1
 11
17.42380534530119
 21
0.6171927256340926
 31
0.0
  0
TEXT
  5
413
  8
TEXT
 10
17.09568034530119
 20
1.0338593923007591
 30
0.0
 40
0.25
  1
6.000
 41
0.75
  7
TXT
 72
     1
 11
17.42380534530119
 21
1.0338593923007591
 31
0.0
  0
CIRCLE
  5
416
  8
OBJECT
 10
28.418563720562389
 20
3.7410869183567281
 30
0.0
 40
0.183
  0
LINE
  5
418
  8
OBJECT
 10
27.59056372056239
 20
4.5535869183567277
 30
0.0
 11
29.246563720562381
 21
4.5535869183567277
 31
0.0
  0
LINE
  5
419
  8
OBJECT
 10
29.246563720562381
 20
2.9285869183567281
 30
0.0
 11
27.59056372056239
 21
2.9285869183567281
 31
0.0
  0
LINE
  5
41A
  8
OBJECT
 10
27.59056372056239
 20
1.9843824088826409
 30
0.0
 11
29.246563720562381
 21
1.9843824088826409
 31
0.0
  0
LINE
  5
41B
  8
OBJECT
 10
29.246563720562381
 20
1.9843824088826409
 30
0.0
 11
29.21937112882512
 21
2.2951951546872671
 31
0.0
  0
LINE
  5
41C
  8
OBJECT
 10
29.202185453252529
 20
2.2862488582427072
 30
0.0
 11
29.135857052958539
 21
2.34190499446597
 31
0.0
  0
LINE
  5
41D
  8
OBJECT
 10
29.22717174767136
 20
2.0006542061833019
 30
0.0
 11
29.202185453252529
 21
2.2862488582427072
 31
0.0
  0
LINE
  5
41E
  8
OBJECT
 10
27.608463720562391
 20
2.0022824088826421
 30
0.0
 11
29.228663720562391
 21
2.0022824088826421
 31
0.0
  0
LINE
  5
41F
  8
OBJECT
 10
28.309563720562391
 20
1.89038240888264
 30
0.0
 11
28.527563720562391
 21
1.89038240888264
 31
0.0
  0
LINE
  5
420
  8
OBJECT
 10
28.309563720562391
 20
1.89038240888264
 30
0.0
 11
28.227850767207659
 21
1.9843824088826409
 31
0.0
  0
LINE
  5
421
  8
OBJECT
 10
28.527563720562391
 20
1.89038240888264
 30
0.0
 11
28.609276673917108
 21
1.9843824088826409
 31
0.0
  0
LINE
  5
422
  8
HIDDEN
 10
28.519406220588351
 20
1.9082824088826409
 30
0.0
 11
28.601119173943079
 21
2.0022824088826421
 31
0.0
  0
LINE
  5
423
  8
HIDDEN
 10
28.31772122053642
 20
1.9082824088826409
 30
0.0
 11
28.519406220588351
 21
1.9082824088826409
 31
0.0
  0
LINE
  5
424
  8
HIDDEN
 10
28.31772122053642
 20
1.9082824088826409
 30
0.0
 11
28.236008267181699
 21
2.0022824088826421
 31
0.0
  0
CIRCLE
  5
425
  8
OBJECT
 10
28.418563720562389
 20
3.7410869183567281
 30
0.0
 40
0.0935
  0
LINE
  5
426
  8
OBJECT
 10
27.59056372056239
 20
4.5535869183567277
 30
0.0
 11
27.59056372056239
 21
2.9285869183567281
 31
0.0
  0
LINE
  5
427
  8
OBJECT
 10
29.21937112882512
 20
2.2951951546872671
 30
0.0
 11
29.147362951171932
 21
2.3556171899978011
 31
0.0
  0
LINE
  5
428
  8
OBJECT
 10
29.135857052958539
 20
2.34190499446597
 30
0.0
 11
29.147362951171932
 21
2.3556171899978011
 31
0.0
  0
LINE
  5
429
  8
OBJECT
 10
27.701270388166229
 20
2.34190499446597
 30
0.0
 11
27.689764489952839
 21
2.3556171899978011
 31
0.0
  0
LINE
  5
42A
  8
OBJECT
 10
27.634941987872239
 20
2.2862488582427072
 30
0.0
 11
27.701270388166229
 21
2.34190499446597
 31
0.0
  0
LINE
  5
42B
  8
OBJECT
 10
27.617756312299662
 20
2.2951951546872671
 30
0.0
 11
27.689764489952839
 21
2.3556171899978011
 31
0.0
  0
LINE
  5
42C
  8
OBJECT
 10
27.609955693453411
 20
2.0006542061833019
 30
0.0
 11
27.634941987872239
 21
2.2862488582427072
 31
0.0
  0
LINE
  5
42D
  8
OBJECT
 10
27.59056372056239
 20
1.9843824088826409
 30
0.0
 11
27.617756312299662
 21
2.2951951546872671
 31
0.0
  0
LINE
  5
42E
  8
OBJECT
 10
27.689764489952839
 20
3.0535869183567281
 30
0.0
 11
27.689764489952839
 21
4.4285869183567321
 31
0.0
  0
LINE
  5
42F
  8
OBJECT
 10
27.701270388166229
 20
3.0535869183567281
 30
0.0
 11
27.701270388166229
 21
4.4285869183567321
 31
0.0
  0
ARC
  5
430
  8
OBJECT
 10
27.575347682445749
 20
3.0535869183567281
 30
0.0
 40
0.1259227057204804
 50
276.94037223058979
 51
0.0
  0
ARC
  5
431
  8
OBJECT
 10
27.561409675750621
 20
3.0535869183567281
 30
0.0
 40
0.1283548142022188
 50
283.12853547263148
 51
0.0
  0
ARC
  5
432
  8
OBJECT
 10
27.561409675750621
 20
4.4285869183567321
 30
0.0
 40
0.1283548142022188
 50
0.0
 51
76.871464527368474
  0
ARC
  5
433
  8
OBJECT
 10
27.575347682445749
 20
4.4285869183567321
 30
0.0
 40
0.1259227057204804
 50
0.0
 51
83.05962776941017
  0
LINE
  5
434
  8
OBJECT
 10
29.135857052958539
 20
3.0535869183567281
 30
0.0
 11
29.135857052958539
 21
4.4285869183567321
 31
0.0
  0
LINE
  5
435
  8
OBJECT
 10
29.147362951171932
 20
3.0535869183567281
 30
0.0
 11
29.147362951171932
 21
4.4285869183567321
 31
0.0
  0
LINE
  5
436
  8
OBJECT
 10
29.246563720562381
 20
4.5535869183567277
 30
0.0
 11
29.246563720562381
 21
2.9285869183567281
 31
0.0
  0
ARC
  5
437
  8
OBJECT
 10
29.261779758679019
 20
3.0535869183567281
 30
0.0
 40
0.1259227057204804
 50
180.0
 51
263.0596277694101
  0
ARC
  5
438
  8
OBJECT
 10
29.27571776537415
 20
3.0535869183567281
 30
0.0
 40
0.1283548142022188
 50
180.0
 51
256.8714645273684
  0
ARC
  5
439
  8
OBJECT
 10
29.261779758679019
 20
4.4285869183567321
 30
0.0
 40
0.1259227057204804
 50
96.940372230589844
 51
180.0
  0
ARC
  5
43A
  8
OBJECT
 10
29.27571776537415
 20
4.4285869183567321
 30
0.0
 40
0.1283548142022188
 50
103.1285354726315
 51
180.0
  0
LINE
  5
43B
  8
HIDDEN
 10
29.22717174767136
 20
2.9285869183567281
 30
0.0
 11
29.22717174767136
 21
4.5535869183567277
 31
0.0
  0
LINE
  5
43C
  8
HIDDEN
 10
27.609955693453411
 20
2.9285869183567281
 30
0.0
 11
27.609955693453411
 21
4.5535869183567277
 31
0.0
  0
TEXT
  5
43D
  8
TEXT
 10
0.8879444529212343
 20
5.8508545486917001
 30
0.0
 40
0.25
  1
MTG. CLIPS - 26 GA. SPRING STEEL
 41
0.75
  7
TXT
  0
TEXT
  5
43E
  8
TEXT
 10
0.8854752440402853
 20
3.2558464249741301
 30
0.0
 40
0.25
  1
MTG. CLIPS - CADMIUM PLATED
 41
0.75
  7
TXT
  0
LINE
  5
43F
  8
TITLE
 10
3.2671034675533681
 20
0.123999999999878
 30
0.0
 11
3.267103467553369
 21
2.6199999999998771
 31
0.0
  0
LINE
  5
440
  8
TITLE
 10
5.6247084335085971
 20
0.123999999999878
 30
0.0
 11
5.6247084335085979
 21
2.6199999999998771
 31
0.0
  0
LINE
  5
441
  8
TITLE
 10
7.9823133994638269
 20
0.1239999999998775
 30
0.0
 11
7.9823133994638278
 21
2.6199999999998771
 31
0.0
  0
LINE
  5
442
  8
TITLE
 10
10.339918365419059
 20
0.1239999999998771
 30
0.0
 11
10.339918365419059
 21
2.6199999999998771
 31
0.0
  0
LINE
  5
443
  8
TITLE
 10
16.208967904197021
 20
0.1239999999998771
 30
0.0
 11
16.208967904197021
 21
2.6199999999998771
 31
0.0
  0
LINE
  5
444
  8
TITLE
 10
18.56657287015225
 20
0.1239999999998753
 30
0.0
 11
18.56657287015225
 21
2.6199999999998749
 31
0.0
  0
DIMENSION
  5
445
  8
DIM
  2
*D5
 10
26.768052371597982
 20
2.9285869183567281
 30
0.0
 11
26.768052371597982
 21
3.741086918356733
 31
0.0
 70
     0
 13
27.59056372056239
 23
4.5535869183567277
 33
0.0
 14
27.59056372056239
 24
2.9285869183567281
 34
0.0
 50
90.0
  0
DIMENSION
  5
446
  8
DIM
  2
*D4
 10
29.246563720562381
 20
1.2849859374557759
 30
0.0
 11
28.418563720562389
 21
1.2849859374557759
 31
0.0
 12
0.683402219337939
 22
0.5124415218857881
 32
0.0
 13
27.59056372056239
 23
1.9843824088826409
 33
0.0
 14
29.246563720562381
 24
1.9843824088826409
 34
0.0
  0
TEXT
  5
447
  8
TEXT
 10
26.665167894333969
 20
0.4675197001617806
 30
0.0
 40
0.25
  1
%%UMOUNTING CLIP DETAIL
 41
0.75
  7
TXT
 72
     1
 11
28.41829289433397
 21
0.4675197001617806
 31
0.0
  0
TEXT
  5
4AA
  8
DIM
 10
17.27646121178763
 20
18.17702989731788
 30
0.0
 40
0.25
  1
15 AMP 125 VOLT
 41
0.75
  7
TXT
  0
TEXT
  5
4AB
  8
DIM
 10
26.382019466149568
 20
12.06120922694295
 30
0.0
 40
0.25
  1
HOUSING
 41
0.75
  7
TXT
  0
POLYLINE
  5
4AC
  8
DIM
 66
     1
 10
0.0
 20
0.0
 30
0.0
 41
0.135
  0
VERTEX
  5
D99
  8
DIM
 10
25.0093104767382
 20
11.091496517649221
 30
0.0
  0
VERTEX
  5
D9A
  8
DIM
 10
25.234356488273932
 20
11.37248458268377
 30
0.0
 41
0.0
  0
VERTEX
  5
D9B
  8
DIM
 10
25.882019466149568
 20
12.18620922694295
 30
0.0
 41
0.0
  0
VERTEX
  5
D9C
  8
DIM
 10
26.132019466149568
 20
12.18620922694295
 30
0.0
 41
0.0
  0
SEQEND
  5
D9D
  8
DIM
  0
ARC
  5
CF1
  8
OBJECT
 10
18.00103785723114
 20
17.116054608277238
 30
0.0
 40
0.2149999999999892
 50
134.31452864577469
 51
225.6854713542258
  0
LINE
  5
CF2
  8
OBJECT
 10
17.85083955746089
 20
17.269890464780591
 30
0.0
 11
18.15090026626817
 21
17.53185602765458
 31
0.0
  0
LINE
  5
CF3
  8
OBJECT
 10
18.66103785723115
 20
16.64705460827723
 30
0.0
 11
18.66103785723115
 21
17.585054608277229
 31
0.0
  0
LINE
  5
CF4
  8
OBJECT
 10
18.66103785723115
 20
16.64705460827723
 30
0.0
 11
18.28153785723115
 21
16.64705460827723
 31
0.0
  0
LINE
  5
CF5
  8
OBJECT
 10
18.317037857231149
 20
17.351054608277241
 30
0.0
 11
18.317037857231149
 21
17.397054608277241
 31
0.0
  0
LINE
  5
CF6
  8
OBJECT
 10
18.567037857231139
 20
17.397054608277241
 30
0.0
 11
18.567037857231139
 21
17.351054608277241
 31
0.0
  0
LINE
  5
CF7
  8
OBJECT
 10
18.567037857231139
 20
17.351054608277241
 30
0.0
 11
18.317037857231149
 21
17.351054608277241
 31
0.0
  0
LINE
  5
CF8
  8
OBJECT
 10
18.567037857231139
 20
17.397054608277241
 30
0.0
 11
18.317037857231149
 21
17.397054608277241
 31
0.0
  0
CIRCLE
  5
CF9
  8
OBJECT
 10
18.00103785723114
 20
17.116054608277238
 30
0.0
 40
0.0935
  0
LINE
  5
CFA
  8
OBJECT
 10
18.567037857231139
 20
16.835054608277218
 30
0.0
 11
18.317037857231149
 21
16.835054608277218
 31
0.0
  0
LINE
  5
CFB
  8
OBJECT
 10
18.567037857231139
 20
16.881054608277228
 30
0.0
 11
18.317037857231149
 21
16.881054608277228
 31
0.0
  0
LINE
  5
CFC
  8
OBJECT
 10
18.567037857231139
 20
16.835054608277218
 30
0.0
 11
18.567037857231139
 21
16.881054608277228
 31
0.0
  0
LINE
  5
CFD
  8
OBJECT
 10
18.317037857231149
 20
16.881054608277228
 30
0.0
 11
18.317037857231149
 21
16.835054608277218
 31
0.0
  0
ARC
  5
CFE
  8
OBJECT
 10
18.28153785723115
 20
16.834054608277231
 30
0.0
 40
0.187
 50
225.6854713542258
 51
270.0
  0
LINE
  5
CFF
  8
OBJECT
 10
17.85083955746089
 20
16.962218751773872
 30
0.0
 11
18.15090026626817
 21
16.700253188899879
 31
0.0
  0
LINE
  5
D00
  8
OBJECT
 10
18.66103785723115
 20
17.585054608277229
 30
0.0
 11
18.28153785723115
 21
17.585054608277229
 31
0.0
  0
ARC
  5
D01
  8
OBJECT
 10
18.28153785723115
 20
17.398054608277238
 30
0.0
 40
0.187
 50
90.0
 51
134.31452864577409
  0
DIMENSION
  5
D1A
  8
DIM
  2
*D11
 10
16.124801352848309
 20
13.61428779822835
 30
0.0
 11
14.624801352848319
 21
13.61428779822835
 31
0.0
 70
     0
  1
D
 13
13.124801352848319
 23
14.659826524619159
 33
0.0
 14
16.124801352848309
 24
14.659826524619159
 34
0.0
  0
TEXT
  5
D32
  8
DIM
 10
14.957910845792171
 20
13.772698907472529
 30
0.0
 40
0.25
  1
TYP.
 41
0.75
  7
TXT
  0
LINE
  5
D63
  8
TITLE
 10
20.924177836107479
 20
0.1239999999998748
 30
0.0
 11
20.924177836107479
 21
2.619999999999874
 31
0.0
  0
TEXT
  5
D64
  8
TEXT
 10
19.593910311256419
 20
1.4505260589674249
 30
0.0
 40
0.25
  1
(2)
 41
0.75
  7
TXT
 72
     1
 11
19.781410311256419
 21
1.4505260589674249
 31
0.0
  0
TEXT
  5
D65
  8
TEXT
 10
19.593910311256419
 20
0.2005260589674252
 30
0.0
 40
0.25
  1
(3)
 41
0.75
  7
TXT
 72
     1
 11
19.781410311256419
 21
0.2005260589674252
 31
0.0
  0
TEXT
  5
D66
  8
TEXT
 10
19.593910311256419
 20
1.033859392300758
 30
0.0
 40
0.25
  1
(2)
 41
0.75
  7
TXT
 72
     1
 11
19.781410311256419
 21
1.033859392300758
 31
0.0
  0
TEXT
  5
D67
  8
TEXT
 10
19.593910311256419
 20
0.6171927256340921
 30
0.0
 40
0.25
  1
(3)
 41
0.75
  7
TXT
 72
     1
 11
19.781410311256419
 21
0.6171927256340921
 31
0.0
  0
TEXT
  5
D68
  8
TEXT
 10
19.218910311256419
 20
2.2592640964094421
 30
0.0
 40
0.25
  1
QTY. OF
 41
0.75
  7
TXT
 72
     1
 11
19.781410311256419
 21
2.2592640964094421
 31
0.0
  0
TEXT
  5
D69
  8
TEXT
 10
18.968910311256419
 20
1.894621514022671
 30
0.0
 40
0.25
  1
MTG. CLIPS
 41
0.75
  7
TXT
 72
     1
 11
19.781410311256419
 21
1.894621514022671
 31
0.0
  0
TEXT
  5
D6A
  8
TEXT
 10
17.369790951213648
 20
2.0757609627676259
 30
0.0
 40
0.25
  1
D
 41
0.75
  7
TXT
 72
     1
 11
17.432290951213648
 21
2.0757609627676259
 31
0.0
  0
ENDSEC
  0
EOF
